<?xml version="1.0" standalone="no"?>
<!DOCTYPE svg PUBLIC "-//W3C//DTD SVG 1.1//EN" "http://www.w3.org/Graphics/SVG/1.1/DTD/svg11.dtd" >
<svg xmlns="http://www.w3.org/2000/svg" xmlns:xlink="http://www.w3.org/1999/xlink" version="1.1">
<metadata></metadata>
<defs>
<font id="rainy_windregular" horiz-adv-x="1024" >
<font-face units-per-em="2048" ascent="1536" descent="-512" />
<missing-glyph horiz-adv-x="500" />
<glyph horiz-adv-x="0" />
<glyph unicode="&#xd;" />
<glyph unicode=" " />
<glyph unicode="!" horiz-adv-x="823" d="M258 86q0 -39 34 -58.5t66 -13.5l123 62q4 4 7.5 17t3.5 24q0 4 -3.5 14t-8.5 20.5t-10 18.5t-9 8l-31 -10l10 20l-10 11q-2 0 -20.5 -7.5t-42 -17.5t-46 -20.5t-32.5 -16.5q-25 -14 -28 -25.5t-3 -25.5zM346 358q0 16 16.5 34t26.5 34q8 88 38 175t52 179 q29 129 52.5 260t48.5 265q2 18 3 46.5t1 57.5v56.5t2 45.5q12 16 26.5 25.5t30.5 26.5q12 -4 15.5 -7t13.5 5q-4 -12 -2 -23.5t2 -26.5q-2 -29 -3 -70.5t-7 -78.5q-20 -115 -40 -224.5t-47 -219.5q-4 -8 -3 -15.5t-1 -13.5q-6 -16 -9 -38t-11 -44q-12 -33 -22.5 -70 t-20.5 -75q-8 -31 -14.5 -66t-15.5 -67.5t-21.5 -61.5t-32.5 -45q2 -6 12 -3t15 -3q-29 -47 -105 -58z" />
<glyph unicode="&#x26;" horiz-adv-x="1173" d="M49 264q0 109 46 207t108 184q12 14 45 56.5t70.5 89.5t71.5 90t50 63q31 39 72 78t77 81t61.5 89t25.5 103q0 12 -2 27.5t-8.5 29.5t-16.5 24.5t-24 10.5q-23 0 -48.5 -6.5t-47 -17.5t-35 -28.5t-13.5 -39.5q0 -8 2 -20.5t6.5 -23t9.5 -14.5t13 4q0 -8 5 -20t5 -21v-10 q0 -31 -20.5 -41t-50.5 -10q-39 0 -50.5 30.5t-11.5 61.5q0 43 27.5 85t67.5 76t86 55.5t85 21.5q47 0 75 -28t28 -75q0 -61 -21.5 -110t-60.5 -97q-23 -31 -41.5 -65.5t-40.5 -56.5q-61 -70 -143 -160t-155 -189.5t-124 -203t-51 -199.5q0 -66 30.5 -113t80 -76.5 t109.5 -44t120 -14.5q23 0 56.5 -3t55.5 13l164 82l-123 135q-39 0 -76.5 -20.5t-76.5 -20.5t-76 11.5t-66.5 33t-47 51t-17.5 68.5q0 92 47 188.5t123 173.5t169 126t185 49h72q43 -12 80 -42t65.5 -69t45 -86t16.5 -92q0 -61 -15.5 -125.5t-42 -125t-65.5 -115t-84 -97.5 q0 -29 29.5 -48t70.5 -31.5t83 -18.5t65 -6t51.5 1t50.5 9l123 62l10 -11l-20 -41l-92 -61q-47 -31 -94.5 -36t-100.5 -5q-72 0 -136.5 29.5t-111.5 83.5h-10q-47 -27 -90 -52.5t-87 -46t-91 -33t-101 -12.5q-70 0 -133 19.5t-111.5 56.5t-77 93t-28.5 130zM326 449 q0 -35 16 -59.5t41 -41t56.5 -25t62.5 -8.5q16 0 43.5 4.5t27.5 26.5q0 47 -20.5 92t-20.5 92q0 31 8.5 71t26 75t44 58.5t65.5 23.5q27 0 49.5 -15.5t38.5 -39t25.5 -50t9.5 -49.5q0 -72 -36 -133.5t-67 -114.5q0 -16 12.5 -38.5t29 -44t36 -39t35.5 -21.5q23 -4 54.5 37 t60 93t49 97t20.5 49v64q0 57 -15 109.5t-46 91.5t-77 62.5t-107 23.5q-78 0 -153 -31t-135.5 -84t-97 -124t-36.5 -152zM592 629.5q0 -11.5 1 -21.5t1 -14q0 -12 4 -44t11 -65.5t18.5 -60.5t27.5 -27q23 0 39.5 16.5t25.5 40t13 48t4 41.5q0 47 -27.5 85t-74.5 38h-31 q-8 -4 -10 -14.5t-2 -22z" />
<glyph unicode="'" horiz-adv-x="507" d="M219 1136q-4 7 2 22.5t17.5 31.5t15.5 27q18 63 22.5 99t1 54.5t-11.5 24.5t-13 10t-5 13t10 32q23 20 56.5 39.5t68.5 -0.5q8 -31 9 -53.5t-4 -42t-14 -40t-22 -50.5q-14 -35 -46 -86.5t-56 -79.5q-27 -8 -31 -1z" />
<glyph unicode="," horiz-adv-x="821" d="M319 -183q-4 7 2.5 22.5t17.5 31.5t15 27q18 63 22.5 99t1.5 54.5t-11.5 24.5t-13.5 10t-5 13.5t10 31.5q23 20 56.5 39.5t68.5 -0.5q8 -31 9.5 -53.5t-4 -42t-14.5 -40t-21 -50.5q-14 -35 -46 -86.5t-57 -79.5q-27 -8 -31 -1z" />
<glyph unicode="." horiz-adv-x="823" d="M342 111q0 14 3 25t28 26q10 6 32.5 16t46 20.5t42 17.5t20.5 7l10 -10l-10 -20l31 10q4 0 9 -8.5t10 -18.5t8 -20.5t3 -14.5q0 -10 -3 -23.5t-7 -17.5l-123 -61q-33 -6 -66.5 13.5t-33.5 58.5z" />
<glyph unicode="0" horiz-adv-x="937" d="M45 430v123q0 31 10.5 61.5t23.5 60.5t26.5 58.5t21.5 54.5q0 4 2 15.5t3 26t3 25.5t2 15l10 21q47 53 87 112.5t88 112.5q23 31 43 61.5t44.5 56.5t54.5 41t73 15h30q-53 -53 -116.5 -123.5t-108.5 -132.5q0 -4 -6 -14t-14.5 -21.5t-14.5 -21.5t-6 -14t-3 -9.5t-7 -9.5 q-6 -6 -10 -12l-31 -31q-8 -18 -13.5 -46t-11.5 -54.5t-17 -49t-30 -34.5q-16 -53 -23.5 -112.5t-7.5 -112.5q0 -61 10.5 -138.5t38 -144t78 -112.5t129.5 -46q8 0 20.5 1t20.5 9q27 31 59 62t62.5 63.5t58 67.5t46.5 74q31 57 50 130.5t31.5 151.5t16.5 154t4 137 q0 31 -1 65.5t-9 67.5t-24.5 59.5t-47.5 43.5q12 12 5 19t-20 12.5t-27.5 7.5t-18.5 2q-27 0 -43.5 -17.5t-30.5 -39t-31.5 -39t-48.5 -17.5q-8 0 -9 11t-1 20q0 39 23.5 64.5t58.5 41t73.5 21.5t69.5 6q23 0 37 -4t14 -27h21q12 -16 22 -29q10 -12 20.5 -23t18.5 -20 q23 -31 34 -72.5t16.5 -85.5t6.5 -86t5 -73l10 -31v-10q0 -47 -11.5 -81t-19.5 -73q-16 -47 -25.5 -97t-25.5 -97q-27 -70 -81 -142.5t-124.5 -132t-150.5 -97.5t-156 -38q-80 0 -130 43t-77.5 105.5t-38 136.5t-10.5 135zM723 1177.5q0 -10.5 8 -10.5t8 10.5t-8 10.5 t-8 -10.5zM743.5 512q-0.5 -10 8.5 -10q8 0 8 10t-8 10t-8.5 -10z" />
<glyph unicode="1" horiz-adv-x="671" d="M-25 690v10l52 52q53 27 100 52t91 53t87 59.5t90 70.5q12 12 21.5 29.5t18.5 37t16.5 37t15.5 29.5q8 14 27.5 49t44 69t52 60.5t50.5 26.5q16 0 18.5 -16.5t2.5 -24.5v-20l-62 -134q-35 -31 -54.5 -62.5t-30.5 -65t-18.5 -73.5t-19.5 -85q0 -4 -5 -17.5t-10 -29 t-10.5 -28.5t-5.5 -17q-16 -47 -19 -92.5t-11 -92.5t-25.5 -92t-25.5 -92q-8 -70 -13.5 -124t-23 -97t-53 -77t-105.5 -60h-20q0 14 11 31.5t26.5 32.5t30.5 27.5t24 20.5l10 31q23 123 46.5 240.5t45.5 240.5q16 61 33.5 117.5t17.5 118.5v41q-12 -8 -39.5 -30t-58.5 -47.5 t-57.5 -47t-38.5 -29.5q-39 -31 -95.5 -61.5t-109.5 -30.5z" />
<glyph unicode="2" horiz-adv-x="1019" d="M-172 -315q0 16 1 29.5t9 21.5l154 153q14 14 34.5 16.5t36.5 24.5q8 8 20.5 21.5t24 28t19.5 26.5t8 17q4 8 20.5 34.5t36 57t36 57.5t20.5 35t20.5 29.5t36 47t35.5 47t20 29.5q23 39 57 90.5t64.5 106.5t52 110.5t21.5 102.5q0 23 -10 47.5t-41 24.5 q-23 0 -43.5 -16.5t-39 -38t-39 -41t-42.5 -27.5v10q0 27 26.5 60.5t65.5 63.5t81 50.5t73 20.5q23 0 35 -10.5t18 -26t7 -33.5t1 -33q0 -31 -15.5 -80t-40 -100t-53 -95t-55.5 -63l-143 -225q-6 -2 -22.5 -24.5t-40 -55.5t-49 -70.5t-48 -72.5t-38 -60.5t-17.5 -33.5 q86 -8 189.5 -30t189.5 -52q49 -18 93 -37t87 -33t89 -23.5t99 -9.5h72q18 8 40 23.5t43.5 31t45 26.5t45.5 11h10q-8 -27 -48 -57.5t-92 -56t-104.5 -43t-82.5 -17.5q-92 0 -181.5 28t-176.5 59.5t-174 59t-175 27.5h-20l-154 -153q-16 -8 -34.5 -20.5t-26.5 -20.5 q-16 8 -23.5 11.5t-7.5 19.5zM-90 -254q14 0 29.5 8t28 19.5t21.5 24t13 20.5h-20q-31 0 -51.5 -20.5t-20.5 -51.5z" />
<glyph unicode="3" horiz-adv-x="964" d="M27 322q0 23 9 51t24.5 53t36 42t42.5 17q0 -16 -6 -26t-14 -20.5t-14.5 -24t-6.5 -31.5q0 -41 27 -63.5t65.5 -34t79.5 -13.5t72 -2q113 0 204 32t155.5 91.5t99.5 147.5t35 200q0 70 -17.5 149t-55.5 146.5t-96.5 111.5t-138.5 44h-61q-27 -18 -40 -47t-27.5 -54.5 t-38 -44t-68.5 -18.5q-16 0 -28.5 12.5t-12.5 28.5q0 27 13.5 53.5t32.5 50t39.5 44t37.5 36.5q-16 47 -50 70t-73 23q-35 0 -54.5 -18.5t-36 -41t-34.5 -44t-49 -30.5v9q0 35 23.5 74.5t57.5 73.5t73.5 56.5t70.5 22.5q57 0 80 -16.5t33 -40t17 -48t34 -38.5q45 0 89 -3.5 t85 -14.5t77 -33.5t66 -61.5q8 -10 24.5 -41t33 -65.5t32 -65.5t23.5 -43q16 -39 18.5 -82t2.5 -82q0 -47 -4.5 -83t-13.5 -68.5t-25.5 -64.5t-38.5 -71q-27 -88 -85.5 -153.5t-134 -108.5t-161.5 -64.5t-168 -21.5q-18 0 -31.5 1t-13.5 7v2q-14 0 -31 -10h10q-16 0 -40.5 2 t-41.5 19l11 10q0 8 -6.5 20.5t-14.5 20.5q-8 -8 -14 -15.5t-6 -15.5q-12 23 -26.5 32t-27 15t-20.5 17.5t-8 38.5zM334 1120q51 0 51 51q-16 0 -33.5 -14t-17.5 -37z" />
<glyph unicode="4" horiz-adv-x="718" d="M10 600v21q0 35 18.5 58t46 36.5t60.5 17.5t60 0l41 41q39 49 81.5 110.5t92 114t107.5 88t128 35.5q23 0 43.5 -14t28.5 -37q4 -12 -6.5 -22.5t-25.5 -19.5t-31.5 -14t-28.5 -5q-16 0 -20.5 10t-20.5 10q-18 0 -49 -20.5t-68 -53t-74 -71.5t-67.5 -75t-50 -65.5 t-19.5 -42.5q0 -12 36 -21t82 -15.5t89 -10.5t59 -4h51l62 51h10q0 -18 -8 -40.5t-18.5 -46t-20.5 -46t-14 -41.5q-31 -131 -50.5 -256t-41.5 -256q-4 -27 -5.5 -89t-10.5 -126.5t-33.5 -113.5t-73.5 -49h-21q8 23 25.5 62.5t25.5 70.5q12 104 23.5 197t25 183.5t30 180.5 t34.5 186v21v10q-92 8 -182 20.5t-176 51.5l-113 -52l-16 13q-14 10 -15 18z" />
<glyph unicode="5" horiz-adv-x="1157" d="M25 315v11l71 71h10q8 -74 57.5 -124t118 -81.5t143.5 -46t132 -14.5q96 0 186.5 41t161 108.5t112.5 156.5t42 186q0 61 -13.5 105t-38 80t-61.5 66.5t-82 65.5q-31 23 -67.5 47.5t-75.5 24.5h-205q-39 0 -57.5 -19.5t-32.5 -42t-31.5 -42t-52.5 -19.5q-23 0 -37 4 t-14 27q0 16 21.5 42.5t29.5 49.5t14 74t18.5 103t35 91t65.5 39q39 0 78 -10.5t86 -10.5q39 0 68.5 2.5t56.5 9.5t53.5 19t56.5 31q16 47 41 71.5t72 41.5v-21q0 -84 -58.5 -133t-140 -72.5t-169 -29t-144.5 -0.5q-23 -23 -21.5 -64t1.5 -80q61 0 118.5 15.5t126.5 15.5 q76 0 155 -31t142.5 -85t103.5 -127t40 -156q0 -78 -17.5 -162t-64.5 -146q-8 -12 -31.5 -37.5t-51.5 -53t-53.5 -51.5t-37.5 -32t-51 -34.5t-85.5 -55.5t-89.5 -51.5t-61 -22.5q-131 0 -252 29t-229 115l-82 82q-8 8 -9 15t-1 15z" />
<glyph unicode="6" horiz-adv-x="874" d="M76 199v92q0 88 34.5 209t90 241.5t125 226t139.5 162.5q43 27 79 52.5t72.5 46t76.5 33t89 12.5h62q8 -16 29.5 -25.5t21.5 -25.5v-21q-4 -4 -15.5 -9t-25.5 -11t-25.5 -11.5t-15.5 -9.5h-10q-16 16 -38 39t-44 23q-35 0 -72 -17.5t-71.5 -42t-64.5 -53.5t-48 -51 q-47 -74 -98.5 -160t-96.5 -178t-73.5 -186.5t-28.5 -182.5q0 -53 13.5 -108.5t43 -99.5t73.5 -71.5t105 -27.5q49 0 92.5 19.5t75 53.5t50 79t18.5 94q0 43 -8 83t-28.5 71.5t-54.5 51t-83 19.5q-70 0 -106.5 -47t-36.5 -117q0 -23 15 -41t15 -41t-17.5 -37t-33.5 -14 q-47 0 -59.5 31t-12.5 61q0 53 28 101.5t72 85.5t99 58.5t109 21.5h61q23 -8 49.5 -23.5t42.5 -38.5q4 -4 12.5 -20.5t18.5 -37t18.5 -39t12.5 -26.5q8 -16 9 -20t1 -21q0 -49 -21.5 -91t-53.5 -76.5t-67.5 -66.5t-62.5 -63q-61 -31 -112.5 -61.5t-112.5 -30.5 q-49 0 -91 20.5t-75 54.5t-55.5 76t-34.5 85z" />
<glyph unicode="7" horiz-adv-x="784" d="M35 1397v10q0 18 16.5 38.5t41 37t51 27t44.5 10.5q43 0 84 -14.5t84 -32t90.5 -32t100.5 -14.5q61 0 103 33t81 80h21q16 0 33.5 -14.5t17.5 -36.5q0 -49 -27.5 -68.5t-65.5 -28t-76 -17.5t-56 -40q-31 -47 -53.5 -97t-42 -103.5t-38 -106.5t-41.5 -102q-8 -16 -9 -20.5 t-1 -20.5q0 -18 19.5 -29.5t46 -15.5t51.5 -5t37 -1q31 0 66.5 5t66.5 5h10l-10 -21l-123 -61q-23 -16 -42 -13t-50 3t-56.5 5t-56.5 5q-12 0 -24.5 -44t-27.5 -109.5t-35.5 -143.5t-50.5 -143.5t-72 -109.5t-97 -44q0 12 10.5 21.5t22.5 18.5t23.5 16t15.5 16 q23 23 38 67.5t23 75.5q4 12 14.5 54t21.5 89t21.5 89t14.5 55q0 4 5 17t10 28.5t10.5 29t5.5 17.5v20q0 16 -7.5 18.5t-23.5 2.5q-31 0 -60.5 -27.5t-52.5 -44.5h-10v21l61 61q6 4 13 10q4 4 9 7.5t9 3.5q49 31 70.5 40t32 18t16.5 30.5t24 74.5q8 18 12.5 25.5t7.5 11.5 t5 13.5t6 31.5l123 256v11q0 8 -31.5 11t-73.5 6t-85 7t-66 16q-4 0 -20.5 8.5t-36 17.5t-35.5 17.5t-21 8.5h-30q-16 0 -24.5 -8.5t-14.5 -17.5t-10.5 -17.5t-12.5 -8.5h-10zM670 1438q8 0 20 1t21 9q-1 10 -21 10t-20 -20z" />
<glyph unicode="8" horiz-adv-x="903" d="M37 98q0 53 17.5 114.5t45 121t62.5 113t69 92.5l123 123q4 4 26.5 23.5t50.5 43t50.5 43t26.5 23.5q16 16 18 15t2 15q0 23 -8 43.5t-17 39t-17.5 39t-8.5 42.5q0 31 23.5 70t59.5 73.5t77 58t76 23.5q47 0 64.5 -36.5t17.5 -75.5q0 -31 -12.5 -64.5t-32 -65.5 t-43 -59.5t-45.5 -46.5v-10q0 -16 10 -32.5t23.5 -34t26.5 -35t21 -31.5q18 -47 39 -99.5t37.5 -105.5t26.5 -106.5t10 -98.5q0 -80 -43 -175t-111.5 -177t-152.5 -136t-164 -54q-74 0 -137.5 23.5t-110.5 66.5t-73.5 103t-26.5 134zM129 170q0 -66 25.5 -122t68.5 -97 t100.5 -64.5t122.5 -23.5q45 0 81 12t66 34.5t56.5 52.5t52.5 65q8 -4 13.5 0t9.5 12t6 16t2 13q8 18 15 49q4 16 6 33v81q0 53 -6.5 102.5t-14.5 102.5q0 4 -11 31t-27.5 63.5t-37 77.5t-40 76t-35 57.5t-23.5 22.5h-10q-23 -23 -52.5 -44.5t-60.5 -37.5l-194 -195 q-4 -4 -14.5 -24.5t-22.5 -46t-24.5 -52t-20.5 -40.5q-16 -31 -23.5 -73t-7.5 -81zM559 1040q0 -23 7 -51t24 -51q6 -14 28 -33q10 -8 23 -18l21 10q4 0 11 10.5t13 23.5t11 26.5t5 21.5v41q0 39 -4 60.5t-26 52.5h-31q-39 0 -60.5 -31t-21.5 -62zM825 395l11 -10v10h-11z " />
<glyph unicode="9" horiz-adv-x="817" d="M-29 123v20q4 4 15.5 9.5t26 11.5t25.5 11t15 9h10q16 -16 38 -38.5t44 -22.5q35 0 72 17.5t72 42t64.5 53t47.5 51.5q45 74 97.5 159.5t97.5 178t73.5 186.5t28.5 182q0 53 -13 108.5t-43 99.5t-74 71.5t-105 27.5q-49 0 -92 -19t-75 -53t-50.5 -79t-18.5 -94 q0 -43 8.5 -83t29 -72t54 -51.5t82.5 -19.5q70 0 107 47.5t37 116.5q0 23 -15.5 41.5t-15.5 40.5q0 23 17.5 37t33.5 14q47 0 59.5 -30.5t12.5 -61.5q0 -53 -27.5 -101t-71.5 -85t-99.5 -58.5t-108.5 -21.5h-62q-23 8 -49 23.5t-43 37.5q-4 4 -12 20.5t-18.5 37t-18.5 39 t-12 26.5q-8 16 -9.5 20.5t-1.5 20.5q0 49 21.5 91t53.5 77t68 67t62 62q61 31 112.5 61.5t113.5 30.5q49 0 91 -20.5t74.5 -54t55 -75.5t35.5 -85v-92q0 -88 -35 -209t-90.5 -242t-125 -226.5t-139.5 -162.5q-43 -27 -78.5 -52.5t-72.5 -46t-77 -32.5t-89 -12h-61 q-8 16 -30 25t-22 26z" />
<glyph unicode=":" horiz-adv-x="696" d="M256 111q0 14 3 25t28 26q10 6 32.5 16t46 20.5t42 17.5t20.5 7l10 -10l-10 -20l31 10q4 0 9 -8.5t10 -18.5t8 -20.5t3 -14.5q0 -10 -3 -23.5t-7 -17.5l-123 -61q-33 -6 -66.5 13.5t-33.5 58.5zM274 678q0 14 3.5 25.5t27.5 25.5q20 12 51 22.5t35 10.5l66 18l-11 -20 l31 10q4 0 9.5 -8t10.5 -18.5t8 -20.5t3 -14q0 -10 -3 -23.5t-7 -17.5l-123 -62q-33 -6 -67 13.5t-34 58.5z" />
<glyph unicode=";" horiz-adv-x="778" d="M317 670q0 14 3.5 25.5t27.5 25.5q10 6 32.5 16.5t46.5 20.5t42 17t20 7l11 -10l-11 -20l31 10q4 0 9.5 -8.5t10.5 -18.5t8 -20t3 -15q0 -10 -3 -23t-7 -18l-123 -61q-33 -6 -67 13.5t-34 58.5zM325.5 -183q-3.5 7 2.5 22.5t17 31.5t15 27q18 63 22.5 99t1.5 54.5 t-11 24.5t-13.5 10t-5.5 13.5t11 31.5q23 20 56 39.5t68 -0.5q8 -31 9.5 -53.5t-4 -42t-14.5 -40t-21 -50.5q-14 -35 -46 -86.5t-57 -79.5q-27 -8 -30.5 -1z" />
<glyph unicode="?" horiz-adv-x="1091" d="M238 1278q0 8 4 13t10 -3q-6 8 -3 14.5t3 16.5q27 35 57.5 70.5t66.5 65.5t79 48.5t96 18.5q41 18 89 20t101 -12q88 -27 129 -99.5t58 -160.5q10 -53 -2.5 -102.5t-36 -93.5t-52 -83t-46.5 -71q-66 -59 -121.5 -119t-114.5 -125q-23 -2 -29 -18.5t-20 -32.5 q-4 -4 -12.5 -7.5t-12.5 -7.5q-6 -6 -14 -18t-18 -25q-10 -12 -21.5 -17t-20 -11.5t-13.5 -17.5t-1 -36q4 -16 23.5 -35.5t21.5 -39.5q0 -12 -6 -21.5t-15 -18t-17.5 -15.5t-12.5 -13q-41 23 -55.5 65t-1.5 97q51 86 117.5 147.5t136 119.5t134 120.5t111.5 152.5 q14 41 19.5 91.5t-1.5 101.5t-26.5 96t-54.5 74t-93.5 48.5t-127.5 8.5q-29 -4 -51.5 -16t-65.5 -12q-47 -23 -86 -56.5t-61 -81.5q-14 0 -23.5 -13t-19.5 -7zM274 111q0 -39 34 -58.5t67 -13.5l123 61q4 4 7 17.5t3 23.5q0 4 -3 14.5t-8 20.5t-10.5 18.5t-9.5 8.5l-31 -10 l11 20l-11 10q-2 0 -20 -7t-42 -17.5t-46.5 -20.5t-32.5 -16q-25 -14 -28 -25.5t-3 -25.5z" />
<glyph unicode="@" horiz-adv-x="1705" d="M131 236v93t8 85q6 31 20.5 65.5t22.5 65.5q33 113 105.5 193.5t161.5 152.5q53 47 119.5 94t125.5 84q45 20 99.5 43t114 39t123 23.5t128.5 -0.5q78 -10 145.5 -42t114.5 -71q35 -20 74 -55t61 -80q0 -6 -3 -7t-7 0t-7 1t-5 -7q4 -10 12 -8t10 13q18 -33 24.5 -68 t18.5 -76q-2 -35 -3 -62.5t-4 -54t-8 -53t-15 -59.5q-6 -18 -17.5 -37t-17.5 -37q-8 -29 -21.5 -61.5t-40.5 -55.5q4 -37 -17 -56t-42 -44q-18 -23 -31.5 -51.5t-29.5 -48.5q-18 -18 -43 -38t-51.5 -36.5t-54 -28.5t-50.5 -18q-37 -10 -55.5 -4t-40.5 16q-35 16 -61.5 51 t-59.5 72q-37 -33 -87 -56.5t-104.5 -32.5t-108.5 0t-99 40q-41 53 -53.5 116.5t-1 127t42 123t75.5 107.5t101.5 82t117.5 44l12 12q76 8 141.5 -8t84.5 -74q-10 -10 -16.5 -5t-14.5 9q4 -12 3 -15t15 1q-6 -16 -23.5 -16t-29.5 -5q2 -10 6 -2.5t13 2.5q-10 -16 -22.5 -8 t-20.5 13q0 4 6 4h10q-8 10 -16.5 2t-18.5 -6q-23 16 -44 31.5t-56 19.5q-53 -16 -105.5 -43t-89.5 -74q-8 -10 -9 -22.5t-7 -24.5q-10 -23 -21.5 -41t-20.5 -39.5t-14.5 -46.5t-5.5 -55q2 -35 16.5 -70t39.5 -55q27 -23 68.5 -30t85.5 -3t84 20.5t63 40.5q4 141 69.5 239.5 t180.5 147.5q25 -16 26.5 -38.5t-6.5 -49t-23.5 -53t-25.5 -49.5q-29 -55 -49.5 -95t-54.5 -75q6 -35 29.5 -68.5t55 -55t67.5 -23.5t69 26q27 25 56.5 65t54 83t44 86t27.5 73q0 8 6 8.5t10 -3.5q4 43 16.5 80.5t22.5 66.5q0 68 -1 135.5t-11 112.5q-6 2 -10 7t-5 11t-2 9 t-1 -1q-12 14 -28.5 53.5t-31.5 59.5q-23 14 -44 28.5t-56 30.5q0 10 8 12.5t0 10.5q-10 4 -8 -4t0 -14q-16 6 -29.5 14t-17.5 26q-16 -6 -37 3.5t-33 17.5q-18 -2 -32.5 1t-24.5 -1q-49 25 -111.5 22.5t-127 -19.5t-123 -43t-101.5 -50q-106 -61 -199.5 -142t-165.5 -163 v-25q-35 -53 -57.5 -120.5t-31.5 -141.5t-4 -147.5t28 -137.5q14 -39 35.5 -69.5t38.5 -65.5q43 -27 73.5 -65.5t69.5 -67.5q80 -41 162 -79t180 -44q96 -4 191.5 11.5t186.5 41t176 59.5t159 66q68 45 166 87t204.5 59.5t208 2t174.5 -82.5q16 -43 14.5 -75t-22.5 -73 q-29 -10 -49.5 -30.5t-42.5 -26.5q-6 14 13.5 21.5t25.5 17.5q2 49 -19.5 82t-57.5 53.5t-80 32.5t-85 24q-106 -8 -222 -35.5t-208 -76.5q-70 -47 -149.5 -78t-165.5 -61q-49 -18 -92 -39t-101 -19q-104 -41 -219 -42t-220.5 30t-191.5 87t-135 130q-6 6 -10 2t-12 2 q-2 12 -9.5 18.5t-13.5 16.5v4q4 6 5 1t5 -5q10 4 -2 13t-16 -1q-29 53 -55.5 123t-26.5 146zM989 631q6 2 9 -1t6 1q-10 6 1 4t11 -8q6 4 3 8t-8 5t-11.5 1t-6.5 -2q6 -2 2 -3t-6 -5zM1380 1030q4 -4 14.5 -3t6.5 11q-21 4 -21 -8zM1458 922q2 -6 3 -12.5t5 -10.5 q-2 6 1 11t7.5 8.5t5.5 7.5t-5 8q4 -10 -4.5 -13t-12.5 1zM1485 860q4 -4 6 -9t10 -7q2 8 -3 10t-1 12q8 0 0 4q0 -6 -6 -6t-6 -4zM1541 772q-7 -6 3 -10q4 4 10 4q-2 4 -2 10t-4 6q0 -4 -7 -10z" />
<glyph unicode="A" horiz-adv-x="1546" d="M0 195q0 18 11.5 56t29.5 76t45 65.5t57 27.5q0 -23 -6 -41.5t-14 -36.5t-14.5 -38.5t-6.5 -47.5q0 -47 17.5 -80t47.5 -53.5t68.5 -30.5t81.5 -10t94.5 17.5t101.5 43t94 56t71 57.5q49 45 112.5 105.5t125 126t113.5 135t79 135.5l-31 10q-16 0 -56 5t-56 5l20 10h-31 q-49 0 -94 -19t-88 -41.5t-87 -42t-89 -19.5h-10l10 10q4 4 19.5 11t32 14.5t31.5 14.5t19 11q23 12 54.5 29.5t65.5 34t67 27.5t59 11h225q12 0 26.5 18.5t27 42t21.5 47.5t9 36q0 8 2 39.5t3.5 67.5t3.5 68t2 40q8 84 39.5 138t93.5 108q8 8 15 9t15 1q14 0 23.5 -11.5 t12.5 -26.5t4 -30.5t1 -23.5q0 -78 -20.5 -152t-50.5 -135q0 -4 -6.5 -15.5t-14.5 -25.5t-14 -25.5t-6 -15.5v-20v-21q0 -12 2 -37.5t3 -54.5t3 -54.5t2 -37.5q16 -16 32.5 -29.5t39.5 -21.5l143 -144q0 -8 8 -22.5t18.5 -30.5t20.5 -31.5t14 -27.5q8 -39 9.5 -76t1.5 -68 v-71q0 -23 -16.5 -36.5t-24.5 -35.5l-21 10q-12 0 -12 -16q0 -8 2 -15q-8 -47 -39 -90t-84 -43q-43 0 -74.5 44t-54 104.5t-34 120t-11.5 90.5q0 12 -2 52t-3 86t-3 86t-2 52q0 4 -2 11.5t-4 17.5t-4 22l-84 41l-82 -82q-154 -170 -310.5 -320.5t-355.5 -273.5 q-55 -31 -106.5 -46t-120.5 -15q-86 0 -145.5 54.5t-59.5 140.5zM1221 819l22 -10h10v31q-8 0 -16 -6.5t-16 -14.5zM1366 1198q8 16 9 32.5t1 39.5v30q-8 -23 -9 -36t-1 -35v-31zM1376 614q0 -66 1 -138.5t12.5 -143t39 -136t80.5 -114.5q23 8 37.5 30.5t21.5 50t10 56.5 t3 47q0 109 -52 210.5t-153 148.5v-11z" />
<glyph unicode="B" horiz-adv-x="1171" d="M-776 1022q0 12 4 27.5t12 30t22.5 24.5t32.5 10q-8 -16 -9 -25.5t-1 -25.5q0 -18 21.5 -29.5t49.5 -15.5t54.5 -5t38.5 -1q129 0 261 45t249 98q18 8 71.5 31.5t112 51.5t111.5 53.5t72 37.5q45 14 102 32.5t115.5 34t114 26t98.5 10.5q68 0 116 -21.5t78.5 -60.5 t45 -91.5t14.5 -113.5v-82q-16 -70 -56.5 -129.5t-87.5 -106.5q4 -12 20.5 -17t38 -8t42 -8.5t32.5 -17.5q86 -68 120 -146.5t34 -178.5q0 -84 -15.5 -142.5t-49 -101.5t-86 -77t-125.5 -69q-59 -23 -121 -37t-123 -14q-70 0 -137.5 11.5t-128.5 50.5h10q39 0 77 -5.5 t76 -5.5q74 0 165 19.5t173 59.5t137.5 102.5t55.5 146.5q0 57 -17.5 116.5t-50 109t-83 80t-113.5 30.5q-23 0 -38.5 -9t-28.5 -20.5t-28.5 -20.5t-37.5 -9v10l61 41q-8 0 -26.5 -3t-38 -9.5t-34 -13.5t-14.5 -15v-10l11 -11v-10q0 -12 -11.5 -21.5t-27 -15.5t-30.5 -10 t-24 -4q0 47 27 74.5t66 56.5q23 18 46 29.5t46.5 20.5t49.5 17.5t52 24.5q31 14 50.5 47t30.5 71t15.5 78t4.5 70q0 57 -14.5 107.5t-43.5 88.5t-76 59.5t-110 21.5q-23 0 -53.5 -6t-62.5 -13.5t-61.5 -11.5t-47.5 0l-175 -51l-632 -277q-70 -31 -142.5 -41t-142.5 -10 q-18 0 -42 1t-44.5 8.5t-33.5 21.5t-13 41zM0 41q0 18 13.5 45t35 51.5t47 41t47.5 16.5q16 0 23.5 -12.5t7.5 -28.5q14 8 12 15t-2 15q2 8 11.5 8.5t20.5 3.5t23.5 13t24.5 37q8 18 23.5 68.5t33 105.5t33 105t23.5 69q0 8 4 24q2 8 6 17q12 68 31.5 136.5t42 138t47 138 t43.5 138.5q16 39 43 75.5t80 36.5q10 0 10 -20q0 -31 -16.5 -87t-39 -117.5t-44 -118t-33.5 -87.5q-39 -123 -60.5 -249.5t-52.5 -249.5q-8 -23 -26.5 -44.5t-38 -44t-33.5 -46t-14 -50.5q0 -16 5 -25t5 -26q0 -8 -10.5 -25.5t-10.5 -25.5q-35 -4 -63.5 -15.5t-56 -23.5 t-55 -22.5t-58.5 -10.5q-8 0 -21.5 -1t-27 1t-23.5 8.5t-10 22.5zM82 113q8 -8 16 -9.5t25 -1.5q4 0 10 2q10 4 10 9h-61z" />
<glyph unicode="C" horiz-adv-x="1161" d="M-166 1376q0 8 11.5 15.5t26.5 13.5t30.5 9t23.5 3h92h82q57 -8 114.5 -29.5t113 -45t112 -41t113.5 -17.5q39 0 55.5 12.5t46.5 28.5l35 17.5t58.5 28.5t60.5 28.5t41 17.5q14 8 25.5 10.5t21.5 2.5t23.5 -1.5t33.5 -1.5h62q31 -16 46 -29.5t15 -51.5q0 -51 -43 -86 t-102.5 -57.5t-119.5 -33t-95 -10.5q-47 0 -86 10.5t-78 10.5q-61 0 -93 -32l-71 -71q-100 -109 -137 -227.5t-37 -265.5q0 -74 12.5 -153t43 -149.5t81.5 -127t129 -86.5h103q70 0 127 11t111.5 31.5t108.5 49t116 63.5q61 31 124.5 72t131.5 82q-20 -37 -54.5 -72 t-72 -63.5t-78.5 -53t-74 -43.5l-229 -110q-23 -12 -56.5 -19.5t-70.5 -11.5t-73 -6t-63 -2q-115 0 -196.5 46t-133.5 123t-77 175.5t-25 202.5q0 109 19.5 212t73.5 189q8 12 25.5 34.5t36.5 46.5t36.5 44.5t25.5 28.5q12 8 37 23.5t51.5 35t46 38.5t19.5 36l-10 10 q-86 63 -200 99t-222 36q-53 0 -91 -15t-83 -15q-8 0 -19.5 7t-11.5 23zM655 1274q0 -16 19.5 -24.5t44 -12.5t48.5 -5t32 -1q12 0 40.5 2t58.5 9t53.5 19.5t23.5 32.5q0 47 -26.5 64.5t-67.5 17.5q-4 0 -40 -14t-77 -32.5t-75 -35t-34 -20.5zM1059 1345.5q0 -10.5 8 -10.5 t8 10.5t-8 10.5t-8 -10.5z" />
<glyph unicode="D" horiz-adv-x="1372" d="M-252 1169q0 8 7 31t24 23l41 -21q31 -16 57.5 -13t65.5 3q119 0 227.5 35t215 78t215 77.5t226.5 34.5h93q102 -27 185 -85t141.5 -138t90 -178t31.5 -205q0 -66 -11 -122t-30.5 -109.5t-48.5 -106.5t-64 -115q-37 -47 -83 -100t-97 -101t-108.5 -86t-118.5 -53 q-18 -4 -30.5 -3t-23 2t-21.5 0t-25 -9h-93q-27 0 -47 -1t-37.5 -1t-34 2t-34.5 10q-23 8 -45.5 21.5t-46 27t-45.5 23.5t-45 10t-39.5 -11t-30.5 -24.5t-29.5 -24.5t-34.5 -11q-8 0 -20 10t-21 10q23 -8 47.5 6.5t24.5 44.5q-23 0 -41 -5t-41 -5v-31q-10 -6 -18 -10 q-16 -10 -33 -10l-20 10l-21 -20q-8 0 -9 11t-1 19v11q31 39 74 77.5t90 55.5q12 4 26.5 7t27.5 7t23.5 13.5t14.5 25.5q16 47 22 86t29 78q8 23 23.5 81t31 124.5t28.5 125t17 80.5q0 4 3.5 26t7.5 46.5t7 46t3 25.5q8 31 20.5 84t30.5 105.5t46 91t67 38.5 q0 -47 -11.5 -93t-19.5 -93l-14.5 -58t-21.5 -90.5t-21.5 -91.5t-14.5 -57v-61l-10 -11q-18 -55 -31.5 -101t-25 -92t-24.5 -96.5t-32 -111.5q0 -4 -6 -20.5t-13 -37t-13.5 -37t-6.5 -20.5v-10v-10q53 -27 100.5 -49.5t94.5 -39t96 -25.5t107 -9h69q100 18 185.5 95 t149 179.5t99 214t35.5 201.5q0 96 -23.5 174t-67.5 143.5t-106.5 121t-137.5 106.5q-39 8 -82 24.5t-80 16.5q-16 0 -24.5 -5t-17.5 -9.5t-20.5 -7.5t-29.5 1l-521 -143q-78 -10 -153.5 -31.5t-161.5 -21.5q-4 0 -17.5 -1t-27.5 1t-25.5 8t-11.5 22zM4 18.5q0 10.5 8 10.5 t8 -10.5t-8 -10.5t-8 10.5zM15 8q0 10 8 10t8 -10t-8 -10t-8 10zM104 131l11 -10h71l11 20q-8 8 -16.5 9.5t-24.5 1.5t-29.5 -2.5t-22.5 -18.5z" />
<glyph unicode="E" horiz-adv-x="1005" d="M-922 1329v10l52 52q43 35 101 56t121.5 33.5t126 17.5t111.5 5q111 0 221.5 -20.5t219 -51t216 -66.5t216.5 -67q27 -8 61.5 -21t72.5 -26.5t75 -23.5t67 -10h11q43 18 78.5 36.5t70.5 32.5t73 23.5t85 9.5h41q8 -8 14 -16.5t6 -24.5q-35 0 -46 -3t-14 -7t-5 -7.5 t-17 -3.5h-92q-8 0 -27.5 -3t-41 -9t-38 -13t-16.5 -15v-11l10 -10h93q8 0 26.5 -1t41 0t43 5t32.5 17v10l-10 20h10q16 0 18 -12t2 -29q0 -12 -19 -26.5t-47 -26.5t-55.5 -20.5t-41.5 -8.5h-236q-27 0 -43 -23.5t-24.5 -54t-11.5 -61.5t-3 -45v-41l10 -10q23 0 57 -4 t64.5 -16.5t52 -32t21.5 -50.5q0 -23 -15.5 -40t-37 -28t-47 -17.5t-43.5 -6.5q-35 0 -56.5 10.5t-38 27t-32 36.5t-37.5 39q-70 -31 -129.5 -66.5t-106.5 -97.5q-4 -12 -14 -40t-21.5 -58.5t-21.5 -57t-14 -38.5q-16 -31 -13.5 -52.5t2.5 -60.5v-72q27 -57 65 -93t84 -56.5 t99 -27.5t111 -7q61 0 112.5 7t99.5 22.5t96 39t101 54.5q14 8 35 26.5t43.5 38t45 33.5t40.5 14q-8 -18 -16 -31.5t-18.5 -22.5t-25 -17t-32.5 -21q-74 -49 -136.5 -89t-125 -67.5t-133 -43t-158.5 -15.5q-70 0 -137.5 10.5t-121.5 38t-88 77.5t-34 130q0 147 58.5 276.5 t189.5 215.5q12 8 37.5 21.5t52.5 28.5t48.5 29.5t25.5 22.5q-4 26 -4 50q0 21 3 39q7 40 25.5 74t46 63.5t62.5 60.5q-18 12 -77.5 32.5t-128.5 42t-130 38t-84 20.5q-86 43 -166 74.5t-162 54.5t-168 34t-182 11q-53 0 -100 -8t-92 -22.5t-91.5 -31t-95.5 -30.5 q-8 0 -36.5 -15.5t-45.5 -15.5zM647 807q14 -31 41 -31h10q-8 8 -20 19.5t-21 11.5h-10zM1069 1308.5q0 10.5 8 10.5t8 -10.5t-8 -10.5t-8 10.5z" />
<glyph unicode="F" horiz-adv-x="970" d="M-188 1145q0 23 9 49.5t23.5 48t34 35.5t37.5 14h6l29 -18q-8 -31 -16.5 -45.5t-16.5 -22.5q-8 -10 -15 -17t-9 -5q2 -8 14 -18.5t29 -10.5h122v-4q12 8 32 18.5t41.5 19.5t41 13t31.5 2q8 6 30.5 16.5t48 22.5t48 22.5t30.5 14.5q10 0 62 20q23 6 47.5 14.5t22.5 10.5 q12 0 24 8q6 4 12 10q186 72 373 121t381 49q45 0 93 -13t87 -41.5t63.5 -72t24.5 -104.5q0 -53 -22.5 -96t-57 -77t-76.5 -56.5t-81 -34.5v29q0 23 12 33t29 24q18 12 39.5 29.5t41 40t32 49t12.5 59.5q0 31 -18.5 56.5t-47.5 45t-61.5 31.5t-59.5 17h-133q-125 0 -260 -30 t-268 -77t-260 -103.5t-234 -107.5q-6 0 -22 -8q-23 -14 -25 -14q-20 -4 -38.5 -9.5t-37.5 -11.5v2q-31 -10 -58.5 -17t-51.5 -7q-12 0 -27.5 7t-31 20.5t-25.5 30.5t-10 38zM76 238l16 18v59q14 20 29 39q25 35 43 54q39 45 83 86t83 71l80 66v-2q31 29 39 49t12 43 q4 18 8 36.5t12 35.5v-5q2 10 9.5 28t17.5 36v-2q8 16 15 36.5t9 16.5q0 10 5.5 29.5t11.5 40.5q6 23 10 42t4 23q6 10 11.5 26.5t11.5 35.5q8 25 12 46t6 23v-6q0 6 6 13q8 18 21.5 42.5t29 45t33 35t35.5 14.5q0 -49 -14.5 -89t-30.5 -73q-10 -23 -17.5 -40t-9.5 -24 q-2 -8 -6 -19t-6 -19l-92 -293v6l-6 -29q-2 -8 -1 -3t1 1h6v-2q96 33 182 54.5t191 21.5h102q4 0 18.5 -3t31 -11.5t32.5 -19.5t25 -26q-10 -10 -30 -27.5t-24 -17.5h-290q-8 0 -28 -2t-43.5 -5t-43 -7t-27.5 -6q-59 -12 -94 -40t-56.5 -64.5t-31.5 -81.5t-16 -95 q-6 -47 -15.5 -92t-25.5 -90v2q-2 -8 -9.5 -26.5t-18.5 -40t-21.5 -42t-18.5 -32.5q-8 -8 -10 -15q-10 -16 -22.5 -35.5t-27 -36t-27.5 -28.5t-24 -12l-36 18q-27 14 -54.5 34t-31.5 52l-15 -6l-12 29l12 22v6q-4 8 -8 16.5t-4 27.5v24l8 35zM94 246q0 -8 6 -27 q6 -18 15.5 -46t25 -56.5t36 -55t48.5 -41.5q27 16 51.5 62.5t45 101t35 107.5t22.5 86q0 8 4 27.5t9 43t10.5 49t11.5 44.5l2 12q-55 -2 -98.5 -46t-77.5 -89q-23 -33 -44.5 -60.5t-31.5 -35.5l-21 -3q-12 -4 -18 -12t-8 -14q-6 -16 -10.5 -29.5t-12.5 -17.5zM958 954 q12 41 37 48.5t60 9.5q47 4 103 9t97 28v-17q0 -12 -15 -25.5t-33.5 -24.5t-35 -19.5t-20.5 -8.5h-193z" />
<glyph unicode="G" horiz-adv-x="1161" d="M59 -793q0 39 7.5 71t19.5 61.5t29.5 60.5t36.5 65q125 139 274 250t313 211q18 12 32.5 34t24 46.5t15.5 50t10 43.5q-31 -4 -56.5 -17t-51 -27.5t-52 -26t-57.5 -11.5h-235l-13 5q-4 2 -9 4t-9 2q-133 61 -195.5 152t-62.5 239q0 86 22.5 173t69.5 165q23 31 50.5 56.5 t43.5 55.5q39 72 77 126.5t108 101.5q4 4 22.5 15t38.5 25.5t38.5 26t22.5 15.5l21 20q-4 4 -17.5 11.5t-29 14.5t-28.5 14t-17 11q-16 8 -23.5 11.5t-7.5 19.5v10q31 8 50.5 9.5t41.5 1.5h31q8 -4 23.5 -11.5t34 -14.5t33.5 -14.5t24 -11.5q92 39 169.5 60.5t178.5 21.5h94 q23 -16 47.5 -38.5t24.5 -53.5q0 -18 -27 -36.5t-61.5 -33t-69.5 -23.5t-49 -9h-92q-61 0 -117.5 15t-118.5 15h-10q-96 -27 -186.5 -103.5t-159 -175.5t-109.5 -208t-41 -201q0 -193 94.5 -302t286.5 -109q70 0 133.5 11t124.5 50q23 14 39.5 44t35.5 59.5t46 51t74 21.5 h10q-8 -35 -31.5 -68.5t-48 -69.5t-44 -76t-19.5 -85v-10q8 4 31.5 17.5t50 28.5t50 28.5t32.5 17.5q20 12 48.5 36t59.5 48.5t60.5 43t48.5 18.5h10q-4 -8 -17.5 -23.5t-30 -33t-31.5 -31t-24 -17.5q-27 -27 -60.5 -45t-69 -33.5t-71.5 -31t-67 -33.5l-20 -21l-31 -20 q-4 -8 -11 -29.5t-14.5 -47.5t-14.5 -47.5t-11 -29.5q-18 -61 -52 -160.5t-78 -201t-95.5 -186.5t-104.5 -119q-31 -23 -72 -36.5t-71 -35.5h-125q78 14 130 41.5t90 67.5t65.5 94.5t54.5 124.5q4 10 17 40.5t29.5 71.5t36 88t36 88t28.5 72t19 41q8 23 15 51t15 51 q-8 -8 -30.5 -19t-30.5 -11h-12q-8 -4 -26.5 -16.5t-40 -27t-40 -27.5t-27.5 -22q-117 -92 -204.5 -183t-165.5 -208l-10 -10q-47 -31 -54.5 -71t-7.5 -93q0 -39 4 -55t12.5 -26.5t22.5 -19.5t33 -32h-10q-31 0 -49.5 15.5t-27.5 37t-12.5 47t-3.5 43.5zM143.5 -608 q-0.5 -10 8.5 -10q8 0 8 10t-8 10t-8.5 -10zM770 1231q8 -16 38 -25.5t66.5 -15.5t70.5 -8t50 -2q12 0 35 -1t45.5 3t38.5 15t16 34t-17 38t-34 23h-63q-61 0 -127 -15t-119 -46zM1141 1262q0 -12 20 -13q8 0 21 2q0 8 -2 14.5t-19 6.5q-20 0 -20 -10z" />
<glyph unicode="H" horiz-adv-x="1325" d="M-682 1145q0 14 7 35.5t19.5 41t30 33t35.5 13.5q-8 -16 -9 -30.5t-1 -31.5q0 -35 26.5 -53t63.5 -27.5t75 -10.5t60 -1q92 0 183.5 23.5t180.5 58.5t175 74t166 69q8 4 37.5 12.5t64.5 18.5t64.5 18.5t38.5 12.5q8 4 28.5 12t43 18.5t43 18.5t28.5 12h10q10 0 10 -20 q0 -23 -11 -36t-19 -36q-31 -92 -50.5 -179t-42.5 -179q0 -4 -6 -23.5t-14 -43t-14 -43t-6 -23.5q-4 -12 -11.5 -43t-14.5 -65t-14.5 -64.5t-11.5 -42.5q-12 -16 -21 -54.5t-19.5 -82.5t-19.5 -86t-22 -64h11q14 0 37.5 13t48 30.5t45 34t32.5 24.5q4 4 20.5 12.5t36 18.5 t36 18.5t20.5 12.5q8 4 29.5 17t47.5 29.5t47.5 32t29.5 23.5q23 39 29 83t22 91q31 70 62.5 141.5t74.5 136t101.5 116t138.5 77.5h30q31 0 49.5 -17.5t29 -42t15.5 -53t9 -51.5v-10h-62q0 -16 6.5 -24.5t14.5 -15.5t14 -13t6 -19v-10l-10 -10q0 -8 -15.5 -30.5 t-15.5 -30.5l-153 -154q-47 -39 -112.5 -75t-112.5 -58q-16 -49 -34 -94t-32 -90.5t-24.5 -90.5t-10.5 -94q0 -43 8.5 -83t29 -71.5t53 -51t81.5 -19.5q23 0 36 1t36 9l307 154h31q-8 -23 -34 -39.5t-48 -32.5q-49 -27 -99.5 -54.5t-102.5 -49t-106.5 -36t-111.5 -14.5 q-53 0 -88 19.5t-56.5 52.5t-29.5 75t-8 89q0 43 9 83t21.5 80t21.5 77.5t9 76.5v11q-16 0 -24.5 -11.5t-16.5 -19.5q-109 -53 -209 -124t-200 -132l-11 -10q-23 -43 -52 -91.5t-65 -89.5t-81 -68.5t-99 -27.5h-51l-10 10q0 18 13.5 46t33 54.5t40 49t36.5 35.5q8 4 26.5 15 t40 25.5t40 26t26.5 15.5q31 53 46 117.5t46 117.5l164 697q8 31 24.5 62.5t16.5 70.5v10q-86 -39 -169 -55.5t-169 -47.5q-92 -35 -181 -72.5t-179 -69.5t-182.5 -52.5t-192.5 -20.5h-72q-39 16 -65.5 36t-26.5 67zM115 70q18 0 38.5 13t37 33.5t26.5 44.5t10 42 q-23 0 -43 -13.5t-35.5 -34t-24.5 -44t-9 -41.5zM973 735h10q18 12 39 23q16 10 33.5 17t29.5 11q8 0 19 11q6 4 12 10l133 133l11 31l20 30q8 39 19.5 87.5t11.5 87.5h10v20l-21 -10h-10l-41 41q-27 0 -44 -13.5t-29.5 -32t-24 -37t-25.5 -30.5q-47 -86 -92 -186.5 t-61 -192.5zM1321 981q0 -8 5 -8t5 8t-5 8t-5 -8zM1333 1216.5q0 -10.5 8 -10.5t8 10.5t-8 10.5t-8 -10.5zM1354 1206.5q0 -10.5 8 -10.5t8 10.5t-8 10.5t-8 -10.5z" />
<glyph unicode="I" horiz-adv-x="841" d="M8 139q0 14 16.5 27.5t40 24t47 15.5t40.5 5q0 -70 42 -106.5t113 -36.5q35 0 63.5 15t51 41t40 56.5t30.5 61.5q14 45 23 95t15.5 99t10.5 98.5t12 96.5q14 84 33.5 178t44 187.5t54.5 180.5t65 160h-11q-4 0 -17 -3t-29.5 -7t-30 -7t-17.5 -3h-266q-23 0 -43.5 6 t-40 14.5t-38.5 14.5t-44 6q-23 0 -31 -15.5t-30 -15.5l-11 10h-30q31 39 80 66t96 27t81.5 -14.5t82.5 -37.5h288q23 0 43.5 6.5t39 14.5t39 14t42.5 6q0 -16 -12 -35.5t-29 -35.5q-23 -78 -54.5 -149t-47.5 -148q-16 -70 -22.5 -138.5t-28.5 -138.5q0 -4 -7.5 -20.5 t-14.5 -36t-14 -35.5t-7 -20q-16 -53 -19.5 -113t-11.5 -113q-12 -88 -41 -167t-79 -137t-123 -92t-169 -34q-27 0 -63.5 9.5t-70.5 26.5t-57.5 41.5t-23.5 55.5z" />
<glyph unicode="J" horiz-adv-x="671" d="M-457 -788q0 66 33 122t74 113h-4v4q86 113 187 229.5t208 217.5q14 12 35.5 29.5t44.5 31.5q20 14 39.5 29.5t42.5 42.5h-4l41 151q18 63 34.5 128t26.5 132l184 738h15q-37 4 -75 8t-69 10q-53 8 -104 15.5t-105 7.5h-49q-16 0 -30.5 1t-30.5 1q-35 0 -70 -5.5 t-65 -17.5q2 -2 0 -9t-6 -13q-4 -14 -17.5 -26.5t-48.5 -12.5t-48 9t-13 32q0 35 25.5 53t61 27.5t74.5 10.5t64 1q49 0 98 -1t98 -3t104.5 -4t108.5 -2h115q31 12 58.5 36.5t52.5 55.5q10 12 21.5 24.5t25.5 26.5h35q16 0 28.5 -2t12.5 -19q0 -53 -25 -79.5t-57 -49.5 q-14 -8 -31.5 -25.5t-32.5 -39.5q-8 -16 -13 -50t-5 -42q-61 -199 -111.5 -397.5t-97.5 -403.5q-10 -49 -22.5 -96t-24.5 -95q10 6 31.5 15.5t47 22t51 25.5t44.5 26h-2l33 24q16 8 41.5 22.5t54.5 30.5q31 18 67 37h62q0 -10 -9.5 -21.5t-23.5 -21.5t-28.5 -18t-22.5 -12h2 q-18 -12 -65.5 -38t-94.5 -51q-37 -20 -81 -42.5t-79 -43.5q-6 -4 -22 -19t-33 -32h6q-4 -18 -17 -60t-29.5 -90t-33 -92t-24.5 -65q-23 -66 -59.5 -149.5t-85 -165.5t-108.5 -152t-130 -106h-23q66 74 115 150.5t89 157.5t72 168t62 179l8 22q10 29 20.5 56.5t10.5 64.5v4 l-22 -14q-18 -14 -41 -31.5t-45 -40.5q-4 -4 -13 -8q-6 -4 -13 -7t-15 -5h8q-10 -6 -35 -28.5t-50.5 -49.5t-48 -51.5t-30.5 -36.5q-39 -43 -81 -91t-76.5 -101.5t-57.5 -109.5t-23 -116v-51q4 -20 17.5 -34.5t32 -24t37 -15.5t32.5 -8q-16 -8 -33.5 -9t-33.5 -1 q-31 0 -52.5 10t-37 24.5t-24.5 31t-15 28.5q-4 10 -5.5 14.5t7.5 4.5h-17zM639 1303h25l10 10h-35v-10z" />
<glyph unicode="K" horiz-adv-x="1687" d="M-354 1253q53 78 139 116t178 38q61 0 119.5 -14.5t116 -32t115 -31.5t118.5 -14q53 0 102.5 4t102.5 27q23 8 52.5 21t62 26.5t66.5 23.5t65 10q0 -53 -22.5 -110t-39.5 -105q-53 -217 -115.5 -423.5t-140.5 -415.5q-31 -78 -57.5 -134.5t-63 -98.5t-92 -72.5 t-143.5 -53.5q-16 16 -20.5 18.5t-20.5 2.5q-23 0 -34 -5t-28 -5q-18 0 -46.5 6t-54 19t-44 34.5t-18.5 52.5q4 8 15 17.5t25.5 17.5t25.5 15.5t16 11.5q12 -39 38.5 -61.5t61.5 -34t73 -14.5t72 -3q63 0 104.5 39t67 94t41 116.5t31.5 108.5q4 8 15.5 44t25.5 79t25.5 79 t15.5 44q0 8 6 33t14.5 54.5t14.5 54t6 32.5q18 66 36.5 120t33 106.5t23.5 108.5t9 126q-23 0 -40 -5t-32.5 -13.5t-32 -16.5t-38.5 -16q-8 -4 -26.5 -9t-39 -10.5t-37 -8.5t-20.5 -3h-92q-66 0 -125 12.5t-117.5 27.5t-117 28.5t-119.5 13.5q-47 0 -79 -11t-56.5 -24.5 t-46 -25t-44.5 -11.5h-30zM98 96q0 -10 8 -10t8 10t-8 10t-8 -10zM688 629q0 23 18.5 43t43 36.5t50 28t42.5 15.5h82q66 18 130 59t126.5 91t122 102.5t112.5 95.5q31 23 69 49.5t76.5 55t75.5 59t64 61.5q14 8 49 29.5t74 47t72.5 47t50.5 30.5q39 23 100 47t115 24 q14 0 35.5 -1t41 -8t33 -21.5t13.5 -40.5q0 -23 -10.5 -42.5t-41.5 -19.5q-23 0 -43 14.5t-28 36.5h-62q-61 0 -114.5 -20.5t-100.5 -50.5q-16 -12 -50 -36t-72 -50.5t-69.5 -48t-43.5 -29.5l-14.5 -14.5t-20.5 -21.5t-20.5 -21.5l-14.5 -14.5t-19.5 -12t-32 -18.5 t-31.5 -18.5t-19 -12l-72 -72q-6 -6 -12 -10q-10 -10 -19 -10q-4 -4 -17.5 -11.5t-28.5 -14.5t-28.5 -14t-17.5 -12q-78 -53 -153.5 -117.5t-153.5 -117.5l-10 -10v-11q4 -18 14 -66t21.5 -102.5t21.5 -102.5t14 -67q12 -49 37 -96t59.5 -81.5t81 -56.5t99.5 -22 q78 0 137 27t129 66q18 12 42 30.5t49.5 37t52 31.5t49.5 13q0 -23 -8.5 -34t-23 -17t-30.5 -9t-31 -11q-18 -8 -30.5 -15.5t-22.5 -16.5t-21.5 -18.5t-25.5 -21.5q-86 -53 -167 -88t-181 -35q-92 0 -150.5 44t-94.5 109.5t-54.5 143.5t-30.5 143.5t-24 109.5t-35 44 t-52.5 -15.5t-60.5 -15.5q-8 0 -20.5 10.5t-20.5 10.5zM811 680q0 -8 10 -8t10 8t-10 8t-10 -8z" />
<glyph unicode="L" horiz-adv-x="1413" d="M-154 45v10q70 87 170 135q85 41 175 40q17 0 34 -1l11 11q4 4 17 28.5t29.5 57t32 65.5t23.5 51q23 53 36 112.5t36 113.5q53 123 110.5 226t134.5 204v10l-10 10l-266 131q-23 31 -56.5 45.5t-64.5 30.5t-52.5 44t-21.5 85q0 12 1 27.5t5.5 30t15.5 24.5t30 10h10 l30 -51q-23 -8 -21.5 -21.5t1.5 -29.5q0 -53 53 -100.5t125 -82t145.5 -54t114.5 -19.5q23 0 31 2t31 18q45 31 89 61.5t89 56.5t94 41t107 15q12 0 35.5 -1t47 -7t42 -18.5t18.5 -34.5q0 -61 -36 -101t-88 -65t-113.5 -37t-110.5 -20q-12 0 -40 -2t-58.5 -3t-57 -3.5 t-39.5 -2.5q-84 -78 -141 -184t-101 -223t-85 -234.5t-91 -216.5v-10l11 -10l530 -123h236q4 0 17 3t29.5 8t32 10.5t23.5 9.5q14 8 47 23.5t69 35t70.5 42t53.5 44.5h51q-59 -41 -113.5 -83t-121 -76.5t-155.5 -59.5t-218 -29q-10 -1 -21 -1q-30 1 -62 5q-44 6 -90.5 13.5 t-90.5 16.5t-83 18q-8 0 -31.5 8t-50 17t-50 17.5t-31.5 8.5h-52h-51l-20 -21q-8 -4 -28.5 -17t-43 -28.5t-43 -29t-29.5 -17.5h-10q-8 0 -14 2t-6 19q47 8 75.5 41.5t36.5 80.5q-16 8 -35.5 9.5t-35.5 1.5t-45 -4t-57.5 -11.5t-50 -19.5t-21.5 -27v-10q0 -4 5 -14.5 t10 -21.5t10 -21.5t5 -14.5q4 0 14.5 -3t20.5 -7q12 -6 27 -10q0 -12 -10.5 -18.5t-23.5 -9.5t-26.5 -3h-21.5v21h-33.5t-33 4t-26 17t-10.5 40zM-69.5 14.5q-0.5 -10.5 8.5 -10.5q8 0 8 10.5t-8 10.5t-8.5 -10.5zM807 1178q0 -8 4 -17.5t27 -3.5h92q43 0 88 4t82 19.5 t61.5 46t24.5 84.5q-16 0 -39 3t-49.5 4t-52 -2t-44.5 -16l-163 -81q-23 -8 -27 -13t-4 -28zM1198 1290q0 -10 8 -10t8 10t-8 10t-8 -10zM1206 1260q0 -8 5.5 -8t5.5 8t-5.5 8t-5.5 -8zM1219 1341.5q0 -10.5 8 -10.5t8 10.5t-8 10.5t-8 -10.5zM1229 1321q0 -10 8 -10t8 10 t-8 10t-8 -10zM1239 1239q0 -10 8 -10t8 10t-8 10t-8 -10zM1239 1300.5q0 -10.5 8 -10.5t8 10.5t-8 10.5t-8 -10.5z" />
<glyph unicode="M" horiz-adv-x="2048" d="M-109 188q0 23 9.5 47.5t26 46t39 35t48.5 13.5q0 -31 -10 -61.5t-10 -61.5q0 -37 15.5 -67.5t42 -51t59 -32t67.5 -11.5q51 0 107.5 33t114 86t111.5 118.5t102.5 130t86 121t60.5 93.5q23 39 47 56t55 54q4 6 10 13q4 4 7.5 9t3.5 9q47 78 91 151.5t52 165.5 q0 14 2 55.5t3 87.5t3 86t2 56q4 23 15.5 49.5t30 50t43 39t55.5 15.5t41 -36t10 -67t-10.5 -76t-24.5 -92t-29.5 -92t-27.5 -76v-327q18 -84 29.5 -169t25.5 -168t37.5 -163t71.5 -152l61 31q33 31 61 60l93 92l14 14t21.5 22.5t21.5 24.5t14 21q8 12 21.5 29.5t27 37 t23.5 37t10 29.5v264q0 23 16.5 48.5t41 47t53 34.5t51.5 13q16 -16 18 -27.5t2 -33.5q0 -39 -12 -86t-29 -86q0 -4 -6 -15.5t-14 -25.5t-14 -25.5t-6 -15.5v-10v-11q0 -16 2 -39.5t3 -48t3 -43t2 -22.5q4 -39 11 -96.5t26.5 -110.5t54.5 -91t92 -38h21q78 23 143 78 t113 115q8 0 25.5 10t25.5 10h10q0 -45 -54.5 -92t-125 -85t-140 -62.5t-100.5 -24.5q-57 0 -94 41t-58.5 98t-32.5 117.5t-18 99.5l-10 10q-35 -31 -87 -92t-109.5 -121.5t-113.5 -106.5t-99 -46q-47 0 -71 35.5t-32 66.5q-61 176 -93 362.5t-40 370.5l-10 11 q-16 -43 -43 -86t-58.5 -85t-64.5 -81t-59 -74q-33 -49 -80 -113.5t-103.5 -132t-120 -133t-130 -118t-136 -84t-135.5 -31.5q-43 0 -78 23.5t-61.5 60t-41 79.5t-14.5 82zM1763.5 768q-0.5 -10 8.5 -10q8 0 8 10t-8 10t-8.5 -10z" />
<glyph unicode="N" horiz-adv-x="1832" d="M12 176q0 53 36 97t97 44q0 -31 -15 -51t-15 -49q0 -27 17.5 -51.5t43 -43t56 -28.5t57.5 -10h10l123 61q8 0 18 11q6 4 13 10l317 315q4 4 23.5 31t45 62.5t51 72.5t42.5 60q16 23 34.5 55.5t26.5 54.5q0 12 2 36t3 51.5t3.5 51t2.5 35.5q8 53 21 126t42 137.5t77 109.5 t126 45q16 0 18 -16.5t2 -24.5q0 -27 -4 -59.5t-11 -66.5t-19.5 -64.5t-26.5 -53.5q-18 -35 -40 -66.5t-40.5 -64t-30.5 -67.5t-12 -78q0 -96 26.5 -188.5t68.5 -181.5t95.5 -173t106.5 -160q4 -4 20.5 -18t36 -28.5t35.5 -23.5t21 -1l30 41l256 510q12 27 32.5 57.5 t45.5 61t47.5 58t38.5 46.5q170 209 386 351t462 251q8 0 35.5 10t36.5 10q76 31 139 41.5t147 10.5q43 0 96.5 -4.5t100.5 -19.5t79 -46t32 -84q0 -39 -21.5 -65.5t-60.5 -26.5q-8 0 -15.5 1t-15.5 9q4 20 4 38q-1 36 -17 60q-24 37 -66 55.5t-93 24.5t-94 6 q-74 0 -160 -17t-171 -48t-162 -72t-130 -86l-41 -41q-4 -4 -17.5 -11t-28.5 -14t-28.5 -14.5t-17.5 -11.5l-10 -10q-18 -23 -43 -41.5t-49.5 -35.5t-49 -35.5t-43.5 -41.5q-176 -199 -302 -417t-240 -470q-31 -39 -69 -70.5t-85 -31.5q-39 0 -72.5 18.5t-62.5 48 t-52.5 63.5t-37.5 65q-12 18 -35 59t-45.5 84t-40.5 78t-23 43q-12 27 -20 59.5t-16.5 66.5t-19.5 65.5t-25 54.5q-4 -8 -17.5 -25.5t-29 -36t-29 -36t-17.5 -25.5q-4 -4 -12 -17.5t-17.5 -29t-17.5 -28.5t-12 -17q-47 -47 -100.5 -90.5t-83.5 -104.5q-47 -45 -98.5 -97.5 t-110 -96.5t-124 -72.5t-138.5 -28.5q-31 0 -64 14.5t-59.5 38t-44 55t-17.5 66.5zM1116 1063q31 61 56.5 123.5t25.5 130.5q-18 0 -33.5 -34t-27 -77t-16.5 -82t-5 -51v-10z" />
<glyph unicode="O" horiz-adv-x="1253" d="M2 602q0 109 32 216.5t101 193.5q8 8 30.5 35.5t31.5 35.5q12 12 38.5 35t54 46.5t49 44t21.5 28.5q0 14 -23.5 20.5t-53 9.5t-53 6t-23.5 15q0 14 10 27.5t24.5 24t30 15.5t27.5 5q23 0 46.5 -8.5t47 -17.5t49 -17t52.5 -8q100 53 195 93t204 40q27 0 63.5 -5 t70.5 -17.5t57.5 -34t23.5 -56.5q0 -66 -42 -99.5t-100.5 -48t-121 -15.5t-105.5 -1q-53 0 -102 2t-102 19q-8 0 -31 10t-31 10h-10q-12 0 -27.5 -8t-32 -18.5t-31 -20.5t-22.5 -14q-123 -100 -184.5 -245.5t-61.5 -307.5q0 -119 34 -215t98.5 -165t157.5 -105.5t212 -36.5 q137 0 267.5 60t229.5 159.5t159.5 228.5t60.5 268v82q-23 78 -59.5 126t-114.5 79v10q0 12 11 22.5t27.5 20t34 14.5t29.5 5h21q27 -23 45 -45.5t33.5 -46t31 -51t33.5 -62.5v-92q0 -104 -23.5 -187t-66.5 -154t-103.5 -134.5t-134.5 -128.5q-61 -49 -124.5 -94.5t-132 -79 t-142.5 -53t-153 -19.5q-145 0 -247 45t-165.5 126t-92 191.5t-28.5 241.5zM575 1288q14 -23 52.5 -32t60.5 -9h277q8 0 24.5 6.5t16.5 14.5v20q0 39 -21.5 52.5t-60.5 29.5h-82q-31 0 -68 -3t-73.5 -11t-69.5 -24.5t-56 -43.5z" />
<glyph unicode="P" horiz-adv-x="964" d="M-551 1169q0 27 14.5 49.5t36 39t49 25.5t54.5 9q0 -31 -20.5 -51t-20.5 -51v-21q31 -23 52 -26.5t60 -3.5t67 2t66 18l623 236q109 39 221.5 50t229.5 11q68 0 146.5 -4t148.5 -27q53 -18 106 -60t95 -97.5t69 -119t27 -124.5q0 -74 -36 -128t-91.5 -96t-120 -72 t-121.5 -52q-4 0 -15.5 -3t-25.5 -7t-25.5 -7.5t-15.5 -3.5q-8 0 -25.5 -10t-25.5 -10q-84 -8 -179.5 -9t-187.5 -1q-23 -16 -32 -56.5t-9 -56.5q-18 -66 -43.5 -149.5t-67.5 -157.5t-103.5 -125t-153.5 -51q-4 0 -15.5 1t-24 4t-22.5 11.5t-10 24.5q0 8 8 15t18.5 13 t20.5 9.5t14 3.5q23 0 36 -10.5t36 -10.5t50.5 34t54 86t52 116.5t45 124t32 106.5t12.5 68q0 14 -11.5 23t-28 15.5t-33.5 10.5t-30 12q31 16 62 28.5t61 12.5l10 21l113 534q4 12 16.5 19.5t28 12.5t30.5 7t28 2q0 -61 -15.5 -137t-35 -156t-40 -155.5t-32.5 -137.5v-20 q0 -16 2 -23.5t18 -7.5h356l13 4q4 2 9 4t9 2q49 18 106.5 42t106.5 55.5t82 78t33 111.5q0 61 -16.5 111.5t-44 92.5t-64.5 80t-80 76q-35 23 -79 34.5t-90 15.5q-37 3 -74 3h-18q-46 -1 -85 -1q-109 0 -212 -19.5t-204.5 -51.5t-202 -72t-200.5 -83q-92 -39 -179 -76.5 t-188 -37.5q-27 0 -57.5 5t-56 17.5t-43 35t-17.5 56.5z" />
<glyph unicode="Q" horiz-adv-x="1253" d="M2 602q0 109 32 216.5t101 193.5q8 8 30.5 35.5t31.5 35.5q12 12 38.5 35t54 46.5t49 44t21.5 28.5q0 14 -23.5 20.5t-53 9.5t-53 6t-23.5 15q0 14 10 27.5t24.5 24t30 15.5t27.5 5q23 0 46.5 -8.5t47 -17.5t49 -17t52.5 -8q100 53 195 93t204 40q27 0 64.5 -5 t71.5 -17.5t57.5 -34t23.5 -56.5q0 -66 -42 -99.5t-101.5 -48t-122 -15.5t-105.5 -1q-53 0 -102 2t-102 19q-8 0 -31 10t-31 10h-10q-12 0 -27.5 -8t-32 -18.5t-31 -20.5t-22.5 -14q-123 -100 -184.5 -245.5t-61.5 -307.5q0 -96 27 -187.5t80 -164t131 -118.5t182 -54 q8 0 29.5 2t48.5 3t50.5 3t35.5 2q0 39 -38 75.5t-85 36.5q-23 0 -41 -10t-41 -10h-10q23 39 59.5 55.5t83.5 16.5q31 0 60 -12.5t52.5 -33t41.5 -46t31 -52.5h10q27 12 49 23q20 10 42 20.5t34 18.5q84 45 155.5 111.5t124 146.5t81 171t28.5 187v92q-23 78 -59.5 126 t-114.5 79v10q0 12 11.5 22.5t27.5 20t33.5 14.5t29.5 5h21q27 -23 45 -45.5t33.5 -46t31 -51t33.5 -62.5v-92q0 -104 -22.5 -187t-64.5 -155t-103.5 -135.5t-136.5 -128.5q-61 -53 -119 -94.5t-129 -79.5l-11 -11q0 -8 11.5 -30.5t19.5 -30.5q47 -66 100.5 -130.5 t115 -114.5t133 -81.5t155.5 -31.5q86 0 162 17t145 64q18 12 37 31t38 37t40.5 31.5t48.5 13.5q-4 -18 -17.5 -32.5t-30.5 -27t-34.5 -25.5t-30.5 -28q-57 -35 -110 -59.5t-107.5 -40.5t-111 -24.5t-121.5 -8.5h-72l-143 72l-248 246q-4 8 -14.5 23.5t-21.5 31.5 t-21.5 29.5t-14.5 17.5l-10 10q-47 0 -97 -10t-97 -10q-145 0 -247 45t-165.5 126t-92 192.5t-28.5 242.5zM575 1288q14 -23 52.5 -32t60.5 -9h279q8 0 24.5 6.5t16.5 14.5v20q0 39 -21.5 52.5t-60.5 29.5h-84q-31 0 -68 -3t-73.5 -11t-69.5 -24.5t-56 -43.5z" />
<glyph unicode="R" horiz-adv-x="1134" d="M-662 1251q0 31 26 46.5t56 14.5h11q0 -31 20.5 -57t50.5 -34h92q117 0 219.5 31.5t209.5 70.5q162 53 313 88t321 35h134q29 -15 67 -15h4.5h4.5q38 0 67 -16q45 -23 88 -52.5t74.5 -66t51 -84t19.5 -104.5q0 -80 -32.5 -144.5t-86 -115.5t-121 -90t-136.5 -70 q-39 -16 -72 -26.5t-64.5 -20.5t-63.5 -23.5t-67 -31.5q70 -39 128.5 -102.5t97.5 -125.5q4 -4 11 -17t14 -28.5t14.5 -29t11.5 -17.5q156 -188 354.5 -312t421.5 -197.5t459.5 -104.5t470.5 -31q78 0 148.5 5t148.5 5h20q-16 -18 -63 -29.5t-101.5 -15.5t-104.5 -5t-69 -1 q-207 0 -391 21.5t-385 60.5q-23 4 -41 6t-35.5 5t-36 7.5t-41.5 12.5l-358 143l-10 10q-90 45 -160 90.5t-145 114.5l-103 103q-12 14 -36.5 48t-55.5 74.5t-66.5 85t-69.5 80t-65.5 59t-54.5 23.5q-4 0 -11 -13t-13.5 -30.5t-11.5 -35t-5 -25.5t-5 -31.5t-10 -50.5 t-10.5 -50.5t-5.5 -31.5q-16 -47 -46.5 -91t-71.5 -78t-90.5 -55.5t-98.5 -21.5q-12 0 -29.5 2t-34 8.5t-27.5 15.5t-11 25l10 11q14 2 29 4q10 2 22.5 4t20.5 2h10q8 0 16.5 -15.5t24.5 -15.5q57 18 91 57t52.5 86.5t28.5 101.5t23 103q8 23 13 38.5t9 28.5t6 28.5t2 40.5 q-16 0 -41.5 -3.5t-53.5 -2.5t-52.5 8.5t-36.5 27.5q0 8 6 15.5t14 13.5q8 8 21 12q23 12 40 19.5t33.5 13.5t35 10t44.5 8q12 4 23.5 50.5t21 111t17.5 139t17.5 137t20.5 104.5t23 42h93l-62 -399q-16 -47 -28.5 -92t-12.5 -93v-20q0 -8 16.5 -14.5t24.5 -6.5q18 0 52 8.5 t71 20.5t70.5 26.5t52.5 26.5q12 4 38.5 17.5t57.5 30t58.5 32t39.5 23.5q61 47 107.5 123.5t46.5 162.5q0 84 -46 144.5t-115.5 98.5t-149.5 56.5t-150 18.5q-84 0 -172 -12.5t-174 -33t-170 -46t-160 -51.5q-92 -31 -190 -67t-207 -36q-23 0 -56.5 1t-64 10.5t-52.5 28 t-22 52.5zM248 586h71v10h-61z" />
<glyph unicode="S" horiz-adv-x="1497" d="M2 485q0 23 6 46.5t15 46.5q109 117 239.5 191.5t290.5 74.5q35 0 73 -5t69.5 -19.5t52 -40t20.5 -68.5q0 -49 -37 -88t-89 -65t-107.5 -39t-94.5 -13t-65.5 1t-65.5 9v10q0 4 8.5 9.5t18.5 10.5t20.5 8t14.5 3h192q4 0 15.5 5t25.5 11.5t25.5 13.5t15.5 11 q16 16 18.5 32.5t2.5 39.5q0 61 -41 92t-103 31q-53 0 -126.5 -15.5t-140.5 -49.5t-114 -86t-47 -126q0 -119 61.5 -204t157 -140t208 -80.5t216.5 -25.5q55 0 128 15t147.5 43t146.5 70t128 94t90 114.5t34 134.5q0 80 -38 142t-95 110.5t-125 84t-129 62.5 q-35 23 -55.5 57.5t-30.5 74.5t-13 80t-3 75q-53 23 -98.5 69.5t-75.5 93.5v11q0 8 8 15t18 13.5t20.5 9.5t14.5 3q18 0 37.5 -18.5t40 -41t42 -44t44.5 -29.5q23 27 66.5 51t96 42.5t103.5 29t90 10.5q14 0 32.5 -1t34 -7.5t26 -18.5t10.5 -35q-2 -8 -7 -16q-4 -6 -7 -13.5 t-7 -11.5q-70 -84 -162 -114.5t-205 -38.5v-31q0 -63 35 -108.5t87.5 -81t112.5 -69.5t112.5 -77t87 -99.5t34.5 -137.5q0 -43 -20 -95.5t-53 -102.5t-73 -91t-79 -60l-366 -184q-23 -12 -52.5 -19.5t-61.5 -12.5t-63.5 -7t-58.5 -2q-88 0 -188.5 15.5t-190.5 52.5 t-161.5 100.5t-102.5 159.5q-16 39 -28.5 69.5t-12.5 83.5zM4 485.5q0 -10.5 8 -10.5t8 10.5t-8 10.5t-8 -10.5zM66 454.5q0 -10.5 8 -10.5t8 10.5t-8 10.5t-8 -10.5zM1075 1294q0 -23 27.5 -26.5t42.5 -3.5q14 0 45 4t61.5 13t54 25.5t23.5 39.5q0 8 -2 15t-18 15h-41 q-12 0 -43 -7t-65 -18.5t-59.5 -27t-25.5 -29.5z" />
<glyph unicode="T" horiz-adv-x="802" d="M-393 1098q0 27 12 52.5t32.5 46t46.5 32.5t52 12h21q-4 -16 -14.5 -27.5t-20.5 -23.5t-18.5 -24.5t-8.5 -26.5q0 -47 32 -59.5t71 -12.5q49 0 90 9t77.5 23.5t74.5 33t85 36.5q389 156 789 279q61 23 128.5 34t137.5 27q31 8 66.5 10.5t66.5 10.5h287q49 0 97 -22.5 t86 -59.5t60.5 -83t22.5 -93q0 -84 -47 -143.5t-117 -112.5q-31 -23 -72.5 -38t-80.5 -24v11q0 8 36.5 30.5t80.5 60.5t81 89t37 117v10q-18 55 -43.5 91t-59.5 60.5t-77 39t-96 26.5h-144q-150 0 -294 -29.5t-284.5 -76t-276.5 -103.5t-271 -111q-4 0 -20.5 -6t-36 -14 t-36 -14.5t-20.5 -6.5q-16 -8 -56 -25.5t-56 -25.5q-41 -16 -74 -26q-29 -10 -52.5 -17.5t-27.5 -7.5t-20.5 -3t-36 -7t-36 -7t-20.5 -3l-30 -11h-11q-47 0 -79.5 28t-32.5 75zM154 -39q0 31 32.5 51.5t73.5 38t79 34.5t50 42q16 31 19.5 72t11.5 71l4 13q2 4 4 9t2 9 q31 84 46.5 155.5t31.5 157.5q0 4 5 17.5t10 29t10.5 28.5t5.5 18q0 8 5 20t5 21q12 57 19 115.5t15.5 114.5t21.5 112.5t36 109.5q4 12 17.5 18.5t30 9.5t31.5 3h23q0 -39 -16 -85t-25 -69q-31 -113 -50 -236.5t-41.5 -248.5t-54.5 -247t-85 -228q43 8 102.5 33.5t120 59.5 t112.5 70.5t79 67.5q8 -16 9 -25.5t1 -25.5t-20.5 -36.5t-48 -40t-54.5 -36t-39 -24.5q-8 -4 -37.5 -18.5t-63.5 -30t-62.5 -29.5t-37.5 -19q-8 0 -35.5 -10t-35.5 -10q-27 -12 -40 -33.5t-29.5 -44t-44.5 -39t-81 -16.5q-16 0 -35.5 1t-36 5t-28.5 15.5t-12 29.5zM215 -49 h21q39 0 71.5 22.5t40.5 69.5h-10q-16 0 -35.5 -7t-38 -19.5t-32 -30t-17.5 -35.5z" />
<glyph unicode="U" horiz-adv-x="1576" d="M-43 1255v11q0 4 13.5 19t33 34.5t39.5 38t37 31.5q39 31 78 41t86 10q61 0 94 -31t49 -92v-72q0 -61 -7 -101t-24 -93q0 -4 -3 -20.5t-7 -36t-7 -36t-3 -20.5q-18 -74 -42 -152.5t-44.5 -160.5t-33.5 -164t-13 -158v-82q0 -16 10 -30.5t22.5 -26.5t23.5 -21.5t15 -13.5 q47 -39 104.5 -45t110.5 -6q92 0 185.5 31.5t161.5 101.5q27 27 59.5 58.5t66 66.5t65.5 70.5t54 70.5l4 17q2 6 4.5 13t2.5 11q14 80 22 167t28.5 167t66.5 145.5t139 104.5q16 -8 18 -21.5t2 -29.5t-5 -27.5t-5 -34.5q0 -6 2 -10q4 -10 8 -10q0 -23 -10 -57.5t-24.5 -70.5 t-30 -71t-27.5 -57q-4 -12 -17.5 -36t-29 -51.5t-28.5 -51t-17 -35.5q-8 -53 -9 -97.5t-1 -97.5q0 -27 3 -78t15 -102t36.5 -89t67.5 -38q57 0 98.5 33.5t77 73.5t70.5 74t82 34h10q-8 -23 -21.5 -29t-29.5 -22t-30.5 -36t-30.5 -36q-8 -8 -23.5 -21.5t-32 -26.5t-30 -23.5 t-17.5 -10.5l-143 -72h-31q-70 0 -106.5 48.5t-52.5 114.5q-17 68 -18 136v26q0 51 3 85q-61 -70 -135 -137.5t-157 -121.5t-174 -87t-187 -33q-57 0 -114.5 9.5t-102.5 33t-73 65.5t-28 107v51q14 111 40 219.5t53.5 215t55 212t46.5 214.5v61q0 31 -3 60.5t-13.5 52 t-31 37t-54.5 14.5q-47 0 -78 -16.5t-55.5 -35t-48 -35t-54.5 -16.5zM1235 805q23 39 32 78t9 86q-12 0 -19.5 -20.5t-12.5 -47.5t-7 -49.5t-2 -26.5v-20z" />
<glyph unicode="V" horiz-adv-x="909" d="M2 1063q0 31 33 46t75 22.5t81.5 11.5t56.5 12q27 14 46 44t39.5 57.5t45 49t63.5 21.5q16 0 23.5 -12t7.5 -29q0 -31 -15.5 -53.5t-37 -42t-47 -35.5t-43.5 -31q-8 -8 -13.5 -25.5t-9.5 -36t-6 -35.5t-2 -26v-194q0 -170 15.5 -345t76.5 -329q8 0 36 37t59.5 82t58 84 t30.5 43q0 4 6.5 14t14.5 20.5t14 20.5t6 15l82 81q45 47 84 109.5t78 116.5q100 123 217 226t234 204q8 8 35.5 19.5t35.5 19.5q139 92 269.5 170t283.5 147l31 10q242 61 500 62q66 0 130 -25.5t114.5 -69.5t82 -103.5t31.5 -129.5q0 -37 -16.5 -74.5t-43 -68.5t-61 -50.5 t-73.5 -19.5q0 14 16 25.5t34.5 27t35 43t16.5 76.5q0 76 -34 134.5t-87 96t-120.5 57t-137.5 19.5q-92 0 -196.5 -10t-190.5 -41q-96 -39 -182 -83t-166 -93t-159 -104.5t-159 -116.5q-86 -70 -172 -135.5t-155 -151.5q-18 -18 -43 -46t-48.5 -57.5t-46 -59t-36.5 -52.5 q-4 -8 -19.5 -31.5t-33 -51t-35 -53.5t-23.5 -38q-18 -31 -62 -96.5t-96.5 -135t-103.5 -124t-86 -62.5q-61 186 -97 374.5t-36 381.5v92q0 12 3 44t8 69t10 68.5t10 43.5h-31q-53 0 -102.5 -10t-102.5 -10zM371 1206l20 19v10q-8 -8 -14 -15.5t-6 -13.5z" />
<glyph unicode="W" horiz-adv-x="1462" d="M2 1208q14 23 45 37.5t64.5 23.5t65.5 13t50 8q18 39 47 76t65 65.5t77 46t88 17.5q61 0 61 -61q0 -53 -39 -86t-90 -55.5t-100 -43t-68 -51.5q-43 -80 -68.5 -178t-40 -201.5t-19.5 -206t-5 -190.5v-154q0 -16 2 -47t10.5 -61.5t22.5 -53t37 -22.5q31 0 55.5 12.5 t46.5 28.5q86 61 167 124.5t151 141.5l10 21q8 39 13 79.5t13.5 80.5t23.5 78t42 69l23.5 23.5t33 32t33 31.5t23.5 23h30q6 2 15 2q16 0 16 -12v-80q-18 -39 -35 -73q-14 -29 -30.5 -61t-26.5 -50q-8 -16 -30.5 -45t-30.5 -37v-123q0 -61 2 -122.5t18 -123.5 q23 8 46.5 21.5t45.5 30.5q293 309 627 561t706 461q104 57 220 120.5t239 115.5t250 87t254 35q74 0 141.5 -19.5t120.5 -58.5t85 -99.5t32 -139.5q0 -66 -26.5 -122.5t-71.5 -97.5t-104.5 -64.5t-125.5 -23.5q-31 0 -56.5 6.5t-55.5 14.5q8 8 15 14t15 6q66 0 120 6.5 t94 29t61.5 64.5t21.5 115q0 80 -25.5 140.5t-70.5 99.5t-106.5 58.5t-135.5 19.5q-115 0 -210 -29t-210 -74l-20 -10l-10 -20q-8 0 -30.5 -10.5t-31.5 -10.5q-147 -61 -284.5 -143t-268.5 -174q-74 -49 -149.5 -98.5t-151 -98.5t-147.5 -101t-137 -110q-8 -4 -32 -26.5 t-50.5 -50t-50 -50t-31.5 -26.5q-53 -47 -97.5 -102.5t-97.5 -102.5q-8 -4 -28.5 -19.5t-43 -34t-43 -35t-28.5 -24.5q-18 -12 -45 -33.5t-54.5 -44t-55 -39t-50.5 -16.5t-37 15.5t-22 36t-10.5 43t-2.5 38.5q0 12 -2 39t-3 57.5t-3 58t-2 40.5l-10 10h-10q-47 -23 -86 -68 t-78 -75q-12 -12 -55 -42t-95.5 -62t-100.5 -56.5t-67 -24.5q-27 0 -46 30t-31.5 69t-18.5 78.5t-6 58.5v153v154q4 27 12 90.5t18.5 133t18.5 131t12 83.5q4 27 14.5 50.5t21 48t18.5 50t8 56.5h-154zM340 1321h20q47 0 70 31.5t23 70.5q-39 0 -68 -31.5t-45 -70.5z M770 616q16 23 24.5 41t16.5 41q-16 -16 -28.5 -35.5t-12.5 -35.5v-11zM844 678q0 -10 8 -10t8 10t-8 10t-8 -10z" />
<glyph unicode="X" horiz-adv-x="1628" d="M-268 1243v31q0 8 22.5 30.5t38.5 30.5q8 4 28.5 15.5t44 26t46 25.5t35.5 15q12 4 31.5 6t40 3t40 1h31.5h82q39 -8 71.5 -30.5t71.5 -30.5q96 -74 181.5 -157t164 -170t155.5 -176t157 -173q47 23 86 63t78 70q18 14 65 52t98.5 76t98.5 68t65 30h144l41 -41 q4 -4 -2.5 -12.5t-15.5 -17.5t-19 -15.5t-15 -6.5q-8 0 -25.5 10.5t-25.5 10.5h-51q-49 0 -92 -17.5t-83 -43t-77 -56.5t-76 -57q-4 0 -12 -6t-18.5 -14.5t-18.5 -14.5t-12 -6l-82 -82l-10 -31v-10q80 -92 158.5 -201.5t164.5 -214t182.5 -193.5t211.5 -139q14 -4 43.5 -15 t60.5 -25.5t56.5 -25.5t33.5 -15q61 -23 128 -31t130 -31h164h85t68.5 2t68.5 6t85 13q8 0 38 6t67 15t70.5 17.5t49.5 12.5q8 0 31 10t31 10h10l10 -10q-8 0 -25.5 -10t-25.5 -10q-162 -47 -313.5 -80t-321.5 -33q-156 0 -291 36t-274 97q-115 49 -200 110.5t-155.5 135.5 t-137 157.5t-142.5 180.5q-4 4 -12 15t-18.5 25.5t-18.5 26t-12 15.5q0 4 -6.5 12t-14.5 18.5t-14 18.5t-6 12q0 6 -17 18q-8 6 -14 13h-10l-21 -10q-109 -109 -215 -210.5t-217 -209.5q-57 -35 -113.5 -74t-117 -73t-124 -56.5t-136.5 -22.5q-12 0 -33 2.5t-40 9.5 t-34.5 19t-15.5 31q0 23 15.5 47.5t45.5 24.5q23 -12 38.5 -19.5t30.5 -12.5t34.5 -7t50.5 -2q66 0 122 22.5t107 57t97.5 75.5t93.5 80l20 10q8 8 25 19q8 6 18 12l338 317v11q0 16 -11 25.5t-20 25.5q-8 8 -38.5 43t-67.5 78t-74 85t-55 60q-16 16 -29.5 20.5t-21.5 20.5 q-39 45 -85 97.5t-96.5 100.5t-103.5 88t-106 62q-4 0 -15.5 3t-26 7.5t-25.5 7.5t-15 3l-31 10h-72q-53 0 -89 -5t-75 -36q-4 -4 -17 -15.5t-28.5 -25.5t-29 -25.5t-17.5 -15.5h-20z" />
<glyph unicode="Y" horiz-adv-x="1265" d="M84 1272q8 14 13 19t14 12q8 4 17 11t22 19l45 41q43 41 89 72t115 31q72 0 101.5 -26t29.5 -87q0 -88 -29.5 -175t-64.5 -173q-35 -84 -61.5 -168t-26.5 -180q0 -109 52.5 -157t150.5 -48q4 0 9 -1t9 -1q18 -4 29 12h35v-10q49 4 103.5 21.5t107.5 43t100 56t82 63.5h-4 q4 10 17.5 37t28.5 56.5t30.5 56t23.5 39.5l19 22h-2q12 18 30.5 42t41 45.5t49 35.5t57.5 14q12 0 31.5 -4t19.5 -26q0 -16 -35 -61.5t-71 -90.5q-20 -23 -36 -45.5t-24 -38.5h2v-24l-16 -17h2q-37 -59 -68.5 -119.5t-40.5 -136.5l-131 -418q14 8 42 21.5t46 30.5 q8 4 25.5 14t36 21.5t33 20.5t18.5 13l41 35h-2q23 23 52.5 44.5t74.5 21.5h26q-47 -59 -118.5 -103.5t-145.5 -85.5l-49 -27l-26 -12q-23 -10 -38.5 -21.5t-52.5 -47.5h2q-10 -10 -16 -36t-12 -48q-4 -12 -8.5 -27.5t-12.5 -32.5q-72 -184 -153 -366l-51 -115 q-37 -80 -87.5 -137.5t-152.5 -108.5h-16l-31 -10l-15 4q-18 -4 -34.5 -4h-38.5q-12 0 -31.5 1t-19.5 9q-43 0 -71 12.5t-44.5 33t-22.5 46t-6 52.5q0 59 23.5 106t52.5 98l25 43q74 74 141 137.5t138 121t146.5 111.5t167.5 110h-4l21 20q6 6 18.5 44t28.5 79l20 51 q4 4 10.5 33t12.5 59q4 16 8 31.5t8 32.5q4 23 17.5 61.5t27.5 79.5q12 35 23.5 65.5t21.5 84.5l-110 -62q-84 -49 -171 -88t-198 -39h-90q-37 16 -72.5 33.5t-65.5 40t-48.5 54.5t-18.5 77q0 80 27 169t61 183q31 88 57.5 176t26.5 179q0 33 -4 55t-20 47h-25 q-49 0 -85 -28.5t-64 -57.5q-20 -20 -39 -33.5t-47 -13.5h-29zM174 -788q0 -59 13.5 -82t25.5 -35h-2q25 -18 25 -27h16q68 10 119 40t90 73t68.5 98t54.5 117h-2q4 16 26.5 72.5t50.5 121.5q23 55 41.5 98.5t34.5 96.5l15 51l14 41q-96 -51 -190.5 -128t-163.5 -163 q-31 -12 -59.5 -37.5t-53.5 -57.5t-43 -65.5t-31 -60.5h-14q-4 -2 -16 -6l-13 -4h13q-14 -41 -16.5 -67.5t-2.5 -75.5zM1227 821q0 -10 8 -10t8 10t-8 10t-8 -10zM1243 901q12 16 29 23h-27v-11q0 -6 -2 -12zM1257.5 872.5q-0.5 -10.5 8.5 -10.5q8 0 8 10.5t-8 10.5 t-8.5 -10.5zM1298.5 913.5q-0.5 -10.5 8.5 -10.5q8 0 8 10.5t-8 10.5t-8.5 -10.5z" />
<glyph unicode="Z" horiz-adv-x="1441" d="M-602 1106q0 41 25.5 83t63.5 75.5t83 54t84 19.5q100 0 193.5 -29t183.5 -52q8 0 30.5 -5t30.5 -5q27 -4 93.5 -9t142 -11t142.5 -11.5t93 -9.5l103 -20h368q37 0 66.5 17.5t57.5 39t56.5 38.5t63.5 17l10 -20l10 -10q0 -18 -21.5 -38t-50 -35t-58 -25.5t-44.5 -14.5 l-274 -264q-18 -18 -44 -49t-50.5 -64t-46 -63.5t-33.5 -48.5q4 -10 16.5 -15.5t26.5 -6.5t27.5 0t21.5 1q39 0 70.5 10.5t62.5 10.5h21q-12 -18 -19.5 -25.5t-14.5 -10.5t-18.5 -4t-29.5 -10q-8 0 -25.5 -15t-26.5 -15q-4 0 -7 -2t-7 -4t-6 -5h-164q-4 0 -23.5 -20t-42 -47 t-40 -49.5t-17.5 -26.5l-225 -235l-20 -29q14 -16 37.5 -21.5t50 -6.5t52 0t44.5 -3q8 0 32.5 -6t54.5 -14t54.5 -14.5t32.5 -6.5t41 -5t71.5 -10t71.5 -10t41 -5t37 -6.5t45 -14.5l31 -10q12 0 33.5 -2t45 -3t44 -3t28.5 -2q92 0 181.5 17t167.5 64q23 12 44 37t43.5 50.5 t46 45t50.5 19.5q0 -31 -14.5 -44t-36.5 -36q-61 -53 -121 -95t-121 -70.5t-130 -44t-149 -15.5q-170 0 -337.5 36t-337.5 66q-47 8 -97.5 19.5t-97.5 11.5q-23 0 -34 -2t-27 -18q0 16 -6.5 18t-14.5 2q-23 0 -34 -2t-27 -18l4 -13q2 -4 4 -9t2 -9q0 -16 -16.5 -23.5 t-24.5 -7.5q-16 0 -32.5 1t-16.5 9q0 35 26.5 63.5t63.5 49t77 34t66 17.5q100 92 196.5 199.5t182.5 208.5q-8 14 -23.5 23t-35 12.5t-40 4.5t-34.5 1q-39 0 -69.5 -15.5t-53.5 -15.5h-20q31 23 49 41t37.5 31.5t45 20.5t73.5 7h33.5t29.5 -3t30.5 -9t39.5 -18q8 0 19 11 t11 19q8 8 30 38t47.5 65t47 64.5t29.5 37.5l195 195l10 18q-139 0 -281.5 1t-281.5 9q-70 8 -133.5 20.5t-133.5 20.5q-4 0 -26.5 2t-50 3t-50 3.5t-26.5 2.5q-49 4 -97.5 17t-97.5 27.5t-99 25.5t-104 11q-16 0 -45.5 3.5t-46.5 -13.5l-71 -71l-11 -21q-8 -23 -17 -32 t-16.5 -14t-12.5 -9t-5 -15q-4 0 -8 11q-2 4 -2 10zM2 24.5q0 -10.5 8 -10.5t8 10.5t-8 10.5t-8 -10.5z" />
<glyph unicode="a" horiz-adv-x="899" d="M80 195v71q43 86 110.5 147.5t145.5 121.5q10 8 16 17t12.5 18.5t15.5 16.5t28 11l30 -10q12 0 26.5 7t27 17.5t20.5 22.5t8 24q4 0 11.5 -3l17.5 -7q10 -6 22 -10q0 4 9.5 9t21.5 10.5t23.5 8.5t15.5 3q23 0 40 -15.5t28.5 -38t17.5 -47t6 -45.5q0 -39 -31.5 -72.5 t-70.5 -50.5q0 86 -33 131.5t-119 45.5q-35 0 -78 -25t-85 -60.5t-75.5 -77.5t-47.5 -77q0 -51 1 -91t14 -67.5t45 -42t93 -14.5q31 0 74 15.5t85 40t76.5 53t49.5 55.5q-2 4 3 14t16.5 21.5t24.5 19.5t27 8q16 8 19.5 14.5t5.5 10.5t8 5t29 1q-8 -33 -9 -53.5t-1 -51.5 q0 -27 8 -54t24.5 -48.5t41 -36t59.5 -14.5q14 0 36.5 13.5t44 31.5t41 36.5t31.5 31.5l82 81l11 -10q-4 -8 -12.5 -25.5t-23 -38t-31.5 -39t-36 -30.5q-31 -23 -58.5 -51.5t-56 -54t-60.5 -43t-71 -17.5t-61.5 13.5t-37.5 31t-27.5 34.5t-26.5 26v112q-8 -4 -23.5 -15 t-31 -25.5t-28.5 -26t-18 -15.5q-23 -16 -38 -27.5t-23 -35.5q-31 -12 -55.5 -26.5t-47 -27t-47 -20.5t-55.5 -8q-92 0 -138 51t-46 146z" />
<glyph unicode="b" horiz-adv-x="1171" d="M96 186q8 27 35 61t61.5 77t75.5 94t78 110q12 49 19.5 101.5t13.5 107t14 107.5t25 104q8 27 23.5 48.5t31.5 43t29.5 44t17.5 49.5l131 133q8 -2 34 14t48 16q70 0 117 -31.5t47 -101.5q0 -53 -17.5 -97t-44 -82t-59.5 -74t-63 -74q-6 -12 -14.5 -30t-16.5 -22 l-172 -174q-18 -18 -29.5 -44.5t-15.5 -54.5t-5 -55.5t-1 -49.5q0 -47 5 -98.5t23.5 -96.5t52 -73.5t91.5 -28.5q57 0 110.5 21.5t95.5 60t71.5 91t39.5 113.5q17 35 17 60q-1 18 -9 31q-20 32 -55 32q-18 0 -36.5 -12t-34 -32.5t-25.5 -46.5t-10 -50v-8q1 -62 29 -98 q30 -38 75 -55t97 -20q31 -2 57 -2q17 0 33 1q38 2 56.5 2t0.5 -13q-81 -11 -146 -11q-33 0 -62 3q-87 8 -145.5 34t-92 61.5t-49 72.5t-15.5 69.5t8 51.5q27 57 84 90q44 25 103 25q18 0 38 -2q96 -12 144.5 -33t66 -46.5t11.5 -53t-19 -54.5q-47 -117 -130 -198.5 t-222 -143.5l-115 -49l-113 16q-29 4 -53 28t-42.5 53.5t-32 60t-21.5 53.5q-2 4 -2 6t-2 4v215q-23 -18 -53.5 -60t-62.5 -84t-64.5 -74t-59.5 -32zM500 692q47 0 80.5 35t60.5 89t50.5 116.5t51.5 118.5q8 8 24.5 31.5t16.5 39.5q0 12 -5 27.5t-15 30t-23.5 24.5t-27.5 10 q-23 0 -47.5 -32.5t-48 -82.5t-45 -111.5t-38 -119t-25.5 -105.5t-9 -71z" />
<glyph unicode="c" horiz-adv-x="784" d="M92 217v154q0 35 29 78t68.5 81.5t81.5 68.5t69 38q39 8 65.5 15t65.5 7q31 0 61.5 -3t56 -14t41 -33.5t15.5 -61.5q0 -12 -17.5 -20.5t-40 -13.5t-42 -7t-23.5 -2q-25 16 -46 50t-56 44q-41 -14 -78 -40t-64.5 -58.5t-45 -73.5t-17.5 -86q0 -18 4 -55t16.5 -73t32 -62.5 t49.5 -26.5q6 4 15.5 -3t21.5 -7l19 -2q16 -4 24.5 -6.5t13.5 -3.5t11 -1h18q2 0 15.5 -1t29 0t31.5 3t27 9q53 0 106 27.5t104.5 65.5t98.5 79t90 67q0 -23 -11 -53.5t-20 -38.5q0 -4 -2 -7t-4 -7t-4 -6l-82 -52q0 -12 -10 -20t-23.5 -14.5t-27 -10.5t-21.5 -8 q-20 -25 -67 -42t-99 -17q-29 -23 -51 -32t-41.5 -12t-40 -6.5t-43.5 -15.5q-76 0 -129 11.5t-102 52.5q-10 18 -22.5 41.5t-25 46t-19.5 39t-5 18.5z" />
<glyph unicode="d" horiz-adv-x="1271" d="M150 256q0 37 3 57.5t12 39t25.5 40t40.5 58.5h11q4 4 15 11t25.5 14t25.5 14.5t16 11.5q12 8 34.5 19t47 23.5t45 25t28.5 24.5q4 0 17.5 3t30 7t31.5 7t24 3q20 0 56 -2t71.5 -11t62.5 -27.5t27 -51.5q0 -12 -5.5 -27.5t-14.5 -30.5t-19 -27.5t-23 -16.5 q0 16 -18.5 24.5t-34.5 16.5q-35 25 -61.5 37t-55 18t-63.5 6h-86q-10 -20 -19 -20q-2 0 -4 1t-6 1q-10 0 -22 -12q-41 -31 -62.5 -69t-21.5 -85v-26.5t3 -39t9 -37t18 -20.5l105 -51l166 12q20 0 65 31t91 70.5t81 80.5t35 62v317q14 70 29.5 136.5t39 128t58.5 119 t90 108.5q25 23 58.5 47t74.5 24q18 0 32.5 -15t23 -35.5t12.5 -44t4 -38.5q0 -88 -22.5 -150.5t-49.5 -135.5q-8 -16 -29.5 -57.5t-47 -87.5t-47 -87t-29.5 -55q-4 -12 -17.5 -28.5t-28 -36t-25.5 -40t-11 -38.5q-10 -10 5 -13.5t25 -7.5q2 -14 19.5 -62.5t48.5 -100.5 t71 -93t87 -41q39 0 73.5 16.5t63.5 35t51.5 35t38.5 16.5q20 0 21 -21q0 -12 -39 -41t-92.5 -58.5t-108.5 -52t-90 -22.5q-66 0 -112 49t-76.5 109.5t-49 109.5t-30.5 49t-19.5 -12t-26 -39.5t-57.5 -69.5t-115 -104q-31 -25 -58.5 -41t-57 -25.5t-62 -12.5t-73.5 -3 q-51 0 -97.5 10.5t-82 35t-57 63.5t-21.5 96zM960 604q2 -45 1 -61q14 31 41.5 76t50.5 67q23 53 46 105.5t42.5 105.5t32 107.5t12.5 111.5q0 12 -3 31.5t-9.5 38t-19 29t-30.5 4.5q-45 -39 -74.5 -99.5t-48 -130t-27.5 -142.5q-8 -73 -12 -135q-2 -44 -3 -79q1 -15 1 -29z " />
<glyph unicode="e" horiz-adv-x="550" d="M78 225q0 66 22.5 135.5t65.5 128t104.5 96.5t139.5 38q41 10 51 -11.5t10 -50.5q0 -61 -37 -118.5t-82 -104.5t-82 -83t-37 -50q0 -37 23 -59.5t53.5 -34t64.5 -14.5t56 -3q94 0 171 51.5t140 120.5q8 12 17.5 25.5t13.5 15.5l10 -10q-16 -39 -34.5 -70.5t-59.5 -62.5 q-39 -31 -65.5 -59.5t-55 -51t-67.5 -37t-101 -14.5q-39 0 -72.5 1t-64.5 7t-61.5 18.5t-61.5 34.5q-16 8 -20.5 26t-20.5 26q0 16 -10 55t-10 55zM223 317q31 8 54.5 31t39 52.5t23.5 61t8 58.5q-37 0 -61.5 -24.5t-40 -58.5t-21.5 -67.5t-2 -52.5z" />
<glyph unicode="f" horiz-adv-x="706" d="M-141 -649q0 70 22.5 136.5t57 128.5t75.5 119.5t80 108.5q23 31 45.5 57.5t41 53.5t30.5 56.5t16 68.5q0 47 2 75.5t3 56.5t3.5 64.5t2.5 100.5q-18 -31 -48 -71t-63 -80t-66.5 -75.5t-60.5 -58.5q-1 5 -1 9q0 27 19 53q23 32 59 79.5t82 118t89 178.5q23 54 23 105 l-1 8q0 50 9 102q0 8 3 22.5t8 29t8 27t3 16.5q18 66 32.5 125t35 113.5t52.5 104.5t85 97q25 23 47 42t55 19q61 0 82 -34.5t21 -87.5q0 -104 -39 -191.5t-94.5 -166.5t-118 -154.5t-107.5 -155.5q-23 -121 -34 -247t-27 -255q49 31 89 74t79 91t79 93t91 80l30 21 q1 -10 1 -20q0 -58 -32 -108q-36 -59 -89.5 -111t-108.5 -101.5t-88 -100.5q-18 -31 -27.5 -61.5t-14.5 -61t-9 -62.5t-12 -63q0 -4 -6.5 -20t-14.5 -35.5t-14 -36t-6 -20.5q-12 -39 -19.5 -78t-19 -77t-30.5 -71.5t-54 -60.5q-39 -31 -75 -61.5t-89 -30.5q-31 0 -49.5 10 t-27.5 27.5t-12 40t-3 45.5zM-80 -618q0 -6 1 -18.5t4 -25t11.5 -21.5t24.5 -9t41 35.5t52.5 91t55 121t49 128t35 111.5t13.5 70v10l-41 -41q-41 -35 -85 -89t-80 -117.5t-58.5 -128t-22.5 -117.5zM373 694q23 0 22.5 7.5t7.5 23.5q4 8 15.5 23.5t26 33t25.5 30.5t15 17 q61 78 112.5 168t51.5 191q0 16 -4 38.5t-27 22.5q-25 0 -53 -37.5t-56 -95t-52.5 -126t-43 -130t-29.5 -107.5t-11 -59z" />
<glyph unicode="g" horiz-adv-x="923" d="M-1538 -981q-1 7 -1 15q0 39 29 70q33 36 76 40q4 -29 -2 -49.5t-2 -42.5q4 -33 36 -45.5t61 -7.5q33 4 63.5 18t56.5 25q86 31 158 72.5t150 90.5q6 -4 12 0q12 2 20.5 8.5t16.5 12.5q2 2 14 11t26.5 19.5t27 18.5t14.5 12q49 27 113.5 67t123 77t98 63.5t37.5 24.5 q84 47 176.5 91t184.5 77q14 4 37.5 16t49 26.5t49.5 24.5t40 13q2 2 6 2q92 29 191.5 54t197.5 36q6 6 6 0t-2 -9.5t-4 4t-2 42.5q23 31 42.5 83t19.5 91h-11q-53 -31 -113.5 -51.5t-121.5 -20.5q-47 0 -95 6t-89 25.5t-67 56.5t-26 98q0 37 17.5 66t34.5 57q29 53 54 82 t79 51q35 14 72.5 35t76.5 37t79 28.5t79 12.5q57 0 97 -38q36 -35 36 -85v-10l-92 -62q-16 0 -24.5 14.5t-12.5 33t-7 35t-7 20.5q-16 8 -35 17t-17 14q-55 0 -108 -17.5t-95 -49.5t-67.5 -80t-25.5 -109q0 -55 16 -86t45 -46.5t67.5 -19.5t86.5 -4q66 0 106.5 12t70 38 t54.5 64.5t55 92.5q0 20 11.5 37.5t27 30t32.5 18.5t32 6q23 8 32 19.5t39 11.5q23 0 42.5 -15.5t19.5 -46.5q0 -35 -21.5 -64.5t-54.5 -55t-69.5 -47t-69.5 -38.5q-8 -23 -20.5 -40t-20.5 -33q-4 -12 -13.5 -40t-20.5 -58.5t-23.5 -56.5t-22.5 -32q4 4 9 -2t9 -10 q74 3 161 3h45q114 -1 237 -11q37 -12 90 -23.5t103 -29t89 -47t45 -78.5q4 -33 -4 -46.5t-19 -18.5t-21.5 -6t-12.5 -9q2 -6 4 -26.5t2 -27.5q-27 -23 -61.5 -54.5t-73.5 -55.5q-27 -16 -52.5 -30.5t-51.5 -26.5q-16 -10 -32 -13.5t-32 -9.5l-323 -39q-18 -2 -35 -2 q-29 0 -58 6q-47 10 -93 22.5t-92 19.5q-21 3 -43 3q-25 0 -50 -4q-94 -84 -207 -146.5t-240 -76.5q-16 -2 -40.5 -3t-49 4t-44 17.5t-21.5 36.5q-2 14 -3 33.5t0 39t6 37t17 27.5q66 57 132.5 100.5t154.5 53.5q4 0 7 -1t7 -1q4 -2 10 -2l162 4q8 -2 24.5 -8t34 -12.5 t35 -10.5t27.5 -2q23 2 52.5 47t56 103.5t43.5 114.5q16 49 16 72q0 17 -18 18q-17 0 -31 -2q-109 -12 -205 -38t-201 -57q-53 -16 -109 -50t-110 -56q-23 -10 -47 -15.5t-45 -19.5q-86 -45 -171 -92t-171 -96q-63 -37 -105 -72t-94 -72q-72 -53 -149.5 -91t-155.5 -79 q-72 -39 -144.5 -77.5t-152.5 -49.5q-18 -2 -41.5 0t-45 10.5t-38 23.5t-18.5 40zM-252 -791q0 -8 6 -8t6 11q-4 4 -8 4q-10 0 -4 -7zM-211 -758q0 -8 6 -6q4 0 4 8q-4 8 -6 8q-4 -2 -4 -10zM-197 -711q2 -12 9 -36.5t30 -40.5q4 2 39 -6q23 -4 51 -4q15 0 31 1 q49 6 92 24.5t82 44.5t76 55.5t76 58.5q-16 20 -60.5 27t-94.5 8h-25q-36 0 -70 -2q-45 -3 -64 -5q-29 -4 -60.5 -10t-57 -19.5t-42 -36t-12.5 -59.5zM399 -551q8 -10 34 -17t55.5 -13.5t57 -9.5t38.5 -5q2 0 12 -2t21.5 -5t21.5 -5t12 -2q45 -6 74 -10.5t54.5 -5.5t54 1 t71.5 9q33 4 82 11t99.5 22.5t97.5 39t78 58.5q16 16 34.5 37.5t14.5 50.5q0 4 -2 8q-4 6 -9 6q-16 68 -56 105.5t-93 59t-113.5 31t-115.5 19.5q-25 3 -57 3h-17q-43 -1 -82 -3t-65.5 -4t-24.5 -2q-4 0 -15.5 -1t-25.5 -4t-25.5 -6t-13.5 -5l-57 -148q-16 -35 -31 -63 q-12 -25 -24.5 -48.5t-16.5 -31.5q-10 -20 -31 -36t-37 -34zM434 -442q0 -4 6 -4t6 6q0 8 -8 8q-4 -2 -4 -10zM522 522q0 -10 8 -10t9 10q-1 10 -9 10t-8 -10zM584 451q0 -10 8 -11q8 0 8 11q0 10 -8 10t-8 -10zM604 -104q0 10 8 10t9 -10q0 -10 -9 -11q-8 0 -8 11zM745 195 q23 23 47.5 48t24.5 64l-10 10q-12 -10 -24.5 -26.5t-21.5 -34.5t-13.5 -35.5t-2.5 -25.5z" />
<glyph unicode="h" horiz-adv-x="993" d="M68 213v12q0 42 12 74q14 37 37.5 70.5t51.5 64.5t52 68q16 18 23.5 45.5t10.5 58.5t4 62.5t5 58.5q6 72 27.5 129t44.5 119q20 57 32.5 95t28 66.5t41 55.5t72.5 61q23 16 48.5 28.5t53.5 12.5q55 0 75 -29.5t20 -82.5q0 -59 -19.5 -116.5t-49.5 -111t-66.5 -103.5 t-71.5 -93q-43 -43 -75 -78t-51.5 -67.5t-28.5 -68.5t-9 -85q0 -4 -6 -22.5t-14.5 -39t-14.5 -39t-6 -22.5v-21l102 103v10q0 20 43 54t101.5 66t117 54.5t89.5 22.5q35 0 50 -25q15 -26 20 -58q4 -23 4 -48q0 -10 -1 -20q-2 -36 -2 -56q0 -8 -10 -25.5t-10 -25.5l10 -21 q-33 -49 -37 -83t-4 -81q0 -53 19.5 -64.5t54.5 -11.5q43 0 75.5 10.5t59.5 28t50.5 40t49.5 48.5l123 123q2 -27 -5 -51t-15 -41q-43 -43 -86 -89t-91.5 -83t-103.5 -61.5t-121 -24.5q-35 0 -70.5 4t-52.5 37q0 104 20.5 206.5t20.5 215.5q0 29 -8 58.5t-43 25.5 q-4 -4 -16.5 -11t-26.5 -14.5t-25.5 -14.5t-15.5 -11q-10 -10 -32.5 -31.5t-47 -46.5t-46 -47.5t-27.5 -30.5q-31 -39 -60 -96t-62.5 -111.5t-75.5 -93.5t-101 -39q0 45 14 91t31.5 92.5t32 95.5t14.5 102v10q-12 -25 -33 -56.5t-41.5 -60t-36.5 -48t-22 -19.5zM356 676 q0 -2 11.5 5t27 20.5t29.5 31t25 35.5q35 43 69.5 85t63 87t46 97.5t17.5 113.5q0 20 -12.5 44.5t-30.5 16.5q-8 -4 -21.5 -16t-27.5 -26.5t-26.5 -29t-16.5 -22.5q-4 -27 -28.5 -76t-53.5 -110q-30 -60 -52 -128q-21 -62 -20 -118v-10zM379 1108q0 -10 8 -10t8 10t-8 10 t-8 -10z" />
<glyph unicode="i" horiz-adv-x="489" d="M84 133v215q0 39 21.5 70t29.5 61q6 27 12.5 46.5t16.5 31.5t28.5 18.5t53.5 6.5q20 0 20 -11q0 -2 -8 -26.5t-17.5 -57t-17.5 -63.5t-8 -45q1 -24 1 -48q0 -23 -1 -49q-1 -17 -1 -33q0 -32 3 -60q4 -42 21.5 -69.5t58.5 -27.5q8 0 25.5 7t36 16.5t36 19.5t25.5 19 l270 270q43 37 55.5 41t5 -11.5t-30 -46t-51 -67.5t-60 -73t-54.5 -62q-41 -47 -92 -83t-100.5 -60.5t-91.5 -38t-66 -13.5q-45 0 -83 38t-38 85zM197 741q0 14 3 25.5t27 26.5q10 6 33 16t46.5 20.5t42 17.5t20.5 7l10 -10l-10 -21l30 11q4 0 9.5 -8.5t10.5 -18.5t8 -20.5 t3 -14.5q0 -10 -3 -23.5t-7 -17.5l-123 -61q-8 -1 -16 -1q-25 0 -51 14q-34 19 -33 58z" />
<glyph unicode="j" horiz-adv-x="776" d="M74 186q43 63 95 134t102.5 131.5t94.5 100.5t70 40l21 -10l10 10q39 0 65.5 -26.5t26.5 -65.5v-328q-2 -4 -9 -32.5t-16.5 -66.5t-18.5 -76t-15 -58q0 -4 7 6t16 23.5t17.5 22.5t8.5 7l102 154q18 29 48 63.5t65 68t71.5 64.5t71.5 49q-12 -35 -21 -54t-21.5 -34.5 t-31 -31t-47.5 -41.5l-86 -127q-29 -27 -42 -49.5t-21 -44t-19.5 -44t-37.5 -49.5q-2 -37 -20.5 -66.5t-37.5 -82.5l-86 -236q-18 -39 -33.5 -69.5t-31 -66.5t-34 -83t-44.5 -115l-90 -57l119 453q18 88 36.5 176t35 164.5t31.5 138t32 98.5l-11 139q0 27 3.5 51.5t0 43 t-16.5 30t-48 11.5t-62.5 -22.5t-56 -58.5t-60.5 -79t-73 -84zM426 745q0 16 4 25.5t27 26.5q12 8 32.5 18t42 19.5t38 16.5t20.5 7h10v-20q31 0 41 -20.5t10 -51.5q0 -18 -15 -35.5t-36.5 -30t-47.5 -19.5t-44 -7q-31 0 -56.5 16t-25.5 55z" />
<glyph unicode="k" horiz-adv-x="1032" d="M84 221q20 45 53 91t66 90t59.5 85t34.5 76q18 104 33.5 215t45.5 214.5t81 192.5t141 150q4 0 16.5 5.5t27.5 10.5t30.5 10t27.5 5q53 0 73 -38t20 -85q0 -78 -35 -149.5t-68 -137.5q0 -4 1 -6t1 -6q0 -25 -21.5 -61.5t-50 -74.5t-56 -73t-38.5 -57q-16 -31 -34.5 -73 t-26.5 -81h10q14 0 35.5 18.5t51.5 43t67 49t82 37.5l51 18q14 2 48 -1t68.5 -16.5t61.5 -37t27 -60.5q0 -49 -35 -85.5t-78 -71.5t-78 -77t-35 -103q0 -55 21.5 -95.5t58.5 -58.5q28 -14 63 -14q12 0 24 2q50 6 110 43q61 45 116.5 78.5t108.5 95.5l10 -10 q-12 -27 -33.5 -52.5t-47 -48t-53 -44t-50.5 -40.5q-59 -48 -103 -66q-36 -15 -85 -15q-10 0 -21 1q-29 2 -55.5 3t-51 8.5t-48 22.5t-46.5 46t-32 47.5t-9 55.5q0 49 26 87t56.5 72.5t56 74.5t25.5 93q0 16 -2 33.5t-18 17.5q-39 0 -71 -12t-62 -28q-47 -16 -90 -35 t-74 -58q-18 -31 -41 -101.5t-53.5 -144t-72.5 -129t-99 -55.5q-16 0 -18.5 11.5t-2.5 19.5t10.5 40t22.5 69.5t23.5 73.5t15.5 53q8 31 10 60.5t10 59.5q-41 -51 -82 -95t-104 -83zM414 627q14 12 25.5 24.5t22.5 29.5t25.5 38.5t38.5 52.5q27 49 61 103.5t63.5 110.5 t50 115.5t20.5 121.5q0 10 -1 22t-6 22.5t-15.5 15.5t-28.5 1q-61 -47 -92 -99t-54 -114q-20 -55 -40.5 -108.5t-35.5 -108.5q-16 -56 -26 -112q-8 -47 -8 -95v-20z" />
<glyph unicode="l" horiz-adv-x="811" d="M145 150q8 37 38 78.5t66 87.5t69.5 98.5t50.5 109.5q0 8 4 20.5t4 20.5q8 45 11 81t6 70t7.5 67.5t16.5 76.5q35 86 51 147.5t33.5 110.5t47.5 96.5t93 106.5q2 -2 8 -2q16 0 38 16.5t36 16.5q53 0 82 -30t29 -83q0 -70 -20.5 -136.5t-54.5 -130t-75 -122.5t-84 -113 q-23 -31 -44 -54.5t-39.5 -48t-33 -53t-26.5 -67.5q0 -59 -1 -129v-9q0 -65 14 -120q15 -59 53 -100t118 -41q68 0 113 35.5t90 76.5q8 6 26.5 23.5t40 37t40 37t26.5 25.5q0 -31 -35 -87t-92 -112.5t-128 -97.5t-142 -41q-66 0 -109 20.5t-68.5 56.5t-36 87.5t-10.5 112.5 q0 39 1 66.5t10 66.5q-23 -25 -43.5 -56.5t-45 -67.5t-56 -74t-79.5 -74zM489 707q12 0 15.5 2t4.5 6t2 9t9 13q43 45 88 98.5t82 114t61.5 125t24.5 133.5q0 52 -41 52q-29 0 -57.5 -37t-56 -93.5t-51 -124t-42 -129t-29 -108.5t-10.5 -61z" />
<glyph unicode="m" horiz-adv-x="1705" d="M-12 154l63 106l215 330q6 10 23.5 24.5t39 26.5t43 21.5t38.5 9.5q41 0 57 -52t21 -122q2 -35 2 -71q0 -37 -2 -73q-4 -74 -5 -118q31 8 48.5 42.5t33.5 57.5q27 35 58.5 70.5t69.5 65.5t80 49.5t89 19.5q39 0 58.5 -30t28.5 -69t13.5 -77.5t12.5 -57.5q39 59 80 104.5 t94 98.5q23 0 39 12.5t30.5 27.5t30 27.5t33.5 12.5q39 0 68.5 -17.5t51 -45t35 -61.5t21.5 -69q0 -90 -5 -158.5t-5 -136.5q0 -49 51 -49q14 0 34.5 10.5t41 23.5t38 28.5t29.5 27.5l93 93q4 -4 8 -5q6 0 16 13.5t20.5 31t21.5 30.5t18 13l-23 -83q-18 -20 -35 -39 q-14 -16 -30.5 -30.5t-26.5 -23.5q-27 -23 -66 -55.5t-80.5 -63t-83.5 -52t-75 -21.5q-23 0 -35 16.5t-19.5 38t-9.5 44t-2 32.5q0 47 5 86t5 78q0 31 -3 73.5t-15 82.5t-36.5 69t-67.5 29q-23 0 -44.5 -16.5t-37.5 -24.5q-14 -10 -26.5 -36t-24 -52.5t-21.5 -49t-20 -24.5 q-4 -12 -17.5 -40t-29 -58.5t-29 -57t-17.5 -39.5q-6 -18 -16 -43.5t-25.5 -50t-35 -41t-46.5 -16.5l-20 10v10q23 61 32 112.5t9 121.5q0 6 1 42v12q0 29 -4 63q-5 40 -18.5 73t-39.5 33h-72l-11 -10q-10 -10 -23 -23.5t-27.5 -27t-20.5 -21.5q-16 -18 -54 -78.5t-81 -127 t-83 -118t-61 -51.5q-10 4 -13 20.5t-7 20.5q23 35 28 69t5 77q0 29 -1 53.5t-1 44.5q0 37 2 88q1 20 1 40q0 30 -2 60q-3 48 -14.5 81.5t-38.5 33.5q-29 0 -37 -21.5t-24 -37.5q-31 -43 -60.5 -90.5t-62.5 -94.5t-67.5 -89t-77.5 -72zM1716 215q0 -10 8.5 -10t8.5 10 t-8.5 10t-8.5 -10z" />
<glyph unicode="n" horiz-adv-x="954" d="M-938 -793q0 8 13.5 18.5t30.5 20t33.5 16.5t24.5 7q20 0 21 -10q-14 -10 -18.5 -19.5t-4.5 -19.5q0 -8 1 -15.5t1 -17.5h52v-10q4 0 11 -6.5t11 -6.5q8 0 8 23q10 -2 19.5 -2h19.5q47 0 91 12t83 31q8 16 25.5 18t26.5 2q154 45 288.5 123t272.5 156q63 35 132.5 60.5 t133.5 62.5q53 31 112.5 66.5t112.5 58.5q25 10 45.5 13t35.5 12.5t24.5 28.5t9.5 62q0 18 -12 27l10 248v57v91v91.5v59.5q0 31 -5 52.5t-36 29.5q4 0 8 10q2 4 2 10q0 8 -11 14.5t-20 6.5l-10 -10q-45 0 -97 -56.5t-101.5 -137.5t-89.5 -172t-60 -161q-14 -8 -36.5 -16 t-44 -14.5t-37 -9.5t-15.5 -1q2 47 16.5 93.5t24.5 93.5q14 70 23.5 138t17.5 140h-41l10 10q18 12 39 25q16 10 33.5 22.5t29.5 24.5q12 -4 17 -4q16 0 31.5 7t33.5 7q0 -45 -18 -81q-14 -27 -13 -56q0 -9 1 -18q23 41 52.5 72.5t59.5 62.5q4 0 35 16.5t71 34.5t82 34.5 t68 16.5q51 0 75 -38t32 -92q6 -43 6 -89v-24q-2 -58 -2 -97q0 -88 -10.5 -179t-10.5 -181q8 -16 14.5 -35.5t6.5 -36.5q53 23 112.5 37t112.5 14q31 0 36 -4t5 -26q0 -18 -7 -33t-7 -27q0 -4 4 -12q-47 -53 -112.5 -89t-143.5 -36q-31 0 -51.5 13.5t-34.5 28.5t-22.5 28.5 t-12.5 13.5q-10 -4 -37.5 -9t-34.5 -12l-307 -155q-12 0 -49 -14.5t-77 -34t-72.5 -38t-36.5 -26.5q-10 -8 -42 -23.5t-69 -33t-68.5 -32.5t-44.5 -23q-6 -6 -21 -19.5t-32 -13.5q-6 0 -8 2q-147 -88 -310 -147.5t-333 -59.5l10 20q-10 -2 -20.5 -1t-10.5 -19q-4 8 -14 14 t-20.5 12.5t-18.5 14.5t-8 20zM-856 -803q0 -8 4 -8q6 0 6 8t-6 8q-4 0 -4 -8zM-825 -823v-11l10 11h-10zM827 -154q0 -23 19.5 -47t42.5 -24q31 0 46 24.5t15 46.5q0 23 -7 27t-23 4q-8 0 -23.5 -2t-31 -6t-27 -9.5t-11.5 -13.5z" />
<glyph unicode="o" horiz-adv-x="819" d="M118 287.5q5 21.5 17 46t28.5 52.5t29.5 54q18 27 59 55.5t89 53t94 40t77 15.5q47 0 80 -14t33 -68q0 -23 -4.5 -37t-26.5 -45q-27 -6 -42 5.5t-32.5 29t-39 32.5t-60.5 15q-31 0 -63.5 -22.5t-60.5 -55t-45.5 -70.5t-17.5 -69q0 -43 14.5 -80t41 -64.5t62.5 -44 t79 -16.5q70 0 122 37t52 107q0 23 -17.5 26.5t-39 4.5t-38.5 7.5t-17 32.5q0 20 16 38t39.5 30t47 19.5t40.5 7.5q23 0 41 -10.5t41 -10.5q63 0 128.5 26.5t119.5 65.5q0 -41 -22.5 -64.5t-54.5 -40t-68 -29.5t-60 -32q-33 -23 -45.5 -57.5t-28.5 -64.5q-18 -39 -59 -74 t-91.5 -61.5t-102.5 -43t-95 -16.5q-55 0 -95 21.5t-68 56.5t-41 82t-13 96q-8 12 -3 33.5z" />
<glyph unicode="p" horiz-adv-x="1060" d="M14 -621l113 441q4 61 20.5 122.5t34 123t29.5 122.5q9 47 9 92q0 16 -1 31q-18 -18 -40.5 -41.5t-44 -43t-40 -34t-28.5 -14.5q0 27 25.5 61.5t58 73.5t62.5 78t38 74v51q4 12 20.5 27.5t38 30t42 24.5t32.5 10q0 -23 -3 -39t-8 -30.5t-10.5 -29.5t-9.5 -34 q-8 -23 -5 -56.5t-5 -56.5q-23 -117 -48.5 -229.5t-64.5 -220.5q8 4 26.5 41t43.5 88t52.5 109.5t54 107.5t49 82t37.5 33h4q49 43 96 94t100 96t113.5 76t138.5 31h51q12 -4 19.5 -19.5t12.5 -35t7 -38t2 -30.5q0 -55 -14 -110.5t-39 -105.5t-56.5 -92t-64.5 -71 q-14 -27 -37.5 -49.5t-52.5 -39t-58.5 -25.5t-56.5 -9q-25 0 -50 12.5t-43.5 32t-28 43t-0.5 45.5q12 0 28.5 14.5t33.5 31t35.5 28.5t35.5 8q-16 -16 -18.5 -27.5t-2.5 -33.5q0 -23 19.5 -37.5t42.5 -14.5q57 0 98 34t66.5 84t38 106.5t12.5 103.5q0 31 -19.5 61.5 t-62.5 30.5q-53 0 -95 -24.5t-79 -59t-71 -71.5t-73 -60q-4 -8 -16 -28.5t-27.5 -43t-29 -43t-17.5 -28.5q-23 -39 -29 -77t-22 -77q-31 -78 -73 -158.5t-81 -158.5q-12 -25 -22 -67t-21.5 -88t-25 -93t-34 -86t-47 -62.5t-65.5 -23.5v61zM313 311q0 -10 9 -10q8 0 8 10 q0 11 -8 11t-9 -11z" />
<glyph unicode="q" horiz-adv-x="970" d="M158 168v164q33 59 69.5 102t79.5 75t93.5 57.5t105.5 51.5q16 0 61 -1t92.5 -12t84 -38.5t36.5 -81.5q0 -8 -1 -20t-9 -21l-113 -51l-28 68v71q0 16 -20.5 23.5t-28.5 7.5q-47 0 -94.5 -28.5t-86.5 -72.5t-63.5 -98.5t-24.5 -103.5q0 -25 -1 -43t5 -43 q16 -61 55.5 -80.5t102.5 -19.5q57 0 91 15t55.5 43t39 69t39.5 90l144 51q23 4 37 -7t14 -34q0 -16 -12.5 -38.5t-28.5 -46t-36.5 -42t-35.5 -27.5q-35 -35 -63.5 -113.5t-52.5 -176.5q0 -12 -10.5 -39t-6.5 -33q0 -49 -9 -85t-9 -93q18 49 47 94t61.5 88t65.5 85t59 89 q8 8 14.5 20.5t6.5 20.5q33 41 67.5 86t64 83t49 62.5t23.5 24.5l11 -10q0 -35 -10.5 -61.5t-25.5 -49t-32.5 -45t-34.5 -49.5q-8 -12 -24.5 -30.5t-32.5 -39t-30.5 -38t-18.5 -29.5q-16 -10 -34.5 -38t-40 -62.5t-41 -72.5t-37 -70t-31 -52.5t-17.5 -20.5 q-23 -35 -33 -78.5t-49 -113.5q-4 -6 -18.5 -37t-29.5 -65.5t-27.5 -65.5t-12.5 -39l-100 -51h-10q0 78 25.5 159t41.5 150l37 168q2 8 5 25.5t7 36.5q4 23 11 45q0 8 -1.5 18t-1.5 18q0 31 7.5 59.5t16.5 56.5t18.5 56.5t13.5 59.5q8 0 10 7t2 17q0 4 -1 9.5t-1 9.5v8 q-47 0 -97 -20.5t-98 -20.5q-31 0 -72.5 10.5t-80.5 29.5t-65.5 50t-26.5 74z" />
<glyph unicode="r" horiz-adv-x="747" d="M131 113q0 31 27.5 63.5t60.5 67.5t60.5 70.5t27.5 74.5l-10 21l-115 41q-23 8 -26.5 36.5t-3.5 44.5q0 31 16 64t44 57.5t64 40.5q31 14 64 13h8q29 -35 34 -52.5t1 -28t-13.5 -16.5t-9.5 -18q6 27 0 43q-4 14 -20 20.5t-53 -10.5l-11 -10q0 -4 -1 -20.5t0 -35t6.5 -33 t15.5 -14.5q4 0 20.5 3.5t30.5 7.5q12 0 24.5 -8.5t24 -17.5t20.5 -17t13 -8h64q47 -8 79.5 -52.5t32.5 -91.5q0 -35 -16.5 -77t-16.5 -78q2 -20 9 -39q4 -16 12 -33t22 -29q59 0 124 23.5t143 89.5l-39 -72q-16 -12 -48 -34.5t-70 -44t-78 -38t-73 -16.5q-51 0 -82.5 35 t-31.5 88q0 47 10 82t10 82q0 16 -3 36.5t-12 38t-24.5 28.5t-42.5 9q-23 -47 -45 -80.5t-46.5 -61.5t-55.5 -52.5t-70 -50.5q-16 -16 -22 -28.5t-29 -12.5z" />
<glyph unicode="s" horiz-adv-x="1087" d="M117 176q6 8 32.5 32.5t57.5 52.5t58.5 53.5t35.5 33.5q33 33 56.5 58.5t39 46t25.5 39t20 36.5l14.5 29t8.5 27q2 10 11 16t17.5 11t12.5 12.5t0 19.5q-10 27 11.5 51.5t54 40t67.5 19.5t51 -9q12 -10 20.5 -11t12.5 -3t6 -7t2 -19q0 -27 -13 -54.5t-30.5 -50t-35 -39 t-23.5 -18.5q-33 -14 -32 -21.5t14.5 -11.5t30.5 -5t17 -3l246 -129q27 -12 52.5 -36t46 -52.5t33 -60t12.5 -58.5q0 -31 -10.5 -49.5t-27 -30.5t-37 -20.5t-38.5 -20.5q-8 -4 -17.5 -14.5t-19.5 -20.5t-21.5 -18t-23.5 -8h-164q-16 0 -50 13t-67.5 32.5t-60.5 40t-27 36.5 v9q8 8 25.5 24.5t26.5 16.5q10 -2 20 -1t10 -10q-23 0 -22 -8q8 -12 16 -20t17.5 -14.5t19.5 -6.5q20 0 20 10q0 12 -10 29h10q8 0 21.5 -11t30.5 -18q47 -16 89 -28t95 -12q23 0 52.5 9t29.5 31q0 76 -50 127.5t-120 87t-142.5 61.5t-117.5 48h-10q-35 -27 -78 -65.5 t-88 -77.5t-89 -70t-83 -41q-8 -2 -20.5 -1t-20.5 1zM465 481q0 -12 3 -13t7 -7v10zM516 106q0 -20 21 -20q2 20 -21 20zM682 76q0 -10 8 -10t8 10t-8 10t-8 -10zM723 66q0 -10 8 -11q8 0 8 11q0 10 -8 10t-8 -10z" />
<glyph unicode="t" horiz-adv-x="520" d="M-328 733l127 90l129 -16q100 0 156.5 35t92.5 90t61.5 123.5t66.5 136.5l103 -51q0 -2 1 -3t1 -3q0 -16 -16.5 -38t-16.5 -38h10q8 0 25.5 10t25.5 10q164 88 323 169t321.5 142.5t334.5 98.5t363 37q57 0 120.5 -13.5t123 -39t109.5 -66.5t85 -96q0 -2 1 -14.5t2 -27 t2 -26.5t1 -14q3 -19 3 -36q0 -27 -7 -51q-12 -40 -29.5 -69t-34 -44t-16.5 -11q0 2 1 3t1 3q10 35 15.5 64.5t5.5 56.5q0 68 -37 118t-123 99q-4 2 -7 4t-7 4q-49 29 -81 45.5t-64 25.5t-71.5 11t-105.5 2q-201 0 -405.5 -52t-391.5 -122q-2 2 -10 2q-16 0 -40.5 -14.5 t-31.5 -28.5q-8 -4 -24 -11t-35.5 -14.5t-36 -14.5t-24.5 -11t-30 -14.5t-46.5 -22.5t-44 -24.5t-23.5 -20.5l-157 -109q-23 -12 -40.5 -41.5t-29.5 -64.5t-20.5 -70t-12.5 -57q0 -12 -9 -37t-19.5 -52.5t-19.5 -52t-9 -36.5q-8 -16 -19.5 -41t-11.5 -41v-43v-49 q0 -59 5 -113.5t25.5 -95.5t58.5 -64.5t106 -23.5q31 0 56.5 4t55.5 26l215 205v-8q0 -25 -6 -46.5t-14 -37.5q-4 -4 -5 -6t-5 -6q-35 -37 -74 -79t-84 -76t-95 -56.5t-106 -22.5q-72 0 -115.5 17.5t-66.5 48.5t-30 70.5t-7 87.5q0 35 2 69.5t2 69.5q0 37 -4 71.5t-14 67.5 l10 10q14 20 24.5 62.5t21.5 94.5t24.5 106.5t36.5 97.5l-11 -35q-39 -51 -90 -84t-104.5 -52.5t-103.5 -26.5t-89 -7q-16 0 -37.5 2t-40 7t-32 15.5t-13.5 28.5z" />
<glyph unicode="u" horiz-adv-x="1044" d="M12 131q12 35 25.5 60.5t30 47t38 45t50.5 54.5q51 57 84.5 107.5t63.5 88t60.5 60t77.5 22.5v-10q-53 -111 -78.5 -208t-33.5 -214q14 -20 22 -37.5t18.5 -30t26 -19.5t45.5 -7q16 0 46 1t47 9q4 4 15 14.5t25.5 23t25.5 22.5t15 14q53 47 86 122t58 144q10 31 17 61.5 t19.5 53.5t36 37t70.5 14q10 0 16.5 -4t4.5 -27q0 -4 -5.5 -15t-10.5 -25.5t-10 -25.5t-5 -15q0 -49 -11.5 -89t-24.5 -75t-24.5 -70t-11.5 -76q0 -12 1 -26.5t5 -27.5t15.5 -21.5t29.5 -8.5q23 0 46.5 11.5t46.5 19.5l303 279q-27 -68 -79 -138.5t-117.5 -128t-137.5 -93.5 q-68 -34 -127 -34h-6q-47 2 -82 29t-35 76q0 10 4 31q-31 -23 -73 -48.5t-88 -47t-92 -35t-85 -13.5h-61q-12 8 -24.5 23.5t-23 33t-17.5 33t-7 23.5v196q-4 0 -31.5 -24.5t-62.5 -56t-66.5 -62.5t-44.5 -43z" />
<glyph unicode="v" horiz-adv-x="1034" d="M96 276q0 41 16.5 89.5t45 89.5t67.5 68.5t86 27.5q0 -23 -16 -46.5t-25 -45.5q-8 -20 -10 -42t-2 -44q0 -49 -1 -99v-10q0 -45 9 -81q10 -40 39 -64.5t88 -24.5q45 0 83 18.5t67.5 48t53.5 65.5t42 71q8 16 24.5 44t16.5 36q6 18 -10.5 30.5t-40 28t-43 40t-19.5 65.5 q0 27 20.5 51t50.5 44.5t63.5 33t60.5 12.5q20 0 32.5 -12.5t19.5 -32t9 -43t2 -45.5q0 -23 -1 -41.5t-1 -28.5l21 -10q49 0 91 6t82 13q41 6 77 10q24 3 50 3q13 0 27 -1q-18 -27 -34.5 -39t-34 -18.5t-38 -13.5t-46.5 -21l-205 -21q-8 0 -18.5 -7t-20.5 -18 q-10 -10 -22 -24q-4 -4 -15.5 -25.5t-26 -46t-25.5 -46t-15 -25.5q-8 -16 -42 -41t-50 -39l-195 -103q-16 -8 -37.5 -9t-44.5 -1q-70 0 -105.5 21.5t-51 58.5t-16.5 87t-1 107h-31z" />
<glyph unicode="w" horiz-adv-x="1556" d="M143 172q0 31 5.5 92.5t17.5 119.5t32 100q17 37 41 37q3 0 7 -1q0 2 11 11.5t28.5 20.5t37 20.5t35.5 9.5q10 0 9.5 -10.5t1.5 -20.5q-4 -4 -11.5 -17.5t-14.5 -30t-14 -31.5t-12 -23q-4 -8 -12 -36l-17 -59.5t-15.5 -58.5t-6.5 -31q0 -27 3 -55.5t13.5 -53t31 -40 t55.5 -15.5q96 33 167.5 95.5t127.5 140.5q23 31 44 72t47.5 75.5t60.5 56.5q31 21 75 21h8q-31 -70 -46 -133t-15 -133q0 -98 28.5 -146.5t104.5 -48.5q61 0 116.5 30t77.5 83l92 184v11q0 8 -17 18t-38.5 26.5t-39 40t-17.5 58.5q0 27 20.5 52.5t50 46t62.5 32.5t59 12 q20 0 32.5 -12t20 -31.5t9.5 -43t2 -46.5t-1 -42t-1 -30l20 -10q20 -3 42 -3q18 0 36 2q41 5 84 12.5t87 14.5q34 5 69 5h20q-25 -37 -62.5 -58.5t-83.5 -30.5t-98.5 -11t-103.5 -2q-35 -4 -56.5 -25t-38 -49.5t-28.5 -58t-29 -52.5q-31 -43 -76.5 -80t-99 -64.5t-108.5 -44 t-105 -16.5h-61q-39 8 -59.5 40t-29.5 74t-11 84t-2 69q-23 0 -33 -17.5t-19 -34.5l-82 -81q-16 -16 -45.5 -27.5t-44.5 -34.5q-53 -31 -109.5 -56.5t-125.5 -25.5q-35 0 -55.5 17.5t-30.5 42t-13.5 53t-3.5 51.5z" />
<glyph unicode="x" horiz-adv-x="1060" d="M-150 -174q16 16 33 38.5t39 22.5l21 -10q16 -4 24 -4q45 0 107.5 35t128 84t127 102t104.5 90q23 23 51.5 41.5t51.5 40.5q-76 86 -160 116t-193 30q-27 0 -50 -14.5t-43.5 -33t-37 -33t-28.5 -14.5q-2 0 -9.5 -5t-15.5 -10t-15.5 -8t-9.5 -1l2 26l9 9q8 10 17 20 t18.5 20.5t13.5 14.5q14 18 41.5 39.5t59.5 42t62.5 34t51.5 13.5q66 0 116 -15.5t94 -41t87 -56t92 -61.5q43 23 94 64.5t104.5 81.5t102.5 70t88 30q8 0 19.5 -6.5t11.5 -14.5q0 -12 -11.5 -22.5t-25.5 -19.5t-27.5 -14t-17.5 -5q-6 4 -12.5 7t-14.5 3h-4q-12 0 -55 -27.5 t-90 -62.5t-84 -65.5t-37 -39.5q0 -23 31.5 -44t71.5 -39.5t77 -34t45 -25.5h215q29 10 58.5 26.5t55.5 33t44 28.5t29 12q-61 -70 -105.5 -100.5t-80.5 -42.5t-64.5 -19.5t-59.5 -29.5q-47 8 -107.5 8t-107.5 23q-8 4 -31.5 16t-50 26.5t-50 28t-32.5 21.5h-71 q-25 -14 -74 -51t-110.5 -82t-129 -94.5t-129 -89.5t-112.5 -66.5t-80 -26.5q-48 0 -62 31z" />
<glyph unicode="y" horiz-adv-x="1021" d="M-1087 -1019q0 46 35 76q38 32 81 34q0 -29 -7 -49.5t-7 -42.5q0 -33 30.5 -48.5t59.5 -15.5q33 0 64.5 12.5t60.5 18.5q88 23 163 56.5t158 74.5q8 -4 13 -2q12 0 21 6t18 10q2 2 15 10.5t28.5 16.5t29 15t15.5 11q12 4 24.5 10.5t24.5 12.5q16 10 56 28.5t112 51.5 q37 18 69.5 33.5t57 28t37.5 19.5l14 7l53 14l377 162q0 20 -2 58t-5 80t-6 81t-3 62q0 51 2 90t9 74.5t23.5 73.5t47.5 87q-12 -14 -49 -36.5t-80 -45t-82 -39t-54 -16.5q-55 0 -89.5 20.5t-54 54.5t-27 76t-7.5 85v32.5t2 30.5l-20 -8v8q0 10 17.5 47t37 80t36.5 80t17 47 v2q29 27 66 49.5t80 22.5q0 -2 -11.5 -29t-28 -65.5t-34.5 -81.5t-33 -78v-146q0 -20 11.5 -42.5t31 -41t44 -31t51.5 -12.5q18 4 42.5 13.5t51 23t50 29.5t40.5 35q23 25 34 53.5t25 62.5q0 4 7.5 14.5t16.5 23t17 22.5t8 14q14 25 24.5 51.5t23 52t29 46t40.5 30.5 q4 0 15.5 6.5t24.5 12.5t24.5 12t15.5 6h29q-45 -88 -97.5 -173t-89.5 -181l-18 -18q-12 -25 -24.5 -63t-26 -81t-25.5 -89t-22 -85q-6 -23 -14.5 -67t-8.5 -72q0 -53 6 -91t6 -91l6 -17q35 4 82 14.5t97 10.5q45 0 64.5 -2t30.5 -10.5t23.5 -27t44.5 -48.5q0 -37 -6 -58.5 t-18 -39t-29.5 -33t-38.5 -35.5q-8 -10 -35.5 -17.5t-58.5 -12.5t-57.5 -8t-32.5 -3q-25 27 -53.5 44t-32.5 28q-2 6 -10 16t-17.5 21.5t-18.5 21.5t-13 18h-9q-36 0 -67 -14q-35 -16 -68 -16q-10 4 -18 9t-13 1q0 -23 -19 -39t-47 -26.5t-55.5 -16.5t-41.5 -10 q-10 -2 -54.5 -18.5t-103.5 -39t-122.5 -47t-111.5 -41.5q-35 -18 -65.5 -38.5t-65.5 -41.5q-76 -47 -156.5 -75.5t-164.5 -61.5q-76 -31 -151.5 -61.5t-157.5 -34.5q-18 0 -42 4t-44.5 15.5t-33.5 27.5t-13 46zM639 -483q0 -4 7 -17.5t15.5 -28t15.5 -26.5t11 -14l-6 -9h6 l14 9q16 -31 41 -40t52 -9q23 0 36 20t13 43q0 33 -12.5 51.5t-31 26.5t-42 9t-47.5 1q-23 0 -36 -2t-36 -14z" />
<glyph unicode="z" horiz-adv-x="1075" d="M119 207q37 59 78 130t83 135.5t84 115.5t82 71q18 4 35 -2t31 -16t28.5 -22.5t28.5 -20.5q29 -16 73 -18t83 -2h31.5t27 2t30.5 6t44 12q23 6 46.5 25.5t45.5 35.5q12 8 27.5 11.5t32 4.5t31 4t22.5 11q-4 -4 -12.5 -19.5t-18.5 -31.5t-21.5 -29.5t-21.5 -13.5 q-6 0 -8 2l-51 -51q-39 -39 -85 -68.5t-94.5 -59.5t-92.5 -60.5t-78 -69.5l-62 -62v-10q18 -12 52 -29.5t76 -34t89 -27.5t92 -11q49 0 97.5 20.5t92.5 51t84 66.5t75 66q8 8 17 23.5t20.5 31t24.5 28t30 12.5q-6 -16 -13.5 -26.5t-18.5 -23t-23.5 -30t-26.5 -45.5 q-49 -47 -102.5 -95.5t-111 -89.5t-121 -66.5t-136.5 -25.5q-39 0 -75 8.5t-69.5 20.5t-66.5 26.5t-68 26.5q-8 0 -25.5 10.5t-25.5 10.5q-10 0 -30.5 -16.5t-44 -35t-47 -35t-42.5 -16.5q-23 0 -37 12.5t-14 28.5q0 12 5 27.5t11.5 31t13.5 28t11 16.5q27 35 64.5 46 t77.5 16t76 11.5t58 28.5l205 207q-23 0 -46 -1t-48 -1q-35 0 -73 4t-68 18q-10 4 -18.5 14.5t-17.5 19.5t-18.5 15.5t-17.5 2.5q-35 -41 -64.5 -85t-60.5 -87t-64.5 -83t-76.5 -75zM231 94q0 -12 3.5 -13t7.5 -7q4 4 17 9t29.5 13t32 17.5t23.5 21.5h-82q-6 -4 -15.5 -20.5 t-15.5 -20.5zM807 485l10 11h-10v-11z" />
<glyph unicode="&#xa0;" />
<glyph unicode="&#x2000;" horiz-adv-x="807" />
<glyph unicode="&#x2001;" horiz-adv-x="1614" />
<glyph unicode="&#x2002;" horiz-adv-x="807" />
<glyph unicode="&#x2003;" horiz-adv-x="1614" />
<glyph unicode="&#x2004;" horiz-adv-x="538" />
<glyph unicode="&#x2005;" horiz-adv-x="403" />
<glyph unicode="&#x2006;" horiz-adv-x="269" />
<glyph unicode="&#x2007;" horiz-adv-x="269" />
<glyph unicode="&#x2008;" horiz-adv-x="201" />
<glyph unicode="&#x2009;" horiz-adv-x="322" />
<glyph unicode="&#x200a;" horiz-adv-x="89" />
<glyph unicode="&#x202f;" horiz-adv-x="322" />
<glyph unicode="&#x205f;" horiz-adv-x="403" />
<glyph unicode="&#x25fc;" horiz-adv-x="583" d="M0 0v584h584v-584h-584z" />
</font>
</defs>
</svg>
