<?xml version="1.0" standalone="no"?>
<!DOCTYPE svg PUBLIC "-//W3C//DTD SVG 1.1//EN" "http://www.w3.org/Graphics/SVG/1.1/DTD/svg11.dtd" >
<svg xmlns="http://www.w3.org/2000/svg" xmlns:xlink="http://www.w3.org/1999/xlink" version="1.1">
<metadata>
Created by FontForge 20170924 at Sat Apr  5 17:54:38 2008
 By www-data
Typeface (c) Teagan White. &#60;2008&#62;. All Rights Reserved
</metadata>
<defs>
<font id="peachsundress~" horiz-adv-x="849" >
  <font-face 
    font-family="peach sundress ~"
    font-weight="400"
    font-stretch="normal"
    units-per-em="2048"
    panose-1="2 0 0 0 0 0 0 0 0 0"
    ascent="1638"
    descent="-410"
    x-height="1019"
    cap-height="1019"
    bbox="-595 -915 1401 1807"
    underline-thickness="150"
    underline-position="-292"
    unicode-range="U+0020-007E"
  />
<missing-glyph horiz-adv-x="1536" 
d="M256 0v1280h1024v-1280h-1024zM288 32h960v1216h-960v-1216z" />
    <glyph glyph-name=".notdef" horiz-adv-x="1536" 
d="M256 0v1280h1024v-1280h-1024zM288 32h960v1216h-960v-1216z" />
    <glyph glyph-name=".null" horiz-adv-x="0" 
 />
    <glyph glyph-name="nonmarkingreturn" horiz-adv-x="569" 
 />
    <glyph glyph-name="space" unicode=" " horiz-adv-x="569" 
 />
    <glyph glyph-name="space" unicode="&#xa0;" horiz-adv-x="569" 
 />
    <glyph glyph-name="exclam" unicode="!" horiz-adv-x="409" 
d="M132 1760h81l30 -3l3 3h2l9 -3l10 3l25 -3h10l9 -8v-73l5 -46l3 -661v-267l-8 -232q5 -33 5 -81v-57q1 -19 5 -19q0 -13 -19 -19l-27 6l-153 -9l-9 9h-2l-3 113v178l-5 232l2 116l-5 35l3 84v94l2 95q-5 26 -5 73v83l13 354zM240 1719h-16l-3 -3l-2 3h-68l-16 -305
l5 -553l-2 -11l2 -54v-213l-2 -57q5 -10 5 -29l3 -170l132 10l-3 108l11 262l-2 73q2 54 8 54l-11 159v33l3 27l-3 8l5 153q0 403 -19 508zM238 227q83 -20 83 -84l3 -19v-27q-15 -97 -86 -97q-48 0 -95 54q-16 36 -16 51q14 122 111 122zM170 132v-29q11 -68 60 -68
q59 0 59 103q0 8 -14 21q0 23 -37 33h-14q-54 -25 -54 -60z" />
    <glyph glyph-name="quotedbl" unicode="&#x22;" horiz-adv-x="671" 
d="M97 1769h8q112 -14 144 -144v-24q0 -100 -128 -304l-20 -8l-116 152q-60 91 -60 172q0 103 108 144zM453 1769h8q112 -14 144 -144v-24q0 -94 -112 -280q0 -23 -32 -28q-36 19 -88 116q-29 0 -84 140l-8 64q0 103 108 144zM-27 1605v-12q0 -92 132 -236v-8h8
q84 144 84 192l8 60q0 69 -84 116h-24q-108 -5 -108 -60q-13 0 -16 -52zM329 1605v-12q0 -94 124 -224v-4h8q32 16 96 196l4 40q0 69 -84 116h-24q-108 -5 -108 -60q-13 0 -16 -52z" />
    <glyph glyph-name="numbersign" unicode="#" horiz-adv-x="875" 
d="M442 1002l7 -10v-7l-71 -241l4 -10l211 13q63 246 70 251l17 4h23q30 0 30 -17q-40 -113 -67 -235h7v-3l3 3h141q18 0 27 -16q0 -61 -37 -61h-3l-151 -6q-28 0 -57 -191l-3 -14h3l164 4h7q23 0 23 -34q-4 -50 -20 -50l-181 10q-14 0 -26 -111l-41 -211q-7 -10 -33 -23
q-38 12 -54 33l64 305h-3l-54 -3h-44l-103 -14l-54 -291q-10 -30 -27 -30l-10 -4v-3q-38 12 -54 34l61 291l-91 3h-23q-37 0 -37 31q0 40 50 40l24 3h60q37 0 37 20q11 82 47 174l-4 10h-137q-24 0 -37 21q6 50 30 50l171 10q17 43 74 265q15 10 67 10zM402 650h-34
q-28 0 -40 -94l-20 -107l194 6q15 0 34 114l27 87v7z" />
    <glyph glyph-name="dollar" unicode="$" horiz-adv-x="855" 
d="M401 1386q26 0 44 -128l3 -3h9q179 0 283 -244q14 -48 14 -92q-22 -114 -106 -114q-75 0 -94 112q0 95 97 119q17 0 17 11q-32 61 -123 133q-45 23 -72 23h-19l75 -448h5q118 0 203 -86q31 -24 61 -141l3 -34q0 -93 -50 -202q-76 -84 -114 -95q-30 -9 -30 -14v-8l16 -89
q-4 -33 -22 -33q-16 0 -33 125h-3q-84 -17 -108 -17v-3l19 -130q0 -17 -22 -28q-26 0 -42 161h-3q-162 0 -302 181q-50 77 -50 127q10 125 100 125h25q58 0 97 -77l11 -56q-13 -86 -36 -86q-28 -25 -58 -33l-3 -3v-14q20 -48 69 -67q82 -38 142 -41v2l-67 484h-8
q-196 0 -283 189l-6 50q0 61 75 183q94 98 136 105v3l-11 114q0 17 25 17v2q25 0 36 -113l6 -6l89 14l-17 108q0 17 22 17zM315 1191l56 -402l11 -36l97 5v3q-50 363 -72 442q-53 -3 -92 -12zM98 953q0 -38 39 -120q83 -80 153 -80h39v2q-25 193 -61 384q0 27 -9 27
q-49 -8 -130 -116q-31 -53 -31 -97zM601 919q14 -69 47 -69h11q48 10 48 69v3q0 50 -37 67h-13q-45 0 -56 -70zM387 703v-3l42 -367q8 -83 19 -119h3q98 3 111 22q-72 441 -72 472zM534 705l64 -455h3q63 15 106 89q22 27 33 91v67q0 158 -128 197l-47 11h-31zM101 500v-20
q0 -57 72 -97h3q67 14 67 70q0 65 -61 100h-23q-26 -3 -58 -53z" />
    <glyph glyph-name="percent" unicode="%" horiz-adv-x="1058" 
d="M916 1306q25 0 41 -38q-35 -86 -73 -141q-16 -52 -357 -536q0 -14 -111 -172l-208 -404l-3 -3q0 -6 -26 -12q-17 0 -41 35v3q88 178 149 275q52 113 187 302q113 185 270 421q79 122 79 141h-18q-182 -38 -243 -38l-143 3l-3 -3v-15q38 -54 38 -123l-6 -26v-18
q0 -149 -97 -199q-57 -14 -102 -14q-70 0 -161 52q-82 78 -82 135q-5 0 -6 70q24 115 88 179q30 37 140 55l3 -3l35 3h6q171 -32 290 -32q199 12 199 26q116 27 155 77zM61 960q27 -129 74 -129q48 -29 90 -29q109 0 141 64q25 15 29 129q-5 64 -50 126q-40 47 -79 47
q-106 0 -134 -32q-71 -42 -71 -167v-9zM782 498q93 -14 128 -44q97 -88 97 -191l-6 -26v-17q0 -150 -96 -200q-58 -14 -103 -14q-69 0 -161 53q-82 78 -82 134q-5 0 -6 70q24 115 88 179q30 37 141 56zM615 222q26 -128 73 -128q48 -30 91 -30q108 0 140 65q25 15 29 129
q-5 64 -49 125q-41 47 -79 47q-107 0 -135 -32q-70 -41 -70 -167v-9z" />
    <glyph glyph-name="ampersand" unicode="&#x26;" horiz-adv-x="1425" 
d="M514 1435q232 0 271 -165l12 -98q0 -114 -216 -286l-4 -4v-4q284 -425 318 -462q10 0 121 180l28 74v44q0 45 -90 66l-12 16v8q6 19 51 19h51l19 4q45 -8 165 -8h8q22 0 27 -19q0 -23 -51 -39q-102 -75 -129 -169q-88 -169 -145 -231q55 -83 153 -157h8v4q0 28 -8 43
q0 144 113 176l24 4h8q165 -24 165 -149v-15q0 -64 -71 -165q-74 -59 -188 -59q-134 19 -298 145l-16 12q-210 -190 -396 -200h-8q-196 0 -282 98q-90 76 -90 196q-7 0 -12 67q0 203 306 439v12q-102 157 -102 290q0 237 212 329zM405 1274v-39q0 -108 133 -298h12
q180 120 180 278q0 161 -192 161q-99 0 -133 -102zM291 1098q0 -157 200 -400q234 -330 310 -404q121 -121 235 -169q68 -31 106 -31h62q21 0 24 12q-170 0 -361 286q-39 36 -223 298l-212 314q-75 122 -86 235l4 39v20q-59 -51 -59 -200zM99 349q0 -120 125 -227
q57 -48 177 -48h11q112 0 279 99q59 46 82 74q-137 156 -302 396l-86 110q-40 -19 -184 -169q-98 -102 -98 -196zM1146 247q21 -82 78 -82h31q60 0 87 98v15q0 76 -102 94q-82 0 -94 -125z" />
    <glyph glyph-name="quotesingle" unicode="'" horiz-adv-x="325" 
d="M97 1769h8q112 -14 144 -144v-24q0 -100 -128 -304l-20 -8l-116 152q-60 91 -60 172q0 103 108 144zM-27 1605v-12q0 -92 132 -236v-8h8q84 144 84 192l8 60q0 69 -84 116h-24q-108 -5 -108 -60q-13 0 -16 -52z" />
    <glyph glyph-name="parenleft" unicode="(" horiz-adv-x="667" 
d="M465 1776h73q78 0 116 -48v-7q-103 -33 -135 -94q-43 -108 -43 -135l3 -4v-3q-7 -19 -7 -77v-18l11 -149q0 -288 -55 -349l-47 -44v-4q98 -75 98 -309q-29 -228 -36 -382q40 -178 69 -178l98 -58q-36 -37 -91 -37h-83q-139 0 -215 153q-25 66 -25 189h-4l4 4l-4 65
l22 371q0 88 -88 153q-70 33 -76 44v11q0 5 69 25q34 23 66 138q18 80 18 131l-4 222l4 88l-4 36q27 145 84 200q87 66 182 66zM257 1455l4 -18l-11 -156q7 -33 7 -87v-8q0 -144 -58 -273l-47 -51q94 -60 94 -131q22 -55 22 -91q-11 -212 -25 -320l3 -32l-3 -41
q21 -214 40 -214q80 -112 189 -112h7l19 3v4q-113 73 -113 319l36 346q0 186 -127 251v4q105 45 105 142q14 9 18 214l-10 153v8q0 232 116 349v3h-47q-146 -26 -146 -54q-28 0 -65 -146z" />
    <glyph glyph-name="parenright" unicode=")" horiz-adv-x="682" 
d="M171 1765h84q138 0 215 -153q25 -67 25 -189h4l-4 -4l4 -66l-22 -371q0 -89 87 -153q71 -33 77 -44v-11q0 -6 -69 -26q-35 -22 -66 -138q-18 -80 -18 -131l4 -223l-4 -87l4 -37q-27 -144 -84 -200q-87 -65 -182 -65h-73q-79 0 -117 47v8q103 32 135 94q44 108 44 135
l-4 3v4q7 19 7 76v19l-11 149q0 288 55 350l47 44v3q-98 76 -98 310q29 229 36 383q-40 178 -69 178l-98 59q36 36 91 36zM193 1721v-3q113 -74 113 -321l-37 -346q0 -186 128 -252v-3q-106 -45 -106 -142q-14 -10 -18 -215l11 -154v-7q0 -233 -117 -349v-4h48
q145 27 145 55q28 0 66 145l7 62l-3 18l11 157q-8 32 -8 87v8q0 144 59 273l47 51q-95 61 -95 131q-22 56 -22 91q11 214 26 321l-4 33l4 40q-21 215 -40 215q-81 113 -190 113h-7z" />
    <glyph glyph-name="asterisk" unicode="*" horiz-adv-x="525" 
d="M278 1785q47 0 47 -47l-37 -110v-5l11 -10q54 15 99 15q47 0 47 -57q0 -47 -110 -47h-15l-5 -16q0 -12 88 -120l5 -20q0 -47 -67 -68q-24 0 -89 104l-5 5h-16q-19 0 -36 -83q-15 -37 -63 -37q-47 0 -52 63l31 120h-10l-79 -16q-27 0 -57 42q0 49 130 78l11 16
q0 15 -63 115v15q30 47 52 47q47 0 94 -88h11l42 78z" />
    <glyph glyph-name="plus" unicode="+" horiz-adv-x="1196" 
d="M572 1282l100 -4h20q68 0 68 -48v-12l8 -192l-8 -152l4 -56v-52l20 -4l60 4q268 -10 268 -20l8 -28l-4 -92l-12 -8h-32l-20 -4l-124 8l-36 -4l-20 4l-64 -4l-40 8l-12 -4l-4 -128v-40l8 -280q0 -31 -24 -40l-116 12q-68 -3 -68 -8l-4 4h-52q-53 0 -60 24q12 26 12 64v408
h-4q-360 11 -360 20l-4 28v60q0 44 60 44q30 -11 308 -20v4q10 492 20 492zM516 1214l4 -80v-88q-8 -185 -24 -272l4 -292v-272h20q110 0 188 -12v4l-12 164l8 108l-8 256l16 184l-8 44l8 248h-100l-76 8h-20z" />
    <glyph glyph-name="comma" unicode="," horiz-adv-x="443" 
d="M250 344q95 0 152 -140l8 -96q0 -132 -136 -244q-20 -16 -64 -24q-40 7 -40 28q0 14 64 36q44 34 44 64v32q0 5 -92 20q-80 57 -80 112q-11 0 -16 52q0 111 124 152zM150 196v-8q22 -120 88 -120h24l36 4q28 0 32 -52h8q12 40 12 88q0 153 -84 172l-16 4
q-100 -25 -100 -88z" />
    <glyph glyph-name="hyphen" unicode="-" horiz-adv-x="590" 
d="M118 604h209q138 -10 138 -16q6 -8 6 -19v-25l2 -41l-6 -4l-165 2l-180 -2q-8 0 -8 19l-2 82z" />
    <glyph glyph-name="hyphen" unicode="&#xad;" horiz-adv-x="590" 
d="M118 604h209q138 -10 138 -16q6 -8 6 -19v-25l2 -41l-6 -4l-165 2l-180 -2q-8 0 -8 19l-2 82z" />
    <glyph glyph-name="period" unicode="." horiz-adv-x="448" 
d="M264 336q124 -29 124 -124l4 -28v-40q-22 -144 -128 -144q-71 0 -140 80q-24 54 -24 76q21 180 164 180zM164 196v-44q17 -100 88 -100q88 0 88 148q0 55 -72 84h-24q-80 -36 -80 -88z" />
    <glyph glyph-name="slash" unicode="/" horiz-adv-x="1114" 
d="M1007 1658q31 0 50 -46q-43 -104 -89 -171q-20 -64 -434 -652q0 -17 -136 -210l-253 -491l-3 -4q0 -6 -32 -14q-21 0 -50 43v3q107 217 182 335q34 87 163 274l317 495q79 107 246 392z" />
    <glyph glyph-name="zero" unicode="0" horiz-adv-x="847" 
d="M336 1001q171 0 256 -83q93 -89 109 -141q38 -48 66 -188l10 -78q-23 -158 -50 -222q-30 -91 -117 -185q-122 -104 -289 -104q-127 0 -183 63q-65 63 -112 232q-26 114 -26 229q0 105 60 269q25 66 99 140q60 51 104 55zM57 563v-115q5 -135 60 -263q63 -135 196 -135h5
q53 0 110 44q54 53 78 151q39 78 39 370v8q0 98 -42 217q-34 67 -60 83q0 23 -122 23h-21q-29 0 -78 -26q-131 -121 -131 -182q-34 -92 -34 -175zM511 907v-7q31 -56 52 -157q18 -78 18 -138v-5q0 -211 -49 -384q-39 -100 -76 -138v-2q53 12 131 83q17 13 54 78
q44 67 73 214l3 42l-3 49l3 21q0 115 -104 266q-18 10 -58 52q-23 21 -44 26z" />
    <glyph glyph-name="one" unicode="1" horiz-adv-x="399" 
d="M258 996q28 0 28 -43l-2 -56l2 -86v-51l-7 -246q15 -415 25 -415q10 -37 35 -66v-5h3q0 -27 -41 -28h-5l-48 5h-38l-137 -5q-32 5 -32 25l22 71l-7 132q4 31 12 509q0 41 -38 41q-27 0 -30 15q0 15 43 33q103 82 165 139q24 31 50 31zM109 813l8 -114l-8 -387v-36l2 -78
l-2 -43l2 -69l-5 -40h3q41 7 76 7h73v3l-12 63l2 81q-7 188 -10 494l3 71l-3 61l3 51l-3 40l-7 5q-5 0 -89 -76q-33 -24 -33 -33z" />
    <glyph glyph-name="two" unicode="2" horiz-adv-x="702" 
d="M280 995q80 0 185 -69q75 -88 75 -188v-15q0 -63 -51 -137q-80 -87 -226 -162q-106 -70 -142 -156q-9 -5 -17 -34l2 -7h5q83 86 188 86q65 0 161 -86q24 -17 58 -22q65 19 65 53h5q12 0 17 -58v-26q0 -83 -96 -128l-22 -3h-7q-22 0 -140 53l-70 20h-10q-41 0 -115 -75
q-12 -41 -22 -41q-23 0 -63 55q-19 59 -19 78v33q0 75 113 217q59 54 183 123q148 103 152 162q6 0 12 53v21q0 84 -65 159q-47 49 -164 49q-97 -8 -159 -56q-38 -34 -41 -43v-5h10q41 0 82 -34q34 -41 34 -89q-10 -64 -82 -82l-32 -5q-51 0 -82 82l-2 58v3q0 76 92 154
q69 52 188 62zM43 747q0 -50 49 -67h21q39 24 39 41v17q0 40 -58 67h-10q-41 -16 -41 -55v-3zM94 121v-8q0 -30 14 -43h5q65 82 140 82h41q49 0 178 -63h10q48 0 82 77l2 10l-2 2l-34 -12q-59 0 -156 75q-42 27 -70 27h-32q-78 0 -171 -119z" />
    <glyph glyph-name="three" unicode="3" horiz-adv-x="682" 
d="M300 997q62 -4 148 -49q51 -35 75 -101q18 -44 18 -88v-11q0 -103 -103 -186l-52 -26q79 -26 119 -70q75 -91 75 -173v-16q0 -112 -85 -207q-115 -70 -195 -70q-73 8 -134 28q-106 47 -148 138q-18 38 -18 67v3q0 101 44 129q0 8 47 21q78 0 116 -70l5 -23
q0 -98 -98 -130q-36 -2 -36 -8q41 -61 137 -93l78 -13h23q41 0 57 34q44 53 44 160q-10 155 -31 182q-8 29 -68 77q-82 15 -82 31q0 23 95 29q107 30 151 93q23 52 23 91v23q0 72 -65 148q-53 36 -140 36q-116 0 -189 -86v-5l52 -15q62 -41 62 -101q0 -49 -75 -78l-31 -5
q-50 0 -75 83l-3 44v2q0 78 96 153q71 43 163 52zM83 782v-23q0 -41 41 -55h26q26 19 31 29v26q0 41 -57 62q-41 -17 -41 -39zM407 476v-2q41 -66 41 -150q8 -41 8 -81l-11 -62l3 -8q0 -37 -29 -100v-3q30 0 78 67q42 72 42 135v23q0 92 -91 161q-33 20 -41 20zM47 259
q0 -35 44 -54h10q62 29 62 72v18q0 19 -41 44h-24q-51 -17 -51 -77v-3z" />
    <glyph glyph-name="four" unicode="4" horiz-adv-x="814" 
d="M544 1008q32 0 32 -107l2 -85v-102l-2 -45l2 -37l-2 -134l2 -74l-2 -88l18 -3h14q22 0 69 59h8q23 0 32 -22q-30 -82 -67 -82q-10 -7 -58 -11l-16 3v-11q0 -178 40 -248q-1 -14 -11 -21l-77 8h-11l-162 -8q-8 0 -14 13q21 56 21 107l-2 160v35q-27 29 -179 29
q-81 -3 -162 -43q-11 0 -19 16q0 47 149 232l150 176l210 251q17 24 35 32zM394 773q6 -70 6 -197v-200q0 -114 -6 -184l8 -117l-2 -27l157 8v21q-19 106 -19 341v46q0 82 6 120q-9 325 -14 346h-2q-116 -129 -134 -157zM99 386l2 -2v-3q44 13 96 13q74 0 155 -21l8 3v248
l-3 80l-8 8q-9 -3 -96 -123q-49 -42 -96 -125z" />
    <glyph glyph-name="five" unicode="5" horiz-adv-x="723" 
d="M41 997q209 -26 491 -44l71 5q9 0 18 -33q0 -25 -46 -25l-3 -3q-80 3 -368 31l21 -348q17 -20 23 -20l84 10h8q84 0 212 -118q66 -68 66 -163q0 -215 -140 -271l-102 -18q-176 18 -210 43q-43 18 -71 67q-36 43 -44 112q-4 0 -5 26q0 41 43 79q27 13 39 13h5
q83 0 110 -77l5 -30q-11 -92 -51 -92q-18 -13 -39 -18l-2 -8q0 -8 66 -51q40 -18 182 -18h10q76 0 133 92q28 70 28 153q0 137 -210 233l-20 2h-33q-90 0 -166 -40q-24 -17 -57 -59l-10 -5q-27 0 -33 81l-23 238q-8 38 -18 212q-5 0 -5 18q0 26 41 26zM43 951v-3
q13 -49 29 -225q17 -78 17 -186l-2 -31l2 -8h6q30 33 97 57l2 2q-25 221 -25 373zM95 253v-3q0 -57 58 -74h11q30 22 30 57v15q0 31 -53 43h-6q-30 0 -40 -38z" />
    <glyph glyph-name="six" unicode="6" horiz-adv-x="712" 
d="M333 1007q57 0 121 -61l22 -52q-4 -28 -22 -28q-11 0 -39 55q-48 42 -74 42h-8q-95 0 -209 -157l-33 -80q0 -5 8 -5q98 77 206 77l3 2l3 -2h3l24 2q79 0 168 -77q99 -122 99 -239q4 0 11 -63l-3 -33l3 -52q0 -165 -148 -289q-72 -47 -132 -47h-25q-76 6 -143 50
q-101 93 -118 176q-50 94 -50 239q0 170 50 275q42 112 101 170q102 97 182 97zM44 501v-75q0 -72 55 -225q55 -118 149 -151q31 -14 60 -14h22q31 0 63 38q39 70 39 141v244q0 145 -77 270q-25 19 -61 30q-88 0 -192 -85q-50 -49 -50 -116q-6 0 -8 -57zM380 751l35 -63
q58 -138 58 -347q0 -230 -22 -264v-3q74 42 121 193l11 52q-16 272 -33 272q-45 111 -135 152z" />
    <glyph glyph-name="seven" unicode="7" horiz-adv-x="758" 
d="M26 998q7 0 31 -24q86 -46 282 -46h15l186 10l119 -2q13 -2 13 -16q0 -11 -41 -49q-44 -49 -101 -235q-40 -122 -57 -396l-8 -106q23 -83 44 -103q0 -20 -95 -26l-156 -5q-23 3 -28 10l18 62l-8 205q0 383 148 573l5 18q-7 16 -23 16h-73q-83 0 -209 28q-38 0 -52 -69
q-8 -11 -15 -11q-15 0 -21 57q0 106 23 106zM282 238l2 -65v-114l13 -12h36l96 2l5 8l-10 95q0 222 41 430q58 214 122 289q10 11 10 21v2h-70q-88 -18 -88 -46q-99 -124 -134 -316q-23 -111 -23 -294z" />
    <glyph glyph-name="eight" unicode="8" horiz-adv-x="661" 
d="M280 997q82 -11 145 -39q121 -82 121 -205q0 -107 -137 -207q60 -30 129 -111q24 -26 42 -106l5 -34l-3 -10v-5l3 -3q-6 -71 -21 -109q-44 -88 -124 -127q-20 -16 -132 -38l-28 -3q-87 0 -200 75q-80 95 -80 202v16q0 105 111 207l83 36v2q-47 10 -106 75q-49 70 -49 135
v10q0 93 72 174q47 43 169 65zM75 769v-24q0 -130 158 -178l47 -8h2q127 94 127 238v16q0 43 -47 101q-56 36 -114 36h-15q-88 -18 -88 -34q-27 0 -67 -119zM404 919v-5q41 -50 41 -137q0 -103 -80 -195h3q76 31 132 138l2 23v23q0 110 -98 153zM163 241q0 -137 75 -189
l26 -3h23q69 0 158 49q88 63 88 130l3 28v37q0 120 -153 204q-48 10 -109 10q-44 -18 -82 -85q-19 -31 -29 -181zM41 295v-23q0 -90 70 -171q35 -31 49 -31v2q-28 64 -28 101l3 8q-11 47 -11 67q11 167 34 195l15 33h-2q-41 -15 -88 -64q-37 -53 -42 -117z" />
    <glyph glyph-name="nine" unicode="9" horiz-adv-x="697" 
d="M278 998h25q74 -5 142 -49q99 -92 117 -174q49 -94 49 -238q0 -169 -49 -272q-43 -112 -101 -170q-101 -95 -180 -95q-57 0 -120 60l-22 52q4 27 22 27q11 0 38 -54q48 -41 74 -41h8q94 0 207 155l33 79q0 6 -8 6q-98 -77 -205 -77l-2 -2l-3 2h-3l-25 -2q-78 0 -166 76
q-98 121 -98 237q-4 0 -11 63l3 33l-3 52q0 163 147 286q71 46 131 46zM183 786v-243q0 -144 76 -268q25 -18 60 -30q88 0 191 85q49 49 49 115q7 0 8 57v74q0 71 -54 223q-55 117 -147 150q-32 14 -60 14h-22q-31 0 -63 -38q-38 -69 -38 -139zM33 682q16 -270 32 -270
q45 -110 134 -150l36 -8l-36 62q-57 137 -57 344q0 228 22 262v3q-73 -41 -120 -191z" />
    <glyph glyph-name="colon" unicode=":" horiz-adv-x="438" 
d="M232 796q138 0 168 -128q12 -21 12 -48q0 -111 -124 -152l-36 -8q-95 0 -152 140v4q0 164 100 192h32zM156 652q14 -132 96 -132q100 25 100 88v8q-22 120 -88 120h-56q-52 -31 -52 -84zM264 336q124 -29 124 -124l4 -28v-40q-22 -144 -128 -144q-71 0 -140 80
q-24 54 -24 76q21 180 164 180zM164 196v-44q17 -100 88 -100q88 0 88 148q0 55 -72 84h-24q-80 -36 -80 -88z" />
    <glyph glyph-name="semicolon" unicode=";" horiz-adv-x="519" 
d="M248 794q71 0 140 -80q24 -54 24 -76q-21 -180 -164 -180q-124 29 -124 124l-4 28v40q22 144 128 144zM172 594q0 -55 72 -84h24q80 36 80 88v44q-16 100 -88 100q-88 0 -88 -148zM260 334q95 0 152 -140l8 -96q0 -132 -136 -244q-20 -16 -64 -24q-40 7 -40 28
q0 14 64 36q44 34 44 64v32q0 6 -92 20q-80 57 -80 112q-11 0 -16 52q0 111 124 152zM160 186v-8q22 -120 88 -120h24l36 4q28 0 32 -52h8q12 40 12 88q0 153 -84 172l-16 4q-100 -25 -100 -88z" />
    <glyph glyph-name="semicolon" unicode="&#x37e;" horiz-adv-x="519" 
d="M248 794q71 0 140 -80q24 -54 24 -76q-21 -180 -164 -180q-124 29 -124 124l-4 28v40q22 144 128 144zM172 594q0 -55 72 -84h24q80 36 80 88v44q-16 100 -88 100q-88 0 -88 -148zM260 334q95 0 152 -140l8 -96q0 -132 -136 -244q-20 -16 -64 -24q-40 7 -40 28
q0 14 64 36q44 34 44 64v32q0 6 -92 20q-80 57 -80 112q-11 0 -16 52q0 111 124 152zM160 186v-8q22 -120 88 -120h24l36 4q28 0 32 -52h8q12 40 12 88q0 153 -84 172l-16 4q-100 -25 -100 -88z" />
    <glyph glyph-name="equal" unicode="=" horiz-adv-x="901" 
d="M112 604q113 -11 541 -23l29 3q116 -12 118 -17l3 -12v-81q0 -26 -26 -26h-17l-75 9l-35 -3l-12 3l-55 -3h-20l-437 23h-3q-23 0 -23 17v93q0 13 12 17zM109 411l208 -3h290q193 -15 193 -24q9 -11 9 -26v-34l3 -58l-9 -6l-225 3l-241 -3q-231 6 -231 17l-6 99v17
q0 11 9 18z" />
    <glyph glyph-name="question" unicode="?" horiz-adv-x="727" 
d="M207 1754q176 0 263 -86q96 -91 113 -145q39 -49 67 -193l11 -81q-19 -130 -46 -217q-73 -188 -209 -261q-62 -44 -62 -196l-3 -108q6 -32 6 -80v-57q1 -18 5 -18q0 -14 -19 -19l-27 5l-153 -8l-8 8h-3l-2 113v102q0 103 37 194q59 62 137 91q67 10 159 91
q104 149 118 288l6 24l-3 43v89q-65 188 -83 204q-69 103 -135 129q-47 32 -188 32h-19q-73 0 -153 -102q-30 -27 -37 -59v-3h16l3 3q93 -23 93 -118q-19 -105 -93 -105q-34 0 -70 35q-30 36 -30 83q0 114 113 239q73 67 110 67zM-56 1427v-3q0 -60 49 -67h2q34 0 45 43
l6 29q-14 62 -53 62h-14q-35 -16 -35 -64zM172 543l5 -218l132 11l-8 260q0 50 35 156h-3q-33 0 -115 -75q-24 -20 -43 -118zM269 226q83 -20 83 -84l3 -18v-27q-15 -97 -86 -97q-48 0 -94 54q-16 36 -16 51q14 121 110 121zM202 132v-30q11 -67 59 -67q59 0 59 102
q0 9 -14 22q0 22 -37 32h-14q-53 -24 -53 -59z" />
    <glyph glyph-name="at" unicode="@" horiz-adv-x="1165" 
d="M589 1196q78 -12 126 -26q113 -66 184 -206q85 -145 85 -357q0 -112 -70 -194q-33 -29 -62 -29q-82 17 -82 58h-6q-29 -62 -61 -85q-67 -52 -135 -52h-21q-47 0 -129 44q-75 72 -82 129q-15 0 -35 149q0 95 41 197q69 123 167 123q0 4 38 9q71 0 141 -53q52 -39 76 -88
q14 0 27 -290q9 -40 26 -62l18 -15h6q56 0 88 167q-29 221 -59 279q-42 108 -97 150q-70 91 -146 91h-21q-167 0 -217 -44q-49 0 -158 -171l-68 -184v-97l-3 -47q25 -197 141 -343l76 -62q81 -58 212 -58l17 -3h6q196 20 196 38q64 23 144 105q57 77 91 179l21 15
q32 -6 32 -29v-3q0 -74 -138 -235q-135 -126 -361 -126q-196 0 -337 135q-100 112 -144 287l-26 150q0 79 56 255q55 97 91 147q117 120 181 129q103 23 171 23zM351 621q9 -105 67 -190q58 -68 124 -68q117 0 152 85q41 102 41 132q0 222 -41 244q-61 82 -158 82
q-89 0 -159 -138q-26 -75 -26 -147z" />
    <glyph glyph-name="A" unicode="A" horiz-adv-x="1115" 
d="M427 1021q62 0 165 -56q78 -68 96 -99q6 -21 13 -21v3l-5 21l2 77v30l-2 32l21 5h37l64 -5h6q66 1 66 10l16 -10l3 -118l-5 -320l5 -98l-3 -173l3 -27l-3 -11q0 -168 67 -184l32 -5h3q88 17 88 48q7 0 10 64v32l6 32l-3 48l3 21l-3 43v147l5 5h27l3 -16l-6 -141v-6l6 -29
v-112q0 -124 -78 -157q-42 -26 -160 -35l-58 3h-8q-45 5 -115 58q-27 40 -27 54h-5q-83 -84 -125 -91q-65 -40 -176 -40q-106 11 -197 75q-99 75 -112 120q-72 116 -80 229v32l-3 16q12 111 40 213q29 117 160 259q99 64 157 64q26 13 70 13zM53 427q18 -100 38 -139
q90 -174 202 -219q26 -13 110 -24q101 16 181 54q63 42 90 154q8 32 16 123l-2 154l5 24q-8 125 -16 163l3 8q-54 248 -237 248h-22q-76 0 -184 -67q-109 -101 -152 -264q-16 0 -32 -215zM733 965v-3l-3 -125l8 -85l-5 -115l3 -21l-8 -160v-27l-3 -42l3 -3v-3l-6 -114
q0 -149 43 -179q40 -37 125 -37h6q42 0 42 8q-61 36 -61 104q-7 6 -11 82l3 16l-3 38v104l-2 61l2 29l-2 101l8 368h-11l-107 8z" />
    <glyph glyph-name="B" unicode="B" horiz-adv-x="1211" 
d="M180 1804l10 -3l20 3l10 -13l-2 -20v-76l5 -65v-185l8 -327l-2 -168l2 -55h3q114 131 229 131h46q66 0 179 -57q93 -81 117 -123q46 -66 88 -207q16 -103 19 -152q-7 -126 -22 -171l-25 -57v-3q59 -150 112 -183q48 -27 95 -27h27q104 43 104 174q0 36 8 87v210l8 8h25
l5 -5l-3 -74l3 -95l-5 -46l2 -41l-2 -54l2 -17q0 -81 -60 -158q-64 -35 -111 -35q-43 0 -128 38q-75 65 -98 133q-5 0 -5 14l-3 3h-11q-64 -86 -139 -128q-32 -25 -92 -38q0 -8 -68 -19q-84 0 -180 43q-109 99 -109 199v3q0 191 144 310q78 35 109 35q164 -14 164 -32
q111 -59 171 -229l3 -3h2q12 0 22 106q0 138 -57 302q-77 171 -196 218q-59 27 -87 27q-107 0 -220 -84q-66 -85 -66 -171q-13 -95 -13 -248q5 -33 5 -82v-30l-3 -155l3 -149v-19q0 -26 -11 -41q-16 5 -71 5h-62q-41 0 -63 19l3 3l-3 41v8l-11 258v128l-5 161v27l11 297
l-6 38l3 84v95l3 96q-6 26 -6 73v136l-5 55l3 51l-3 47q5 47 5 122v24q0 14 -5 14q0 14 33 14h2l139 2l3 3h3zM65 1758h-8v-6h-3l3 -2q-16 -280 -16 -360l11 -323l-8 -204l2 -55v-215l-2 -57l5 -22l3 -201l-3 -60l3 -65q11 -32 11 -128q0 -11 5 -11l103 -11q11 3 11 16v33
q0 170 6 237l-6 133l11 261l-3 74q3 54 9 54l-11 161v32l2 28l-2 8l5 155q0 385 -19 525h-35l-38 6zM294 316h3q-9 -14 -9 -28v-32q0 -82 68 -161q85 -49 172 -49h5q141 33 207 101q68 97 68 112l-52 127q-77 156 -225 156h-28q-67 0 -127 -55q-82 -115 -82 -171z" />
    <glyph glyph-name="C" unicode="C" 
d="M450 1016q71 -11 114 -24q37 -13 116 -103q71 -105 71 -198q-20 -109 -100 -109q-72 0 -90 106q0 88 90 114l3 -3h18v3q0 33 -116 137q-49 21 -72 21h-18q-125 0 -125 -21q-52 -46 -82 -135q-24 -126 -24 -172v-8q0 -307 48 -402q17 -77 79 -127q55 -45 104 -45h5
q166 13 196 45q31 6 108 82q69 99 69 265l3 77l13 2h10q6 0 6 -8l2 -79q0 -285 -166 -373q-104 -61 -254 -61q-178 0 -305 122q-90 101 -129 259l-24 135q0 72 50 230q50 87 82 132q106 109 164 117q93 21 154 21zM66 601v-88l-2 -42q22 -160 89 -257q29 -51 64 -71
q38 -41 98 -66v2l-56 114q-34 86 -50 233q-11 70 -11 183v5q0 109 56 267l16 32v8h-3q-47 -13 -135 -140zM606 691q13 -67 45 -67h10q45 10 45 67v2q0 48 -34 64h-13q-43 0 -53 -66z" />
    <glyph glyph-name="D" unicode="D" horiz-adv-x="1131" 
d="M742 1784l27 -3h127q35 -7 35 -24l-5 -13l3 -65l-3 -62l3 -108v-30l-3 -40l3 -27l-6 -478l6 -124l-3 -54l3 -124l-6 -149l3 -75l-3 -119q0 -182 57 -227q16 -8 59 -11q81 26 81 68q11 0 11 83v68l-3 124l3 81q0 22 19 22v2q16 0 16 -62v-94l-3 -38l6 -40l-3 -71l3 -21
q-17 -108 -43 -108q-49 -60 -165 -60h-3q-130 0 -167 33q-50 28 -73 97q-5 0 -24 -30q-79 -81 -135 -81q0 -15 -130 -24q-119 11 -156 32q-138 57 -227 254q-24 46 -46 208v8q0 177 140 373q85 98 181 129q53 19 81 19q170 0 281 -116l32 -49h3l3 35l-3 157v22l5 394l-5 16
l3 111l-6 24v46l-5 102q0 11 32 19zM756 1733l-3 -16v-54l8 -197l-5 -73l5 -54v-127l3 -167l-11 -122l3 -30l-3 -137l5 -116l-8 -133l3 -2v-3l-3 -3v-2l6 -38l-3 -162v-76q0 -126 57 -154q19 -27 143 -27l3 3v3q-54 51 -54 124q-8 19 -14 143h-3l3 30l5 326l-2 9l2 56
l-5 302l5 90l-5 278l8 108l-8 110l3 68l-3 46l-19 5zM65 529q15 -202 27 -202q33 -99 89 -157q84 -116 254 -116h43q116 22 146 54q77 31 97 321v189l-3 57l3 19q-19 80 -57 132q-49 86 -113 113q-48 30 -154 30q-82 -4 -184 -97q-117 -138 -121 -213q-19 -55 -27 -130z" />
    <glyph glyph-name="E" unicode="E" 
d="M410 1021h43q83 0 174 -59q115 -113 115 -174q11 -25 16 -86q0 -72 -59 -155q-61 -62 -166 -83l-238 -22q-28 -17 -40 -53v-6q10 -153 88 -287q42 -58 107 -58l11 -3q98 10 161 37q129 72 131 94q91 85 91 231v34l5 35q-1 16 -5 16q0 15 27 33q8 -8 11 -78
q0 -46 -14 -137l3 -3q-15 -79 -91 -168q-89 -87 -255 -124l-86 -5q-74 0 -211 67q-122 76 -188 255q-40 126 -40 270q11 91 40 150q56 108 102 158q59 77 209 116zM241 571l3 -11l-3 -11v-13q1 -78 11 -78q42 30 129 30h45q212 9 265 131q22 57 22 78v24q0 122 -142 225
q-28 16 -89 16h-51q-78 0 -117 -59q-34 0 -65 -182q-8 -61 -8 -150zM48 555q17 -201 32 -201q0 -28 81 -172q49 -63 126 -102l24 -8h3v6q-53 73 -94 244q-24 137 -24 249v21l-3 16l8 78l-3 19q6 70 67 220l6 5v8q-103 -45 -164 -177q-59 -111 -59 -206z" />
    <glyph glyph-name="F" unicode="F" horiz-adv-x="502" 
d="M325 1795q120 -11 158 -33q139 -57 229 -256q24 -46 46 -210v-8q0 -178 -142 -376q-85 -99 -182 -130q-53 -19 -82 -19l-49 5l-38 -3l-41 3l-3 -3v-215l33 3h95l52 3q19 0 33 -36q0 -22 -55 -22l-160 -8v-2l-3 -107v-57l5 -19l-2 -112l5 -24v-46l6 -104q0 -11 -33 -19
l-27 3h-128q-41 5 -41 22l5 531l-5 177l-2 27h-30q-29 0 -71 -33q-16 -49 -33 -49l-8 -3v-2q-21 0 -25 32q0 58 71 101q39 14 90 14h8l-2 73v109l2 87l-2 28l13 228l-6 71v25q0 228 82 275q43 46 117 60q0 11 120 19zM216 1509l3 -164v-168l2 -58l-2 -11l2 -21l-2 -87l2 -41
l-2 -17l2 -19l-2 -54v-14q0 -23 8 -30l8 3l104 -11h13q57 0 136 52q120 99 161 204q44 140 44 188q-16 215 -33 215q-59 165 -183 232q-41 16 -98 30q-106 0 -130 -66q-29 -74 -33 -163zM50 1512v-9l3 -21l-3 -28l-6 -329l3 -8l-3 -58l6 -305l-6 -89l6 -281l-6 -41l9 -155
v-79l-3 -60l19 -5l114 8l3 16v55l-8 198l5 74l-5 54v128l-3 169l11 123l-3 30l3 139l-5 117l8 133l-3 3v3l3 2v3l-6 38l3 164v65q0 79 49 163v3h-3q-104 -27 -139 -79q-43 -79 -43 -141z" />
    <glyph glyph-name="G" unicode="G" horiz-adv-x="1137" 
d="M402 1025q133 0 214 -36q32 -20 90 -82h3l-3 96h-3q3 19 36 19l49 -5l49 2h33q49 0 52 -24l-2 -39l5 -358l-3 -53l6 -153l-3 -126l3 -55l-6 -164h3q134 15 134 27q43 16 58 47q14 26 14 96v126l2 126l-2 13q0 12 16 17q17 0 22 -25l-3 -274v-8q0 -144 -104 -175l-137 -22
v-11l3 -386l-3 -22l3 -44q0 -235 -28 -260q-26 -86 -90 -123q-128 -64 -233 -64h-8q-174 0 -315 83q-137 120 -137 268l3 3v3l-3 30q0 176 77 238q82 110 232 176q109 54 253 106l35 16l3 102l-3 52h-3l-46 -66q-115 -101 -274 -101q-86 0 -214 98q-96 101 -137 198
q-41 114 -41 268v36q0 171 173 350q103 80 230 80zM744 978v-2l-2 -96l8 -140v-8l3 -159l-6 -44l3 -3v-2l-3 -3l8 -134l-5 -121l3 -145l-3 -22l11 -123l-3 -173v-128l-5 -61l5 -68l-8 -200v-47l3 -30q0 -57 -47 -126l3 -3q101 35 139 93q13 36 25 44q11 28 17 83l-3 13
l8 124l-8 112l5 282l-5 90l5 315l-2 47l2 11l-5 337l-3 22l6 41l-3 65v118l-3 41h-27l-80 3zM62 559q16 -238 41 -271q58 -113 195 -211q40 -17 109 -17h69q71 8 161 83q60 75 77 175l3 14l-3 13l3 61v192q-12 284 -134 342q-67 36 -113 38h-44q-220 0 -315 -205
q-49 -104 -49 -200v-14zM161 -465l-3 -104q13 -96 49 -148q125 -134 167 -134q0 -16 198 -36q95 0 126 104q13 37 13 129v46l6 31l-3 109l6 17l-6 397v5h-5q-249 -86 -296 -117q-89 -51 -165 -127q-87 -104 -87 -172z" />
    <glyph glyph-name="H" unicode="H" horiz-adv-x="1026" 
d="M74 1787q11 0 22 -8h8l69 5q33 -3 38 -8l-3 -3v-87l5 -65v-185l9 -327l-3 -169l3 -55h2q114 131 229 131h46q66 0 180 -57q80 -75 90 -123q25 -85 25 -204l-3 -22l16 -427q25 -120 96 -120h8q85 0 95 149l8 58l-3 8l3 54v126l-3 11q5 24 22 35q17 -4 17 -33l2 -101
l-2 -38l2 -65l-2 -33l2 -32q0 -60 -38 -145q-52 -41 -92 -41h-33q-67 0 -98 63q-14 20 -22 46l3 3v5l-11 50l3 13l-14 196l3 104l-3 2v3l3 3v3q-11 103 -22 299q-14 55 -52 87q-104 75 -171 79q-105 0 -218 -81q-74 -85 -74 -232l-11 -122l3 -101v-82l3 -24l-3 -3l3 -60v-49
l2 -136l-2 -14l2 -33v-8q0 -22 -19 -22l-155 -5q-26 5 -33 16l3 3l-3 41l-7 196l5 74l-5 335l2 81l-2 90l2 104l-5 38l3 84v134l-6 11l3 76q-6 141 -6 370v52q8 76 14 76q16 6 70 6zM44 1732h-13v-49l-6 -30l11 -250l-2 -155l5 -96l-5 -98l2 -38v-52l3 -13l-3 -17v-41
l-2 -40l2 -55v-215l-2 -57l5 -25l5 -289l-2 -128q2 -43 11 -43h21l99 5v30q0 170 5 237l-5 134l10 261l-2 55l2 62l-5 216l3 16l-3 8l5 155q0 406 -19 512h-5l-63 9z" />
    <glyph glyph-name="I" unicode="I" horiz-adv-x="351" 
d="M161 1019h22q25 0 35 -27l3 -136l-5 -120l2 -43l-5 -65l5 -68l-5 -117l3 -133l-6 -128l3 -98l-3 -16l3 -33v-8q0 -22 -19 -22l-155 -5q-26 5 -33 16l3 3l-3 41l-7 195l5 74l-5 334l2 82l-2 89l2 103q-3 52 -11 55q0 21 33 24h32l41 -2q24 5 65 5zM36 970v-8l3 -11l-3 -19
v-41l-3 -46l3 -49v-54l8 -71l-2 -342l2 -122l-2 -123q0 -35 10 -41l33 6l87 -3v30q0 170 5 236l-5 131l11 264l-3 54l3 62l-3 95v17l-3 32l-46 3h-95z" />
    <glyph glyph-name="J" unicode="J" horiz-adv-x="416" 
d="M-1 1012l65 -8q103 3 103 8l36 -11q2 -16 5 -16l-5 -25l5 -362l-3 -51l6 -153l-3 -125l3 -55l-6 -163h3q77 0 161 36q43 36 43 117v141l3 125l-3 14q0 12 16 16q17 0 22 -24l-2 -272v-9q0 -142 -104 -174l-136 -21v-11l3 -384l-3 -22l3 -43q0 -234 -28 -259
q-26 -84 -87 -119q-84 -48 -190 -69l-2 3h-49q-190 0 -305 85q-145 104 -145 264l3 2v3l-3 30q0 170 71 231q68 91 166 142q82 51 251 117l106 43v3l5 136l-5 158l2 38v5h-2l2 41v22q0 280 -10 585h-3q2 8 11 11zM28 968v-2l-2 -85l8 -141v-8l3 -158l-6 -44l3 -2v-3l-3 -3
l8 -133l-5 -120l3 -117l-3 -71l3 -27l-3 -27l3 -54l-3 -55q8 -56 8 -149v-93q11 -136 11 -272q0 -96 -44 -226l-18 -25l2 -2q101 34 139 92q43 74 43 237l-2 313l2 106l-5 87l5 313l-2 46l2 11l-5 335l-3 22l6 40l-3 66v133q0 14 -6 14zM-551 -457l-3 -104q13 -95 49 -147
q124 -133 166 -133q0 -16 196 -36q110 0 144 153l8 188q-5 0 -10 487v5h-6q-246 -85 -294 -117q-88 -50 -163 -125q-87 -104 -87 -171z" />
    <glyph glyph-name="K" unicode="K" horiz-adv-x="1004" 
d="M143 1791q57 0 57 -19l-3 -24l6 -207v-103l8 -335l-3 -152h6q77 67 233 185q92 82 117 136q33 58 66 139l2 2q33 -9 33 -27q-44 -144 -152 -258q-53 -54 -123 -101q0 -5 -8 -5l-2 -3v-2l2 -3h8l52 5h46q66 0 180 -57q79 -75 89 -122q25 -85 25 -204l-3 -22l16 -426
q26 -120 96 -120h8q84 0 95 149l8 58l-3 8l3 54v125l-3 11q5 24 22 35q16 -4 16 -32l3 -101l-3 -38l3 -65l-3 -33l3 -32q0 -60 -38 -144q-52 -41 -92 -41h-33q-90 0 -122 160q-14 129 -17 215l3 103l-3 3v3l3 2v3q-11 103 -22 299q-37 146 -277 163q-94 0 -196 -76
q-26 -33 -38 -98v-90l-13 -168l2 -101v-81l3 -25l-3 -2l3 -60v-49l3 -136l-3 -14l3 -32v-3q0 -38 -19 -38l-3 3h-3l-146 -3q-43 3 -43 14l11 16l-3 27v8l-8 196l5 73l-5 335l2 81l-2 90l2 103l-5 38l3 84v98l-3 57l3 52v22q-9 123 -9 304v6l6 168q0 13 24 16zM23 1739
l-8 -92l11 -242l-3 -155l6 -95l-6 -98l3 -38v-51l3 -14l-3 -16v-41l-3 -41l3 -54v-215l-3 -57q6 -11 6 -30v-38l3 -103l-6 -177l3 -22l-3 -30l3 -78l11 -9l122 9v30q0 169 6 236l-6 133l11 261l-3 54l3 63l-5 215l2 16l-2 8l5 158q-3 339 -11 494q0 17 -24 22l-30 -3l-17 3
l-32 -3l-25 3z" />
    <glyph glyph-name="L" unicode="L" horiz-adv-x="428" 
d="M123 1790q101 -9 101 -19l-6 -13l3 -66l-3 -63l3 -109v-30l-3 -41l3 -27l-5 -483l5 -126l-3 -54l3 -126l-5 -150l2 -76l-2 -120q0 -188 57 -227q17 -14 60 -14q82 26 82 69q11 0 11 84v68l-3 126l3 82q0 22 19 22v2q16 0 16 -62v-96l-2 -38l5 -41l-3 -71l3 -22
q-10 -76 -33 -109q-39 -60 -180 -60q-137 0 -172 35q-71 40 -71 140v150l-3 43q6 14 6 63v197l3 57l-3 52v65l-3 39l3 11l-3 19l3 27l-3 158v22l6 399l-6 16l3 112l-6 24v47l-5 95q0 19 123 19zM44 1736v-60l8 -199l-6 -74l6 -55v-275l-3 -41l3 -33v-60l5 -109v-115l-8 -158
l6 -150l-6 -219q0 -108 63 -131q0 -19 131 -22q-41 46 -41 82l-19 101l3 80v27l-6 90l6 256l-3 9l3 57l-6 306q8 134 8 289l-2 161l2 33l-8 109l3 68v22q0 15 -98 19q-41 -2 -41 -8z" />
    <glyph glyph-name="M" unicode="M" horiz-adv-x="1244" 
d="M172 1032q38 0 38 -22h3l-3 -14v-71l3 -13h5q76 112 200 112q80 0 159 -74q44 -55 57 -99h3q84 159 208 159q93 -13 93 -33q53 -51 66 -120q9 0 19 -129l-8 -129l16 -429q25 -121 96 -121h8q86 0 96 151l8 57l-3 9l3 54v126l-3 11q5 25 22 36q17 -4 17 -33l3 -101l-3 -39
l3 -65l-3 -33l3 -33q0 -60 -39 -145q-52 -41 -93 -41h-33q-64 0 -109 85q-30 83 -30 202l-3 25v126l3 271q0 130 -44 205q-41 38 -71 38h-30q-87 -27 -121 -79q-44 -97 -44 -137v-561l-2 -153q0 -13 -30 -20q-28 0 -28 22l-3 80l6 90l-3 33l-3 498q0 126 -65 195
q-44 38 -91 46q-124 0 -178 -79q-57 -53 -57 -252l-8 -285v-82l2 -241q0 -25 -24 -25l-151 -5q-26 5 -32 16l3 3l-3 41l-8 197l5 74l-5 337l2 74l-5 235h-3l3 3v3q0 19 -6 19q0 19 52 19q75 8 134 8l3 3h3zM51 985v-2l-3 2h-16l-5 -5v-11l2 -11l-2 -19v-41l-3 -41l3 -55
v-216l-3 -58l5 -24l6 -290l-3 -129q2 -44 11 -44h22l98 6v30q0 170 6 238l-6 134l11 263l-2 54l2 63l-2 96v11q0 42 -9 52z" />
    <glyph glyph-name="N" unicode="N" horiz-adv-x="1007" 
d="M171 1028q38 0 38 -22h3l-3 -13v-66l3 -27h5q113 117 227 117h46q66 0 180 -57q80 -75 90 -123q24 -85 24 -204l-2 -22l16 -428q25 -120 95 -120h9q85 0 95 150l8 57l-2 8l2 55v125l-2 11q4 25 21 35q17 -3 17 -32l2 -101l-2 -38l2 -66l-2 -32l2 -33q0 -59 -38 -145
q-52 -41 -92 -41h-33q-56 0 -98 77q-41 125 -41 300l3 103l-3 3v3l3 2v3q-11 103 -22 300q-14 55 -52 87q-95 74 -186 74h-2q-119 0 -216 -93q-57 -77 -57 -196q-4 0 -14 -142l3 -101v-82l3 -24l-3 -3l3 -60v-49l3 -136l-3 -14l3 -33v-8q0 -22 -19 -22l-156 -5q-26 5 -32 16
l3 3l-3 41l-8 196l5 74l-5 335l2 74l-5 234h-3l3 3v3q0 19 -6 19q0 19 52 19q75 8 133 8l3 3h3zM51 982v-3l-3 3h-16l-6 -6v-11l3 -11l-3 -19v-41l-2 -41l2 -54v-215l-2 -58l5 -24l6 -289l-3 -128q2 -44 11 -44h22l98 5v30q0 170 5 238l-5 133l11 262l-3 55l3 62l-3 96v11
q0 41 -8 51z" />
    <glyph glyph-name="O" unicode="O" horiz-adv-x="875" 
d="M451 1019q73 -11 104 -21q117 -54 180 -205q56 -160 56 -260q0 -264 -120 -448q-76 -80 -140 -80q0 -5 -72 -5q-178 0 -305 122q-91 101 -130 260l-24 135q0 72 50 231q51 88 83 133q106 109 164 117q93 21 154 21zM236 634v-8q0 -308 48 -403q18 -79 85 -138
q54 -35 95 -35h8q184 0 242 266q18 94 18 140v117q0 99 -55 242q-114 148 -181 148h-29q-125 0 -125 -21q-52 -46 -82 -135q-24 -127 -24 -173zM61 573l3 -26l-3 -45q12 -147 80 -268q52 -83 69 -83q58 -59 116 -74v3q-69 77 -103 249q-24 143 -24 281v6q0 109 56 268l16 32
v7h-3q-34 -10 -119 -103q-88 -148 -88 -247z" />
    <glyph glyph-name="P" unicode="P" horiz-adv-x="1195" 
d="M9 1030l8 -3l11 3l27 -3h17q128 0 128 -13l8 -58l-3 -65h8q28 51 101 95l85 30l98 9q120 -11 158 -33q139 -57 229 -256q24 -46 46 -210v-8q0 -122 -84 -295q91 -161 152 -171l90 -6q50 14 77 60q19 30 30 153v2l-3 25l3 19l-3 52l3 125l-3 3v3q3 18 16 27q19 0 19 -93
l-2 -87l2 -25l-2 -10l2 -47l-2 -41l2 -32q0 -108 -95 -164q-25 -14 -52 -14h-49q-119 0 -215 172l-57 -65q-100 -95 -208 -114l-27 -3q-134 0 -231 73q-74 95 -74 202v27q0 110 79 207q97 93 166 93l3 -3h71q68 -11 133 -63q86 -93 126 -204l2 -3l17 -24q11 0 43 152l6 41
q-16 205 -27 205q-34 100 -90 158q-85 117 -257 117h-43q-115 -21 -158 -60q-42 -36 -63 -123q-24 -153 -24 -196v-297l-3 -174q5 -38 5 -131v-46q0 -230 -8 -357l6 -245l-3 -96v-11q0 -8 -19 -8v-3l-27 3h-112q-49 0 -49 17l-3 8l6 16l-3 60l3 65l-3 109v30l3 41l-3 28
l6 482l-6 125l3 54l-3 126l6 150l-3 76l3 120l-6 183v19q0 95 16 95zM47 989l-2 -3l2 -38l-2 -79l2 -128q-11 -185 -11 -548l3 -16l-3 -36v-84l-2 -117l5 -95q-3 -127 -8 -150l3 -44v-70l2 -80l-2 -73v-3q0 -81 8 -139l-3 -11q0 -6 14 -8l114 8l3 17v54l-8 199l8 134l-6 120
l3 70l-3 99l6 127l-3 27l3 139l-6 118l9 133l-3 3v3l3 2v3l-6 44l6 253q-9 26 -9 112v38q0 16 -16 16l-11 -2l-8 2l-11 -2zM268 264q0 -139 109 -191q52 -27 153 -27q51 0 133 55q107 88 123 141q-111 247 -177 267q-48 33 -96 33q-143 0 -207 -123q-38 -86 -38 -155z" />
    <glyph glyph-name="Q" unicode="Q" horiz-adv-x="1219" 
d="M457 1036q92 -9 173 -63q0 -8 17 -13l48 -52h3l-3 95h-2q3 19 35 19l49 -5l49 2h32q49 0 52 -24l-3 -38l6 -356l-3 -51l5 -152l-2 -125l2 -55l-5 -171h3l11 -2l65 -3q106 26 144 60q81 72 81 195l5 147l-2 41q5 24 19 24q12 0 16 -52v-111l-5 -65v-6l2 -10
q0 -106 -119 -212q-33 -28 -155 -54h-27v-5q17 -36 130 -150q170 -202 185 -369l3 -87q0 -45 -57 -157q-46 -73 -133 -103l-82 -20q-112 11 -138 30q-73 28 -112 85q-43 74 -43 149v35l5 30l-2 109l5 16l-5 394v13l2 62l-2 16l2 66l-2 57h-3l-46 -66q-114 -100 -272 -100
q-85 0 -212 98q-95 100 -135 195q-41 114 -41 266v36q0 174 179 355q110 71 201 71q0 6 82 11zM733 979v-3l-2 -95l8 -139v-8l3 -157l-6 -44l3 -2v-3l-3 -3l8 -133l-5 -119l3 -144l-3 -22l11 -122l-3 -171v-127l-5 -60l5 -68l-8 -201q0 -88 79 -149q35 -38 73 -38v3
q-16 100 -16 157v6l-3 2l5 36l-2 13l8 122l-8 112l5 279l-5 90l5 312l-3 46l3 11l-5 334l-3 21l5 41l-2 65v117l-3 41h-27l-79 2zM57 563q16 -236 41 -269q57 -112 193 -209q40 -16 109 -16h67q71 7 161 82q59 74 76 173l2 14l-2 13l2 60v190q-12 282 -133 340
q-65 36 -111 38h-43q-219 0 -313 -204q-49 -103 -49 -198v-14zM910 -28l5 -356l-2 -27l2 -43v-25l-2 -127l2 -19l-2 -41q0 -137 21 -160q27 -27 63 -27h3q84 0 160 78q68 102 68 160v30q0 167 -74 261q-12 43 -149 187l-92 109h-3z" />
    <glyph glyph-name="R" unicode="R" horiz-adv-x="800" 
d="M7 1024h94q112 0 112 -14l3 -8l-5 -22v-47l2 -27h6q114 118 228 118h46q72 0 184 -61q102 -87 102 -197q6 0 8 -58v-30q-12 -115 -99 -115h-14q-96 22 -96 140q13 107 91 107h14q26 0 38 -11h6v3q0 100 -182 167l-60 5q-119 0 -217 -93q-57 -78 -57 -198q-5 0 -14 -142
l3 -102v-82l2 -25l-2 -3l2 -60v-49l3 -138l-3 -13l3 -33v-9q0 -22 -19 -22l-157 -5q-26 5 -32 16l3 3v3l-6 22l3 55l-8 159l5 74l-5 338l2 74l-5 236h-3l3 3v2q0 20 -6 20q0 19 27 19zM27 980v-8l2 -11l-2 -19v-42l-3 -41l3 -55v-148l11 -203l-6 -121l3 -110l-3 -109l3 -64
l16 -5h31l27 -3l55 6v30q0 171 5 239l-5 134l11 264l-3 55l3 63l-3 96v19q0 27 -11 27l-25 3h-82zM622 694v-16q8 -71 58 -71h3q46 13 46 41l3 11q0 99 -66 99q-44 -28 -44 -64z" />
    <glyph glyph-name="S" unicode="S" horiz-adv-x="1025" 
d="M82 1101q43 -8 64 -38q26 -45 36 -118q24 -34 133 -87q215 -67 272 -123q97 -106 125 -177q26 -67 26 -153q0 -59 -28 -136q-13 -14 -13 -28q55 -141 105 -172q45 -25 90 -25h25q97 40 97 163q0 34 8 82v197l8 8h23l5 -5l-3 -69l3 -90l-5 -43l2 -39l-2 -51l2 -15
q0 -77 -56 -149q-60 -33 -105 -33q-40 0 -120 36q-70 61 -92 125q-5 0 -6 13l-2 3h-10q-60 -81 -131 -121q-31 -23 -87 -36q0 -7 -64 -17q-79 0 -169 41q-102 93 -102 186v3q0 180 135 292q73 33 103 33q153 -13 153 -31h5l3 3v3q-18 79 -125 194q-95 90 -172 133
q-6 0 -31 21h-2l-34 -90q-105 -206 -105 -258l-35 -139l-8 -2q-18 2 -18 18v7q0 100 67 292q74 114 74 139q8 18 13 71q0 8 -67 69q-18 23 -31 62q0 35 46 51zM85 1040q0 -17 41 -47h3q-14 47 -44 47zM356 799v-3q103 -94 126 -138q46 -53 77 -189q18 -87 18 -159l2 -3v-2
q-10 -134 -33 -177q-8 -10 -8 -20h8q44 37 107 143q36 97 36 161q0 255 -307 382zM159 297h3q-8 -13 -8 -26v-30q0 -77 64 -151q80 -46 161 -46h6q44 5 89 46q62 70 62 184v26q-9 156 -31 156q-22 54 -123 54h-26q-63 0 -120 -52q-77 -108 -77 -161z" />
    <glyph glyph-name="T" unicode="T" horiz-adv-x="413" 
d="M143 1785q71 -5 71 -14l-6 -13l3 -66l-3 -63l3 -109v-30l-3 -41l3 -27l-3 -382v-22l66 -5l63 5q68 0 68 -14l3 -21q0 -14 -11 -17l-9 3l-16 -3l-68 3l-90 -3v3l-8 -3l5 -153l-3 -54l3 -126l-5 -150l2 -76l-2 -120q0 -188 57 -227q17 -14 60 -14q82 26 82 69q11 0 11 84
v68l-3 126l3 82q0 22 19 22v2q16 0 16 -62v-96l-2 -38l5 -41l-3 -71l3 -22q-10 -76 -33 -109q-39 -60 -180 -60q-137 0 -172 35q-70 40 -70 140v150l-3 43q5 14 5 63v197l3 57l-3 52v65l-2 39l2 11l-2 19l2 27l-2 158v22l5 399l-5 16l2 112l-5 24v47l-6 95l9 9v2l24 -2z
M34 1736v-60l8 -199l-6 -74l6 -55v-275l-3 -41l3 -33v-60l5 -109v-115l-8 -158l6 -150l-6 -219q0 -108 63 -131q0 -19 131 -22q-41 46 -41 82l-19 101l3 80v27l-6 90l6 256l-3 9l3 57l-6 306q8 134 8 289l-2 161l2 33l-8 109l3 68v22q0 12 -44 14h-41z" />
    <glyph glyph-name="U" unicode="U" horiz-adv-x="1009" 
d="M748 1024q26 -5 32 -16l-2 -3l2 -41l9 -195l-6 -74l6 -334l-3 -76l3 -157q0 -72 84 -82h13q46 0 95 76q30 36 30 353l-2 17q6 27 16 27q14 0 19 -27l-3 -17l6 -146l-3 -63l3 -19q0 -93 -55 -190q-34 -41 -87 -49l-65 -8q-177 14 -198 49q-50 55 -63 103h-2
q-53 -87 -180 -130q-38 -11 -62 -11h-46q-66 0 -179 57q-80 75 -90 122q-24 85 -24 204l3 22l-9 95l3 27l-3 228v41q0 67 6 106l-3 62v3q0 38 11 38h35q13 0 16 -11l-3 -114l3 -204l-3 -185l6 -89v-84q3 -190 92 -223q66 -46 147 -46q118 0 215 92q57 77 57 196q4 0 13 141
l-3 100v82l-2 24l2 3l-2 60v49l-3 136l3 13l-3 33v8q0 22 19 22zM615 978v-30q0 -169 -6 -236l6 -133l-11 -261l3 -74v-5l-6 -33q0 -59 65 -135q54 -28 85 -28h27q-20 46 -27 96l2 32l-2 57v215l2 57l-5 24l-6 288l3 128q-2 43 -11 43h-21z" />
    <glyph glyph-name="V" unicode="V" horiz-adv-x="701" 
d="M161 1024q25 -5 32 -16l-2 -3l2 -40l8 -192l-5 -73l5 -328l-2 -78l2 -142q14 -58 51 -80q80 -37 96 -37q101 41 220 214l8 24l-3 45v88l3 30l-3 19l3 10l-3 32v198l3 80q-8 88 -8 204v5q0 13 -9 19q0 13 25 13l13 -3l21 3q10 0 16 -115l-5 -88l3 -107q-3 -152 -8 -206
l2 -147q0 -112 -29 -128q0 -8 -134 -161q-51 -38 -115 -64q-91 7 -227 120q-120 126 -120 185l-2 2v3l-3 91l3 19l-9 93l3 27l-3 225v40q0 66 6 104l-3 62v2q0 48 26 48h78zM54 984v-3l-3 -85l3 -209l-3 -182l6 -88v-83q0 -89 40 -123l61 -69h6l-6 37l3 3v2l-3 78l6 70v120
l2 56l-5 24l-5 283l2 126q-1 43 -10 43h-54l-24 -3z" />
    <glyph glyph-name="W" unicode="W" horiz-adv-x="1068" 
d="M7 1040l19 -3h14l155 -3q16 0 16 -22h3l-3 -2v-50l-2 -75l5 -326l-8 -103l8 -215l3 -11l-3 -11q8 -155 47 -155l25 -3q55 0 119 77q41 70 41 172l3 498l3 33l-6 91l3 83q0 19 25 19q22 0 33 -16l3 -158v-553q0 -158 130 -235q49 -17 105 -17q47 5 105 61q53 58 53 246v92
l3 287q-3 143 -17 246q0 31 55 31l20 -8l2 -153v-390q0 -307 -47 -348q-59 -94 -108 -94q-49 -25 -91 -25h-3q-147 0 -185 89q-34 34 -52 82h-3q-41 -104 -144 -152q-46 -13 -72 -13q-175 0 -235 199q-33 96 -33 644l-3 172q0 13 17 19zM34 990l3 -276l-3 -100l9 -88l-3 -20
q14 -266 39 -312q10 -48 96 -114l25 -5h3v2q-22 47 -33 496l-3 2l3 14l3 374l-3 30h-3l-124 -3v3z" />
    <glyph glyph-name="X" unicode="X" horiz-adv-x="1111" 
d="M411 1024q109 -3 219 -49q84 -49 127 -169l41 -139h3l105 186q112 149 142 149q14 0 19 -22q-160 -162 -172 -227q-49 -82 -77 -163v-3q33 -268 72 -390q30 -100 77 -128l47 -19q89 39 89 64q9 0 17 160l2 244l9 5q25 0 25 -25v-91l-6 -180l3 -75q0 -91 -91 -127
q-50 -17 -128 -25l-3 3h-22q-102 0 -171 69q-54 92 -59 161l-16 77h-6q-14 -46 -149 -230q-58 -66 -108 -66q-20 4 -20 11v11q70 30 164 172q44 63 105 188l-14 152q-17 135 -61 247q-57 131 -99 152q-32 28 -59 28h-33q-84 0 -172 -61q-100 -69 -149 -244q-36 -78 -36 -152
l-11 -97q-11 -3 -11 -14h-5q-9 2 -9 22v47q0 157 97 360q104 143 219 177q42 11 105 11zM522 969v-5q92 -104 127 -286q13 -54 30 -271q53 -280 70 -280q58 -85 144 -85l27 -3h6v5q-77 104 -103 288q-36 263 -72 377l-61 158q-57 68 -141 97z" />
    <glyph glyph-name="Y" unicode="Y" horiz-adv-x="1048" 
d="M656 1019l49 -5l49 2h33q48 0 51 -24l-2 -38l5 -356l-3 -52l6 -152l-3 -125l3 -54l-6 -164h3q133 15 133 28q42 15 57 46q14 26 14 95v125l3 125l-3 14q0 12 16 16q17 0 22 -25l-3 -271v-8q0 -143 -103 -174l-136 -22v-11l3 -383l-3 -21l3 -44q0 -233 -27 -258
q-27 -85 -90 -122q-127 -63 -231 -63h-8q-173 0 -313 82q-136 119 -136 266l3 3v2l-3 30q0 175 76 237q82 108 231 174q108 54 250 106l36 15l3 101l-3 52h-3l-46 -66q-114 -100 -272 -100q-82 0 -209 95q-108 128 -108 296l-6 196l3 19l-3 3v2l3 30l-6 210l3 40l-3 98l9 6
h26l17 2q13 -2 13 -13l-8 -280l3 -11l-3 -16q0 -410 46 -476q110 -133 191 -133l48 -3h68q71 7 161 82q59 74 76 174l3 13l-3 14l3 60v190l-9 100v17l-2 155l2 65l-2 70q0 11 32 14zM662 976v-3l-3 -95l8 -139v-8l3 -158l-6 -43l3 -3v-3l-3 -2l9 -134l-6 -119l3 -144l-3 -22
l8 -146l-2 -38l2 -182v-55l-5 -59l5 -68l-8 -199v-46l3 -30q0 -57 -46 -125l2 -3q117 46 131 85q10 7 24 46q16 0 25 90l-3 13q8 51 8 112v19q0 108 -5 130l2 25v29l3 93l-5 32l2 36l-5 125l5 312l-2 46l2 11l-5 334l-3 22l6 41l-3 65v117l-3 41h-27l-79 2zM83 -456l-3 -103
q13 -96 49 -147q123 -133 166 -133q0 -16 195 -36q96 0 128 109q19 99 19 212l-2 73l2 71l-5 361v6h-6q-246 -85 -293 -117q-88 -51 -163 -125q-87 -104 -87 -171z" />
    <glyph glyph-name="Z" unicode="Z" horiz-adv-x="1218" 
d="M433 1133q140 0 158 -72q22 -44 33 -127q-13 -146 -58 -258h3l63 45q48 27 89 27h11q132 0 244 -299q16 -62 27 -218l-5 -169h3q135 15 135 27q43 16 58 47q14 27 14 97v128l3 127l-3 14q0 12 17 16q17 0 22 -24l-3 -277v-9q0 -145 -105 -177l-138 -22v-11l2 -390l-2 -22
l2 -44q0 -238 -27 -263q-27 -87 -92 -125q-129 -64 -235 -64h-8q-176 0 -319 84q-138 121 -138 271l3 3v2l-3 31q0 178 78 241q83 110 235 177q110 55 255 107l36 17l5 155l-5 158l2 16l-2 17l2 41q0 256 -61 277l-33 9q-104 -39 -163 -153q-53 -106 -94 -257h-6
q-25 0 -36 22q0 51 150 465q25 86 25 147v11q-7 122 -72 144l-23 5h-27q-113 0 -258 -152q-127 -158 -163 -407l-6 -75l3 -16q-4 -17 -22 -17l-11 22l3 14v58q0 121 80 330q35 94 180 227q68 45 177 69zM807 660q8 -16 16 -61l-2 -39l8 -155l-6 -122l3 -147l-3 -22l9 -149
l-3 -38l3 -186v-55l-6 -61l6 -69l-9 -203v-47l3 -30q0 -58 -47 -127l3 -3q118 46 133 86q10 8 25 47q15 0 25 91l-3 14q8 52 8 113v20q0 110 -5 133l2 25v30l3 94l-5 33l2 36l-5 130l3 130q-14 333 -42 371q-24 77 -111 161h-5zM228 -456l-2 -105q13 -97 49 -149
q126 -136 169 -136q0 -15 200 -36q97 0 130 111q19 101 19 216l-3 75l3 72l-5 368v5h-6q-251 -87 -299 -119q-90 -51 -166 -127q-89 -106 -89 -175z" />
    <glyph glyph-name="bracketleft" unicode="[" horiz-adv-x="667" 
d="M465 1776h73q78 0 116 -48v-7q-103 -33 -135 -94q-43 -108 -43 -135l3 -4v-3q-7 -19 -7 -77v-18l11 -149q0 -288 -55 -349l-47 -44v-4q98 -75 98 -309q-29 -228 -36 -382q40 -178 69 -178l98 -58q-36 -37 -91 -37h-83q-139 0 -215 153q-25 66 -25 189h-4l4 4l-4 65
l22 371q0 88 -88 153q-70 33 -76 44v11q0 5 69 25q34 23 66 138q18 80 18 131l-4 222l4 88l-4 36q27 145 84 200q87 66 182 66zM257 1455l4 -18l-11 -156q7 -33 7 -87v-8q0 -144 -58 -273l-47 -51q94 -60 94 -131q22 -55 22 -91q-11 -212 -25 -320l3 -32l-3 -41
q21 -214 40 -214q80 -112 189 -112h7l19 3v4q-113 73 -113 319l36 346q0 186 -127 251v4q105 45 105 142q14 9 18 214l-10 153v8q0 232 116 349v3h-47q-146 -26 -146 -54q-28 0 -65 -146z" />
    <glyph glyph-name="backslash" unicode="\" horiz-adv-x="1114" 
d="M149 1612q167 -285 246 -392l317 -495q129 -187 163 -274q75 -118 182 -335v-3q-29 -43 -50 -43q-32 8 -32 14l-3 4l-253 491q-136 193 -136 210q-414 588 -434 652q-46 67 -89 171q19 46 50 46z" />
    <glyph glyph-name="bracketright" unicode="]" horiz-adv-x="682" 
d="M171 1765h84q138 0 215 -153q25 -67 25 -189h4l-4 -4l4 -66l-22 -371q0 -89 87 -153q71 -33 77 -44v-11q0 -6 -69 -26q-35 -22 -66 -138q-18 -80 -18 -131l4 -223l-4 -87l4 -37q-27 -144 -84 -200q-87 -65 -182 -65h-73q-79 0 -117 47v8q103 32 135 94q44 108 44 135
l-4 3v4q7 19 7 76v19l-11 149q0 288 55 350l47 44v3q-98 76 -98 310q29 229 36 383q-40 178 -69 178l-98 59q36 36 91 36zM193 1721v-3q113 -74 113 -321l-37 -346q0 -186 128 -252v-3q-106 -45 -106 -142q-14 -10 -18 -215l11 -154v-7q0 -233 -117 -349v-4h48
q145 27 145 55q28 0 66 145l7 62l-3 18l11 157q-8 32 -8 87v8q0 144 59 273l47 51q-95 61 -95 131q-22 56 -22 91q11 214 26 321l-4 33l4 40q-21 215 -40 215q-81 113 -190 113h-7z" />
    <glyph glyph-name="asciicircum" unicode="^" horiz-adv-x="471" 
d="M163 1807q23 0 120 -136l88 -152l4 -16q0 -24 -32 -36q-41 0 -116 144q-41 60 -48 60h-12q-76 -68 -140 -184l-24 -16q-39 0 -48 60q7 35 152 212q31 53 56 64z" />
    <glyph glyph-name="underscore" unicode="_" horiz-adv-x="1209" 
d="M212 208l288 -4h400q268 -20 268 -32q12 -15 12 -36v-48l4 -80l-12 -8l-312 4l-332 -4q-320 8 -320 24l-8 136v24q0 15 12 24z" />
    <glyph glyph-name="a" unicode="a" horiz-adv-x="1115" 
d="M427 1021q62 0 165 -56q78 -68 96 -99q6 -21 13 -21v3l-5 21l2 77v30l-2 32l21 5h37l64 -5h6q66 1 66 10l16 -10l3 -118l-5 -320l5 -98l-3 -173l3 -27l-3 -11q0 -168 67 -184l32 -5h3q88 17 88 48q7 0 10 64v32l6 32l-3 48l3 21l-3 43v147l5 5h27l3 -16l-6 -141v-6l6 -29
v-112q0 -124 -78 -157q-42 -26 -160 -35l-58 3h-8q-45 5 -115 58q-27 40 -27 54h-5q-83 -84 -125 -91q-65 -40 -176 -40q-106 11 -197 75q-99 75 -112 120q-72 116 -80 229v32l-3 16q12 111 40 213q29 117 160 259q99 64 157 64q26 13 70 13zM53 427q18 -100 38 -139
q90 -174 202 -219q26 -13 110 -24q101 16 181 54q63 42 90 154q8 32 16 123l-2 154l5 24q-8 125 -16 163l3 8q-54 248 -237 248h-22q-76 0 -184 -67q-109 -101 -152 -264q-16 0 -32 -215zM733 965v-3l-3 -125l8 -85l-5 -115l3 -21l-8 -160v-27l-3 -42l3 -3v-3l-6 -114
q0 -149 43 -179q40 -37 125 -37h6q42 0 42 8q-61 36 -61 104q-7 6 -11 82l3 16l-3 38v104l-2 61l2 29l-2 101l8 368h-11l-107 8z" />
    <glyph glyph-name="b" unicode="b" horiz-adv-x="1211" 
d="M180 1804l10 -3l20 3l10 -13l-2 -20v-76l5 -65v-185l8 -327l-2 -168l2 -55h3q114 131 229 131h46q66 0 179 -57q93 -81 117 -123q46 -66 88 -207q16 -103 19 -152q-7 -126 -22 -171l-25 -57v-3q59 -150 112 -183q48 -27 95 -27h27q104 43 104 174q0 36 8 87v210l8 8h25
l5 -5l-3 -74l3 -95l-5 -46l2 -41l-2 -54l2 -17q0 -81 -60 -158q-64 -35 -111 -35q-43 0 -128 38q-75 65 -98 133q-5 0 -5 14l-3 3h-11q-64 -86 -139 -128q-32 -25 -92 -38q0 -8 -68 -19q-84 0 -180 43q-109 99 -109 199v3q0 191 144 310q78 35 109 35q164 -14 164 -32
q111 -59 171 -229l3 -3h2q12 0 22 106q0 138 -57 302q-77 171 -196 218q-59 27 -87 27q-107 0 -220 -84q-66 -85 -66 -171q-13 -95 -13 -248q5 -33 5 -82v-30l-3 -155l3 -149v-19q0 -26 -11 -41q-16 5 -71 5h-62q-41 0 -63 19l3 3l-3 41v8l-11 258v128l-5 161v27l11 297
l-6 38l3 84v95l3 96q-6 26 -6 73v136l-5 55l3 51l-3 47q5 47 5 122v24q0 14 -5 14q0 14 33 14h2l139 2l3 3h3zM65 1758h-8v-6h-3l3 -2q-16 -280 -16 -360l11 -323l-8 -204l2 -55v-215l-2 -57l5 -22l3 -201l-3 -60l3 -65q11 -32 11 -128q0 -11 5 -11l103 -11q11 3 11 16v33
q0 170 6 237l-6 133l11 261l-3 74q3 54 9 54l-11 161v32l2 28l-2 8l5 155q0 385 -19 525h-35l-38 6zM294 316h3q-9 -14 -9 -28v-32q0 -82 68 -161q85 -49 172 -49h5q141 33 207 101q68 97 68 112l-52 127q-77 156 -225 156h-28q-67 0 -127 -55q-82 -115 -82 -171z" />
    <glyph glyph-name="c" unicode="c" 
d="M450 1016q71 -11 114 -24q37 -13 116 -103q71 -105 71 -198q-20 -109 -100 -109q-72 0 -90 106q0 88 90 114l3 -3h18v3q0 33 -116 137q-49 21 -72 21h-18q-125 0 -125 -21q-52 -46 -82 -135q-24 -126 -24 -172v-8q0 -307 48 -402q17 -77 79 -127q55 -45 104 -45h5
q166 13 196 45q31 6 108 82q69 99 69 265l3 77l13 2h10q6 0 6 -8l2 -79q0 -285 -166 -373q-104 -61 -254 -61q-178 0 -305 122q-90 101 -129 259l-24 135q0 72 50 230q50 87 82 132q106 109 164 117q93 21 154 21zM66 601v-88l-2 -42q22 -160 89 -257q29 -51 64 -71
q38 -41 98 -66v2l-56 114q-34 86 -50 233q-11 70 -11 183v5q0 109 56 267l16 32v8h-3q-47 -13 -135 -140zM606 691q13 -67 45 -67h10q45 10 45 67v2q0 48 -34 64h-13q-43 0 -53 -66z" />
    <glyph glyph-name="d" unicode="d" horiz-adv-x="1131" 
d="M742 1784l27 -3h127q35 -7 35 -24l-5 -13l3 -65l-3 -62l3 -108v-30l-3 -40l3 -27l-6 -478l6 -124l-3 -54l3 -124l-6 -149l3 -75l-3 -119q0 -182 57 -227q16 -8 59 -11q81 26 81 68q11 0 11 83v68l-3 124l3 81q0 22 19 22v2q16 0 16 -62v-94l-3 -38l6 -40l-3 -71l3 -21
q-17 -108 -43 -108q-49 -60 -165 -60h-3q-130 0 -167 33q-50 28 -73 97q-5 0 -24 -30q-79 -81 -135 -81q0 -15 -130 -24q-119 11 -156 32q-138 57 -227 254q-24 46 -46 208v8q0 177 140 373q85 98 181 129q53 19 81 19q170 0 281 -116l32 -49h3l3 35l-3 157v22l5 394l-5 16
l3 111l-6 24v46l-5 102q0 11 32 19zM756 1733l-3 -16v-54l8 -197l-5 -73l5 -54v-127l3 -167l-11 -122l3 -30l-3 -137l5 -116l-8 -133l3 -2v-3l-3 -3v-2l6 -38l-3 -162v-76q0 -126 57 -154q19 -27 143 -27l3 3v3q-54 51 -54 124q-8 19 -14 143h-3l3 30l5 326l-2 9l2 56
l-5 302l5 90l-5 278l8 108l-8 110l3 68l-3 46l-19 5zM65 529q15 -202 27 -202q33 -99 89 -157q84 -116 254 -116h43q116 22 146 54q77 31 97 321v189l-3 57l3 19q-19 80 -57 132q-49 86 -113 113q-48 30 -154 30q-82 -4 -184 -97q-117 -138 -121 -213q-19 -55 -27 -130z" />
    <glyph glyph-name="e" unicode="e" 
d="M410 1021h43q83 0 174 -59q115 -113 115 -174q11 -25 16 -86q0 -72 -59 -155q-61 -62 -166 -83l-238 -22q-28 -17 -40 -53v-6q10 -153 88 -287q42 -58 107 -58l11 -3q98 10 161 37q129 72 131 94q91 85 91 231v34l5 35q-1 16 -5 16q0 15 27 33q8 -8 11 -78
q0 -46 -14 -137l3 -3q-15 -79 -91 -168q-89 -87 -255 -124l-86 -5q-74 0 -211 67q-122 76 -188 255q-40 126 -40 270q11 91 40 150q56 108 102 158q59 77 209 116zM241 571l3 -11l-3 -11v-13q1 -78 11 -78q42 30 129 30h45q212 9 265 131q22 57 22 78v24q0 122 -142 225
q-28 16 -89 16h-51q-78 0 -117 -59q-34 0 -65 -182q-8 -61 -8 -150zM48 555q17 -201 32 -201q0 -28 81 -172q49 -63 126 -102l24 -8h3v6q-53 73 -94 244q-24 137 -24 249v21l-3 16l8 78l-3 19q6 70 67 220l6 5v8q-103 -45 -164 -177q-59 -111 -59 -206z" />
    <glyph glyph-name="f" unicode="f" horiz-adv-x="502" 
d="M325 1795q120 -11 158 -33q139 -57 229 -256q24 -46 46 -210v-8q0 -178 -142 -376q-85 -99 -182 -130q-53 -19 -82 -19l-49 5l-38 -3l-41 3l-3 -3v-215l33 3h95l52 3q19 0 33 -36q0 -22 -55 -22l-160 -8v-2l-3 -107v-57l5 -19l-2 -112l5 -24v-46l6 -104q0 -11 -33 -19
l-27 3h-128q-41 5 -41 22l5 531l-5 177l-2 27h-30q-29 0 -71 -33q-16 -49 -33 -49l-8 -3v-2q-21 0 -25 32q0 58 71 101q39 14 90 14h8l-2 73v109l2 87l-2 28l13 228l-6 71v25q0 228 82 275q43 46 117 60q0 11 120 19zM216 1509l3 -164v-168l2 -58l-2 -11l2 -21l-2 -87l2 -41
l-2 -17l2 -19l-2 -54v-14q0 -23 8 -30l8 3l104 -11h13q57 0 136 52q120 99 161 204q44 140 44 188q-16 215 -33 215q-59 165 -183 232q-41 16 -98 30q-106 0 -130 -66q-29 -74 -33 -163zM50 1512v-9l3 -21l-3 -28l-6 -329l3 -8l-3 -58l6 -305l-6 -89l6 -281l-6 -41l9 -155
v-79l-3 -60l19 -5l114 8l3 16v55l-8 198l5 74l-5 54v128l-3 169l11 123l-3 30l3 139l-5 117l8 133l-3 3v3l3 2v3l-6 38l3 164v65q0 79 49 163v3h-3q-104 -27 -139 -79q-43 -79 -43 -141z" />
    <glyph glyph-name="g" unicode="g" horiz-adv-x="1137" 
d="M402 1025q133 0 214 -36q32 -20 90 -82h3l-3 96h-3q3 19 36 19l49 -5l49 2h33q49 0 52 -24l-2 -39l5 -358l-3 -53l6 -153l-3 -126l3 -55l-6 -164h3q134 15 134 27q43 16 58 47q14 26 14 96v126l2 126l-2 13q0 12 16 17q17 0 22 -25l-3 -274v-8q0 -144 -104 -175l-137 -22
v-11l3 -386l-3 -22l3 -44q0 -235 -28 -260q-26 -86 -90 -123q-128 -64 -233 -64h-8q-174 0 -315 83q-137 120 -137 268l3 3v3l-3 30q0 176 77 238q82 110 232 176q109 54 253 106l35 16l3 102l-3 52h-3l-46 -66q-115 -101 -274 -101q-86 0 -214 98q-96 101 -137 198
q-41 114 -41 268v36q0 171 173 350q103 80 230 80zM744 978v-2l-2 -96l8 -140v-8l3 -159l-6 -44l3 -3v-2l-3 -3l8 -134l-5 -121l3 -145l-3 -22l11 -123l-3 -173v-128l-5 -61l5 -68l-8 -200v-47l3 -30q0 -57 -47 -126l3 -3q101 35 139 93q13 36 25 44q11 28 17 83l-3 13
l8 124l-8 112l5 282l-5 90l5 315l-2 47l2 11l-5 337l-3 22l6 41l-3 65v118l-3 41h-27l-80 3zM62 559q16 -238 41 -271q58 -113 195 -211q40 -17 109 -17h69q71 8 161 83q60 75 77 175l3 14l-3 13l3 61v192q-12 284 -134 342q-67 36 -113 38h-44q-220 0 -315 -205
q-49 -104 -49 -200v-14zM161 -465l-3 -104q13 -96 49 -148q125 -134 167 -134q0 -16 198 -36q95 0 126 104q13 37 13 129v46l6 31l-3 109l6 17l-6 397v5h-5q-249 -86 -296 -117q-89 -51 -165 -127q-87 -104 -87 -172z" />
    <glyph glyph-name="h" unicode="h" horiz-adv-x="1026" 
d="M74 1787q11 0 22 -8h8l69 5q33 -3 38 -8l-3 -3v-87l5 -65v-185l9 -327l-3 -169l3 -55h2q114 131 229 131h46q66 0 180 -57q80 -75 90 -123q25 -85 25 -204l-3 -22l16 -427q25 -120 96 -120h8q85 0 95 149l8 58l-3 8l3 54v126l-3 11q5 24 22 35q17 -4 17 -33l2 -101
l-2 -38l2 -65l-2 -33l2 -32q0 -60 -38 -145q-52 -41 -92 -41h-33q-67 0 -98 63q-14 20 -22 46l3 3v5l-11 50l3 13l-14 196l3 104l-3 2v3l3 3v3q-11 103 -22 299q-14 55 -52 87q-104 75 -171 79q-105 0 -218 -81q-74 -85 -74 -232l-11 -122l3 -101v-82l3 -24l-3 -3l3 -60v-49
l2 -136l-2 -14l2 -33v-8q0 -22 -19 -22l-155 -5q-26 5 -33 16l3 3l-3 41l-7 196l5 74l-5 335l2 81l-2 90l2 104l-5 38l3 84v134l-6 11l3 76q-6 141 -6 370v52q8 76 14 76q16 6 70 6zM44 1732h-13v-49l-6 -30l11 -250l-2 -155l5 -96l-5 -98l2 -38v-52l3 -13l-3 -17v-41
l-2 -40l2 -55v-215l-2 -57l5 -25l5 -289l-2 -128q2 -43 11 -43h21l99 5v30q0 170 5 237l-5 134l10 261l-2 55l2 62l-5 216l3 16l-3 8l5 155q0 406 -19 512h-5l-63 9z" />
    <glyph glyph-name="i" unicode="i" horiz-adv-x="351" 
d="M161 1019h22q25 0 35 -27l3 -136l-5 -120l2 -43l-5 -65l5 -68l-5 -117l3 -133l-6 -128l3 -98l-3 -16l3 -33v-8q0 -22 -19 -22l-155 -5q-26 5 -33 16l3 3l-3 41l-7 195l5 74l-5 334l2 82l-2 89l2 103q-3 52 -11 55q0 21 33 24h32l41 -2q24 5 65 5zM36 970v-8l3 -11l-3 -19
v-41l-3 -46l3 -49v-54l8 -71l-2 -342l2 -122l-2 -123q0 -35 10 -41l33 6l87 -3v30q0 170 5 236l-5 131l11 264l-3 54l3 62l-3 95v17l-3 32l-46 3h-95z" />
    <glyph glyph-name="j" unicode="j" horiz-adv-x="416" 
d="M-1 1012l65 -8q103 3 103 8l36 -11q2 -16 5 -16l-5 -25l5 -362l-3 -51l6 -153l-3 -125l3 -55l-6 -163h3q77 0 161 36q43 36 43 117v141l3 125l-3 14q0 12 16 16q17 0 22 -24l-2 -272v-9q0 -142 -104 -174l-136 -21v-11l3 -384l-3 -22l3 -43q0 -234 -28 -259
q-26 -84 -87 -119q-84 -48 -190 -69l-2 3h-49q-190 0 -305 85q-145 104 -145 264l3 2v3l-3 30q0 170 71 231q68 91 166 142q82 51 251 117l106 43v3l5 136l-5 158l2 38v5h-2l2 41v22q0 280 -10 585h-3q2 8 11 11zM28 968v-2l-2 -85l8 -141v-8l3 -158l-6 -44l3 -2v-3l-3 -3
l8 -133l-5 -120l3 -117l-3 -71l3 -27l-3 -27l3 -54l-3 -55q8 -56 8 -149v-93q11 -136 11 -272q0 -96 -44 -226l-18 -25l2 -2q101 34 139 92q43 74 43 237l-2 313l2 106l-5 87l5 313l-2 46l2 11l-5 335l-3 22l6 40l-3 66v133q0 14 -6 14zM-551 -457l-3 -104q13 -95 49 -147
q124 -133 166 -133q0 -16 196 -36q110 0 144 153l8 188q-5 0 -10 487v5h-6q-246 -85 -294 -117q-88 -50 -163 -125q-87 -104 -87 -171z" />
    <glyph glyph-name="k" unicode="k" horiz-adv-x="1004" 
d="M143 1791q57 0 57 -19l-3 -24l6 -207v-103l8 -335l-3 -152h6q77 67 233 185q92 82 117 136q33 58 66 139l2 2q33 -9 33 -27q-44 -144 -152 -258q-53 -54 -123 -101q0 -5 -8 -5l-2 -3v-2l2 -3h8l52 5h46q66 0 180 -57q79 -75 89 -122q25 -85 25 -204l-3 -22l16 -426
q26 -120 96 -120h8q84 0 95 149l8 58l-3 8l3 54v125l-3 11q5 24 22 35q16 -4 16 -32l3 -101l-3 -38l3 -65l-3 -33l3 -32q0 -60 -38 -144q-52 -41 -92 -41h-33q-90 0 -122 160q-14 129 -17 215l3 103l-3 3v3l3 2v3q-11 103 -22 299q-37 146 -277 163q-94 0 -196 -76
q-26 -33 -38 -98v-90l-13 -168l2 -101v-81l3 -25l-3 -2l3 -60v-49l3 -136l-3 -14l3 -32v-3q0 -38 -19 -38l-3 3h-3l-146 -3q-43 3 -43 14l11 16l-3 27v8l-8 196l5 73l-5 335l2 81l-2 90l2 103l-5 38l3 84v98l-3 57l3 52v22q-9 123 -9 304v6l6 168q0 13 24 16zM23 1739
l-8 -92l11 -242l-3 -155l6 -95l-6 -98l3 -38v-51l3 -14l-3 -16v-41l-3 -41l3 -54v-215l-3 -57q6 -11 6 -30v-38l3 -103l-6 -177l3 -22l-3 -30l3 -78l11 -9l122 9v30q0 169 6 236l-6 133l11 261l-3 54l3 63l-5 215l2 16l-2 8l5 158q-3 339 -11 494q0 17 -24 22l-30 -3l-17 3
l-32 -3l-25 3z" />
    <glyph glyph-name="l" unicode="l" horiz-adv-x="428" 
d="M123 1790q101 -9 101 -19l-6 -13l3 -66l-3 -63l3 -109v-30l-3 -41l3 -27l-5 -483l5 -126l-3 -54l3 -126l-5 -150l2 -76l-2 -120q0 -188 57 -227q17 -14 60 -14q82 26 82 69q11 0 11 84v68l-3 126l3 82q0 22 19 22v2q16 0 16 -62v-96l-2 -38l5 -41l-3 -71l3 -22
q-10 -76 -33 -109q-39 -60 -180 -60q-137 0 -172 35q-71 40 -71 140v150l-3 43q6 14 6 63v197l3 57l-3 52v65l-3 39l3 11l-3 19l3 27l-3 158v22l6 399l-6 16l3 112l-6 24v47l-5 95q0 19 123 19zM44 1736v-60l8 -199l-6 -74l6 -55v-275l-3 -41l3 -33v-60l5 -109v-115l-8 -158
l6 -150l-6 -219q0 -108 63 -131q0 -19 131 -22q-41 46 -41 82l-19 101l3 80v27l-6 90l6 256l-3 9l3 57l-6 306q8 134 8 289l-2 161l2 33l-8 109l3 68v22q0 15 -98 19q-41 -2 -41 -8z" />
    <glyph glyph-name="m" unicode="m" horiz-adv-x="1244" 
d="M172 1032q38 0 38 -22h3l-3 -14v-71l3 -13h5q76 112 200 112q80 0 159 -74q44 -55 57 -99h3q84 159 208 159q93 -13 93 -33q53 -51 66 -120q9 0 19 -129l-8 -129l16 -429q25 -121 96 -121h8q86 0 96 151l8 57l-3 9l3 54v126l-3 11q5 25 22 36q17 -4 17 -33l3 -101l-3 -39
l3 -65l-3 -33l3 -33q0 -60 -39 -145q-52 -41 -93 -41h-33q-64 0 -109 85q-30 83 -30 202l-3 25v126l3 271q0 130 -44 205q-41 38 -71 38h-30q-87 -27 -121 -79q-44 -97 -44 -137v-561l-2 -153q0 -13 -30 -20q-28 0 -28 22l-3 80l6 90l-3 33l-3 498q0 126 -65 195
q-44 38 -91 46q-124 0 -178 -79q-57 -53 -57 -252l-8 -285v-82l2 -241q0 -25 -24 -25l-151 -5q-26 5 -32 16l3 3l-3 41l-8 197l5 74l-5 337l2 74l-5 235h-3l3 3v3q0 19 -6 19q0 19 52 19q75 8 134 8l3 3h3zM51 985v-2l-3 2h-16l-5 -5v-11l2 -11l-2 -19v-41l-3 -41l3 -55
v-216l-3 -58l5 -24l6 -290l-3 -129q2 -44 11 -44h22l98 6v30q0 170 6 238l-6 134l11 263l-2 54l2 63l-2 96v11q0 42 -9 52z" />
    <glyph glyph-name="n" unicode="n" horiz-adv-x="1007" 
d="M171 1028q38 0 38 -22h3l-3 -13v-66l3 -27h5q113 117 227 117h46q66 0 180 -57q80 -75 90 -123q24 -85 24 -204l-2 -22l16 -428q25 -120 95 -120h9q85 0 95 150l8 57l-2 8l2 55v125l-2 11q4 25 21 35q17 -3 17 -32l2 -101l-2 -38l2 -66l-2 -32l2 -33q0 -59 -38 -145
q-52 -41 -92 -41h-33q-56 0 -98 77q-41 125 -41 300l3 103l-3 3v3l3 2v3q-11 103 -22 300q-14 55 -52 87q-95 74 -186 74h-2q-119 0 -216 -93q-57 -77 -57 -196q-4 0 -14 -142l3 -101v-82l3 -24l-3 -3l3 -60v-49l3 -136l-3 -14l3 -33v-8q0 -22 -19 -22l-156 -5q-26 5 -32 16
l3 3l-3 41l-8 196l5 74l-5 335l2 74l-5 234h-3l3 3v3q0 19 -6 19q0 19 52 19q75 8 133 8l3 3h3zM51 982v-3l-3 3h-16l-6 -6v-11l3 -11l-3 -19v-41l-2 -41l2 -54v-215l-2 -58l5 -24l6 -289l-3 -128q2 -44 11 -44h22l98 5v30q0 170 5 238l-5 133l11 262l-3 55l3 62l-3 96v11
q0 41 -8 51z" />
    <glyph glyph-name="o" unicode="o" horiz-adv-x="877" 
d="M451 1019q73 -11 104 -21q117 -54 180 -205q56 -160 56 -260q0 -264 -120 -448q-76 -80 -140 -80q0 -5 -72 -5q-178 0 -305 122q-91 101 -130 260l-24 135q0 72 50 231q51 88 83 133q106 109 164 117q93 21 154 21zM236 634v-8q0 -308 48 -403q18 -79 85 -138
q54 -35 95 -35h8q184 0 242 266q18 94 18 140v117q0 99 -55 242q-114 148 -181 148h-29q-125 0 -125 -21q-52 -46 -82 -135q-24 -127 -24 -173zM61 573l3 -26l-3 -45q12 -147 80 -268q52 -83 69 -83q58 -59 116 -74v3q-69 77 -103 249q-24 143 -24 281v6q0 109 56 268l16 32
v7h-3q-34 -10 -119 -103q-88 -148 -88 -247z" />
    <glyph glyph-name="p" unicode="p" horiz-adv-x="1195" 
d="M9 1030l8 -3l11 3l27 -3h17q128 0 128 -13l8 -58l-3 -65h8q28 51 101 95l85 30l98 9q120 -11 158 -33q139 -57 229 -256q24 -46 46 -210v-8q0 -122 -84 -295q91 -161 152 -171l90 -6q50 14 77 60q19 30 30 153v2l-3 25l3 19l-3 52l3 125l-3 3v3q3 18 16 27q19 0 19 -93
l-2 -87l2 -25l-2 -10l2 -47l-2 -41l2 -32q0 -108 -95 -164q-25 -14 -52 -14h-49q-119 0 -215 172l-57 -65q-100 -95 -208 -114l-27 -3q-134 0 -231 73q-74 95 -74 202v27q0 110 79 207q97 93 166 93l3 -3h71q68 -11 133 -63q86 -93 126 -204l2 -3l17 -24q11 0 43 152l6 41
q-16 205 -27 205q-34 100 -90 158q-85 117 -257 117h-43q-115 -21 -158 -60q-42 -36 -63 -123q-24 -153 -24 -196v-297l-3 -174q5 -38 5 -131v-46q0 -230 -8 -357l6 -245l-3 -96v-11q0 -8 -19 -8v-3l-27 3h-112q-49 0 -49 17l-3 8l6 16l-3 60l3 65l-3 109v30l3 41l-3 28
l6 482l-6 125l3 54l-3 126l6 150l-3 76l3 120l-6 183v19q0 95 16 95zM47 989l-2 -3l2 -38l-2 -79l2 -128q-11 -185 -11 -548l3 -16l-3 -36v-84l-2 -117l5 -95q-3 -127 -8 -150l3 -44v-70l2 -80l-2 -73v-3q0 -81 8 -139l-3 -11q0 -6 14 -8l114 8l3 17v54l-8 199l8 134l-6 120
l3 70l-3 99l6 127l-3 27l3 139l-6 118l9 133l-3 3v3l3 2v3l-6 44l6 253q-9 26 -9 112v38q0 16 -16 16l-11 -2l-8 2l-11 -2zM268 264q0 -139 109 -191q52 -27 153 -27q51 0 133 55q107 88 123 141q-111 247 -177 267q-48 33 -96 33q-143 0 -207 -123q-38 -86 -38 -155z" />
    <glyph glyph-name="q" unicode="q" horiz-adv-x="1219" 
d="M457 1036q92 -9 173 -63q0 -8 17 -13l48 -52h3l-3 95h-2q3 19 35 19l49 -5l49 2h32q49 0 52 -24l-3 -38l6 -356l-3 -51l5 -152l-2 -125l2 -55l-5 -171h3l11 -2l65 -3q106 26 144 60q81 72 81 195l5 147l-2 41q5 24 19 24q12 0 16 -52v-111l-5 -65v-6l2 -10
q0 -106 -119 -212q-33 -28 -155 -54h-27v-5q17 -36 130 -150q170 -202 185 -369l3 -87q0 -45 -57 -157q-46 -73 -133 -103l-82 -20q-112 11 -138 30q-73 28 -112 85q-43 74 -43 149v35l5 30l-2 109l5 16l-5 394v13l2 62l-2 16l2 66l-2 57h-3l-46 -66q-114 -100 -272 -100
q-85 0 -212 98q-95 100 -135 195q-41 114 -41 266v36q0 174 179 355q110 71 201 71q0 6 82 11zM733 979v-3l-2 -95l8 -139v-8l3 -157l-6 -44l3 -2v-3l-3 -3l8 -133l-5 -119l3 -144l-3 -22l11 -122l-3 -171v-127l-5 -60l5 -68l-8 -201q0 -88 79 -149q35 -38 73 -38v3
q-16 100 -16 157v6l-3 2l5 36l-2 13l8 122l-8 112l5 279l-5 90l5 312l-3 46l3 11l-5 334l-3 21l5 41l-2 65v117l-3 41h-27l-79 2zM57 563q16 -236 41 -269q57 -112 193 -209q40 -16 109 -16h67q71 7 161 82q59 74 76 173l2 14l-2 13l2 60v190q-12 282 -133 340
q-65 36 -111 38h-43q-219 0 -313 -204q-49 -103 -49 -198v-14zM910 -28l5 -356l-2 -27l2 -43v-25l-2 -127l2 -19l-2 -41q0 -137 21 -160q27 -27 63 -27h3q84 0 160 78q68 102 68 160v30q0 167 -74 261q-12 43 -149 187l-92 109h-3z" />
    <glyph glyph-name="r" unicode="r" horiz-adv-x="800" 
d="M7 1024h94q112 0 112 -14l3 -8l-5 -22v-47l2 -27h6q114 118 228 118h46q72 0 184 -61q102 -87 102 -197q6 0 8 -58v-30q-12 -115 -99 -115h-14q-96 22 -96 140q13 107 91 107h14q26 0 38 -11h6v3q0 100 -182 167l-60 5q-119 0 -217 -93q-57 -78 -57 -198q-5 0 -14 -142
l3 -102v-82l2 -25l-2 -3l2 -60v-49l3 -138l-3 -13l3 -33v-9q0 -22 -19 -22l-157 -5q-26 5 -32 16l3 3v3l-6 22l3 55l-8 159l5 74l-5 338l2 74l-5 236h-3l3 3v2q0 20 -6 20q0 19 27 19zM27 980v-8l2 -11l-2 -19v-42l-3 -41l3 -55v-148l11 -203l-6 -121l3 -110l-3 -109l3 -64
l16 -5h31l27 -3l55 6v30q0 171 5 239l-5 134l11 264l-3 55l3 63l-3 96v19q0 27 -11 27l-25 3h-82zM622 694v-16q8 -71 58 -71h3q46 13 46 41l3 11q0 99 -66 99q-44 -28 -44 -64z" />
    <glyph glyph-name="s" unicode="s" horiz-adv-x="1025" 
d="M82 1101q43 -8 64 -38q26 -45 36 -118q24 -34 133 -87q215 -67 272 -123q97 -106 125 -177q26 -67 26 -153q0 -59 -28 -136q-13 -14 -13 -28q55 -141 105 -172q45 -25 90 -25h25q97 40 97 163q0 34 8 82v197l8 8h23l5 -5l-3 -69l3 -90l-5 -43l2 -39l-2 -51l2 -15
q0 -77 -56 -149q-60 -33 -105 -33q-40 0 -120 36q-70 61 -92 125q-5 0 -6 13l-2 3h-10q-60 -81 -131 -121q-31 -23 -87 -36q0 -7 -64 -17q-79 0 -169 41q-102 93 -102 186v3q0 180 135 292q73 33 103 33q153 -13 153 -31h5l3 3v3q-18 79 -125 194q-95 90 -172 133
q-6 0 -31 21h-2l-34 -90q-105 -206 -105 -258l-35 -139l-8 -2q-18 2 -18 18v7q0 100 67 292q74 114 74 139q8 18 13 71q0 8 -67 69q-18 23 -31 62q0 35 46 51zM85 1040q0 -17 41 -47h3q-14 47 -44 47zM356 799v-3q103 -94 126 -138q46 -53 77 -189q18 -87 18 -159l2 -3v-2
q-10 -134 -33 -177q-8 -10 -8 -20h8q44 37 107 143q36 97 36 161q0 255 -307 382zM159 297h3q-8 -13 -8 -26v-30q0 -77 64 -151q80 -46 161 -46h6q44 5 89 46q62 70 62 184v26q-9 156 -31 156q-22 54 -123 54h-26q-63 0 -120 -52q-77 -108 -77 -161z" />
    <glyph glyph-name="t" unicode="t" horiz-adv-x="413" 
d="M143 1785q71 -5 71 -14l-6 -13l3 -66l-3 -63l3 -109v-30l-3 -41l3 -27l-3 -382v-22l66 -5l63 5q68 0 68 -14l3 -21q0 -14 -11 -17l-9 3l-16 -3l-68 3l-90 -3v3l-8 -3l5 -153l-3 -54l3 -126l-5 -150l2 -76l-2 -120q0 -188 57 -227q17 -14 60 -14q82 26 82 69q11 0 11 84
v68l-3 126l3 82q0 22 19 22v2q16 0 16 -62v-96l-2 -38l5 -41l-3 -71l3 -22q-10 -76 -33 -109q-39 -60 -180 -60q-137 0 -172 35q-70 40 -70 140v150l-3 43q5 14 5 63v197l3 57l-3 52v65l-2 39l2 11l-2 19l2 27l-2 158v22l5 399l-5 16l2 112l-5 24v47l-6 95l9 9v2l24 -2z
M34 1736v-60l8 -199l-6 -74l6 -55v-275l-3 -41l3 -33v-60l5 -109v-115l-8 -158l6 -150l-6 -219q0 -108 63 -131q0 -19 131 -22q-41 46 -41 82l-19 101l3 80v27l-6 90l6 256l-3 9l3 57l-6 306q8 134 8 289l-2 161l2 33l-8 109l3 68v22q0 12 -44 14h-41z" />
    <glyph glyph-name="u" unicode="u" horiz-adv-x="1009" 
d="M748 1024q26 -5 32 -16l-2 -3l2 -41l9 -195l-6 -74l6 -334l-3 -76l3 -157q0 -72 84 -82h13q46 0 95 76q30 36 30 353l-2 17q6 27 16 27q14 0 19 -27l-3 -17l6 -146l-3 -63l3 -19q0 -93 -55 -190q-34 -41 -87 -49l-65 -8q-177 14 -198 49q-50 55 -63 103h-2
q-53 -87 -180 -130q-38 -11 -62 -11h-46q-66 0 -179 57q-80 75 -90 122q-24 85 -24 204l3 22l-9 95l3 27l-3 228v41q0 67 6 106l-3 62v3q0 38 11 38h35q13 0 16 -11l-3 -114l3 -204l-3 -185l6 -89v-84q3 -190 92 -223q66 -46 147 -46q118 0 215 92q57 77 57 196q4 0 13 141
l-3 100v82l-2 24l2 3l-2 60v49l-3 136l3 13l-3 33v8q0 22 19 22zM615 978v-30q0 -169 -6 -236l6 -133l-11 -261l3 -74v-5l-6 -33q0 -59 65 -135q54 -28 85 -28h27q-20 46 -27 96l2 32l-2 57v215l2 57l-5 24l-6 288l3 128q-2 43 -11 43h-21z" />
    <glyph glyph-name="v" unicode="v" horiz-adv-x="701" 
d="M161 1024q25 -5 32 -16l-2 -3l2 -40l8 -192l-5 -73l5 -328l-2 -78l2 -142q14 -58 51 -80q80 -37 96 -37q101 41 220 214l8 24l-3 45v88l3 30l-3 19l3 10l-3 32v198l3 80q-8 88 -8 204v5q0 13 -9 19q0 13 25 13l13 -3l21 3q10 0 16 -115l-5 -88l3 -107q-3 -152 -8 -206
l2 -147q0 -112 -29 -128q0 -8 -134 -161q-51 -38 -115 -64q-91 7 -227 120q-120 126 -120 185l-2 2v3l-3 91l3 19l-9 93l3 27l-3 225v40q0 66 6 104l-3 62v2q0 48 26 48h78zM54 984v-3l-3 -85l3 -209l-3 -182l6 -88v-83q0 -89 40 -123l61 -69h6l-6 37l3 3v2l-3 78l6 70v120
l2 56l-5 24l-5 283l2 126q-1 43 -10 43h-54l-24 -3z" />
    <glyph glyph-name="w" unicode="w" horiz-adv-x="1068" 
d="M7 1040l19 -3h14l155 -3q16 0 16 -22h3l-3 -2v-50l-2 -75l5 -326l-8 -103l8 -215l3 -11l-3 -11q8 -155 47 -155l25 -3q55 0 119 77q41 70 41 172l3 498l3 33l-6 91l3 83q0 19 25 19q22 0 33 -16l3 -158v-553q0 -158 130 -235q49 -17 105 -17q47 5 105 61q53 58 53 246v92
l3 287q-3 143 -17 246q0 31 55 31l20 -8l2 -153v-390q0 -307 -47 -348q-59 -94 -108 -94q-49 -25 -91 -25h-3q-147 0 -185 89q-34 34 -52 82h-3q-41 -104 -144 -152q-46 -13 -72 -13q-175 0 -235 199q-33 96 -33 644l-3 172q0 13 17 19zM34 990l3 -276l-3 -100l9 -88l-3 -20
q14 -266 39 -312q10 -48 96 -114l25 -5h3v2q-22 47 -33 496l-3 2l3 14l3 374l-3 30h-3l-124 -3v3z" />
    <glyph glyph-name="x" unicode="x" horiz-adv-x="1111" 
d="M411 1024q109 -3 219 -49q84 -49 127 -169l41 -139h3l105 186q112 149 142 149q14 0 19 -22q-160 -162 -172 -227q-49 -82 -77 -163v-3q33 -268 72 -390q30 -100 77 -128l47 -19q89 39 89 64q9 0 17 160l2 244l9 5q25 0 25 -25v-91l-6 -180l3 -75q0 -91 -91 -127
q-50 -17 -128 -25l-3 3h-22q-102 0 -171 69q-54 92 -59 161l-16 77h-6q-14 -46 -149 -230q-58 -66 -108 -66q-20 4 -20 11v11q70 30 164 172q44 63 105 188l-14 152q-17 135 -61 247q-57 131 -99 152q-32 28 -59 28h-33q-84 0 -172 -61q-100 -69 -149 -244q-36 -78 -36 -152
l-11 -97q-11 -3 -11 -14h-5q-9 2 -9 22v47q0 157 97 360q104 143 219 177q42 11 105 11zM522 969v-5q92 -104 127 -286q13 -54 30 -271q53 -280 70 -280q58 -85 144 -85l27 -3h6v5q-77 104 -103 288q-36 263 -72 377l-61 158q-57 68 -141 97z" />
    <glyph glyph-name="y" unicode="y" horiz-adv-x="1048" 
d="M656 1019l49 -5l49 2h33q48 0 51 -24l-2 -38l5 -356l-3 -52l6 -152l-3 -125l3 -54l-6 -164h3q133 15 133 28q42 15 57 46q14 26 14 95v125l3 125l-3 14q0 12 16 16q17 0 22 -25l-3 -271v-8q0 -143 -103 -174l-136 -22v-11l3 -383l-3 -21l3 -44q0 -233 -27 -258
q-27 -85 -90 -122q-127 -63 -231 -63h-8q-173 0 -313 82q-136 119 -136 266l3 3v2l-3 30q0 175 76 237q82 108 231 174q108 54 250 106l36 15l3 101l-3 52h-3l-46 -66q-114 -100 -272 -100q-82 0 -209 95q-108 128 -108 296l-6 196l3 19l-3 3v2l3 30l-6 210l3 40l-3 98l9 6
h26l17 2q13 -2 13 -13l-8 -280l3 -11l-3 -16q0 -410 46 -476q110 -133 191 -133l48 -3h68q71 7 161 82q59 74 76 174l3 13l-3 14l3 60v190l-9 100v17l-2 155l2 65l-2 70q0 11 32 14zM662 976v-3l-3 -95l8 -139v-8l3 -158l-6 -43l3 -3v-3l-3 -2l9 -134l-6 -119l3 -144l-3 -22
l8 -146l-2 -38l2 -182v-55l-5 -59l5 -68l-8 -199v-46l3 -30q0 -57 -46 -125l2 -3q117 46 131 85q10 7 24 46q16 0 25 90l-3 13q8 51 8 112v19q0 108 -5 130l2 25v29l3 93l-5 32l2 36l-5 125l5 312l-2 46l2 11l-5 334l-3 22l6 41l-3 65v117l-3 41h-27l-79 2zM83 -456l-3 -103
q13 -96 49 -147q123 -133 166 -133q0 -16 195 -36q96 0 128 109q19 99 19 212l-2 73l2 71l-5 361v6h-6q-246 -85 -293 -117q-88 -51 -163 -125q-87 -104 -87 -171z" />
    <glyph glyph-name="z" unicode="z" horiz-adv-x="1218" 
d="M433 1133q140 0 158 -72q22 -44 33 -127q-13 -146 -58 -258h3l63 45q48 27 89 27h11q132 0 244 -299q16 -62 27 -218l-5 -169h3q135 15 135 27q43 16 58 47q14 27 14 97v128l3 127l-3 14q0 12 17 16q17 0 22 -24l-3 -277v-9q0 -145 -105 -177l-138 -22v-11l2 -390l-2 -22
l2 -44q0 -238 -27 -263q-27 -87 -92 -125q-129 -64 -235 -64h-8q-176 0 -319 84q-138 121 -138 271l3 3v2l-3 31q0 178 78 241q83 110 235 177q110 55 255 107l36 17l5 155l-5 158l2 16l-2 17l2 41q0 256 -61 277l-33 9q-104 -39 -163 -153q-53 -106 -94 -257h-6
q-25 0 -36 22q0 51 150 465q25 86 25 147v11q-7 122 -72 144l-23 5h-27q-113 0 -258 -152q-127 -158 -163 -407l-6 -75l3 -16q-4 -17 -22 -17l-11 22l3 14v58q0 121 80 330q35 94 180 227q68 45 177 69zM807 660q8 -16 16 -61l-2 -39l8 -155l-6 -122l3 -147l-3 -22l9 -149
l-3 -38l3 -186v-55l-6 -61l6 -69l-9 -203v-47l3 -30q0 -58 -47 -127l3 -3q118 46 133 86q10 8 25 47q15 0 25 91l-3 14q8 52 8 113v20q0 110 -5 133l2 25v30l3 94l-5 33l2 36l-5 130l3 130q-14 333 -42 371q-24 77 -111 161h-5zM228 -456l-2 -105q13 -97 49 -149
q126 -136 169 -136q0 -15 200 -36q97 0 130 111q19 101 19 216l-3 75l3 72l-5 368v5h-6q-251 -87 -299 -119q-90 -51 -166 -127q-89 -106 -89 -175z" />
    <glyph glyph-name="braceleft" unicode="{" horiz-adv-x="667" 
d="M465 1776h73q78 0 116 -48v-7q-103 -33 -135 -94q-43 -108 -43 -135l3 -4v-3q-7 -19 -7 -77v-18l11 -149q0 -288 -55 -349l-47 -44v-4q98 -75 98 -309q-29 -228 -36 -382q40 -178 69 -178l98 -58q-36 -37 -91 -37h-83q-139 0 -215 153q-25 66 -25 189h-4l4 4l-4 65
l22 371q0 88 -88 153q-70 33 -76 44v11q0 5 69 25q34 23 66 138q18 80 18 131l-4 222l4 88l-4 36q27 145 84 200q87 66 182 66zM257 1455l4 -18l-11 -156q7 -33 7 -87v-8q0 -144 -58 -273l-47 -51q94 -60 94 -131q22 -55 22 -91q-11 -212 -25 -320l3 -32l-3 -41
q21 -214 40 -214q80 -112 189 -112h7l19 3v4q-113 73 -113 319l36 346q0 186 -127 251v4q105 45 105 142q14 9 18 214l-10 153v8q0 232 116 349v3h-47q-146 -26 -146 -54q-28 0 -65 -146z" />
    <glyph glyph-name="braceright" unicode="}" horiz-adv-x="682" 
d="M171 1765h84q138 0 215 -153q25 -67 25 -189h4l-4 -4l4 -66l-22 -371q0 -89 87 -153q71 -33 77 -44v-11q0 -6 -69 -26q-35 -22 -66 -138q-18 -80 -18 -131l4 -223l-4 -87l4 -37q-27 -144 -84 -200q-87 -65 -182 -65h-73q-79 0 -117 47v8q103 32 135 94q44 108 44 135
l-4 3v4q7 19 7 76v19l-11 149q0 288 55 350l47 44v3q-98 76 -98 310q29 229 36 383q-40 178 -69 178l-98 59q36 36 91 36zM193 1721v-3q113 -74 113 -321l-37 -346q0 -186 128 -252v-3q-106 -45 -106 -142q-14 -10 -18 -215l11 -154v-7q0 -233 -117 -349v-4h48
q145 27 145 55q28 0 66 145l7 62l-3 18l11 157q-8 32 -8 87v8q0 144 59 273l47 51q-95 61 -95 131q-22 56 -22 91q11 214 26 321l-4 33l4 40q-21 215 -40 215q-81 113 -190 113h-7z" />
    <glyph glyph-name="asciitilde" unicode="~" horiz-adv-x="1307" 
d="M355 986q90 0 169 -69q46 -40 80 -100h4q83 165 307 165q105 -19 157 -69q73 -81 73 -226l4 -38q-49 -173 -81 -173q-50 -69 -195 -161q-152 -113 -242 -250q-26 -56 -38 -65q-119 255 -323 353q-155 78 -199 196l-31 130q0 196 130 253q92 54 185 54zM608 691h-8l-34 96
q-96 122 -161 122q-196 0 -238 -69q-58 -45 -58 -111v-42q0 -117 92 -219q191 -118 273 -199q107 -119 126 -162q63 95 127 162l265 226q13 0 57 84l23 58v35l-4 69l4 23q-22 86 -73 119q-43 38 -165 38q-122 -45 -161 -111q-53 -78 -65 -119z" />
  </font>
</defs>
</svg>
