<?xml version="1.0" standalone="no"?>
<!DOCTYPE svg PUBLIC "-//W3C//DTD SVG 1.1//EN" "http://www.w3.org/Graphics/SVG/1.1/DTD/svg11.dtd" >
<svg>
<metadata>
Created by FontForge 20120731 at Fri Oct 18 14:41:45 2019
 By www-data
Typeface (c) Kevin and Amanda, LLC. 2012. All Rights Reserved
</metadata>
<defs>
<font id="PeaEllieBellie" horiz-adv-x="1104" >
  <font-face 
    font-family="Pea Ellie Bellie"
    font-weight="400"
    font-stretch="normal"
    units-per-em="2048"
    panose-1="2 0 5 0 0 0 0 0 0 0"
    ascent="1638"
    descent="-410"
    x-height="1470"
    cap-height="1986"
    bbox="-147 -1392 3684 2766"
    underline-thickness="150"
    underline-position="-142"
    unicode-range="U+0020-201D"
  />
<missing-glyph horiz-adv-x="3072" 
 />
    <glyph glyph-name=".notdef" horiz-adv-x="3072" 
 />
    <glyph glyph-name=".null" horiz-adv-x="0" 
 />
    <glyph glyph-name="nonmarkingreturn" horiz-adv-x="1524" 
 />
    <glyph glyph-name="space" unicode=" " horiz-adv-x="1207" 
 />
    <glyph glyph-name="space" unicode="&#xa0;" horiz-adv-x="1207" 
 />
    <glyph glyph-name="exclam" unicode="!" horiz-adv-x="420" 
d="M204 1815h12q64 0 84 -432h24q0 -30 -24 -132q12 -21 12 -48h-12l12 -24v-120q36 0 36 -24l-36 -48l12 -84h-12q24 -44 24 -96h-12l12 -24v-48q0 -27 -12 -48l12 -24q0 -12 -12 -12q12 -180 60 -312q-37 -61 -132 -72q0 24 -24 24v-24h-84q0 -36 -24 -36t-24 24v120
q0 12 12 12l-12 24v36l-12 144h12l-12 24q0 68 -24 600h12l-12 24v120q0 12 12 12l-12 24v300l-24 -12h-12q-24 0 -24 24v12q0 17 156 60q0 12 48 36zM120 1611v-12h12q0 16 48 120h-24q-26 0 -36 -108zM108 1455l12 -108h-12q12 -23 12 -36q-12 -23 -12 -36q17 1 120 336
v36q-43 -34 -96 -180q-24 0 -24 -12zM120 1167q0 -40 12 -60l-12 -60l12 -72h12q48 121 96 300v144q-35 0 -84 -240q-23 -12 -36 -12zM108 1263v-60h12l12 60h-24zM168 903l12 -24q-48 -48 -48 -72q0 -18 24 -108h12q0 39 96 276l-12 24q0 27 12 48q-12 20 -12 60
q-19 -17 -84 -204zM252 807q-72 -215 -72 -228q12 -23 12 -36q-24 0 -24 -36v-48h12q0 50 84 216v108l12 24h-24zM144 675v-12h24v12h-24zM252 543q0 -22 -48 -168q12 -23 12 -36h12q3 48 24 48l-12 24q0 24 36 24l-12 72q12 23 12 36h-24zM228 111h24q36 -52 132 -108
q36 -101 36 -132q-58 -132 -156 -132q-168 65 -168 156q0 144 132 216zM240 -57l24 -36l-24 -36l24 -12q0 24 60 24v12q-19 48 -84 48zM192 -141v-12q0 -17 36 -36q12 42 12 48h-48z" />
    <glyph glyph-name="quotedbl" unicode="&#x22;" horiz-adv-x="564" 
d="M372 1851q0 -84 120 -108q46 -81 60 -240l-12 -24l24 -96q-12 -21 -12 -48l12 -24l-72 -60h-108q-12 0 -12 12l-24 -12q-24 0 -24 24v48q0 12 12 12l-36 228l12 24q-12 21 -12 48q0 12 12 12q0 12 -12 12l12 84v72q0 21 60 36zM48 1815q39 -24 72 -24q6 0 48 12
q36 -67 36 -96h-12q12 -25 36 -240h-12q24 -61 24 -84h-12l24 -60q-63 -84 -180 -84q0 -12 -12 -12q-24 0 -24 24v36q0 12 12 12q-24 49 -24 72h12l-12 24v60q0 12 12 12l-12 24v108q0 43 -12 108q12 21 12 48q-24 0 -24 24q0 30 48 36zM72 1731v-144q0 -43 12 -108l-12 -24
q24 -61 24 -84q-12 0 -12 -12h24q0 31 24 120q-17 0 -36 36v24q0 59 36 120q-12 21 -12 48q12 0 12 12q-40 0 -60 12zM348 1695v-24h12v24h-12zM408 1683q0 -13 -12 -36h12q24 0 24 24zM348 1515q4 -24 24 -24v24h-24zM360 1467v-12h24l-12 -24q10 -108 36 -108h12
q0 13 12 36q-30 0 -36 48l24 48q-27 0 -48 12h-12z" />
    <glyph glyph-name="numbersign" unicode="#" horiz-adv-x="2377" 
d="M1413 1955q215 -50 213 -374l-13 -24q12 -23 12 -36q-1 -141 -87 -359v-12h12q177 250 434 248h36q251 -2 357 -327q-1 -177 -267 -394q-179 -106 -361 -105v-12q30 0 178 -145q1 17 37 35q23 -74 23 -96h-12q67 -107 82 -193q-60 -311 -338 -309l-36 1q-181 1 -381 351
q-48 96 -47 132l-12 1q-16 -95 -86 -192q0 -47 -146 -262q-170 -167 -266 -166q-263 26 -261 266l1 180q159 364 388 465v12h-24q-12 0 -36 -12q-47 13 -84 13q-23 -12 -36 -12v12l-24 -11q-12 0 -12 12l-60 -12q-354 63 -490 184q-107 127 -106 265l1 48q1 138 146 251
q119 107 313 105q256 -2 406 -219q154 -165 154 -241l12 -1v12q-38 116 -70 277h12l-12 24q1 12 13 12q0 13 -12 36q43 384 111 383q1 87 230 178q65 11 108 11zM1086 1658h12q15 0 158 178h24q17 0 36 -36q-203 -187 -255 -286v-48l157 179l60 -25q-230 -276 -231 -310
q12 -23 12 -36q17 0 85 107l109 131h24q24 -4 24 -24q-170 -224 -170 -262q-28 0 -49 -48q12 -23 12 -36q13 0 169 178h24q24 -4 24 -24l-158 -203v-12q137 -1 216 -38q121 117 184 467l-12 24q0 13 13 36q-30 312 -178 313l-12 1q-149 1 -253 -178q0 -19 -25 -48zM86 1139
q72 -215 249 -363q-1 -15 83 -36h12v12q-109 85 -190 229l-35 61v12q4 24 24 23h12q0 -43 297 -362l84 -13v12q-119 121 -249 302q0 17 36 36l95 -109l-12 -24q146 -110 202 -182q0 -6 -24 -35l84 -1q24 0 24 24q-110 67 -178 193q0 17 36 36q10 -98 250 -230l24 -1l-12 25
q10 47 25 47l-12 24q1 62 61 144q-181 446 -524 449q-291 2 -362 -273zM1887 1315v-24q252 -19 252 -62l-1 -12l-12 -24q-163 49 -227 50l-120 -11q-24 12 -36 12l-85 -83v-12l24 12l336 -3q24 -4 24 -24v-12q-1 -24 -25 -24h-36q-40 0 -59 13l-73 -12h-24q-43 1 -107 13
q-54 -23 -133 -34q0 12 -12 12q0 -19 -24 -48v-12q75 -1 312 21l12 -24v-24h-12q-65 1 -217 -34q-12 0 -12 12q-102 -23 -132 -23v-12l204 -1q24 -4 24 -25q0 -29 -253 -45q0 -36 -12 -36l12 -24v-24l-13 -60q206 -86 287 -87h24q316 -3 507 332q13 20 13 47v48
q-86 253 -250 255h-12zM994 747q-1 -124 179 -158q216 31 217 154l1 108q0 12 12 12q-85 157 -190 158q-217 -41 -218 -214zM144 886l-1 -12h24l1 12h-24zM1461 611q0 -12 23 -157q-30 -23 -36 -23h-12q-21 0 -47 168q-108 -59 -109 -71q43 -266 272 -542q46 -1 143 -73
q62 -1 205 58q0 24 26 228v36q1 94 -71 144h-12q0 -57 22 -252l-24 -12l-24 1q-36 0 -35 168q12 0 12 12q-24 0 -35 108h12q-18 96 -47 96h-12q27 -143 46 -204q0 -48 -60 -47l-35 108h12l-46 180q12 0 12 12q-27 0 -48 12v-12l34 -228l-37 -23h-12q-24 0 -69 252h12
q-23 55 -48 61h-12zM569 138q12 -21 12 -48l-13 -24q0 -12 12 -12l-12 -60q-1 -99 82 -180l48 -1l84 24q24 -13 36 -13q0 17 37 36l23 -12q1 27 85 83q61 85 61 107q-72 -47 -253 -93l-60 12l1 24q384 95 385 201q12 0 37 47l-12 1q-240 -118 -325 -118l-12 25v12
q45 -1 72 23q12 0 12 -12q81 19 290 165v60h-12l-241 -106l-36 1q-24 0 -24 24q1 16 217 94q4 24 25 24h12l23 -12q73 69 73 83v36h-36q-39 1 -203 62q-254 -124 -388 -453z" />
    <glyph glyph-name="dollar" unicode="$" horiz-adv-x="1550" 
d="M516 1877l60 -1q-1 -72 59 -72q108 -4 108 -37v-12q-1 -12 -13 -12l12 -24q-145 -132 -145 -179q141 11 204 10l132 -1q162 -11 346 -183q220 -236 271 -638l-1 -24q-2 -272 -245 -586q-238 -166 -253 -166l-24 12q0 -39 -156 -47l-60 1q-349 3 -657 366
q-154 260 -152 505h12l-12 24l1 36q24 252 196 478q229 166 314 190q-12 23 -12 36q17 52 133 179q-203 23 -203 85zM572 1444l-24 12q-337 -155 -338 -261q-122 -166 -124 -383q-1 -207 140 -505q305 -303 537 -305q0 -7 36 -24l24 12h12q12 0 12 -12q189 -2 458 248
q159 262 160 430l1 84q0 12 12 12q-46 283 -176 470q-223 266 -418 267q-44 -11 -312 -45zM870 1226q85 -20 143 -74v-48q0 -12 -12 -12l12 -24q-40 -86 -85 -95q-168 47 -167 133q1 92 109 120zM582 1180q76 -1 94 -205l-61 -47l-144 1q-16 0 -59 61v60q61 131 170 130z
M878 817h36q72 -58 144 -73q48 71 96 71l12 -24v-72q-1 -36 -109 -59v-36q-39 -360 -111 -359q-1 -44 -169 -71l-36 1q-216 2 -333 363q-55 15 -155 121v24q1 17 37 36l107 -85q85 67 85 107h36q24 -4 24 -25l-1 -84l-49 -71q91 -313 310 -315q168 -1 171 431h-12
q-86 27 -107 73v24q4 24 24 23z" />
    <glyph glyph-name="ampersand" unicode="&#x26;" horiz-adv-x="1764" 
d="M540 2141q372 -34 372 -288h-12q24 -44 24 -96q0 -203 -396 -672v-12q150 -270 420 -384l168 -96l24 144q-60 280 -60 336l24 12q56 0 84 -372q-12 -23 -12 -36q12 -23 12 -36v-72q156 -72 372 -108h12q8 0 60 60q41 -48 84 -48q48 -53 48 -60v-48q0 -16 -60 -60h-36
q-72 0 -96 108h-12q0 -13 -12 -36q-256 72 -384 120v-12q-86 -329 -192 -396q0 -94 -360 -228q-196 -36 -264 -36q-148 0 -300 204q-48 66 -48 132q0 12 12 12l-12 72q0 332 312 696q0 13 84 132q-154 170 -204 432h12q-9 25 -24 132q0 159 108 276l-12 24q109 163 264 204z
M600 2033v-48q60 0 60 -48h12v12l-12 24l12 72l-24 12h-24q-24 -4 -24 -24zM732 2021v-12h24v12h-24zM804 1961q0 -6 -12 -48h36v12q-12 23 -12 36h-12zM468 1937q-120 -130 -120 -360q0 -60 84 -348q-12 0 -12 -12q7 0 72 -72h12q183 275 204 408v72q-32 300 -192 300
q-27 0 -48 12zM684 1937v-12q18 -48 36 -48v48q-13 0 -36 12zM840 1841v-24h12v24h-12zM756 1805v-24h12v24h-12zM276 1793q0 -9 -12 -72v-12h12l12 60v24h-12zM252 1697v-24h12v24h-12zM780 1685v-72h12q24 65 24 72h-36zM780 1565v-36h12v36h-12zM456 977
q-159 -256 -204 -456l12 -24q-12 -66 -12 -96q0 -81 84 -240q3 -15 240 -120q12 0 12 12l60 -12q23 12 36 12v-12q170 0 360 252l72 216v24q-151 43 -360 180q-58 0 -300 264zM264 797v-36h12v36h-12zM228 725q-144 -255 -144 -336v-12h12q0 45 144 336v12h-12zM108 329v-12
h24l60 168q-20 0 -84 -156zM72 185q12 -20 12 -60h24l36 144zM240 161v-36q24 0 24 24zM300 77v-60q0 -7 72 -72l84 24zM216 -7v-24h24v24h-24zM492 -31v-12l84 -24h48q24 0 24 24q-124 12 -144 12h-12z" />
    <glyph glyph-name="quotesingle" unicode="'" horiz-adv-x="288" 
d="M156 1851h60q0 -27 12 -48l-12 -24q0 -6 12 -48q0 -9 -12 -72q12 -48 12 -84h-12l12 -24v-156l24 12h36q0 -60 -84 -120q-24 29 -24 48l-24 -12h-36q-27 0 -48 12q-23 -12 -36 -12q-24 91 -24 228h12l-12 24v84q0 12 12 12l-24 120l36 24h12q12 0 12 -12q58 14 96 48z
M60 1755q12 -15 12 -84h12q0 23 24 84h-48zM156 1551v-36h24v12q0 24 -24 24zM96 1407v-24h12v24h-12z" />
    <glyph glyph-name="parenleft" unicode="(" horiz-adv-x="636" 
d="M384 1515l24 -12q0 -20 -120 -168q-109 -250 -120 -504q60 -437 168 -576q127 -139 300 -276q-5 -25 -60 -48l-60 12l-24 -12q-269 85 -444 396q-36 192 -36 216q12 0 12 12q-24 0 -24 24v312q4 24 24 24q-12 23 -12 36l12 24l-12 24q41 213 132 300q163 179 240 216z
M60 807v-72q24 0 36 108q-17 0 -36 -36zM60 723v-24h12v24h-12zM72 579v-24h12v24h-12zM120 411v-36h12v36h-12zM180 279v-24h12v24h-12zM264 183q68 -108 120 -108v24q-46 0 -96 108q-24 -4 -24 -24z" />
    <glyph glyph-name="parenright" unicode=")" horiz-adv-x="660" 
d="M240 1527h48q275 -198 276 -264q60 0 96 -372v-108q0 -24 -24 -24q12 -23 12 -36q-62 -282 -180 -444q-109 -136 -372 -348h-36q-16 0 -60 60v12q408 451 408 852q-12 21 -12 48h12q0 12 -12 12q12 42 12 48l-12 60h12q-50 283 -180 420q-21 0 -24 60zM384 1359v-24
q12 -23 12 -36h12q0 13 12 36zM468 1287l-12 -120l24 -12l12 60v72h-24zM540 1179l-72 -228l24 -12q72 146 72 180q-12 20 -12 60h-12zM468 723q75 75 120 252q-29 0 -72 -132q-48 0 -48 -120zM564 783q0 -28 -36 -72v-24h12q0 48 36 48v48h-12zM492 675v-24h12v24h-12z
M516 567q0 -21 -60 -108h36q0 29 36 96v12h-12zM420 519v-12q24 0 24 24v12q-24 -4 -24 -24zM396 483v-24h12v24h-12zM360 267h24q0 48 36 48v24q-18 0 -60 -72zM180 111v-12h24v12h-24z" />
    <glyph glyph-name="asterisk" unicode="*" horiz-adv-x="1116" 
d="M480 1419q17 0 36 -36q-8 -84 -24 -84l12 -24v-216q0 -27 -12 -48q0 -12 12 -12l-12 -60v-60q24 0 36 132l-12 24q0 12 12 12q0 13 -12 36q12 82 12 132q-12 125 -12 144h24q36 0 48 -120q-12 -23 -12 -36q0 -12 12 -12q-12 -132 -24 -132q12 -23 12 -36l-12 -24
q12 -23 12 -36q183 174 216 228q13 0 36 12l36 -48v-36q-288 -244 -288 -276h36q27 0 48 12q12 0 12 -12l84 12h36q12 0 12 -12l24 12h36q12 0 12 -12l24 12h24q12 0 12 -12l24 12h72q24 -4 24 -24q-32 -72 -48 -72q-149 12 -156 12q-123 -12 -192 -12v-12
q151 -103 456 -276v-60q0 -24 -24 -24q-287 163 -300 192q-117 33 -216 156h-12q-24 -4 -24 -24v-84l12 -72q0 -12 -12 -12q12 -187 48 -288q0 -11 -48 -72q-36 0 -36 36h-12v-12q12 -21 12 -48q-36 0 -36 -36h-24q-22 0 -36 108l12 60v72q0 27 -12 48q12 21 12 48v60
l-12 72q12 23 12 36l-24 12q-120 -163 -216 -216l-24 12q-66 -84 -108 -84l-24 36v36q336 323 336 336q-120 0 -120 12l-24 -12q-216 12 -216 60v12q4 24 24 24q52 0 96 -24q12 0 12 12l60 -12h120l60 12q0 -12 12 -12l12 24q-396 267 -396 372l24 12h36q212 -240 372 -312
q0 40 12 60q-12 23 -12 36h12q0 12 -12 12q12 120 12 180v60q0 27 12 48l-12 24q16 72 36 72zM456 687q12 -45 12 -108h12q0 24 12 24l-12 24v60h-24zM480 459q0 -36 -12 -36l12 -24q0 -12 -12 -12l12 -24q0 -12 -12 -12q24 -31 24 -108h12v36q-12 65 -12 108h12
q-12 18 -12 72h-12z" />
    <glyph glyph-name="plus" unicode="+" horiz-adv-x="2139" 
d="M1673 1694q467 -85 463 -592q-4 -393 -898 -1120q-31 -31 -181 -107q-16 31 -441 280q-450 378 -499 580q-107 169 -105 361l-12 24q0 12 12 12l-11 60q41 209 122 275q165 179 314 178l120 -1q346 -3 502 -233q12 0 106 -133q98 263 328 369zM1188 1122h-24
q-29 1 -71 145q-197 326 -549 329q-293 2 -446 -284l-13 -60v-24h12q0 48 194 274l1 24h24q24 -4 23 -25q-188 -220 -255 -393h-12q24 -44 23 -108q30 22 182 274h24l24 -12q-114 -196 -207 -323q35 -110 35 -132h24q45 116 183 298h24q24 -4 24 -24v-12
q-179 -287 -207 -298l35 -109h12q73 156 170 275h12q24 -4 24 -25q-158 -267 -159 -310v-24q0 -19 48 -49q0 32 158 239h24q24 -4 24 -24l-158 -239l-1 -24q61 -85 72 -85h36q0 55 158 251l24 -1q24 -3 24 -24v-12q-158 -178 -159 -286q82 -73 95 -73q131 227 146 227l24 -1
q24 -4 24 -24q-91 -170 -134 -227v-12q0 -18 72 -60l24 -1q103 228 182 227l11 -24v-12q-121 -179 -133 -179l11 -24l-12 -24l96 -49q0 9 134 191h36l-1 -36q-46 -50 -97 -192q31 0 59 -60q36 12 36 24l-12 24q58 149 98 167h36l-1 -48l-48 -84v-12h12q858 678 861 1060v48
q4 407 -404 472q-185 -30 -337 -177q-134 -220 -135 -323z" />
    <glyph glyph-name="comma" unicode="," horiz-adv-x="288" 
d="M24 303h48q24 -4 24 -24l24 12h48q12 0 12 -12l24 12q65 0 84 -564q-58 -72 -204 -72q0 15 -60 60v96q0 79 -24 480zM60 207q12 -20 12 -60h12l12 60v12q-23 -12 -36 -12zM180 99q0 -21 -24 -60l48 -24v60q0 24 -24 24zM156 -93q27 0 48 -12v60q-19 0 -48 -48zM192 -129
v-12h24v12h-24zM180 -249h12q24 0 24 24v48q-36 -12 -36 -72z" />
    <glyph glyph-name="hyphen" unicode="-" horiz-adv-x="912" 
d="M372 963q62 -12 144 -12h24l120 12v-12l24 12h132l60 -12v-24q0 -12 -12 -12q20 -24 36 -216q12 0 12 -24l-48 -48h-192q-60 0 -180 -12v12q-12 0 -12 -12q-9 0 -72 12q-9 0 -72 -12q-12 0 -12 12l-228 -24q-96 31 -96 48q0 33 60 36q0 83 -36 240q6 0 36 24h168
q82 0 144 12zM588 903v-24h12v24h-12zM672 879v-12q48 18 48 36h-24q-24 -4 -24 -24zM132 867v12q-23 -12 -36 -12l12 -60v-48h12q108 113 108 120v12h-12zM396 831v-12h12q0 17 48 60v12q-16 0 -60 -60zM552 891v-12h24v12h-24zM756 891q0 -13 -12 -36q9 0 72 -12v12
q0 17 -36 36h-24zM804 819l-12 -84q12 0 12 -12q-23 -12 -36 -12v-12h36l24 12q-12 45 -12 108h-12zM708 747q-24 -48 -72 -48v-12h48l60 12q-18 48 -36 48zM180 687h12q17 0 36 36h-12q-17 0 -36 -36zM528 699v-12l48 -12v36h-12q-23 -12 -36 -12z" />
    <glyph glyph-name="hyphen" unicode="&#xad;" horiz-adv-x="912" 
d="M372 963q62 -12 144 -12h24l120 12v-12l24 12h132l60 -12v-24q0 -12 -12 -12q20 -24 36 -216q12 0 12 -24l-48 -48h-192q-60 0 -180 -12v12q-12 0 -12 -12q-9 0 -72 12q-9 0 -72 -12q-12 0 -12 12l-228 -24q-96 31 -96 48q0 33 60 36q0 83 -36 240q6 0 36 24h168
q82 0 144 12zM588 903v-24h12v24h-12zM672 879v-12q48 18 48 36h-24q-24 -4 -24 -24zM132 867v12q-23 -12 -36 -12l12 -60v-48h12q108 113 108 120v12h-12zM396 831v-12h12q0 17 48 60v12q-16 0 -60 -60zM552 891v-12h24v12h-24zM756 891q0 -13 -12 -36q9 0 72 -12v12
q0 17 -36 36h-24zM804 819l-12 -84q12 0 12 -12q-23 -12 -36 -12v-12h36l24 12q-12 45 -12 108h-12zM708 747q-24 -48 -72 -48v-12h48l60 12q-18 48 -36 48zM180 687h12q17 0 36 36h-12q-17 0 -36 -36zM528 699v-12l48 -12v36h-12q-23 -12 -36 -12z" />
    <glyph glyph-name="period" unicode="." horiz-adv-x="336" 
d="M240 303q96 -43 96 -156v-60q-49 -84 -192 -84q-129 0 -144 168q0 81 240 132zM204 207q65 -24 72 -24q-18 48 -36 48h-12q-24 -4 -24 -24z" />
    <glyph glyph-name="slash" unicode="/" horiz-adv-x="984" 
d="M708 1431h24l48 -36q21 12 48 12q24 -48 36 -48l60 12l60 -48v-24q0 -12 -12 -12l12 -24q-262 -358 -348 -516q-30 0 -72 -144q-54 -41 -240 -468h-96q-43 0 -108 -12q-11 0 -72 48q0 -36 -24 -36t-24 24v48q303 425 516 912q12 0 144 240h12q24 0 24 -48h12q24 0 24 24
v12q-48 0 -48 72zM708 1227h-24l-24 12q-144 -246 -144 -276q132 108 144 108l-24 36v12q159 168 204 168v24q-19 0 -132 -84zM684 1023q13 0 36 -12q0 19 24 48h-12q-48 -18 -48 -36zM492 927q0 -26 -108 -192h24q0 44 156 156v24q-37 12 -72 12zM480 663h24q0 36 48 36v24
q-49 -16 -72 -60zM372 711q-48 -102 -48 -108q65 60 84 60v36q-13 0 -36 12zM360 483v-24q27 0 48 -12q24 65 24 72h-12q-39 -36 -60 -36zM252 495q0 -30 -24 -60h12q39 36 60 36v24h-48zM168 339l-60 -120h24q72 72 96 72v36l-24 -12q-30 24 -36 24z" />
    <glyph glyph-name="zero" unicode="0" 
d="M528 1572q12 0 12 -12l24 12q181 0 456 -360q60 -153 84 -300q0 -12 -12 -12l12 -60v-60q0 -470 -360 -756l-132 -36v12l-24 -12q-434 0 -576 624q-12 85 -12 144q0 533 360 804q66 -12 96 -12q39 24 72 24zM600 1476q-192 -103 -192 -204q-96 -248 -96 -336h-12l24 -144
l-12 -72q0 -27 12 -48l-12 -24q53 -325 180 -492v-12q-12 -23 -12 -36q49 -35 132 -36q235 0 396 480q0 12 -12 12l36 204q0 509 -420 708h-12zM360 1380q-60 -116 -60 -156q17 1 72 144v12h-12zM192 1284v-24q48 24 48 72q-19 0 -48 -48zM132 1152v-36h12v36h-12zM264 1116
l-60 -228h36q24 196 48 216v12h-24zM84 876v-36h24l24 108q-48 -12 -48 -72zM204 744q12 -25 24 -108h12v12q-12 23 -12 36q12 36 24 36q-12 23 -12 36q12 23 12 36h-12q-12 0 -36 -48zM192 372v-24h12v24h-12z" />
    <glyph glyph-name="one" unicode="1" horiz-adv-x="780" 
d="M564 1407q19 0 48 -48q-36 -61 -36 -120l12 -24q-12 -23 -12 -36q0 -40 12 -60q-12 -102 -12 -168v-48q0 -27 12 -48q-12 -21 -12 -48q12 -211 12 -252l-24 -12q24 -61 24 -96q0 -18 -12 -168q0 -18 24 -108h-12q24 -44 24 -96v-36q40 0 60 -12q23 12 36 12
q72 -12 72 -36q-24 0 -24 -60h-24l-72 12q-12 0 -12 -12q-82 12 -108 24l-72 -12q-27 0 -48 12l-24 -12l-192 24l-72 -12l-24 36v12q0 33 108 48q63 -12 120 -12h12q-24 156 -24 228h12l-12 24v156q0 24 -24 24q24 44 24 96v108l-12 72l36 72q0 12 -12 12q8 84 24 84
q0 12 -12 12l36 228l-12 24q12 23 12 36v12h-12q-85 -156 -168 -156q-9 -60 -96 -60l-12 24v48q136 14 324 300q21 -12 48 -12l-12 -48q12 -23 12 -36q-12 0 -12 -12h12q36 9 60 120h36zM432 1035v-12h12q44 132 72 168h-12q-33 -4 -72 -156zM480 987v-36h48v72h-12
q-17 0 -36 -36zM0 1011h24v-12h-24v12zM456 915l-72 -180v-36h-12v-24h24q72 152 72 228v12h-12zM504 807q0 -17 -120 -324l12 -24q-12 -23 -12 -36q44 47 144 384h-24zM504 555q-96 -196 -96 -264l24 -12q44 143 84 192q12 20 12 60q0 24 -24 24zM504 339l-48 -144
q63 0 72 108q-12 23 -12 36h-12zM408 267q-24 -49 -24 -72q25 5 48 60zM420 111v-48h12q24 0 24 24v36q-23 -12 -36 -12z" />
    <glyph glyph-name="two" unicode="2" horiz-adv-x="1020" 
d="M588 1359q312 -67 312 -132q34 0 84 -204q-88 -161 -192 -192q-86 -69 -156 -168q-23 12 -36 12q-299 -265 -336 -348q-105 -129 -120 -204h12q156 12 252 12h48q27 0 48 12q21 -12 48 -12h12q36 0 36 12l60 -12h168q27 0 48 -12q23 12 36 12h36q12 124 24 144
q48 -18 48 -36v-60q0 -12 -12 -12l12 -24q-12 -23 -12 -36l12 -24l-12 -24q12 -48 12 -84l-36 -60q-23 36 -324 60l-348 -36v12l-276 -48l-36 60q0 294 492 792q66 78 132 264l-12 24q12 23 12 36q-12 23 -12 36h12q-24 111 -72 132q-324 -64 -324 -144q-31 -10 -108 -180
h-24q-24 0 -24 24v12q0 136 204 300q215 96 312 96zM660 1263l36 -132h12q0 24 48 84v24q-90 24 -96 24zM684 975v-12q144 140 144 228q-60 0 -144 -216zM852 1119q-3 -87 -144 -204q0 -76 -132 -156v-12h12q252 191 300 336v24q-13 0 -36 12zM372 63l-24 12q-15 0 -228 -36
v-36q42 12 228 36v-12q23 12 36 12q216 0 300 24q23 -12 36 -12h132v12q-214 0 -276 24q-23 -12 -36 -12v12q-22 -9 -168 -24zM900 51q4 -24 24 -24l12 24h-36z" />
    <glyph glyph-name="three" unicode="3" horiz-adv-x="1020" 
d="M72 1335q24 0 24 -36h72q144 0 456 36q132 0 192 -60l24 12h24q24 -4 24 -24q0 -91 -264 -276q0 -13 -156 -168v-12h12l84 12v-12l24 12h24q12 0 12 -12l24 12h60q264 -70 264 -168q13 0 48 -60q0 -187 -168 -408q-196 -216 -444 -216q-93 0 -252 120h-24l-48 -36
q-24 20 -36 180q31 96 48 96h48q-12 -85 -12 -96q0 -93 288 -192h12q286 0 336 432q-12 23 -12 36h12q-96 216 -204 216h-36q-257 -48 -288 -48l-12 24v24q0 101 240 360q42 22 108 108h-12q-180 -9 -180 -24l-60 12h-144q-88 0 -96 36q-36 0 -36 -48h-24l-24 60
q12 23 12 36q-12 0 -12 12zM336 819v-24q253 235 372 336q-12 21 -12 48h-12q-256 -186 -348 -360zM696 747q69 -93 96 -96l36 60zM804 579q18 -48 36 -48l60 108q-12 23 -12 36q-9 0 -84 -96zM900 507q27 0 36 60q-27 0 -36 -60zM792 231v-12h12q63 80 120 228
q-67 0 -132 -216z" />
    <glyph glyph-name="four" unicode="4" horiz-adv-x="1152" 
d="M600 1395q17 0 36 -36v-156q0 -27 -12 -48q9 -32 24 -144h-12l12 -24v-108q0 -27 -12 -48q0 -12 12 -12l-12 -60v-36q0 -43 12 -108l-12 -24q0 -12 12 -12q-12 -82 -24 -108h144l24 -12q0 12 12 12v-12q117 36 264 36v12l-12 60q15 60 36 60h24q24 -4 24 -24
q0 -12 -12 -12q12 -17 24 -132q-24 -39 -24 -72v-84q-36 0 -36 -36h-24q-24 0 -24 24v120l-84 -12v12l-24 -12h-216q-89 0 -96 -48q0 -24 12 -24l-12 -84v-48q0 -27 12 -48q0 -12 -12 -12l12 -60q0 -24 -12 -24l12 -60v-108l-12 -84l24 12h60q24 -4 24 -24q-24 -29 -24 -48
h-360v24q4 24 24 24h48l24 -12v12q-24 29 -24 48l12 24q-12 21 -12 48v12q0 12 12 12q0 12 -12 12q24 204 36 204l-12 24v24q0 12 12 12l-12 24q0 12 12 12l-12 60v96h-96q-12 0 -12 12q-39 -24 -60 -24v12l-24 -12h-12q-36 0 -36 12l-60 -12q-144 6 -144 48v24
q69 69 252 408l252 432q0 36 72 48q0 48 24 48zM516 1167h24l12 60q-27 0 -36 -60zM504 1155v-36h12v36h-12zM564 1107q0 -12 -60 -144v-60h12q19 96 60 96v108h-12zM108 471h120l84 12v-12l24 12h12q12 0 12 -12q96 12 96 36q-12 23 -12 36h12l-12 24v60q0 12 12 12
q-12 12 -24 144q12 181 12 252q-27 -10 -108 -168l-204 -348q0 -19 -24 -48zM492 687q12 -23 12 -36l72 132h12v24q0 27 -12 48q12 23 12 36q-22 -5 -96 -204zM552 627q0 -32 -36 -72q12 -23 12 -36q-12 -23 -12 -36l24 -12l48 108q-12 21 -12 48h-24zM540 339
q-24 -98 -36 -228q17 0 36 36q-12 23 -12 36q24 0 24 24v132h-12zM540 3q-36 -100 -36 -192v-24h12q13 0 48 60l-12 24v108l12 24h-24z" />
    <glyph glyph-name="five" unicode="5" horiz-adv-x="936" 
d="M720 1407h12q19 0 48 -48l-12 -24q12 0 12 -12l-24 -12l36 -60q0 -96 -72 -96v60h-84q-27 0 -48 -12q-21 12 -48 12q0 -24 -24 -24q-12 0 -12 12q-144 -12 -204 -36q-12 0 -12 12q-144 -21 -144 -60l12 -24v-60q0 -12 -12 -12l12 -24l-12 -24q8 -84 24 -84q96 72 288 72
v-12l24 12q287 0 420 -252q36 -84 36 -120h-12q12 -23 12 -36q0 -427 -336 -528q-336 0 -516 288q12 21 12 48h48q176 -216 228 -216q0 -12 84 -24q88 0 192 168q0 19 36 132q-36 0 -36 24v12q36 44 36 84v60l-36 48l12 24q-71 192 -228 192h-24q-150 0 -312 -132
q-24 39 -24 72v348q0 12 12 12q-9 48 -24 48q-23 -12 -36 -12l-24 36v48q54 0 72 12q21 -12 48 -12l24 12q12 0 12 -12l60 12h12q209 0 432 24q21 -12 48 -12l12 24v72zM648 855v-12q23 -55 48 -60h12v48q-21 0 -60 24zM756 771q0 -19 -24 -48v-24q8 -72 36 -72
q36 75 36 108q-24 0 -24 36h-24zM840 651q0 -36 -96 -144q0 -12 12 -12l-12 -60v-12h12q68 144 108 144v24l-12 60h-12zM600 123v-12h36q0 15 168 204q60 125 60 168q-187 -263 -192 -300q-37 0 -72 -60z" />
    <glyph glyph-name="six" unicode="6" horiz-adv-x="972" 
d="M432 1311v-12l24 12q176 0 336 -108v-12q-12 -21 -12 -48q-17 0 -204 84q-258 0 -396 -492l-24 -12l12 -84v-24l-12 -24h12q173 177 348 192h60q276 0 348 -156q48 -211 48 -228q0 -217 -324 -396l-84 -12q-12 0 -12 12l-24 -12h-72q-12 0 -12 12l-24 -12h-12
q-142 24 -216 84q-192 276 -192 552q0 493 348 672q36 0 84 12zM120 927v-12h12q36 128 204 288h-12q-108 -76 -108 -108q-94 -129 -96 -168zM144 867v-12h12q12 42 12 48q-24 0 -24 -36zM120 819v-24h12v24h-12zM72 663q12 -20 12 -60h12q0 68 24 168q-19 0 -48 -108z
M576 723v-12q25 0 156 -72v60q-110 24 -132 24h-24zM336 639q0 12 -12 12q0 -36 -24 -36l-24 12q0 -27 -108 -156l12 -72q-12 -21 -12 -48q27 0 36 -60q-12 -23 -12 -36q81 -156 132 -156l168 -36q204 0 204 204q12 0 12 132v48q-44 42 -48 108q-64 88 -132 108zM768 555
q12 -23 12 -36h12l36 108q-12 23 -12 36q-48 -16 -48 -108zM84 591v-72h12v72h-12zM852 531v-12q24 0 24 24v12q-24 -4 -24 -24zM828 471v-24q24 0 24 24h-24zM876 435q-108 -204 -108 -252q57 0 108 192h24v60h-24z" />
    <glyph glyph-name="seven" unicode="7" 
d="M96 1347h84q24 -4 24 -24l-12 -24q24 0 24 -12l24 12h180q27 0 48 12q23 -12 36 -12q278 12 288 12q132 -9 132 -24l24 12h36q12 0 12 -12l24 12h48q17 0 36 -36v-24q0 -24 -36 -24l24 -36v-36q-106 -85 -216 -432h120l60 12l24 -36q-32 -52 -156 -72q-21 12 -48 12h-48
q-17 -82 -240 -636l108 12v-60l-12 -24l-60 12q-40 0 -192 -24q-12 0 -12 12l-60 -12h-60q-17 0 -36 36v12q118 68 144 204q27 31 168 348l48 84v24q-47 -24 -132 -24h-96q-24 0 -24 24v12q0 32 168 60h132q0 33 192 444v24h-228q-12 0 -12 12l-24 -12h-36q-12 0 -12 12
q-12 0 -12 -12q-96 24 -228 24h-12q-12 0 -12 12l-24 -12h-12l-60 12q-12 -168 -60 -168q0 25 -48 168q12 0 12 12q-96 0 -96 36v36q13 0 36 12l24 -12q36 0 36 72zM468 1251q4 -24 24 -24h36v12zM552 1251l-12 -24q72 0 72 -12l24 12q12 0 12 -12l24 12l24 -12q24 0 24 12
l84 -12h72v12q-132 9 -132 24l-24 -12h-36q-12 0 -12 12l-24 -12h-24q-12 0 -12 12l-24 -12h-12zM876 1011v-12q48 0 96 156h-24q-17 -16 -72 -144zM780 867v-36q0 -60 -36 -60v-12h24q108 130 108 156h-12q-54 -48 -84 -48zM636 483v-12q129 117 132 144h-60
q-17 -2 -72 -132zM684 447q-168 -197 -168 -216v-12h24q0 33 144 204l12 24h-12zM420 -9q54 0 72 -12q0 22 108 228v12q-140 -111 -180 -228z" />
    <glyph glyph-name="eight" unicode="8" 
d="M720 1395q184 0 252 -240v-60q0 -12 -12 -12l12 -24q0 -79 -120 -216q118 0 216 -192q36 -61 36 -120v-72q0 -157 -156 -324q-141 -132 -336 -132q0 -24 -24 -24l-24 12q-47 -24 -132 -24h-48q-384 40 -384 324h12q-12 23 -12 36q0 259 384 480q6 0 48 12v12
q-252 141 -252 264q19 89 132 180q122 72 408 120zM720 1311q-230 -136 -240 -228q-12 -29 -24 -120q63 -108 180 -108h12q252 64 252 204v72q0 141 -180 180zM384 1167q12 -20 12 -60h24q0 99 120 168v12h-12q-90 -37 -144 -120zM276 1071l108 -144h24q-21 62 -84 108
q0 27 -12 48q-23 -12 -36 -12zM792 783q0 -48 -24 -48h-36q-12 0 -12 12q-156 0 -264 -180l-24 -12l12 -24v-12l-84 -168q0 -160 144 -312q408 83 408 168q120 97 120 288q0 209 -228 288h-12zM264 639h12q6 0 144 96v12q-150 -73 -156 -108zM396 663v-24h12q24 0 24 24v12
q-23 -12 -36 -12zM300 495v-12h24q24 0 36 72q-16 0 -60 -60zM228 459v-24h12v24h-12zM96 423v-36h12q24 0 24 24v12h-36zM192 279v-12h12v24h36q24 -4 24 -24q0 -22 -48 -120l24 12h24q17 0 36 -72q32 -48 60 -48v-12q23 12 36 12q-108 132 -108 264q0 11 12 96
q-108 -113 -108 -120zM84 267v-12h24v12h-24z" />
    <glyph glyph-name="nine" unicode="9" horiz-adv-x="996" 
d="M528 1359q132 -12 132 -36l24 12q180 -108 180 -240q47 0 108 -216q12 -115 24 -132l-12 -24l12 -48q-12 -23 -12 -36l12 -24l-24 -60l12 -24q-86 -291 -276 -492q-26 0 -228 -192q-24 0 -24 -12q-108 12 -108 36v24l132 72q119 0 228 432q24 83 24 144v96l-12 60
q12 0 12 12q-24 0 -24 48q-76 -51 -228 -84v12l-24 -12q-228 12 -228 60l-24 -12q-204 75 -204 252h12l-12 24v12l12 24q-12 0 -12 12q123 205 336 276q162 36 192 36zM228 1191v-12h24v-60q-112 -144 -144 -144v-12h36l48 36h24l24 -12q30 136 144 240q46 36 60 36v12h-12
q-182 -84 -204 -84zM300 999l12 -24v-48q0 -12 -12 -12q17 -94 60 -168h180q116 51 168 132v12q-15 143 -168 348q-204 -105 -204 -204zM636 1239l120 -216v24q0 36 -48 120v36l-48 36h-24zM168 1155v-24h24v24h-24zM228 975q0 -45 -24 -72q4 -24 24 -24l12 24v72h-12z
M864 927q0 -96 -24 -96l12 -24l-12 -72v-12h24q0 48 36 48q0 48 -24 156h-12zM96 903v-12q4 -24 24 -24v36h-24zM900 627q0 -40 -36 -96h12q28 0 36 84v12h-12zM768 303h24q48 92 48 108q-54 0 -72 -108z" />
    <glyph glyph-name="colon" unicode=":" horiz-adv-x="228" 
d="M60 1047h60q56 -27 84 -84v-48q0 -96 -96 -96q-108 16 -108 144l24 12l-12 24q0 19 48 48zM84 915v-12h36l12 24h-12q-23 -12 -36 -12zM120 579q108 -19 108 -108q0 -132 -132 -132q-84 24 -84 96q0 100 108 144z" />
    <glyph glyph-name="question" unicode="?" horiz-adv-x="1212" 
d="M612 1971q23 -12 36 -12l24 12q275 -51 336 -132q0 -24 96 -96q108 -202 108 -324q0 -276 -180 -492q-135 -106 -264 -120q-228 -103 -228 -192q12 -23 12 -36q0 -9 -12 -72l12 -24q-12 -36 -24 -36q24 -39 24 -72v-108q-36 -39 -36 -60h-60l-60 -12v12l-24 -12h-36
q-39 0 -48 156l12 24q0 12 -12 12q0 13 12 36l-12 84q0 252 120 252q126 76 360 120q113 158 156 264q0 12 -12 12q8 84 24 84q0 12 -12 12q0 13 12 36q0 292 -264 480q-117 48 -120 60l-24 -12h-36q-195 0 -276 -144l-24 12q-90 -63 -132 -240q0 -139 180 -180q36 0 72 108
l48 12l12 -24v-36q0 -111 -120 -156v12l-24 -12q-138 39 -192 144q-36 60 -36 96q0 197 120 288q106 162 216 192q0 42 276 84zM588 1899v-12q36 0 36 -24l24 12q11 0 72 -48h12q0 19 24 48l-108 24l-24 -12l-24 12h-12zM816 1851l-36 -60v-24q19 0 48 -24q36 37 36 108h-48
zM864 1683q18 0 36 -48q39 0 72 132l-36 48q-39 0 -72 -132zM1008 1719l-72 -156q24 0 24 -48h36q0 21 72 120v24q0 16 -60 60zM1092 1587q-12 -72 -108 -132q0 -12 12 -12l-12 -60v-12h12q12 0 132 168q-18 48 -36 48zM996 1251h24q0 48 48 48l-12 24q0 19 48 48l24 -12
l12 60v24q-110 -72 -144 -192zM1116 1323l-84 -132q54 0 72 -12q12 124 24 144h-12zM1080 1155v-24h12v24h-12zM1056 1107q0 -36 -36 -36v-24h12q18 0 36 48v12h-12zM888 939v-24h24v24h-24zM492 735q0 -13 -12 -36h36v36h-24zM456 591q0 -30 -48 -84v-24h48v-12
q0 -12 -12 -12l12 -24q-12 -21 -12 -48q24 0 24 -48h12q0 60 12 60q-12 0 -24 192h-12zM372 483v-24h24q0 24 -24 24zM588 -21q84 0 84 -120v-24q0 -104 -84 -144q0 -12 -96 -36q-144 16 -144 120v48q57 132 180 132q0 21 60 24zM408 -237q58 -48 96 -48h12v12q-62 0 -72 36
v12q59 84 132 84q24 0 24 -36h24q-12 84 -48 84q-110 -72 -144 -72q-12 0 -24 -72zM564 -237v-12h36l12 24h-12q-23 -12 -36 -12z" />
    <glyph glyph-name="at" unicode="@" horiz-adv-x="2139" 
d="M1673 1694q467 -85 463 -592q-4 -393 -898 -1120q-31 -31 -181 -107q-16 31 -441 280q-450 378 -499 580q-107 169 -105 361l-12 24q0 12 12 12l-11 60q41 209 122 275q165 179 314 178l120 -1q346 -3 502 -233q12 0 106 -133q98 263 328 369zM1188 1122h-24
q-29 1 -71 145q-197 326 -549 329q-293 2 -446 -284l-13 -60v-24h12q0 48 194 274l1 24h24q24 -4 23 -25q-188 -220 -255 -393h-12q24 -44 23 -108q30 22 182 274h24l24 -12q-114 -196 -207 -323q35 -110 35 -132h24q45 116 183 298h24q24 -4 24 -24v-12
q-179 -287 -207 -298l35 -109h12q73 156 170 275h12q24 -4 24 -25q-158 -267 -159 -310v-24q0 -19 48 -49q0 32 158 239h24q24 -4 24 -24l-158 -239l-1 -24q61 -85 72 -85h36q0 55 158 251l24 -1q24 -3 24 -24v-12q-158 -178 -159 -286q82 -73 95 -73q131 227 146 227l24 -1
q24 -4 24 -24q-91 -170 -134 -227v-12q0 -18 72 -60l24 -1q103 228 182 227l11 -24v-12q-121 -179 -133 -179l11 -24l-12 -24l96 -49q0 9 134 191h36l-1 -36q-46 -50 -97 -192q31 0 59 -60q36 12 36 24l-12 24q58 149 98 167h36l-1 -48l-48 -84v-12h12q858 678 861 1060v48
q4 407 -404 472q-185 -30 -337 -177q-134 -220 -135 -323z" />
    <glyph glyph-name="A" unicode="A" horiz-adv-x="1535" 
d="M1284 -72h-24q-228 63 -228 192q-24 0 -24 144h-12q-192 -264 -408 -264l-108 -36l-24 12q-42 -12 -48 -12q-66 12 -96 12q0 -24 -24 -24q-150 126 -174 168q-40 234 87 444h3q246 300 624 300v12q-150 264 -396 264q-360 -90 -360 -252l24 -12q87 24 96 24q24 -3 24 -24
q0 -60 -156 -96l-60 72v60q27 156 288 360q96 48 360 108q240 -123 240 -264q18 0 48 -120h-12q24 -66 132 -684q51 -300 240 -300q69 0 216 324h12q2 -15 11 -21l-119 -303q-72 -84 -132 -84zM648 1284q-24 -39 -24 -60q84 21 84 48zM732 1212h24v24q-24 -3 -24 -24z
M348 1212v-12h24v12h-24zM636 1176v-12h24v12h-24zM708 1128v-12h36v12h-36zM816 1128l-12 -24v-24q0 -24 60 -132h12v12q-33 168 -60 168zM336 408l12 -24v-120q0 -78 120 -204q168 0 384 132q120 150 120 204q-48 234 -60 372h-48q-336 0 -504 -312q0 -48 -24 -48z
M468 708q0 -24 -84 -48v-36q81 72 108 72v12h-24zM276 264v-48q27 -168 72 -168h24v12q-78 90 -84 204h-12zM168 180v-12h24v12h-24z" />
    <glyph glyph-name="B" unicode="B" horiz-adv-x="1128" 
d="M240 2346l24 -36v-36h-24l36 -60q-9 -72 -24 -72l12 -24l-12 -24q12 0 12 -12q-24 -12 -36 -12l24 -36q0 -12 -12 -12l12 -60q0 -84 -24 -132q12 -81 24 -108l-24 -12l24 -60q0 -12 -12 -12l12 -60v-48q0 -27 -12 -48q12 -21 24 -144q0 -27 -12 -48q12 -102 12 -168v-84
l12 -60q261 372 372 372q0 36 168 60q138 -36 204 -132q48 -90 84 -396q-12 0 -12 -12q21 0 36 -72q-12 -24 -12 -36l12 -72q-12 -66 -12 -96l12 -24q-12 -237 -252 -492q-105 -120 -264 -120q-102 0 -288 108h-12v-48l12 -60q-18 0 -36 -36q-90 24 -168 24q-48 0 -48 -60
h-24q-24 0 -36 132q0 12 12 12l-12 120v96q0 27 12 48l-24 120l12 24l-12 120h12l-12 24v240q0 12 12 12l-12 24v348q0 27 12 48l-12 24q15 225 24 240q0 12 -12 12l12 60v84q0 12 12 12l-12 24v24q0 12 12 12q-12 24 -12 36q0 30 12 96l-12 72q12 36 24 36l-12 48
q6 144 24 144l-12 24l12 108l120 -12q6 24 60 48zM120 2238l-12 -60v-24h12l24 84h-24zM192 2190q-63 -204 -84 -204h-24v-24q0 -27 12 -48q-12 -24 -12 -36q57 96 132 312h-24zM180 1950q-48 -156 -84 -156v-36q-27 -144 -36 -144q12 -21 12 -60q48 0 120 384v12h-12z
M156 1626l12 -24q-81 -186 -84 -228q-24 -12 -36 -12l12 -144v-12l-12 -72v-12h12q45 195 108 324l24 144v60q-30 -24 -36 -24zM168 1350q-42 -228 -84 -228v-60l36 24v-12q-33 -39 -72 -132l12 -24v-168q18 3 84 252l36 84v48l-24 36q48 72 48 132v48h-36zM636 1266
q39 -12 96 -12l36 72h-36q-96 -45 -96 -60zM816 1290h24v24q-24 -3 -24 -24zM912 1290q0 -18 -48 -96v-36q48 84 84 84v12q0 18 -36 36zM264 774q24 -252 24 -348h-12q24 -45 24 -96l-24 -12q21 -27 36 -168q153 -120 312 -120h72q0 24 96 180q48 117 48 264q0 237 -60 468
h12q-69 252 -180 252q-174 0 -348 -420zM972 1194q0 -24 -48 -144q33 48 60 48l24 24q-24 39 -24 72h-12zM840 1086l-12 -60v-12q21 0 36 72h-24zM1008 1026q-72 -165 -72 -216q27 0 96 96v36l-12 84h-12zM204 1014q-84 -273 -84 -300q12 -24 12 -36q-9 0 -72 -72
q12 -105 12 -120h-12q12 -21 12 -60h12l132 468h12l-12 24v60l12 24zM900 954q0 -60 -48 -60q12 -21 12 -60h12q0 30 36 96v24h-12zM1044 810l-48 -144v-12h12q0 36 72 132zM888 666q0 -9 12 -72h12q0 24 48 156q-72 -18 -72 -84zM204 654q0 -18 -24 -96h36v60l12 24z
M1032 582q0 -54 -48 -168q72 27 72 168h-24zM912 534v-132q0 -24 -24 -24q0 -12 12 -12q0 -33 -72 -252q39 36 60 36q0 24 -24 24q33 105 60 120l-12 60v24q60 138 60 180h-12q-30 -24 -48 -24zM156 414q0 -6 -12 -48h24v48h-12zM72 342q12 -24 12 -36q0 -24 12 -264l60 -36
q24 84 24 96v24l-48 -36q-24 0 -24 24v48q0 30 24 108q-27 72 -48 72h-12zM192 306v-12q3 -24 24 -24h12v72q-18 0 -36 -36zM228 78q0 -54 -12 -72h24v72h-12z" />
    <glyph glyph-name="C" unicode="C" horiz-adv-x="1239" 
d="M72 438q-60 174 -60 264v12q0 12 12 12q-24 39 -24 60q21 276 192 504q237 192 504 192q249 0 336 -312v-24q0 -138 -180 -240h-36q-87 0 -120 84v12q21 144 48 144h24q24 -3 24 -24v-60q0 -24 -24 -24q24 -48 24 -72q162 0 180 180q-48 177 -144 228h-24q0 -36 -12 -36
q-78 24 -108 24h-24q-240 -78 -360 -252q-39 -120 -72 -120q0 -12 12 -36q-24 -150 -24 -180l12 -24l-12 -24q24 -153 60 -252q-12 0 -12 -12q153 -276 324 -372h48q144 0 348 348q216 297 255 420l-3 -132q-144 -276 -420 -636q-84 -84 -228 -84q-162 0 -408 216
q-60 90 -60 120h-17l-31 92v4zM552 1410v-12h60v24zM372 1302v-48q96 75 96 84h-36q-39 -36 -60 -36zM252 1254h12q18 0 36 36v12q-36 -9 -48 -48zM180 1026v-12h24v36q-24 -3 -24 -24zM108 1014v-24h12v24h-12zM132 822v-24q27 0 36 60q-18 0 -36 -36zM120 582q30 24 48 24
v72q-39 0 -48 -96zM180 522q0 -48 -12 -96h48v12l-24 84h-12zM240 354v-24q0 -57 60 -84v12q-42 96 -60 96z" />
    <glyph glyph-name="D" unicode="D" horiz-adv-x="1164" 
d="M1056 2388h24l24 -12q-12 -24 -12 -36q24 -39 24 -72v-12q0 -12 -12 -12q0 -12 12 -12l-12 -60l12 -24q-27 -120 -36 -120l12 -24v-84q0 -24 -24 -24l24 -60q0 -24 -24 -84q0 -12 12 -12l-12 -60v-132l12 -72q-12 -84 -24 -84l12 -60v-96l-12 -60q12 0 36 -12
q-24 -96 -24 -204v-108q0 -24 24 -120q0 -69 -24 -144q24 -3 24 -24l-12 -72q24 -39 24 -60h-12l12 -24v-12q0 -12 -12 -12q0 -12 72 -372q-69 -72 -96 -72l-24 12l-60 -12l-60 12v-36h-36q-24 0 -24 24q0 12 12 12l-12 60v384h-12q0 -117 -180 -312q-96 -60 -240 -108
q-12 0 -12 12l-60 -12h-12q-228 0 -348 468v72q0 507 384 804q144 48 180 48h72q75 0 204 -48v732q0 12 12 12l-12 24v120l12 72q-12 21 -12 60q195 24 216 48zM912 2160v-48h12l60 180v12h-12q-60 -9 -60 -144zM888 1860q12 -21 12 -60h12q96 279 96 312q30 24 48 24
l-12 24v60l12 60q-33 0 -72 -144q-84 -132 -84 -276h-12zM1032 1992q0 -42 -36 -72l12 -24q-93 -228 -108 -228l12 -24q0 -27 -12 -48l12 -24q-12 -21 -12 -48q3 -24 24 -24q60 186 96 348h12q0 12 -12 12l24 120v12h-12zM996 1572q-63 -219 -96 -264q12 -21 12 -48
q-12 0 -12 -12l48 -36q0 12 12 12l-12 24q60 159 60 300v24h-12zM228 720q33 -243 84 -348q21 -96 240 -216l-24 -60h12q282 111 300 612q12 0 12 108l-12 84q0 12 12 12l-12 120v168q0 27 -84 36l-24 -12q-45 24 -96 24h-12q-162 0 -288 -156q-63 -99 -108 -372zM264 1128
v-12q24 0 24 24v12q-24 -3 -24 -24zM996 1140q0 -60 -24 -60l12 -24q-24 -72 -48 -72q-12 24 -12 36h-24v-12q0 -21 24 -72l-12 -24q12 -66 12 -108h-12q12 -21 12 -60h24q60 324 60 372v24h-12zM912 1104v-24h12v24h-12zM228 1092v-12h24v12h-24zM204 1032
q-36 -120 -36 -168v-12h12q0 9 36 168v12h-12zM108 816v-24h12v24h-12zM156 792q0 -24 -12 -24q0 -12 12 -12l-12 -84v-24h24v144h-12zM924 720v-48h12q12 42 12 48h-24zM996 720q-12 -120 -36 -120q-24 12 -36 12l24 -84q0 -12 -12 -36q12 -72 12 -180h12q48 288 48 336v72
h-12zM132 624q-12 -156 -36 -156l12 -24l-12 -84h24l24 252v12h-12zM72 600v-12h24v12h-24zM192 432q0 -36 -12 -36l12 -24l-12 -24q0 -6 12 -48l-12 -24q0 -27 48 -84q-24 -3 -24 -24l36 -24h12l-12 24v72l12 60q-39 0 -48 132h-12zM852 432v-24h12v24h-12zM948 264v-48h12
v48h-12zM312 216v-48h12v48h-12zM1020 216q0 -30 -24 -108h12q36 9 36 96zM384 156v-72q3 -24 24 -24q18 0 48 48v12q-15 0 -72 36z" />
    <glyph glyph-name="E" unicode="E" horiz-adv-x="1032" 
d="M0 720v36q0 507 216 660l36 24h60q129 0 240 -156q51 0 84 -168q0 -405 -324 -816v-12q111 -204 240 -204q0 -12 96 -36q312 192 312 576v60q3 24 24 24h12q24 0 36 -72q0 -264 -168 -504q-222 -204 -432 -204q-150 36 -252 132q0 18 -24 48l-12 -6l-60 141
q-84 222 -84 477zM324 1356q-108 -111 -108 -288h-12l12 -60v-48q0 -27 -12 -48q12 -21 12 -48q0 -78 -12 -156q12 -90 24 -120q0 -12 -12 -12q12 -108 60 -216q300 372 300 780q-147 216 -252 216zM84 1020q0 -12 12 -12q-24 -126 -24 -288h-12q24 -75 24 -96h12
q0 36 12 36q-12 24 -12 36l12 24q-12 21 -12 48v12l48 60v96q0 285 60 348v24q-84 -69 -120 -288zM84 576v-48l24 12q-12 24 -12 36h-12zM144 528v-48h12v48h-12zM204 288h24v24q-24 -3 -24 -24zM228 180v-12q12 -24 12 -36h12v48h-24z" />
    <glyph glyph-name="F" unicode="F" horiz-adv-x="1295" 
d="M1317 1377q-186 -87 -357 -87q-183 24 -204 36v-12q192 -309 264 -564l48 -240q0 -12 -12 -12l12 -60v-288q0 -492 -228 -684h-72q-228 0 -228 1068v240q-24 48 -36 48l36 216q-12 42 -12 48q12 24 12 36l-12 72h12q-12 24 -12 36q12 42 12 48l-12 24l12 24l-12 24
q12 21 12 48h-12q-135 -207 -324 -408q-39 -15 -168 -216h-12q-24 0 -24 24v24q48 42 48 84q108 108 492 576l-12 24v24q0 51 12 132l-12 24l84 840q84 165 204 240h36q168 0 180 -216v-96l-12 -72l12 -24q-69 -288 -108 -288l12 -24q-108 -216 -228 -372q0 -36 -12 -84
q12 -63 12 -120v-36q0 -42 312 -84q168 21 276 72q24 0 240 156h36q15 0 27 -3l-225 -168q-30 -15 -57 -30zM720 2166q24 -3 24 -24q-24 -45 -24 -96q0 -27 12 -48q-12 -66 -12 -108v-96q144 153 240 564q9 21 24 168q-24 156 -72 156h-24q-39 0 -108 -216
q-39 -261 -60 -300zM732 2562v-12h12q0 30 36 84h-12q-24 0 -36 -72zM672 2538q-24 -78 -36 -180v-12h12q12 129 48 192h-24zM720 2538q-24 -168 -48 -168l12 -24q0 -24 -24 -24q0 -12 12 -12q-12 -108 -24 -108l12 -24v-24q-33 -132 -60 -168v-36q0 -27 12 -48
q-24 -84 -36 -324h24q0 30 48 84v96q0 27 12 48q0 12 -12 12l12 60v144q0 27 12 48q0 12 -12 12q36 276 72 444v12h-12zM624 1542q0 -33 -36 -72q27 0 48 -12v84h-12zM600 1386q0 -48 -24 -48q12 -18 12 -72h12q0 48 36 48v36q0 18 -36 36zM720 1230q12 -129 24 -156
q-12 -36 -24 -36q12 -54 36 -420l-12 -24q0 -12 12 -12l-12 -60v-60q0 -63 12 -204h-12q24 -120 48 -324l-12 -24q99 -213 108 -276q51 0 120 360q0 12 -12 12q15 129 24 156q-12 21 -12 48q0 42 12 108l-12 24q0 12 12 12l-12 60q0 12 12 36q-93 510 -288 780h-12zM576 966
q24 -30 24 -168h12q24 120 24 240v12l24 36v60q-39 -18 -84 -180zM672 846q0 -33 -72 -264h24q0 69 60 156v108h-12zM600 570v-60h12q0 39 12 60h-24zM660 570v-72q-21 -27 -36 -108q12 -24 12 -36q-24 -3 -24 -24q12 -63 12 -72q-12 -66 -12 -96l24 -12q27 183 48 204
q0 36 -12 36l12 60v120h-24zM624 126v-60h12v60h-12zM684 126q0 -12 -12 -36q0 -12 12 -12q0 -21 -24 -96l12 -24q-12 -21 -12 -48v-12h12q0 21 36 60v24l-12 120q12 0 12 12zM696 -198q12 -3 12 -120l24 12h12q36 0 48 -156h24q18 0 36 36v12q-60 0 -120 300q-21 0 -36 -84
zM864 -378v-12h24v12h-24z" />
    <glyph glyph-name="G" unicode="G" horiz-adv-x="1100" 
d="M884 1428q102 -24 132 -24l72 12l12 -24v-60q0 -144 -24 -144l12 -24v-12q0 -12 -12 -12l12 -24v-12q0 -27 -12 -48q12 -24 12 -36q0 -60 -24 -60l12 -24l-12 -24l12 -24l-12 -60l12 -60l-12 -24q0 -6 12 -48l-12 -60l12 -60q-12 -24 -12 -36l12 -24q0 -12 -12 -12
q0 -12 12 -36q-12 -138 -24 -156l12 -72v-96q0 -27 -12 -48q12 -21 12 -48l-12 -60q24 -45 24 -96v-12q0 -27 -12 -48q12 -21 12 -48q-24 -3 -24 -24q24 -3 24 -24q0 -570 -240 -816q-144 -252 -336 -252q-402 0 -564 480l-24 192q51 336 336 336q228 0 336 -324l-12 -24
l12 -72q-60 -204 -144 -204q0 -24 -60 -24h-24q-156 66 -156 180q24 180 120 180q48 -18 48 -36v-12q-84 -63 -84 -120v-12q18 -108 108 -108q132 63 132 204q-78 300 -300 300q-93 -3 -228 -144l12 -24q-15 -60 -36 -60l12 -24v-12q0 -432 372 -576q9 0 168 -24l84 24
l-12 24q108 57 108 96q204 249 204 564q12 0 12 12t-12 12l12 60v216q0 12 12 12l-12 24v48q0 69 12 192q0 12 -12 12l12 84v204q0 27 -12 48q12 24 12 36v12h-12q-87 -384 -324 -384h-12q-129 0 -216 72q-150 84 -252 348q-36 117 -36 132l12 24l-24 48q12 66 12 96
q0 12 -12 36q0 210 264 468q0 48 72 48q0 -12 12 -12q72 72 216 72h60q78 0 168 -24q0 57 24 84zM956 1344v-12q36 -117 36 -288h-12l12 -24q0 -6 -12 -48l12 -24q-12 -48 -12 -84l12 -24q0 -12 -12 -12l12 -60q0 -27 -12 -48q12 -15 12 -84h12q0 522 24 564q0 12 -12 12
q12 84 24 108q-30 24 -36 24h-48zM380 1020q0 -12 12 -12q-24 -87 -24 -180q0 -48 24 -144h-12l36 -132q-24 -3 -24 -24q72 -75 72 -168v-24q33 0 168 -180v-36h-24v-12h12q204 0 276 480l-12 24v96q0 12 12 12l-24 48q0 12 12 12l-12 60v36q0 27 12 48l-12 24l24 60l-12 24
q24 90 24 96q-108 168 -264 168q-120 0 -264 -276zM332 1128h36l24 72h-12q-48 -24 -48 -72zM248 1008v-24h12v24h-12zM236 972q-24 -63 -24 -72h24q0 45 24 72h-24zM284 912q0 -30 -24 -60v-24h12q24 0 24 24v60h-12zM200 852q0 -48 -60 -48l12 -24v-156l24 12q0 12 -12 12
q12 75 48 192v12h-12zM272 756v-60l-12 -84q60 0 60 -168h-12q15 -72 36 -72h24v24q-36 111 -72 360h-24zM980 600q0 -6 12 -48q-12 -24 -12 -36h24v108q-24 -3 -24 -24zM440 228v-12q66 -93 96 -96v12q-30 54 -84 96h-12zM980 -420v-84h12q0 36 12 84h-24zM980 -528v-24h12
v24h-12zM956 -696v-24h12v24h-12z" />
    <glyph glyph-name="H" unicode="H" horiz-adv-x="1284" 
d="M1092 -12h-12l-24 12q-54 -24 -120 -24q-69 0 -144 120q-36 102 -108 768h12q0 123 -96 216q-21 0 -144 -156l12 -24q-168 -243 -168 -384l24 -156h-12q12 -24 12 -36q-12 -36 -24 -36q21 -45 36 -168q-24 -3 -24 -24q36 -150 36 -180q-24 -3 -24 -24q-210 54 -216 84
q0 21 24 72q0 24 -12 24l12 120v108q0 27 12 48q0 12 -12 12l12 60v156h-24q0 -90 -81 -126l-39 60q144 243 144 270v156q0 12 12 12l-12 24q12 63 12 72q-12 24 -12 36t12 12l-12 60v84q0 63 -12 204h12q0 12 -12 12q-12 222 -12 324v348h-24v24q21 18 108 216
q72 120 168 120h24q204 0 264 -288v-84q0 -300 -300 -960l12 -24l-96 -216q0 -60 12 -180h12q0 33 84 192q-12 24 -12 36q105 273 252 384q18 0 48 24h24q120 0 204 -132l-24 -12q30 -42 72 -516h-12l12 -24l-12 -24q0 -21 24 -72q0 -12 -12 -12l12 -60q0 -432 120 -432
l24 12l24 -12q81 42 120 96q-15 30 -24 63l60 -141zM324 2400v-12h24v12h-24zM444 2400q0 -27 -12 -48h24q0 12 12 36zM528 2268v-24q48 0 48 -48h12v12q-24 90 -24 96q-18 0 -36 -36zM192 2076v-48h12q12 96 60 180l-24 12q-48 0 -48 -144zM372 2184l-24 12
q-120 -168 -120 -444q12 -21 12 -48t-12 -48q12 -24 12 -36q0 -21 -24 -72q24 -48 24 -132v-48l12 -24q-24 -3 -24 -24t24 -72q0 -12 -12 -36q12 -66 12 -108v-84h24v60l300 828q0 12 -12 12l12 48q0 252 -144 252zM168 1884v-24h24v24h-24zM648 1212l12 -24l-24 -48l36 -24
h12q0 9 60 168q-24 0 -24 12q-24 0 -72 -84zM696 1032l24 -12h12q72 180 72 228q-12 0 -108 -216zM528 1128h12q24 0 24 24h-12q-24 -3 -24 -24zM732 960l24 -168h12q48 222 72 276q12 0 12 12v72h-12q-27 -6 -72 -192h-36zM852 948q0 -15 -36 -96l12 -24q-15 -72 -36 -72
l12 -24v-12q-36 0 -36 -12l12 -108h-12q12 -21 36 -168h-12l12 -24v-36q0 -12 -12 -12l12 -24v-12l-12 -24q36 0 72 -168q48 -60 60 -60h12q0 21 -60 84v120q-39 0 -48 84l24 96q-36 0 -36 24q0 12 12 12q-12 36 -24 36q60 366 60 408v12h-12zM228 684q12 -24 12 -36h12v60
q-24 -3 -24 -24zM864 684v-84q0 -12 12 -12l-12 -24v-24h12q0 36 12 36l-12 24v60l12 24h-24zM264 348v-36h12v36h-12zM264 288q0 -21 -12 -288q-12 0 -12 -12h48l-12 60l12 84q-12 78 -12 156h-12z" />
    <glyph glyph-name="I" unicode="I" horiz-adv-x="595" 
d="M576 342q0 -24 -156 -216q-168 -192 -216 -192q-141 0 -168 372h12l-12 24q0 27 12 48q-12 24 -12 36h12l-12 24v84q0 12 12 12l-12 24v120l12 72q-12 21 -12 60q0 27 12 48q-12 21 -12 48v24q0 27 12 48q-12 21 -12 60h-9l-12 174q9 48 21 102l-36 57v6q9 15 84 45
q6 0 48 -12q81 12 132 12l12 -24q0 -12 -12 -12l12 -24v-36q0 -177 -36 -348l12 -72v-12q0 -27 -12 -48l24 -72q0 -12 -12 -12l48 -624h12q90 213 120 228l24 -12q-24 -54 -36 -132q136 176 144 212l31 -92h-19zM108 1986q24 -3 24 -24v-12l-24 -36v-36l60 12h12
q60 -30 60 -96v-72q-63 -108 -156 -108q-48 48 -48 132l12 24l-12 24q45 192 72 192zM120 1350v-120q0 -24 -24 -24q12 -24 12 -36q24 0 96 180q-12 0 -36 12q-21 -12 -48 -12zM192 1242v-24h24q0 24 -24 24zM168 1182q0 -6 -12 -48q24 0 24 36v12h-12zM108 990v-24h12v24
h-12zM168 978q0 -24 -12 -24l12 -24q-36 -81 -36 -96h24q0 39 36 84v60h-24zM108 726v-36h12v36h-12zM180 726q-36 -126 -36 -168q24 12 36 12q12 -24 12 -36q0 -36 -48 -228q60 0 60 -24v-60q-24 -36 -36 -84q18 -108 48 -108h12q0 36 12 36q-24 390 -36 420q0 12 12 12
l-24 192h12q-12 24 -12 36h-12zM132 234v-24h12v24h-12z" />
    <glyph glyph-name="J" unicode="J" horiz-adv-x="1320" 
d="M1044 2232h24q48 -51 96 -60l60 -96q0 -114 -168 -204q-84 0 -84 204v24q30 132 72 132zM1104 2076l-12 -60l24 -12q24 30 24 36v36h-36zM1128 1548q12 -24 12 -36h72l84 12q24 -75 24 -96q-12 -159 -36 -264q0 -6 12 -48q-24 -108 -24 -156q0 -24 12 -24l-12 -84v-288
q0 -27 -12 -48q12 -24 12 -36l-12 -24l12 -24l-24 -72q12 -36 24 -36l-24 -108q0 -12 12 -12q-15 -108 -24 -132q12 -12 24 -156q0 -231 -96 -756q-132 -303 -432 -480q-117 -48 -180 -48l-24 12l-72 -24q-237 0 -384 300q-54 60 -72 264q0 267 264 396l84 12
q300 0 300 -384v-12q-93 -168 -228 -168h-12q-105 0 -132 168q6 132 60 132q84 -21 84 -48v-12q0 -36 -60 -36v-36q0 -51 48 -96q180 48 180 156q-30 264 -252 264q-264 -72 -264 -360v-24q39 -228 84 -228q93 -216 360 -216l216 60v12l-12 24q147 51 228 240q72 219 72 456
q-12 396 -12 636l-12 84q0 12 12 12l-12 60v48q-30 1164 -60 1164l36 24h24l36 -24q30 60 96 60zM1020 1476v-48q0 -27 12 -48q-12 -24 -12 -36q12 0 48 72q-24 54 -48 60zM1224 1440q0 -57 -84 -228q24 15 108 180v48h-24zM1032 1128q36 12 36 72q-36 -12 -36 -72z
M1212 1152q-48 -120 -48 -144l36 24l-12 24q48 69 48 84zM1104 1044q-72 -96 -72 -180h12q12 0 72 168v12h-12zM1140 864q0 -21 -84 -156q-12 -24 -12 -36q12 -63 12 -120q-12 0 -12 -12l24 -12q36 180 84 324v12h-12zM1200 864l-36 -180v-12h12q39 132 48 132l-12 24v12
l12 24h-24zM1152 516v-48h12v48h-12zM1056 492v-60q0 -27 12 -48q-12 -21 -12 -48q0 -9 12 -72h-12l12 -24v-24q0 -12 -12 -12l12 -24v-228h12q24 339 24 432v24q0 12 12 12q-12 54 -60 72zM1140 204v-216h12q0 36 24 228q-24 -12 -36 -12zM1080 -84v-108q0 -12 -12 -12
q24 -42 24 -108l-12 -60q21 0 48 84l-12 144l12 60h-48zM1152 -384v-24h12v24h-12zM1140 -516q-57 -69 -96 -384q51 51 108 372v12h-12z" />
    <glyph glyph-name="K" unicode="K" horiz-adv-x="1512" 
d="M48 906q0 108 12 144q-12 21 -12 60l12 24q-12 21 -12 48v12q0 27 12 48q-12 21 -12 48v48q0 12 12 12l-12 24v48q0 42 -12 108q12 24 12 36q-12 63 -12 120h12l-12 24v120q54 348 300 348h72q228 0 276 -168v-12h-12l12 -24v-36q-21 -156 -60 -156l12 -24
q-159 -315 -240 -444v-24q258 168 384 168q132 0 132 -132q12 0 12 -24q0 -231 -336 -552q0 -12 -132 -156q87 -24 276 -264q60 -162 228 -288q0 -24 132 -60q324 57 324 264q18 0 36 132q0 165 -168 216h-24q-165 0 -204 -216q66 -108 84 -108h36q0 27 60 60l-48 84v12
q0 24 36 24q72 -27 72 -84q0 -105 -144 -168q-141 0 -168 204h12q0 12 -12 12q0 207 252 240h36q240 0 240 -264q0 -12 -12 -12q0 -12 12 -12q-78 -396 -252 -396q-6 -15 -108 -48q-12 0 -12 12l-60 -12h-24q-141 0 -348 264q-183 174 -360 192h-84v-48q0 -63 24 -288
q-18 0 -36 -48q-12 0 -36 12l-120 -12q-24 12 -36 12v-36h-60v72q0 12 12 12l-12 24q0 12 12 12q0 12 -12 12l60 624h-24l3 132q9 30 9 48zM264 1950l12 -24v-12q0 -12 -12 -12q0 -12 12 -12l-12 -60v-36l12 -84h-12q12 -24 12 -36t-12 -12l12 -60v-24q0 -27 -12 -48
q12 -21 12 -48v-36q0 -27 -12 -48q12 -24 12 -36h-12l12 -24q0 -87 -36 -96q12 -21 12 -48h12q348 600 348 756v24q0 69 -108 132h-12l12 -24q0 -18 -36 -36h-12q-48 60 -60 60h-24q-60 -30 -108 -156zM132 1902v-12q24 0 24 36h24l24 -12q12 93 60 180h-12q-27 0 -120 -192
zM204 1890v-24h12v24h-12zM192 1818q0 -12 -48 -168v-12h12q0 30 48 96v84h-12zM204 1602q0 -30 -48 -144q48 0 48 -60h12q0 39 12 60l-24 12q9 96 24 96q-12 24 -12 36h-12zM192 1386q0 -18 -60 -192h12q24 12 36 12q3 -24 24 -24q0 84 12 84l-12 24v12q0 12 12 12l-12 24
v24l12 24h-24zM696 1374v-24q63 24 96 24l24 -36l-12 -24q24 0 36 -84h24q0 141 -84 156zM252 978l12 -24l-12 -24l12 -24l-12 -48q0 -9 12 -72l-12 -84q18 -48 36 -48q57 0 300 192q0 12 -12 12q0 72 96 144q60 108 72 108q-42 189 -84 192h-24q-45 0 -240 -120
q-90 0 -144 -204zM360 1266v-12h24v12h-24zM192 1146l-24 -84q24 0 36 72v12h-12zM180 870q-36 -180 -60 -204l84 -12l-12 60l12 24q-12 24 -12 36l12 24q-12 18 -12 72h-12zM396 642v-24q78 60 96 60v12h-12q-69 -48 -84 -48zM168 558l-48 -192h12q24 12 36 12
q3 -24 24 -24q0 48 12 48l-12 24q0 12 12 12l-12 24l12 24q-12 24 -12 36q12 24 12 36h-36zM360 510l-108 -72h60q93 0 288 -72q-81 105 -192 132q-21 12 -48 12zM180 342l-12 -120h12l24 12q-12 45 -12 108h-12zM156 78h48v72q-21 0 -48 -72z" />
    <glyph glyph-name="L" unicode="L" 
d="M792 -36q0 -36 -120 -60q-60 0 -96 72q-60 57 -60 180h12l-24 48q0 12 12 12q-24 138 -24 168h12q-12 24 -12 36q-12 282 -12 312h-12q0 -33 -240 -432q-21 -15 -72 -132l-132 -192q-24 0 -24 24q0 60 492 888l-12 24q24 297 24 348l-12 120q15 189 24 204l-24 72
q12 66 12 108v72q0 27 -12 48q21 63 36 180q-12 21 -12 48q0 51 36 96l-12 24q87 300 276 300q240 -33 240 -348q0 -351 -336 -1056q0 -24 -24 -24q27 -33 36 -180l-12 -24q12 -24 12 -36t-12 -12l24 -192l-12 -24q12 -66 12 -108q0 -12 -12 -12l12 -24v-60q0 -51 12 -132
q-12 -24 -12 -36q57 -186 84 -192q300 393 300 420q30 78 60 84q0 -12 9 -12l-21 -111l-348 -501q-24 12 -36 12zM696 2196q12 -21 12 -48l-24 -12l24 -228q-12 -51 -24 -276l12 -24l-12 -24l12 -84q-12 -132 -12 -240q198 324 312 876q-12 21 -12 48h12q-18 252 -132 252
l-24 12q-114 0 -144 -252zM636 2124q-48 -246 -72 -264v-96q0 -60 -12 -180l24 -12q6 120 24 120q0 12 -12 12q6 264 60 264v156h-12zM624 1704v-24q24 0 24 24h-24zM624 1668q0 -54 -24 -168v-12h12q0 18 24 48v132h-12zM588 1452q0 -84 -24 -84l12 -24q-12 -36 -24 -36
q0 -12 12 -12l-12 -60v-24q36 0 48 216v24h-12zM624 1260q-24 -144 -24 -156q27 0 48 108q-12 24 -12 36q12 0 12 12h-24zM540 1152v-36h12v36h-12zM540 828l12 -48q-15 -153 -24 -168q12 -21 12 -48h24v36q48 225 48 300v36q-12 0 -72 -108zM660 924q0 -120 -24 -120
q0 -12 12 -12q-15 -123 -84 -336v-120h12q108 426 108 444l-12 24v120h-12zM672 540q-84 -327 -84 -420q24 0 60 216q9 0 36 72v132h-12zM684 240q-24 -102 -24 -120q12 -21 12 -48q21 0 36 60q-12 45 -12 108h-12zM720 48v-48q24 0 24 24t-24 24zM648 12v-24h12v24h-12z
" />
    <glyph glyph-name="M" unicode="M" horiz-adv-x="1608" 
d="M204 1512q36 -36 36 -228h-12l12 -24l-12 -72q12 -21 12 -60h-12l12 -24q0 -12 -12 -36q24 -177 24 -252h12q93 390 276 516q0 18 132 96h48q69 0 108 -264h-12l12 -24v-36l-12 -72q12 -72 24 -72l-12 -60q6 -156 24 -156l-12 -60v-120h12q9 120 36 120l-12 24
q0 66 96 276q0 69 144 276q99 180 264 180h48q54 -9 132 -192l-12 -24q24 -102 48 -312h-12l12 -24q0 -12 -12 -12q12 -18 24 -156q0 -12 -12 -12l12 -60v-72q0 -42 -12 -108q12 -24 12 -36q-12 -81 -12 -132q0 -12 12 -36q-12 -24 -12 -36q12 -165 12 -204q-15 0 -48 -60
q-168 -36 -192 -36l-12 24v84q0 57 -12 120q12 48 12 84l-12 24l12 24q0 12 -12 12l12 84v180q0 12 12 12l-12 24q0 12 12 12l-12 84v72q0 12 12 12q-12 24 -12 36q0 36 12 84q-24 243 -48 276l12 24q-18 48 -36 48q-87 0 -264 -228l12 -24q-72 -96 -156 -408l12 -24
q-24 -66 -48 -528q-39 -51 -96 -60q-36 -15 -36 -36h-24q-24 0 -24 24v348q0 27 12 48q-12 21 -12 48v84q0 42 -12 108q12 21 12 48l-12 24q12 24 12 36l-12 60l12 24l-24 156h12q-33 264 -84 264h-12q-126 -57 -168 -180q-72 -207 -132 -468q0 -12 12 -36l-12 -72
q12 -24 12 -36h-12q24 -96 24 -252q-12 0 -12 -12q30 0 36 -120q0 -84 -168 -84q-24 30 -24 36v36l12 24h-24q0 -48 -24 -48h-12q-24 0 -24 24v156q0 12 12 12l-12 24q0 12 12 12l-12 24q0 27 12 48q-12 21 -12 48v24q0 12 12 12l-12 24v96q0 360 -24 456q0 12 12 12
l-24 192h12l-12 24v84q0 12 12 12q-12 30 -24 120q0 108 180 108h24zM84 1428v-120h12l12 84v36h-24zM180 1392v-24h12v24h-12zM168 1356l-36 -120h60l-12 120h-12zM1272 1332v-24h12l60 12q3 -24 24 -24q0 39 12 60h-24zM1404 1224q12 -162 12 -228h12q48 156 48 216
q0 21 -24 96q-24 0 -48 -84zM612 1296q3 -24 24 -24h12q0 24 -24 24h-12zM660 1260v-24h12v24h-12zM732 1260v-24q24 0 24 24h-24zM708 1104l-12 -48l24 -12v60h-12zM84 1080l12 -60h12v60h-24zM168 1056l-12 -60v-24q18 0 36 48q-12 24 -12 36h-12zM1512 1056v-24h12v24
h-12zM708 1020v-48h12v48h-12zM1416 912q0 -66 12 -168q-9 -48 -24 -48q15 -15 24 -168l-12 -48l12 -72q-24 -39 -24 -60q24 -3 24 -24v-12q0 -12 -12 -12l12 -24v-132q0 -27 12 -48q-12 -24 -12 -36q24 0 24 24l-12 72q24 39 60 192l-24 -12h-12v60q57 240 72 240
q0 12 -12 12l12 144v48h-12q0 -96 -36 -96l12 -24v-12q0 -18 -36 -36h-12v12q0 105 60 300q-12 24 -12 36q-30 0 -60 -108h-24zM708 912v-84h24l-12 84h-12zM108 816q0 -12 -12 -36l24 -12q0 12 12 12q-12 24 -12 36h-12zM180 768l-12 -84h48l-12 24v60h-24zM84 744
q12 -24 12 -36h24v36h-36zM720 612v-24h12v24h-12zM108 576v-84h12l12 72zM192 576q0 -45 -48 -216q69 12 84 48l-12 24v84l-12 60h-12zM732 576v-24h24q0 24 -24 24zM732 504v-24h12v24h-12zM732 420v-48q0 -27 12 -48q-12 -24 -12 -36l12 -84h-12l12 -24v-120h12l24 12
q-12 24 -12 36q12 36 24 36l-12 24v108q0 12 12 12l-12 24v36q0 12 12 12q-9 48 -60 60zM216 288l-36 -132q36 0 36 -108h12v240h-12zM120 252v-48h12q0 9 12 72q-24 -3 -24 -24zM1500 36h24v24q-24 -3 -24 -24z" />
    <glyph glyph-name="N" unicode="N" horiz-adv-x="1584" 
d="M276 1554h12q0 -30 24 -84q0 -225 24 -396q-12 -24 -12 -36q12 -66 12 -96q-12 0 -12 -12h24q195 504 336 504q0 27 108 48q180 0 228 -252h-12l36 -132l-12 -24q60 -378 60 -420q0 -12 -12 -12q57 -576 192 -576q36 0 84 -12q75 0 180 132h24l24 -12q0 -141 -252 -216
l-24 12l-24 -12q-12 0 -12 12l-84 -12h-12q-201 0 -360 396q-24 108 -36 360h12l-12 24v12q0 36 12 36l-12 60v72q0 12 12 12l-12 24v12q0 12 12 12q-24 60 -24 84h12q-36 156 -84 252q-114 -45 -168 -144q-96 -189 -180 -456q27 -183 48 -264q-12 -24 -12 -36l12 -24
l-12 -24q24 -57 48 -228q0 -96 -108 -96q-87 0 -168 -96q0 24 -24 24l12 120v72l-12 72q0 12 12 12q-36 321 -48 360q0 12 12 12l-84 708l12 24q-24 0 -24 24q0 12 12 12l-24 108l48 36q24 0 24 -36q45 0 204 60zM72 1434l12 -60l-12 -24q12 -24 12 -36h12q0 15 72 132v12
h-36q-30 -24 -60 -24zM192 1398q0 -18 -72 -144v-12q24 -3 24 -24q-30 -33 -48 -96l12 -24q0 -12 -12 -12l12 -24q0 -12 -12 -12q12 -9 12 -108h12q21 168 96 420q-12 24 -12 36h-12zM708 1374v-12q21 0 60 -36h12v72h-24q-30 -24 -48 -24zM840 1398q0 -60 -36 -180l36 -108
l-12 -24l12 -60h12q36 216 48 216l-12 24v12q0 12 12 12q-12 24 -12 36l12 24q-3 33 -60 48zM252 1290q-30 -174 -84 -264v-36q36 9 84 144q-12 24 -12 36q24 39 24 72v48h-12zM936 1182q-24 -180 -96 -348q12 -21 12 -48l-12 -24l12 -24l-12 -72h24q96 405 96 480v36h-24z
M144 906l-24 12v-12q24 -144 24 -168h12l60 240q-9 0 -72 -72zM264 942q-42 -156 -60 -156l12 -24q0 -15 -48 -84v-60h12q108 117 108 276l-12 48h-12zM324 906v-24q24 0 24 24h-24zM972 906q-9 -84 -36 -84l12 -24q-33 -60 -48 -204q36 0 36 -12q-12 -48 -48 -48
q-24 12 -36 12v-12q0 -171 168 -396l84 -60h12q0 18 -84 84l-48 192h12q-12 24 -12 36l-24 -12h-12l-36 24q84 387 84 492v12h-24zM228 642q0 -45 -60 -108q12 -18 12 -72h24l36 168v12h-12zM300 630l-48 -192q72 48 72 60q-12 24 -12 36h12q-12 12 -12 96h-12zM1008 606
q0 -45 -24 -72v-24q30 24 48 24v48q0 24 -24 24zM168 450q3 -24 24 -24v24h-24zM264 126h12l84 12q-24 81 -24 252q-24 0 -72 -264zM204 294l12 -24q-12 -21 -12 -48q30 0 36 120q-30 0 -36 -48z" />
    <glyph glyph-name="O" unicode="O" horiz-adv-x="1020" 
d="M384 1404q432 -51 432 -120q150 -111 204 -312q0 -12 -12 -12l12 -120v-96q0 -396 -372 -696q-129 -60 -192 -60q-279 0 -348 108q-72 144 -108 396h12l-12 24v312q9 105 36 108l-12 24q96 324 276 432h12v-12q48 24 72 24zM312 1320q-204 -180 -204 -336
q162 303 216 312h12q0 24 -24 24zM288 1128q0 -12 12 -12q-24 -279 -24 -336q0 -105 48 -300q-12 0 -12 -12q21 0 84 -228q9 0 84 -132v-24l-12 -24q204 0 408 348q84 189 84 372v84q-63 336 -156 336q-78 108 -300 108v12q-108 0 -204 -192h-12zM120 708l12 -84v-72
l-48 -48q24 -111 24 -132h24l-12 24l60 360q-12 0 -12 12q18 0 36 36v84q-39 0 -72 -180h-12zM72 792v-48h12q0 12 12 36zM180 372v-12h12q36 147 36 204v12q-36 0 -48 -204zM96 336v-12q24 0 24 24v12q-24 -3 -24 -24zM240 264h48q-12 48 -12 84q-21 0 -36 -84zM132 288
v-24q24 -39 24 -72h12v84q-12 0 -36 12zM288 216l12 -24v-12l-12 -60h72v24q-48 54 -48 84zM204 144v-24h12v24h-12z" />
    <glyph glyph-name="P" unicode="P" horiz-adv-x="936" 
d="M48 1452q21 0 144 -12l84 12q24 -48 24 -84q-24 -180 -24 -288q9 0 180 264l156 96q183 0 264 -216h-12l36 -60q0 -111 24 -288l-12 -24q15 -123 24 -144l-12 -24l12 -24l-12 -24q12 -24 12 -36l-12 -24q0 -12 12 -12q0 -138 -108 -348q-144 -204 -288 -204v12l-96 -24
q-114 0 -204 72v-24q0 -39 12 -60l-12 -60q0 -30 12 -96l-12 -84q0 -12 12 -36l-12 -72v-12q0 -63 36 -108l-36 -168l12 -24v-252q0 -27 12 -48q-12 -21 -12 -48t12 -48q-12 -21 -12 -48q0 -12 12 -36q-12 -21 -12 -48v-24l24 12l12 -24v-12q-36 -39 -36 -60
q-102 0 -180 -48l-48 24q0 27 12 48q-12 213 -12 348v84q0 12 12 12l-12 24v24q0 39 12 60q-12 42 -12 48q12 105 12 132q0 12 -12 36l12 72v12q0 99 -12 156l24 348l-12 24q12 72 24 72l-12 60v504l-12 120h12l-12 24v24q0 27 12 48q-24 0 -36 396q12 0 12 12q-24 0 -24 36
q24 54 48 60zM84 1380q0 -54 -12 -72h12q48 24 48 72l-24 -12zM216 1368q0 -24 -24 -120q48 24 48 60l-12 60h-12zM528 1296q60 -36 84 -36q12 48 36 84v12q-24 0 -24 12q-96 -45 -96 -72zM708 1320q-48 -96 -60 -96q24 -45 24 -96h12q12 72 36 72l-12 24q0 72 48 72v24h-48
zM84 1272v-132h12l36 132q-12 0 -12 12q-24 -12 -36 -12zM456 1236l-60 -84q-132 -204 -132 -240q0 -30 -12 -96q12 -93 12 -204q0 -6 -12 -48q60 0 60 -24q-72 -132 -72 -288q12 -48 12 -84q-12 0 -12 -12q126 -72 192 -72q171 201 240 408l-12 24l12 48q-12 24 -12 36h12
l-12 24q0 39 12 60l-24 120h12q-18 129 -36 144q0 9 12 72q-63 216 -180 216zM696 1032q12 -144 36 -144q0 36 84 180q0 12 -12 12l12 60q0 12 -12 96h-12q-15 0 -96 -204zM84 996l12 -24l-12 -72h24q0 36 60 264l-84 -156v-12zM192 1080q0 -39 -84 -264q-6 -108 -24 -108
q12 -18 24 -132l-24 -12l12 -24v-228q0 -12 -12 -12q12 -120 24 -120q-24 -39 -24 -60q18 0 48 96l-24 108l24 12l24 -12q0 21 60 168v252h-12q-48 -180 -84 -180v48q0 12 12 12l-12 24q27 33 48 120q-24 0 -24 36q0 66 84 204q-12 18 -12 72h-24zM732 792q12 -63 12 -144
h12q48 144 72 288h24v60q-33 0 -108 -204h-12zM840 732q-120 -318 -216 -516q-21 0 -72 -120h12q102 0 228 204h-12q-63 -60 -96 -60q-12 24 -12 36q180 285 180 444v12h-12zM108 540h24v-12h-24v12zM792 372h12q48 21 48 84v12q-60 -54 -60 -96zM192 300q0 -30 -24 -60
l36 -24v84h-12zM144 180q-60 -162 -60 -240v-12q18 24 84 216q-12 24 -12 36h-12zM180 24q-96 -180 -96 -360v-24l12 -60h12q66 261 96 276l-12 24v72q0 12 12 12l-12 24v12l12 24h-24zM180 -324q-96 -288 -96 -384q0 -6 12 -48q-12 -24 -12 -36v-12h12q63 138 108 324
l-12 60h12l-12 24l12 60zM180 -720q-60 -213 -96 -264q12 -24 12 -36q-12 0 -12 -12h24l-12 -72q12 -21 12 -48q33 0 48 168q-12 24 -12 36q30 24 60 24l-12 24q0 12 12 12q0 12 -12 12l12 84v72h-24zM168 -1200v-48h12v48h-12z" />
    <glyph glyph-name="Q" unicode="Q" horiz-adv-x="1178" 
d="M1068 1578h12q33 -36 72 -36v-108q-54 -225 -96 -300q12 -24 12 -36q-24 -36 -48 -204q0 -12 12 -12l-84 -564q0 -12 12 -12l-12 -60v-48q24 -30 24 -48q-15 -132 -36 -132l12 -24q0 -12 -12 -12l12 -24q-6 -132 -24 -132l12 -120v-276q0 -12 -12 -12q24 -54 24 -108
l-12 -24q0 -12 12 -12l-12 -60v-204l-60 -36v-36q42 27 324 408l-12 24q3 24 24 24q18 0 36 -36v-72q-288 -357 -288 -372l-132 -132h-36q-24 0 -24 24v72l-12 72q0 12 12 12q-24 123 -24 384q0 54 12 156q0 12 -12 12l12 60v108q0 12 12 12l-12 24v252q0 12 12 12l-12 24
q12 189 12 276h12q0 12 -12 12q12 66 12 96v24h-12q-93 -360 -192 -360q0 -12 -120 -60q-129 0 -276 156q-180 315 -180 576h12l-12 24v12l24 36l-12 24q90 384 324 588q189 96 252 96h60q87 0 168 -156h12q0 120 84 120q84 24 156 108zM588 1446q0 -24 -36 -24v-12l60 12
l60 -12v24zM912 1386q12 -63 12 -120h12q0 45 60 156v12q-15 0 -84 -48zM1068 1434v-24h12v24h-12zM204 1146h12q189 228 216 228v12h-12q-129 -57 -216 -240zM288 918v-132q0 -330 276 -588q-12 -84 -36 -84q-141 111 -156 168h-12v-12l12 -72v-36q60 0 96 -72h12
q192 0 264 468q-12 24 -12 36l12 48l-12 24q36 243 84 372l12 72q-24 0 -72 192q-45 36 -84 36h-96q-201 0 -288 -420zM984 1170l12 -60h12v60h-24zM252 1122v-24q24 0 24 24h-24zM912 858v-12h12q72 132 72 252q-18 -15 -84 -240zM240 1086q-27 -84 -48 -84l12 -48l-12 -60
q12 -24 12 -36q-24 -3 -24 -24v-48h36v12q0 12 -12 12q27 225 48 264v12h-12zM804 786v-24h12v24h-12zM72 726q3 -24 24 -24q0 27 12 48h-12q-24 -3 -24 -24zM804 726l-12 -48v-24h12q0 39 12 60v12h-12zM864 702q0 -9 -12 -72h24l12 72h-24zM204 678v-36q24 0 24 24v12h-24
zM912 630v-60h12v60h-12zM888 534v-60h12q0 18 24 48v36h-12q-24 -3 -24 -24zM252 498v-60q36 0 36 -36q-12 -108 -24 -132h12q48 36 72 36q-81 192 -96 192zM144 426v-12q3 -24 24 -24q0 39 12 60h-12q-24 -3 -24 -24zM840 378v-12l12 -84l-24 -84l12 -24q0 -12 -12 -12
l12 -48q0 -36 -24 -96q12 -66 12 -108v-24h24q12 168 24 168l-12 24q12 24 12 36q-24 0 -24 24q15 168 36 228q-27 0 -48 12zM276 198v-36h24v36h-24zM828 -174v-84h12q0 24 12 24l-12 24q12 24 12 36h-24zM840 -450v-72l12 -60h-12l12 -24q0 -12 -12 -36q12 -48 12 -84
l-12 -60l24 -12v372q-24 -3 -24 -24z" />
    <glyph glyph-name="R" unicode="R" horiz-adv-x="1045" 
d="M624 1494q54 -51 132 -228q33 -24 120 -48q156 0 156 204h60q24 -3 24 -24q0 -177 -228 -336q-129 -36 -156 -36q-87 0 -192 144h-12q-132 -399 -132 -468q12 -60 36 -288l-24 -72q12 -24 12 -36l-12 -24l24 -84q-24 -3 -24 -24q24 -45 24 -96h-12l12 -24v-36
q-30 -60 -96 -60h-72q-60 33 -60 48q84 117 84 216q-45 -36 -72 -36q-24 12 -36 12v-144q0 -66 -60 -96q-18 0 -36 36q24 159 24 276h12l-12 24v12q0 12 12 12l-12 24q0 12 12 12l-12 24v108l-12 72q12 21 12 60q0 18 -24 108h12l-12 24v24q0 12 12 12q-30 168 -48 240
l12 24l-60 420q24 12 36 12q39 -21 132 -36q21 12 48 12l60 -12q3 24 24 24h36q48 -18 48 -84v-168q0 -27 -12 -48q12 -21 12 -48v-96q0 -12 -12 -12l12 -24l-24 -48l24 -12q144 432 180 504q48 60 60 60zM72 1374v-12q0 -87 36 -96q48 120 48 132q-12 0 -12 12
q-72 -15 -72 -36zM144 1230h12q48 0 108 168h-12q-21 0 -84 -144q-24 -3 -24 -24zM612 1362q0 -15 -36 -96v-24h12q0 48 24 48h12l72 -96h24v12q-84 108 -84 156h-24zM312 1290q-141 -312 -180 -336h-12q24 -60 24 -84l-12 -24q12 -21 12 -48h-12q12 -24 12 -36q15 0 96 228
q84 180 84 264v36h-12zM180 1206q-42 -72 -72 -72v-36l12 -84h12q6 66 72 156v12q0 24 -24 24zM732 1206v-12h24v12h-24zM756 1182q0 -24 -24 -24l12 -24q0 -24 -48 -24v-12q48 0 48 -12l168 60l-12 24l-60 -12zM312 1014q-51 -93 -84 -192l96 132v60h-12zM324 810
q0 -48 -36 -48l12 -24q-21 -87 -48 -132q12 -21 12 -48q-24 -48 -72 -48q0 12 -12 12q0 -117 -12 -120q24 -54 24 -120h12q93 225 144 456q-24 0 -24 36l12 24v12h-12zM144 714v-48q24 -27 24 -84h36q0 12 -12 12q0 21 48 144h-12q-36 -24 -84 -24zM168 570v-24h12v24h-12z
M252 270h36q0 45 72 96v132q-48 -27 -96 -216q-12 0 -12 -12zM336 162q0 -45 -24 -72v-60q18 0 36 36v96h-12z" />
    <glyph glyph-name="S" unicode="S" horiz-adv-x="1224" 
d="M492 1488h144q3 -39 264 -72q0 -15 168 -96v12q-12 66 -12 108q3 24 24 24h24q33 0 48 -156h-12q15 -18 24 -120h-12l24 -48q-15 0 -60 -60q-27 39 -72 168q-111 69 -240 108l-72 -12v12q-213 -48 -348 -180q-78 -189 -96 -204l12 -24v-60q0 -24 -36 -24v-24h12l432 96
q288 -21 348 -84q144 -102 144 -348q12 0 24 -72q0 -174 -204 -360q-30 0 -120 -72l-60 12h-36q-57 0 -120 -12q-294 0 -492 204l-108 -192q-27 -36 -36 -36q-36 12 -36 72v96q0 51 -12 96q15 129 24 156q-24 0 -24 24q24 48 72 48l168 -204q204 -192 348 -192q12 0 12 12
l60 -12h24q27 0 48 12q24 -12 36 -12q24 12 36 12v-12q108 0 156 180l-12 24l12 24q-12 105 -36 156l12 24q-111 336 -348 336h-84l-60 -12q0 12 -12 12q0 -27 -144 -48q-129 0 -168 96l12 24q-18 0 -36 60q0 348 396 540zM372 1308v-36h12q162 120 228 120q0 24 -24 24
q-39 0 -216 -108zM348 1260l-12 -24h36q0 24 -24 24zM204 888v-12q3 -24 24 -24h12q0 18 -36 36zM756 864v-12q21 0 120 -84q0 9 12 72l-120 24h-12zM960 804v-36q24 12 36 12v24h-36zM960 708l-12 -60q3 -24 24 -24l36 84h-48zM1116 588v-36h12v36h-12zM996 552v-36
q24 0 24 24v12h-24zM996 504v-24h12v24h-12zM1128 468q-27 -165 -72 -216l-24 12h-12q0 -66 -36 -120h12q156 111 156 276q-12 21 -12 48h-12zM1020 420l12 -24q-12 -24 -12 -36h24l12 60v24zM1020 336v-12h24v12h-24zM84 276v-72h24q0 30 24 60v12q0 24 -24 24
q-24 -3 -24 -24z" />
    <glyph glyph-name="T" unicode="T" horiz-adv-x="1167" 
d="M1152 444q-90 -234 -324 -480q-96 -48 -96 -60q-132 0 -180 156q-108 282 -108 492q0 30 -12 96h12l-12 24v84q0 27 -12 48l12 24q0 12 -12 12l12 60v12l-12 60h12q0 12 -12 12l12 60v444q0 12 12 12q-12 24 -12 36q-24 0 -36 -120q-93 -297 -300 -468h-12l-24 36v12
q72 63 72 84q168 123 252 456q0 24 -12 24q-60 0 -60 24l-24 -12q-27 0 -48 12q-168 -36 -168 -120l12 -108l-24 -12h-12q-30 0 -48 96v36q0 165 288 180v-12l24 12q21 0 72 -24q48 144 60 396q12 0 12 12q-60 0 -60 36q0 24 60 24l-12 24q3 24 24 24h12q21 0 36 -60
q117 48 144 48q24 -51 24 -192v-72q0 -12 -12 -12l12 -24q-9 -84 -24 -84q0 -12 12 -12l-12 -84v-84q0 -120 132 -120l24 12h12q12 0 12 -12q240 57 240 228q0 99 -96 144h-12q-132 -36 -132 -72v-12q0 -21 36 -96q12 0 84 60q12 -24 12 -36q-48 -81 -48 -96h-72
q-51 0 -96 168q69 168 216 168q156 -45 156 -156v-108q0 -264 -396 -264l-60 12q-15 -420 -36 -420q9 -33 24 -144h-12l12 -24q12 -345 24 -396l-12 -24q48 -174 108 -312q-24 -39 -24 -60h-24q-48 96 -120 96q39 -84 96 -120h24q243 168 384 504l12 18l39 -60q-6 -3 -15 -6
zM612 2040q-12 -36 -12 -72q12 0 12 -12q0 -126 -60 -252l-24 -144h36q0 36 12 36q0 12 -12 12q0 102 60 168q0 60 24 60l-12 24v108l12 24q-24 0 -24 48h-12zM516 2028q0 -54 -12 -72v-12h12q0 27 36 72q-12 0 -36 12zM528 1908q0 -48 -48 -180l12 -24q-12 -48 -12 -84v-24
h12q60 270 60 312h-24zM516 1476q-36 -48 -48 -168h-12l24 -84l-12 -24q12 -24 12 -36h-12l12 -24q0 -12 -12 -12l12 -24q0 -12 -12 -12l12 -24v-12q0 -12 -12 -12l12 -24q0 -12 -12 -36l24 -168q-12 -48 -12 -84q0 -6 12 -48q-12 -24 -12 -36q24 -30 36 -180q-12 0 -12 -12
q24 0 84 -324h12v84q-36 150 -72 564q42 624 84 624v24h-36q-24 -84 -48 -324q12 0 12 -12l-24 -12l-24 144q48 198 48 228q0 24 -24 24z" />
    <glyph glyph-name="U" unicode="U" horiz-adv-x="1515" 
d="M1512 1038q0 -120 -108 -396l12 -24q-21 -93 -48 -96l12 -24q-162 -504 -300 -504q-132 0 -132 96q-18 0 -60 120q0 12 12 12l-24 216h12l-12 24q12 24 12 36q-12 24 -12 36h12l-12 24v48q0 12 12 12q-12 21 -12 60h-12q-114 -339 -324 -552q-93 -108 -156 -108
q0 12 -12 12q0 -36 -24 -36h-60q-183 0 -216 480q0 12 12 36q-24 60 -24 216v192q0 12 12 12l-12 24v396l-60 72v12q0 27 132 36q12 -24 12 -36h96l60 12l24 -60q-24 -75 -36 -156q12 -24 12 -36l-24 -12q0 -12 12 -12q-9 -156 -36 -156q24 -90 24 -120q-12 -150 -12 -180
q12 -24 12 -36t-12 -12q36 -306 120 -444q63 -96 84 -96h12q156 180 348 540q0 69 48 120v120q0 12 12 12l-12 24v48q0 39 12 60l-12 72v24q0 12 12 12l-12 24v36q0 12 12 12l-12 24q0 12 12 12l-24 180l24 12h48v-48h60q0 72 48 72q12 -21 12 -48h24l36 24h24
q24 -78 24 -108q0 -12 -12 -12l12 -24q-6 -108 -24 -108q0 -12 12 -12q-15 -135 -36 -192q12 -24 12 -36h-12l12 -24q-9 -96 -24 -96q9 -33 24 -144l-12 -24q12 -66 12 -108q0 -27 -12 -48q33 -75 48 -324h12q12 0 156 324l-12 24q75 183 183 666l12 -174h-3zM1056 1386
q-36 -375 -36 -456q0 -12 -12 -12l12 -24v-96q0 -12 -12 -12l12 -24v-12q0 -12 -12 -12l12 -24q0 -27 -12 -48q12 -24 12 -36q0 -24 -12 -24l12 -84q0 -444 48 -444q21 12 48 12q-36 108 -48 216q0 27 12 48q-12 156 -12 252v144l-12 72q12 21 12 48l-12 24q24 90 24 168v72
l24 84l-12 60h12l-12 24v60l12 24h-48zM240 1374l-24 -120h24l12 84v36h-12zM936 1362l12 -24q0 -12 -12 -12l12 -60v-48q0 -12 -12 -12l12 -24q0 -63 -36 -72q24 -60 24 -84q-12 0 -12 -12h24v12q36 267 36 324l-24 12h-24zM180 1002v-48h24l36 168q-30 0 -60 -120z
M924 666v-12q3 -24 24 -24v36h-24zM204 534l-12 -108h36v12q0 27 -12 48q12 24 12 36zM228 390q0 -54 -24 -192l24 12h36q36 -6 36 -96v-48l84 12v24q-63 0 -144 288h-12zM144 1362l-12 -108v-24h12l12 84v48h-12zM192 810q0 -36 -12 -84h24v84h-12z" />
    <glyph glyph-name="V" unicode="V" horiz-adv-x="1323" 
d="M267 1368l-12 24q0 33 132 48q48 36 96 36q36 -60 36 -204q-12 0 -12 -12q21 0 60 -216q15 0 144 -384q-12 0 -12 -12q69 -132 84 -132q36 0 36 -24v-84l-12 -24q18 0 108 -144v-72h12q336 555 336 720q-111 468 -216 468l-36 48q0 18 48 36q105 -42 168 -180
q84 -240 96 -372q0 -180 -324 -732q-135 -180 -204 -228q-159 156 -288 492q-48 99 -48 144q12 0 12 12q-33 27 -108 288l12 24l-60 228v36q0 12 12 12q-21 114 -42 129l-33 66q9 3 15 9zM279 1296q-138 -111 -207 -120l-72 93q18 -15 39 -33q42 0 213 123l33 -66q-3 3 -6 3
zM435 1392q0 -21 -24 -60h36v60h-12zM447 1320v-24q24 0 24 24h-24zM447 1236v-180q0 -12 -12 -12l12 -24v-36l-24 -36v-48q3 -24 24 -24q27 225 48 252v24q-24 24 -24 108q-24 -3 -24 -24zM375 1236v-12l12 -60q-12 0 -12 -12l24 -12q0 24 12 24q-12 18 -12 72h-24z
M387 1128v-36h12v36h-12zM375 1056l24 -12v36q-24 -3 -24 -24zM507 972v-72q0 -60 -24 -60q12 -24 12 -36q-12 -84 -12 -96q15 -60 36 -60h12q-12 24 -12 36q0 90 36 216q-12 18 -12 72h-36zM591 780q-27 -144 -36 -144q24 -48 24 -72h-12l12 -24v-24l-12 -24q60 -9 60 -36
q-18 0 -36 -36q48 -99 48 -120h12v180l-12 144h12q-48 138 -48 156h-12zM711 456l-12 -144l36 -24h12v60l12 24q-24 0 -36 84h-12zM699 204q54 -96 72 -96q-24 102 -24 120q-30 -24 -48 -24zM819 216v-36h12v36h-12zM783 84v-12q12 -24 12 -36q24 0 24 24t-24 24h-12z" />
    <glyph glyph-name="W" unicode="W" horiz-adv-x="1784" 
d="M416 1530h12q60 -36 60 -84q-12 0 -12 -12q24 -3 24 -24q0 -12 -12 -12q27 -57 60 -228q-24 -3 -24 -24q24 -3 24 -24q-12 -24 -12 -36q24 0 72 -384q12 0 12 -24l-12 -24q24 -39 24 -72h-12l60 -192h12q96 297 156 720l-24 240q12 21 12 48q-24 0 -24 24q3 24 24 24h12
l72 -12q126 48 180 48q24 -24 36 -168q-12 -21 -12 -48l12 -84l-12 -24q12 -24 48 -192h-12q24 -60 72 -252h-12l180 -480q312 357 312 756q0 366 -168 444h-12q-120 -24 -120 -60v-84q0 -18 72 -60l48 36h24q24 -3 24 -24q-45 -84 -72 -84q-132 0 -180 120q33 240 180 240
q0 12 12 12h36q216 -141 216 -408l12 -72h-12q0 -12 12 -12q-12 -129 -24 -156l12 -24q0 -126 -180 -504q-18 0 -60 -84q-204 -252 -288 -252h-36q-114 0 -264 624h12q-48 159 -60 252h-12q-60 -462 -300 -804q0 -21 -84 -60h-24q-57 78 -108 384h12l-108 576h12
q-24 90 -36 216q12 24 12 36q-12 24 -12 36h12l-12 24v60h-12q-63 -48 -132 -48h-12q-153 0 -180 108h12q132 -27 132 -48q129 0 216 120q102 36 144 36zM320 1434v-84h12l12 84h-24zM404 1434v-60h24v36q0 24 -24 24zM908 1374q12 -45 12 -108h12q36 81 36 108
q-12 0 -12 12q-21 -12 -48 -12zM308 1290v-24q24 0 24 24h-24zM1052 1290q-39 -159 -84 -228q12 -24 12 -36h12q36 180 72 180v84h-12zM452 1278q-36 -201 -72 -312l72 132l-12 24q12 48 48 48l-24 36h12q-12 18 -12 72h-12zM920 1134v-48h24v72q-24 -3 -24 -24zM332 1074
v-24h12l12 60q-24 0 -24 -36zM1076 1074q-24 -108 -24 -156q12 0 48 72q-12 48 -12 84h-12zM464 834v-12h12q0 36 48 36v36l-12 60h12q-12 21 -12 60q-24 0 -48 -180zM884 930v-24h12v24h-12zM956 894q72 -282 72 -312q-12 -24 -12 -36q18 0 36 -36q-24 -3 -24 -24
q21 -12 132 -276q24 0 24 -36h24v12l-12 24l12 24q-12 66 -12 108v12q-48 0 -72 48l12 60v108h-12q-30 -24 -36 -24q-18 0 -36 36v144l12 84q-12 0 -12 12l-24 -12h-12q-36 9 -36 96l12 24h-12q-24 0 -24 -36zM404 918q0 -48 -48 -48q12 -24 24 -108h12q0 21 24 72l-12 24
q12 42 12 48v12h-12zM1124 810q0 -48 -24 -48l12 -24v-12q0 -12 -12 -12q12 -21 12 -60q12 0 48 60q-24 45 -24 96h-12zM524 774q-9 -144 -24 -144q0 -12 12 -12l-12 -60v-24l36 24h12l24 -12q0 12 12 12q-24 51 -48 216h-12zM392 654v-12q36 -99 36 -108h12q0 51 12 132z
M1184 534l12 -24q-12 -21 -12 -48l60 -36l-36 120zM560 534q0 -111 -24 -204q12 0 12 -12q-24 -3 -24 -24q12 -24 12 -36l36 24h24v-36q24 0 24 24q-24 108 -24 120h12q-30 144 -48 144zM464 378v-60h24q0 36 12 84h-12q-24 -3 -24 -24zM1244 378q9 -24 24 -132
q-24 -3 -24 -24h24q18 0 36 36q-36 63 -36 120h-24zM1244 126l-24 12v-12l12 -24q48 18 48 36v12z" />
    <glyph glyph-name="X" unicode="X" horiz-adv-x="1572" 
d="M144 1530q78 48 120 48q192 0 372 -240q141 -255 180 -396h12q0 153 156 468q255 180 264 180q0 27 60 36q0 -27 132 -48q132 -90 132 -108q-15 -60 -36 -60q-63 87 -192 120q-291 0 -420 -432q-39 -210 -60 -240q42 -183 180 -420q144 -282 264 -360q192 66 192 240
q-15 96 -84 96q-72 -57 -72 -108h12q21 12 48 12l12 -24q0 -18 -48 -48h-60q-18 0 -36 36q0 204 156 204q117 0 132 -180q-81 -312 -300 -312q-258 0 -456 504h-24q-210 -444 -348 -444q0 -21 -108 -36v12q-24 -12 -36 -12q-204 69 -204 168q-30 9 -60 144q42 276 180 276
q192 -36 192 -180q0 -147 -96 -216h-36q-24 0 -24 24v12l84 96v72q0 93 -132 120q-54 -54 -96 -132q24 -312 216 -312q234 0 420 468q12 21 12 60l-240 564q0 51 -156 264q-54 24 -60 48l-24 -12h-36q0 -18 -96 -48q-48 -90 -81 -210l-51 117q99 189 144 189zM456 1422v-36
q12 0 36 -12v12q-12 24 -12 36h-24zM552 1314q0 -18 48 -216h12v24q-12 111 -48 192h-12zM660 1086q54 -348 120 -348v12q-45 54 -96 336h-24zM828 630q0 -12 -12 -12q36 -51 36 -84h24v48q0 18 -48 48zM924 438v-24q84 -156 120 -156q0 -33 36 -96h24q-138 276 -180 276z
" />
    <glyph glyph-name="Y" unicode="Y" horiz-adv-x="1137" 
d="M189 1416q48 -33 180 -48l12 -108h-12l12 -24v-252q0 -600 192 -888q192 0 300 312q0 12 -12 12l12 84v24q0 90 24 540q3 48 24 48l-12 24q12 45 12 180q-18 0 -36 36v12q3 24 24 24q75 -24 120 -24l84 48h24v-48q-108 -372 -108 -552v-36q0 -69 12 -192l-12 -24l12 -72
v-36q0 -84 -24 -132q12 -66 12 -108v-48q0 -27 -12 -48q24 -60 24 -216v-60q0 -36 12 -36l-12 -60v-156q0 -264 -216 -696q-12 -54 -432 -288q-213 36 -228 60q0 -12 -12 -12q-300 222 -300 432q0 231 240 384q108 24 204 24q156 -102 156 -228v-96q0 -219 -216 -252
q-117 57 -144 108v48q0 72 84 132h84q18 0 36 -36v-24q-132 0 -132 -96q45 -51 120 -72q120 87 120 240q0 186 -156 204q-273 0 -336 -372q33 -165 204 -300q114 -57 228 -72q243 0 420 432q45 141 84 312l-12 24q36 267 36 408l-12 24l12 24q-12 24 -12 36h12l-12 24v204
q0 12 12 12l-12 24q12 21 12 48q-138 -240 -372 -240q-12 0 -12 12l-24 -12q-216 141 -216 252q-12 0 -72 252h12q-24 48 -24 132v336l-12 72q12 24 12 36q-12 24 -12 36h12l-12 24v36q0 192 36 228zM213 1320q0 -60 -24 -96q24 0 24 -72h12q0 27 36 168h-48zM1005 1284
q-60 -384 -96 -1068q12 -21 12 -48q0 -36 -12 -36q15 -165 24 -204q0 -12 -12 -12l12 -84v-84l-12 -72l12 -24q0 -24 -24 -84l12 -24q-12 -24 -12 -36t12 -12q-24 -180 -72 -336v-12h12q72 195 120 540l-12 24l12 108l-12 84l12 24q-12 21 -24 144l12 24l-12 72v24l12 72
q0 12 -12 12l24 300l-12 24q12 21 12 48q-12 24 -12 36h12l-12 24l12 48q0 12 -12 12l12 60v84q0 102 24 156l-12 24q24 45 48 216q-36 -12 -36 -24zM297 1200q24 -3 24 -24l-12 -24h24v120q-36 -12 -36 -72zM321 1128q-36 -141 -36 -180l36 24q0 -12 12 -12v24q0 12 -12 36
l12 72v36h-12zM237 1068v-48h12v48h-12zM225 948v-24h12v24h-12zM321 936q0 -78 -36 -228q12 -21 12 -48l-24 -12l12 -24v-60q0 -12 -12 -12q12 -24 12 -36h12v24q-12 0 -12 12l48 24l48 -276h12v12q-60 357 -60 624h-12zM285 396v-48h24v12q-12 24 -12 36h-12zM345 228
q9 -33 60 -60v24q-12 24 -12 36h-48zM789 -996q0 -12 -12 -36v-12h12q0 12 12 36v12h-12z" />
    <glyph glyph-name="Z" unicode="Z" horiz-adv-x="1222" 
d="M240 312q159 387 456 756q6 0 120 180q-36 0 -84 12l-84 -12q-27 0 -48 12q-66 -12 -108 -12h-84q-27 0 -48 -12l-144 24q-111 0 -156 -96q-48 0 -60 108q12 48 48 48l24 -12q21 12 48 12v-12l24 12h180q42 0 108 -12l24 12l24 -12q24 12 36 12v-12l24 12q342 0 600 36
h12q24 -3 24 -24l-12 -24q12 -24 12 -36q-126 -102 -300 -420l-228 -324q0 -39 -300 -396v-12l84 12h348q12 0 12 -12l24 12h24q36 0 36 -12l60 12h108l84 12v72q0 12 12 12l-12 24v12q0 18 48 36q54 0 60 -144q-45 -135 -84 -156q-30 0 -36 48h-12q-48 0 -48 -12l-84 12
h-96q-57 0 -120 -12q-108 12 -108 24q-24 -12 -36 -12l-24 12q-21 -12 -48 -12h-12q-12 0 -12 12q-111 0 -336 -96q0 15 -72 48l120 303q6 -3 12 -3zM672 960v-12q66 24 72 60h-12q-60 -30 -60 -48zM648 924v-12h24v12h-24zM696 888v-12q18 0 48 48h-12q-18 0 -36 -36z
M696 792v-12q27 0 48 -12q0 30 84 120v24zM612 804h-36q-72 -69 -72 -84v-24l156 132v12zM636 684q0 -36 -96 -132v-12q54 0 132 144h-36zM540 660q0 -18 -36 -48v-12q15 0 60 60h-24zM468 600q-72 -84 -72 -108q15 0 96 96zM300 216v-24h12v24h-12zM924 1200v-24
q36 0 36 -24q0 -51 -120 -132v-12h60q48 96 156 252v12h-12zM900 1260v-24q24 0 24 24h-24zM792 1056v-12h12q0 18 36 48v12h-12q-18 0 -36 -48z" />
    <glyph glyph-name="a" unicode="a" horiz-adv-x="1776" 
d="M636 1434q237 0 372 -216q156 -157 156 -432q72 -300 144 -300q-24 -102 -24 -120q130 -312 288 -312h24q89 57 108 144q0 157 -144 180q-48 -19 -48 -84q0 -60 72 -60v-36q-5 -25 -60 -48q-96 70 -96 132q31 180 156 180q192 -86 192 -228v-48q-64 -216 -180 -216h-24
q-12 0 -12 12l-24 -12q-147 0 -312 312h-12q-175 -251 -600 -360h-48q-12 0 -12 12q-47 -24 -132 -24q-324 48 -324 120q-96 81 -96 180q0 360 384 600q325 120 432 120h180v24q-220 300 -468 300q-245 0 -396 -192h-12q-17 0 -36 36q48 123 288 264q69 36 264 72zM516 1338
v-12q80 0 228 -48h12l12 60q-9 0 -72 12q0 -17 -36 -36h-24q0 36 -12 36zM840 1302l-36 -48q0 -36 72 -36l12 48zM900 1170q48 -12 48 -48q24 0 24 24v12q-24 29 -24 48h-12q-17 0 -36 -36zM1008 1086v-12q24 -29 24 -48h12v12q-18 48 -36 48zM312 270v-36q0 -117 120 -252
l60 12h12q27 0 48 -12q223 19 588 312q48 69 48 84q-60 238 -132 456q-468 0 -672 -312q-72 -207 -72 -252zM336 714v-12h12q77 31 84 60h-12q-60 -48 -84 -48zM216 594q0 -24 -48 -60v-12h12q84 41 84 60l-24 12h-24zM96 366h12q204 108 204 156v24q-216 -132 -216 -156
v-24zM156 510v-24h12v24h-12zM84 270v-84h24q144 80 144 192h-12q-146 -73 -156 -108zM120 126q0 -17 36 -36q65 0 96 48q-12 21 -12 48h-12q-80 -60 -108 -60zM252 78q0 -19 -24 -48l60 -12h12v12q0 19 -48 48z" />
    <glyph glyph-name="b" unicode="b" horiz-adv-x="1128" 
d="M252 2238h12l24 -12l-12 -24q20 -28 36 -96q-21 -228 -36 -228l12 -24v-36q0 -24 -24 -24q12 -96 24 -96q0 -21 -36 -324q0 -24 12 -24l-12 -84v-192h24q221 348 468 348h72q105 -43 168 -192q36 -43 132 -480h-12l12 -24q0 -9 -12 -72q24 -39 24 -72h-12l12 -24v-48
q0 -132 -36 -132l12 -24q0 -110 -132 -264q-121 -92 -168 -120q-13 0 -36 12q-13 0 -36 -12q-248 0 -516 216v-12l12 -72l-12 -24q12 -21 12 -48v-24q-18 0 -48 -36l-24 12q-21 -12 -48 -12q0 12 -12 12l-48 -48q-48 18 -48 36l36 180q-12 42 -12 48l12 108l-12 24
q12 21 12 48q0 36 -12 36l12 60v156l12 72q-12 20 -12 60v24l12 72q-12 23 -12 36l12 24l-12 24q0 60 24 60l-12 24v168q0 12 12 12l-12 24v36q3 180 24 180l-12 24v12q2 120 24 120l-12 24v84q0 215 24 276q-24 39 -24 72q0 17 36 36l-12 60q0 36 156 84zM180 2130v-60
q-33 -39 -48 -132h24q72 161 72 180v36q-29 -24 -48 -24zM204 1794v-60h12l12 84q-24 -4 -24 -24zM108 1566v-60q12 0 60 120v36q-60 0 -60 -96zM192 1554l-96 -276q12 -48 12 -84h12q96 265 96 360h-24zM624 1326v-12q0 -17 36 -36q0 19 24 48v12zM708 1266q42 -72 60 -72
q0 24 36 144h-24q-48 -72 -72 -72zM528 1266q-258 -267 -312 -396l12 -24v-84q0 -24 -24 -24q12 -23 12 -36q0 -52 -24 -108q12 -21 12 -48l-24 -12q24 -54 24 -156v-60q193 -228 312 -228q0 -17 156 -48h48q180 239 180 588q0 197 -156 468q-57 87 -216 168zM816 1134
q12 -23 12 -36h12q48 146 48 168h-24q-18 0 -48 -132zM900 1110l12 -24q-24 -36 -36 -84q27 0 36 -60h12q0 88 48 120q-24 36 -24 96zM168 1146l-24 -84h24q0 23 24 84h-24zM132 1038l-48 -108q12 -21 12 -48h12l48 156h-24zM948 858l12 -84h12q0 84 48 84q0 22 -24 96
q-48 -7 -48 -96zM144 810q0 -30 -36 -132q12 -21 12 -48q-24 0 -36 -108q12 -21 12 -48h12q33 228 48 228q0 12 -12 12l12 60v36h-12zM1020 738q0 -30 -48 -132v-96l-12 -24h12q41 12 72 144v84q0 24 -24 24zM864 126h12q171 202 180 348q-31 -10 -108 -180q-36 0 -84 -168z
M96 186v-96h12q0 84 12 96h-24z" />
    <glyph glyph-name="c" unicode="c" horiz-adv-x="1128" 
d="M636 1446q305 0 480 -216l12 -60q0 -252 -228 -252h-24q-120 16 -120 120q36 129 96 156h12q17 0 36 -36q-15 -45 -60 -108q0 -66 96 -72q108 60 108 96q0 9 12 72q0 72 -192 192q-12 0 -12 -12q-13 0 -36 12q-360 -96 -360 -204q-144 -156 -144 -504h-12q12 -91 24 -120
q0 -12 -12 -12q82 -480 168 -480q47 -12 96 -12q258 0 348 240q0 19 48 48l24 -36q0 -12 -12 -12l12 -24v-24q-119 -276 -408 -276q-281 0 -396 216q-64 62 -156 372q-12 0 -12 12v84q0 27 -12 48q0 12 12 12q-24 114 -24 144h12l-12 24q0 252 360 528q152 84 276 84z
M600 1362v-12h24v12h-24zM408 1266q4 -24 24 -24q156 93 156 108h-12zM180 1098v-24q51 22 72 72h-12q-36 -48 -60 -48zM84 858v-60q104 116 240 300q36 0 36 48q-24 0 -276 -288zM84 678q12 -23 12 -36h-12q12 -23 12 -36l180 288v12h-12q-64 -58 -180 -228zM144 534
q12 -23 12 -36q-24 -4 -24 -24v-36q4 -24 24 -24q21 4 84 252q12 0 12 60q-22 0 -108 -192zM228 414v-24h12v24h-12zM192 318l12 -60h24l-12 24v12l12 24h-36z" />
    <glyph glyph-name="d" unicode="d" horiz-adv-x="1188" 
d="M1164 2262q4 -24 24 -24q-12 -222 -12 -324v-96l-24 -36l24 -36q-12 -87 -24 -108q12 -21 12 -48v-12q0 -12 -12 -12l12 -24q-12 -66 -12 -96q0 -12 12 -12l-12 -60v-156h24v-36q-24 -34 -48 -108q24 -4 24 -24q0 -12 -12 -12l12 -24v-60q0 -12 -12 -12l12 -24v-240
q0 -12 -12 -12q12 -23 12 -36q0 -21 -24 -72q17 0 36 -72l-12 -60v-168q0 -132 24 -228l-12 -24l24 -48q-17 0 -48 -60q-204 24 -204 60q0 -24 -24 -24q-31 0 -48 84h12l-12 24v132q-202 -252 -312 -252h-84q-12 0 -12 12l-24 -12q-288 67 -288 144q-84 82 -144 384v72
q0 12 12 12l-12 24v96q0 212 144 492q205 252 420 252q146 0 264 -144h24q24 54 24 156v108q0 12 12 12l-12 24v36q4 24 24 24l-24 48l12 144l-12 48q9 48 24 48q0 12 -12 12l12 60v84q0 12 12 12l-12 24l12 24q-17 0 -36 36q0 19 48 48l72 -12zM960 2130v-72q0 -12 -12 -12
l12 -24q-12 -23 -12 -36l24 -12q72 107 72 168zM972 1902q12 0 12 -12q-23 -12 -36 -12v-60q0 -27 -12 -48v-12h12q168 264 180 336h-12q-20 0 -144 -192zM960 1698l12 -24q-24 -34 -48 -108l12 -72q45 0 144 240q0 24 36 24v60q0 12 12 12l-24 48q12 23 12 36
q-12 -3 -156 -216zM1080 1614q-144 -217 -144 -324q0 -49 -12 -96h24q0 61 96 168q0 22 60 156l-12 24q12 21 12 48q0 24 -24 24zM504 1314l-12 -24l72 12v12h-60zM1068 1302q-85 -139 -96 -180h-24l-24 12q0 -24 -12 -24l12 -24v-96q0 -12 -12 -12q12 -23 12 -36
q0 -6 -12 -48q12 -23 12 -36h12q0 34 144 264q0 84 12 96l-12 24q12 21 12 48v12h-24zM372 1206h12q56 48 72 48v12h-12q-64 -24 -72 -60zM288 750l12 -24v-12q0 -12 -12 -12l12 -24v-84q0 -27 -12 -48q12 -21 12 -48v-36q36 0 132 -276q20 0 120 -108q181 0 240 204
q21 0 60 108q-12 63 -12 72l12 24q0 12 -12 12l12 84v12q0 27 -12 48l12 24l-12 24q12 23 12 36q0 12 -12 12q12 120 24 120l-12 24v252q-111 96 -204 96h-60q-210 0 -288 -480h-12zM252 1122q-66 -70 -120 -156v-24h24q0 41 108 180h-12zM300 1086q0 -23 -156 -252
q-72 -130 -72 -192h24q35 92 228 444h-24zM960 786l-24 12h-12q0 -36 -12 -84q12 -48 12 -84h12q156 281 156 348h-12q-48 0 -120 -192zM108 906v-24q24 0 24 24v24q-24 -4 -24 -24zM84 474v-36l12 -60h12q84 324 108 324h12v72q-36 0 -144 -300zM912 474q12 -23 12 -36
l-12 -24q12 -20 12 -60q148 272 156 348v24h-12zM216 522l-60 -228l12 -24q-12 -36 -24 -36q12 -23 12 -36h12q19 0 72 216q12 0 12 12v60q0 17 -36 36zM936 162q12 -15 12 -84h12q55 119 108 300v96q-54 -67 -132 -312zM276 318q0 -48 -48 -192q24 -39 24 -60h12
q0 156 60 156v24q-24 27 -24 72h-24zM348 198q0 -93 -12 -168q13 0 36 -12q0 12 12 12l-12 24q24 49 24 72q-36 12 -36 72h-12zM1056 174q-28 -156 -72 -156v-12l60 -12q36 115 36 180h-24zM456 42v-24q0 -22 108 -36l12 24q-58 0 -120 36z" />
    <glyph glyph-name="e" unicode="e" horiz-adv-x="1308" 
d="M864 1446q141 0 216 -216v-24q0 -181 -480 -420q-59 0 -72 -156q24 0 36 -96q-12 0 -12 -12q19 0 84 -204q135 -216 168 -216q372 53 372 348v36q-12 23 -12 36h-12q-49 0 -132 -84h-24q-24 0 -24 24v24q71 132 192 132q144 -72 144 -168v-60q0 -173 -372 -360l-84 -12
h-132q-306 138 -396 360q-72 153 -84 276l-120 -12q-120 6 -120 60l36 24l108 -12q96 8 96 36q0 12 -12 12q53 386 144 444q163 240 492 240zM552 930v-12l12 -60h24q408 193 408 372q0 49 -108 120h-36q-127 0 -252 -228q-24 -48 -48 -192zM612 1326v-24h12q24 0 24 24h-36
zM324 858l192 300v12q-192 -160 -192 -312zM408 846l24 -12l12 72q-21 0 -36 -60zM444 714l-12 -60q12 -21 12 -48q-6 0 -84 -72q60 -226 156 -288v36l-12 84q12 0 12 12h-12q-30 -24 -36 -24h-12q-21 0 -36 60q36 148 36 276v24h-12zM324 678q12 -23 12 -36h12l12 60h-12
q-24 -4 -24 -24z" />
    <glyph glyph-name="f" unicode="f" horiz-adv-x="1487" 
d="M1068 2586q156 0 156 -276q0 -191 -432 -996q-17 0 -36 -36v-24q207 -120 252 -120q0 -12 132 -24q189 0 396 300h12q27 0 36 -60q-59 -154 -276 -264q-46 -27 -144 -48h-24q-164 0 -204 36h-24v-12q384 -487 384 -924h-12l12 -24v-240q0 -144 -24 -144l12 -24
q-36 -307 -120 -480q-97 -192 -288 -192q-276 0 -336 432h12q-24 63 -24 252v156l12 72l-12 24q16 200 24 216q0 12 -12 12q12 156 36 156l-12 24q0 12 12 12l-12 24q72 617 72 624q-326 -408 -444 -408h-24q-105 0 -168 168l12 24q0 12 -12 12q22 228 204 228h36l12 -60
q-180 -13 -180 -168v-12q12 -132 120 -132q420 341 420 504l-12 24v108q0 12 12 12l-12 24v132q0 27 12 48q-24 58 -24 144q0 37 12 228l-12 24q12 120 36 120l-12 60v36q69 220 144 264q119 156 300 156q0 12 12 12zM780 1902l12 -24v-24q0 -12 -12 -12q0 -12 12 -12
l-12 -60v-36q0 -84 -12 -264h24q0 27 264 528q96 200 96 396v12q0 72 -60 72q-113 0 -216 -216q-72 -85 -72 -240q-10 -120 -24 -120zM672 2094h12q20 0 96 156h24v36q-20 -2 -84 -108q-48 -4 -48 -84zM732 2094v-24q24 0 24 24h-24zM648 1938l12 -24v-216q0 -12 -12 -12
q24 -61 24 -216v-192h12l24 300l-12 24q12 65 12 108v24q-24 48 -36 48q12 149 48 204h-12q-53 -48 -60 -48zM744 1170l12 -120q0 -27 -12 -48q12 -21 12 -48v-24q0 -12 -12 -12l12 -24v-60q0 -27 -12 -48q12 -21 12 -48v-48q0 -27 -12 -48q8 -8 24 -204h-12l12 -24
q12 -434 12 -624l12 -60q0 -12 -12 -12q31 -588 144 -588l24 12q21 -12 48 -12q104 77 168 324q36 194 60 504q0 597 -228 876zM672 798q-12 -167 -24 -228h12q20 0 36 96l-12 24v36q0 12 12 12l-12 24v12l12 24h-24zM648 546q0 -36 -12 -84q24 0 24 36v48h-12zM636 450
q0 -54 -12 -72h24q0 40 12 60zM624 366v-24h12v24h-12zM672 270q-72 -201 -72 -324l12 -24q-12 -23 -12 -36v-12h12q12 86 72 252l-12 24q24 30 24 36l-12 60q12 0 12 12zM684 -78q0 -70 -36 -168h24q24 125 24 132v36h-12zM636 -282q0 -21 -36 -60v-60h24q24 90 24 108v12
h-12zM696 -342q0 -95 -60 -228l12 -24l-12 -24l24 -12q0 137 60 168q-12 3 -12 120h-12zM636 -642v-24h12v24h-12zM720 -690v-60q24 0 24 24v36h-24z" />
    <glyph glyph-name="g" unicode="g" horiz-adv-x="1165" 
d="M1141 1482q24 -49 24 -72l-48 -420q0 -12 12 -12l-12 -60v-852q0 -193 12 -516q0 -357 -300 -600q-158 -108 -324 -108h-12q-84 0 -84 24q-12 0 -12 -12q-188 0 -372 180q-72 179 -72 216h12q-24 39 -24 72v36q0 193 168 348q136 60 192 60q12 0 12 -12q12 0 12 12
q264 -65 264 -312v-24q0 -12 -12 -12l12 -24q-64 -216 -276 -216q-48 18 -48 36l-24 -12q-72 45 -72 60v108q84 108 132 108q108 0 108 -72q-109 -37 -132 -60q12 -84 36 -84q132 0 192 132q0 12 -12 12l12 60q-21 192 -192 192q-23 -12 -36 -12q0 12 -12 12
q-120 -63 -120 -84q-48 -64 -48 -204q0 -396 324 -396q13 0 36 12l24 -12q198 36 288 120q156 187 156 396l-24 636q-147 -168 -324 -168h-72q-444 80 -444 684q0 304 144 516q197 312 384 312q253 -40 348 -120h12l-36 60q0 12 60 60l48 -36zM625 1386v-24h60v24h-60z
M1009 1350l12 -24q-12 -23 -12 -36l24 -12q0 19 24 48v24h-48zM241 1086v-12q32 0 252 240h-12q-240 -200 -240 -228zM373 894q0 -12 12 -12q-8 -96 -24 -96l12 -60v-120q0 -12 -12 -12q24 -41 36 -120h-12q128 -285 288 -420h12q85 0 216 252h12l-12 48q8 96 24 96l-12 24
q8 96 24 96l-12 24q12 63 12 72q0 12 -12 12l12 60v180l12 72q-12 23 -12 36h12l-12 24l12 24q-12 23 -12 36t12 36q0 168 -156 168q-257 0 -360 -264q-52 -156 -60 -156zM1021 1146l-12 -60v-48h24l12 108h-24zM241 990q0 -13 -12 -36h24v36h-12zM205 810q12 0 12 -12
q-36 0 -36 -48l24 -12h12q12 42 12 48q-12 0 -12 12q38 0 60 84q60 0 60 96q-11 0 -132 -168zM1033 978v-12q-24 -205 -24 -252q17 0 36 36v108l12 120h-24zM157 858q52 30 72 84h-12q-60 -17 -60 -84zM157 438l12 -60h12q24 0 108 300l12 72q-42 -17 -144 -312zM133 618
v-48h12q48 123 48 132q-60 -24 -60 -84zM241 330l12 -24q0 -24 -36 -24q20 -66 60 -96h12q0 75 36 252q-12 20 -12 60q-28 0 -72 -168zM997 450v-96q0 -12 -12 -12q0 -12 12 -12l-12 -60v-144l12 -60h-12l12 -24v-120l12 -144h-12q0 -12 12 -12l-12 -72l12 -192
q0 -212 -120 -372h12q144 173 144 480q-12 306 -12 360l12 24q-24 54 -24 156q0 12 12 12l-12 24q8 96 24 96q0 12 -12 12l12 84v24l-12 60q-23 -12 -36 -12zM361 318q-12 -106 -12 -132l24 -12q0 56 24 84v24q0 17 -36 36zM313 126l48 -36l12 60l-24 12q-17 0 -36 -36z
M433 162v-48h48v12q0 17 -36 36h-12zM517 66v-24h24q0 24 -24 24zM13 -594v-120h12v120h-12zM865 -894v-24h12v24h-12z" />
    <glyph glyph-name="h" unicode="h" horiz-adv-x="1840" 
d="M1068 2586q96 0 120 -180v-48q-42 -318 -384 -804h-36l12 -24q-20 0 -36 -84q0 -12 12 -12l-12 -120v-72q0 -12 -12 -12l24 -48l-24 -180q24 -47 24 -132v-12q0 -12 -12 -12q12 -21 12 -48q53 74 132 276q239 330 432 348q0 24 60 24q65 0 144 -168q48 -139 60 -492
q-12 -23 -12 -36q0 -12 12 -12l-12 -72l12 -84q0 -12 -12 -12q26 -516 96 -516q21 0 60 -36q18 2 132 144h12q24 -4 24 -24v-12q0 -117 -180 -192h-60q-24 0 -24 24l-24 -12h-12q-169 0 -228 300l-12 48h12q-30 0 -48 732l12 24q-49 120 -72 120q0 48 -84 48
q-182 0 -432 -660q12 -21 12 -48q0 -12 -12 -12l12 -24v-360q0 -27 -12 -48q12 -21 12 -48v-36q0 -8 -36 -36l-84 12h-180q-24 0 -24 36q24 335 48 408l-12 24l24 216l-12 24q12 21 12 48l-12 24l24 96l-12 24q24 39 24 72v144q0 12 12 12q0 12 -12 12l12 84v36
q-165 -241 -408 -480q-31 -84 -60 -84h-24q-17 0 -36 36q348 384 540 672q0 27 12 48q0 12 -12 12q45 600 84 600l-12 24q47 225 300 468q103 72 156 72zM1056 2502q0 -56 -144 -96q-156 -132 -156 -456v-72q0 -27 -12 -48l12 -24q0 -12 -12 -12l12 -84v-84q192 257 312 552
q24 114 48 144v96l-24 84h-36zM648 1854v-24h12l36 168q-12 23 -12 36q-28 0 -36 -180zM624 1638q0 -12 12 -12l-12 -60v-24q48 0 60 180h-12q-19 0 -48 -84zM600 1170v-12h12q60 188 60 240q-55 0 -72 -228zM1368 1350q0 -45 -24 -72v-60q8 -72 36 -72q36 93 36 168
q0 17 -36 36h-12zM1212 1302v-12q54 0 72 -12l12 60q-60 -36 -84 -36zM1452 1182q-31 -107 -60 -156q12 -8 12 -108h12q60 207 60 252zM660 1146v-24h12v24h-12zM624 1086l-24 12q-12 -102 -12 -156v-24h12q0 51 72 180v12h-12zM1404 774l12 -120h24v48q60 203 60 228v36
q-20 0 -60 -180q-23 -12 -36 -12zM660 942q0 -56 -96 -228v-96h24l84 240v84h-12zM744 786v-24h12v24h-12zM660 678q0 -31 -108 -252q0 -12 12 -12q-24 -96 -24 -156v-24h12q132 328 132 396q-12 21 -12 48h-12zM1476 606v-24h12v24h-12zM1416 486v-12q12 -23 12 -36h-12
q12 -15 12 -84h12q0 36 24 120v12l-24 -12zM660 366q-84 -252 -132 -300v-24h36q108 217 108 276v48h-12zM1452 270v-12q12 -84 36 -84v12q-12 84 -36 84zM636 54l24 -12l12 24v36q-18 0 -36 -48zM1524 90v-24h12v24h-12z" />
    <glyph glyph-name="i" unicode="i" horiz-adv-x="912" 
d="M480 2202q192 -27 192 -180v-12q0 -121 -96 -156q0 -24 -24 -24h-72q-24 0 -96 120l12 60q0 11 -12 96q11 0 96 96zM468 2034v-24l36 -36q65 24 84 72v36q-19 0 -48 24h-12q-18 0 -60 -72zM492 1914q0 -24 36 -24q23 12 36 12v24q-18 -12 -72 -12zM336 1470q12 0 12 -12
l24 12h12q12 0 12 -12l24 12q12 0 12 -12l84 12h72q36 -7 36 -84q0 -72 -12 -216l12 -60q-24 -32 -48 -192l12 -84q-7 -108 -24 -108l24 -48q-12 -23 -12 -36l12 -72l-24 -12q20 -16 60 -444l24 -12l216 360q13 0 36 12l12 -24v-36q-205 -456 -360 -456q-156 12 -156 144
q12 0 12 12q-30 0 -60 312v192q0 12 12 12l-12 24v192q0 12 12 12l-12 24v24q0 43 12 108l-12 24l12 24q0 24 -12 24l12 84v144q-60 -24 -108 -108q-166 -148 -228 -156l-24 36q218 179 324 324l-12 24v12q4 24 24 24zM432 1398v-24h12v24h-12zM420 1050v-12h12
q91 310 108 312h12v36h-24q-27 0 -96 -288q0 -6 -12 -48zM528 1182q-63 -282 -84 -336q-28 0 -36 -96q12 -65 12 -108h24q0 102 96 444q0 11 12 96h-24zM504 750v-24h12v24h-12zM444 222l24 -12q0 136 60 204q0 27 -12 48l12 24q-12 23 -12 36q-36 0 -72 -300zM408 474v-12
h24v12h-24zM516 174v-24h24v24h-24z" />
    <glyph glyph-name="j" unicode="j" horiz-adv-x="1056" 
d="M792 2250h36v-24h96q36 0 84 -156v-24q-60 -144 -156 -144q-144 65 -144 192q28 96 84 156zM804 2046v-12l36 -48q72 24 72 48t-24 24q0 -36 -24 -36h-12q-18 0 -36 48q0 48 96 48v36q-108 -16 -108 -108zM828 1458l84 -12q63 12 72 12l24 -12q21 12 48 12q0 -74 -60 -84
l12 -24v-132q0 -27 -12 -48q0 -12 12 -12q-12 -169 -36 -288q12 -21 12 -48v-12q0 -12 -12 -12l12 -24q0 -54 -12 -156q12 -169 12 -288q0 -13 12 -36l-24 -60l24 -72l-12 -24q12 -21 12 -48q0 -24 -24 -24q20 -44 36 -192h-12l12 -24v-72q0 -57 12 -120q0 -321 -180 -456
q-238 -192 -408 -192q-420 133 -420 480q-12 47 -12 96h12l-12 24q98 288 324 288q60 0 60 -24l24 12q84 0 204 -204q-12 -23 -12 -36l24 -12q0 -224 -204 -276q-127 0 -192 192q60 120 180 120l12 -24v-36q0 -24 -24 -24h-60l-24 -84q24 -48 72 -72h36q98 0 132 156v24
q-45 204 -204 204v12q-189 0 -276 -240v-12l12 -24l-12 -24q0 -286 252 -396q90 -48 180 -48q324 108 324 432v36q0 12 12 12l-12 24v120l-12 120h12q-24 68 -24 192h12l-12 24v12q0 12 12 12l-12 24v120l-12 120h12l-12 24q0 60 12 180q0 11 -12 96q12 42 12 48l-12 72
l12 24q-12 17 -24 132q0 12 12 12l-12 60v84q0 12 12 12q0 12 -12 12l12 120v84q-261 -305 -444 -384h-24q-17 0 -36 36q0 23 96 72q204 128 444 444zM864 1314v-84h12q24 78 24 108h-12q-24 -4 -24 -24zM924 1110q-12 -98 -24 -120h24q0 43 12 108v12h-12zM900 978
q-36 -78 -36 -144v-48h12q0 60 48 192h-24zM900 666q0 -31 -24 -120h24q0 72 24 72q-12 21 -12 48h-12zM876 510v-24h12v24h-12zM864 438v-12h12l12 48q-24 0 -24 -36zM900 222q0 -39 -24 -60l12 -24l-12 -24v-12h12q36 95 36 120h-24zM912 -18q0 -48 -24 -48
q24 -171 24 -420h12q12 149 12 156q-12 231 -12 300q12 0 12 12h-24zM888 -570v-36h12l12 72q-24 0 -24 -36z" />
    <glyph glyph-name="k" unicode="k" horiz-adv-x="1680" 
d="M744 2490q0 -21 120 -48q56 -56 84 -168q0 -200 -420 -732q-48 -4 -48 -84l12 -24q-8 -84 -24 -84q24 -49 24 -72l-12 -24q12 -48 12 -84l-12 -24l12 -24l-12 -24q12 -65 12 -108q0 -6 -24 -36h24q119 203 324 384q123 144 240 144q204 -32 204 -192q17 0 24 -132
q0 -216 -336 -432q-204 -65 -204 -84q156 0 504 -564l156 -48q132 62 204 276v84q-33 144 -132 144h-48q-100 0 -120 -132q0 -77 108 -96h24q0 13 12 36q-24 90 -24 96l24 12h24q36 -7 36 -96q0 -132 -96 -132q-146 0 -192 204q0 138 216 180h12q228 0 228 -276h-12l12 -24
q-66 -227 -240 -336h-48q-120 0 -192 60h-12l12 -24v-12q0 -24 -24 -24q-58 38 -432 432q-133 79 -204 84q-37 0 -60 -48l12 -60q-12 -293 -12 -324q12 0 12 -12q-103 -70 -216 -84l-24 36q10 120 24 120q0 12 -12 12l24 180q-12 21 -12 48l12 60q0 12 -12 12q0 13 12 36
q-12 131 -12 228q48 432 60 432q0 12 -12 12l12 60v108q-144 -151 -264 -336h-36q-17 0 -36 36l336 444v96l-12 72q12 96 24 96l-12 24v60q0 99 48 228l-12 24q88 310 204 372q76 72 168 72zM540 2226q0 -12 12 -12q0 -23 -24 -84l12 -24q-43 -155 -60 -156q12 -36 24 -36
l-24 -108l12 -24l-12 -24q0 -12 12 -12l-12 -84v-60q263 319 384 612q12 23 12 36q-7 156 -120 156q-147 0 -192 -168zM456 2142v-36h12v36h-12zM420 1962q0 -24 -12 -24l12 -24l-36 -132l12 -24q-12 -66 -12 -96q0 -6 12 -48l-24 -48q24 0 24 -36q-12 -23 -12 -36
q24 0 24 24v204q0 12 12 12l-12 24q0 78 24 168h-12l12 24v12h-12zM984 1374h72q24 0 24 24h-72q-24 -4 -24 -24zM948 1374v-12h24v12h-24zM780 1182l-24 12q0 -18 -168 -216l-108 -156q12 -85 12 -96q-12 -23 -12 -36l60 -12h24q504 89 504 324v60q-16 240 -84 240
q-107 -18 -204 -120zM1140 1290l-12 -24v-12l24 -36q23 12 36 12q-31 59 -48 60zM396 1242v-84h12v84h-12zM396 1122v-12q4 -24 24 -24v12q0 24 -24 24zM348 810v-24h12v24h-12zM348 774v-84h12q0 27 12 48q-12 23 -12 36h-12zM336 666q12 -21 12 -48h24q-12 21 -12 48h-24z
M564 582h-60q-24 -4 -24 -24l24 -12l84 12q9 0 72 -12q21 12 48 12v-12q20 12 60 12v12q-33 0 -72 24q-82 -12 -132 -12zM684 522v-12h24v12h-24zM720 522v-12q72 -3 72 -24l24 12l24 -12v24q-43 0 -108 12h-12zM912 390q4 -24 24 -24h24q-24 29 -24 48q-24 -4 -24 -24z
M348 366v-24h12v24h-12zM960 306l156 -204h12l-120 216q-21 -12 -48 -12zM348 258v-36q0 -27 12 -48q-12 -21 -12 -48q0 -13 12 -36q-12 -23 -12 -36h36q0 60 12 60q0 12 -12 12l12 84v48q0 24 -24 24q-24 -4 -24 -24z" />
    <glyph glyph-name="l" unicode="l" horiz-adv-x="1284" 
d="M888 2427h120q120 0 144 -228v-48q0 -27 -12 -48q12 -23 12 -36q-5 -92 -384 -864q-30 -50 -48 -144l24 -84q-12 -60 -24 -60l12 -48q0 -75 -12 -180q20 -648 144 -648q147 0 372 384h12q24 0 36 -84q-279 -384 -432 -384l-84 12l-24 -12q-195 0 -264 312l-24 276
q12 47 12 96v48h-12q-348 -566 -348 -612l-72 -72h-12q-24 0 -24 36q59 122 120 204q0 37 348 588q0 36 12 36l-12 24q12 156 12 252q0 12 12 12q0 12 -12 12l12 60v12q0 36 -12 36l12 60v216l12 72q-12 23 -12 36q0 45 24 252q-12 21 -12 48q81 384 168 384q57 84 216 84z
M756 2079q12 -23 12 -36q0 -144 -24 -144l12 -24q0 -24 -24 -24q12 -36 24 -36l-12 -60l12 -84q-24 -4 -24 -24v-36q0 -27 12 -48l-12 -24q0 -13 12 -36q-8 -96 -24 -96l12 -24v-24l-12 -60q200 359 360 756v120q0 156 -60 156q-45 12 -108 12q-144 -104 -144 -264h-12z
M732 2235q-156 -264 -156 -336v-24h24l-12 24q120 231 156 324v12h-12zM636 2199v-24h12v24h-12zM672 1947q0 -25 -84 -204l12 -24q-28 0 -48 -228h12l24 12l-12 24q120 284 120 420h-24zM660 1587q-78 -261 -96 -264h-12v-24q0 -27 12 -48l-24 -60h24q108 266 108 312v84
h-12zM660 1287q-96 -261 -96 -276q108 135 108 264v12h-12zM660 939q-107 -312 -132 -312l12 -60v-12q0 -12 -12 -12q12 -23 12 -36l-12 -24q12 -23 12 -36h12q120 408 120 468v24h-12zM528 759v-12h12q24 90 24 96q-20 0 -36 -84zM636 591l12 -24v-12q-24 -27 -84 -252
q-12 0 -12 -12l36 -120h12q60 322 60 432zM672 219v-48h12v48h-12zM624 123v-12q36 0 36 -36h24q-24 29 -24 48h-36z" />
    <glyph glyph-name="m" unicode="m" horiz-adv-x="2457" 
d="M285 1536q12 0 12 -12l60 12q221 0 276 -288l12 -72h12q46 152 300 348h48q156 0 252 -240q60 -264 60 -312h24q24 112 108 252q122 300 312 300q204 -52 204 -300q0 -33 24 -72l-12 -24q24 -69 48 -216q-12 -21 -12 -48q36 0 48 -264h-12q24 -48 24 -84h-12
q47 -444 204 -444q27 0 156 96h12q24 0 24 -36q-25 -85 -228 -168q-36 0 -84 -12q-135 0 -336 324l-60 252h12q-24 61 -24 216v60q0 12 12 12l-12 24q0 12 12 12l-12 24l12 24q-24 61 -24 84q12 106 12 132q-27 240 -72 240q-27 0 -48 -12h-36q-240 -504 -240 -516l12 -24
q0 -12 -12 -12q24 -151 36 -312q-24 -4 -24 -24l24 -36v-24q0 -97 36 -324v-12q-9 -45 -108 -72l-24 12l-24 -12q-105 9 -132 36q12 42 12 48l-12 60h12l-12 24v12q0 27 12 48q-12 23 -12 36t12 36l-24 180q0 12 12 12l-12 48q0 249 -36 516h12l-12 24v48q0 188 -60 336
q-127 0 -348 -384l-36 -216l12 -24v-120q0 -12 -12 -12l12 -24v-48q0 -12 -12 -12q0 -12 12 -12l-12 -84v-216q0 -27 12 -48q-12 -23 -12 -36q12 -105 12 -120l-12 -24q12 -21 12 -48q0 -60 -252 -60q-48 18 -48 36v108q0 12 12 12l-12 24v60l12 72q0 12 -12 12l12 60v72
l-12 72l12 24q-12 131 -12 228v120q0 12 12 12q-9 25 -24 132l24 12l-12 24v48q0 27 12 48q-54 288 -72 288q-87 0 -396 -288q-17 0 -36 36q216 308 432 360zM369 1440v-24h12v24h-12zM1701 1416q19 0 48 -24q0 19 24 48h-48q-24 -4 -24 -24zM453 1416l-48 -168v-96h24
q60 177 60 252v12h-36zM1821 1416q-36 -97 -36 -108l12 -84q27 0 60 120q-12 72 -36 72zM1113 1380v-12l24 -48q-12 -23 -12 -36q12 -23 12 -36h24q-18 132 -48 132zM537 1272q-81 -225 -120 -264v-72h24q24 96 120 288q-12 21 -12 48h-12zM1881 1236q-72 -93 -72 -240v-48
q0 -12 -12 -12l12 -24v-12l-12 -24q24 -4 24 -24q-12 -23 -12 -36h36v24q60 230 60 372v24h-24zM1197 1164q0 -36 -48 -144l12 -60h12q0 19 48 168q-12 23 -12 36h-12zM549 1068q-132 -367 -132 -396h24q0 57 120 276l-12 24q24 30 24 36v60h-24zM1233 960q0 -10 -60 -180
q12 -79 12 -156h12q43 144 60 144l-12 24q24 48 24 84q-24 36 -24 84h-12zM1917 948q-53 -254 -96 -312q0 -9 12 -72q-12 -23 -12 -36l24 -12l108 324l-12 24v12q0 12 12 12q-12 20 -12 60h-24zM405 900l24 -12v36q-24 -4 -24 -24zM549 780l-96 -288q0 -12 12 -12l-12 -60
v-24h12q108 300 108 324q-12 20 -12 60h-12zM1965 672q-63 -228 -84 -228l12 -24q-24 -39 -24 -60q24 -39 24 -60h12l72 312v60h-12zM1269 588q0 -72 -24 -72q0 -12 12 -12q0 -49 -36 -168h24q24 132 48 180q-12 21 -12 48l12 24h-24zM537 480v-12h24v12h-24zM537 456
q0 -37 -72 -216q4 -24 24 -24q0 30 72 156l-12 84h-12zM1977 384v-36h24v60q-24 -4 -24 -24zM1293 324q0 -15 -72 -204v-48q84 120 84 180v72h-12zM1929 216h24v24q-24 -4 -24 -24zM441 156v-36h12l12 60q-24 -4 -24 -24z" />
    <glyph glyph-name="n" unicode="n" horiz-adv-x="1548" 
d="M72 1584q66 -12 96 -12l60 12q36 -61 36 -120v-168q0 -24 -24 -24q12 -23 12 -36q0 -9 -12 -72l12 -24q-12 -23 -12 -36q0 -6 12 -48l-12 -24q12 -21 12 -48h24q0 204 348 516q140 36 192 60q243 0 324 -768l-12 -24q0 -60 24 -228h-12q12 -23 12 -36q0 -291 96 -480
q97 0 276 204h24v-12q-119 -288 -264 -288h-36q-12 0 -12 12l-24 -12h-84q-264 111 -264 288q-24 0 -48 240q12 126 12 276h12l-12 24v24q0 27 12 48q0 12 -12 12q8 84 24 84l-12 24q12 120 12 180q-12 23 -12 36h12l-24 48q0 12 12 12q-27 168 -96 168q-217 -61 -372 -300
q-96 -277 -96 -372q0 -94 -24 -180q0 -7 12 -156l-12 -24q12 -34 36 -240h-12q24 -61 24 -84h-12l24 -60l-72 -60h-96q-12 0 -12 12l-24 -12q-55 23 -60 48q12 120 12 180l-12 24q0 12 12 12l-12 60v36q0 84 12 96q-12 82 -12 132v252l-12 120h12q-12 23 -12 36l12 24
q-24 74 -24 96q12 23 12 36l-12 24q12 21 12 48v12q-13 0 -36 12q29 84 48 84l-12 60v48q0 12 12 12l-12 24v120q8 72 36 72zM108 1512v-60h24l-12 60h-12zM792 1464v-12q21 0 60 -36v12q-12 23 -12 36h-48zM180 1452q-83 -151 -84 -252l-24 -12q12 -21 12 -48h24
q60 216 96 276q-12 23 -12 36h-12zM924 1344q0 -60 -24 -60q12 -18 12 -72l48 60q-24 49 -24 72h-12zM900 876l12 -24q0 -23 -24 -84v-12h12q9 60 36 60l-12 24q69 204 84 204q0 12 -12 12l12 48l-12 72q-47 -35 -96 -300zM132 1056q12 -23 12 -36q-36 -60 -60 -60
q0 -30 24 -132h12q0 23 72 276v48q-13 0 -60 -96zM84 1128v-24h12v24h-12zM228 948v-12h24v36q-24 -4 -24 -24zM1020 936q-71 -240 -96 -240q-23 12 -36 12l12 -24v-156q20 8 132 336q0 9 12 72h-24zM108 636l12 -24q0 -52 -24 -96h24l72 300q-26 0 -84 -180zM1044 732
q-108 -240 -108 -336q-24 0 -24 -36q7 -108 36 -108q108 318 108 456v24h-12zM120 348l12 -24l-12 -24l12 -24l-12 -24q12 -20 12 -60h12q20 156 60 156l-12 24v144q-24 0 -72 -168zM984 144q18 -48 36 -48q0 60 12 60l-12 24l24 36v132h24v84q-21 -3 -84 -288zM1092 204
q0 -96 -24 -96q12 -21 12 -48q18 0 36 48q-12 66 -12 96h-12zM168 120q12 -21 12 -48q-36 0 -36 -24v-48h36q24 85 24 96v60q-17 0 -36 -36z" />
    <glyph glyph-name="o" unicode="o" 
d="M528 1572q12 0 12 -12l24 12q181 0 456 -360q60 -153 84 -300q0 -12 -12 -12l12 -60v-60q0 -470 -360 -756l-132 -36v12l-24 -12q-434 0 -576 624q-12 85 -12 144q0 533 360 804q66 -12 96 -12q39 24 72 24zM600 1476q-192 -103 -192 -204q-96 -248 -96 -336h-12l24 -144
l-12 -72q0 -27 12 -48l-12 -24q53 -325 180 -492v-12q-12 -23 -12 -36q49 -35 132 -36q235 0 396 480q0 12 -12 12l36 204q0 509 -420 708h-12zM360 1380q-60 -116 -60 -156q17 1 72 144v12h-12zM192 1284v-24q48 24 48 72q-19 0 -48 -48zM132 1152v-36h12v36h-12zM264 1116
l-60 -228h36q24 196 48 216v12h-24zM84 876v-36h24l24 108q-48 -12 -48 -72zM204 744q12 -25 24 -108h12v12q-12 23 -12 36q12 36 24 36q-12 23 -12 36q12 23 12 36h-12q-12 0 -36 -48zM192 372v-24h12v24h-12z" />
    <glyph glyph-name="p" unicode="p" horiz-adv-x="1272" 
d="M72 1704h36l36 -24h156q32 0 48 -168l-12 -24q0 -13 12 -36q-12 -156 -24 -156l12 -24v-24q0 -27 -12 -48l12 -24q-24 -39 -24 -72q0 -10 12 -96h12q50 205 240 408q46 46 168 120h168q116 0 252 -252l-12 -24q120 -181 120 -540q0 -27 -12 -48q12 -20 12 -60
q0 -219 -228 -528q-171 -144 -312 -144q-396 64 -396 144h-12q-24 -64 -24 -72q12 -150 12 -168l-12 -24l12 -24q-12 -36 -24 -36q12 -60 24 -60l-12 -60v-168q0 -40 -12 -60l12 -72v-120q0 -12 -12 -12q24 -61 24 -84q0 -12 -12 -12q24 -115 24 -180q-18 0 -36 -48
q-288 51 -288 96q9 168 24 168q0 12 -12 12l24 288q-12 82 -12 132h12l-12 24v72q24 86 24 96l-12 48q12 20 12 60q-24 0 -24 24q24 0 24 24l-12 84h12l-12 24q0 30 12 96q-12 66 -12 96l12 24q-12 23 -12 36l12 108q0 11 -12 96l12 120q-12 42 -12 48q12 48 12 84l-12 84
q12 48 12 84l-12 24q0 12 12 12q0 24 -12 24q12 120 12 180v132l12 72l-12 24q12 131 12 228l-12 84zM120 1608q0 -40 -12 -60l12 -24q-12 -91 -24 -120h24q68 180 144 180q0 24 -24 24q-27 0 -48 -12q-14 12 -72 12zM96 1296v-108q156 239 156 312q-34 -28 -156 -204z
M720 1428v-12q33 0 72 -24q0 19 24 48v12h-12zM852 1356q18 -48 36 -48h12q48 92 48 120q-30 24 -36 24q-28 0 -60 -96zM936 1224v-12q4 -24 24 -24q60 108 60 144v24q-37 -11 -84 -132zM84 900h24q36 99 168 384l-12 24q12 23 12 36q-37 -11 -156 -288q-27 0 -36 -156z
M612 1296h-12l-24 12q-216 -280 -216 -516q-48 -18 -48 -36l24 -36q-21 -120 -36 -120l12 -60v-36l-12 -24l24 -12q0 -9 -12 -72q0 -278 180 -312q0 -26 228 -72q228 300 228 528v192q0 12 12 12l-12 24v48q-72 516 -252 516q-40 0 -84 -36zM1056 1248q0 -24 -72 -144
q24 -44 24 -96q32 0 84 180v36q0 24 -24 24h-12zM252 1080q-91 -206 -156 -312v-144h12q0 95 168 372l-12 60l12 24h-24zM1116 1056l-84 -168q12 -132 36 -132q0 24 72 180q0 12 -12 12l12 60v24q0 24 -24 24zM96 468q12 -21 12 -48q0 -12 -12 -12q0 -12 12 -12
q0 -23 -24 -84q24 -50 24 -204q36 19 84 168v12h-12q0 -24 -12 -24q-36 12 -36 24l120 420q12 65 12 108h-12q-84 -127 -120 -300q-18 0 -36 -48zM1080 672l12 -24q0 -36 -48 -36l12 -24l-12 -108v-12h12q120 211 120 276l-12 60q-10 0 -84 -132zM900 132h24
q228 320 228 336v24q-12 0 -96 -144q-48 -15 -156 -216zM240 456v-24h12v24h-12zM216 384v-24q24 0 24 24h-24zM156 48l12 -24q-60 -136 -60 -336q15 0 72 204q29 0 72 216v108q-11 0 -96 -168zM216 -192q-108 -416 -108 -432v-12h12q96 286 120 432zM228 -504v-24h12v24
h-12zM204 -576l-72 -252q12 -21 12 -48q-36 -7 -36 -96v-12q13 0 36 -12q40 179 60 180q0 12 -12 12q24 83 24 144v84h-12z" />
    <glyph glyph-name="q" unicode="q" horiz-adv-x="1251" 
d="M588 1632q312 -135 312 -312h12v48q0 27 -12 48q20 180 72 180l72 -12q15 0 120 12q0 -12 12 -12q0 -12 -12 -12l12 -84q0 -228 -24 -228q12 -23 12 -36l-12 -24q0 -12 12 -12l-36 -360q12 -21 12 -48q-24 -85 -24 -96q0 -6 12 -48l-12 -24q0 -12 12 -12l-24 -216
q0 -12 12 -12l-24 -156q12 -20 12 -60v-12q0 -12 -12 -12q12 -36 24 -36q-24 -116 -24 -132q12 -102 12 -156l-12 -24q12 -21 12 -48q0 -13 -12 -36l24 -144l-24 -12q36 -256 96 -516q-24 -4 -24 -24v-24q312 194 312 252q4 24 24 24h12q24 -4 24 -24v-72
q-267 -219 -552 -336q-60 0 -60 216q-12 0 -24 120h12l-12 24q0 12 12 12l-12 24q-12 268 -12 432q0 27 12 48q-12 21 -12 48v108q0 12 12 12q0 12 -12 12l12 84v336l12 24h-24q-100 -160 -156 -228q-118 -113 -300 -156q-234 0 -408 480q-24 146 -24 288q0 610 420 876
q65 36 168 48zM984 1512q12 -63 12 -120h12q0 41 36 96v24h-60zM708 1464q4 -24 24 -24h12q0 24 -24 24h-12zM252 720q0 -326 324 -576l-24 -36v-12h24q252 136 252 456q39 250 84 336q-12 66 -12 96h12l-12 24v204q-210 186 -276 192q-176 0 -312 -228q-60 -203 -60 -456z
M1080 1284q0 -31 -96 -312h24q24 168 84 168v144h-12zM204 1080q-108 -197 -108 -252h-12q12 -20 12 -60q120 168 120 300v12h-12zM1008 828l12 -24q-24 -39 -24 -60q26 2 72 72v108l12 60q-29 0 -60 -156h-12zM144 744v-24q24 0 24 24h-24zM120 684v-60h12l12 84
q-24 -4 -24 -24zM984 708v-24h12v24h-12zM1056 708q0 -6 -12 -48h24v48h-12zM1044 636l-72 -276l12 -24q0 -21 -24 -72q12 -21 12 -48h12l84 384q-12 23 -12 36h-12zM180 600q-33 -144 -60 -144l12 -24q0 -27 -12 -48q18 -48 36 -48l48 228q-12 23 -12 36h-12zM888 504v-36
h12v36h-12zM876 456v-24h12v24h-12zM240 420l-48 -144l36 -24h12q0 36 12 36l-12 24l24 48l-12 60h-12zM300 276l-12 -60q19 0 48 48l-24 12h-12zM372 192v-72l24 12h24q36 0 36 -48h60v12q-24 0 -132 96h-12zM1032 180q-31 -204 -72 -204l12 -60v-12q0 -12 -12 -12
q12 -20 12 -60h12q0 50 36 96q-12 23 -12 36q0 22 36 168v48h-12zM1020 -180v-36h12v36h-12zM1008 -228q-36 -216 -48 -216q12 -23 12 -36h12q0 21 24 60l-12 72q0 24 36 24v96h-24zM1032 -504q0 -36 -12 -36q12 -23 12 -36q-41 -96 -48 -96q12 -18 12 -72q47 72 60 72
l-12 24v48q0 12 12 12q-12 15 -12 84h-12zM1056 -852v-72h36q-16 72 -36 72zM1080 -1044h48q0 24 -24 24q-24 -4 -24 -24z" />
    <glyph glyph-name="r" unicode="r" horiz-adv-x="1320" 
d="M600 1608l12 -24v-24q0 -12 -12 -12q0 -12 12 -12q-12 -93 -36 -132q24 -4 24 -24v-36q0 -12 -12 -12q0 -12 12 -12l-12 -120v-36h12q228 318 228 420h36q17 0 120 -180q19 0 48 -24h24q101 0 192 156l48 36q24 -4 24 -24q0 -88 -216 -360q-138 -72 -180 -72
q-112 0 -168 120h-24l-156 -240l12 -84l-12 -108l12 -24l-12 -24q12 -82 12 -132v-48q0 -12 -12 -12l12 -24l-12 -24l12 -24q0 -12 -12 -12q15 -146 24 -168l-12 -24l12 -24q-12 -23 -12 -36q19 0 72 -216l-48 -60q-132 0 -228 -24l-36 48v24q0 12 12 12l-12 24
q-36 594 -36 648q12 23 12 36q-12 20 -12 60q0 12 12 12l-12 60v120q0 27 12 48q-12 21 -12 48v60q0 12 12 12q-12 90 -36 168l24 12l-12 24l12 24q-12 23 -12 36h12q-12 21 -12 48h-12q-83 -112 -228 -192q-13 0 -36 -12l-24 36v24q93 0 336 288h12l36 -24h36zM384 1368
v-144q0 -12 -12 -12q12 -23 12 -36h12q137 312 144 312q-12 23 -12 36h-48q-12 0 -96 -156zM372 1512q0 -13 -12 -36h24v36h-12zM972 1332q0 -13 -12 -36q64 0 84 -36q39 24 60 24v24l-24 -12q-40 0 -96 36h-12zM516 1320q-87 -202 -108 -228l-24 12l-12 -24q0 -19 12 -144
q-12 -23 -12 -36h24q0 45 132 360l-12 24l12 24v12h-12zM564 1152v-24h24v24h-24zM384 792v-12q0 -27 12 -48q-24 -61 -24 -84q75 74 156 432q-21 -9 -120 -288h-24zM504 780q-84 -187 -84 -240q0 -31 -36 -84q24 -125 24 -132h12q96 329 96 420v36h-12zM492 396
q0 -58 -60 -228h36q21 88 48 120q0 12 -12 12l12 60v12q0 24 -24 24zM552 60v-24h12v24h-12z" />
    <glyph glyph-name="s" unicode="s" horiz-adv-x="1044" 
d="M372 1494h180q173 -81 240 -204l24 12q-24 49 -24 72l24 12h24q24 0 72 -168l-60 -48q0 24 -24 24q0 -24 -24 -24q-102 168 -180 168q0 30 -144 36q-108 0 -180 -288q0 -149 96 -204q120 24 216 24h24q251 0 384 -228q0 -12 -12 -12q36 -58 36 -156q0 -291 -372 -480
q-52 -24 -192 -24l-60 12q-23 -12 -36 -12q-145 22 -276 132q-12 -192 -60 -192q-17 0 -36 36v84l12 72l-12 24q12 21 12 48q-12 23 -12 36h12q-24 58 -24 144l24 12q72 0 72 -96q100 -228 348 -228h84q264 24 264 240h12q-57 468 -384 468q-45 12 -108 12l-84 -12v12
l-24 -12q-204 92 -204 276q20 172 156 336q142 96 216 96zM264 1314q12 -23 12 -36h24q0 71 108 156h-12q-9 0 -132 -120zM252 1218v-24h12v24h-12zM132 1146q0 -24 -48 -60v-84h12l48 132v12h-12zM216 1146v-12h24v12h-24zM96 990v-12q0 -17 36 -36v36q-13 0 -36 12z
M216 966l12 -60v-12q0 -24 -36 -24v-12h108q-73 108 -84 108zM588 834v-12q58 0 132 -72l12 60l-36 24h-108zM804 786q-36 -67 -36 -96q23 -55 48 -60q24 85 24 132zM900 690q0 -19 -60 -144q12 -15 12 -84q27 6 84 180q-18 48 -36 48zM876 354q0 -6 12 -48q-12 -23 -12 -36
v-12h12l84 216q-12 21 -12 48q-16 0 -84 -168z" />
    <glyph glyph-name="t" unicode="t" horiz-adv-x="1089" 
d="M456 2094q24 -4 24 -24l60 12h36q12 0 12 -12q44 24 96 24q12 -23 12 -36q0 -186 -36 -288l12 -24q-12 -36 -24 -36q12 -23 12 -36l-12 -24q69 -132 192 -132q132 -33 132 -48q132 27 132 72v48q0 17 -36 36h-12q0 -84 -84 -84q-113 0 -132 180q61 120 168 120h24
q144 -120 144 -348q-82 -96 -192 -96q-126 24 -336 108q0 -36 -12 -36q12 -36 24 -36l-12 -60v-96q0 -12 -12 -12l12 -24q0 -12 -12 -12q0 -12 12 -12l-12 -60l12 -120l-12 -60l12 -24l-12 -24l12 -72h-12l12 -24q0 -18 -12 -168l12 -84h-12l12 -24v-12q0 -36 -12 -36
l12 -60v-180q0 -96 108 -96q148 136 336 348h12l24 -12q-20 -146 -360 -408q-43 -36 -204 -72q-180 63 -180 252q-12 0 -12 36q0 12 12 12q-21 54 -36 288l12 24l-12 24l12 24q-12 21 -12 48q0 12 12 12q0 12 -12 12q9 132 24 132l-12 24v216q0 27 12 48q0 12 -12 12l12 120
v120q-93 -112 -132 -216q-169 -168 -192 -168q-48 18 -48 36v12q222 126 324 444l48 108l-60 12q-204 -20 -204 -204q-9 -60 -36 -60q-19 0 -48 48v24q0 12 12 12q0 12 -12 12q0 197 276 252l72 -12h24q7 252 36 252q0 17 -48 84q39 24 72 24zM576 1962h24l24 12
q-12 20 -12 60q-24 0 -36 -72zM492 2010v-60h12l12 60h-24zM540 1914q-48 -168 -48 -192v-12h12q48 135 48 180v24h-12zM588 1830q0 -126 -60 -132v-12h48q15 72 36 72l-12 24q12 21 12 48h-24zM924 1710q22 -96 48 -96h24q0 53 72 60q-33 96 -84 96q-32 -8 -60 -60z
M444 1626v-48q24 0 24 24v24h-24zM492 1566l12 -24l-24 -36l12 -60q-44 0 -60 -156v-12h12q22 96 48 96l-12 24q60 129 60 192h-12zM564 1494l-144 -468l12 -120q13 0 60 156l-12 24q60 221 108 300q0 11 -12 96q12 0 12 12h-24zM552 1194q4 -24 24 -24l12 24h-36zM540 1134
l12 -24q0 -41 -84 -360v-12h12l96 288q-12 3 -12 120zM456 474q12 0 12 -12q-24 -4 -24 -24q12 -23 12 -36h12q48 164 72 288q13 0 36 12l-12 24v12q0 12 12 12l-12 24q12 23 12 36q-57 -84 -108 -324q-12 0 -12 -12zM552 474l-24 -108l48 36q-12 18 -12 72h-12zM480 270h24
v24q-24 -4 -24 -24z" />
    <glyph glyph-name="u" unicode="u" horiz-adv-x="1440" 
d="M456 1494q35 -49 36 -132h-12q24 -47 24 -132v-204l12 -60q-24 -4 -24 -24v-24q36 -48 36 -144h-12q24 -52 24 -192v-156q0 -12 -12 -12l12 -24v-12q0 -248 120 -336v-12h-24v-12h24q468 340 468 696q-12 23 -12 36q12 63 12 72l-12 24l12 24l-12 24q12 60 24 60l-12 24
v36q0 12 12 12q-12 23 -12 36q0 130 48 336h132q0 36 24 36h24l60 -72l-12 -120q0 -13 12 -36q-12 -82 -24 -108l12 -72v-36q0 -12 -12 -12l12 -24v-12q0 -12 -12 -12l12 -24q-9 -132 -24 -132l12 -24v-60l-12 -24q24 -4 24 -24v-96q0 -27 12 -48l-24 -48q12 -23 12 -36
q0 -12 -12 -12l48 -492q-48 -9 -48 -24q-42 12 -48 12q-164 -12 -204 -12q-24 24 -36 144q12 23 12 36l-12 24l12 72v12l-12 60h12q-12 23 -12 36q24 132 24 144h-24q0 -50 -84 -144q-262 -360 -528 -360q-114 46 -168 144q-36 132 -60 312q0 12 12 12q-24 116 -24 324v96
q0 243 36 456q-12 23 -12 36q12 23 12 36h-24q0 -39 -132 -144q0 -45 -96 -108q-17 0 -36 36q63 53 300 372q66 -12 96 -12q39 24 60 24zM360 1398q0 -43 -12 -108v-12h12q0 48 24 48l-12 72h-12zM1308 1326v-24h12v24h-12zM1296 1290q0 -36 -72 -168l12 -24
q-36 -44 -36 -84v-24h12l108 288zM420 1050v-12h24v12h-24zM420 1002l-36 -168l36 24l24 -12v12l-12 144h-12zM1236 954q12 -23 12 -36q-24 -39 -24 -60v-12h12q24 78 24 108h-24zM324 930v-48h12v48h-12zM444 834q0 -13 -12 -36h24q0 13 12 36h-24zM1200 498q12 -23 12 -36
q-24 -4 -24 -24v-48h24l96 300l24 132h-12q-29 0 -120 -324zM300 798v-24q24 0 24 24h-24zM372 798q-36 -135 -36 -180h24q0 96 36 144q-12 23 -12 36h-12zM1188 798l-12 -72h12l24 12l-12 24q24 30 24 36h-36zM444 786q0 -33 -36 -144l12 -24l-24 -48q0 -12 12 -12
l-36 -180l12 -24l-12 -60v-24h12q0 175 84 228q0 117 12 120q-24 53 -24 168h-12zM324 558v-24h24q0 24 -24 24zM1320 546q-60 -131 -84 -252l12 -24v-12q0 -21 -72 -60q12 -36 24 -36l-12 -60v-24h24q120 314 120 432v36h-12zM1188 378v-24h12v24h-12zM456 282v-24h12v24
h-12zM444 246v-12q12 -23 12 -36h24v12q-12 23 -12 36h-24zM1320 222l-12 -60v-12h12q0 33 24 72h-24zM516 6v-12h60q0 17 -36 36q-24 -4 -24 -24zM1248 -6v-24h12v24h-12z" />
    <glyph glyph-name="v" unicode="v" horiz-adv-x="1548" 
d="M276 1470q0 -32 168 -72l24 12q74 0 96 -240q0 -164 144 -504q-12 -23 -12 -36q17 0 36 -36v-60q24 0 144 -216q79 -106 180 -180q0 45 252 456q120 274 120 564h12q0 204 -72 204h-48q-60 0 -132 -96h-12v-120q4 -24 24 -24h60q47 36 72 36l12 -24q0 -24 -24 -24l12 -24
q-12 -36 -72 -36h-48q-120 51 -120 132v36q78 168 168 204q139 24 168 24q100 0 120 -228q-18 -132 -48 -132l12 -24v-24q-21 -27 -60 -300q-63 -177 -264 -480q-11 -95 -312 -408l-24 -12q-36 120 -144 264q-189 283 -372 972q0 19 -24 48h12q-60 160 -60 204v24h-12
q-193 -216 -216 -216q-17 0 -36 36v12q75 67 180 228q64 60 96 60zM336 1350v-24q0 -33 24 -72q-12 -23 -12 -36l24 -12q0 120 48 120h24v12l-84 12h-24zM444 1302v-36h12v36h-12zM444 1254v-24h12v24h-12zM420 1194l12 -60h12v60h-24zM420 1098v-60h12v60h-12zM468 882v-24
h12v24h-12zM504 714v-12q0 -17 36 -36v48h-36zM600 714v-12l12 -72h12q0 24 12 24q-24 39 -24 60h-12zM600 582v-12q12 -23 12 -36h12v48h-24zM684 510v-24h12v24h-12zM612 474v-24h12v24h-12zM696 474q0 -84 -12 -84q48 -141 48 -168l24 12l-12 24v96l-36 120h-12zM804 234
q4 -24 24 -24v48q-24 -4 -24 -24zM912 150v-24h12v24h-12zM828 138v-60h12v60h-12zM888 18v-12h24v12h-24z" />
    <glyph glyph-name="w" unicode="w" horiz-adv-x="2040" 
d="M1248 1491q32 -40 72 -168q-12 -23 -12 -36q21 -3 96 -276q120 -254 180 -444q24 0 144 -288h12q126 221 216 480q0 12 -12 12q24 145 24 324q-46 288 -108 288h-36q-111 0 -156 -120v-24q27 -108 60 -108h36q29 24 48 24q23 -12 36 -12q0 -96 -120 -96q-100 0 -144 180
q51 228 204 228h72q141 0 180 -408q0 -378 -204 -720q-174 -312 -276 -312q-214 234 -408 756q0 97 -48 120q0 -265 -240 -696q-72 -51 -72 -96q24 -4 24 -24q-42 -72 -60 -72q0 29 -96 48q-144 372 -144 444q-72 82 -192 840q-12 0 -12 36h-36l-216 -204h-36q-24 0 -24 24
q227 264 300 264q0 12 12 12h24l36 -24q102 12 156 12q20 -28 84 -396h-12l72 -312h-12q36 -130 108 -300q24 -96 48 -96q120 209 192 648q0 12 -12 12q24 162 24 348v72q4 24 24 24q60 -3 60 -24q134 60 144 60zM1116 1383v-12q0 -15 12 -120h12l12 120v12h-36zM1212 1383
q0 -40 -12 -60l24 -12h12v48q0 24 -24 24zM396 1371l48 -216h12v12q-12 65 -12 108v12q0 12 12 12q-16 72 -36 72h-24zM1188 1299q0 -48 -12 -48l12 -60v-48l-12 -60l24 -12l-24 -48q24 -116 24 -132h12q0 48 12 48l-12 24q12 23 12 36q0 12 -12 12q12 108 24 108
q-12 23 -12 36l12 60q-12 84 -36 84h-12zM1260 1059l12 -24v-108l-12 -24q24 0 24 -36l-12 -24q24 -39 24 -72h12v252q0 27 -12 48q0 12 12 12q-12 48 -12 84q-22 0 -36 -108zM1080 1095v-60h24q-12 20 -12 60h-12zM480 1011l36 -156h24q-15 15 -24 168q-23 -12 -36 -12z
M1104 927q4 -24 24 -24v24h-24zM1356 915q12 -91 24 -120l-12 -24q12 -102 36 -180h12l-12 144v84q-24 86 -24 96h-24zM1212 807v-12q4 -24 24 -24v12q0 24 -24 24zM552 759v-36q24 -76 24 -96q-12 -21 -12 -48q36 0 36 -36h24l-12 24v84q0 28 -48 108h-12zM1248 747v-48
q22 0 72 -144q45 -52 108 -228q48 -44 48 -72h12v12l-228 480h-12zM1452 711v-24l12 -60h24v12l-24 36l12 24zM1476 615v-72h24v12q-12 23 -12 36q12 0 12 12zM948 531v-12q24 0 24 24v12q-24 -4 -24 -24zM1488 507v-36h12v36h-12zM1560 459v-120h12q24 0 24 36
q-24 36 -24 84h-12zM900 411h24v24q-24 -4 -24 -24zM744 267v-24q24 0 24 24h-24z" />
    <glyph glyph-name="x" unicode="x" horiz-adv-x="2004" 
d="M1656 1500q138 0 168 -144q-15 -60 -36 -60h-24q-18 0 -36 48l12 24q0 38 -84 60q-294 0 -384 -180q-92 -87 -120 -204q107 -139 372 -564q180 -213 264 -348q21 0 60 -24q81 192 96 192h24q24 -4 24 -24l-12 -24q24 -4 24 -24q-95 -179 -180 -276l-84 -12h-12
q-122 0 -516 528q-156 244 -204 276q-66 -109 -192 -372l-192 -312q-132 -120 -348 -120q-216 40 -216 132q-19 0 -24 108q0 96 120 96q36 0 96 -24q-24 -84 -36 -84q-39 24 -72 24q-18 0 -36 -48q70 -120 144 -120v-12q317 0 420 276q213 338 288 528q-305 458 -540 552
q-173 -37 -276 -120q-29 -72 -72 -72l12 -24v-48q0 -19 -48 -48q-36 39 -36 60q28 152 180 264q141 66 276 84q48 -12 84 -12q31 0 84 36q242 0 420 -264q48 -62 48 -96h24q161 372 540 372zM684 1392q0 -60 -36 -60h-12l-24 12v-24q24 0 72 -48h24q0 29 48 96q0 24 -72 24z
M564 1368l36 -24v48h-12q-24 -4 -24 -24zM744 1260l12 -24q-12 -23 -12 -36l48 -36h12q48 111 48 156v12q-24 0 -24 12q-13 0 -84 -84zM912 1260q-36 -144 -84 -144q12 -48 60 -48q36 75 60 168zM984 1164q-60 -137 -60 -156q24 0 24 -60q24 0 24 24v108q0 33 60 36
q0 19 -48 48zM1044 1044v-12h24v36q-24 -4 -24 -24zM1152 912q-12 -108 -36 -108q22 -132 60 -132h12q27 132 36 132l-60 108h-12zM1056 864v-24h12v24h-12zM1224 600q12 -39 72 -96q0 13 -12 36q12 82 12 132v48q-21 -2 -72 -120zM1356 576v-108h-36v-12q46 -70 72 -72
q0 107 12 144zM1464 444l12 -60l-12 -24l24 -48q-12 -23 -12 -36l36 -24l-12 60v12l24 36q-46 84 -60 84zM1584 252v-36q0 -115 156 -192v12q-39 27 -108 180z" />
    <glyph glyph-name="y" unicode="y" horiz-adv-x="1452" 
d="M360 1554l36 -24l36 24q25 -5 48 -60l-36 -504q12 -23 12 -36q0 -12 -12 -12q79 -708 168 -708q60 -78 60 -120q192 66 336 396q96 310 168 612q24 239 24 324q-12 21 -12 48l24 12h12q52 0 96 -24q65 12 108 12q24 -4 24 -24q0 -180 -24 -180l12 -24q0 -31 -24 -144
q12 -48 12 -84q-24 -4 -24 -24l12 -60h-12l24 -60q-12 -21 -12 -48q0 -12 12 -12q-12 -108 -24 -108l12 -24v-36q0 -27 -12 -48q12 -12 24 -192q-12 -82 -12 -132q0 -12 12 -12q-15 -134 -24 -168q0 -12 12 -12q-15 -372 -48 -372q0 -12 12 -12q-22 -147 -48 -156l12 -24
q-81 -300 -276 -444q-125 -132 -288 -132q0 -28 -180 -36h-24q-358 0 -456 324q-24 44 -24 96q0 316 312 408l24 -12l24 12q68 0 144 -96q18 0 60 -120q0 -247 -204 -288h-36q-96 72 -96 144q0 124 168 156h36l12 -72q-49 -24 -72 -24v12q-48 -12 -48 -72v-36q0 -17 36 -36
h24q56 25 108 120v48q-19 180 -180 180q-240 -79 -240 -336l12 -24q-12 -23 -12 -36q132 -252 288 -252q19 -12 192 -24q23 12 36 12v-12q276 69 276 120q252 143 252 612v192q0 12 12 12l-12 24v36q0 12 12 12q-12 23 -12 36q0 12 12 12l-12 60q0 36 12 36l-24 168
q12 21 12 48q-12 23 -12 36h12q-24 72 -24 312l-12 60q12 0 12 12l-24 12q-140 -529 -336 -684q-121 -96 -168 -96h-48q-295 0 -384 408q0 12 12 12q-36 160 -60 432q0 12 12 12l-12 60v264q0 43 12 108q-12 23 -12 36h-12q-64 -48 -108 -48h-24q-17 0 -36 36q0 18 132 48
l36 48q-17 0 -36 36q0 36 192 48q0 17 36 36zM252 1446q12 -18 12 -72h12l12 72h-36zM1284 1434v-144h12q0 40 36 84v48q-42 12 -48 12zM384 1362q0 -37 -48 -180h12q48 0 48 132v48h-12zM1248 942q12 -8 12 -108h12q72 412 96 432v12h-12q-65 -55 -108 -336zM228 1062
q14 0 48 108v12q-30 0 -48 -120zM288 1050v-36h12v36h-12zM372 1026q0 -30 -24 -132q36 7 36 84v48h-12zM1332 942q-36 -205 -72 -252v-24q0 -27 12 -48l-12 -24q12 -48 12 -84h12l60 384v48h-12zM252 894v-96h12l12 84v12h-24zM336 870l-12 -72q24 0 24 36v36h-12zM384 714
q0 -45 -24 -72v-48q19 0 48 -24v24q0 15 -12 120h-12zM288 642v-24h12v24h-12zM1344 582v-24h12v24h-12zM408 522v-36l12 -84h12v72q-12 42 -12 48h-12zM1272 474l-12 -48q12 -66 12 -96q-12 0 -12 -12q20 0 36 -84q-12 -21 -12 -48v-36l24 12q0 12 -12 12l36 168v84
l-36 -24q-24 0 -24 24q12 23 12 36v12h-12zM1320 474v-24h12v24h-12zM324 450v-24q12 -85 12 -96h24q-12 120 -36 120zM348 306q76 -132 108 -132v12q0 120 -108 120z" />
    <glyph glyph-name="z" unicode="z" horiz-adv-x="1548" 
d="M228 1494q60 -15 60 -36q12 0 12 12q156 -24 156 -36q12 0 12 12l372 -36l24 12q138 -12 156 -24l24 12q192 -24 384 -24h12q27 0 48 12l60 -24q0 -62 -216 -204q-173 -149 -480 -516q-197 -253 -492 -576v-12h276q27 0 48 -12q12 0 12 12l60 -12q151 0 600 -12v-12
q84 21 84 48v156q0 12 12 12l-12 24q24 48 72 48l12 -24v-300l-36 -60l-60 36q-66 0 -168 -12l-24 12q-12 0 -12 -12q-107 24 -288 24h-192l-72 12l-24 -12l-240 24q-128 -48 -264 -60q-144 24 -144 72l540 708q0 16 576 600v12q-54 0 -72 12q-12 0 -12 -12l-120 12h-48
q-12 0 -12 12q-23 -12 -36 -12l-72 12q-13 0 -36 -12q-238 12 -420 36q-36 -67 -36 -96l12 -24l-12 -24l12 -60l-36 -24q-36 0 -60 156v132q1 17 60 48zM1368 1326v-24h24v24h-24zM1116 1182v-12h24v12h-24zM984 1098v-12h12q23 12 36 12v12h-12q-23 -12 -36 -12zM852 918
q-23 12 -36 12q-129 -156 -168 -156v-24h12q288 216 336 216l-12 24zM720 654l12 -24l-24 -36h24q0 27 72 108h-12q-61 -48 -72 -48zM516 582h12q96 69 96 84q0 24 -24 24q-50 -26 -84 -108zM492 390q12 -23 12 -36q156 156 156 168h-12l-144 -132h-12zM360 378v-24
q136 95 156 132q-147 -53 -156 -108zM264 246q-62 -82 -120 -144v-24h12l144 156q-13 0 -36 12zM228 66v-12q19 0 48 48v12q-19 0 -48 -48z" />
    <glyph glyph-name="braceleft" unicode="{" horiz-adv-x="3684" 
d="M1200 258q-186 -288 -312 -288h-12q-228 0 -276 456v360q0 12 12 12q0 12 -12 12l12 84v156q-204 -285 -396 -324q-216 45 -216 180l12 24l-12 24q0 162 156 264h84q18 0 48 -48v-84q0 -24 -24 -24h-12q-18 0 -36 36v12l12 24q-24 12 -36 12q-111 0 -120 -228
q0 -75 156 -120q225 87 336 312q60 171 60 240l-12 24l12 72q0 24 -24 24q-120 -66 -120 -180h-24q-48 18 -48 36q0 138 228 228l24 156l-12 24q9 84 24 84l-12 24v72q-72 0 -72 24q0 12 108 84h12q18 0 36 -36l156 60q12 -36 24 -36q-27 -264 -36 -288q12 -24 12 -36
q0 -18 -12 -168l12 -120q48 0 48 -36h24l-12 84v48q0 15 132 132h48q96 -36 96 -180v-36q-78 -156 -192 -156h-12q-45 0 -132 60v-168l-12 -72q12 -24 12 -36l-12 -24l12 -24q-12 -48 -12 -84q0 -12 12 -12q0 -12 -12 -36q-12 -333 -12 -552v-84q0 -126 48 -156
q123 0 348 588l60 90l-3 -171q-33 -63 -129 -315zM2784 306l-108 396q0 12 12 12l-12 60v120q0 453 264 516h12l48 -12l24 12q216 -84 216 -264v-72q0 -252 -276 -636q33 -126 276 -336h24q171 0 348 516q3 60 36 60q36 -12 36 -72q-123 -423 -360 -564l-132 -48
q-261 0 -384 228l-27 78q3 3 3 6zM2472 -54q0 -27 -156 -48q-228 90 -228 420q-18 0 -36 156h12l-12 24v36q0 12 12 12q-12 24 -12 36l12 144l-12 24q12 108 24 108l-12 60v132l-12 84h12q0 96 -84 96q-18 0 -168 -264q-132 -327 -180 -540l-24 -12q0 -12 12 -12
q-36 -159 -36 -216v-84l-12 -24q18 0 36 -36v-24q0 -36 -252 -60l-24 36v120q0 12 12 12l-12 24q9 84 24 84l-12 60v300q-3 0 -15 -21l3 171l12 18l-12 24l12 24l-12 24l24 60q-12 60 -24 60l12 60v396q0 27 12 48q-12 24 -12 36q21 192 36 192q-12 24 -12 36q0 27 12 48
q-12 66 -12 96q0 396 360 396q192 0 192 -300v-24q0 -207 -372 -972l12 -24q12 -258 12 -372l-12 -48v-12h12q168 531 336 768q162 156 228 156q66 12 96 12q120 -135 120 -360q-12 -45 -12 -96q0 -12 12 -36q-24 -126 -24 -252q24 -249 36 -264q0 -12 -12 -12
q69 -396 120 -396q264 150 309 270l27 -78q-210 -276 -336 -276zM1500 2010v-12h12q0 30 156 180v12q-75 0 -168 -180zM1740 2130q-153 -144 -180 -144l12 -24q-63 -75 -96 -276l36 -192q0 -12 -12 -12l24 -120l-12 -24q12 -21 12 -48q0 -12 -12 -12q12 -144 36 -144
q300 642 300 828v84q0 57 -36 84l-60 -12q0 12 -12 12zM744 1926v-216h12q0 18 84 228h-12zM840 1794v-36h12v36h-12zM780 1494l60 -36v24q0 12 -12 12l12 60v60q-27 0 -60 -120zM1032 1410q72 -27 72 -48q-45 -36 -72 -36v-12h48q72 39 96 132q0 75 -60 108
q-84 -42 -84 -144zM1404 1422l-12 -48l12 -108h24l24 12q-36 57 -36 144h-12zM756 1410q-60 -234 -60 -264v-12h12q96 234 96 252v12q-27 0 -48 12zM2184 1362v-12q12 -24 12 -36q-42 -96 -60 -96l12 -24q-12 -36 -24 -36q12 -18 12 -72q18 0 72 216q24 0 24 24zM2052 1290
q48 0 48 -48q27 0 36 108q-84 -45 -84 -60zM2772 1050v-12q12 0 36 -12q-33 -42 -48 -300q12 -18 12 -72h12q0 108 36 108v36q0 36 -12 36q36 381 96 444q36 0 36 48h-12q-39 0 -84 -108q-12 0 -72 -168zM828 1290q-84 -174 -168 -516q12 -21 12 -60h12q87 387 168 504
l-12 24v12l12 24zM2892 1122l12 -24v-12l-24 -36v-12q0 -27 12 -48q-12 -36 -24 -36l12 -24v-72q0 -51 12 -132l-12 -24q33 -69 60 -192h12q225 402 228 516v84q-27 180 -132 180h-36q-54 -27 -120 -168zM2244 1230q0 -69 -108 -312q-15 -300 -36 -300q24 -45 24 -96h-12
q24 -69 36 -204h12q0 60 12 60l-12 24q96 384 120 516h-24q-60 -246 -84 -252q-18 0 -36 36q108 318 132 480v48h-24zM1404 1182v-72h12v72h-12zM672 1098v-36h12q0 12 12 36h-24zM1392 1074v-36h24q-12 24 -12 36h-12zM828 1062q-36 -159 -36 -204q30 24 48 24v60l12 120
h-24zM2268 966v-24h12v24h-12zM720 654v-12h12q0 9 60 204q-33 0 -72 -192zM816 762q-48 -252 -84 -324v-12h12q27 96 72 96v84q0 102 24 156h-24zM1416 750l-12 -60v-48h12q12 66 12 96v12h-12zM1476 690l-72 -384q33 0 84 336h12q-12 21 -12 48h-12zM672 498l24 -12
q0 72 24 72l-12 24l24 48h-12q-21 0 -48 -132zM2784 606v-24h12v24h-12zM2256 582l-36 -168v-12h12q36 144 36 168v12h-12zM2808 498v-24h12v24h-12zM2280 390q-12 -87 -24 -108l12 -24q-12 -21 -12 -48h24q0 30 24 60q-12 63 -12 120h-12zM2208 366v-24h12v24h-12zM696 342
q0 -30 24 -132h12q0 108 12 144q-21 -12 -48 -12zM2160 306v-36q0 -75 96 -240h12v144l-24 -12h-24q-24 0 -24 36q12 105 12 120q-21 -12 -48 -12zM756 162q24 -54 48 -60h12q-12 15 -12 84q-48 -9 -48 -24zM1416 162q0 -12 -12 -36l12 -60h12l12 84v12h-24zM3048 150
q33 -60 48 -60h12v12q0 18 -48 48h-12zM2328 30v-24q3 -24 24 -24h24v12q-24 30 -24 60q-24 -3 -24 -24z" />
    <glyph glyph-name="quoteleft" unicode="&#x2018;" horiz-adv-x="288" 
d="M156 1851h60q0 -27 12 -48l-12 -24q0 -6 12 -48q0 -9 -12 -72q12 -48 12 -84h-12l12 -24v-156l24 12h36q0 -60 -84 -120q-24 29 -24 48l-24 -12h-36q-27 0 -48 12q-23 -12 -36 -12q-24 91 -24 228h12l-12 24v84q0 12 12 12l-24 120l36 24h12q12 0 12 -12q58 14 96 48z
M60 1755q12 -15 12 -84h12q0 23 24 84h-48zM156 1551v-36h24v12q0 24 -24 24zM96 1407v-24h12v24h-12z" />
    <glyph glyph-name="quoteright" unicode="&#x2019;" horiz-adv-x="288" 
d="M132 1287h-60q0 27 -12 48l12 24q0 6 -12 48q0 9 12 72q-12 48 -12 84h12l-12 24v156l-24 -12h-36q0 60 84 120q24 -29 24 -48l24 12h36q27 0 48 -12q23 12 36 12q24 -91 24 -228h-12l12 -24v-84q0 -12 -12 -12l24 -120l-36 -24h-12q-12 0 -12 12q-58 -14 -96 -48z
M228 1383q-12 15 -12 84h-12q0 -23 -24 -84h48zM132 1587v36h-24v-12q0 -24 24 -24zM192 1731v24h-12v-24h12z" />
    <glyph glyph-name="quotedblleft" unicode="&#x201c;" horiz-adv-x="564" 
d="M372 1851q0 -84 120 -108q46 -81 60 -240l-12 -24l24 -96q-12 -21 -12 -48l12 -24l-72 -60h-108q-12 0 -12 12l-24 -12q-24 0 -24 24v48q0 12 12 12l-36 228l12 24q-12 21 -12 48q0 12 12 12q0 12 -12 12l12 84v72q0 21 60 36zM48 1815q39 -24 72 -24q6 0 48 12
q36 -67 36 -96h-12q12 -25 36 -240h-12q24 -61 24 -84h-12l24 -60q-63 -84 -180 -84q0 -12 -12 -12q-24 0 -24 24v36q0 12 12 12q-24 49 -24 72h12l-12 24v60q0 12 12 12l-12 24v108q0 43 -12 108q12 21 12 48q-24 0 -24 24q0 30 48 36zM72 1731v-144q0 -43 12 -108l-12 -24
q24 -61 24 -84q-12 0 -12 -12h24q0 31 24 120q-17 0 -36 36v24q0 59 36 120q-12 21 -12 48q12 0 12 12q-40 0 -60 12zM348 1695v-24h12v24h-12zM408 1683q0 -13 -12 -36h12q24 0 24 24zM348 1515q4 -24 24 -24v24h-24zM360 1467v-12h24l-12 -24q10 -108 36 -108h12
q0 13 12 36q-30 0 -36 48l24 48q-27 0 -48 12h-12z" />
    <glyph glyph-name="quotedblright" unicode="&#x201d;" horiz-adv-x="564" 
d="M252 1815v-72l12 -84q-12 0 -12 -12q12 0 12 -12q0 -27 -12 -48l12 -24l-36 -228q12 0 12 -12v-48q0 -24 -24 -24l-24 12q0 -12 -12 -12h-108l-72 60l12 24q0 27 -12 48l24 96l-12 24q14 159 60 240q120 24 120 108q60 -15 60 -36zM564 1779q0 -24 -24 -24q0 -27 12 -48
q-12 -65 -12 -108v-108l-12 -24q12 0 12 -12v-60l-12 -24h12q0 -23 -24 -72q12 0 12 -12v-36q0 -24 -24 -24q-12 0 -12 12q-117 0 -180 84l24 60h-12q0 23 24 84h-12q24 215 36 240h-12q0 29 36 96q42 -12 48 -12q33 0 72 24q48 -6 48 -36zM432 1719q0 -12 12 -12
q0 -27 -12 -48q36 -61 36 -120v-24q-19 -36 -36 -36q24 -89 24 -120h24q0 12 -12 12q0 23 24 84l-12 24q12 65 12 108v144q-20 -12 -60 -12zM204 1695v-24h12v24h-12zM132 1671q0 -24 24 -24h12q-12 23 -12 36zM192 1515v-24q20 0 24 24h-24zM192 1467q-21 -12 -48 -12
l24 -48q-6 -48 -36 -48q12 -23 12 -36h12q26 0 36 108l-12 24h24v12h-12z" />
  </font>
</defs>
</svg>
