<?xml version="1.0" standalone="no"?>
<!DOCTYPE svg PUBLIC "-//W3C//DTD SVG 1.1//EN" "http://www.w3.org/Graphics/SVG/1.1/DTD/svg11.dtd" >
<svg>
<metadata>
Created by FontForge 20120731 at Sat Oct 19 14:49:54 2019
 By www-data
(c) 2008 The Monotype Corporation. All Rights Reserved.
</metadata>
<defs>
<font id="MVBoli" horiz-adv-x="1083" >
  <font-face 
    font-family="MV Boli"
    font-weight="400"
    font-style="italic"
    font-stretch="normal"
    units-per-em="2048"
    panose-1="2 0 5 0 3 2 0 9 0 0"
    ascent="1638"
    descent="-410"
    x-height="934"
    cap-height="1462"
    bbox="-480 -583 2460 2102"
    underline-thickness="100"
    underline-position="-290"
    slope="-16"
    unicode-range="U+0020-FDF2"
  />
<missing-glyph horiz-adv-x="2048" 
d="M256 0v1536h1536v-1536h-1536zM384 128h1280v1280h-1280v-1280z" />
    <glyph glyph-name="uniFDF2" unicode="&#xfdf2;" horiz-adv-x="1677" arabic-form="isolated" 
d="M834 1464q38 0 38 -28q0 -190 -7 -235.5t-42 -45.5q-39 0 -39 43l9 211q0 55 41 55zM1581 1274q66 0 66 -76q0 -334 -25.5 -597.5t-55 -304t-69.5 -40.5q-30 0 -50 19.5t-20 46.5q0 29 17 88q53 191 53 737q0 55 22 91t62 36zM807 846q-28 -70 -102 -70q-40 0 -69.5 38
t-29.5 89q0 46 15 81t27 50t34 15q23 0 23 -25q0 -16 -17 -45q-14 -26 -14 -66q0 -45 45 -45q24 0 39.5 14.5t15.5 39t1.5 47.5t8.5 39t23 16q33 0 33 -23q0 -120 57 -120q47 0 47 59q0 27 -11 70q-7 26 -7 37q0 30 26 30q15 0 22 -14.5t15 -57t8 -69.5q0 -148 -106 -148
q-60 0 -84 58zM389 166q-64 -77 -155 -125.5t-160 -48.5q-29 0 -46.5 20.5t-17.5 48.5q0 31 16.5 55t43.5 31q264 81 301 330q3 27 23 45.5t46 18.5q74 0 74 -60q0 -200 92 -200q57 0 93 82t36 180q0 106 72 106q41 0 55 -15.5t20 -66.5q15 -157 42.5 -204.5t70.5 -47.5
q61 0 92 48.5t43.5 205t12.5 314.5q0 80 69 80q25 0 49.5 -17.5t24.5 -44.5q0 -178 -14.5 -385t-98.5 -328.5t-200 -121.5q-70 0 -125.5 47t-75.5 125q-73 -207 -209 -207q-133 0 -174 135z" />
    <glyph glyph-name=".notdef" horiz-adv-x="2048" 
d="M256 0v1536h1536v-1536h-1536zM384 128h1280v1280h-1280v-1280z" />
    <glyph glyph-name=".null" horiz-adv-x="0" 
 />
    <glyph glyph-name="nonmarkingreturn" horiz-adv-x="1024" 
 />
    <glyph glyph-name="space" unicode=" " horiz-adv-x="1000" 
 />
    <glyph glyph-name="exclam" unicode="!" horiz-adv-x="745" 
d="M807 1405q0 -42 -41 -127q-31 -65 -122.5 -309.5t-111.5 -302.5t-36 -142q-13 -65 -90 -65q-99 0 -99 98q0 103 122.5 395.5t188.5 401t127 108.5q62 0 62 -57zM475 162q0 -69 -53 -119.5t-121 -50.5q-52 0 -88.5 36.5t-36.5 88.5q0 69 55.5 121.5t122.5 52.5
q52 0 86.5 -37t34.5 -92z" />
    <glyph glyph-name="quotedbl" unicode="&#x22;" horiz-adv-x="928" 
d="M631 1401q0 -21 -39 -103q-85 -169 -148 -411q-15 -64 -98 -64q-98 0 -98 86q0 69 117.5 313t187.5 244q78 0 78 -65zM1081 1401q0 -25 -39 -103q-84 -169 -147 -411q-16 -64 -98 -64q-99 0 -99 86q0 69 117.5 313t188.5 244q77 0 77 -65z" />
    <glyph glyph-name="numbersign" unicode="#" horiz-adv-x="1407" 
d="M504 881q-139 -21 -168 -21q-98 0 -98 68q0 56 55.5 77.5t273.5 32.5q76 191 142 307.5t122 116.5q46 0 46 -24q0 -36 -10.5 -65.5t-43.5 -98.5q-39 -83 -96 -225q228 8 346 8q115 278 165.5 342.5t88.5 64.5q57 0 57 -41q0 -16 -43 -108t-108 -254h131q90 0 90 -74
q0 -49 -49 -66.5t-156 -17.5h-73q-45 -119 -109 -330q81 2 221 2q78 0 78 -73q0 -84 -113 -84q-146 0 -229 -2q-51 -191 -76 -348q-10 -70 -86 -70q-39 0 -63.5 23t-24.5 59q0 96 70 334l-328 -6q-53 -184 -84 -342q-5 -30 -39 -49t-67 -19q-74 0 -74 78q0 60 82 323
l-176 -14q-58 0 -58 92q0 36 46.5 56t240.5 26q81 239 117 322zM1012 901q-233 -4 -340 -10q-59 -161 -109 -328l330 8q44 134 115 318q1 2 2 6t2 6z" />
    <glyph glyph-name="dollar" unicode="$" horiz-adv-x="1147" 
d="M823 1286q48 105 81.5 146t68.5 41q43 0 43 -27q0 -45 -49 -143q83 4 131 4q42 0 67 -21.5t25 -52.5q0 -39 -25 -77t-80 -38q-75 6 -202 6q-66 -159 -121 -323q282 -99 282 -297q0 -124 -123.5 -223t-338.5 -138l-21 -104q-4 -27 -34 -43t-62 -16q-57 0 -57 69
q0 26 12 78h-43q-133 0 -223.5 40t-90.5 97q0 34 20 57t54 23q23 0 77 -15q119 -34 228 -34h21q49 177 123 389q-277 97 -277 270q0 115 135.5 205t378.5 127zM641 840q58 159 107 274q-126 -20 -190 -63t-64 -88q0 -42 33.5 -70t113.5 -53zM711 637q-60 -199 -90 -320
q110 29 174.5 76.5t64.5 93.5q0 51 -36 84t-113 66z" />
    <glyph glyph-name="percent" unicode="%" horiz-adv-x="1438" 
d="M614 1464q93 0 158.5 -62.5t65.5 -141.5q0 -169 -115 -294.5t-283 -125.5q-97 0 -162 64.5t-65 156.5q0 145 121 274t280 129zM586 1325q-92 0 -147.5 -78.5t-55.5 -165.5q0 -42 27.5 -72t66.5 -30q73 0 132 86t59 168q0 33 -23 62.5t-59 29.5zM145 70q0 23 13 46
q26 47 220.5 270.5t401.5 428.5q280 277 415 399q209 189 242 207.5t60 18.5q23 0 45.5 -21.5t22.5 -54.5q0 -27 -62 -78q-328 -273 -649 -610t-510 -590q-64 -90 -127 -90q-31 0 -51.5 21.5t-20.5 52.5zM1194 616q93 0 158 -62t65 -142q0 -169 -114.5 -294.5t-282.5 -125.5
q-97 0 -162 64.5t-65 156.5q0 145 120.5 274t280.5 129zM1165 477q-92 0 -147 -78.5t-55 -165.5q0 -41 27 -71.5t67 -30.5q72 0 131 86.5t59 167.5q0 33 -23 62.5t-59 29.5z" />
    <glyph glyph-name="ampersand" unicode="&#x26;" horiz-adv-x="1499" 
d="M520 838q-45 123 -45 233q0 155 137.5 274t343.5 119q111 0 203 -77.5t92 -180.5q0 -122 -114.5 -219.5t-382.5 -214.5q71 -138 260 -354q171 154 254 315q19 45 69 45q34 0 64.5 -24.5t30.5 -57.5q0 -25 -21 -65t-99 -132.5t-186 -191.5q128 -106 275 -121
q90 -8 90 -108q0 -35 -24.5 -58.5t-63.5 -23.5q-197 0 -418 194q-122 -92 -263 -143t-267 -51q-143 0 -274.5 106.5t-131.5 255.5q0 143 117.5 263t353.5 217zM694 909q190 84 278.5 152.5t88.5 144.5q0 36 -29 63t-76 27q-130 0 -210 -61.5t-80 -163.5q0 -70 28 -162z
M582 698l-4 -2q-176 -75 -255 -155.5t-79 -182.5q0 -87 71.5 -137.5t157.5 -50.5q183 0 395 135q-191 208 -286 393z" />
    <glyph glyph-name="quotesingle" unicode="'" horiz-adv-x="457" 
d="M631 1401q0 -21 -39 -103q-85 -169 -148 -411q-15 -64 -98 -64q-98 0 -98 86q0 69 117.5 313t187.5 244q78 0 78 -65z" />
    <glyph glyph-name="parenleft" unicode="(" horiz-adv-x="1090" 
d="M623 -393q0 -29 -26 -48.5t-75 -19.5q-58 0 -138 89t-134.5 241t-54.5 313q0 319 156 600.5t402 481.5t408 200q32 0 51 -17t19 -42q0 -32 -18.5 -52t-69.5 -36q-119 -37 -300 -195.5t-316.5 -425t-135.5 -514.5q0 -133 49.5 -264.5t120.5 -204.5q62 -64 62 -106z" />
    <glyph glyph-name="parenright" unicode=")" horiz-adv-x="1090" 
d="M565 1395q0 29 26.5 48t74.5 19q58 0 139.5 -91.5t134.5 -242.5t53 -309q0 -318 -156 -600t-402 -482t-408 -200q-32 0 -51 17.5t-19 42.5q0 35 21 54t67 34q120 37 299.5 194t316 424t136.5 516q0 137 -50 267.5t-120 201.5q-62 62 -62 107z" />
    <glyph glyph-name="asterisk" unicode="*" horiz-adv-x="754" 
d="M696 1122q158 -129 158 -186q0 -25 -18 -42t-43 -17q-41 0 -94 51.5t-105 95.5q-26 -105 -41 -197q-15 -75 -74 -75q-69 0 -69 90q0 55 30 176q-26 -15 -53 -35q-89 -68 -135 -68q-70 0 -70 68q0 21 27 44.5t217 123.5q-63 40 -98 57q-60 32 -60 74q0 27 21.5 44t50.5 17
q57 0 178 -86q37 104 63 155.5t54 51.5q37 0 49 -13.5t12 -45.5q0 -42 -37 -158q168 53 203 53q62 0 62 -55q0 -51 -87 -78t-141 -45z" />
    <glyph glyph-name="plus" unicode="+" horiz-adv-x="1147" 
d="M729 647q-57 -269 -57 -356q0 -28 -35.5 -46t-71.5 -18q-40 0 -65 20t-25 50q0 107 57 344q-141 -3 -244 -14q-60 -6 -81 -6q-57 0 -57 100q0 39 55.5 62t372.5 28q100 339 127 379.5t79 40.5q82 0 82 -39q0 -21 -15 -64t-85 -311q189 6 311 6q78 0 78 -78
q0 -92 -115 -92q-130 0 -311 -6z" />
    <glyph glyph-name="comma" unicode="," horiz-adv-x="745" 
d="M291 -8q-51 6 -83 41t-32 84q0 69 55.5 121.5t122.5 52.5q57 0 89 -40t32 -112q0 -114 -101.5 -264.5t-174.5 -150.5q-24 0 -43 17.5t-19 39.5q0 28 13 47t55 49q61 44 86 115z" />
    <glyph glyph-name="hyphen" unicode="-" horiz-adv-x="942" 
d="M819 834q68 0 68 -74q0 -54 -23.5 -85.5t-64.5 -31.5q-230 0 -414 -20q-85 -11 -135 -11q-66 0 -66 97q0 32 26 58.5t64.5 35t226 20t318.5 11.5z" />
    <glyph glyph-name="period" unicode="." horiz-adv-x="745" 
d="M631 713q0 -69 -53 -119.5t-121 -50.5q-52 0 -88.5 36.5t-36.5 88.5q0 69 55.5 121.5t122.5 52.5q52 0 86.5 -37t34.5 -92z" />
    <glyph glyph-name="slash" unicode="/" horiz-adv-x="1053" 
d="M1276 1380q0 -36 -82 -96q-310 -278 -592 -653t-383 -539q-30 -49 -56 -70.5t-69 -21.5q-32 0 -53 23t-21 55q0 35 18 68q40 75 241 352q146 200 266 343q187 222 375.5 412.5t215 200.5t64.5 10q26 0 51 -23t25 -61z" />
    <glyph glyph-name="zero" unicode="0" horiz-adv-x="1438" 
d="M1442 997q0 -221 -126.5 -461.5t-322.5 -392t-383 -151.5q-194 0 -313 129.5t-119 357.5q0 218 132.5 452t336 383.5t383.5 149.5q192 0 302 -125t110 -342zM373 455q0 -128 67.5 -209.5t173.5 -81.5q141 0 289.5 131.5t246 338.5t97.5 390q0 129 -56.5 198.5
t-162.5 69.5q-146 0 -300.5 -126.5t-254.5 -327t-100 -383.5z" />
    <glyph glyph-name="one" unicode="1" horiz-adv-x="827" 
d="M655 1264q-28 -9 -109 -40q-177 -67 -222 -67q-31 0 -47.5 18.5t-16.5 43.5q0 70 63 106t262 85.5t240 49.5q62 0 62 -57q0 -41 -43 -115q-102 -174 -247 -573.5t-179 -644.5q-5 -38 -34.5 -58t-68.5 -20q-88 0 -88 80q0 131 145 541t283 651z" />
    <glyph glyph-name="two" unicode="2" horiz-adv-x="1368" 
d="M399 223q62 4 95 4q84 0 280.5 -17.5t299.5 -34t128 -32t40 -42t15 -56.5q0 -25 -37.5 -51.5t-70.5 -26.5q-39 0 -119 19q-135 33 -323.5 50t-350.5 17q-72 0 -149 -22q-43 -15 -84 -15q-25 0 -43.5 15t-18.5 41q0 92 142.5 223.5t401.5 264.5q317 163 419 273t102 216
q0 97 -75.5 168t-188.5 71q-104 0 -192 -35t-171 -128q-34 -38 -63 -38q-36 0 -65 25.5t-29 58.5q0 102 161.5 195.5t379.5 93.5q187 0 312.5 -113t125.5 -292q0 -178 -136.5 -327.5t-510.5 -328.5q-160 -77 -275 -176z" />
    <glyph glyph-name="three" unicode="3" horiz-adv-x="1368" 
d="M1032 739q84 -35 136.5 -115t52.5 -159q0 -210 -162.5 -341.5t-421.5 -131.5q-202 0 -372.5 101t-170.5 212q0 39 27 70t63 31q67 0 88 -41q113 -201 373 -201q182 0 281.5 81.5t99.5 205.5q0 64 -39.5 110t-94.5 63t-202 17q-39 0 -62.5 26.5t-23.5 61.5q0 32 29.5 58
t81.5 26q40 0 76 -2l71 -6q16 0 104.5 36.5t138.5 96t50 137.5q0 90 -77.5 150.5t-205.5 60.5q-220 0 -335 -153q-31 -43 -80 -43q-38 0 -63 23t-25 61q0 89 161 186.5t365 97.5q194 0 324.5 -105t130.5 -261q0 -119 -83 -212.5t-235 -140.5z" />
    <glyph glyph-name="four" unicode="4" horiz-adv-x="1397" 
d="M1106 743q166 5 205 5q36 0 53.5 -13.5t17.5 -54.5q0 -51 -31 -81t-85 -30q-141 0 -219 -2q-90 -266 -110 -397q-17 -108 -36 -143t-82 -35q-43 0 -66.5 28.5t-23.5 75.5q0 101 131 467q-481 -12 -571 -12q-48 0 -81.5 36t-33.5 81q0 53 114 247.5t262 354.5t234 160
q84 0 84 -52q0 -35 -49 -69q-132 -91 -269.5 -300.5t-162.5 -287.5q86 0 537 16q112 301 185.5 462t110.5 211t87 50q53 0 53 -57q0 -33 -45.5 -130.5t-96.5 -230.5z" />
    <glyph glyph-name="five" unicode="5" horiz-adv-x="1368" 
d="M506 887q138 63 293 63q206 0 333.5 -124t127.5 -287q0 -239 -181.5 -393t-490.5 -154q-209 0 -354.5 103t-145.5 208q0 45 25 80t61 35q74 0 88 -39q86 -213 367 -213q192 0 314 111.5t122 242.5q0 115 -73.5 185.5t-233.5 70.5q-81 0 -205 -39q-101 -32 -156 -32
q-33 0 -57.5 25t-24.5 61q0 59 49.5 220.5t88 238.5t76 117t66.5 48.5t294.5 26.5t468.5 18q36 0 54 -13.5t18 -55.5q0 -51 -32 -82t-85 -31q-380 0 -674 -27q-79 -163 -133 -364z" />
    <glyph glyph-name="six" unicode="6" horiz-adv-x="1368" 
d="M430 770q222 137 391 137q207 0 331 -110t124 -299q0 -199 -194 -352.5t-416 -153.5q-225 0 -361.5 132.5t-136.5 336.5q0 211 128 456t334.5 396t432.5 151q124 0 246.5 -66.5t122.5 -142.5q0 -100 -89 -100q-58 0 -124 70q-27 28 -84 47.5t-111 19.5q-168 0 -320 -133
t-274 -389zM801 737q-86 0 -170 -27t-167.5 -81.5t-92.5 -89.5t-9 -78q0 -138 81 -217.5t223 -79.5q154 0 284.5 102t130.5 232q0 239 -280 239z" />
    <glyph glyph-name="seven" unicode="7" horiz-adv-x="1225" 
d="M1135 1292h-752q-44 0 -70 27t-26 67q0 34 20.5 57t54.5 23l701 -8l252 8q94 0 94 -71q0 -26 -37 -70q-263 -289 -494 -639.5t-339 -601.5q-21 -47 -51 -70.5t-68 -23.5q-98 0 -98 90q0 25 17.5 83t189 324t329.5 471.5t277 333.5z" />
    <glyph glyph-name="eight" unicode="8" horiz-adv-x="1346" 
d="M831 805q310 -204 310 -391q0 -113 -83.5 -210t-224 -154.5t-274.5 -57.5q-205 0 -340 103t-135 247t98 251.5t328 229.5q-117 106 -117 252q0 166 153.5 277.5t368.5 111.5q157 0 285 -77t180 -213q44 4 66 4q61 0 61 -68q0 -125 -149 -125q-141 0 -527 -180zM678 907
q249 117 528 215q-56 170 -307 170q-123 0 -218 -66t-95 -151q0 -99 92 -168zM657 719q-193 -98 -285.5 -189t-92.5 -188q0 -67 68 -122.5t212 -55.5q155 0 271 75.5t116 174.5q0 78 -65.5 143t-223.5 162z" />
    <glyph glyph-name="nine" unicode="9" horiz-adv-x="1368" 
d="M1087 668q-69 -56 -164 -89.5t-178 -33.5q-198 0 -328 115.5t-130 295.5q0 195 178.5 350.5t425.5 155.5q217 0 345 -120.5t128 -317.5q0 -222 -125 -475t-332.5 -406t-451.5 -153q-103 0 -170.5 31t-67.5 81q0 42 23 67.5t61 25.5q33 0 95 -18q54 -15 79 -15
q163 0 340 141t272 365zM766 715q31 0 63 5t64 15.5t62.5 25.5t59.5 33.5t55.5 41.5t57 58t36 72t5.5 58q0 266 -278 266q-182 0 -296 -104t-114 -230q0 -112 80 -176.5t205 -64.5z" />
    <glyph glyph-name="colon" unicode=":" horiz-adv-x="745" 
d="M668 840q0 -68 -53 -119t-121 -51q-52 0 -88.5 36.5t-36.5 88.5q0 68 55 121t123 53q52 0 86.5 -37t34.5 -92zM475 162q0 -69 -53 -119.5t-121 -50.5q-52 0 -88.5 36.5t-36.5 88.5q0 69 55.5 121.5t122.5 52.5q52 0 86.5 -37t34.5 -92z" />
    <glyph glyph-name="semicolon" unicode=";" horiz-adv-x="745" 
d="M668 840q0 -68 -53 -119t-121 -51q-52 0 -88.5 36.5t-36.5 88.5q0 68 55 121t123 53q52 0 86.5 -37t34.5 -92zM291 -8q-51 6 -83 41t-32 84q0 69 55.5 121.5t122.5 52.5q57 0 89 -40t32 -112q0 -114 -101.5 -264.5t-174.5 -150.5q-24 0 -43 17.5t-19 39.5q0 28 13 47
t55 49q61 44 86 115z" />
    <glyph glyph-name="less" unicode="&#x3c;" horiz-adv-x="1147" 
d="M420 725q167 -89 349.5 -176t231.5 -103q39 -10 39 -63q0 -42 -20 -68t-57 -26q-30 0 -118 41l-196 94l-266 133q-158 80 -178.5 93.5t-28.5 30.5t-8 46q0 32 11 52t34 34t156 69l339 138q204 83 310 121.5t137 38.5q29 0 46.5 -29.5t17.5 -69.5q0 -53 -89 -84
q-91 -26 -322 -114.5t-388 -157.5z" />
    <glyph glyph-name="equal" unicode="=" horiz-adv-x="1147" 
d="M1067 1018q78 0 78 -78q0 -92 -115 -92q-157 0 -372 -9t-298 -18q-60 -6 -81 -6q-58 0 -58 100q0 33 35.5 52.5t101 26t324.5 15.5t385 9zM1006 629q77 0 77 -78q0 -92 -112 -92q-158 0 -374 -9t-300 -18q-58 -6 -78 -6q-59 0 -59 100q0 33 35 52.5t100.5 26t325 15.5
t385.5 9z" />
    <glyph glyph-name="greater" unicode="&#x3e;" horiz-adv-x="1147" 
d="M883 741q-168 90 -350.5 176.5t-231.5 102.5q-16 5 -27.5 23t-11.5 40q0 42 20 68.5t58 26.5q30 0 117 -41l197 -95l266 -133q157 -80 177.5 -93.5t29 -30.5t8.5 -46q0 -43 -21 -66t-125 -66l-321 -132q-216 -89 -352 -138.5t-169 -49.5q-28 0 -45.5 29t-17.5 69
q0 54 88 84q92 26 323 114.5t388 157.5z" />
    <glyph glyph-name="bracketleft" unicode="[" horiz-adv-x="885" 
d="M262 -268q50 -2 141 -7l151 -11q61 -4 73.5 -10t21.5 -18t13 -27t4 -32q0 -33 -30 -60.5t-79 -27.5q-36 0 -246 9t-237 25.5t-27 57.5q0 43 57.5 293.5t153.5 598.5t185.5 606.5t107.5 282.5t49 36t70 12q110 0 231 -4.5t148.5 -13.5t39 -27.5t11.5 -48.5q0 -94 -103 -94
q-54 0 -142.5 6t-156.5 6q-92 -223 -250 -798t-186 -754z" />
    <glyph glyph-name="backslash" unicode="\" horiz-adv-x="1053" 
d="M772 0q-108 0 -119 78q-30 252 -111.5 590t-200.5 609q-38 86 -38 109q0 39 29.5 58.5t56.5 19.5q41 0 59.5 -7.5t34.5 -45.5q61 -138 113.5 -294t114 -379.5t101.5 -416.5t40 -239q0 -32 -23 -57t-57 -25z" />
    <glyph glyph-name="bracketright" unicode="]" horiz-adv-x="885" 
d="M721 1272q-338 7 -373 23.5t-35 74.5q0 36 30.5 62t78.5 26q73 0 238 -5t203 -10t51.5 -21.5t13.5 -49.5q0 -58 -119 -456q-123 -410 -191 -672.5t-135 -568.5q-14 -62 -26.5 -85t-36 -37t-53.5 -14q-373 0 -430.5 17t-57.5 75q0 39 27.5 68t75.5 29q43 0 141 -5.5
t172 -5.5q209 944 426 1555z" />
    <glyph glyph-name="braceleft" unicode="{" horiz-adv-x="934" 
d="M422 551q51 -20 79.5 -72.5t28.5 -107.5q0 -98 -61 -334q-33 -128 -33 -191q0 -48 50.5 -86.5t195.5 -48.5q66 -5 66 -84q0 -34 -29.5 -61t-79.5 -27q-160 0 -274.5 87t-114.5 208q0 84 43 250q51 199 51 264q0 51 -46 85.5t-128 41.5q-28 3 -49 26t-21 50q0 84 90 90
q155 10 217 43.5t89.5 99t65.5 232.5q31 134 52 186.5t69 104t112.5 89t143 53t165.5 15.5q35 0 56.5 -24.5t21.5 -63.5q0 -90 -90 -90q-102 0 -170 -26.5t-108 -73t-54.5 -101t-32.5 -132.5q-43 -179 -68.5 -233t-92.5 -105t-144 -64z" />
    <glyph glyph-name="bar" unicode="|" horiz-adv-x="893" 
d="M870 1411q0 -41 -39 -131q-128 -295 -283 -787t-192 -739q-10 -76 -100 -76q-88 0 -88 78q0 125 107.5 507t260 760.5t188.5 410.5t81 32q65 0 65 -55z" />
    <glyph glyph-name="braceright" unicode="}" horiz-adv-x="934" 
d="M594 438q-58 18 -91.5 76t-33.5 113q0 83 63 331q23 84 23 166q0 68 -29 102.5t-68.5 48t-121.5 21.5q-35 3 -55.5 25t-20.5 53q0 90 139 90q150 0 246 -87.5t96 -219.5q0 -82 -43 -244q-49 -188 -49 -268q0 -37 34.5 -75t182.5 -50q64 -5 64 -63q0 -93 -96 -101
q-116 -10 -185 -30.5t-108.5 -60.5t-53.5 -90.5t-35 -162.5q-22 -122 -38 -174.5t-63.5 -117t-112 -106t-148.5 -58.5t-174 -17q-40 0 -69 26.5t-29 61.5q0 92 92 92q111 0 163 15.5t93.5 48.5t60 82t48.5 184q36 164 61 218.5t93.5 106t164.5 64.5z" />
    <glyph glyph-name="bullet" unicode="&#x2022;" horiz-adv-x="950" 
d="M766 567q0 -112 -87.5 -196t-199.5 -84q-86 0 -145.5 60t-59.5 147q0 111 90.5 196.5t200.5 85.5q85 0 143 -60t58 -149z" />
    <glyph glyph-name="guillemotleft" unicode="&#xab;" horiz-adv-x="1229" 
d="M297 487q106 -149 231 -288q33 -36 33 -90q0 -68 -84 -68q-36 0 -69.5 27.5t-124 149.5t-123.5 176t-33 112q0 30 22.5 60t92 89t198 156t162.5 115t55 18q36 0 59 -19.5t23 -50.5q0 -29 -12.5 -49.5t-56.5 -50.5q-203 -136 -373 -287zM788 487q106 -149 232 -288
q33 -36 33 -90q0 -68 -84 -68q-37 0 -70 27.5t-123.5 149.5t-124 176t-33.5 112q0 30 23 60t92.5 89t198 156t162.5 115t55 18q36 0 59 -19.5t23 -50.5q0 -32 -15 -52.5t-55 -47.5q-202 -136 -373 -287z" />
    <glyph glyph-name="guillemotright" unicode="&#xbb;" horiz-adv-x="1229" 
d="M981 498q-106 149 -231 288q-33 36 -33 91q0 67 84 67q36 0 69.5 -27.5t124 -149t123.5 -176t33 -112.5q0 -30 -22.5 -60t-92 -89t-198 -156t-162.5 -115t-55 -18q-36 0 -59 19.5t-23 50.5q0 30 12.5 50t56.5 50q203 137 373 287zM489 498q-106 149 -231 288
q-33 36 -33 91q0 67 84 67q37 0 70 -27.5t123.5 -149t123.5 -176t33 -112.5q0 -30 -22.5 -60t-92 -89t-198 -156t-162.5 -115t-55 -18q-36 0 -59 19.5t-23 50.5q0 30 12.5 50t57.5 50q202 137 372 287z" />
    <glyph glyph-name="endash" unicode="&#x2013;" horiz-adv-x="1126" 
d="M184 709q0 37 31.5 64t81.5 33.5t312 17t386 10.5q76 0 76 -74q0 -117 -96 -117q-124 0 -328.5 -7t-255.5 -13q-85 -11 -133 -11q-74 0 -74 97z" />
    <glyph glyph-name="emdash" unicode="&#x2014;" horiz-adv-x="1884" 
d="M184 709q0 42 39 69.5t108 31.5l681 14q611 10 741 10q76 0 76 -74q0 -117 -96 -117q-170 0 -733 -7.5t-609 -12.5q-85 -11 -133 -11q-74 0 -74 97z" />
    <glyph glyph-name="quotedblleft" unicode="&#x201c;" horiz-adv-x="1217" 
d="M602 1196q51 -6 83 -41.5t32 -83.5q0 -68 -55.5 -121t-122.5 -53q-57 0 -89 40t-32 112q0 114 101.5 264.5t174.5 150.5q24 0 43 -17.5t19 -39.5q0 -29 -13 -47.5t-55 -48.5q-61 -44 -86 -115zM1073 1196q51 -6 83 -41.5t32 -83.5q0 -68 -55.5 -121t-122.5 -53
q-57 0 -89 40t-32 112q0 61 38.5 152.5t112 177t125.5 85.5q24 0 43 -17.5t19 -39.5q0 -33 -16 -51.5t-52 -44.5q-61 -44 -86 -115z" />
    <glyph glyph-name="quotedblright" unicode="&#x201d;" horiz-adv-x="1217" 
d="M549 1165q-51 6 -83 41.5t-32 83.5q0 70 55.5 122t122.5 52q57 0 89 -39.5t32 -111.5q0 -115 -101.5 -265.5t-174.5 -150.5q-24 0 -43 18t-19 39q0 34 16 52.5t52 44.5q61 43 86 114zM1020 1165q-51 6 -83 41.5t-32 83.5q0 69 55.5 121.5t122.5 52.5q57 0 89 -39.5
t32 -111.5q0 -62 -38.5 -153t-112 -177t-125.5 -86q-24 0 -43 18t-19 39q0 34 16 52.5t52 44.5q61 43 86 114z" />
    <glyph glyph-name="quoteleft" unicode="&#x2018;" horiz-adv-x="745" 
d="M602 1196q51 -6 83 -41.5t32 -83.5q0 -68 -55.5 -121t-122.5 -53q-57 0 -89 40t-32 112q0 114 101.5 264.5t174.5 150.5q24 0 43 -17.5t19 -39.5q0 -29 -13 -47.5t-55 -48.5q-61 -44 -86 -115z" />
    <glyph glyph-name="quoteright" unicode="&#x2019;" horiz-adv-x="745" 
d="M549 1165q-51 6 -83 41.5t-32 83.5q0 70 55.5 122t122.5 52q57 0 89 -39.5t32 -111.5q0 -115 -101.5 -265.5t-174.5 -150.5q-24 0 -43 18t-19 39q0 34 16 52.5t52 44.5q61 43 86 114z" />
    <glyph glyph-name="uni00B7" unicode="&#xb7;" horiz-adv-x="745" 
d="M565 551q0 -69 -53 -119.5t-121 -50.5q-52 0 -88.5 36.5t-36.5 88.5q0 68 55.5 121t122.5 53q52 0 86.5 -37t34.5 -92z" />
    <glyph glyph-name="afii57388" unicode="&#x60c;" horiz-adv-x="745" 
d="M516 842q51 -6 83 -41.5t32 -83.5q0 -69 -55.5 -121.5t-122.5 -52.5q-56 0 -88.5 39.5t-32.5 111.5q0 115 101.5 265.5t175.5 150.5q24 0 42.5 -18t18.5 -39q0 -33 -15.5 -52t-52.5 -44q-60 -44 -86 -115z" />
    <glyph glyph-name="afii57403" unicode="&#x61b;" horiz-adv-x="745" 
d="M473 739q51 -6 83 -41t32 -84q0 -68 -55.5 -121t-122.5 -53q-57 0 -89 40t-32 112q0 115 101.5 265.5t174.5 150.5q24 0 43 -18t19 -40q0 -33 -16 -51.5t-52 -44.5q-61 -44 -86 -115zM475 162q0 -69 -53 -119.5t-121 -50.5q-52 0 -88.5 36.5t-36.5 88.5q0 69 55.5 121.5
t122.5 52.5q52 0 86.5 -37t34.5 -92z" />
    <glyph glyph-name="afii57407" unicode="&#x61f;" horiz-adv-x="868" 
d="M680 1280q-104 0 -171 -72.5t-67 -148.5q0 -63 68 -178q54 -91 68 -139.5t14 -90.5q0 -69 -41 -140t-105 -71q-30 0 -49.5 20t-19.5 52q0 24 18 61q21 42 21 74q0 27 -11.5 58t-57.5 94q-64 89 -81.5 147t-17.5 113q0 148 126.5 267.5t330.5 119.5q123 0 211 -59.5
t88 -133.5q0 -77 -93 -77q-29 0 -78 40q-79 64 -153 64zM502 162q0 -68 -53 -119t-121 -51q-52 0 -88.5 36.5t-36.5 88.5q0 69 55 121.5t123 52.5q52 0 86.5 -37t34.5 -92z" />
    <glyph glyph-name="uni0780" unicode="&#x780;" horiz-adv-x="1096" 
d="M-115 -100q0 44 26.5 67.5t88.5 42.5q303 96 536.5 290.5t344.5 434.5q21 45 42 66.5t64 21.5q33 0 52.5 -22.5t19.5 -55.5q0 -118 -194.5 -345.5t-475.5 -405.5t-401 -178q-46 0 -74.5 23.5t-28.5 60.5zM629 1100zM1014 -219z" />
    <glyph glyph-name="uni0781" unicode="&#x781;" horiz-adv-x="1608" 
d="M1065 580q-291 -383 -612.5 -573.5t-462.5 -190.5q-48 0 -76.5 24t-28.5 64q0 79 133 104q217 41 427 186t440 418q-49 34 -49 88q0 48 41 84.5t92 36.5q49 0 84 -20.5t39 -46.5q188 14 314 149q33 35 53.5 49.5t51.5 14.5q36 0 58 -21.5t22 -54.5q0 -107 -163 -200.5
t-363 -110.5zM1167 1100zM1253 -96z" />
    <glyph glyph-name="uni0782" unicode="&#x782;" horiz-adv-x="1710" 
d="M942 483q-228 -262 -545 -464.5t-407 -202.5q-48 0 -76.5 24t-28.5 64q0 72 90 98q161 47 402 202.5t385 317.5q-94 54 -94 140q0 42 28.5 80t89.5 38q55 0 95 -45q34 -39 75 -39q28 0 57 11.5t76 54.5q65 59 115 59q24 0 46.5 -12t63.5 -65q32 -43 52 -62q69 34 119 131
q51 94 108 94q93 0 93 -88q0 -75 -116.5 -199t-219.5 -124q-49 0 -87 24t-85 84q-69 -94 -236 -121zM1167 1100zM1292 -96z" />
    <glyph glyph-name="uni0783" unicode="&#x783;" horiz-adv-x="1513" 
d="M944 440q-221 -209 -533 -416.5t-421 -207.5q-48 0 -76.5 24t-28.5 64q0 71 115 108q152 50 381 193t434 336q-108 73 -108 159q0 56 36.5 88.5t100.5 32.5q105 0 182 -73q260 260 371 260q98 0 98 -74q0 -86 -115 -139q-103 -49 -231 -170q39 -28 135 -39
q107 -13 107 -109q0 -53 -43 -85t-107 -32q-143 0 -297 80zM1014 1100zM1268 -86zM1016 1400z" />
    <glyph glyph-name="uni0784" unicode="&#x784;" horiz-adv-x="1526" 
d="M831 633q146 250 351 250q124 0 201 -76t77 -195q0 -250 -244 -435t-581 -185q-232 0 -367 121.5t-135 289.5q0 174 121.5 296t304.5 122q90 0 166 -53t106 -135zM770 168q219 35 355.5 166.5t136.5 263.5q0 47 -32 79t-83 32q-79 0 -155.5 -78t-106.5 -195
q-46 -178 -115 -268zM322 391q0 -90 60.5 -157.5t143.5 -67.5q70 0 124.5 104t54.5 219q0 67 -45 113.5t-109 46.5q-103 0 -166 -71.5t-63 -186.5zM811 1100zM1047 -180z" />
    <glyph glyph-name="uni0785" unicode="&#x785;" horiz-adv-x="1434" 
d="M958 442q-7 -2 -20 -2q-115 0 -194.5 61.5t-79.5 162.5q0 109 78 196.5t141 87.5q34 0 56 -20t22 -51q0 -43 -54 -99q-55 -56 -55 -100q0 -40 44.5 -65t115.5 -25q47 0 90.5 33.5t97.5 119.5q50 80 121 80q35 0 56.5 -25t21.5 -63q0 -101 -235.5 -342t-598.5 -408
t-575 -167q-48 0 -76.5 24t-28.5 64q0 48 33 80t96 36q224 15 504.5 134.5t439.5 287.5zM974 1150zM1229 -119z" />
    <glyph glyph-name="uni0786" unicode="&#x786;" horiz-adv-x="1180" 
d="M342 180q173 83 348 251t258 357q36 80 109 80q40 0 64 -21t24 -59q0 -108 -165.5 -306.5t-396 -349t-366.5 -150.5q-42 0 -68 24t-26 55q0 52 45 140q88 172 88 336q0 54 -24 120q-17 48 -17 76q0 37 23.5 62.5t68.5 25.5q133 0 133 -256q0 -236 -98 -385zM610 1100z
M963 -118z" />
    <glyph glyph-name="uni0787" unicode="&#x787;" horiz-adv-x="1130" 
d="M868 631q-202 -305 -425.5 -477t-374.5 -172q-45 0 -71 21t-26 58q0 79 111 117q162 56 312.5 174.5t260.5 280.5q74 107 124.5 147.5t101.5 40.5q76 0 136 -94.5t60 -210.5q0 -158 -35 -282t-69 -166.5t-92 -42.5q-86 0 -86 88q0 54 49 155q53 114 53 232q0 82 -29 131z
M963 -125zM958 -352zM615 1100z" />
    <glyph glyph-name="uni0788" unicode="&#x788;" horiz-adv-x="903" 
d="M532 283q-28 -7 -59 -7q-124 0 -201 62t-77 164q0 131 112.5 227t261.5 96q136 0 215.5 -69.5t79.5 -192.5q0 -130 -108 -286.5t-359.5 -308.5t-414.5 -152q-48 0 -76.5 24t-28.5 64q0 83 133 106q281 48 522 273zM674 569q0 95 -113 95q-71 0 -123.5 -47.5t-52.5 -94.5
q0 -88 119 -88q66 0 118 46.5t52 88.5zM461 1100zM856 -219zM455 1400z" />
    <glyph glyph-name="uni0789" unicode="&#x789;" horiz-adv-x="1047" 
d="M438 598q-39 0 -62.5 23t-23.5 59q0 69 99 107t276 38q137 0 219 -51t82 -135q0 -197 -424.5 -505t-621.5 -308q-103 0 -103 84q0 89 131 110q224 39 525 266t301 330q0 35 -117 35q-74 0 -172 -31q-70 -22 -109 -22zM627 1100zM834 -315z" />
    <glyph glyph-name="uni078A" unicode="&#x78a;" horiz-adv-x="1057" 
d="M727 434q70 -36 70 -104q0 -100 -183 -279.5t-450.5 -343.5t-372.5 -164q-47 0 -75.5 24.5t-28.5 63.5q0 72 90 99q287 87 556 292.5t269 294.5q0 50 -72 70q-77 23 -77 70q0 38 26 59t113 39q207 44 207 100q0 13 -32.5 31.5t-90.5 34.5q-62 15 -62 72q0 54 72 81
q33 14 85.5 45t78.5 54q41 35 82 35q32 0 55 -23.5t23 -56.5q0 -56 -144 -127q150 -51 150 -148q0 -73 -71.5 -124.5t-217.5 -94.5zM633 1100zM834 -420zM0 821z" />
    <glyph glyph-name="uni078B" unicode="&#x78b;" horiz-adv-x="1294" 
d="M727 287q-148 -196 -416 -415.5t-448 -219.5q-44 0 -70 22t-26 58q0 39 29.5 62.5t99.5 43.5q155 48 332 179t323 315q-47 28 -47 82q0 51 41.5 79.5t97.5 28.5q46 0 83.5 -23t45.5 -50q47 -13 105 -13q172 0 172 139q0 104 -195 142q-74 13 -74 78q0 71 84 86
q35 6 107.5 36t113.5 56q56 35 97 35q36 0 59 -23t23 -57q0 -41 -50.5 -73.5t-144.5 -68.5q81 -21 129.5 -78.5t48.5 -129.5q0 -135 -110 -221.5t-267 -86.5q-80 0 -143 17zM811 1100zM840 -381zM809 1460zM0 821z" />
    <glyph glyph-name="uni078C" unicode="&#x78c;" horiz-adv-x="1153" 
d="M442 401q-135 -118 -135 -172q0 -15 24.5 -31t106.5 -53q100 -43 144.5 -84.5t44.5 -95.5q0 -98 -209.5 -205.5t-370.5 -107.5q-67 0 -104 25t-37 69q0 86 139 96q113 8 221.5 45.5t108.5 63.5q0 13 -16.5 22.5t-67.5 30.5q-128 52 -167.5 92.5t-39.5 108.5
q0 132 279.5 377t504.5 245q113 0 184.5 -76t71.5 -190q0 -152 -100 -255t-279 -103q-78 0 -161 54t-142 144zM571 512q34 -58 90.5 -96.5t104.5 -38.5q77 0 120.5 44.5t43.5 121.5q0 50 -24.5 81t-65.5 31q-115 0 -269 -143zM625 1100zM890 -471zM625 1400zM743 1530z" />
    <glyph glyph-name="uni078D" unicode="&#x78d;" horiz-adv-x="1163" 
d="M915 649q-100 -16 -237 -16q-84 0 -130 30.5t-46 77.5t43 78q111 80 194 174q38 43 90 43q35 0 56.5 -24.5t21.5 -59.5q0 -67 -139 -155q54 0 194 14q97 10 123 10q31 0 50.5 -22t19.5 -54q0 -69 -226.5 -330t-573.5 -512t-488 -251q-48 0 -76.5 24t-28.5 64q0 64 91 98
q295 113 594 350t468 461zM526 1140zM928 -293z" />
    <glyph glyph-name="uni078E" unicode="&#x78e;" horiz-adv-x="1171" 
d="M305 0q171 0 290.5 48.5t119.5 123.5q0 28 -47 54.5t-156 68.5q-154 58 -154 176q0 68 83 126.5t287.5 142t318.5 83.5q46 0 73 -24t27 -60q0 -92 -113 -102q-138 -11 -305.5 -73.5t-167.5 -96.5q0 -10 10.5 -17t81.5 -33q160 -59 207 -112.5t47 -107.5
q0 -162 -193.5 -271.5t-471.5 -109.5q-136 0 -228 42t-92 103q0 36 23 62t61 26q22 0 75 -15q117 -34 224 -34zM630 1100zM911 -348zM653 1400z" />
    <glyph glyph-name="uni078F" unicode="&#x78f;" horiz-adv-x="1378" 
d="M815 608q-83 -66 -254 -172q-338 -206 -338 -409q0 -96 71 -154.5t202 -58.5q112 0 263 49q73 24 99 24q33 0 53.5 -23t20.5 -59q0 -64 -139.5 -110.5t-298.5 -46.5q-216 0 -334.5 102t-118.5 270q0 278 365 504q-107 49 -107 140q0 59 41 101t113 42q26 0 51.5 -12.5
t59.5 -58.5t59 -46q24 0 37.5 7t41.5 32q95 92 138 92q22 0 44 -16.5t60 -81.5q36 -61 57 -82q91 30 148 133q55 98 111 98q94 0 94 -94q0 -89 -126 -206t-249 -117q-37 0 -72.5 34t-91.5 119zM979 -537zM840 1100z" />
    <glyph glyph-name="uni0790" unicode="&#x790;" horiz-adv-x="2195" 
d="M539 446q-35 -146 -142 -249t-213 -103q-47 0 -75.5 24t-28.5 64q0 76 102 94q57 11 108 74.5t64 138.5q-55 28 -89 82t-34 111q0 58 39 98.5t95 40.5q75 0 130 -57t68 -143q231 -35 567 -35q423 0 599 95.5t235 221.5q40 86 119 86q39 0 65.5 -23t26.5 -61
q0 -94 -124 -225t-336 -198.5t-611 -67.5q-353 0 -565 32zM1190 1100zM1473 205zM1190 1400zM1190 1150zM1480 -49z" />
    <glyph glyph-name="uni0791" unicode="&#x791;" horiz-adv-x="856" 
d="M250 90q10 -28 139.5 -54t284.5 -34q63 -3 87.5 -26t24.5 -72q0 -84 -116 -84q-232 0 -435.5 79.5t-203.5 176.5q0 108 180 176q146 54 220.5 94.5t74.5 56.5q0 20 -211 76q-29 8 -48.5 29.5t-19.5 50.5q0 35 23 65.5t134 89.5l196 103q83 45 131 45q31 0 56.5 -28
t25.5 -60q0 -40 -57.5 -75.5t-258.5 -125.5q138 -35 202 -71t64 -99q0 -76 -126.5 -146.5t-366.5 -166.5zM901 -354zM432 1100z" />
    <glyph glyph-name="uni0792" unicode="&#x792;" horiz-adv-x="1135" 
d="M569 750q132 90 243.5 141t172.5 51q45 0 71.5 -22t26.5 -60q0 -73 -122 -104q-139 -36 -265 -117q54 -32 97 -41q45 -11 73.5 -38t28.5 -60q0 -97 -135 -97q-104 0 -258 70q-217 -238 -217 -461q0 -92 73.5 -145t206.5 -53q108 0 285 63q88 31 115 31q33 0 53 -23
t20 -59q0 -65 -163 -121.5t-312 -56.5q-214 0 -339.5 101.5t-125.5 262.5q0 277 242 543q-84 52 -84 133q0 54 42 93.5t99 39.5q93 0 172 -71zM973 -582zM662 1100z" />
    <glyph glyph-name="uni0793" unicode="&#x793;" horiz-adv-x="1526" 
d="M539 68q-111 -115 -111 -207q0 -156 354 -156q124 0 277 61q70 27 96 27q33 0 53.5 -23t20.5 -59q0 -65 -150.5 -118.5t-308.5 -53.5q-240 0 -384 86t-144 238q0 116 125 239q-100 36 -168 132t-68 215q0 148 114.5 260t282.5 112q91 0 161.5 -54t82.5 -128
q73 96 183 156.5t221 60.5q124 0 203 -79t79 -199q0 -217 -277.5 -363.5t-641.5 -146.5zM674 238q232 10 409 112t177 217q0 50 -30.5 82.5t-82.5 32.5q-93 0 -196 -97.5t-277 -346.5zM475 244q70 71 114 159t44 144q0 43 -33 72.5t-90 29.5q-79 0 -135 -63t-56 -148
q0 -69 44.5 -123.5t111.5 -70.5zM1049 -610zM840 1100z" />
    <glyph glyph-name="uni0794" unicode="&#x794;" horiz-adv-x="1458" 
d="M768 500q-154 -248 -349 -411t-292 -219t-162 -56q-44 0 -71 23t-27 61q0 68 102 112q166 72 330 210t289 323q-84 48 -84 135q0 58 42.5 100.5t106.5 42.5q62 0 104 -39t42 -102q141 20 309 102q81 39 121 39q68 0 107.5 -75t39.5 -185q0 -183 -85.5 -346.5
t-188.5 -163.5q-46 0 -74.5 22t-28.5 56q0 55 78 129q51 47 85 135t34 166q0 41 -14 80q-182 -96 -414 -139zM918 1100zM928 -270z" />
    <glyph glyph-name="uni0795" unicode="&#x795;" horiz-adv-x="1057" 
d="M727 434q70 -36 70 -104q0 -100 -183 -279.5t-450.5 -343.5t-372.5 -164q-47 0 -75.5 24.5t-28.5 63.5q0 72 90 99q287 87 556 292.5t269 294.5q0 50 -72 70q-77 23 -77 70q0 38 26 59t113 39q207 44 207 100q0 13 -32.5 31.5t-90.5 34.5q-62 15 -62 72q0 54 72 81
q33 14 85.5 45t78.5 54q41 35 82 35q32 0 55 -23.5t23 -56.5q0 -56 -144 -127q150 -51 150 -148q0 -73 -71.5 -124.5t-217.5 -94.5zM633 1100zM834 -420zM0 821zM535 -215q0 39 33.5 75t72.5 36q45 0 71.5 -27t26.5 -72q0 -41 -32 -73.5t-72 -32.5q-46 0 -73 26t-27 68z" />
    <glyph glyph-name="uni0796" unicode="&#x796;" horiz-adv-x="1243" 
d="M956 791q179 -50 179 -195q0 -136 -110.5 -220.5t-295.5 -84.5q-39 0 -72 3l-63 7q-24 0 -125 -44.5t-158.5 -79t-100.5 -71.5t-72 -76t-43.5 -78.5t-14.5 -78.5q0 -77 73 -122.5t203 -45.5q102 0 223 43q64 23 93 23q34 0 56 -23t22 -57q0 -63 -122.5 -107.5
t-273.5 -44.5q-211 0 -333.5 94.5t-122.5 235.5q0 157 127.5 290t373.5 218q-32 19 -32 65q0 54 41.5 84.5t111.5 30.5q49 0 83 -31.5t34 -58.5q38 -10 98 -10q201 0 201 137q0 99 -191 127q-71 10 -71 78q0 67 78 86q41 9 112.5 36t108.5 50q56 35 96 35q37 0 61.5 -23.5
t24.5 -56.5q0 -42 -51.5 -73t-147.5 -62zM934 -594zM700 1100zM0 821z" />
    <glyph glyph-name="uni0797" unicode="&#x797;" horiz-adv-x="1153" 
d="M475 442q-108 -101 -138 -139.5t-30 -73.5q0 -15 24.5 -31t106.5 -53q100 -43 144.5 -84.5t44.5 -95.5q0 -98 -209.5 -205.5t-370.5 -107.5q-67 0 -104 25t-37 69q0 86 139 96q113 8 221.5 45.5t108.5 63.5q0 13 -16.5 22.5t-67.5 30.5q-128 52 -167.5 92.5t-39.5 108.5
q0 59 48.5 131t160.5 178q79 75 147.5 125.5t120.5 80.5q17 11 90 77q160 148 246 249t189 260q37 58 63.5 72.5t54.5 14.5q34 0 53 -19.5t19 -50.5q0 -68 -98 -202t-275 -304q106 -14 163.5 -81.5t57.5 -168.5q0 -144 -116 -253t-258 -109q-109 0 -187.5 63.5t-87.5 173.5z
M840 657q-39 0 -95.5 -25.5t-67 -37.5t-22.5 -43.5t-12 -69.5q0 -51 29 -81.5t73 -30.5q68 0 126.5 56.5t58.5 129.5q0 102 -90 102zM922 -465zM516 1100z" />
    <glyph glyph-name="uni0798" unicode="&#x798;" horiz-adv-x="1153" 
d="M442 401q-135 -118 -135 -172q0 -15 24.5 -31t106.5 -53q100 -43 144.5 -84.5t44.5 -95.5q0 -98 -209.5 -205.5t-370.5 -107.5q-67 0 -104 25t-37 69q0 86 139 96q113 8 221.5 45.5t108.5 63.5q0 13 -16.5 22.5t-67.5 30.5q-128 52 -167.5 92.5t-39.5 108.5
q0 132 279.5 377t504.5 245q113 0 184.5 -76t71.5 -190q0 -152 -100 -255t-279 -103q-78 0 -161 54t-142 144zM571 512q34 -58 90.5 -96.5t104.5 -38.5q77 0 120.5 44.5t43.5 121.5q0 50 -24.5 81t-65.5 31q-115 0 -269 -143zM625 1100zM890 -471zM625 1400zM743 1530z
M749 1224q0 39 34 75t73 36q44 0 71 -27t27 -71q0 -41 -32.5 -74t-72.5 -33q-46 0 -73 26t-27 68zM522 964q0 39 33.5 75t72.5 36q45 0 72 -27t27 -72q0 -41 -32.5 -73.5t-72.5 -32.5q-46 0 -73 26t-27 68zM931 964q0 39 34 75t73 36q45 0 71.5 -27t26.5 -72
q0 -41 -32 -73.5t-72 -32.5q-46 0 -73.5 26t-27.5 68z" />
    <glyph glyph-name="uni0799" unicode="&#x799;" horiz-adv-x="1096" 
d="M-115 -100q0 44 26.5 67.5t88.5 42.5q303 96 536.5 290.5t344.5 434.5q21 45 42 66.5t64 21.5q33 0 52.5 -22.5t19.5 -55.5q0 -118 -194.5 -345.5t-475.5 -405.5t-401 -178q-46 0 -74.5 23.5t-28.5 60.5zM629 1100zM1014 -219zM868 200q0 39 33.5 75t72.5 36
q45 0 71.5 -27t26.5 -72q0 -41 -32 -73.5t-72 -32.5q-46 0 -73 26t-27 68z" />
    <glyph glyph-name="uni079A" unicode="&#x79a;" horiz-adv-x="1096" 
d="M-115 -100q0 44 26.5 67.5t88.5 42.5q303 96 536.5 290.5t344.5 434.5q21 45 42 66.5t64 21.5q33 0 52.5 -22.5t19.5 -55.5q0 -118 -194.5 -345.5t-475.5 -405.5t-401 -178q-46 0 -74.5 23.5t-28.5 60.5zM629 1100zM1014 -219zM424 567q0 39 33.5 75t72.5 36
q45 0 71.5 -27t26.5 -72q0 -41 -32 -73.5t-72 -32.5q-46 0 -73 26t-27 68z" />
    <glyph glyph-name="uni079B" unicode="&#x79b;" horiz-adv-x="1294" 
d="M727 287q-148 -196 -416 -415.5t-448 -219.5q-44 0 -70 22t-26 58q0 39 29.5 62.5t99.5 43.5q155 48 332 179t323 315q-47 28 -47 82q0 51 41.5 79.5t97.5 28.5q46 0 83.5 -23t45.5 -50q47 -13 105 -13q172 0 172 139q0 104 -195 142q-74 13 -74 78q0 71 84 86
q35 6 107.5 36t113.5 56q56 35 97 35q36 0 59 -23t23 -57q0 -41 -50.5 -73.5t-144.5 -68.5q81 -21 129.5 -78.5t48.5 -129.5q0 -135 -110 -221.5t-267 -86.5q-80 0 -143 17zM811 1100zM840 -381zM809 1460zM0 821zM760 1061q0 39 33.5 75t72.5 36q45 0 71.5 -27t26.5 -72
q0 -41 -32 -73.5t-72 -32.5q-46 0 -73 26t-27 68z" />
    <glyph glyph-name="uni079C" unicode="&#x79c;" horiz-adv-x="1513" 
d="M944 440q-221 -209 -533 -416.5t-421 -207.5q-48 0 -76.5 24t-28.5 64q0 71 115 108q152 50 381 193t434 336q-108 73 -108 159q0 56 36.5 88.5t100.5 32.5q105 0 182 -73q260 260 371 260q98 0 98 -74q0 -86 -115 -139q-103 -49 -231 -170q39 -28 135 -39
q107 -13 107 -109q0 -53 -43 -85t-107 -32q-143 0 -297 80zM1014 1100zM1268 -86zM1016 1400zM903 989q0 39 33.5 75t72.5 36q45 0 71.5 -27t26.5 -72q0 -41 -32 -73.5t-72 -32.5q-46 0 -73 26t-27 68z" />
    <glyph glyph-name="uni079D" unicode="&#x79d;" horiz-adv-x="2195" 
d="M539 446q-35 -146 -142 -249t-213 -103q-47 0 -75.5 24t-28.5 64q0 76 102 94q57 11 108 74.5t64 138.5q-55 28 -89 82t-34 111q0 58 39 98.5t95 40.5q75 0 130 -57t68 -143q231 -35 567 -35q423 0 599 95.5t235 221.5q40 86 119 86q39 0 65.5 -23t26.5 -61
q0 -94 -124 -225t-336 -198.5t-611 -67.5q-353 0 -565 32zM1190 1100zM1473 205zM1190 1400zM1190 1150zM1480 -49zM1073 1030q0 39 34 75t73 36q44 0 71 -27t27 -71q0 -41 -32.5 -74t-72.5 -33q-46 0 -73 26t-27 68zM846 770q0 39 33.5 75t72.5 36q45 0 72 -27t27 -72
q0 -41 -32.5 -73.5t-72.5 -32.5q-46 0 -73 26t-27 68zM1255 770q0 39 34 75t73 36q45 0 71.5 -27t26.5 -72q0 -41 -32 -73.5t-72 -32.5q-46 0 -73.5 26t-27.5 68z" />
    <glyph glyph-name="uni079E" unicode="&#x79e;" horiz-adv-x="2195" 
d="M539 446q-35 -146 -142 -249t-213 -103q-47 0 -75.5 24t-28.5 64q0 76 102 94q57 11 108 74.5t64 138.5q-55 28 -89 82t-34 111q0 58 39 98.5t95 40.5q75 0 130 -57t68 -143q231 -35 567 -35q423 0 599 95.5t235 221.5q40 86 119 86q39 0 65.5 -23t26.5 -61
q0 -94 -124 -225t-336 -198.5t-611 -67.5q-353 0 -565 32zM1190 1100zM1473 205zM1190 1400zM1190 1150zM1480 -49zM1051 184q0 39 33.5 75t72.5 36q45 0 71.5 -27t26.5 -72q0 -41 -32 -73.5t-72 -32.5q-46 0 -73 26t-27 68z" />
    <glyph glyph-name="uni079F" unicode="&#x79f;" horiz-adv-x="2195" 
d="M539 446q-35 -146 -142 -249t-213 -103q-47 0 -75.5 24t-28.5 64q0 76 102 94q57 11 108 74.5t64 138.5q-55 28 -89 82t-34 111q0 58 39 98.5t95 40.5q75 0 130 -57t68 -143q231 -35 567 -35q423 0 599 95.5t235 221.5q40 86 119 86q39 0 65.5 -23t26.5 -61
q0 -94 -124 -225t-336 -198.5t-611 -67.5q-353 0 -565 32zM1190 1100zM1473 205zM1190 1400zM1190 1150zM1480 -49zM1051 790q0 39 33.5 75t72.5 36q45 0 71.5 -27t26.5 -72q0 -41 -32 -73.5t-72 -32.5q-46 0 -73 26t-27 68z" />
    <glyph glyph-name="uni07A0" unicode="&#x7a0;" horiz-adv-x="1153" 
d="M442 401q-135 -118 -135 -172q0 -15 24.5 -31t106.5 -53q100 -43 144.5 -84.5t44.5 -95.5q0 -98 -209.5 -205.5t-370.5 -107.5q-67 0 -104 25t-37 69q0 86 139 96q113 8 221.5 45.5t108.5 63.5q0 13 -16.5 22.5t-67.5 30.5q-128 52 -167.5 92.5t-39.5 108.5
q0 132 279.5 377t504.5 245q113 0 184.5 -76t71.5 -190q0 -152 -100 -255t-279 -103q-78 0 -161 54t-142 144zM571 512q34 -58 90.5 -96.5t104.5 -38.5q77 0 120.5 44.5t43.5 121.5q0 50 -24.5 81t-65.5 31q-115 0 -269 -143zM625 1100zM890 -471zM625 1400zM743 1530z
M780 -25q0 39 33.5 75t72.5 36q45 0 71.5 -27t26.5 -72q0 -41 -32 -73.5t-72 -32.5q-46 0 -73 26t-27 68z" />
    <glyph glyph-name="uni07A1" unicode="&#x7a1;" horiz-adv-x="1153" 
d="M442 401q-135 -118 -135 -172q0 -15 24.5 -31t106.5 -53q100 -43 144.5 -84.5t44.5 -95.5q0 -98 -209.5 -205.5t-370.5 -107.5q-67 0 -104 25t-37 69q0 86 139 96q113 8 221.5 45.5t108.5 63.5q0 13 -16.5 22.5t-67.5 30.5q-128 52 -167.5 92.5t-39.5 108.5
q0 132 279.5 377t504.5 245q113 0 184.5 -76t71.5 -190q0 -152 -100 -255t-279 -103q-78 0 -161 54t-142 144zM571 512q34 -58 90.5 -96.5t104.5 -38.5q77 0 120.5 44.5t43.5 121.5q0 50 -24.5 81t-65.5 31q-115 0 -269 -143zM625 1100zM890 -471zM625 1400zM743 1530z
M750 1016q0 39 33.5 75t72.5 36q45 0 71.5 -27t26.5 -72q0 -41 -32 -73.5t-72 -32.5q-46 0 -73 26t-27 68z" />
    <glyph glyph-name="uni07A2" unicode="&#x7a2;" horiz-adv-x="1130" 
d="M868 631q-202 -305 -425.5 -477t-374.5 -172q-45 0 -71 21t-26 58q0 79 111 117q162 56 312.5 174.5t260.5 280.5q74 107 124.5 147.5t101.5 40.5q76 0 136 -94.5t60 -210.5q0 -158 -35 -282t-69 -166.5t-92 -42.5q-86 0 -86 88q0 54 49 155q53 114 53 232q0 82 -29 131z
M963 -125zM958 -352zM615 1100zM426 -113q0 39 33.5 75t72.5 36q45 0 71.5 -27t26.5 -72q0 -41 -32 -73.5t-72 -32.5q-46 0 -73 26t-27 68z" />
    <glyph glyph-name="uni07A3" unicode="&#x7a3;" horiz-adv-x="1130" 
d="M868 631q-202 -305 -425.5 -477t-374.5 -172q-45 0 -71 21t-26 58q0 79 111 117q162 56 312.5 174.5t260.5 280.5q74 107 124.5 147.5t101.5 40.5q76 0 136 -94.5t60 -210.5q0 -158 -35 -282t-69 -166.5t-92 -42.5q-86 0 -86 88q0 54 49 155q53 114 53 232q0 82 -29 131z
M963 -125zM958 -352zM615 1100zM352 731q0 39 33.5 75t72.5 36q45 0 71.5 -27t26.5 -72q0 -41 -32 -73.5t-72 -32.5q-46 0 -73 26t-27 68z" />
    <glyph glyph-name="uni07A4" unicode="&#x7a4;" horiz-adv-x="1171" 
d="M305 0q171 0 290.5 48.5t119.5 123.5q0 28 -47 54.5t-156 68.5q-154 58 -154 176q0 68 83 126.5t287.5 142t318.5 83.5q46 0 73 -24t27 -60q0 -92 -113 -102q-138 -11 -305.5 -73.5t-167.5 -96.5q0 -10 10.5 -17t81.5 -33q160 -59 207 -112.5t47 -107.5
q0 -162 -193.5 -271.5t-471.5 -109.5q-136 0 -228 42t-92 103q0 36 23 62t61 26q22 0 75 -15q117 -34 224 -34zM630 1100zM911 -348zM653 1400zM487 999q0 39 33.5 75t72.5 36q45 0 72 -27t27 -72q0 -41 -32.5 -73.5t-72.5 -32.5q-46 0 -73 26t-27 68zM814 999q0 39 34 75
t73 36q45 0 71.5 -27t26.5 -72q0 -41 -32 -73.5t-72 -32.5q-46 0 -73.5 26t-27.5 68z" />
    <glyph glyph-name="uni07A5" unicode="&#x7a5;" horiz-adv-x="903" 
d="M532 283q-28 -7 -59 -7q-124 0 -201 62t-77 164q0 131 112.5 227t261.5 96q136 0 215.5 -69.5t79.5 -192.5q0 -130 -108 -286.5t-359.5 -308.5t-414.5 -152q-48 0 -76.5 24t-28.5 64q0 83 133 106q281 48 522 273zM674 569q0 95 -113 95q-71 0 -123.5 -47.5t-52.5 -94.5
q0 -88 119 -88q66 0 118 46.5t52 88.5zM461 1100zM856 -219zM455 1400zM461 1016q0 39 33.5 75t72.5 36q45 0 71.5 -27t26.5 -72q0 -41 -32 -73.5t-72 -32.5q-46 0 -73 26t-27 68z" />
    <glyph glyph-name="uni07A6" horiz-adv-x="600" 
d="M25 1038q0 30 16 47t61 37q136 59 329 260q42 43 85 43q59 0 59 -63q0 -57 -184 -225t-285 -168q-37 0 -59 19t-22 50zM196 969z" />
    <glyph glyph-name="uni07A7" horiz-adv-x="887" 
d="M25 1124q0 30 16 47t61 37q139 62 292 215q40 41 81 41q60 0 60 -63q0 -56 -168.5 -201t-260.5 -145q-37 0 -59 19t-22 50zM352 1038q0 31 17 48t61 36q138 62 291 215q41 41 82 41q59 0 59 -63q0 -56 -168 -201t-260 -145q-37 0 -59.5 19t-22.5 50zM445 969z" />
    <glyph glyph-name="uni07A8" horiz-adv-x="618" 
d="M25 -397q0 62 77 90q160 57 342 168q48 28 88 28q26 0 44 -17.5t18 -39.5q0 -59 -202 -176t-290 -117q-34 0 -55.5 18.5t-21.5 45.5zM822 -69z" />
    <glyph glyph-name="uni07A9" horiz-adv-x="1038" 
d="M14 -398q0 62 78 90q159 57 342 168q47 29 88 29q25 0 43.5 -17.5t18.5 -40.5q0 -60 -203 -176.5t-289 -116.5q-34 0 -56 18.5t-22 45.5zM455 -453q0 62 77 90q160 57 342 168q48 28 89 28q25 0 43 -17.5t18 -39.5q0 -59 -202 -176t-290 -117q-34 0 -55.5 18.5
t-21.5 45.5zM961 -125z" />
    <glyph glyph-name="uni07AA" horiz-adv-x="526" 
d="M350 1257q-64 51 -211 66q-78 8 -78 68q0 31 22.5 52t59.5 21q93 0 226 -50.5t133 -135.5q0 -80 -160.5 -194.5t-235.5 -114.5q-81 0 -81 65q0 35 18 52.5t59 31.5q186 68 248 139zM137 969z" />
    <glyph glyph-name="uni07AB" horiz-adv-x="1018" 
d="M350 1257q-64 51 -211 66q-78 8 -78 68q0 31 22.5 52t59.5 21q93 0 226 -50.5t133 -135.5q0 -80 -160.5 -194.5t-235.5 -114.5q-81 0 -81 65q0 35 18 52.5t59 31.5q186 68 248 139zM842 1257q-65 51 -211 66q-78 8 -78 68q0 32 22.5 52.5t59.5 20.5q92 0 225 -50.5
t133 -135.5q0 -80 -160.5 -194.5t-234.5 -114.5q-82 0 -82 65q0 35 18.5 52.5t59.5 31.5q185 68 248 139zM606 969z" />
    <glyph glyph-name="uni07AC" horiz-adv-x="522" 
d="M174 1176q64 -51 211 -66q78 -8 78 -68q0 -32 -22.5 -52.5t-59.5 -20.5q-93 0 -225.5 50.5t-132.5 135.5q0 81 160 195t235 114q82 0 82 -65q0 -35 -18.5 -52.5t-59.5 -31.5q-186 -68 -248 -139zM280 969z" />
    <glyph glyph-name="uni07AD" horiz-adv-x="1014" 
d="M666 1176q64 -51 211 -66q77 -8 77 -68q0 -31 -22 -52t-60 -21q-92 0 -225 50.5t-133 135.5q0 81 160.5 195t234.5 114q82 0 82 -65q0 -31 -16 -49.5t-62 -34.5q-185 -68 -247 -139zM174 1176q64 -51 211 -66q78 -8 78 -68q0 -32 -22.5 -52.5t-59.5 -20.5
q-93 0 -225.5 50.5t-132.5 135.5q0 81 160 195t235 114q82 0 82 -65q0 -35 -18.5 -52.5t-59.5 -31.5q-186 -68 -248 -139zM566 969z" />
    <glyph glyph-name="uni07AE" horiz-adv-x="934" 
d="M432 1157q-56 -56 -163 -122t-163 -66q-81 0 -81 65q0 35 18 52.5t59 31.5q186 68 248 139q-64 51 -211 66q-78 8 -78 68q0 31 22.5 52t59.5 21q93 0 226 -50.5t133 -135.5v-2q63 61 166.5 124.5t158.5 63.5q82 0 82 -65q0 -31 -16 -49.5t-62 -34.5q-185 -68 -247 -139
q64 -51 211 -66q77 -8 77 -68q0 -32 -22.5 -52.5t-58.5 -20.5q-93 0 -226 50.5t-133 135.5v2zM505 969z" />
    <glyph glyph-name="uni07AF" horiz-adv-x="1008" 
d="M750 1651q-129 0 -345.5 -154t-216.5 -254q0 -48 49.5 -77t120.5 -40q78 -11 78 -84q0 -32 -22.5 -52.5t-59.5 -20.5q-108 0 -212.5 81.5t-104.5 198.5q0 99 136.5 231t308.5 222t278 90q95 0 153 -51t58 -146q0 -50 -23 -124.5t-90 -153t-129 -78.5q-27 0 -49.5 21
t-22.5 51q0 29 11 52.5t49 55.5q102 89 102 166q0 66 -69 66zM544 969z" />
    <glyph glyph-name="uni07B0" horiz-adv-x="635" 
d="M598 1286q0 -102 -97 -209.5t-227 -107.5q-103 0 -170 60.5t-67 154.5q0 93 120.5 186.5t256.5 93.5q84 0 134 -46.5t50 -131.5zM279 1108q50 0 108.5 67t58.5 107q0 47 -43 47q-65 0 -140 -55.5t-75 -95.5q0 -28 25.5 -49t65.5 -21zM401 969z" />
    <glyph glyph-name="uni07B1" unicode="&#x7b1;" horiz-adv-x="903" 
d="M494 279q-8 -3 -21 -3q-124 0 -201 62t-77 164q0 131 112.5 227t261.5 96q136 0 215.5 -69.5t79.5 -192.5q0 -157 -98 -276t-303 -228q-144 -77 -205 -126.5t-61 -104.5q0 -123 219 -123q52 0 107.5 14t129.5 63q54 36 80 36q34 0 54 -23t20 -59q0 -73 -117 -135
t-276 -62q-187 0 -295.5 79t-108.5 210q0 108 74 180t272 182q109 62 138 89zM674 569q0 95 -113 95q-71 0 -123.5 -47.5t-52.5 -94.5q0 -88 119 -88q66 0 118 46.5t52 88.5zM487 1100zM856 -606z" />
    <glyph glyph-name="DotAbove" horiz-adv-x="682" 
d="M238 94q0 39 33.5 75t72.5 36q45 0 71.5 -27t26.5 -72q0 -41 -32 -73.5t-72 -32.5q-46 0 -73 26t-27 68z" />
    <glyph glyph-name="DotBelow" horiz-adv-x="682" 
d="M238 94q0 39 33.5 75t72.5 36q45 0 71.5 -27t26.5 -72q0 -41 -32 -73.5t-72 -32.5q-46 0 -73 26t-27 68z" />
    <glyph glyph-name="TwoDots" horiz-adv-x="682" 
d="M74 94q0 39 33.5 75t72.5 36q45 0 72 -27t27 -72q0 -41 -32.5 -73.5t-72.5 -32.5q-46 0 -73 26t-27 68zM401 94q0 39 34 75t73 36q45 0 71.5 -27t26.5 -72q0 -41 -32 -73.5t-72 -32.5q-46 0 -73.5 26t-27.5 68z" />
    <glyph glyph-name="ThreeDots" horiz-adv-x="682" 
d="M260 354q0 39 34 75t73 36q44 0 71 -27t27 -71q0 -41 -32.5 -74t-72.5 -33q-46 0 -73 26t-27 68zM33 94q0 39 33.5 75t72.5 36q45 0 72 -27t27 -72q0 -41 -32.5 -73.5t-72.5 -32.5q-46 0 -73 26t-27 68zM442 94q0 39 34 75t73 36q45 0 71.5 -27t26.5 -72q0 -41 -32 -73.5
t-72 -32.5q-46 0 -73.5 26t-27.5 68z" />
    <glyph glyph-name="uni25CC" unicode="&#x25cc;" horiz-adv-x="1229" 
d="M614 1028q-12 0 -21 9.5t-9 21.5t9 21.5t21 9.5q13 0 22 -9.5t9 -21.5t-9 -21.5t-22 -9.5zM430 987q-12 0 -21.5 9.5t-9.5 21.5t9.5 21.5t21.5 9.5t21.5 -9.5t9.5 -21.5t-9.5 -21.5t-21.5 -9.5zM805 983q-12 0 -21.5 9.5t-9.5 21.5t9.5 21t21.5 9t21.5 -9t9.5 -21
q0 -13 -9.5 -22t-21.5 -9zM289 887q-12 0 -21.5 9t-9.5 22q0 12 9 21t22 9q12 0 21 -9t9 -21q0 -13 -9 -22t-21 -9zM961 870q-13 0 -22 9.5t-9 21.5t9 21.5t22 9.5q12 0 21 -9.5t9 -21.5t-9 -21.5t-21 -9.5zM188 741q-12 0 -21 9.5t-9 21.5t9 21.5t21 9.5q13 0 22 -9.5
t9 -21.5t-9 -21.5t-22 -9.5zM1051 721q-13 0 -22 9t-9 22q0 12 9 21t22 9q12 0 21 -9t9 -21q0 -13 -9 -22t-21 -9zM1075 563q-12 0 -21.5 9.5t-9.5 21.5t9.5 21.5t21.5 9.5t21.5 -9.5t9.5 -21.5t-9.5 -21.5t-21.5 -9.5zM150 563q-13 0 -22 9.5t-9 21.5t9 21.5t22 9.5
q12 0 21 -9.5t9 -21.5t-9 -21.5t-21 -9.5zM1040 383q-12 0 -21 9t-9 22q0 12 9 21t21 9q13 0 22 -9t9 -21q0 -13 -9 -22t-22 -9zM197 367q-13 0 -22 9t-9 21q0 13 9 22t22 9q12 0 21 -9t9 -22q0 -12 -9 -21t-21 -9zM942 238q-12 0 -21.5 9t-9.5 21q0 13 9.5 22t21.5 9
t21.5 -9t9.5 -22q0 -12 -9.5 -21t-21.5 -9zM305 219q-12 0 -21.5 9.5t-9.5 21.5t9.5 21.5t21.5 9.5t21.5 -9.5t9.5 -21.5t-9.5 -21.5t-21.5 -9.5zM799 137q-12 0 -21.5 9.5t-9.5 21.5t9 21.5t22 9.5q12 0 21 -9.5t9 -21.5t-9 -21.5t-21 -9.5zM451 129q-13 0 -22 9.5t-9 21.5
t9 21t22 9q12 0 21 -9t9 -21t-9 -21.5t-21 -9.5zM614 100q-12 0 -21 9.5t-9 21.5t9 21.5t21 9.5q13 0 22 -9.5t9 -21.5t-9 -21.5t-22 -9.5zM599 1309zM924 -82z" />
    <glyph glyph-name="uni07A6nsp" unicode="&#x7a6;" horiz-adv-x="0" 
d="M25 1038q0 30 16 47t61 37q136 59 329 260q42 43 85 43q59 0 59 -63q0 -57 -184 -225t-285 -168q-37 0 -59 19t-22 50zM196 969z" />
    <glyph glyph-name="uni07A7nsp" unicode="&#x7a7;" horiz-adv-x="0" 
d="M25 1124q0 30 16 47t61 37q139 62 292 215q40 41 81 41q60 0 60 -63q0 -56 -168.5 -201t-260.5 -145q-37 0 -59 19t-22 50zM352 1038q0 31 17 48t61 36q138 62 291 215q41 41 82 41q59 0 59 -63q0 -56 -168 -201t-260 -145q-37 0 -59.5 19t-22.5 50zM445 969z" />
    <glyph glyph-name="uni07A8nsp" unicode="&#x7a8;" horiz-adv-x="0" 
d="M25 -397q0 62 77 90q160 57 342 168q48 28 88 28q26 0 44 -17.5t18 -39.5q0 -59 -202 -176t-290 -117q-34 0 -55.5 18.5t-21.5 45.5zM822 -69z" />
    <glyph glyph-name="uni07A9nsp" unicode="&#x7a9;" horiz-adv-x="0" 
d="M14 -398q0 62 78 90q159 57 342 168q47 29 88 29q25 0 43.5 -17.5t18.5 -40.5q0 -60 -203 -176.5t-289 -116.5q-34 0 -56 18.5t-22 45.5zM455 -453q0 62 77 90q160 57 342 168q48 28 89 28q25 0 43 -17.5t18 -39.5q0 -59 -202 -176t-290 -117q-34 0 -55.5 18.5
t-21.5 45.5zM961 -125z" />
    <glyph glyph-name="uni07AAnsp" unicode="&#x7aa;" horiz-adv-x="0" 
d="M350 1257q-64 51 -211 66q-78 8 -78 68q0 31 22.5 52t59.5 21q93 0 226 -50.5t133 -135.5q0 -80 -160.5 -194.5t-235.5 -114.5q-81 0 -81 65q0 35 18 52.5t59 31.5q186 68 248 139zM137 969z" />
    <glyph glyph-name="uni07ABnsp" unicode="&#x7ab;" horiz-adv-x="0" 
d="M350 1257q-64 51 -211 66q-78 8 -78 68q0 31 22.5 52t59.5 21q93 0 226 -50.5t133 -135.5q0 -80 -160.5 -194.5t-235.5 -114.5q-81 0 -81 65q0 35 18 52.5t59 31.5q186 68 248 139zM842 1257q-65 51 -211 66q-78 8 -78 68q0 32 22.5 52.5t59.5 20.5q92 0 225 -50.5
t133 -135.5q0 -80 -160.5 -194.5t-234.5 -114.5q-82 0 -82 65q0 35 18.5 52.5t59.5 31.5q185 68 248 139zM606 969z" />
    <glyph glyph-name="uni07ACnsp" unicode="&#x7ac;" horiz-adv-x="0" 
d="M174 1176q64 -51 211 -66q78 -8 78 -68q0 -32 -22.5 -52.5t-59.5 -20.5q-93 0 -225.5 50.5t-132.5 135.5q0 81 160 195t235 114q82 0 82 -65q0 -35 -18.5 -52.5t-59.5 -31.5q-186 -68 -248 -139zM280 969z" />
    <glyph glyph-name="uni07ADnsp" unicode="&#x7ad;" horiz-adv-x="0" 
d="M666 1176q64 -51 211 -66q77 -8 77 -68q0 -31 -22 -52t-60 -21q-92 0 -225 50.5t-133 135.5q0 81 160.5 195t234.5 114q82 0 82 -65q0 -31 -16 -49.5t-62 -34.5q-185 -68 -247 -139zM174 1176q64 -51 211 -66q78 -8 78 -68q0 -32 -22.5 -52.5t-59.5 -20.5
q-93 0 -225.5 50.5t-132.5 135.5q0 81 160 195t235 114q82 0 82 -65q0 -35 -18.5 -52.5t-59.5 -31.5q-186 -68 -248 -139zM566 969z" />
    <glyph glyph-name="uni07AEnsp" unicode="&#x7ae;" horiz-adv-x="0" 
d="M432 1157q-56 -56 -163 -122t-163 -66q-81 0 -81 65q0 35 18 52.5t59 31.5q186 68 248 139q-64 51 -211 66q-78 8 -78 68q0 31 22.5 52t59.5 21q93 0 226 -50.5t133 -135.5v-2q63 61 166.5 124.5t158.5 63.5q82 0 82 -65q0 -31 -16 -49.5t-62 -34.5q-185 -68 -247 -139
q64 -51 211 -66q77 -8 77 -68q0 -32 -22.5 -52.5t-58.5 -20.5q-93 0 -226 50.5t-133 135.5v2zM505 969z" />
    <glyph glyph-name="uni07AFnsp" unicode="&#x7af;" horiz-adv-x="0" 
d="M750 1651q-129 0 -345.5 -154t-216.5 -254q0 -48 49.5 -77t120.5 -40q78 -11 78 -84q0 -32 -22.5 -52.5t-59.5 -20.5q-108 0 -212.5 81.5t-104.5 198.5q0 99 136.5 231t308.5 222t278 90q95 0 153 -51t58 -146q0 -50 -23 -124.5t-90 -153t-129 -78.5q-27 0 -49.5 21
t-22.5 51q0 29 11 52.5t49 55.5q102 89 102 166q0 66 -69 66zM544 969z" />
    <glyph glyph-name="uni07B0nsp" unicode="&#x7b0;" horiz-adv-x="0" 
d="M598 1286q0 -102 -97 -209.5t-227 -107.5q-103 0 -170 60.5t-67 154.5q0 93 120.5 186.5t256.5 93.5q84 0 134 -46.5t50 -131.5zM279 1108q50 0 108.5 67t58.5 107q0 47 -43 47q-65 0 -140 -55.5t-75 -95.5q0 -28 25.5 -49t65.5 -21zM401 969z" />
    <glyph glyph-name="question" unicode="?" horiz-adv-x="1113" 
d="M621 431q-21 0 -37 17.5t-26.5 43.5t-16 57.5t-5.5 58.5q0 45 14 72.5t55 51.5q8 4 30 17.5t51.5 31.5t64 39t66 41t58 36.5t40.5 25.5q27 18 64 45.5t70.5 60.5t57 70t23.5 75q0 19 -6.5 36.5t-17 31.5t-24 22.5t-26.5 8.5q-69 0 -139.5 -14.5t-140 -40.5t-137 -61.5
t-131.5 -77.5v1q-5 -5 -17 -13.5t-27 -16.5t-30.5 -14.5t-27.5 -6.5q-11 0 -26.5 4.5t-30 13.5t-25 23t-10.5 33t16.5 40t42.5 42.5t58 42.5t63.5 38.5t59 31t43.5 20.5q115 45 224 74.5t222 29.5q47 0 95 -22.5t87 -60t63.5 -86.5t24.5 -102q0 -43 -20 -84.5t-52.5 -80.5
t-73.5 -75t-84 -68.5t-84 -60t-73 -49.5q-31 -21 -66 -42.5t-65.5 -41t-53.5 -38t-29 -33.5q-5 -20 -6.5 -36.5t-2.5 -30.5q-1 -13 -0.5 -27t-6 -26t-23.5 -19.5t-52 -7.5zM705 134q0 -34 -14.5 -65t-38.5 -54t-55.5 -37t-65.5 -14q-26 0 -49 9.5t-40 26.5t-26.5 40t-9.5 49
q0 34 15.5 65.5t40.5 55.5t57 38.5t65 14.5q26 0 48 -10t38.5 -27t25.5 -41t9 -51z" />
    <glyph glyph-name="at" unicode="@" horiz-adv-x="1818" 
d="M295 590q33 131 85 253t123 229t161 194.5t198.5 150.5t235.5 97.5t273 34.5q74 0 148.5 -11t142 -33.5t126 -56.5t101.5 -80t67.5 -103.5t24.5 -127.5q0 -52 -13 -104q-24 -96 -68 -171.5t-103 -140.5t-131.5 -124t-153.5 -122q-23 -17 -49.5 -34t-53.5 -30.5t-54 -22
t-52 -8.5q-32 0 -53.5 7.5t-37 21.5t-27 33.5t-24.5 42.5h-2q-37 -16 -70.5 -32.5t-67 -30.5t-67.5 -23t-72 -9q-49 0 -87.5 16t-65.5 43.5t-41.5 65.5t-14.5 82q0 59 28 121.5t72 124t98 120t106 109.5q22 22 60.5 53.5t84 60.5t93.5 49.5t90 20.5q18 0 30.5 -7t22.5 -18
t17.5 -24.5t13.5 -26.5q10 -20 22 -35.5t23 -30.5t18.5 -31.5t7.5 -37.5q0 -32 -14 -64t-32 -68q-13 -23 -21.5 -41t-15.5 -38.5t-14.5 -48t-18.5 -70.5q-4 -17 -8.5 -37t-8 -39.5t-5.5 -36.5t-2 -28v-6q28 2 68 22.5t84 52t89 69t83 74.5q22 18 50 49.5t54 67.5t47 72
t29 64q4 14 5.5 29t1.5 29q0 51 -22.5 92.5t-60 74t-86 56.5t-100.5 39.5t-103 23t-94 7.5q-138 0 -251.5 -30t-206 -85t-165 -132t-129 -171t-97.5 -202t-70 -225q-12 -50 -18.5 -96.5t-6.5 -90.5q0 -83 23 -152.5t70 -119.5t119 -78t170 -28q90 0 180.5 22.5t178 63
t170.5 96.5t158 122q11 8 17 24t13.5 31.5t18.5 27.5t32 12q17 0 30.5 -7t23 -19t14.5 -27.5t5 -31.5q0 -18 -9 -45t-21 -49q-71 -77 -171 -146t-211.5 -121.5t-226.5 -83t-216 -30.5q-132 0 -230 41.5t-163 114t-97.5 171t-32.5 213.5q0 110 29 231zM901 555q37 0 80 12
t81 31t65.5 42t33.5 44l9 35q8 32 19 66t21 66q6 19 14 43t15.5 48t13 46.5t5.5 39.5q0 8 -4.5 14t-15.5 6q-20 0 -59 -22.5t-85 -59.5t-94.5 -84t-88 -96t-65 -96.5t-25.5 -84.5q0 -14 6.5 -23.5t17.5 -15.5t25.5 -8.5t30.5 -2.5z" />
    <glyph glyph-name="A" unicode="A" horiz-adv-x="1415" 
d="M1093 -11q-21 0 -37 8t-26.5 21t-16 30t-5.5 34q0 15 8 41.5t20.5 59.5t27.5 69t29 69t24 61t14 44q4 18 10 43t13.5 54.5t15 62t15.5 65.5q-14 -3 -34.5 -5.5t-43.5 -4.5q-33 -3 -65 -9t-65.5 -13.5t-69.5 -16t-77 -17.5q-60 -13 -120 -29t-125 -16q-20 0 -37 10.5
t-38 15.5q-20 -32 -38 -68.5t-33 -75t-27 -76t-21 -70.5q-5 -18 -8.5 -46.5t-6.5 -58t-6 -56.5t-6 -43q-3 -15 -12 -29.5t-22 -26.5t-29 -19.5t-32 -7.5q-28 0 -45.5 16.5t-28 41t-14.5 53.5t-4 53q0 61 15 126.5t40.5 133t60 136t74.5 136.5q33 61 82 141t109.5 164.5
t131 165.5t146.5 144.5t156 102.5t159 39q83 0 138.5 -30t88.5 -81t46.5 -119t13.5 -144q0 -67 -8.5 -138t-21 -139t-27 -131t-26.5 -114l-35 -136q-2 -6 -7.5 -24t-14 -43.5t-19 -55t-21 -58t-20 -52.5t-16.5 -39l1 1q-7 -26 -15 -53t-22 -48.5t-36 -35t-57 -13.5z
M1144 1241q-45 0 -89.5 -18.5t-87.5 -48.5t-83.5 -70t-77 -82t-68.5 -84.5t-58 -78.5q-4 -6 -10.5 -15.5t-13 -21t-12.5 -24t-10 -22.5h103q56 0 128 8t142.5 19t129.5 22.5t89 17.5q4 13 7.5 35t6.5 49t4.5 57.5t1.5 62.5q0 26 -2 59.5t-12 63.5t-30.5 50.5t-57.5 20.5z
" />
    <glyph glyph-name="B" unicode="B" horiz-adv-x="1239" 
d="M1235 448q0 -72 -42.5 -148t-135.5 -142q-29 -20 -70.5 -43.5t-90 -47.5t-102 -46.5t-108 -39.5t-106.5 -27.5t-98 -10.5q-23 0 -39.5 3.5t-30.5 12.5t-27 25t-28 40q-24 -18 -50.5 -26.5t-53.5 -8.5h-28q-8 0 -15 5.5t-12.5 13.5t-8.5 17.5t-3 18.5q0 51 14.5 97.5
t33.5 92.5q28 85 57 178.5t56 187.5t51.5 185.5t45.5 173.5l28 116q0 3 -1 17t-2.5 30.5t-2.5 30.5l-1 13l5 17l-1 -1q5 18 14 41t22 43t28.5 33.5t33.5 13.5q17 0 43.5 -2.5t47.5 -2.5q10 0 19.5 1t24 5t38 11.5t61.5 20.5q57 20 104.5 33.5t90 22t82.5 12.5t82 4
q53 0 102.5 -10t88 -32.5t61.5 -59t23 -88.5q0 -89 -47 -160t-133 -132t-206.5 -113.5t-268.5 -103.5q118 -18 203.5 -42.5t141.5 -57.5t83 -75t27 -96zM895 540q-10 2 -36.5 7t-62 11t-76.5 12.5t-78 13t-67.5 12.5t-44.5 10q-38 -123 -66.5 -235.5t-57.5 -226.5l66 -7
q23 -2 40.5 -3.5t20.5 -1.5q40 4 88 15.5t99.5 29t104.5 41t104 50.5q19 12 40 29t38 37.5t28 43.5t11 47q0 40 -42 69.5t-109 45.5zM579 772q56 18 118 42.5t127.5 53.5t133 61.5t134.5 65.5h-1q24 13 47.5 31.5t42 40t30 45t11.5 46.5q0 15 -7 30t-22 27t-39.5 19t-60.5 7
q-50 0 -113 -12.5t-122 -31.5t-105 -42t-61 -44q-3 -5 -8.5 -22t-12.5 -37.5t-14.5 -39.5t-14.5 -28q-2 -10 -8 -30.5t-14.5 -48.5t-19 -62t-21.5 -71z" />
    <glyph glyph-name="C" unicode="C" horiz-adv-x="1219" 
d="M236 426q0 58 14 131.5t49 142.5q48 96 107 185.5t121 165t124 134t118 91.5l-1 -1q35 22 74 46t80 44t83 33t83 13q42 0 80 -17t66.5 -46.5t45 -68.5t16.5 -83q0 -31 -3.5 -48.5t-11 -26.5t-19 -11t-26.5 -2q-22 0 -34.5 9.5t-20 23t-11.5 30t-9.5 30t-14 23t-23.5 9.5
q-40 0 -86.5 -18t-95 -48t-97 -68.5t-92.5 -78.5t-81.5 -79t-64.5 -70q-40 -51 -73 -103.5t-57 -107t-37 -112t-13 -119.5q0 -48 13.5 -84t29.5 -62q19 -30 47 -41.5t67 -11.5q85 0 157 16t138 43t129 64t130 79h26q13 0 26.5 -7t24 -18t17 -25t6.5 -29q0 -33 -26 -65.5
t-66.5 -62t-91.5 -55.5t-100.5 -46t-92.5 -34t-69 -19q-22 -5 -42.5 -9.5t-48.5 -9t-67 -7t-98 -2.5q-36 0 -66 11.5t-53.5 27t-40 32.5t-26.5 29q-59 69 -86 136t-27 147z" />
    <glyph glyph-name="D" unicode="D" horiz-adv-x="1423" 
d="M148 150q46 33 93.5 41.5t100.5 13.5l250 1012q-4 0 -22.5 0.5t-41 3t-44.5 8.5t-33 17q-5 7 -12.5 18.5t-14.5 25t-12 27.5t-5 28q0 23 19.5 38.5t48 25t61.5 13.5t60 4q126 0 233.5 -7.5t201 -32.5t176 -71t157.5 -123q28 -29 53.5 -65t45 -78.5t31.5 -91t12 -102.5
q0 -29 -3 -61t-8 -55q-29 -116 -81.5 -205.5t-122 -159t-152.5 -120.5t-172 -89t-181 -66t-179 -50h1q-39 -12 -84 -21t-91 -15t-91.5 -9.5t-85.5 -3.5q-44 0 -74 5.5t-48.5 15t-26.5 21.5t-8 26q0 20 11.5 41.5t37.5 40.5zM588 437q-12 -51 -25 -105t-25 -106l23 5
q22 5 59.5 15t86.5 25t103 36t114.5 50.5t119.5 67t113 81.5t95 94.5t65.5 106t24.5 115.5q0 61 -24 115.5t-64.5 101t-94 83t-111.5 62.5t-117.5 39.5t-112.5 13.5q-75 -194 -128 -394t-102 -406z" />
    <glyph glyph-name="E" unicode="E" horiz-adv-x="1234" 
d="M214 74q0 35 10 74q34 136 79.5 266.5t82.5 259.5t61.5 217.5t43.5 152t35 109.5t35 91q12 27 26.5 56t31.5 53.5t35.5 40t38.5 15.5q41 0 62.5 -13.5t26.5 -24.5l9 -41q15 1 39 5.5t48.5 9.5t45.5 10t32 9q66 18 122 31t106.5 21.5t96.5 12.5t93 4q46 0 75 -5t46 -13.5
t23.5 -20t6.5 -24.5q0 -12 -6.5 -25.5t-21.5 -25.5t-39 -21t-60 -12q-9 -2 -41.5 -7.5t-70.5 -12t-72 -12.5t-47 -9h1q-6 -1 -28.5 -7.5t-54.5 -15t-69.5 -19.5t-74 -21.5t-67.5 -20t-50 -15.5q-61 -24 -95.5 -63.5t-54.5 -88.5q-4 -9 -12 -30.5t-17.5 -49t-20.5 -58.5
t-21 -59t-17.5 -51t-10.5 -34q-3 -10 -4 -18t-1 -12q0 -6 3 -6q15 0 62.5 13.5t111 33.5t136 43t139 43t118.5 33.5t75 13.5q35 0 47 -11.5t12 -25.5q0 -36 -25.5 -63t-63.5 -47q-12 -6 -44.5 -17.5t-70 -23.5t-71.5 -23t-49 -16q-98 -38 -159.5 -62.5t-99.5 -40
t-58.5 -23.5t-38 -13.5t-38.5 -10.5t-58 -14q-9 -21 -21 -63.5t-23 -88t-18.5 -84.5t-7.5 -54q0 -18 5 -26.5t12 -11.5t14 -3h11q48 0 115.5 14t133.5 37q63 22 110 48t88.5 48.5t81 38t86.5 16.5q10 0 23.5 -2t25.5 -7.5t19.5 -14.5t5.5 -23q-4 -29 -29 -57t-63 -54
t-85 -50t-96 -45.5t-96 -39t-84 -30.5q-92 -32 -179 -47t-156 -15q-76 0 -116.5 28.5t-40.5 94.5z" />
    <glyph glyph-name="F" unicode="F" horiz-adv-x="1131" 
d="M685 1080q-8 -12 -20.5 -41.5t-26 -68t-27 -81.5t-25 -80.5t-19.5 -66t-10 -37.5q-2 -11 -7.5 -33l-9.5 -38q112 38 221.5 63t219.5 25q17 0 45 -1t55 -7.5t46.5 -20.5t19.5 -40q0 -1 -1 -12.5t-6 -26.5t-15.5 -30t-28.5 -22q-11 1 -21.5 1h-21.5q-71 0 -142.5 -12.5
t-144 -34t-144.5 -51t-144 -62.5l-101 -437q-2 -17 -16.5 -30.5t-28.5 -13.5h-24q-38 0 -52.5 31t-14.5 80q0 41 7 89.5t16 94.5t16 84t7 58q-12 17 -24 36t-12 47q0 44 23 70t61 51q4 3 8.5 11t8 18t6 20t4.5 17l41 148q24 87 43 152.5t35 117.5t29.5 93.5t26.5 80.5
q4 13 13.5 37t23 47t30.5 40t37 17q45 0 61.5 -7.5t21.5 -19.5l9 -22q16 2 45.5 7.5t61 12.5t58.5 13.5t39 10.5q67 18 123 31t106 21.5t96 12.5t93 4q22 0 41 -2t32.5 -7.5t21.5 -16t8 -27.5q0 -9 -4 -22.5t-13 -27t-24.5 -25.5t-38.5 -18q-7 -2 -25 -5.5t-41.5 -7.5
t-50 -8.5t-50.5 -8.5q-38 -9 -85.5 -19.5t-99 -23.5t-103.5 -28t-98 -31t-82.5 -33t-57.5 -35z" />
    <glyph glyph-name="G" unicode="G" horiz-adv-x="1395" 
d="M1311 709q-12 -3 -43 -13t-70 -23.5t-82.5 -29t-82.5 -29t-68 -23.5t-39 -13q-7 -1 -18 -6t-22.5 -10t-22 -9.5t-16.5 -4.5q-21 0 -37.5 8.5t-28.5 22.5t-18 33t-6 39q0 41 23 65t54.5 36.5t65.5 16.5t56 7q3 0 12 3t20 7t22 7t18 3q18 8 56 24t83 32.5t89.5 29
t76.5 12.5q36 0 64 -11.5t48 -32t30.5 -48t10.5 -60.5q0 -14 -2 -28.5t-7 -35.5q-30 -112 -91.5 -208.5t-144.5 -175t-183 -138.5t-206 -99l1 1q-17 -7 -41.5 -14.5t-51 -14t-52 -10.5t-44.5 -4q-39 0 -66 2.5t-45.5 6t-31 8.5t-22.5 10q-57 26 -104.5 62.5t-81.5 84.5
t-53 106.5t-19 127.5q0 74 24 154.5t66 162.5t98.5 162t122.5 153.5t137.5 136.5t142.5 111q43 29 92.5 59t101.5 54t105.5 39.5t104.5 15.5q41 0 81 -12t72 -33.5t52 -52.5t20 -69q0 -17 -5 -37q-2 -8 -8 -28t-15 -31l2 2q-4 -13 -13.5 -15t-19.5 -2q-30 0 -51 15t-39 32.5
t-35.5 32.5t-41.5 15h-27q-78 -17 -166 -63.5t-175.5 -113t-167.5 -148.5t-141 -170t-97.5 -178.5t-36.5 -173.5q0 -68 31 -116.5t90 -95.5h-1q31 -20 67.5 -34t71.5 -14q36 0 78.5 14t85 35t83 46t73.5 46q106 69 179 164t120 197l4 10q2 4 3 8.5t2 7.5z" />
    <glyph glyph-name="H" unicode="H" horiz-adv-x="1492" 
d="M166 30q0 11 3.5 29.5t8.5 38t10.5 37.5t8.5 29l405 1329q5 7 11 12q5 5 13.5 8.5t20.5 3.5h17q22 0 37 -7.5t24 -20t12.5 -29t3.5 -35.5q0 -16 -2.5 -33.5t-5.5 -34t-6.5 -30.5l-5.5 -22l-208 -710l95 9q159 35 324.5 72.5t324.5 72.5q18 9 32 37t27.5 73t29.5 105.5
t39 134.5l21 69q13 50 23.5 102.5t25.5 95.5t38 70.5t59 27.5q51 0 79 -32.5t28 -81.5q0 -31 -23.5 -104t-58.5 -178q-13 -39 -28 -80t-27.5 -78.5t-20.5 -69t-8 -50.5q0 -18 5 -35.5t5 -37.5q0 -45 -24 -75t-66 -61q-2 -8 -5.5 -25t-8.5 -35l-13 -51q-14 -55 -23.5 -110
t-17 -109t-16 -108t-21.5 -107q-5 -20 -17.5 -35.5t-29 -26.5t-34.5 -17t-34 -6q-24 0 -39 11t-23.5 26t-11.5 31t-3 27q0 12 3.5 39.5t9.5 64.5t14 80t16 87q19 102 44 223h-7q-26 0 -56 -5.5t-72 -15.5q-19 -6 -56.5 -16t-85.5 -23t-103.5 -28t-110.5 -30l-271 -74
q-19 -39 -35.5 -84.5t-30.5 -92t-25.5 -91.5t-21.5 -85q-3 -11 -12.5 -24t-22 -24t-26 -18t-25.5 -7q-22 0 -36.5 9.5t-23.5 25t-12.5 35t-3.5 38.5z" />
    <glyph glyph-name="I" unicode="I" horiz-adv-x="599" 
d="M343 574q9 39 21.5 86.5t27 98.5t29.5 103t29.5 100t26.5 89.5t21 70.5q19 65 36 130.5t33 137.5q20 39 54 55.5t74 16.5q32 -17 50.5 -46.5t18.5 -66.5q0 -26 -8.5 -59.5t-21.5 -72t-29 -81t-31 -87.5l-56 -164t-55 -173q-7 -24 -15 -48t-16.5 -52t-18.5 -62.5
t-20 -79.5q-12 -53 -21 -106.5t-17 -107.5t-18 -109t-24 -111q-5 -20 -17.5 -35.5t-28.5 -26.5t-34 -17t-34 -6t-30.5 2.5t-22.5 11.5q-12 13 -19 29t-7 34q0 5 0.5 9.5t1.5 9.5z" />
    <glyph glyph-name="J" unicode="J" horiz-adv-x="1395" 
d="M290 454q16 0 25.5 -12.5t14.5 -30.5t6.5 -39t1.5 -39v-38q21 -33 53.5 -71.5t74.5 -72t91.5 -56t105.5 -22.5q60 0 112.5 28t97.5 74.5t83 106.5t68.5 124.5t54 128.5t40.5 118t27 93.5t14 54.5q26 106 44.5 203t18.5 191q0 23 -14 26l-248 -70q-21 -6 -34 -6
q-38 0 -63.5 24t-25.5 69t8.5 72.5t27 41.5t48.5 18.5t73 4.5h14q24 5 61.5 14t83.5 20.5t98 25t105 27t105.5 26.5t98.5 24q3 1 20 5t38 8.5t40 8.5t25 4q12 0 22 -7t16.5 -17.5t10.5 -24t4 -25.5q0 -30 -23 -52t-58 -38.5t-76.5 -29t-77.5 -23.5t-61.5 -21.5t-28.5 -23.5
q-5 -44 -10 -98t-11 -103q-2 -12 -8.5 -58t-18 -112t-28 -144.5t-37.5 -154.5q-23 -83 -60.5 -177t-89 -183t-116.5 -166.5t-141 -127.5q-18 -11 -42 -22t-52.5 -19t-60 -13t-62.5 -5q-52 0 -112.5 14t-121.5 40t-117.5 62.5t-100.5 81t-70 95.5t-26 107q0 43 8.5 74
t27.5 50t50.5 28t76.5 9z" />
    <glyph glyph-name="K" unicode="K" horiz-adv-x="1410" 
d="M617 1381q26 0 42.5 -5.5t25.5 -17.5t12.5 -31t3.5 -45q0 -23 -1.5 -43.5t-5 -41.5t-8.5 -44t-11 -50q-19 -80 -45.5 -159.5t-52.5 -163.5l-37 -122q57 15 107.5 42t98.5 63t94 80.5t94 93.5q75 77 149 159.5t143 168.5q11 14 23 40t28.5 52t38.5 45t53 19q20 0 35.5 -13
t25.5 -32.5t15 -43t5 -43.5q0 -17 -3 -29q-56 -84 -120 -161.5t-133.5 -149.5t-143 -140.5t-148.5 -134.5q103 -35 188.5 -91t151 -135.5t110.5 -184.5t66 -237q-6 -18 -17 -34.5t-26 -29t-34 -20.5t-41 -8q-35 0 -54.5 14.5t-30 36.5t-15 49l-8.5 51l-4 25
q-11 67 -40.5 125.5t-69 104.5t-86 78.5t-91.5 49.5l-29 11q-18 7 -40.5 15t-46 15t-45.5 11.5t-39 4.5q-10 0 -39 -11.5t-63.5 -25.5t-67.5 -27t-49 -17l-25 -102q-11 -45 -15.5 -86.5t-6.5 -78.5q-1 -31 -2.5 -67t-10.5 -67t-30.5 -52t-63.5 -21q-26 0 -41.5 15
t-23.5 37.5t-10 48t-2 46.5q0 26 3.5 58.5t9 66.5t12.5 67.5t14 61.5l233 938q18 72 94 72z" />
    <glyph glyph-name="L" unicode="L" horiz-adv-x="1234" 
d="M325 516q45 138 86 265t72.5 235t50 191t20.5 132q12 47 42.5 75t70.5 28q24 0 41 -11t27.5 -29t15.5 -40.5t5 -45.5q0 -17 -2 -31t-5 -27q-23 -92 -55 -190t-65.5 -198.5t-66.5 -201.5t-59 -198l-18 -68q-14 -52 -24 -99t-10 -76q0 -16 6 -25.5t23 -9.5q41 0 96 13.5
t114 33t117.5 43t107.5 44.5q26 11 44.5 19t46 19.5t73.5 30.5t127 53q14 5 24.5 8.5t19.5 3.5q16 0 27.5 -6t18 -16t9.5 -23t3 -26q0 -22 -3.5 -38.5t-7.5 -27.5q-12 -19 -31 -34.5t-40 -27t-41 -19.5t-33 -12q-16 -6 -42.5 -16t-57.5 -22t-64 -24.5t-62 -23.5t-51.5 -19.5
t-31.5 -11.5q-43 -16 -95.5 -36t-104.5 -38t-98.5 -30.5t-77.5 -12.5q-38 0 -59.5 6t-38.5 16.5t-34.5 25.5t-46.5 33q-26 16 -37 44t-11 60q0 16 2.5 37t6.5 44t9 45t11 39z" />
    <glyph glyph-name="M" unicode="M" horiz-adv-x="1896" 
d="M148 88q19 76 53 169t78.5 194t98 205t111 202.5t118 186t119.5 156.5q17 19 42.5 47t57 58t66 59.5t69.5 53t68 38t61 14.5q38 0 69.5 -13t54 -37t35 -57.5t12.5 -73.5q0 -17 -2.5 -34t-6.5 -35l-111 -558q15 23 42 62.5t61 88t71 101t72.5 101.5t65.5 89.5t49 65.5
l18 23q18 23 44 54t57.5 65t66.5 67t71 59t71 42.5t67 16.5q24 0 40 -11t26 -29.5t14 -43.5t4 -52q0 -42 -7 -85t-16 -78q-5 -28 -13.5 -80t-20 -119.5t-24.5 -146t-26.5 -159.5t-27 -160t-25 -147.5t-21 -122.5t-15.5 -84q-3 -14 -9.5 -38t-19 -47t-33 -40t-50.5 -17
q-16 0 -30.5 10.5t-26 26.5t-18 34.5t-7.5 33.5l208 988q3 14 5 25t2 21q0 11 -2.5 20t-4.5 17q-3 9 -6 16q-45 -34 -96.5 -86.5t-104 -117t-105 -137t-99.5 -145.5q-37 -57 -79.5 -120t-85.5 -126.5t-83.5 -127t-73.5 -121.5q-16 -28 -33 -72t-37.5 -86t-44 -72t-53.5 -30
q-23 0 -38.5 7t-24.5 18.5t-13 27t-4 33.5q0 23 4.5 46t9.5 44q21 88 44 175t47.5 178t50.5 188.5t53 207.5q7 31 16 69.5t17 78t13 76.5t5 66q0 26 -4 41.5t-15 15.5q-37 0 -78 -27.5t-83 -72.5t-83 -103t-78 -119.5t-69 -121.5t-55 -108q-5 -10 -14.5 -27.5t-25 -49
t-38 -80.5t-53 -124t-70.5 -179t-90 -244q-9 -24 -31.5 -39t-46.5 -15q-52 0 -76.5 28t-24.5 69q0 18 5 40z" />
    <glyph glyph-name="N" unicode="N" horiz-adv-x="1617" 
d="M524 1210q6 26 15 55.5t24 54t39 41t61 16.5q35 0 62.5 -19.5t49.5 -39.5q26 -17 50 -69t49.5 -128t55 -172t65 -201t79.5 -214.5t100 -213.5q9 -16 21 -37.5t24.5 -40.5t23 -32t15.5 -13q3 0 7 15t9 36t10.5 43t10.5 36q19 46 41.5 105.5t50 144t60.5 200.5t73 275
q10 39 21.5 88.5t22 101t18.5 100.5t11 85q0 6 1 21t3.5 34t6.5 39.5t10.5 37.5t16.5 28t24 11t34.5 -4t37.5 -12q19 -26 34.5 -62.5t15.5 -98.5q0 -39 -8 -93.5t-20.5 -117t-28 -128.5t-31.5 -126.5t-30.5 -111t-24.5 -83.5q-18 -58 -37.5 -119.5t-43 -129t-51 -143
t-61.5 -161.5q-15 -39 -34.5 -78t-44.5 -70.5t-56.5 -51t-70.5 -19.5q-23 0 -47.5 6.5t-41.5 26.5q-82 95 -146 215.5t-114.5 252t-89.5 266t-71 257.5l-6 23q-4 14 -7.5 28.5t-7 26.5t-8 19.5t-10.5 7.5t-15 -22t-18 -49.5t-16.5 -53.5t-9.5 -33q-7 -26 -21 -74.5
t-31.5 -109.5t-38 -129t-39.5 -131.5t-36 -117.5t-28 -87q-9 -26 -22 -67t-26 -82.5t-24 -75.5t-14 -45q-12 -38 -35.5 -57.5t-47.5 -19.5q-15 0 -30 10.5t-26.5 25.5t-19 32.5t-7.5 31.5q0 8 5 25.5t16 59.5l26 103zM852 1464z" />
    <glyph glyph-name="O" unicode="O" horiz-adv-x="1458" 
d="M229 509q18 75 52 153.5t80 157.5t102.5 155.5t120 148t131 135t135.5 116.5q32 22 59 29t57 7q32 0 57 -9.5t50 -34.5q8 -9 17 -16t17 -7q2 0 5 4.5t6.5 10.5t8.5 12.5t12 9.5q17 8 40.5 10.5t47.5 2.5q45 0 87 -16.5t74 -46.5q76 -71 115.5 -170t39.5 -213
q0 -102 -30 -220q-26 -104 -74.5 -202t-114 -184t-146 -157t-171.5 -122t-190 -79.5t-201 -28.5q-95 0 -170.5 29t-128 82t-80 126t-27.5 162q0 38 4.5 76.5t14.5 78.5zM398 442q-11 -50 -11 -90q0 -56 19.5 -98.5t55 -71t85 -43t108.5 -14.5q70 0 142.5 22t141.5 64
t133 101t118.5 134t97 163t68.5 187q10 36 14.5 75t4.5 75q0 58 -13 111t-43 94t-79 65.5t-120 24.5q-10 0 -15.5 -8.5t-11.5 -21.5q-5 -11 -11.5 -23t-17 -21.5t-26 -15.5t-38.5 -6q-17 0 -30 7.5t-26 20.5q-6 6 -10 9.5t-9 3.5q-9 0 -23.5 -8t-30 -19t-30 -23t-22.5 -21
q-68 -70 -135.5 -152.5t-124.5 -170.5t-99.5 -177.5t-61.5 -172.5zM1126 1464z" />
    <glyph glyph-name="P" unicode="P" horiz-adv-x="1347" 
d="M196 47q4 18 11.5 34t16.5 36t19 47.5t20 68.5l39 160q14 58 29 118.5t35 136.5q16 61 38.5 127.5t47 137.5t49.5 146t45 155q1 3 1 8q0 8 -5 10t-13 2q-25 0 -41.5 7.5t-26 19.5t-13.5 27.5t-4 32.5q0 44 10.5 70.5t27 41t36 21t38 10.5t32.5 8.5t20 16.5
q10 21 18.5 44.5t21.5 43.5t32 33t50 13q22 0 39 -12t29.5 -30t21.5 -38.5t16 -37.5q103 -3 178.5 -12t113.5 -16q75 -14 150.5 -42t136 -72.5t99 -105t38.5 -138.5q0 -40 -9 -83l-7 -35q-8 -42 -33.5 -78t-57.5 -65q-89 -82 -195 -137.5t-221 -93.5t-235 -64t-237 -49
l-28 -4q-23 -3 -27 -17q-20 -69 -31.5 -121t-21.5 -99.5l-20 -95t-25 -105.5q-5 -19 -18 -45t-31 -49t-41.5 -39.5t-49.5 -16.5q-18 0 -31 10t-21.5 25.5t-13 33.5t-4.5 34v11.5t2 10.5zM593 786q-2 -7 -5.5 -17.5t-6.5 -22t-5 -21t-2 -13.5q0 -5 1.5 -8.5t6.5 -3.5
q3 0 19 2.5t38.5 6.5t48.5 9t50 10q65 14 139 35.5t147.5 48.5t140.5 58t119 66q55 37 88 74t33 79q0 25 -6.5 44.5t-14.5 35.5q-30 49 -75 77t-98 42t-111 18t-114 4q-15 0 -45.5 -2t-64 -5t-62 -7.5t-38.5 -10.5q-5 -3 -8.5 -10t-5.5 -12q-8 -20 -22 -55.5t-30 -79.5
t-33.5 -93t-33.5 -95.5t-29.5 -87t-20.5 -66.5z" />
    <glyph glyph-name="Q" unicode="Q" horiz-adv-x="1426" 
d="M1176 -143q8 -8 11.5 -19t3.5 -22q0 -25 -16.5 -45t-39 -33.5t-46.5 -20.5t-39 -7q-16 0 -31 8t-27 19t-21 22t-13 16q-26 36 -47.5 73.5t-39.5 78.5t-34.5 86t-32.5 96q-15 -2 -35 -4t-41 -3.5t-41 -2.5t-34 -1q-109 0 -189.5 35t-137.5 116q-37 52 -56.5 118.5
t-19.5 146.5q0 75 22 155t60.5 160t92 157t116 146.5t132 128.5t141.5 101.5t143 66.5t137 24q27 0 43.5 -6.5t36.5 -14.5l33 -14q28 -5 51.5 -10.5t45.5 -13t44.5 -18.5t48.5 -27q42 -26 72.5 -72t50 -102t29 -118.5t9.5 -121.5q0 -116 -44 -223.5t-118.5 -204t-173.5 -180
t-208 -150.5q-10 -5 -14.5 -9t-4.5 -11q14 -53 30 -93t37 -74t48.5 -65.5t65.5 -67.5zM428 603q-7 -28 -11 -55t-4 -52q0 -45 13 -84.5t39.5 -68.5t67.5 -45.5t98 -16.5q22 0 39.5 1t32.5 2.5t29.5 4.5t29.5 6q-3 18 -7.5 43.5t-8.5 52t-6.5 49t-2.5 34.5t2 29t11.5 32.5
t28.5 26.5t53 11q38 0 57 -23.5t29.5 -58.5t16.5 -75.5t18 -75.5q67 40 133.5 92.5t124.5 117.5t103.5 144.5t70.5 175.5q6 25 9.5 50t3.5 50q0 51 -14 102.5t-43.5 92.5t-76 67t-110.5 26q-45 0 -86.5 -6.5t-83.5 -21.5t-87.5 -39.5t-97.5 -60.5q-64 -44 -123 -104.5
t-107.5 -130t-85 -144.5t-55.5 -148z" />
    <glyph glyph-name="R" unicode="R" horiz-adv-x="1428" 
d="M238 126q57 229 118 452.5t118 452.5q7 30 14 57t13 54t9.5 54.5t3.5 57.5q0 23 -3 42t-3 43q0 23 6 49q15 61 42.5 91t83.5 30q23 0 44.5 -4.5t42.5 -10.5q23 -7 47.5 -12t49.5 -5q20 0 39 2t43.5 4t58 4t84.5 2q28 0 66 -2t79 -9t83 -20.5t78.5 -36.5t64.5 -56.5
t42 -80.5q7 -23 9.5 -42t2.5 -37q0 -61 -31 -120q-35 -67 -94.5 -125.5t-138.5 -110.5q-31 -21 -72 -43.5t-80.5 -43t-71 -37.5t-43.5 -26q35 -17 70 -35.5t71.5 -44.5t74 -63t78 -90.5t84 -126.5t90.5 -172q12 -24 12 -51q0 -21 -8.5 -42t-23 -38t-34.5 -27.5t-43 -10.5
q-35 0 -58 26t-44 68t-43.5 95t-55.5 107q-36 58 -79.5 110t-92.5 90t-101 60.5t-104 22.5h-15q-31 0 -55.5 -5.5t-47.5 -9.5q-31 11 -45 36t-14 56v14l-80 -315q-4 -15 -11 -41t-16 -57t-18.5 -65t-18 -64t-15 -54t-9.5 -36q-14 -25 -35.5 -39.5t-46.5 -14.5
q-44 0 -61 26.5t-17 61.5q0 14 2 28.5t5 27.5zM729 1254q-6 -20 -17.5 -58t-25.5 -86t-30 -103t-32 -110.5t-31 -107.5t-27 -93q20 26 60 46.5t90 38.5q39 14 96 39.5t119.5 58.5t125 71.5t112 79t80.5 81t31 78.5q0 37 -26 58.5t-65 32.5t-85.5 14.5t-86.5 3.5
q-72 0 -144 -9t-144 -35z" />
    <glyph glyph-name="S" unicode="S" horiz-adv-x="1253" 
d="M205 231q34 -12 69.5 -28t73.5 -30.5t79.5 -24.5t88.5 -10q55 0 111 13t109.5 38.5t102.5 62t90 84.5q45 51 75 92.5t48.5 74t26.5 56t8 40.5q0 25 -17 43.5t-45.5 30.5t-64.5 17.5t-75 5.5q-23 0 -54 -1.5t-63 -3t-62 -2.5t-52 -1q-33 0 -68.5 7.5t-69.5 24.5t-63 46
t-48 72q-6 14 -11 33t-5 41q0 24 3.5 45.5t8.5 41.5q14 50 46.5 101.5t78 100.5t99 95t110 86.5t111 73t101.5 55.5q66 32 134.5 46.5t135.5 14.5q40 0 76 -10.5t63.5 -30.5t43.5 -49.5t16 -67.5q0 -22 -5 -37t-13 -24.5t-17.5 -13.5t-19.5 -4q-27 0 -49.5 6t-43.5 13.5
t-42 14t-46 6.5q-74 0 -150.5 -29.5t-149 -75t-137 -101.5t-115.5 -109q-27 -28 -39.5 -56t-12.5 -53q0 -37 32 -58t78 -21q27 0 61 1t69.5 2.5t69 3t59.5 1.5q62 0 119 -17.5t101 -51.5t70.5 -84.5t26.5 -115.5q0 -40 -12 -81t-33 -82.5t-48 -82t-57 -79.5
q-54 -70 -120.5 -132t-141.5 -108t-158.5 -73t-171.5 -27q-38 0 -78 7t-79 20.5t-73.5 34t-60.5 46.5t-41.5 57.5t-15.5 68.5q0 18 5.5 34.5t27.5 16.5zM713 1464z" />
    <glyph glyph-name="T" unicode="T" horiz-adv-x="1313" 
d="M644 161q38 166 85.5 335t92.5 335q19 69 33.5 125.5t24.5 102.5t15 83.5t5 69.5v13.5t-1 18.5q-10 0 -44.5 -11t-81 -29t-98 -40.5t-95.5 -45.5q-35 -18 -58.5 -30t-40.5 -18.5t-31 -9t-29 -2.5q-31 0 -53.5 24t-22.5 62q0 22 4.5 38.5t14 29.5t25.5 24.5t39 23.5
q253 132 512 193.5t520 61.5q21 0 50 -1t59.5 -3.5t59.5 -7t51 -10.5q23 -7 40 -29t17 -47q0 -20 -3.5 -39t-12.5 -33t-23.5 -22.5t-35.5 -8.5q-36 4 -82.5 10t-93.5 6q-94 0 -187.5 -4.5t-191.5 -26.5q-5 -2 -6.5 -10.5t-2.5 -21.5q-3 -54 -9 -95t-16.5 -82t-25.5 -88.5
t-35 -114t-46.5 -159t-58.5 -223.5l-48 -194q-17 -67 -26.5 -120.5t-16.5 -105.5q-4 -17 -30.5 -32t-62.5 -15q-21 0 -38 11.5t-28 29.5t-15 39.5t2 42.5z" />
    <glyph glyph-name="U" unicode="U" horiz-adv-x="1444" 
d="M320 481q22 101 47.5 180.5t50.5 148t47.5 131t39.5 129.5l12 48q4 18 7 45t6.5 56.5t9.5 58.5t17.5 52t29.5 37.5t46 14.5q31 0 52.5 -11t34.5 -29t19 -41.5t6 -48.5q0 -21 -2.5 -42t-7.5 -39q-11 -45 -36 -105t-55 -132.5t-61 -157t-55 -178.5q-14 -53 -24.5 -116
t-10.5 -114q0 -41 7 -77.5t25 -64t48.5 -43.5t77.5 -16q36 0 74.5 6t91.5 29q78 35 147.5 90.5t129 126.5t110 153t91.5 170t72.5 178t53.5 177q9 37 14 69.5t7.5 66.5t4 73t5.5 89q3 40 22.5 69.5t59.5 29.5q25 0 43.5 -20t30.5 -49.5t18 -62.5t6 -59q0 -50 -10 -108
t-24 -111q-29 -115 -69.5 -231t-96.5 -227t-130.5 -215.5t-171.5 -195.5q-48 -45 -104 -88.5t-117 -78.5t-125 -56.5t-127 -21.5q-91 0 -158 25.5t-111.5 71.5t-66.5 109.5t-22 139.5q0 36 6 79.5t15 85.5z" />
    <glyph glyph-name="V" unicode="V" horiz-adv-x="1333" 
d="M397 1132q0 24 -2.5 42.5t-5.5 35t-5.5 32.5t-2.5 35q0 25 4.5 48.5t15 42t28.5 30t46 11.5q40 0 64 -17t37 -43.5t17.5 -60t4.5 -66.5q0 -29 -5.5 -90t-11.5 -152t-11.5 -211t-5.5 -265q0 -46 4 -102.5t16 -107.5t34 -89.5t59 -49.5q92 86 168.5 186t138.5 202t112 200
t90 179q38 79 68.5 143.5t55 119.5t43 102.5t33.5 91.5q4 10 13 29t29 33q26 19 83 19q35 0 51 -15.5t16 -43.5q0 -10 -0.5 -23.5t-5.5 -24.5q-23 -61 -61 -139.5t-79 -166.5q-39 -83 -81 -169.5t-86 -170t-88.5 -160t-87.5 -140.5q-38 -57 -104 -146.5t-175 -214.5
q-17 -19 -34 -36.5t-36 -31.5t-41 -22.5t-48 -8.5q-40 0 -70 17t-53.5 42.5t-40.5 56.5t-31 60q-18 36 -30.5 79t-20.5 89.5t-12 95t-4 95.5q0 6 0.5 35.5t1.5 76t2 105.5t2 123.5t1.5 132t0.5 129.5v48z" />
    <glyph glyph-name="W" unicode="W" horiz-adv-x="1894" 
d="M272 448q22 91 57.5 190t74.5 202t77 209.5t65 212.5q7 26 12 48t10 47q12 26 32.5 40t44.5 14q22 0 41.5 -7t34 -22.5t23 -39.5t8.5 -57q0 -36 -11 -82q-39 -100 -79 -196t-77.5 -188t-69.5 -182t-55 -178q-2 -7 -8 -30.5t-12.5 -56.5t-11.5 -70.5t-5 -72.5
q0 -24 3 -45.5t10 -37.5t19 -25t30 -9q38 0 93 39.5t119 107.5t131.5 159t131.5 195t119 214t93 217q9 19 22 24.5t34 5.5q39 0 65.5 -23.5t26.5 -60.5q0 -9 -2 -17t-6 -19l-14 -41q-16 -47 -30.5 -86.5t-23.5 -74.5q-13 -50 -21 -91.5t-12.5 -78t-6 -71.5t-1.5 -71
q0 -14 2.5 -41t7.5 -59.5t13.5 -66t20 -61.5t27 -45.5t35.5 -17.5q31 0 65.5 25.5t69.5 70t70.5 104.5t69 129t64 143t56 146.5t45 140t31.5 123.5q11 53 19 103l16 100t17.5 100.5t23.5 103.5q5 19 15 39t24.5 36.5t31.5 27t35 10.5q45 0 61 -24.5t16 -81.5q0 -42 -7.5 -98
t-19 -117.5t-25.5 -124.5t-28 -119q-28 -114 -74 -236.5t-102.5 -239t-120 -219.5t-127.5 -177q-22 -26 -52 -53t-64.5 -49t-70 -36.5t-68.5 -14.5q-69 0 -115.5 40.5t-76 108t-45 154t-22.5 178.5q-56 -83 -102.5 -148t-94.5 -120q-36 -41 -81 -88.5t-95.5 -88t-103.5 -67
t-104 -26.5q-59 0 -98.5 20.5t-63.5 56.5t-34.5 85t-10.5 106q0 66 11 136t28 140z" />
    <glyph glyph-name="X" unicode="X" horiz-adv-x="1458" 
d="M1099 49q-8 30 -22 69.5t-32.5 83t-40 89t-43.5 87.5t-43.5 77.5t-39.5 59.5q-29 -23 -65 -52t-75 -60.5t-79.5 -63t-79.5 -58.5q-31 -22 -72.5 -50t-87.5 -58t-94 -58.5t-92 -51t-81.5 -36.5t-61.5 -14q-38 0 -54.5 24.5t-16.5 54.5q0 28 6.5 47t31.5 31
q209 101 396 229.5t341 284.5q-8 22 -20.5 57t-27 75.5t-30.5 84t-31 84t-28 74t-21 54.5q-20 50 -44 83t-45 60t-35 53t-14 62q0 16 7 33.5t20 32.5t31 24.5t40 9.5q24 0 45.5 -9t39 -23t31.5 -32t24 -36q34 -62 64.5 -141t56.5 -156.5t48 -142.5t39 -99q69 73 129.5 140.5
t113 132t96.5 127.5t78 128q17 32 28 64.5t29 58.5q14 15 35 24.5t50 9.5q21 0 35.5 -8.5t23.5 -22.5t13 -32t4 -37q0 -14 -1.5 -27.5t-4.5 -24.5q-15 -52 -41 -99t-60 -93t-74 -92t-83 -96q-62 -72 -113.5 -129t-89 -98t-61 -67t-30.5 -38q0 -10 6 -21.5t13 -22.5
q80 -126 132.5 -219.5t84 -159t44 -105t12.5 -57.5q0 -16 -4.5 -34.5t-15 -34.5t-27 -27t-39.5 -11q-96 0 -128 88z" />
    <glyph glyph-name="Y" unicode="Y" horiz-adv-x="1395" 
d="M290 -153q0 24 12.5 48.5t34 51t50 55.5t59.5 61q59 60 124 125t124 134q25 30 40 49t22.5 31.5t10 21.5t3.5 18q-42 54 -74.5 117t-58 131.5t-46 138.5t-38.5 137q-17 61 -32.5 123t-40.5 107q-19 34 -32.5 70.5t-13.5 80.5q0 19 4.5 44.5t16 47.5t30 37.5t45.5 15.5
q29 0 54 -20t45 -50.5t34 -66t22 -65.5q10 -43 24.5 -107t29 -131t28.5 -127t25 -96q13 -45 28 -84.5t30 -68t29.5 -45t27.5 -16.5q10 0 31 27q82 109 170.5 233.5t172.5 246.5q31 45 55 83t43.5 72.5t35.5 67t30 65.5l26 105q4 16 13.5 32.5t22 30t29 22t36.5 8.5
q26 0 45 -10.5t31 -27.5t18 -39.5t6 -46.5q0 -27 -10.5 -62t-27.5 -72t-38 -73t-41 -65q-143 -204 -290.5 -413.5t-299.5 -401.5q-135 -171 -264.5 -317t-236.5 -255q-23 -23 -52 -43t-61 -20q-17 0 -28.5 7.5t-18.5 19.5t-10.5 27.5t-3.5 30.5z" />
    <glyph glyph-name="Z" unicode="Z" horiz-adv-x="1690" 
d="M172 108q11 45 40.5 82t61.5 60q11 7 32.5 25.5t49.5 43t60 53t64 57.5t61.5 55t52.5 46q160 140 288.5 252.5t228 200t172 151t121.5 105.5t75 64.5t33 28.5q-23 3 -48 4t-47 1q-46 0 -86.5 -3.5t-77.5 -10t-72 -14.5t-71 -17q-50 -13 -96.5 -26t-86 -25t-71 -22.5
l-52.5 -17.5q-23 -8 -52.5 -16.5t-68.5 -8.5q-26 0 -44.5 11t-30.5 28t-17.5 36.5t-5.5 37.5t5.5 36.5t16 34.5t25.5 26t35 10q15 0 47.5 2.5t68.5 8.5q9 1 35.5 7.5t62.5 14.5t76 17.5t76 18.5q50 12 93.5 21t94.5 14t117.5 7.5t162.5 2.5q55 0 94.5 -3.5t68 -13.5t48 -28
t34.5 -47q6 -12 8 -21.5t2 -17.5q0 -29 -10 -52t-26 -42t-34.5 -35t-35.5 -31q-296 -257 -587 -512t-583 -510q67 7 151 15t175.5 18t186 23t182.5 31q38 10 71.5 22.5t59.5 24t43.5 21t23.5 13.5q11 5 34 24t51.5 40t59.5 37.5t59 16.5q24 0 45 -16t21 -44
q0 -20 -16.5 -44.5t-44.5 -52.5t-66.5 -57.5t-81.5 -57.5q-7 -5 -19.5 -12t-28 -15.5t-32 -16.5t-31.5 -14q-106 -43 -193.5 -62.5t-165 -28.5t-150 -14t-148.5 -18q-47 -8 -104 -18.5t-110 -19.5t-95.5 -15.5t-58.5 -6.5q-68 0 -99.5 25.5t-31.5 70.5q0 11 1 21.5t4 20.5z
" />
    <glyph glyph-name="asciicircum" unicode="^" horiz-adv-x="991" 
d="M822 1528q25 0 50 -9t36 -20q19 -29 32.5 -62t33.5 -72q30 -58 65 -111t69 -110q20 -32 43.5 -64.5t58.5 -58.5q9 -15 9 -32q0 -20 -8.5 -39t-23 -33.5t-35 -23.5t-44.5 -9q-33 0 -47.5 13.5t-29.5 40.5q-12 22 -22 42t-24.5 46.5t-35.5 63t-55 91.5q-19 31 -35 59
t-27 44q-8 12 -15 19.5t-18 7.5q-26 0 -49.5 -19.5t-58.5 -57.5q-30 -33 -61 -77t-63 -91.5t-64.5 -94t-64.5 -83t-64 -59t-63 -22.5q-26 0 -44 15t-18 41q0 16 9.5 33.5t31.5 48.5q19 27 43.5 60.5t50.5 69.5t51.5 71.5t47.5 66.5q20 28 46 62t55.5 69t61 68.5t63 59
t60.5 41t53 15.5z" />
    <glyph glyph-name="underscore" unicode="_" horiz-adv-x="978" 
d="M0 -328q-24 0 -36.5 18t-12.5 43q0 16 6 33t18.5 31t31.5 22.5t45 8.5q69 0 144 -5.5t163 -5.5h152q33 0 72.5 2t78.5 3.5t73.5 3.5t55.5 2h99q23 0 34.5 -15t11.5 -37q0 -17 -6 -35.5t-16.5 -33.5t-25.5 -25t-32 -10h-40q-103 0 -206.5 -5.5t-210.5 -5.5
q-99 0 -197.5 5.5t-201.5 5.5z" />
    <glyph glyph-name="grave" unicode="`" 
d="M645 1350q8 30 30.5 49t47.5 19q24 0 34 -5t19 -13q29 -25 78 -66t106 -88l40 -33q14 -11 27 -30t13 -45q0 -13 -4 -26.5t-12.5 -24t-21.5 -17.5t-31 -7q-19 0 -33 5t-28 14l-220 147q-24 17 -37.5 35.5t-13.5 46.5q0 18 6 39z" />
    <glyph glyph-name="a" unicode="a" horiz-adv-x="993" 
d="M682 43q0 29 7 69.5t7 100.5q-33 -24 -73 -57t-83 -63t-85.5 -50.5t-79.5 -20.5q-30 0 -57 9t-46 24q-53 42 -76.5 84t-23.5 98q0 25 4.5 52t13.5 62q38 158 130.5 292.5t229.5 229.5q53 37 106 47.5t105 10.5q23 0 51.5 -3t51.5 -6q23 5 37.5 7t30.5 2q30 0 50 -8
t32 -21.5t17.5 -31t5.5 -36.5q0 -26 -8 -49.5t-16 -47.5l-132 -527q-4 -43 -7 -79t-12 -67l-7.5 -22.5t-14.5 -26t-25 -21.5t-39 -9q-31 0 -49.5 4t-28.5 11.5t-13 18t-3 24.5zM350 345q-4 -14 -8.5 -40t-4.5 -52q0 -27 8 -48.5t35 -21.5q42 0 78.5 18.5t68.5 44.5
q43 35 87.5 78.5t84 91.5t70 98.5t44.5 100.5q8 29 13.5 67t5.5 68q0 13 -6 25.5t-23 12.5q-49 0 -98.5 -19t-95.5 -51t-87.5 -75.5t-75.5 -93t-58.5 -102t-37.5 -102.5z" />
    <glyph glyph-name="b" unicode="b" horiz-adv-x="1094" 
d="M252 328q20 81 46 176.5t54 195t55.5 197.5t50.5 185t39.5 157t22.5 113l11 81q3 9 6.5 20t10.5 20.5t18.5 16.5t28.5 7q31 0 52 -11t33.5 -29.5t17.5 -42.5t5 -50t-4 -52.5t-9 -47.5q-33 -137 -75.5 -276.5t-76.5 -280.5q39 37 84 70.5t94.5 59t101.5 40.5t104 15
q55 0 95 -16t66 -43.5t38.5 -65.5t12.5 -82q0 -21 -2.5 -43.5t-7.5 -43.5q-26 -104 -73.5 -186t-108 -146.5t-131 -114t-142.5 -88.5q-47 -25 -90.5 -38.5t-85.5 -13.5q-41 0 -62.5 8.5t-38.5 25.5q-5 -10 -12.5 -21t-18 -20.5t-25 -15.5t-32.5 -6q-57 0 -81 28.5t-24 76.5
q0 17 2.5 34.5t7.5 34.5zM888 735q-47 0 -102.5 -24t-111.5 -59.5t-108 -76t-92 -72.5q-12 -41 -24 -79t-23.5 -77t-21 -80t-16.5 -87l-6 -39l6 -18q21 12 38.5 18t34 10.5t34.5 9.5t40 14q157 63 263.5 169t145.5 261q5 22 8 39t3 31q0 30 -16 45t-52 15zM828 934z" />
    <glyph glyph-name="c" unicode="c" horiz-adv-x="870" 
d="M199 391q19 77 56.5 161t90.5 162.5t120.5 145t147.5 108.5q26 14 57 21t63 7q33 0 61.5 -6t49 -20t32.5 -36t12 -54q0 -24 -7 -48.5t-21 -44t-35 -31.5t-49 -12q-22 0 -40.5 8t-35.5 18q-9 6 -17 10.5t-19 8.5q-40 -18 -75.5 -47.5t-66 -65.5t-56 -77t-46 -82t-35 -80.5
t-23.5 -72.5q-7 -24 -12.5 -54.5t-5.5 -59.5q0 -20 3.5 -38t12.5 -32t24 -22t37 -8q35 0 69.5 9t67.5 23t64.5 32.5t61.5 37.5q19 12 38 25t36 23t31.5 16.5t25.5 6.5q15 0 28 -7.5t13 -25.5q0 -13 -6 -29q-14 -39 -38 -70t-53.5 -55.5t-63 -43.5t-66.5 -35
q-62 -33 -125.5 -49.5t-106.5 -16.5q-14 0 -33 3t-33 9q-81 35 -118 94t-37 140q0 35 5.5 73.5t16.5 80.5z" />
    <glyph glyph-name="d" unicode="d" horiz-adv-x="1118" 
d="M185 343q13 54 34.5 108t53.5 107t76 103.5t103 96.5q40 32 84.5 60.5t90.5 49.5t92.5 33.5t91.5 12.5q33 0 58.5 -5.5t48.5 -15.5q10 35 53.5 188t106.5 426q11 27 31 45t48 18q20 0 39 -3.5t34 -14t24 -28.5t9 -47l-201 -803q-9 -34 -17 -91.5t-15 -121.5t-11 -126.5
t-4 -107.5q0 -56 -13 -111q-6 -24 -12.5 -40.5t-17.5 -27t-27.5 -15t-41.5 -4.5q-29 0 -45 6t-24 16.5t-9.5 24t-2 29t-2 32t-8.5 31.5q-12 -8 -33 -21t-42.5 -26.5t-40.5 -25t-28 -16.5q-23 -13 -52 -27.5t-62.5 -27t-70 -20.5t-73.5 -8q-45 0 -87.5 15t-76 46t-53.5 78.5
t-20 111.5q0 23 2.5 45.5t9.5 50.5zM358 351q-8 -30 -8 -58q0 -29 5 -54.5t18.5 -44.5t36 -30.5t58.5 -11.5q20 0 43 7t45.5 17.5t42 22t33.5 20.5q38 25 70.5 49t58.5 52t45.5 62.5t31.5 79.5q10 40 17.5 73t13.5 64.5t11 64.5t10 73q-5 6 -13.5 11.5t-25.5 5.5
q-40 0 -88 -13.5t-98.5 -38.5t-99 -61t-90 -80.5t-72.5 -97.5t-45 -112z" />
    <glyph glyph-name="e" unicode="e" horiz-adv-x="1012" 
d="M182 386q0 43 23 73t61 40q11 22 34 59.5t57 81.5t77.5 88.5t96 81t113 59.5t128.5 23q58 0 101 -14t71 -39t42 -59.5t14 -74.5q0 -34 -9 -65q-14 -56 -52 -98t-89.5 -73.5t-112 -52.5t-121 -35t-116.5 -21.5t-97 -11.5q-9 -18 -15.5 -45.5t-6.5 -53.5q0 -58 46 -90
t127 -32q47 0 90 10.5t81.5 27t72.5 36t62 38.5q36 24 68.5 40.5t57.5 16.5t32 -12.5t7 -26.5q0 -8 -0.5 -15.5t-1.5 -12.5q-5 -26 -20 -52t-38 -45q-104 -82 -213.5 -117t-233.5 -35q-24 0 -56.5 3t-67.5 12t-69 26t-60.5 45t-43 69t-16.5 99q0 47 13 105q-13 2 -24.5 13.5
t-11.5 33.5zM808 663q2 5 2 9v9q0 27 -20 40.5t-48 13.5q-44 0 -86.5 -23t-80 -57.5t-66.5 -74t-45 -71.5q72 6 132 19.5t104.5 34t72 46t35.5 54.5zM692 934z" />
    <glyph glyph-name="f" unicode="f" horiz-adv-x="811" 
d="M384 -92q-25 0 -44.5 9.5t-33 26t-21 37.5t-7.5 45q0 17 4 37.5t12 49.5l9 39t12 59t12.5 70t12 72t8.5 65t3 50q0 13 -1 17q-2 15 -21.5 20.5t-42 12t-41 21t-18.5 47.5q0 27 12.5 51t32.5 34q23 11 51.5 12t56.5 6q16 2 22.5 19t10.5 33q12 46 26 99.5t32.5 109
t41 108.5t50.5 98q45 61 96.5 114t110 92.5t124 62t139.5 22.5q89 0 145 -30t91 -90q8 -14 11 -28.5t3 -29.5q0 -27 -7.5 -50.5t-20.5 -41t-30.5 -27.5t-36.5 -10q-27 0 -42 11t-24.5 27t-15 35.5t-12 35.5t-17.5 27t-31 11t-45.5 -5t-48.5 -17q-61 -32 -113 -71.5
t-96.5 -100.5t-82 -149t-69.5 -217q-1 -2 -2 -5t-1 -4q0 -2 8 -2q30 0 57.5 3.5t54.5 8t54.5 8t58.5 3.5q23 0 43 -2t34.5 -8.5t23 -18.5t8.5 -32q0 -12 -3.5 -29.5t-11 -34t-19 -29.5t-28.5 -16q-30 -6 -62 -9.5t-70 -8t-84 -13t-103 -24.5q-18 -68 -27.5 -134.5
t-16.5 -132.5t-15.5 -132.5t-24.5 -133.5q-3 -13 -10.5 -26t-18 -23.5t-24 -17t-28.5 -6.5z" />
    <glyph glyph-name="g" unicode="g" horiz-adv-x="969" 
d="M252 -462q-8 0 -18 3.5t-18.5 11t-14.5 19t-6 27.5q0 11 3 23q8 33 17 53.5t26 34.5t46 23.5t76 19.5q30 6 56.5 13.5t43.5 18.5q51 45 86.5 93t60 99.5t41 105.5t31.5 110q6 19 10.5 39.5t11.5 46.5q-38 -33 -79 -66t-84 -59t-87.5 -42.5t-88.5 -16.5q-26 0 -58.5 16
t-61.5 42t-49 60.5t-20 72.5q0 24 6 52t11 50q16 66 47 128t72 118t90 106.5t102 93.5q66 54 132 78t140 24q31 0 59.5 -3t54 -12.5t47.5 -28t40 -48.5q4 -7 6.5 -16.5t2.5 -16.5q0 -8 -4.5 -39.5t-12 -78t-18 -104t-21.5 -116t-22 -115t-21 -101.5q-17 -79 -42.5 -163
t-62 -164t-85.5 -151t-114 -124.5t-147 -85t-184 -31.5zM351 366q-3 -12 -5.5 -24.5t-2.5 -24.5q0 -22 8 -38t29 -16q33 0 77.5 23.5t89 59.5t84 78t62.5 80q10 16 26.5 44t33 60.5t29.5 65t16 57.5q0 17 -7 31.5t-12 40.5h-9q-24 0 -55 -15.5t-65.5 -40.5t-69.5 -56.5
t-66 -64t-56.5 -63t-39.5 -53.5q-21 -33 -38.5 -66.5t-28.5 -77.5z" />
    <glyph glyph-name="h" unicode="h" horiz-adv-x="1126" 
d="M886 -57q-62 0 -85 27t-23 74q0 25 5 54t13 60q14 53 31.5 105.5t35 106t34 107t29.5 107.5q1 5 1 13q0 14 -7 22t-21 8q-22 0 -47.5 -9t-42.5 -20q-67 -45 -117.5 -89t-92.5 -92t-79.5 -102.5t-78.5 -119.5q-35 -65 -52 -110.5t-31.5 -73.5t-32.5 -40.5t-54 -12.5
q-40 0 -56.5 23t-16.5 60q0 29 9 65l330 1322q3 12 10 26t19 26t28.5 20t37.5 8q16 0 34 -1.5t32.5 -6t24 -14.5t9.5 -26q0 -4 -2 -16.5t-6 -28.5q-54 -217 -115.5 -452t-124.5 -475q61 75 127 137.5t135.5 107.5t144 70.5t154.5 25.5q51 0 79 -32.5t28 -82.5q0 -23 -6 -45
q-12 -46 -27 -90.5t-31 -89.5t-32 -91.5t-28 -95.5q-16 -63 -22 -119.5t-8 -90.5q-2 -29 -9 -56t-20.5 -47.5t-34 -33t-48.5 -12.5zM932 934z" />
    <glyph glyph-name="i" unicode="i" horiz-adv-x="518" 
d="M194 183q15 58 36 135t44.5 163t47.5 176t45 175q1 4 7 13.5t17 19t28 16.5t40 7q17 0 33 -3.5t28.5 -10.5t20 -18.5t7.5 -26.5v-6.5t-1 -6.5l-28 -106q-47 -178 -95.5 -357t-94.5 -359q-2 -6 -6 -15t-11 -18t-17 -15t-24 -6q-26 0 -46 10.5t-34 26.5t-21 35t-7 36v9t2 9
zM455 1218q5 21 18 51t46 54q16 9 39 16.5t33 7.5t20.5 -7t18.5 -15q10 -10 19 -22q25 -2 32.5 -18t7.5 -38q0 -16 -3 -29t-5 -21q-6 -21 -23 -38.5t-39 -30t-46 -19.5t-42 -7q-23 0 -35.5 8t-31.5 34q-11 15 -12.5 23.5t-1.5 14.5q0 11 1.5 19.5t3.5 16.5z" />
    <glyph glyph-name="j" unicode="j" horiz-adv-x="522" 
d="M-122 -462q-41 0 -61.5 22.5t-20.5 48.5q0 42 24.5 72.5t58.5 54t69.5 42t56.5 36.5q45 38 80 87t55 91q32 66 60.5 146t52.5 165.5t43.5 173.5t34.5 170q5 24 5.5 45.5t1.5 42.5q2 52 10 83.5t22.5 48.5t35 22.5t47.5 5.5q56 0 78 -27.5t22 -80.5q0 -29 -8.5 -87
t-25 -135t-40.5 -167t-55 -183t-68.5 -183t-80.5 -167q-10 -17 -23.5 -35.5t-28.5 -37t-29.5 -35.5t-26.5 -31q-40 -47 -75 -82t-69.5 -58.5t-69.5 -35.5t-75 -12zM398 1175q0 37 19 64t47 45q22 14 39.5 22.5t37.5 8.5q27 0 45.5 -8.5t29.5 -23t15.5 -32t4.5 -35.5
q0 -36 -13 -68t-51 -62q-14 -11 -28 -17.5t-29 -6.5q-51 0 -84 30t-33 83z" />
    <glyph glyph-name="k" unicode="k" horiz-adv-x="987" 
d="M616 484q-20 0 -45 -9.5t-50 -22.5t-48 -27t-40 -22l-91 -360q-5 -21 -25 -32t-37 -11q-54 0 -73.5 21.5t-19.5 56.5q0 15 2.5 30.5t6.5 32.5l4 17q6 27 16.5 68t22.5 86.5t24.5 92t23.5 85.5q11 38 32.5 113t48 168t55 194.5t54 193.5t45.5 163.5t28 105.5q9 14 28 23
t45 9q18 0 37 -4.5t34.5 -14t25.5 -24t10 -33.5q0 -13 -6 -31q-60 -174 -119 -360.5t-107 -377.5q13 8 48 33t77.5 58t85.5 69t72 65q20 20 40.5 41.5t39 41t32.5 35t22 24.5q19 22 41.5 36.5t45.5 14.5q22 0 40 -7t31 -17.5t20 -24t7 -25.5q0 -15 -7 -32t-16.5 -33
t-20.5 -29.5t-19 -20.5q-27 -24 -61 -52.5t-71 -58t-75.5 -59t-74.5 -56.5q63 -35 103.5 -93.5t64.5 -130t33 -150.5t9 -154q0 -6 -1 -18.5t-4 -23.5q-5 -18 -12 -33t-18.5 -25.5t-28 -16.5t-40.5 -6q-23 0 -39 8t-26.5 21t-15.5 29t-5 32q0 50 -3 103.5t-12 103.5
t-24.5 94.5t-40.5 76.5q-18 23 -33.5 36t-37.5 13h-8zM806 934z" />
    <glyph glyph-name="l" unicode="l" horiz-adv-x="516" 
d="M501 1371q5 40 16 74t29.5 56.5t47.5 22.5q16 0 35.5 -6t37 -16.5t29.5 -25.5t12 -33q0 -8 -3 -18.5t-5 -20.5l-250 -1002q-15 -60 -25 -114.5t-15 -89.5v-24q0 -30 -4 -65.5t-15 -66t-30.5 -51t-50.5 -20.5q-27 0 -47 11.5t-33 29.5t-19 38.5t-6 38.5q0 16 3 39.5
t7.5 49t9.5 51t10 44.5l258 1024q3 34 8 74z" />
    <glyph glyph-name="m" unicode="m" horiz-adv-x="1759" 
d="M197 66q30 117 58 218t54.5 193.5t51.5 179.5t48 177q9 35 10.5 67.5t9.5 67.5q4 12 14.5 21.5t23.5 16.5t27.5 11t27.5 4q28 0 46.5 -6.5t30 -17.5t16 -26.5t4.5 -34.5q0 -34 -11 -68.5t-27 -75.5q47 37 96.5 70t102 58t107.5 40t114 15q27 0 54 -8.5t48.5 -26.5t36 -47
t16.5 -71q43 29 89 58.5t93.5 53t95 38t92.5 14.5q67 0 110.5 -17.5t69 -47t36 -68.5t10.5 -83q0 -48 -9 -99t-20 -97q-29 -116 -65 -219.5t-78 -209.5q-10 -25 -21 -53t-25.5 -51.5t-34 -39t-45.5 -15.5q-59 0 -81 20t-22 57q0 10 1 23t5 25q4 15 18 43.5t30.5 61.5
t32.5 66.5t24 58.5q13 43 30.5 99.5t33.5 114t26.5 109t10.5 83.5q0 15 -3 30t-10.5 26t-21 18t-34.5 7q-30 0 -71.5 -17t-86 -44.5t-86.5 -62t-72 -68.5q-21 -24 -40 -39t-38 -23q-2 -4 -10 -26.5t-19 -54t-23 -68t-22.5 -68t-17.5 -53t-7 -23.5q-7 -28 -12 -57.5t-9 -56.5
t-7.5 -57.5t-14 -57t-32 -43.5t-60.5 -17q-20 0 -36.5 10t-28.5 25.5t-19 35t-8 39.5q23 90 45 162t44 138t42.5 132.5t40.5 146.5q5 19 8 37.5t3 32.5q0 24 -10 39.5t-35 15.5q-41 0 -81.5 -16.5t-87.5 -51.5t-104.5 -89t-132.5 -129q-8 -15 -21 -56t-26.5 -87t-24.5 -85.5
t-14 -52.5q-11 -42 -15 -70.5t-7 -51.5q-2 -12 -6 -39.5t-14.5 -55.5t-29.5 -49.5t-50 -21.5q-46 0 -75.5 25t-29.5 63q0 7 1 13t3 13z" />
    <glyph glyph-name="n" unicode="n" horiz-adv-x="1131" 
d="M906 821q-35 0 -75 -16.5t-83 -44.5t-87.5 -63.5t-87.5 -73.5q-22 -19 -42 -34.5t-40 -23.5q-14 -23 -29.5 -60.5t-30.5 -82t-28.5 -91t-22.5 -86.5q-5 -21 -8 -41t-7 -42.5t-9.5 -48.5t-13.5 -58q-5 -19 -16 -30.5t-23 -17.5t-23 -7.5t-17 -1.5q-38 0 -62 18t-24 70
q0 14 1 29.5t6 34.5q22 95 42.5 171t41.5 141t42.5 122.5t44 116t47 121t52.5 138.5q6 17 31.5 28.5t54.5 11.5q38 0 62.5 -17t24.5 -49q0 -3 -2 -11t-6 -17l-44 -104q42 33 87.5 66t93.5 59.5t96.5 43t95.5 16.5q96 0 150 -51.5t54 -159.5q0 -62 -21.5 -141t-54 -169.5
t-70 -190t-69.5 -202.5q-9 -28 -18.5 -47t-22.5 -30.5t-30.5 -16.5t-42.5 -5q-39 0 -54 14.5t-15 46.5q0 28 8.5 68.5t24 89t36 103.5t44.5 112q19 46 37.5 92t33 89t23.5 82t9 72q0 31 -13.5 54.5t-50.5 23.5z" />
    <glyph glyph-name="o" unicode="o" 
d="M206 383q15 61 46.5 129.5t82.5 138.5t122.5 137t165.5 125q15 9 46 19.5t64 12.5q39 42 105 42q78 0 131.5 -39.5t88.5 -107.5q11 -22 20.5 -43t16 -44.5t10.5 -50.5t4 -61q0 -79 -25 -161t-71 -160t-111.5 -149.5t-145.5 -128.5q-54 -39 -119.5 -60.5t-146.5 -21.5
q-77 0 -133.5 20.5t-94 58.5t-56 91t-18.5 118q0 63 18 135zM372 370q-6 -23 -8.5 -43.5t-2.5 -39.5q0 -33 8.5 -61.5t27.5 -49t47.5 -32t69.5 -11.5q76 0 141.5 38.5t116.5 96.5t85.5 124.5t48.5 122.5q9 35 15.5 66t6.5 57t-9.5 48.5t-24.5 50.5q-9 17 -18 35.5t-16 36.5
q-8 -14 -17 -24.5t-27 -19t-49 -15.5t-81 -12q-33 -11 -67 -34t-66.5 -54t-62 -67t-53 -73.5t-41 -73.5t-24.5 -66z" />
    <glyph glyph-name="p" unicode="p" horiz-adv-x="1156" 
d="M109 -370q20 81 35.5 148.5t28.5 127t24.5 115t23 112t24 117.5t27.5 133l48 232q12 59 16.5 101.5t4.5 78.5q0 38 2 67.5t11 50t26.5 31t48.5 10.5q45 0 70 -12.5t37 -32.5t14.5 -46t2.5 -54q34 24 79.5 43t94.5 31.5t99 19.5t94 7q72 0 126 -25.5t90 -68t54 -98
t18 -114.5q0 -69 -22 -130t-60 -114t-88.5 -98.5t-109 -83.5t-121 -69.5t-123.5 -56.5q-41 -17 -77.5 -25.5t-65.5 -8.5q-41 0 -79.5 9t-74.5 30q-20 -68 -33.5 -130t-21.5 -110q-5 -30 -12 -63t-14 -64.5t-13.5 -59.5t-10.5 -48q-3 -12 -14.5 -20t-27.5 -13.5t-32.5 -8
t-29.5 -2.5q-74 0 -74 58q0 16 5 34zM419 210q15 -2 32 -5t33 -6t27.5 -5.5t15.5 -2.5q19 0 42.5 5t47 13t45.5 17.5t39 18.5q49 25 104.5 60.5t103 81.5t78.5 103t31 126q0 28 -7 52t-21 42t-36.5 28.5t-53.5 10.5q-34 0 -64 -4.5t-59 -14.5t-58 -25.5t-60 -37.5
q-28 -23 -63 -40.5t-76 -22.5z" />
    <glyph glyph-name="q" unicode="q" horiz-adv-x="1081" 
d="M777 169q-42 -25 -97 -54.5t-112.5 -55t-111.5 -42.5t-94 -17q-103 0 -153.5 48.5t-50.5 134.5q0 20 2.5 41.5t7.5 41.5q22 82 64.5 170t99 166t124 139t139.5 89q42 17 120.5 28t209.5 18q8 22 15 42t17.5 36t27.5 27.5t45 18.5q48 -1 68.5 -23.5t20.5 -79.5
q0 -7 -0.5 -17t-2.5 -18q-5 -20 -16 -64.5t-25.5 -101.5t-30 -120.5t-30 -121t-25.5 -103.5t-15 -68q-10 -49 -29 -141t-42 -225q-12 -73 -22.5 -132t-15.5 -85q8 -14 13 -34.5t7 -37.5l-2 -11q-3 -15 -13.5 -29t-25.5 -25.5t-33.5 -18t-36.5 -6.5q-26 0 -44 9t-29.5 24
t-17 35t-5.5 42q0 14 2.5 26.5t4.5 24.5q23 132 47 248t46 216zM336 262q-4 -16 -4 -30q0 -29 16 -46.5t46 -17.5q45 0 108 23t136 59q39 19 72.5 39t58 36t38.5 27l14 10l66 297q1 3 1 10q0 14 -11.5 21t-27.5 7q-100 0 -154.5 -13.5t-82.5 -34.5q-53 -40 -96 -80t-77 -86
t-59.5 -100t-43.5 -121z" />
    <glyph glyph-name="r" unicode="r" horiz-adv-x="872" 
d="M216 103q13 70 30 154t35 170t35 169t29 152q-1 10 -1 17.5v16.5q0 31 4 62t11 57q11 38 24.5 51.5t43.5 13.5q29 0 46.5 -11.5t27.5 -30.5t13 -43.5t3 -50.5q0 -14 -1 -31t-1 -27q28 29 59.5 59.5t67 55t75 40.5t82.5 16q17 0 33.5 -3t33.5 -8q20 -5 41.5 -13.5
t41.5 -23.5q33 -25 55.5 -62.5t22.5 -76.5q0 -15 -6 -32.5t-16.5 -32t-24.5 -24t-31 -9.5t-41.5 8.5t-40.5 22.5q-7 6 -14.5 17t-14 22t-12 20.5t-8.5 12.5q-5 1 -11 1.5t-11 0.5q-51 0 -97 -26t-86 -63.5t-73.5 -80t-58.5 -76.5q-20 -81 -44.5 -172.5t-48.5 -191.5v-25
q0 -30 -2 -61t-12 -55q-11 -15 -31.5 -25.5t-47.5 -10.5q-42 0 -63 27.5t-21 64.5q0 17 5 35z" />
    <glyph glyph-name="s" unicode="s" horiz-adv-x="847" 
d="M220 177q8 0 14.5 -2t14.5 -4.5t18 -4.5t26 -2q47 0 104.5 10t108.5 26t87.5 36.5t41.5 42.5q3 12 3 21q0 17 -16.5 32.5t-41.5 29.5t-54 26t-54 22l-34 14q-26 10 -51 24.5t-46.5 33.5t-38 44.5t-24.5 58.5q-4 14 -6.5 28t-2.5 30q0 26 17.5 59.5t47 66.5t67 63t78.5 50
q30 21 58 38t56.5 29t58 19t62.5 7q30 0 65 -3t64 -14t48.5 -32.5t19.5 -57.5q0 -11 -3 -29t-10 -36t-17 -31t-24 -13q-23 0 -38 9t-27 19.5t-25 19.5t-32 9q-23 0 -53.5 -8.5t-62.5 -23t-62.5 -33.5t-55 -39t-39.5 -39.5t-15 -35.5q0 -17 11 -28t28 -19q22 -12 50.5 -24
t57.5 -24t56.5 -24t47.5 -22q27 -14 48.5 -27.5t36.5 -29.5t23 -36t8 -47q0 -13 -2 -26t-6 -30q-3 -15 -10.5 -35t-16 -39.5t-17.5 -35t-15 -20.5q-39 -36 -92 -67.5t-110.5 -55t-115 -37.5t-105.5 -14q-24 0 -53 9.5t-53.5 25t-41 35.5t-16.5 40q0 10 6 22.5t15 23t19.5 18
t19.5 7.5z" />
    <glyph glyph-name="t" unicode="t" horiz-adv-x="1081" 
d="M339 311q0 84 19 174.5t40 173.5q-26 1 -53 8t-49 19t-36 29.5t-14 40.5q0 9 4 23t11.5 27.5t19.5 23t27 9.5h134q19 0 26 16.5t11 32.5q13 58 24.5 100.5t19.5 72t12.5 48t4.5 29.5q0 13 -1 25t-1 33v10q0 8 1.5 21t9.5 37q6 19 22 36t47 17q27 0 46 -11t31 -29t18 -41
t6 -46q0 -25 -5 -45l-73 -280q54 9 96 17l84 16q46 9 79.5 17t57.5 13.5t40.5 9t27.5 3.5q16 0 32.5 -2.5t29 -8.5t20.5 -17t8 -29q0 -24 -9.5 -42.5t-24.5 -32t-34 -22t-38 -12.5q-16 -3 -41.5 -9t-56 -13t-63.5 -15t-64 -16q-46 -12 -78.5 -20t-55.5 -12t-37.5 -6
t-23.5 -2q-19 -57 -33 -112t-23.5 -102.5t-14 -85t-4.5 -58.5q0 -27 5 -51.5t17 -42.5t32.5 -28.5t51.5 -10.5q53 0 104 29t97.5 73.5t88 97.5t76.5 101q12 18 31 18q6 0 14.5 -2t16.5 -7t13.5 -13t5.5 -19q0 -8 -1 -12q-16 -62 -49.5 -124.5t-68.5 -125.5
q-12 -22 -31.5 -43t-42.5 -40.5t-48 -37t-47 -31.5q-38 -24 -83 -33t-87 -9q-65 0 -115.5 23.5t-85 64t-52.5 94.5t-18 116z" />
    <glyph glyph-name="u" unicode="u" horiz-adv-x="1135" 
d="M370 890q4 16 11.5 27.5t16 18.5t15.5 10t11 3q11 0 26 -2.5t29 -4.5q16 -3 31 -6q26 -1 37.5 -21t11.5 -48q0 -22 -6 -41q-34 -125 -62 -217.5t-47.5 -157.5t-30 -106t-10.5 -62t5.5 -47t16.5 -48.5t28 -37.5t41 -15q42 0 85 26t82 63.5t70.5 80t51.5 75.5l26 45
q24 42 44.5 96.5t36 109.5t26.5 103.5t17 77.5l26 133q8 38 24.5 52.5t55.5 14.5q25 0 45 -5.5t34 -19.5t21 -37.5t7 -60.5q0 -43 -13.5 -105.5t-29.5 -125.5q-9 -37 -18.5 -78.5t-17 -83t-12 -79t-4.5 -67.5q0 -51 3.5 -102t3.5 -108q0 -26 -1.5 -46t-4.5 -30
q-11 -39 -28.5 -58t-59.5 -19q-29 0 -46 6.5t-26.5 17.5t-12.5 24.5t-4 27.5l-11 189l-9 -3q-33 -42 -72 -94t-86 -97t-102.5 -75.5t-120.5 -30.5q-13 0 -33.5 6.5t-42.5 16.5t-42 22.5t-32 23.5q-55 51 -78 115t-23 130q0 37 6 74t14 71.5t17.5 65t15.5 54.5q19 75 34 132
t26.5 100t19.5 73.5t14 53.5z" />
    <glyph glyph-name="v" unicode="v" horiz-adv-x="1002" 
d="M517 -40q-5 -1 -8.5 -1.5t-7.5 -0.5q-21 0 -37 9t-27.5 22.5t-17.5 29t-6 29.5q-5 21 -14 60t-20.5 88t-24 105.5t-24.5 113.5t-22 111t-17 99q-5 32 -11 60t-11 53.5t-8.5 50t-3.5 49.5q0 28 6 53.5t17.5 45t28 31.5t36.5 12q40 0 63.5 -19.5t36.5 -52t18.5 -75.5
t8.5 -89q4 -58 13 -125.5t20 -135t22.5 -130t20.5 -110.5q30 31 105 138q37 52 68.5 96t59.5 84.5t53 80.5t48.5 83t46 91.5t45.5 107.5q7 12 17 25.5t23.5 24t31 17.5t39.5 7q46 0 62.5 -23t16.5 -58q0 -47 -16.5 -91.5t-52.5 -95.5l-469 -662q-14 -30 -29 -50t-29.5 -32
t-27.5 -18t-23 -8z" />
    <glyph glyph-name="w" unicode="w" horiz-adv-x="1503" 
d="M324 894q18 39 41 52.5t53 13.5q29 0 49 -9t32 -24t17 -35t5 -43v-13.5t-1 -13.5q-1 -9 -5 -32.5t-9.5 -55.5t-12 -67.5t-12 -67.5t-10 -56t-6.5 -33q-2 -10 -5 -29t-6 -43.5t-5 -52.5t-2 -56q0 -27 2 -51.5t7.5 -43t14 -29.5t21.5 -11q9 0 26.5 14.5t37 34.5t38.5 42.5
t31 37.5q65 80 119.5 162.5t101.5 166.5q18 33 27.5 67t22.5 61.5t36.5 45t70.5 17.5q25 0 51 -17t36 -49q-3 -37 -9 -76t-11 -79.5t-9 -80.5t-4 -78q0 -59 12 -109.5t44 -85.5q39 49 77.5 111t75.5 129t70.5 135.5t62.5 130.5q2 5 2.5 9.5t0.5 9.5v9q0 31 17.5 64t41.5 60
t49.5 44t42.5 17q42 0 66 -23t24 -61q0 -12 -4.5 -30t-14.5 -36l-337 -594l-25 -49q-16 -31 -31.5 -60t-34 -51t-41 -35t-51.5 -13q-39 0 -69.5 22t-52.5 54t-36.5 69.5t-21.5 67.5l-37 160q-3 0 -21 -21t-45 -54t-59 -72.5t-62.5 -76t-56 -66t-39.5 -41.5t-29.5 -24
t-30.5 -21t-28.5 -15t-22.5 -6q-66 0 -109.5 31t-69 81t-35.5 111.5t-10 123.5q0 55 5.5 111t13 110.5t16 105.5t14.5 95q1 8 1.5 18.5t0.5 21.5v26q0 16 0.5 29.5t3.5 18.5z" />
    <glyph glyph-name="x" unicode="x" horiz-adv-x="996" 
d="M167 40q-23 -18 -61 -18q-17 0 -30.5 7t-23 18.5t-14.5 26t-5 29.5q0 21 8.5 35.5t21 25t27 17.5t26.5 12q40 26 90 64t103 81.5t105.5 88.5t99.5 86l45 40q-15 51 -30 87.5t-30 65.5t-30.5 54.5t-33.5 54.5q-16 26 -24.5 40t-8.5 28q0 10 5 24.5t15.5 28t27 23t38.5 9.5
q32 0 56.5 -13.5t43.5 -34.5t33 -45.5t25 -46.5q6 -12 13 -32t13.5 -42.5t12.5 -44t10 -37.5q44 42 85.5 88t92.5 107q16 19 33.5 41t36.5 40.5t39 30.5t43 12q39 0 55.5 -20t16.5 -52q0 -34 -12.5 -62.5t-32.5 -44.5q-29 -23 -63.5 -55.5t-70 -68.5t-70.5 -71t-64 -63
q-12 -11 -20.5 -22t-8.5 -28q0 -10 5.5 -25t14 -32t17 -34.5t14.5 -31.5q12 -27 33.5 -64t43 -77.5t37.5 -82.5t16 -80q0 -24 -7 -44.5t-18 -36t-24.5 -24.5t-25.5 -9q-26 0 -41.5 6t-26.5 18t-18.5 29.5t-16.5 40.5q-13 37 -34 85t-43.5 95t-42.5 87.5t-31 61.5
q-28 -22 -57.5 -45.5t-76.5 -60.5t-119.5 -94t-186.5 -146z" />
    <glyph glyph-name="y" unicode="y" horiz-adv-x="1081" 
d="M190 -462q-15 0 -27 8t-20.5 21t-13.5 28.5t-5 30.5q0 19 5 33t12.5 24.5t16 16.5t15.5 9q24 6 56 13t69.5 20.5t80 35t87.5 56.5t94.5 81.5t95.5 109t86 143t66 184.5q-19 -21 -43.5 -47.5t-52.5 -54t-58 -53t-60 -46t-58.5 -32.5t-53.5 -12q-67 0 -114 30.5t-87 100.5
q-11 20 -17 52t-6 65q0 54 5 105t15 106t23.5 115.5t30.5 133.5q1 19 3 36q2 14 2.5 27t1.5 16q2 17 11.5 32t23 26t29 17t30.5 6q21 0 42 -3.5t33 -15.5q17 -18 25.5 -47t8.5 -52q0 -9 -8.5 -36t-24.5 -56q-24 -90 -39 -152.5t-23.5 -104t-12 -66t-3.5 -37.5q0 -54 18 -86
t44 -32q15 0 34.5 6t41.5 20q84 52 144.5 113.5t104 136t75 163.5t57.5 196q2 7 9.5 14t18 12t22.5 8.5t23 3.5q53 0 81.5 -28.5t28.5 -76.5q0 -18 -9 -58t-21 -84.5t-24.5 -85t-19.5 -59.5l-48 -139q-33 -94 -59.5 -173t-56.5 -147.5t-67.5 -129.5t-90.5 -119t-126 -116.5
t-174 -121.5q-62 -37 -121.5 -60.5t-125.5 -23.5z" />
    <glyph glyph-name="z" unicode="z" horiz-adv-x="1038" 
d="M114 103q6 22 23 44.5t37.5 43.5t41 38t34.5 28q48 45 112 105.5t130 125.5t126.5 129t102.5 116q-30 -1 -71.5 -2l-83 -2t-77.5 -2t-54 -1q-21 0 -39.5 5t-32.5 16.5t-22.5 29t-8.5 42.5t15 46t38 25q17 -2 34.5 -3t37.5 -1q59 0 126 7.5t133.5 16.5t129.5 16.5t114 7.5
q20 0 33.5 -3.5t24 -11t19.5 -19.5t20 -30q5 -8 6 -13.5t1 -10.5q0 -23 -10 -42.5t-29 -39.5q-11 -2 -32 -16.5t-48 -36t-56.5 -48t-57.5 -52t-51 -47.5t-37 -35l-10 -9q-15 -14 -45.5 -43.5t-68.5 -67.5t-79.5 -80.5t-80 -82t-70 -72t-48.5 -51.5q5 -2 14 -2.5t17 -0.5
q31 0 70.5 7t78.5 12l271 38q14 8 41.5 16t52.5 14l30 7q22 5 36.5 10.5t25.5 10t20.5 7t22.5 2.5q21 0 34.5 -7.5t21.5 -20.5t13 -30.5t10 -37.5q-4 -17 -12.5 -33.5t-20.5 -29t-26 -20.5t-29 -8q-9 0 -21 5q-17 -3 -50.5 -9.5t-90 -17t-139 -25t-197.5 -33.5
q-11 -2 -40.5 -5.5t-62.5 -7t-62.5 -6t-40.5 -2.5q-31 0 -65.5 7t-64 22t-48.5 38.5t-19 55.5q0 10 3 24z" />
    <glyph glyph-name="asciitilde" unicode="~" horiz-adv-x="1234" 
d="M256 520q10 39 39 78.5t70 76t90 67.5t98 54t95 36t82 13q69 0 110.5 -22t63.5 -66q7 -14 15 -28.5t16.5 -26.5t16.5 -19.5t14 -7.5q23 0 54 19t64.5 47.5t66.5 61.5t61 61.5t48.5 47.5t28.5 19q26 0 45.5 -20t19.5 -49q0 -22 -24 -58t-62 -76.5t-86 -82.5t-96 -75.5
t-91.5 -54.5t-73.5 -21q-31 0 -50.5 14.5t-33.5 36.5t-25 47t-24.5 47t-32 36.5t-47.5 14.5q-13 0 -35.5 -6t-53 -21.5t-67.5 -42.5t-77 -70q-20 -21 -37 -43.5t-36.5 -41.5t-42.5 -31.5t-53 -12.5q-14 0 -24 7t-16.5 18t-9.5 24.5t-3 26.5q0 12 3 23z" />
    <glyph glyph-name="exclamdown" unicode="&#xa1;" horiz-adv-x="518" 
d="M237 -334q-5 -17 -21 -37.5t-38.5 -38t-50 -29.5t-56.5 -12q-14 0 -28.5 11.5t-14.5 34.5q0 4 0.5 7.5t1.5 8.5q11 44 30 109.5t43 145t52 169t58 183t60.5 187t58.5 180.5q11 35 35.5 59t61.5 24q22 0 36 -10.5t22.5 -25t12 -29.5t3.5 -23q-17 -57 -33.5 -114t-34 -119
t-37.5 -131.5t-43.5 -152.5t-52.5 -181t-65 -216zM498 849q-14 0 -33.5 5.5t-37.5 17t-31 28t-13 39.5v9.5t2 9.5q9 35 27.5 63.5t43 49t53 31.5t57.5 11q24 0 40.5 -9.5t26.5 -24.5t14.5 -33t4.5 -35q0 -30 -13.5 -59t-35.5 -52t-49.5 -37t-55.5 -14z" />
    <glyph glyph-name="cent" unicode="&#xa2;" horiz-adv-x="862" 
d="M673 1286q5 45 15.5 93t21.5 87q1 6 6 14t12 15.5t16 12.5t18 5q11 0 25.5 -5t27 -14.5t21 -23t8.5 -30.5q0 -6 -2 -16l-29 -118q35 -2 65 -9t51.5 -20.5t33.5 -34.5t12 -51q0 -65 -32.5 -92.5t-87.5 -27.5q-34 0 -54.5 12.5t-37.5 21.5l-149 -596q27 10 68.5 30.5
t84 41.5t78.5 36.5t50 15.5q21 0 29 -4t8 -15q0 -6 -2 -13.5t-4 -18.5q-10 -45 -35 -77t-60.5 -57t-77.5 -45t-87 -39q-23 -11 -47.5 -19.5t-45.5 -15.5q-5 -29 -10 -52t-7 -34q-3 -36 -8.5 -76.5t-16 -74.5t-27 -56.5t-41.5 -22.5q-18 0 -31.5 10t-22 25.5t-12.5 34
t-4 35.5q0 16 3 38.5t8.5 48t11.5 52.5t12 53q-48 0 -93.5 16.5t-80 48t-55.5 76t-21 101.5q0 87 31 188t93.5 200.5t155 190t215.5 155.5zM443 462h11.5t11.5 1l147 586q-73 -57 -124 -121.5t-82.5 -127.5t-46 -121t-14.5 -101q0 -23 4.5 -43.5t15.5 -37t29.5 -26
t47.5 -9.5z" />
    <glyph glyph-name="sterling" unicode="&#xa3;" horiz-adv-x="1234" 
d="M127 -25q5 21 12.5 39.5t19.5 35.5t31 33t48 33q14 34 29 74.5t29 82.5t26.5 82t21.5 73q-24 4 -47.5 5t-42 4.5t-29.5 12t-11 27.5q0 43 32.5 74.5t89.5 48.5q21 6 40.5 14.5t24.5 19.5q3 7 10 29t14.5 47t14.5 47t9 29q64 194 139 320.5t162 200.5t186 103.5t212 29.5
q18 0 43 -3.5t48.5 -14t39.5 -31t16 -53.5q0 -15 -4 -31t-14 -30t-27.5 -23t-44.5 -9q-25 0 -50.5 8t-56.5 20l-13 5q-76 0 -140 -25.5t-121.5 -86.5t-111 -161t-108.5 -248q-11 -28 -19 -57t-13 -46q91 7 167 10.5t156 3.5q13 0 33.5 -1t40 -7t33.5 -19t14 -37
q0 -12 -4.5 -26t-11 -26t-14.5 -19.5t-15 -7.5q-33 0 -87 -4t-116 -12t-126.5 -19.5t-116.5 -25.5q-9 -33 -22.5 -77t-27.5 -84q-16 -47 -33 -94q41 14 77.5 21t67.5 7q55 0 92 -18.5t64 -40t49.5 -40t49.5 -18.5q21 0 48.5 15t56.5 37t58 48.5t54 48.5t44 37t28 15
q15 0 28 -6t23 -16.5t16 -24t6 -29.5q0 -5 -0.5 -9t-1.5 -9q-5 -19 -26 -46.5t-53.5 -57t-73.5 -59.5t-85 -53.5t-89.5 -38t-86.5 -14.5q-45 0 -74.5 18t-56 39.5t-55 39.5t-70.5 18q-14 0 -30 -2t-37 -10t-48 -25.5t-63 -47.5q-19 -16 -35 -33.5t-34 -32t-40.5 -24
t-54.5 -9.5q-16 0 -28 6.5t-20.5 17t-12.5 23t-4 24.5q0 5 2 15z" />
    <glyph glyph-name="currency" unicode="&#xa4;" horiz-adv-x="1243" 
d="M368 599q12 48 33.5 100.5t53.5 106.5t76.5 108t102.5 105l-43 73q-13 16 -22 30t-9 34q0 7 4.5 21.5t15 29t27.5 25.5t41 11q20 0 39.5 -9.5t37.5 -25.5t34.5 -35.5t31.5 -39.5q19 9 50 18.5t55 11.5q23 20 48.5 31.5t58.5 11.5q37 0 77 -13t69 -38q16 19 39.5 44
t48.5 47.5t49.5 37.5t44.5 15q38 0 54 -19t16 -50q0 -36 -11.5 -60t-32.5 -45.5t-51 -45t-66 -58.5q17 -32 23.5 -71t6.5 -80q0 -56 -12 -114t-34.5 -115t-55 -111.5t-74.5 -103.5q16 -35 26.5 -67.5t10.5 -61.5q0 -15 -6 -34.5t-15 -37t-20 -30t-21 -12.5h-22q-23 0 -38 7
t-25.5 19t-17.5 28.5t-13 36.5l-4 13q-37 -30 -72.5 -50t-72.5 -32.5t-75 -18t-79 -5.5q-93 0 -156 29t-98 83l-82 -65q-8 -8 -25 -12t-36 -4q-32 0 -50.5 24t-18.5 53q0 17 7.5 30.5t19 25t26.5 20.5t30 16q14 7 36.5 22t46.5 33q-1 5 -1 10.5v11.5q0 32 5 67.5t14 73.5z
M533 591q-11 -46 -11 -83q0 -34 9 -63t28.5 -50t49.5 -32.5t71 -11.5q75 0 139.5 38.5t115.5 96t85.5 123.5t48.5 122q9 35 14.5 70.5t5.5 69.5q0 31 -6.5 59t-21.5 49t-39.5 33t-61.5 12q-47 0 -94 -19.5t-90.5 -52t-82.5 -76t-71 -92t-55 -98t-34 -95.5z" />
    <glyph glyph-name="yen" unicode="&#xa5;" horiz-adv-x="1367" 
d="M402 575q5 17 24 37t45 30l179 11q-23 61 -41.5 112.5t-35.5 102t-34.5 104.5t-37.5 120q-10 33 -23.5 61t-26 55.5t-21 56t-8.5 63.5q0 21 5 47t16 48.5t30 37.5t47 15q46 0 74 -33.5t50 -96.5t43 -154.5t53 -208.5l24 -87q20 -75 39.5 -132.5t33.5 -92.5l243 352
q22 32 53 80.5t62.5 102t60 105t46.5 90.5l26 105q9 37 35.5 65.5t65.5 28.5q26 0 44.5 -10.5t30.5 -27.5t17.5 -39t5.5 -46q0 -26 -11 -62.5t-28.5 -75t-39 -75.5t-42.5 -65l-395 -533h162q39 0 64 -19t25 -46q0 -21 -9.5 -34t-25 -20.5t-35 -11t-38.5 -5.5
q-21 -3 -49.5 -6t-62 -6t-70 -6.5t-72.5 -6.5q-8 -31 -15.5 -62.5t-15.5 -67.5q27 3 57.5 7t60.5 7.5t57.5 5.5t47.5 2q63 0 90 -9t27 -37q0 -21 -10.5 -37t-27.5 -27t-38.5 -17.5t-44.5 -9.5q-20 -4 -49 -9t-63 -10.5t-70 -11t-70 -10.5q-11 -49 -22 -95t-21 -85
q-5 -20 -18 -36t-29.5 -27.5t-35 -18t-33.5 -6.5q-22 0 -37 7t-24 17.5t-13 23.5t-4 25q0 11 3 23l34 153q-20 -2 -45.5 -5t-52.5 -5t-52 -3.5t-44 -1.5q-42 14 -62 34.5t-20 51.5q0 34 22.5 58t64.5 24q27 0 53 -3.5t52 -6.5l120 11q9 42 15 68.5t9 40.5q4 17 6 25
q-21 -2 -37 -2.5l-32 -1t-35 -0.5h-46q-4 0 -16.5 0.5t-27.5 0.5t-28.5 0.5t-20.5 0.5q-14 0 -25 6.5t-18.5 16.5t-11.5 23t-4 25q0 5 0.5 9t1.5 9z" />
    <glyph glyph-name="brokenbar" unicode="&#xa6;" horiz-adv-x="1099" 
d="M986 1406q-12 -56 -29.5 -120.5t-37 -135.5t-38.5 -147.5t-34 -156.5q-11 -25 -36 -46.5t-70 -21.5q-10 0 -23 4.5t-25 13.5t-20.5 21.5t-8.5 28.5q0 11 9 22t10 13q8 34 20.5 87.5t28 119t33 139.5t36 149t36.5 147t34 134q2 8 20 13t32 5q25 0 45 -6t33.5 -15.5
t20.5 -20.5t7 -20v-4zM680 127q-3 -8 -10.5 -33.5t-16 -55.5t-16.5 -58.5t-12 -41.5q-3 -9 -8 -30t-12 -49t-14 -58.5t-13.5 -58.5t-11 -49.5t-5.5 -30.5q-5 -9 -10.5 -18t-14.5 -16t-24 -11t-37 -4q-46 0 -72 16t-26 35q0 4 4 17.5t9.5 30.5t11.5 34.5t11 31.5q1 4 3 10
q5 16 14.5 57t20 89.5t21 95t17.5 73.5q3 13 11 42.5t17.5 67t20.5 79t20 78t16 65t10 40.5q1 4 6.5 11t12.5 14t15.5 12t15.5 5q62 0 87.5 -22.5t25.5 -50.5q0 -6 -2 -16z" />
    <glyph glyph-name="section" unicode="&#xa7;" horiz-adv-x="847" 
d="M195 198q12 0 19.5 -2t15 -4.5t17.5 -4.5t26 -2q47 0 104 9.5t107.5 25.5t86.5 36.5t41 41.5q3 10 3 19q0 16 -14.5 31.5t-38 30.5t-54 28.5t-61.5 25.5l-32 12q-29 11 -55.5 25.5t-47.5 35t-36.5 49t-23.5 67.5q-2 6 -3.5 17t-1.5 17q0 37 21 74t56.5 72t82 68t97.5 61
q-35 25 -59 59.5t-39 88.5q-2 7 -3.5 17t-1.5 16q0 37 20.5 73.5t52 69t69 59.5t70.5 45h-1q61 42 115 67t121 25q30 0 64 -3t62.5 -13.5t47.5 -31t19 -54.5q0 -14 -3.5 -33.5t-10.5 -36.5t-17 -29t-23 -12q-24 0 -38.5 9t-27 20t-25.5 20t-32 9q-21 0 -50.5 -8t-61.5 -21
t-63 -31t-56 -38.5t-40.5 -42t-15.5 -41.5q0 -17 14 -28t32 -21t34.5 -16.5t42.5 -17.5q50 -22 94.5 -40.5t78 -39.5t53 -47.5t19.5 -65.5q0 -17 -6.5 -45t-16.5 -56.5t-22 -53t-23 -34.5q-41 -37 -98.5 -70t-115.5 -57l13 -6q53 -24 84 -54.5t31 -81.5q0 -18 -6.5 -45.5
t-16 -56t-21.5 -52.5t-22 -33q-39 -35 -92.5 -67t-111.5 -56t-116.5 -38t-106.5 -14q-26 0 -54 9.5t-51 24.5t-38.5 34.5t-15.5 39.5q0 12 7 25t16 23.5t18.5 17t14.5 6.5zM766 774q0 16 -9 28.5t-23.5 22.5t-32.5 19l-36 18q-32 -6 -69.5 -21.5t-71.5 -36.5t-59 -46.5
t-31 -52.5q-2 -11 -3.5 -19t-1.5 -16q0 -29 15 -44t39 -26q45 7 92 21t86.5 31.5t66 37.5t31.5 39q7 27 7 45z" />
    <glyph glyph-name="dieresis" unicode="&#xa8;" 
d="M555 1215q5 22 17.5 51t41.5 51q20 11 44.5 19.5t32.5 8.5q17 0 32 -14t26 -30q21 -3 28 -19t7 -36q0 -14 -2 -27t-4 -21q-6 -21 -23 -39t-38.5 -30.5t-44 -19.5t-37.5 -7h-24q-13 0 -26.5 14t-22.5 27t-11 21.5t-2 14.5q0 10 2 19t4 17zM968 1215q5 22 17.5 51t41.5 51
q20 11 44.5 19.5t32.5 8.5q17 0 32 -14t26 -30q21 -3 28 -19t7 -36q0 -14 -2 -27t-4 -21q-6 -21 -23 -39t-38.5 -30.5t-44 -19.5t-37.5 -7h-24q-13 0 -26.5 14t-22.5 27t-11 21.5t-2 14.5q0 10 2 19t4 17z" />
    <glyph glyph-name="copyright" unicode="&#xa9;" horiz-adv-x="1821" 
d="M705 336q-21 31 -33 55.5t-18.5 44t-8.5 36t-2 33.5q0 20 2.5 40.5t8.5 44t15 50.5t22 61q11 30 33 68t50 78.5t60 81.5t65 77.5t64.5 65t58.5 45.5l52 32.5t58 31.5t60.5 23.5t60.5 9.5q33 0 61.5 -13t50.5 -34.5t34.5 -51t12.5 -62.5q0 -27 -5 -43.5t-14 -25.5
t-21 -12.5t-26 -3.5q-27 0 -39 13.5t-17.5 29t-9 29t-12.5 13.5q-38 0 -86.5 -25t-95.5 -61.5t-88.5 -77t-66.5 -71.5q-56 -70 -87 -142t-31 -150q0 -58 24 -93t64 -35q51 0 99.5 11.5t95.5 31t93.5 45t91.5 54.5h23q13 0 25 -6.5t21 -16t14 -22t5 -24.5q0 -25 -19 -50.5
t-48.5 -49.5t-67 -45t-74 -37.5t-69.5 -28t-54 -14.5q-15 -3 -28 -5t-29 -3.5t-36.5 -2t-51.5 -0.5q-24 0 -50.5 6.5t-51.5 19.5t-47 32t-38 43zM228 535q29 109 90.5 226t146 228.5t187 211.5t214 175.5t227.5 119.5t226 44q31 0 55 -4.5t46 -9.5q39 -9 68 -13t55.5 -7.5
t53.5 -9.5t60 -19q31 -12 58.5 -35.5t50 -51.5t40 -56.5t27.5 -52.5q34 -80 54 -165t20 -176q0 -96 -23.5 -186.5t-63.5 -171.5q-14 -28 -33 -57t-40 -57.5t-43.5 -54.5t-43.5 -48q-92 -98 -201.5 -182t-228 -145.5t-242 -97t-243.5 -35.5q-37 0 -85 6t-96 18
q-66 16 -130.5 54t-115.5 94.5t-82.5 129t-31.5 158.5q0 41 6 82.5t18 87.5zM372 514q-11 -40 -18.5 -82t-7.5 -83q0 -30 5 -57.5t20 -50.5q31 -47 69 -84t86 -62t106.5 -38t131.5 -13q112 0 223 37.5t218 104.5q60 38 125 85.5t126.5 102.5t116.5 116.5t96.5 126.5
t65.5 132.5t24 134.5q0 46 -7.5 99.5t-24 107t-42.5 103.5t-62.5 88.5t-85.5 62t-110 23.5h-4q-28 -10 -54 -10q-14 0 -25 9t-14 22q-68 -1 -137.5 -23t-132.5 -57q-66 -37 -137 -87t-140.5 -110.5t-134 -130.5t-119 -146t-95.5 -157t-62 -164z" />
    <glyph glyph-name="ordfeminine" unicode="&#xaa;" horiz-adv-x="795" 
d="M748 809q0 23 5 47t5 58v10.5t-1 11.5q-29 -21 -60.5 -46t-64 -46.5t-64 -36.5t-61.5 -15q-50 0 -86 11.5t-59 32.5t-33.5 50.5t-10.5 65.5q0 69 26.5 137.5t70.5 131t101 117t119 96.5q42 28 86 36t86 8q20 0 41.5 -2.5t38.5 -4.5q5 1 23.5 4t31.5 3q24 0 40.5 -6
t26.5 -16t14 -23.5t4 -27.5q0 -26 -7.5 -46.5t-12.5 -28.5l-98 -391q-2 -26 -3.5 -41t-2.5 -25.5t-3 -20t-5 -24.5q-2 -8 -6.5 -19t-10.5 -20.5t-14 -16.5t-16 -7h-31q-22 0 -35.5 3t-21 9t-10 14t-2.5 18zM482 1039q-2 -11 -5 -28.5t-3 -36.5q0 -22 6.5 -39t25.5 -17
q37 0 65 13t52 32q48 37 90.5 76t74.5 83t50.5 95.5t18.5 113.5q0 11 -3 21t-13 10q-62 0 -121 -31.5t-108 -79.5t-83 -104.5t-47 -107.5z" />
    <glyph glyph-name="logicalnot" unicode="&#xac;" horiz-adv-x="1246" 
d="M995 368q9 40 23 81t29 81.5t29 82t24 83.5l14 59v1q0 1 0.5 1t0.5 1q0 5 -5 10q-17 0 -41 -4t-50.5 -9.5t-53.5 -12t-48 -10.5l-629 -132h-17q-36 0 -52.5 23t-16.5 55q0 27 7.5 46.5t20.5 32t30.5 20t37.5 11.5q201 38 405 79t401 79q6 1 19.5 5t31 8.5l35 9t31.5 7.5
q8 2 15 2q15 0 30.5 -8t28 -20t20.5 -26t8 -25v-5q-2 -5 -3 -13.5t-4 -23.5q-4 -20 -7.5 -35t-7 -29t-8 -30t-11.5 -37q-3 -11 -12.5 -40t-22 -67.5t-27.5 -82.5t-28.5 -84.5t-25.5 -73.5t-19 -49q-6 -15 -15 -30t-20.5 -27t-26 -20t-32.5 -8q-40 0 -54 18t-14 44q0 14 3 30
t7 32z" />
    <glyph glyph-name="uni00AD" unicode="&#xad;" horiz-adv-x="761" 
d="M206 499q2 9 9 22t16 26t19.5 22t20.5 9h143q32 0 66.5 4t69.5 9t71 9t72 4q55 0 82 -8t27 -40q0 -38 -19 -64.5t-51 -43t-76 -24.5t-93 -8q-39 -9 -79 -15.5t-77 -10t-68 -5.5t-53 -2q-19 0 -35 2t-28 8t-18.5 18.5t-6.5 33.5q0 19 8 54z" />
    <glyph glyph-name="registered" unicode="&#xae;" horiz-adv-x="1838" 
d="M232 549q38 142 118.5 265t187 227t230.5 189t249 152q29 16 59.5 27t66.5 19q16 20 44.5 38t65.5 18q7 0 25 -1.5t41.5 -4.5t49.5 -7t49 -9q117 -27 211.5 -68t161 -101.5t103 -143t36.5 -192.5q0 -144 -47 -276t-128.5 -245t-190.5 -204.5t-233 -156.5t-257 -100
t-261 -35q-123 0 -232.5 26.5t-191.5 82t-130 140.5t-48 201q0 37 5 76.5t16 82.5zM364 487q-6 -23 -12 -52.5t-6 -55.5q0 -54 22.5 -97.5t60.5 -77t87 -57.5t103 -39t108 -22t101 -7q109 0 221 31t217 86q-18 51 -42.5 97.5t-57.5 86.5t-76 70.5t-99 49.5h-14
q-20 0 -33.5 -4.5t-34.5 -4.5q-7 0 -13.5 3.5t-11.5 7.5l-29 -116q-3 -11 -10 -38t-16 -58t-17.5 -60t-13.5 -44q-19 -23 -35 -34t-39 -11q-34 0 -47.5 19.5t-13.5 46.5q0 10 2 20l4 20l141 544l9.5 38t8 36.5t6 39t3.5 44.5l-4 16t-2 18q0 12 3 24q6 23 12.5 40.5t18 29
t28 17.5t42.5 6q27 0 54 -9.5t56 -9.5q12 0 25.5 1.5t30 3.5t36.5 3.5t47 1.5q36 0 78.5 -5.5t80 -20t66 -39.5t36.5 -63q5 -21 6 -33.5t1 -20.5v-11v-9.5t-2 -9.5q-11 -39 -36.5 -77.5t-56.5 -71.5t-64 -58t-59 -37q-24 -12 -38.5 -19t-23.5 -10.5t-13.5 -5.5t-7.5 -3h-2
q39 -19 73.5 -44t67 -61t63 -84t62.5 -112v-2q75 56 142 127t116.5 151t78.5 166.5t29 174.5q0 70 -22 126t-62.5 100t-97 76t-124.5 53q-11 -35 -33.5 -61t-58.5 -26q-6 0 -11 0.5t-10 1.5q-11 21 -22 37.5t-25 27t-32.5 16t-45.5 5.5q-52 0 -107 -19t-104 -44
q-69 -35 -139.5 -81t-138 -101t-128.5 -118t-111.5 -131.5t-88 -141t-56.5 -146.5zM1148 930q-42 0 -82.5 -8t-68.5 -15q-6 -19 -15 -50t-19.5 -68t-22 -77t-21.5 -76q11 8 27 16t30 13q29 9 63.5 24.5t68 33t62.5 35.5t47 33q1 1 1.5 2t2.5 2q28 22 51.5 44t23.5 45
q0 16 -12 26q-28 13 -62 16.5t-74 3.5z" />
    <glyph glyph-name="macron" unicode="&#xaf;" 
d="M535 1213q3 9 10 23t16.5 27t20.5 22t20 9h195q33 0 65 4t65 8.5t66.5 8.5t69.5 4q56 0 82 -8.5t26 -40.5q0 -41 -18.5 -65t-50 -36t-74.5 -15.5t-91 -3.5q-81 -17 -155.5 -25t-121.5 -8q-20 0 -42.5 2.5t-41.5 10.5t-31.5 22t-12.5 38q0 9 3 23z" />
    <glyph glyph-name="degree" unicode="&#xb0;" horiz-adv-x="867" 
d="M369 1140q12 46 36 98t64 104.5t97 103.5t134 94q35 23 79 31t86 8q43 0 76 -9t58 -28t44.5 -47t36.5 -65q10 -22 14 -44.5t4 -43.5q0 -59 -20 -122.5t-57 -124t-89.5 -114.5t-116.5 -96q-84 -62 -213 -62q-62 0 -108.5 16t-77 44.5t-45.5 69t-15 90.5q0 23 3 47t10 50z
M519 1134q-6 -19 -8 -36t-2 -33q0 -48 26 -78.5t88 -30.5q60 0 109.5 28.5t87.5 71.5t62.5 92.5t35.5 90.5q7 26 10.5 49.5t3.5 40.5q0 51 -32 73.5t-92 22.5q-34 0 -76.5 -24t-83.5 -64t-76 -92.5t-53 -110.5z" />
    <glyph glyph-name="plusminus" unicode="&#xb1;" horiz-adv-x="1210" 
d="M568 355q2 4 5.5 14.5t8.5 21.5t9.5 26.5t8.5 33.5t8 37t9 37q-15 -1 -31.5 -3t-36 -4t-43.5 -3.5t-54 -1.5q-31 0 -62.5 1.5t-57 10t-41.5 26.5t-16 50q0 28 8 47t18 31t20 17l14 7l293 12q26 1 43.5 9.5t23.5 30.5l95 346q4 13 21.5 24t34.5 11t33.5 -12.5t29 -31.5
t20 -41.5t7.5 -43.5q0 -13 -3 -25q-5 -21 -16.5 -59.5t-22.5 -76.5q-13 -45 -29 -94q14 2 39 7.5t55 12.5t63.5 15t63.5 15t54 13t37 10q6 1 17 3t22.5 4t20 3t9.5 1q21 0 32 -19t11 -43t-7.5 -41.5t-20 -29.5t-28.5 -19.5t-32 -12.5l-88 -27q-61 -19 -113 -33.5t-92.5 -26
t-67.5 -20.5t-38 -15q-4 -6 -8.5 -18t-9 -25t-8.5 -25l-6 -18l-6.5 -19.5t-10 -31.5t-12.5 -39.5t-13 -43.5q-5 -18 -12.5 -38t-19.5 -37t-29 -28.5t-42 -11.5q-37 0 -51.5 25t-14.5 57q0 25 6 48zM198 69q6 25 30 41.5t46 16.5q26 0 44 -3t45 -10q53 5 113 12.5t121 15
t119 15t106.5 13.5t83.5 9.5t50 3.5q18 0 36.5 -3t33.5 -10t24 -19.5t9 -31.5q0 -22 -11.5 -39.5t-29 -30.5t-38.5 -21.5t-39 -12.5q-14 -3 -43 -8t-66.5 -10.5t-80.5 -11.5t-84 -12q-67 -9 -107 -14.5t-66.5 -9.5t-45 -6.5t-42 -5t-58.5 -6t-93 -8.5q-32 17 -48 40.5
t-16 56.5q0 24 7 49z" />
    <glyph glyph-name="twosuperior" unicode="&#xb2;" horiz-adv-x="1000" 
d="M1116 747q-15 -51 -64 -71.5t-134 -24.5q-58 -8 -119.5 -21.5t-123 -30t-120.5 -35t-110 -36.5l-35 -12q-6 -2 -13 -2.5t-18 -0.5q-14 0 -26 9t-20.5 22.5t-13.5 30t-5 30.5q0 16 10 30t25.5 26t34 21.5t35.5 17.5q60 33 111.5 66t97 69t86 77t78.5 91q48 62 87 126
t53 124q1 5 1.5 9t0.5 9q0 33 -30 52.5t-73 19.5q-40 0 -73.5 -8t-59.5 -20q-48 -29 -91 -68.5t-67 -91.5q-5 -24 -6.5 -41.5t-2 -33t-2 -33t-7.5 -42.5q-4 -16 -16 -29.5t-27 -23.5t-29 -16t-22 -6q-21 0 -35 7.5t-22.5 20t-11.5 28.5t-3 34q0 24 4 48t9 41q10 37 19 75.5
t31 74.5q28 49 74.5 94.5t102.5 80.5t119 56t125 21q52 0 97 -15t78 -42.5t51.5 -67.5t18.5 -91q0 -65 -30.5 -134t-76 -135.5t-98.5 -126t-99 -105.5l-11 -11q42 3 91 12t92 24q17 6 37.5 11.5t40.5 5.5q45 0 66.5 -19.5t21.5 -48.5q0 -11 -3 -21z" />
    <glyph glyph-name="threesuperior" unicode="&#xb3;" horiz-adv-x="950" 
d="M263 557q0 10 6 25t17.5 29t26.5 23.5t33 9.5q6 0 18 -2.5t18 -6.5l14 -9q17 -11 41 -23t52 -12q15 0 47.5 3.5t74 14t87 29.5t87 50t74.5 75.5t48 106.5q1 5 1.5 9t0.5 9q0 19 -10.5 33t-27 23t-36.5 13.5t-39 4.5q-21 0 -43 -6t-43 -12.5t-41 -12.5t-37 -6
q-31 0 -50.5 17.5t-19.5 43.5q0 25 14 40t36 29l65 39q43 26 88 58.5t82 68t60.5 71.5t23.5 68q0 15 -13 27t-38 12q-32 0 -80.5 -18.5t-100.5 -49t-100 -68.5t-79 -77q-4 -15 -12.5 -38.5t-21 -46t-27.5 -38.5t-32 -16q-20 0 -32.5 8.5t-20 22.5t-10.5 32t-3 37
q0 31 5.5 56.5t12 43.5t12.5 29t8 13q41 48 104.5 96t137 86.5t151 62t146.5 23.5q37 0 65.5 -12.5t47.5 -34t29 -49t10 -57.5q0 -35 -14 -74t-38 -78t-56 -76t-68 -67q31 -8 60 -22t51.5 -36t36 -51.5t13.5 -68.5q0 -25 -8 -59q-21 -84 -77.5 -161t-137 -136.5t-179 -95
t-203.5 -35.5q-39 0 -76 6.5t-66 20t-47 35t-18 51.5z" />
    <glyph glyph-name="acute" unicode="&#xb4;" 
d="M1266 1346q-11 -44 -37.5 -71t-65.5 -47l-314 -156q-18 -10 -48 -10q-23 0 -33 10.5t-10 27.5q0 21 8.5 38t21.5 31t28 24.5t27 18.5l76 45q48 28 94 56.5t86 51t72 37t50 14.5q20 0 33.5 -14t13.5 -37v-9.5t-2 -9.5z" />
    <glyph glyph-name="paragraph" unicode="&#xb6;" horiz-adv-x="1350" 
d="M591 -217q0 43 1 114t2.5 156.5t3 178t3 178.5t2.5 158.5t1 118.5v115l-3 3q-26 -22 -49 -40t-48 -30.5t-54 -19.5t-67 -7q-54 0 -91.5 13t-66 38t-50.5 62.5t-43 86.5q-18 41 -21.5 84t-3.5 88q0 87 19.5 157.5t51 125t70.5 93.5t79 64.5t77 37.5t63 12q41 0 69 -6.5
t52 -16.5q22 0 37 5t35 5q22 0 44 -10t40 -26.5t29 -37t11 -41.5v-304q0 -55 -0.5 -121t-1.5 -140.5t-1.5 -155.5t-1.5 -165q-2 -132 -3 -263t-1 -265q0 -169 3 -341q-8 -16 -27 -27t-31 -11q-65 0 -97 34.5t-32 99.5zM908 -192q0 4 1.5 19t4 32t4 32t1.5 18v732
q0 94 -1.5 182t-4.5 174.5t-6.5 173.5t-7.5 179l-3 68q0 1 -1.5 11.5t-3.5 23.5t-3.5 25t-1.5 16v27q0 29 13.5 40.5t44.5 11.5q51 0 81.5 -14t46.5 -38.5t21 -57.5t5 -72q0 -6 -4 -9v-491q0 -12 0.5 -24.5t3.5 -24.5v-1073q0 -27 -9.5 -45t-23 -28.5t-28 -14.5t-24.5 -4
q-24 0 -43 12.5t-33 31.5t-21.5 42t-7.5 45z" />
    <glyph glyph-name="cedilla" unicode="&#xb8;" horiz-adv-x="716" 
d="M105 -331q0 27 14 51t47 24q11 0 20.5 -4t21.5 -4q11 0 29 5.5t35.5 15t30 21.5t12.5 25q0 30 -68 51q-35 6 -51 23t-16 38q0 24 19 46q23 35 43.5 68.5t41.5 69.5q14 23 35.5 32.5t37.5 9.5q28 0 43.5 -19t15.5 -39q0 -13 -6 -23q-14 -22 -27.5 -44t-24.5 -44
q21 -11 40 -24.5t33.5 -30t22.5 -36.5t8 -45q0 -50 -27.5 -92.5t-68 -73.5t-87 -48.5t-85.5 -17.5q-17 0 -33 3.5t-28.5 11t-20 20t-7.5 30.5z" />
    <glyph glyph-name="onesuperior" unicode="&#xb9;" horiz-adv-x="718" 
d="M573 544q-37 0 -55.5 20.5t-18.5 50.5q0 7 1 14.5t3 15.5l152 594q-50 -32 -95.5 -64.5t-91.5 -64.5q-17 -12 -38.5 -18.5t-37.5 -6.5q-38 0 -55 22t-17 51q0 36 14 55.5t25 27.5q16 6 45 21.5t63.5 36.5t72 46.5t71.5 51.5t61 50.5t42 44.5q9 12 16 21t15.5 15.5
t19.5 10t26 3.5q12 0 27.5 -7.5t30 -20.5t24 -31t9.5 -40q0 -11 -2 -22t-5 -24q-14 -56 -32.5 -113.5t-38 -115.5t-38.5 -115t-33 -113q-11 -42 -17.5 -82t-12.5 -80t-12.5 -80.5t-16.5 -81.5q-3 -11 -13 -23.5t-24.5 -23.5t-31 -18t-32.5 -7z" />
    <glyph glyph-name="ordmasculine" unicode="&#xba;" horiz-adv-x="867" 
d="M350 1063q11 45 36.5 96.5t66.5 104.5t97.5 104.5t130.5 95.5q4 3 13.5 7t21.5 8t26 7t27 3q17 14 38 23.5t42 9.5q75 -1 125.5 -42t86.5 -132q8 -20 10 -44t2 -50q0 -60 -19.5 -122t-55.5 -120.5t-87.5 -111t-115.5 -92.5q-84 -63 -212 -63q-62 0 -108.5 16t-77 45
t-45.5 69.5t-15 89.5q0 47 13 98zM499 1056q-9 -36 -9 -67q0 -48 26 -78.5t88 -30.5q52 0 95 21t77.5 54t60.5 74t43 81.5t25.5 76.5t8.5 59q0 14 -4.5 31t-11.5 34.5t-15 35t-14 33.5q-7 -11 -15 -18.5t-23 -13.5t-39 -10.5t-63 -8.5q-37 -12 -75 -43.5t-69.5 -71.5
t-54 -82t-31.5 -76z" />
    <glyph glyph-name="onequarter" unicode="&#xbc;" horiz-adv-x="2005" 
d="M521 544q-37 0 -55.5 20.5t-18.5 50.5q0 7 1 14.5t3 15.5l152 594q-50 -32 -95.5 -64.5t-91.5 -64.5q-17 -12 -38.5 -18.5t-37.5 -6.5q-38 0 -55 22t-17 51q0 36 14 55.5t25 27.5q16 6 45 21.5t63.5 36.5t72 46.5t71.5 51.5t61 50.5t42 44.5q9 12 16 21t15.5 15.5
t19.5 10t26 3.5q12 0 27.5 -7.5t30 -20.5t24 -31t9.5 -40q0 -11 -2 -22t-5 -24q-14 -56 -32.5 -113.5t-38 -115.5t-38.5 -115t-33 -113q-11 -42 -17.5 -82t-12.5 -80t-12.5 -80.5t-16.5 -81.5q-3 -11 -13 -23.5t-24.5 -23.5t-31 -18t-32.5 -7zM395 -193q-26 0 -47 12.5
t-21 41.5q0 7 2.5 15.5t10.5 24.5q6 12 23 37.5t40 58t50.5 69.5t54.5 74t51 71t42 60l640 931q29 42 61.5 99.5t61.5 115.5q9 18 19 36.5t23.5 34.5t32 26t42.5 10q15 0 31 -3t28.5 -10t20.5 -19.5t8 -30.5q0 -35 -24.5 -78.5t-54.5 -87.5l-988 -1447q-11 -15 -24 -23.5
t-27.5 -12.5t-28.5 -4.5t-27 -0.5zM1460 74q9 37 17 64.5t15 50t13 43.5t12 45q-37 -13 -75.5 -19t-71.5 -6q-57 0 -95.5 13.5t-62 37t-33 53.5t-9.5 63q0 18 2 36.5t7 34.5q17 62 38 113.5t41 99.5q7 18 14.5 33.5t14.5 32t14 35t15 41.5q2 6 9.5 12.5t18 11.5t21.5 8.5
t20 3.5h16q32 0 53 -17t21 -47q0 -19 -4 -32q-8 -30 -24.5 -64.5t-35.5 -71t-37 -74t-27 -73.5q-7 -28 -7 -46q0 -26 12.5 -35t28.5 -9q22 0 50 4t57.5 11.5t57.5 19t49 25.5l230 508q5 11 15 18.5t21.5 12t22.5 6.5t19 2q20 0 35.5 -9.5t26 -24.5t16 -32.5t5.5 -33.5
q0 -8 -6 -21.5t-15.5 -31t-21 -37t-21.5 -38.5l-7 -13q-9 -16 -24 -46.5t-32 -65t-33 -69t-26 -57.5l39 6q8 2 18 2.5t33 0.5q25 0 34 -9t9 -25q0 -25 -9 -43.5t-25.5 -32t-39 -24t-49.5 -19.5l-12 -4q-41 -14 -63.5 -28.5t-25.5 -26.5q-14 -30 -28 -67t-26.5 -77.5
t-21.5 -82.5t-11 -81l-3 -55q-11 -45 -36 -65t-63 -20q-23 0 -37.5 7t-23 18.5t-12 27t-3.5 32.5q0 24 5 48t10 46z" />
    <glyph glyph-name="onehalf" unicode="&#xbd;" horiz-adv-x="2005" 
d="M521 544q-37 0 -55.5 20.5t-18.5 50.5q0 7 1 14.5t3 15.5l152 594q-50 -32 -95.5 -64.5t-91.5 -64.5q-17 -12 -38.5 -18.5t-37.5 -6.5q-38 0 -55 22t-17 51q0 36 14 55.5t25 27.5q16 6 45 21.5t63.5 36.5t72 46.5t71.5 51.5t61 50.5t42 44.5q9 12 16 21t15.5 15.5
t19.5 10t26 3.5q12 0 27.5 -7.5t30 -20.5t24 -31t9.5 -40q0 -11 -2 -22t-5 -24q-14 -56 -32.5 -113.5t-38 -115.5t-38.5 -115t-33 -113q-11 -42 -17.5 -82t-12.5 -80t-12.5 -80.5t-16.5 -81.5q-3 -11 -13 -23.5t-24.5 -23.5t-31 -18t-32.5 -7zM395 -193q-26 0 -47 12.5
t-21 41.5q0 7 2.5 15.5t10.5 24.5q6 12 23 37.5t40 58t50.5 69.5t54.5 74t51 71t42 60l640 931q29 42 61.5 99.5t61.5 115.5q9 18 19 36.5t23.5 34.5t32 26t42.5 10q15 0 31 -3t28.5 -10t20.5 -19.5t8 -30.5q0 -35 -24.5 -78.5t-54.5 -87.5l-988 -1447q-11 -15 -24 -23.5
t-27.5 -12.5t-28.5 -4.5t-27 -0.5zM1907 127q-15 -51 -64 -71.5t-134 -24.5q-58 -8 -119.5 -21.5t-123 -30t-120.5 -35t-110 -36.5l-35 -12q-6 -2 -13 -2.5t-18 -0.5q-14 0 -26 9t-20.5 22.5t-13.5 30t-5 30.5q0 16 10 30t25.5 26t34 21.5t35.5 17.5q60 33 111.5 66t97 69
t86 77t78.5 91q48 62 87 126t53 124q1 5 1.5 9t0.5 9q0 33 -30 52.5t-73 19.5q-40 0 -73.5 -8t-59.5 -20q-48 -29 -91 -68.5t-67 -91.5q-5 -24 -6.5 -41.5t-2 -33t-2 -33t-7.5 -42.5q-4 -16 -16 -29.5t-27 -23.5t-29 -16t-22 -6q-21 0 -35 7.5t-22.5 20t-11.5 28.5t-3 34
q0 24 4 48t9 41q10 37 19 75.5t31 74.5q28 49 74.5 94.5t102.5 80.5t119 56t125 21q52 0 97 -15t78 -42.5t51.5 -67.5t18.5 -91q0 -65 -30.5 -134t-76 -135.5t-98.5 -126t-99 -105.5l-11 -11q42 3 91 12t92 24q17 6 37.5 11.5t40.5 5.5q45 0 66.5 -19.5t21.5 -48.5
q0 -11 -3 -21z" />
    <glyph glyph-name="threequarters" unicode="&#xbe;" horiz-adv-x="2186" 
d="M208 557q0 10 6 25t17.5 29t26.5 23.5t33 9.5q6 0 18 -2.5t18 -6.5l14 -9q17 -11 41 -23t52 -12q15 0 47.5 3.5t74 14t87 29.5t87 50t74.5 75.5t48 106.5q1 5 1.5 9t0.5 9q0 19 -10.5 33t-27 23t-36.5 13.5t-39 4.5q-21 0 -43 -6t-43 -12.5t-41 -12.5t-37 -6
q-31 0 -50.5 17.5t-19.5 43.5q0 25 14 40t36 29l65 39q43 26 88 58.5t82 68t60.5 71.5t23.5 68q0 15 -13 27t-38 12q-32 0 -80.5 -18.5t-100.5 -49t-100 -68.5t-79 -77q-4 -15 -12.5 -38.5t-21 -46t-27.5 -38.5t-32 -16q-20 0 -32.5 8.5t-20 22.5t-10.5 32t-3 37
q0 31 5.5 56.5t12 43.5t12.5 29t8 13q41 48 104.5 96t137 86.5t151 62t146.5 23.5q37 0 65.5 -12.5t47.5 -34t29 -49t10 -57.5q0 -35 -14 -74t-38 -78t-56 -76t-68 -67q31 -8 60 -22t51.5 -36t36 -51.5t13.5 -68.5q0 -25 -8 -59q-21 -84 -77.5 -161t-137 -136.5t-179 -95
t-203.5 -35.5q-39 0 -76 6.5t-66 20t-47 35t-18 51.5zM577 -193q-26 0 -47 12.5t-21 41.5q0 7 2.5 15.5t10.5 24.5q6 12 23 37.5t40 58t50.5 69.5t54.5 74t51 71t42 60l640 931q29 42 61.5 99.5t61.5 115.5q9 18 19 36.5t23.5 34.5t32 26t42.5 10q15 0 31 -3t28.5 -10
t20.5 -19.5t8 -30.5q0 -35 -24.5 -78.5t-54.5 -87.5l-988 -1447q-11 -15 -24 -23.5t-27.5 -12.5t-28.5 -4.5t-27 -0.5zM1641 74q9 37 17 64.5t15 50t13 43.5t12 45q-37 -13 -75.5 -19t-71.5 -6q-57 0 -95.5 13.5t-62 37t-33 53.5t-9.5 63q0 18 2 36.5t7 34.5q17 62 38 113.5
t41 99.5q7 18 14.5 33.5t14.5 32t14 35t15 41.5q2 6 9.5 12.5t18 11.5t21.5 8.5t20 3.5h16q32 0 53 -17t21 -47q0 -19 -4 -32q-8 -30 -24.5 -64.5t-35.5 -71t-37 -74t-27 -73.5q-7 -28 -7 -46q0 -26 12.5 -35t28.5 -9q22 0 50 4t57.5 11.5t57.5 19t49 25.5l230 508
q5 11 15 18.5t21.5 12t22.5 6.5t19 2q20 0 35.5 -9.5t26 -24.5t16 -32.5t5.5 -33.5q0 -8 -6 -21.5t-15.5 -31t-21 -37t-21.5 -38.5l-7 -13q-9 -16 -24 -46.5t-32 -65t-33 -69t-26 -57.5l39 6q8 2 18 2.5t33 0.5q25 0 34 -9t9 -25q0 -25 -9 -43.5t-25.5 -32t-39 -24
t-49.5 -19.5l-12 -4q-41 -14 -63.5 -28.5t-25.5 -26.5q-14 -30 -28 -67t-26.5 -77.5t-21.5 -82.5t-11 -81l-3 -55q-11 -45 -36 -65t-63 -20q-23 0 -37.5 7t-23 18.5t-12 27t-3.5 32.5q0 24 5 48t10 46z" />
    <glyph glyph-name="questiondown" unicode="&#xbf;" horiz-adv-x="1113" 
d="M756 464.5q16 -17.5 26.5 -43.5t16 -57.5t5.5 -58.5q0 -45 -14 -72.5t-55 -51.5q-8 -4 -30 -17.5t-51.5 -31.5t-64 -39t-66 -41t-58 -36.5t-40.5 -25.5q-27 -18 -64 -45.5t-70.5 -60.5t-57 -70.5t-23.5 -74.5q0 -19 6.5 -36.5t17 -31.5t23.5 -22.5t27 -8.5
q69 0 139.5 14.5t140 40.5t137 61.5t131.5 77.5v-1q4 4 16.5 13t27.5 17t30.5 14.5t27.5 6.5q11 0 26.5 -4.5t30 -13.5t25 -23t10.5 -33t-16.5 -40t-42.5 -42.5t-58 -42t-64 -38t-59.5 -31t-43.5 -19.5q-115 -47 -223.5 -76.5t-221.5 -29.5q-47 0 -95 22.5t-87 60
t-63.5 86.5t-24.5 102q0 58 35.5 114t88.5 106t113.5 94t111.5 78q11 7 20 13.5t18 12.5q31 21 66 42.5t65.5 41t53.5 38t29 33.5q5 20 6.5 36.5t2.5 30.5v16q0 12 1.5 23.5t9.5 20.5t24.5 14.5t46.5 5.5q21 0 37 -17.5zM635 779q0 34 14.5 65t38.5 54t55.5 37t65.5 14
q26 0 49 -9.5t40 -26.5t26.5 -40t9.5 -49q0 -34 -15.5 -65.5t-40.5 -55.5t-57 -38.5t-65 -14.5q-26 0 -48 10t-38.5 27t-25.5 41t-9 51z" />
    <glyph glyph-name="Agrave" unicode="&#xc0;" horiz-adv-x="1415" 
d="M1093 -11q-21 0 -37 8t-26.5 21t-16 30t-5.5 34q0 15 8 41.5t20.5 59.5t27.5 69t29 69t24 61t14 44q4 18 10 43t13.5 54.5t15 62t15.5 65.5q-14 -3 -34.5 -5.5t-43.5 -4.5q-33 -3 -65 -9t-65.5 -13.5t-69.5 -16t-77 -17.5q-60 -13 -120 -29t-125 -16q-20 0 -37 10.5
t-38 15.5q-20 -32 -38 -68.5t-33 -75t-27 -76t-21 -70.5q-5 -18 -8.5 -46.5t-6.5 -58t-6 -56.5t-6 -43q-3 -15 -12 -29.5t-22 -26.5t-29 -19.5t-32 -7.5q-28 0 -45.5 16.5t-28 41t-14.5 53.5t-4 53q0 61 15 126.5t40.5 133t60 136t74.5 136.5q33 61 82 141t109.5 164.5
t131 165.5t146.5 144.5t156 102.5t159 39q83 0 138.5 -30t88.5 -81t46.5 -119t13.5 -144q0 -67 -8.5 -138t-21 -139t-27 -131t-26.5 -114l-35 -136q-2 -6 -7.5 -24t-14 -43.5t-19 -55t-21 -58t-20 -52.5t-16.5 -39l1 1q-7 -26 -15 -53t-22 -48.5t-36 -35t-57 -13.5z
M1144 1241q-45 0 -89.5 -18.5t-87.5 -48.5t-83.5 -70t-77 -82t-68.5 -84.5t-58 -78.5q-4 -6 -10.5 -15.5t-13 -21t-12.5 -24t-10 -22.5h103q56 0 128 8t142.5 19t129.5 22.5t89 17.5q4 13 7.5 35t6.5 49t4.5 57.5t1.5 62.5q0 26 -2 59.5t-12 63.5t-30.5 50.5t-57.5 20.5z
M909 1890q8 30 30.5 49t47.5 19q24 0 34 -5t19 -13q29 -25 78 -66t106 -88l40 -33q14 -11 27 -30t13 -45q0 -13 -4 -26.5t-12.5 -24t-21.5 -17.5t-31 -7q-19 0 -33 5t-28 14l-220 147q-24 17 -37.5 35.5t-13.5 46.5q0 18 6 39z" />
    <glyph glyph-name="Aacute" unicode="&#xc1;" horiz-adv-x="1415" 
d="M1093 -11q-21 0 -37 8t-26.5 21t-16 30t-5.5 34q0 15 8 41.5t20.5 59.5t27.5 69t29 69t24 61t14 44q4 18 10 43t13.5 54.5t15 62t15.5 65.5q-14 -3 -34.5 -5.5t-43.5 -4.5q-33 -3 -65 -9t-65.5 -13.5t-69.5 -16t-77 -17.5q-60 -13 -120 -29t-125 -16q-20 0 -37 10.5
t-38 15.5q-20 -32 -38 -68.5t-33 -75t-27 -76t-21 -70.5q-5 -18 -8.5 -46.5t-6.5 -58t-6 -56.5t-6 -43q-3 -15 -12 -29.5t-22 -26.5t-29 -19.5t-32 -7.5q-28 0 -45.5 16.5t-28 41t-14.5 53.5t-4 53q0 61 15 126.5t40.5 133t60 136t74.5 136.5q33 61 82 141t109.5 164.5
t131 165.5t146.5 144.5t156 102.5t159 39q83 0 138.5 -30t88.5 -81t46.5 -119t13.5 -144q0 -67 -8.5 -138t-21 -139t-27 -131t-26.5 -114l-35 -136q-2 -6 -7.5 -24t-14 -43.5t-19 -55t-21 -58t-20 -52.5t-16.5 -39l1 1q-7 -26 -15 -53t-22 -48.5t-36 -35t-57 -13.5z
M1144 1241q-45 0 -89.5 -18.5t-87.5 -48.5t-83.5 -70t-77 -82t-68.5 -84.5t-58 -78.5q-4 -6 -10.5 -15.5t-13 -21t-12.5 -24t-10 -22.5h103q56 0 128 8t142.5 19t129.5 22.5t89 17.5q4 13 7.5 35t6.5 49t4.5 57.5t1.5 62.5q0 26 -2 59.5t-12 63.5t-30.5 50.5t-57.5 20.5z
M1551 1886q-11 -44 -37.5 -71t-65.5 -47l-314 -156q-18 -10 -48 -10q-23 0 -33 10.5t-10 27.5q0 21 8.5 38t21.5 31t28 24.5t27 18.5l76 45q48 28 94 56.5t86 51t72 37t50 14.5q20 0 33.5 -14t13.5 -37v-9.5t-2 -9.5z" />
    <glyph glyph-name="Acircumflex" unicode="&#xc2;" horiz-adv-x="1415" 
d="M1093 -11q-21 0 -37 8t-26.5 21t-16 30t-5.5 34q0 15 8 41.5t20.5 59.5t27.5 69t29 69t24 61t14 44q4 18 10 43t13.5 54.5t15 62t15.5 65.5q-14 -3 -34.5 -5.5t-43.5 -4.5q-33 -3 -65 -9t-65.5 -13.5t-69.5 -16t-77 -17.5q-60 -13 -120 -29t-125 -16q-20 0 -37 10.5
t-38 15.5q-20 -32 -38 -68.5t-33 -75t-27 -76t-21 -70.5q-5 -18 -8.5 -46.5t-6.5 -58t-6 -56.5t-6 -43q-3 -15 -12 -29.5t-22 -26.5t-29 -19.5t-32 -7.5q-28 0 -45.5 16.5t-28 41t-14.5 53.5t-4 53q0 61 15 126.5t40.5 133t60 136t74.5 136.5q33 61 82 141t109.5 164.5
t131 165.5t146.5 144.5t156 102.5t159 39q83 0 138.5 -30t88.5 -81t46.5 -119t13.5 -144q0 -67 -8.5 -138t-21 -139t-27 -131t-26.5 -114l-35 -136q-2 -6 -7.5 -24t-14 -43.5t-19 -55t-21 -58t-20 -52.5t-16.5 -39l1 1q-7 -26 -15 -53t-22 -48.5t-36 -35t-57 -13.5z
M1144 1241q-45 0 -89.5 -18.5t-87.5 -48.5t-83.5 -70t-77 -82t-68.5 -84.5t-58 -78.5q-4 -6 -10.5 -15.5t-13 -21t-12.5 -24t-10 -22.5h103q56 0 128 8t142.5 19t129.5 22.5t89 17.5q4 13 7.5 35t6.5 49t4.5 57.5t1.5 62.5q0 26 -2 59.5t-12 63.5t-30.5 50.5t-57.5 20.5z
M871 1658q3 11 4.5 17.5t4 11.5t6.5 9.5t12 12.5l9 8q64 50 122 98t115 97q88 78 185 155q16 9 26 11t20 2h18q34 0 54.5 -12t31.5 -32t15 -45.5t4 -52.5q0 -14 -0.5 -28t-1.5 -28v-10q-1 -10 -1.5 -18t-0.5 -15v-10t1 -9l1 2q1 -4 3 -15.5t4.5 -25t4.5 -26t2 -17.5
q0 -2 0.5 -8t1.5 -12q1 -7 2 -15q-3 -14 -12.5 -26.5t-22 -21.5t-27.5 -14.5t-30 -5.5q-16 0 -24.5 5t-19.5 13l-3 2l-9 9q-11 20 -17.5 45.5t-10 53t-5 55.5t-1.5 54l-13 -6l-20 -13q-14 -10 -42.5 -31t-60 -44t-60 -44t-42.5 -32l-61 -54q-7 -6 -18.5 -12.5t-24.5 -11.5
t-24.5 -8t-18.5 -3q-11 0 -24 1.5t-25 5t-20 10.5t-8 19q0 6 1 9z" />
    <glyph glyph-name="Atilde" unicode="&#xc3;" horiz-adv-x="1415" 
d="M1093 -11q-21 0 -37 8t-26.5 21t-16 30t-5.5 34q0 15 8 41.5t20.5 59.5t27.5 69t29 69t24 61t14 44q4 18 10 43t13.5 54.5t15 62t15.5 65.5q-14 -3 -34.5 -5.5t-43.5 -4.5q-33 -3 -65 -9t-65.5 -13.5t-69.5 -16t-77 -17.5q-60 -13 -120 -29t-125 -16q-20 0 -37 10.5
t-38 15.5q-20 -32 -38 -68.5t-33 -75t-27 -76t-21 -70.5q-5 -18 -8.5 -46.5t-6.5 -58t-6 -56.5t-6 -43q-3 -15 -12 -29.5t-22 -26.5t-29 -19.5t-32 -7.5q-28 0 -45.5 16.5t-28 41t-14.5 53.5t-4 53q0 61 15 126.5t40.5 133t60 136t74.5 136.5q33 61 82 141t109.5 164.5
t131 165.5t146.5 144.5t156 102.5t159 39q83 0 138.5 -30t88.5 -81t46.5 -119t13.5 -144q0 -67 -8.5 -138t-21 -139t-27 -131t-26.5 -114l-35 -136q-2 -6 -7.5 -24t-14 -43.5t-19 -55t-21 -58t-20 -52.5t-16.5 -39l1 1q-7 -26 -15 -53t-22 -48.5t-36 -35t-57 -13.5z
M1144 1241q-45 0 -89.5 -18.5t-87.5 -48.5t-83.5 -70t-77 -82t-68.5 -84.5t-58 -78.5q-4 -6 -10.5 -15.5t-13 -21t-12.5 -24t-10 -22.5h103q56 0 128 8t142.5 19t129.5 22.5t89 17.5q4 13 7.5 35t6.5 49t4.5 57.5t1.5 62.5q0 26 -2 59.5t-12 63.5t-30.5 50.5t-57.5 20.5z
M889 1725q1 3 3 8.5t5 10.5q38 56 70 100t66 74.5t72.5 46.5t89.5 16q42 0 77 -21t58 -63q16 -29 27 -49t22 -20q6 0 13.5 5.5t15 13t13.5 14.5t10 10q9 7 18.5 18t18.5 23t17.5 23.5t15.5 18.5q3 3 9.5 11.5t14 18t15.5 16.5t14 7q20 0 33 -17t13 -42q0 -19 -13.5 -48
t-35.5 -61t-50 -63.5t-56.5 -56.5t-55.5 -41t-47 -16q-24 0 -41.5 12.5t-31 31t-25 40.5t-23.5 40.5t-26 31t-32 12.5q-30 0 -55.5 -19.5t-58.5 -58.5q-15 -18 -28.5 -38.5t-28 -38t-32 -29t-39.5 -11.5q-18 0 -26.5 20t-8.5 43q0 15 3 27z" />
    <glyph glyph-name="Adieresis" unicode="&#xc4;" horiz-adv-x="1415" 
d="M1093 -11q-21 0 -37 8t-26.5 21t-16 30t-5.5 34q0 15 8 41.5t20.5 59.5t27.5 69t29 69t24 61t14 44q4 18 10 43t13.5 54.5t15 62t15.5 65.5q-14 -3 -34.5 -5.5t-43.5 -4.5q-33 -3 -65 -9t-65.5 -13.5t-69.5 -16t-77 -17.5q-60 -13 -120 -29t-125 -16q-20 0 -37 10.5
t-38 15.5q-20 -32 -38 -68.5t-33 -75t-27 -76t-21 -70.5q-5 -18 -8.5 -46.5t-6.5 -58t-6 -56.5t-6 -43q-3 -15 -12 -29.5t-22 -26.5t-29 -19.5t-32 -7.5q-28 0 -45.5 16.5t-28 41t-14.5 53.5t-4 53q0 61 15 126.5t40.5 133t60 136t74.5 136.5q33 61 82 141t109.5 164.5
t131 165.5t146.5 144.5t156 102.5t159 39q83 0 138.5 -30t88.5 -81t46.5 -119t13.5 -144q0 -67 -8.5 -138t-21 -139t-27 -131t-26.5 -114l-35 -136q-2 -6 -7.5 -24t-14 -43.5t-19 -55t-21 -58t-20 -52.5t-16.5 -39l1 1q-7 -26 -15 -53t-22 -48.5t-36 -35t-57 -13.5z
M1144 1241q-45 0 -89.5 -18.5t-87.5 -48.5t-83.5 -70t-77 -82t-68.5 -84.5t-58 -78.5q-4 -6 -10.5 -15.5t-13 -21t-12.5 -24t-10 -22.5h103q56 0 128 8t142.5 19t129.5 22.5t89 17.5q4 13 7.5 35t6.5 49t4.5 57.5t1.5 62.5q0 26 -2 59.5t-12 63.5t-30.5 50.5t-57.5 20.5z
M891 1755q5 22 17.5 51t41.5 51q20 11 44.5 19.5t32.5 8.5q17 0 32 -14t26 -30q21 -3 28 -19t7 -36q0 -14 -2 -27t-4 -21q-6 -21 -23 -39t-38.5 -30.5t-44 -19.5t-37.5 -7h-24q-13 0 -26.5 14t-22.5 27t-11 21.5t-2 14.5q0 10 2 19t4 17zM1304 1755q5 22 17.5 51t41.5 51
q20 11 44.5 19.5t32.5 8.5q17 0 32 -14t26 -30q21 -3 28 -19t7 -36q0 -14 -2 -27t-4 -21q-6 -21 -23 -39t-38.5 -30.5t-44 -19.5t-37.5 -7h-24q-13 0 -26.5 14t-22.5 27t-11 21.5t-2 14.5q0 10 2 19t4 17z" />
    <glyph glyph-name="Aring" unicode="&#xc5;" horiz-adv-x="1415" 
d="M1093 -11q-21 0 -37 8t-26.5 21t-16 30t-5.5 34q0 15 8 41.5t20.5 59.5t27.5 69t29 69t24 61t14 44q4 18 10 43t13.5 54.5t15 62t15.5 65.5q-14 -3 -34.5 -5.5t-43.5 -4.5q-33 -3 -65 -9t-65.5 -13.5t-69.5 -16t-77 -17.5q-60 -13 -120 -29t-125 -16q-20 0 -37 10.5
t-38 15.5q-20 -32 -38 -68.5t-33 -75t-27 -76t-21 -70.5q-5 -18 -8.5 -46.5t-6.5 -58t-6 -56.5t-6 -43q-3 -15 -12 -29.5t-22 -26.5t-29 -19.5t-32 -7.5q-28 0 -45.5 16.5t-28 41t-14.5 53.5t-4 53q0 61 15 126.5t40.5 133t60 136t74.5 136.5q33 61 82 141t109.5 164.5
t131 165.5t146.5 144.5t156 102.5t159 39q83 0 138.5 -30t88.5 -81t46.5 -119t13.5 -144q0 -67 -8.5 -138t-21 -139t-27 -131t-26.5 -114l-35 -136q-2 -6 -7.5 -24t-14 -43.5t-19 -55t-21 -58t-20 -52.5t-16.5 -39l1 1q-7 -26 -15 -53t-22 -48.5t-36 -35t-57 -13.5z
M1144 1241q-45 0 -89.5 -18.5t-87.5 -48.5t-83.5 -70t-77 -82t-68.5 -84.5t-58 -78.5q-4 -6 -10.5 -15.5t-13 -21t-12.5 -24t-10 -22.5h103q56 0 128 8t142.5 19t129.5 22.5t89 17.5q4 13 7.5 35t6.5 49t4.5 57.5t1.5 62.5q0 26 -2 59.5t-12 63.5t-30.5 50.5t-57.5 20.5z
M966 1530q8 32 24 66.5t42 69t64 67.5t91 62l-2 -1q22 17 51.5 22.5t58.5 5.5q31 0 53 -5.5t38.5 -17t28.5 -30t24 -44.5q13 -32 13 -63q0 -17 -3 -33.5t-8 -35.5q-8 -33 -24.5 -65.5t-39.5 -63t-52 -57.5t-62 -48q-26 -17 -61.5 -28t-81.5 -11q-82 0 -122 40.5t-40 106.5
q0 28 8 63zM1096 1534q-2 -8 -3 -16.5t-1 -16.5q0 -26 13.5 -42t45.5 -16q30 0 55.5 15t44.5 37t31.5 47.5t17.5 47.5q9 30 9 49q0 2 -0.5 3.5t-0.5 3.5v-1q-5 19 -15.5 28t-46.5 9q-17 0 -38.5 -11.5t-42.5 -32t-39.5 -47.5t-29.5 -57z" />
    <glyph glyph-name="AE" unicode="&#xc6;" horiz-adv-x="2028" 
d="M1008 87q2 30 10 61q32 129 75 253t80 247q-14 -2 -31 -3.5t-35 -3.5q-33 -3 -65 -9t-65.5 -13.5t-69.5 -16t-77 -17.5q-60 -13 -120 -29t-125 -16q-20 0 -37 10.5t-38 15.5q-20 -32 -38 -68.5t-33 -75t-27 -76t-21 -70.5q-5 -18 -8.5 -46.5t-6.5 -58t-6 -56.5t-6 -43
q-3 -15 -12 -29.5t-22 -26.5t-29 -19.5t-32 -7.5q-28 0 -45.5 16.5t-28 41t-14.5 53.5t-4 53q0 61 14.5 126.5t40 133t59.5 136.5t72 138q34 61 83.5 140.5t110.5 163.5t132 165t147 144.5t156 102.5t159 39q50 0 88.5 -11t69.5 -32.5t55 -53.5t44 -74q16 10 33.5 18.5
t38 15.5t46.5 13t59 12q15 1 39 5.5t48.5 9.5t45.5 10t32 9q66 18 122 31t106.5 21.5t96.5 12.5t93 4q46 0 75 -5t46 -13.5t23.5 -20t6.5 -24.5q0 -12 -6.5 -25.5t-21.5 -25.5t-39 -21t-60 -12q-9 -2 -41.5 -7.5t-70.5 -12t-72 -12.5t-47 -9h1q-6 -1 -28.5 -7.5t-54.5 -15.5
t-69.5 -19.5t-73.5 -21t-67.5 -20.5t-49.5 -17q-62 -23 -96.5 -62t-54.5 -88q-4 -9 -12 -30.5t-17.5 -49t-20.5 -58.5t-21 -59t-17.5 -51t-10.5 -34q-3 -10 -4 -18t-1 -12q0 -6 3 -6q15 0 62.5 13.5t111 33.5t136 43t139 43t118.5 33.5t75 13.5q35 0 47 -11.5t12 -25.5
q0 -36 -25.5 -63t-63.5 -47q-12 -6 -44.5 -17.5t-70 -23.5t-71.5 -23t-49 -17q-93 -36 -153 -60t-98 -39t-59.5 -23.5t-38.5 -14t-34.5 -10t-46.5 -11.5q-5 -2 -10.5 -2.5t-11.5 -2.5q-9 -21 -21 -63.5t-23 -88t-18.5 -84.5t-7.5 -54q0 -28 10.5 -34.5t21.5 -6.5h10
q48 0 115.5 14t133.5 37q63 22 110 48t88.5 48.5t81 38t86.5 16.5q9 0 22 -2t24.5 -6.5t19.5 -13t8 -20.5v-5q-4 -29 -29 -57t-63 -54t-85 -50t-96 -45.5t-96 -39t-84 -30.5q-92 -32 -179 -47t-156 -15q-76 0 -116.5 28.5t-40.5 94.5v13zM1144 1241q-45 0 -89.5 -18.5
t-87.5 -48.5t-83.5 -70t-77 -82t-68.5 -84.5t-58 -78.5q-4 -6 -10.5 -15.5t-13 -21t-12.5 -24t-10 -22.5h103q56 0 128 8t142.5 19t129.5 22.5t89 17.5q4 13 7.5 35t6.5 49t4.5 57.5t1.5 62.5q0 26 -2 59.5t-12 63.5t-30.5 50.5t-57.5 20.5z" />
    <glyph glyph-name="Ccedilla" unicode="&#xc7;" horiz-adv-x="1219" 
d="M236 426q0 58 14 131.5t49 142.5q48 96 107 185.5t121 165t124 134t118 91.5l-1 -1q35 22 74 46t80 44t83 33t83 13q42 0 80 -17t66.5 -46.5t45 -68.5t16.5 -83q0 -31 -3.5 -48.5t-11 -26.5t-19 -11t-26.5 -2q-22 0 -34.5 9.5t-20 23t-11.5 30t-9.5 30t-14 23t-23.5 9.5
q-40 0 -86.5 -18t-95 -48t-97 -68.5t-92.5 -78.5t-81.5 -79t-64.5 -70q-40 -51 -73 -103.5t-57 -107t-37 -112t-13 -119.5q0 -48 13.5 -84t29.5 -62q19 -30 47 -41.5t67 -11.5q85 0 157 16t138 43t129 64t130 79h26q13 0 26.5 -7t24 -18t17 -25t6.5 -29q0 -33 -26 -65.5
t-66.5 -62t-91.5 -55.5t-100.5 -46t-92.5 -34t-69 -19q-22 -5 -42.5 -9.5t-48.5 -9t-67 -7t-98 -2.5q-36 0 -66 11.5t-53.5 27t-40 32.5t-26.5 29q-59 69 -86 136t-27 147zM354 -331q0 27 14 51t47 24q11 0 20.5 -4t21.5 -4q11 0 29 5.5t35.5 15t30 21.5t12.5 25
q0 30 -68 51q-35 6 -51 23t-16 38q0 24 19 46q23 35 43.5 68.5t41.5 69.5q14 23 35.5 32.5t37.5 9.5q28 0 43.5 -19t15.5 -39q0 -13 -6 -23q-14 -22 -27.5 -44t-24.5 -44q21 -11 40 -24.5t33.5 -30t22.5 -36.5t8 -45q0 -50 -27.5 -92.5t-68 -73.5t-87 -48.5t-85.5 -17.5
q-17 0 -33 3.5t-28.5 11t-20 20t-7.5 30.5z" />
    <glyph glyph-name="Egrave" unicode="&#xc8;" horiz-adv-x="1234" 
d="M214 74q0 35 10 74q34 136 79.5 266.5t82.5 259.5t61.5 217.5t43.5 152t35 109.5t35 91q12 27 26.5 56t31.5 53.5t35.5 40t38.5 15.5q41 0 62.5 -13.5t26.5 -24.5l9 -41q15 1 39 5.5t48.5 9.5t45.5 10t32 9q66 18 122 31t106.5 21.5t96.5 12.5t93 4q46 0 75 -5t46 -13.5
t23.5 -20t6.5 -24.5q0 -12 -6.5 -25.5t-21.5 -25.5t-39 -21t-60 -12q-9 -2 -41.5 -7.5t-70.5 -12t-72 -12.5t-47 -9h1q-6 -1 -28.5 -7.5t-54.5 -15t-69.5 -19.5t-74 -21.5t-67.5 -20t-50 -15.5q-61 -24 -95.5 -63.5t-54.5 -88.5q-4 -9 -12 -30.5t-17.5 -49t-20.5 -58.5
t-21 -59t-17.5 -51t-10.5 -34q-3 -10 -4 -18t-1 -12q0 -6 3 -6q15 0 62.5 13.5t111 33.5t136 43t139 43t118.5 33.5t75 13.5q35 0 47 -11.5t12 -25.5q0 -36 -25.5 -63t-63.5 -47q-12 -6 -44.5 -17.5t-70 -23.5t-71.5 -23t-49 -16q-98 -38 -159.5 -62.5t-99.5 -40
t-58.5 -23.5t-38 -13.5t-38.5 -10.5t-58 -14q-9 -21 -21 -63.5t-23 -88t-18.5 -84.5t-7.5 -54q0 -18 5 -26.5t12 -11.5t14 -3h11q48 0 115.5 14t133.5 37q63 22 110 48t88.5 48.5t81 38t86.5 16.5q10 0 23.5 -2t25.5 -7.5t19.5 -14.5t5.5 -23q-4 -29 -29 -57t-63 -54
t-85 -50t-96 -45.5t-96 -39t-84 -30.5q-92 -32 -179 -47t-156 -15q-76 0 -116.5 28.5t-40.5 94.5zM780 1890q8 30 30.5 49t47.5 19q24 0 34 -5t19 -13q29 -25 78 -66t106 -88l40 -33q14 -11 27 -30t13 -45q0 -13 -4 -26.5t-12.5 -24t-21.5 -17.5t-31 -7q-19 0 -33 5t-28 14
l-220 147q-24 17 -37.5 35.5t-13.5 46.5q0 18 6 39z" />
    <glyph glyph-name="Eacute" unicode="&#xc9;" horiz-adv-x="1234" 
d="M214 74q0 35 10 74q34 136 79.5 266.5t82.5 259.5t61.5 217.5t43.5 152t35 109.5t35 91q12 27 26.5 56t31.5 53.5t35.5 40t38.5 15.5q41 0 62.5 -13.5t26.5 -24.5l9 -41q15 1 39 5.5t48.5 9.5t45.5 10t32 9q66 18 122 31t106.5 21.5t96.5 12.5t93 4q46 0 75 -5t46 -13.5
t23.5 -20t6.5 -24.5q0 -12 -6.5 -25.5t-21.5 -25.5t-39 -21t-60 -12q-9 -2 -41.5 -7.5t-70.5 -12t-72 -12.5t-47 -9h1q-6 -1 -28.5 -7.5t-54.5 -15t-69.5 -19.5t-74 -21.5t-67.5 -20t-50 -15.5q-61 -24 -95.5 -63.5t-54.5 -88.5q-4 -9 -12 -30.5t-17.5 -49t-20.5 -58.5
t-21 -59t-17.5 -51t-10.5 -34q-3 -10 -4 -18t-1 -12q0 -6 3 -6q15 0 62.5 13.5t111 33.5t136 43t139 43t118.5 33.5t75 13.5q35 0 47 -11.5t12 -25.5q0 -36 -25.5 -63t-63.5 -47q-12 -6 -44.5 -17.5t-70 -23.5t-71.5 -23t-49 -16q-98 -38 -159.5 -62.5t-99.5 -40
t-58.5 -23.5t-38 -13.5t-38.5 -10.5t-58 -14q-9 -21 -21 -63.5t-23 -88t-18.5 -84.5t-7.5 -54q0 -18 5 -26.5t12 -11.5t14 -3h11q48 0 115.5 14t133.5 37q63 22 110 48t88.5 48.5t81 38t86.5 16.5q10 0 23.5 -2t25.5 -7.5t19.5 -14.5t5.5 -23q-4 -29 -29 -57t-63 -54
t-85 -50t-96 -45.5t-96 -39t-84 -30.5q-92 -32 -179 -47t-156 -15q-76 0 -116.5 28.5t-40.5 94.5zM1444 1886q-11 -44 -37.5 -71t-65.5 -47l-314 -156q-18 -10 -48 -10q-23 0 -33 10.5t-10 27.5q0 21 8.5 38t21.5 31t28 24.5t27 18.5l76 45q48 28 94 56.5t86 51t72 37
t50 14.5q20 0 33.5 -14t13.5 -37v-9.5t-2 -9.5z" />
    <glyph glyph-name="Ecircumflex" unicode="&#xca;" horiz-adv-x="1234" 
d="M214 74q0 35 10 74q34 136 79.5 266.5t82.5 259.5t61.5 217.5t43.5 152t35 109.5t35 91q12 27 26.5 56t31.5 53.5t35.5 40t38.5 15.5q41 0 62.5 -13.5t26.5 -24.5l9 -41q15 1 39 5.5t48.5 9.5t45.5 10t32 9q66 18 122 31t106.5 21.5t96.5 12.5t93 4q46 0 75 -5t46 -13.5
t23.5 -20t6.5 -24.5q0 -12 -6.5 -25.5t-21.5 -25.5t-39 -21t-60 -12q-9 -2 -41.5 -7.5t-70.5 -12t-72 -12.5t-47 -9h1q-6 -1 -28.5 -7.5t-54.5 -15t-69.5 -19.5t-74 -21.5t-67.5 -20t-50 -15.5q-61 -24 -95.5 -63.5t-54.5 -88.5q-4 -9 -12 -30.5t-17.5 -49t-20.5 -58.5
t-21 -59t-17.5 -51t-10.5 -34q-3 -10 -4 -18t-1 -12q0 -6 3 -6q15 0 62.5 13.5t111 33.5t136 43t139 43t118.5 33.5t75 13.5q35 0 47 -11.5t12 -25.5q0 -36 -25.5 -63t-63.5 -47q-12 -6 -44.5 -17.5t-70 -23.5t-71.5 -23t-49 -16q-98 -38 -159.5 -62.5t-99.5 -40
t-58.5 -23.5t-38 -13.5t-38.5 -10.5t-58 -14q-9 -21 -21 -63.5t-23 -88t-18.5 -84.5t-7.5 -54q0 -18 5 -26.5t12 -11.5t14 -3h11q48 0 115.5 14t133.5 37q63 22 110 48t88.5 48.5t81 38t86.5 16.5q10 0 23.5 -2t25.5 -7.5t19.5 -14.5t5.5 -23q-4 -29 -29 -57t-63 -54
t-85 -50t-96 -45.5t-96 -39t-84 -30.5q-92 -32 -179 -47t-156 -15q-76 0 -116.5 28.5t-40.5 94.5zM785 1658q3 11 4.5 17.5t4 11.5t6.5 9.5t12 12.5l9 8q64 50 122 98t115 97q88 78 185 155q16 9 26 11t20 2h18q34 0 54.5 -12t31.5 -32t15 -45.5t4 -52.5q0 -14 -0.5 -28
t-1.5 -28v-10q-1 -10 -1.5 -18t-0.5 -15v-10t1 -9l1 2q1 -4 3 -15.5t4.5 -25t4.5 -26t2 -17.5q0 -2 0.5 -8t1.5 -12q1 -7 2 -15q-3 -14 -12.5 -26.5t-22 -21.5t-27.5 -14.5t-30 -5.5q-16 0 -24.5 5t-19.5 13l-3 2l-9 9q-11 20 -17.5 45.5t-10 53t-5 55.5t-1.5 54l-13 -6
l-20 -13q-14 -10 -42.5 -31t-60 -44t-60 -44t-42.5 -32l-61 -54q-7 -6 -18.5 -12.5t-24.5 -11.5t-24.5 -8t-18.5 -3q-11 0 -24 1.5t-25 5t-20 10.5t-8 19q0 6 1 9z" />
    <glyph glyph-name="Edieresis" unicode="&#xcb;" horiz-adv-x="1234" 
d="M214 74q0 35 10 74q34 136 79.5 266.5t82.5 259.5t61.5 217.5t43.5 152t35 109.5t35 91q12 27 26.5 56t31.5 53.5t35.5 40t38.5 15.5q41 0 62.5 -13.5t26.5 -24.5l9 -41q15 1 39 5.5t48.5 9.5t45.5 10t32 9q66 18 122 31t106.5 21.5t96.5 12.5t93 4q46 0 75 -5t46 -13.5
t23.5 -20t6.5 -24.5q0 -12 -6.5 -25.5t-21.5 -25.5t-39 -21t-60 -12q-9 -2 -41.5 -7.5t-70.5 -12t-72 -12.5t-47 -9h1q-6 -1 -28.5 -7.5t-54.5 -15t-69.5 -19.5t-74 -21.5t-67.5 -20t-50 -15.5q-61 -24 -95.5 -63.5t-54.5 -88.5q-4 -9 -12 -30.5t-17.5 -49t-20.5 -58.5
t-21 -59t-17.5 -51t-10.5 -34q-3 -10 -4 -18t-1 -12q0 -6 3 -6q15 0 62.5 13.5t111 33.5t136 43t139 43t118.5 33.5t75 13.5q35 0 47 -11.5t12 -25.5q0 -36 -25.5 -63t-63.5 -47q-12 -6 -44.5 -17.5t-70 -23.5t-71.5 -23t-49 -16q-98 -38 -159.5 -62.5t-99.5 -40
t-58.5 -23.5t-38 -13.5t-38.5 -10.5t-58 -14q-9 -21 -21 -63.5t-23 -88t-18.5 -84.5t-7.5 -54q0 -18 5 -26.5t12 -11.5t14 -3h11q48 0 115.5 14t133.5 37q63 22 110 48t88.5 48.5t81 38t86.5 16.5q10 0 23.5 -2t25.5 -7.5t19.5 -14.5t5.5 -23q-4 -29 -29 -57t-63 -54
t-85 -50t-96 -45.5t-96 -39t-84 -30.5q-92 -32 -179 -47t-156 -15q-76 0 -116.5 28.5t-40.5 94.5zM778 1755q5 22 17.5 51t41.5 51q20 11 44.5 19.5t32.5 8.5q17 0 32 -14t26 -30q21 -3 28 -19t7 -36q0 -14 -2 -27t-4 -21q-6 -21 -23 -39t-38.5 -30.5t-44 -19.5t-37.5 -7
h-24q-13 0 -26.5 14t-22.5 27t-11 21.5t-2 14.5q0 10 2 19t4 17zM1191 1755q5 22 17.5 51t41.5 51q20 11 44.5 19.5t32.5 8.5q17 0 32 -14t26 -30q21 -3 28 -19t7 -36q0 -14 -2 -27t-4 -21q-6 -21 -23 -39t-38.5 -30.5t-44 -19.5t-37.5 -7h-24q-13 0 -26.5 14t-22.5 27
t-11 21.5t-2 14.5q0 10 2 19t4 17z" />
    <glyph glyph-name="Igrave" unicode="&#xcc;" horiz-adv-x="599" 
d="M343 574q9 39 21.5 86.5t27 98.5t29.5 103t29.5 100t26.5 89.5t21 70.5q19 65 36 130.5t33 137.5q20 39 54 55.5t74 16.5q32 -17 50.5 -46.5t18.5 -66.5q0 -26 -8.5 -59.5t-21.5 -72t-29 -81t-31 -87.5l-56 -164t-55 -173q-7 -24 -15 -48t-16.5 -52t-18.5 -62.5
t-20 -79.5q-12 -53 -21 -106.5t-17 -107.5t-18 -109t-24 -111q-5 -20 -17.5 -35.5t-28.5 -26.5t-34 -17t-34 -6t-30.5 2.5t-22.5 11.5q-12 13 -19 29t-7 34q0 5 0.5 9.5t1.5 9.5zM487 1890q8 30 30.5 49t47.5 19q24 0 34 -5t19 -13q29 -25 78 -66t106 -88l40 -33
q14 -11 27 -30t13 -45q0 -13 -4 -26.5t-12.5 -24t-21.5 -17.5t-31 -7q-19 0 -33 5t-28 14l-220 147q-24 17 -37.5 35.5t-13.5 46.5q0 18 6 39z" />
    <glyph glyph-name="Iacute" unicode="&#xcd;" horiz-adv-x="599" 
d="M343 574q9 39 21.5 86.5t27 98.5t29.5 103t29.5 100t26.5 89.5t21 70.5q19 65 36 130.5t33 137.5q20 39 54 55.5t74 16.5q32 -17 50.5 -46.5t18.5 -66.5q0 -26 -8.5 -59.5t-21.5 -72t-29 -81t-31 -87.5l-56 -164t-55 -173q-7 -24 -15 -48t-16.5 -52t-18.5 -62.5
t-20 -79.5q-12 -53 -21 -106.5t-17 -107.5t-18 -109t-24 -111q-5 -20 -17.5 -35.5t-28.5 -26.5t-34 -17t-34 -6t-30.5 2.5t-22.5 11.5q-12 13 -19 29t-7 34q0 5 0.5 9.5t1.5 9.5zM1127 1886q-11 -44 -37.5 -71t-65.5 -47l-314 -156q-18 -10 -48 -10q-23 0 -33 10.5t-10 27.5
q0 21 8.5 38t21.5 31t28 24.5t27 18.5l76 45q48 28 94 56.5t86 51t72 37t50 14.5q20 0 33.5 -14t13.5 -37v-9.5t-2 -9.5z" />
    <glyph glyph-name="Icircumflex" unicode="&#xce;" horiz-adv-x="599" 
d="M343 574q9 39 21.5 86.5t27 98.5t29.5 103t29.5 100t26.5 89.5t21 70.5q19 65 36 130.5t33 137.5q20 39 54 55.5t74 16.5q32 -17 50.5 -46.5t18.5 -66.5q0 -26 -8.5 -59.5t-21.5 -72t-29 -81t-31 -87.5l-56 -164t-55 -173q-7 -24 -15 -48t-16.5 -52t-18.5 -62.5
t-20 -79.5q-12 -53 -21 -106.5t-17 -107.5t-18 -109t-24 -111q-5 -20 -17.5 -35.5t-28.5 -26.5t-34 -17t-34 -6t-30.5 2.5t-22.5 11.5q-12 13 -19 29t-7 34q0 5 0.5 9.5t1.5 9.5zM402 1658q3 11 4.5 17.5t4 11.5t6.5 9.5t12 12.5l9 8q64 50 122 98t115 97q88 78 185 155
q16 9 26 11t20 2h18q34 0 54.5 -12t31.5 -32t15 -45.5t4 -52.5q0 -14 -0.5 -28t-1.5 -28v-10q-1 -10 -1.5 -18t-0.5 -15v-10t1 -9l1 2q1 -4 3 -15.5t4.5 -25t4.5 -26t2 -17.5q0 -2 0.5 -8t1.5 -12q1 -7 2 -15q-3 -14 -12.5 -26.5t-22 -21.5t-27.5 -14.5t-30 -5.5
q-16 0 -24.5 5t-19.5 13l-3 2l-9 9q-11 20 -17.5 45.5t-10 53t-5 55.5t-1.5 54l-13 -6l-20 -13q-14 -10 -42.5 -31t-60 -44t-60 -44t-42.5 -32l-61 -54q-7 -6 -18.5 -12.5t-24.5 -11.5t-24.5 -8t-18.5 -3q-11 0 -24 1.5t-25 5t-20 10.5t-8 19q0 6 1 9z" />
    <glyph glyph-name="Idieresis" unicode="&#xcf;" horiz-adv-x="599" 
d="M343 574q9 39 21.5 86.5t27 98.5t29.5 103t29.5 100t26.5 89.5t21 70.5q19 65 36 130.5t33 137.5q20 39 54 55.5t74 16.5q32 -17 50.5 -46.5t18.5 -66.5q0 -26 -8.5 -59.5t-21.5 -72t-29 -81t-31 -87.5l-56 -164t-55 -173q-7 -24 -15 -48t-16.5 -52t-18.5 -62.5
t-20 -79.5q-12 -53 -21 -106.5t-17 -107.5t-18 -109t-24 -111q-5 -20 -17.5 -35.5t-28.5 -26.5t-34 -17t-34 -6t-30.5 2.5t-22.5 11.5q-12 13 -19 29t-7 34q0 5 0.5 9.5t1.5 9.5zM440 1755q5 22 17.5 51t41.5 51q20 11 44.5 19.5t32.5 8.5q17 0 32 -14t26 -30q21 -3 28 -19
t7 -36q0 -14 -2 -27t-4 -21q-6 -21 -23 -39t-38.5 -30.5t-44 -19.5t-37.5 -7h-24q-13 0 -26.5 14t-22.5 27t-11 21.5t-2 14.5q0 10 2 19t4 17zM853 1755q5 22 17.5 51t41.5 51q20 11 44.5 19.5t32.5 8.5q17 0 32 -14t26 -30q21 -3 28 -19t7 -36q0 -14 -2 -27t-4 -21
q-6 -21 -23 -39t-38.5 -30.5t-44 -19.5t-37.5 -7h-24q-13 0 -26.5 14t-22.5 27t-11 21.5t-2 14.5q0 10 2 19t4 17z" />
    <glyph glyph-name="Eth" unicode="&#xd0;" horiz-adv-x="1423" 
d="M148 150q22 16 44 25.5t45 15t46.5 8.5t48.5 5l10 1l88 356h-26q-22 0 -46 3t-44.5 11t-34 23.5t-13.5 40.5q0 10 3 25q3 10 11 25t18 28.5t21.5 23.5t21.5 10h136l115 466h-3q-8 0 -26.5 0.5t-40 3.5t-41.5 8.5t-30 16.5q-5 7 -12.5 18.5t-14.5 25t-12 27.5t-5 28
q0 23 19.5 38.5t48 25t61.5 13.5t60 4q126 0 233.5 -8t201 -32.5t175.5 -71t157 -123.5q28 -29 54 -64.5t45.5 -78t31.5 -91t12 -102.5q0 -29 -3 -61t-8 -55q-29 -116 -81.5 -205.5t-122 -159t-152.5 -120.5t-172 -89t-181 -66t-179 -50h1q-39 -12 -84 -21t-91 -15
t-91.5 -9.5t-85.5 -3.5q-44 0 -74 5.5t-48.5 15t-26.5 21.5t-8 26q0 20 11.5 41.5t37.5 40.5zM538 226l23 5q22 5 59.5 15t86.5 25t103 36t114.5 50.5t119.5 67t113 81.5t95 94.5t65.5 106t24.5 115.5q0 61 -24 115.5t-64.5 101t-94 83t-111.5 62.5t-117.5 39.5t-112.5 13.5
q-45 -117 -82 -235.5t-69 -240.5q42 6 83 11.5t86 5.5q60 0 88 -9.5t28 -43.5q0 -44 -20 -70t-54 -39t-79.5 -16.5t-97.5 -3.5q-20 -5 -39.5 -8.5t-38.5 -6.5q-10 -36 -18.5 -72t-16.5 -72z" />
    <glyph glyph-name="Ntilde" unicode="&#xd1;" horiz-adv-x="1617" 
d="M524 1210q6 26 15 55.5t24 54t39 41t61 16.5q35 0 62.5 -19.5t49.5 -39.5q26 -17 50 -69t49.5 -128t55 -172t65 -201t79.5 -214.5t100 -213.5q9 -16 21 -37.5t24.5 -40.5t23 -32t15.5 -13q3 0 7 15t9 36t10.5 43t10.5 36q19 46 41.5 105.5t50 144t60.5 200.5t73 275
q10 39 21.5 88.5t22 101t18.5 100.5t11 85q0 6 1 21t3.5 34t6.5 39.5t10.5 37.5t16.5 28t24 11t34.5 -4t37.5 -12q19 -26 34.5 -62.5t15.5 -98.5q0 -39 -8 -93.5t-20.5 -117t-28 -128.5t-31.5 -126.5t-30.5 -111t-24.5 -83.5q-18 -58 -37.5 -119.5t-43 -129t-51 -143
t-61.5 -161.5q-15 -39 -34.5 -78t-44.5 -70.5t-56.5 -51t-70.5 -19.5q-23 0 -47.5 6.5t-41.5 26.5q-82 95 -146 215.5t-114.5 252t-89.5 266t-71 257.5l-6 23q-4 14 -7.5 28.5t-7 26.5t-8 19.5t-10.5 7.5t-15 -22t-18 -49.5t-16.5 -53.5t-9.5 -33q-7 -26 -21 -74.5
t-31.5 -109.5t-38 -129t-39.5 -131.5t-36 -117.5t-28 -87q-9 -26 -22 -67t-26 -82.5t-24 -75.5t-14 -45q-12 -38 -35.5 -57.5t-47.5 -19.5q-15 0 -30 10.5t-26.5 25.5t-19 32.5t-7.5 31.5q0 8 5 25.5t16 59.5l26 103zM852 1464zM878 1725q1 3 3 8.5t5 10.5q38 56 70 100
t66 74.5t72.5 46.5t89.5 16q42 0 77 -21t58 -63q16 -29 27 -49t22 -20q6 0 13.5 5.5t15 13t13.5 14.5t10 10q9 7 18.5 18t18.5 23t17.5 23.5t15.5 18.5q3 3 9.5 11.5t14 18t15.5 16.5t14 7q20 0 33 -17t13 -42q0 -19 -13.5 -48t-35.5 -61t-50 -63.5t-56.5 -56.5t-55.5 -41
t-47 -16q-24 0 -41.5 12.5t-31 31t-25 40.5t-23.5 40.5t-26 31t-32 12.5q-30 0 -55.5 -19.5t-58.5 -58.5q-15 -18 -28.5 -38.5t-28 -38t-32 -29t-39.5 -11.5q-18 0 -26.5 20t-8.5 43q0 15 3 27z" />
    <glyph glyph-name="Ograve" unicode="&#xd2;" horiz-adv-x="1458" 
d="M229 509q18 75 52 153.5t80 157.5t102.5 155.5t120 148t131 135t135.5 116.5q32 22 59 29t57 7q32 0 57 -9.5t50 -34.5q8 -9 17 -16t17 -7q2 0 5 4.5t6.5 10.5t8.5 12.5t12 9.5q17 8 40.5 10.5t47.5 2.5q45 0 87 -16.5t74 -46.5q76 -71 115.5 -170t39.5 -213
q0 -102 -30 -220q-26 -104 -74.5 -202t-114 -184t-146 -157t-171.5 -122t-190 -79.5t-201 -28.5q-95 0 -170.5 29t-128 82t-80 126t-27.5 162q0 38 4.5 76.5t14.5 78.5zM398 442q-11 -50 -11 -90q0 -56 19.5 -98.5t55 -71t85 -43t108.5 -14.5q70 0 142.5 22t141.5 64
t133 101t118.5 134t97 163t68.5 187q10 36 14.5 75t4.5 75q0 58 -13 111t-43 94t-79 65.5t-120 24.5q-10 0 -15.5 -8.5t-11.5 -21.5q-5 -11 -11.5 -23t-17 -21.5t-26 -15.5t-38.5 -6q-17 0 -30 7.5t-26 20.5q-6 6 -10 9.5t-9 3.5q-9 0 -23.5 -8t-30 -19t-30 -23t-22.5 -21
q-68 -70 -135.5 -152.5t-124.5 -170.5t-99.5 -177.5t-61.5 -172.5zM1126 1464zM849 1890q8 30 30.5 49t47.5 19q24 0 34 -5t19 -13q29 -25 78 -66t106 -88l40 -33q14 -11 27 -30t13 -45q0 -13 -4 -26.5t-12.5 -24t-21.5 -17.5t-31 -7q-19 0 -33 5t-28 14l-220 147
q-24 17 -37.5 35.5t-13.5 46.5q0 18 6 39z" />
    <glyph glyph-name="Oacute" unicode="&#xd3;" horiz-adv-x="1458" 
d="M229 509q18 75 52 153.5t80 157.5t102.5 155.5t120 148t131 135t135.5 116.5q32 22 59 29t57 7q32 0 57 -9.5t50 -34.5q8 -9 17 -16t17 -7q2 0 5 4.5t6.5 10.5t8.5 12.5t12 9.5q17 8 40.5 10.5t47.5 2.5q45 0 87 -16.5t74 -46.5q76 -71 115.5 -170t39.5 -213
q0 -102 -30 -220q-26 -104 -74.5 -202t-114 -184t-146 -157t-171.5 -122t-190 -79.5t-201 -28.5q-95 0 -170.5 29t-128 82t-80 126t-27.5 162q0 38 4.5 76.5t14.5 78.5zM398 442q-11 -50 -11 -90q0 -56 19.5 -98.5t55 -71t85 -43t108.5 -14.5q70 0 142.5 22t141.5 64
t133 101t118.5 134t97 163t68.5 187q10 36 14.5 75t4.5 75q0 58 -13 111t-43 94t-79 65.5t-120 24.5q-10 0 -15.5 -8.5t-11.5 -21.5q-5 -11 -11.5 -23t-17 -21.5t-26 -15.5t-38.5 -6q-17 0 -30 7.5t-26 20.5q-6 6 -10 9.5t-9 3.5q-9 0 -23.5 -8t-30 -19t-30 -23t-22.5 -21
q-68 -70 -135.5 -152.5t-124.5 -170.5t-99.5 -177.5t-61.5 -172.5zM1126 1464zM1531 1886q-11 -44 -37.5 -71t-65.5 -47l-314 -156q-18 -10 -48 -10q-23 0 -33 10.5t-10 27.5q0 21 8.5 38t21.5 31t28 24.5t27 18.5l76 45q48 28 94 56.5t86 51t72 37t50 14.5q20 0 33.5 -14
t13.5 -37v-9.5t-2 -9.5z" />
    <glyph glyph-name="Ocircumflex" unicode="&#xd4;" horiz-adv-x="1458" 
d="M229 509q18 75 52 153.5t80 157.5t102.5 155.5t120 148t131 135t135.5 116.5q32 22 59 29t57 7q32 0 57 -9.5t50 -34.5q8 -9 17 -16t17 -7q2 0 5 4.5t6.5 10.5t8.5 12.5t12 9.5q17 8 40.5 10.5t47.5 2.5q45 0 87 -16.5t74 -46.5q76 -71 115.5 -170t39.5 -213
q0 -102 -30 -220q-26 -104 -74.5 -202t-114 -184t-146 -157t-171.5 -122t-190 -79.5t-201 -28.5q-95 0 -170.5 29t-128 82t-80 126t-27.5 162q0 38 4.5 76.5t14.5 78.5zM398 442q-11 -50 -11 -90q0 -56 19.5 -98.5t55 -71t85 -43t108.5 -14.5q70 0 142.5 22t141.5 64
t133 101t118.5 134t97 163t68.5 187q10 36 14.5 75t4.5 75q0 58 -13 111t-43 94t-79 65.5t-120 24.5q-10 0 -15.5 -8.5t-11.5 -21.5q-5 -11 -11.5 -23t-17 -21.5t-26 -15.5t-38.5 -6q-17 0 -30 7.5t-26 20.5q-6 6 -10 9.5t-9 3.5q-9 0 -23.5 -8t-30 -19t-30 -23t-22.5 -21
q-68 -70 -135.5 -152.5t-124.5 -170.5t-99.5 -177.5t-61.5 -172.5zM1126 1464zM852 1658q3 11 4.5 17.5t4 11.5t6.5 9.5t12 12.5l9 8q64 50 122 98t115 97q88 78 185 155q16 9 26 11t20 2h18q34 0 54.5 -12t31.5 -32t15 -45.5t4 -52.5q0 -14 -0.5 -28t-1.5 -28v-10
q-1 -10 -1.5 -18t-0.5 -15v-10t1 -9l1 2q1 -4 3 -15.5t4.5 -25t4.5 -26t2 -17.5q0 -2 0.5 -8t1.5 -12q1 -7 2 -15q-3 -14 -12.5 -26.5t-22 -21.5t-27.5 -14.5t-30 -5.5q-16 0 -24.5 5t-19.5 13l-3 2l-9 9q-11 20 -17.5 45.5t-10 53t-5 55.5t-1.5 54l-13 -6l-20 -13
q-14 -10 -42.5 -31t-60 -44t-60 -44t-42.5 -32l-61 -54q-7 -6 -18.5 -12.5t-24.5 -11.5t-24.5 -8t-18.5 -3q-11 0 -24 1.5t-25 5t-20 10.5t-8 19q0 6 1 9z" />
    <glyph glyph-name="Otilde" unicode="&#xd5;" horiz-adv-x="1458" 
d="M229 509q18 75 52 153.5t80 157.5t102.5 155.5t120 148t131 135t135.5 116.5q32 22 59 29t57 7q32 0 57 -9.5t50 -34.5q8 -9 17 -16t17 -7q2 0 5 4.5t6.5 10.5t8.5 12.5t12 9.5q17 8 40.5 10.5t47.5 2.5q45 0 87 -16.5t74 -46.5q76 -71 115.5 -170t39.5 -213
q0 -102 -30 -220q-26 -104 -74.5 -202t-114 -184t-146 -157t-171.5 -122t-190 -79.5t-201 -28.5q-95 0 -170.5 29t-128 82t-80 126t-27.5 162q0 38 4.5 76.5t14.5 78.5zM398 442q-11 -50 -11 -90q0 -56 19.5 -98.5t55 -71t85 -43t108.5 -14.5q70 0 142.5 22t141.5 64
t133 101t118.5 134t97 163t68.5 187q10 36 14.5 75t4.5 75q0 58 -13 111t-43 94t-79 65.5t-120 24.5q-10 0 -15.5 -8.5t-11.5 -21.5q-5 -11 -11.5 -23t-17 -21.5t-26 -15.5t-38.5 -6q-17 0 -30 7.5t-26 20.5q-6 6 -10 9.5t-9 3.5q-9 0 -23.5 -8t-30 -19t-30 -23t-22.5 -21
q-68 -70 -135.5 -152.5t-124.5 -170.5t-99.5 -177.5t-61.5 -172.5zM1126 1464zM838 1725q1 3 3 8.5t5 10.5q38 56 70 100t66 74.5t72.5 46.5t89.5 16q42 0 77 -21t58 -63q16 -29 27 -49t22 -20q6 0 13.5 5.5t15 13t13.5 14.5t10 10q9 7 18.5 18t18.5 23t17.5 23.5t15.5 18.5
q3 3 9.5 11.5t14 18t15.5 16.5t14 7q20 0 33 -17t13 -42q0 -19 -13.5 -48t-35.5 -61t-50 -63.5t-56.5 -56.5t-55.5 -41t-47 -16q-24 0 -41.5 12.5t-31 31t-25 40.5t-23.5 40.5t-26 31t-32 12.5q-30 0 -55.5 -19.5t-58.5 -58.5q-15 -18 -28.5 -38.5t-28 -38t-32 -29
t-39.5 -11.5q-18 0 -26.5 20t-8.5 43q0 15 3 27z" />
    <glyph glyph-name="Odieresis" unicode="&#xd6;" horiz-adv-x="1458" 
d="M229 509q18 75 52 153.5t80 157.5t102.5 155.5t120 148t131 135t135.5 116.5q32 22 59 29t57 7q32 0 57 -9.5t50 -34.5q8 -9 17 -16t17 -7q2 0 5 4.5t6.5 10.5t8.5 12.5t12 9.5q17 8 40.5 10.5t47.5 2.5q45 0 87 -16.5t74 -46.5q76 -71 115.5 -170t39.5 -213
q0 -102 -30 -220q-26 -104 -74.5 -202t-114 -184t-146 -157t-171.5 -122t-190 -79.5t-201 -28.5q-95 0 -170.5 29t-128 82t-80 126t-27.5 162q0 38 4.5 76.5t14.5 78.5zM398 442q-11 -50 -11 -90q0 -56 19.5 -98.5t55 -71t85 -43t108.5 -14.5q70 0 142.5 22t141.5 64
t133 101t118.5 134t97 163t68.5 187q10 36 14.5 75t4.5 75q0 58 -13 111t-43 94t-79 65.5t-120 24.5q-10 0 -15.5 -8.5t-11.5 -21.5q-5 -11 -11.5 -23t-17 -21.5t-26 -15.5t-38.5 -6q-17 0 -30 7.5t-26 20.5q-6 6 -10 9.5t-9 3.5q-9 0 -23.5 -8t-30 -19t-30 -23t-22.5 -21
q-68 -70 -135.5 -152.5t-124.5 -170.5t-99.5 -177.5t-61.5 -172.5zM1126 1464zM845 1755q5 22 17.5 51t41.5 51q20 11 44.5 19.5t32.5 8.5q17 0 32 -14t26 -30q21 -3 28 -19t7 -36q0 -14 -2 -27t-4 -21q-6 -21 -23 -39t-38.5 -30.5t-44 -19.5t-37.5 -7h-24q-13 0 -26.5 14
t-22.5 27t-11 21.5t-2 14.5q0 10 2 19t4 17zM1258 1755q5 22 17.5 51t41.5 51q20 11 44.5 19.5t32.5 8.5q17 0 32 -14t26 -30q21 -3 28 -19t7 -36q0 -14 -2 -27t-4 -21q-6 -21 -23 -39t-38.5 -30.5t-44 -19.5t-37.5 -7h-24q-13 0 -26.5 14t-22.5 27t-11 21.5t-2 14.5
q0 10 2 19t4 17z" />
    <glyph glyph-name="multiply" unicode="&#xd7;" horiz-adv-x="1147" 
d="M217 290q-23 -18 -61 -18q-17 0 -30.5 7t-23 18.5t-14.5 26t-5 29.5q0 21 8.5 35.5t21 25t27 17.5t26.5 12q40 26 90 64t103 81.5t105.5 88.5t99.5 86l45 40q-15 51 -30 87.5t-30 65.5t-30.5 54.5t-33.5 54.5q-16 26 -24.5 40t-8.5 28q0 10 5 24.5t15.5 28t27 23
t38.5 9.5q32 0 56.5 -13.5t43.5 -34.5t33 -45.5t25 -46.5q6 -12 13 -32t13.5 -42.5t12.5 -44t10 -37.5q44 42 85.5 88t92.5 107q16 19 33.5 41t36.5 40.5t39 30.5t43 12q39 0 55.5 -20t16.5 -52q0 -34 -12.5 -62.5t-32.5 -44.5q-29 -23 -63.5 -55.5t-70 -68.5t-70.5 -71
t-64 -63q-12 -11 -20.5 -22t-8.5 -28q0 -10 5.5 -25t14 -32t17 -34.5t14.5 -31.5q12 -27 33.5 -64t43 -77.5t37.5 -82.5t16 -80q0 -24 -7 -44.5t-18 -36t-24.5 -24.5t-25.5 -9q-26 0 -41.5 6t-26 18t-18 29.5t-16.5 40.5q-14 37 -35 85t-43.5 95t-42.5 87.5t-31 61.5
q-28 -22 -57.5 -45.5t-76.5 -60.5t-119.5 -94t-186.5 -146z" />
    <glyph glyph-name="Oslash" unicode="&#xd8;" horiz-adv-x="1458" 
d="M229 509q18 75 52 153.5t80 157.5t102.5 155.5t120 148t131 135t135.5 116.5q32 22 59 29t57 7q32 0 57 -9.5t50 -34.5q8 -9 17 -16t17 -7q2 0 5 4.5t6.5 10.5t8.5 12.5t12 9.5q17 8 40.5 10.5t47.5 2.5q38 0 75 -12.5t68 -35.5q4 4 9.5 10.5t19.5 23t39 46.5t69 82
q5 6 16.5 10t23.5 4q16 0 24 -7l-1 1q15 -10 22 -27.5t7 -37.5q0 -35 -14.5 -72t-34.5 -61l-77 -95q35 -60 52.5 -130t17.5 -145q0 -102 -30 -220q-26 -104 -74.5 -202t-114 -184t-146 -157t-171.5 -122t-190 -79.5t-201 -28.5q-47 0 -88 7t-78 21l-64 -80
q-9 -12 -21.5 -25.5t-27 -24.5t-30 -18.5t-31.5 -7.5q-15 0 -26 6.5t-18.5 17t-11 23.5t-3.5 26q0 26 11 56t30 53l53 64q-49 53 -75 123.5t-26 157.5q0 38 4.5 76.5t14.5 78.5zM398 442q-11 -50 -11 -90q0 -83 43 -138q72 86 123 147t88 105t62.5 75t47 56.5t41.5 50
t45.5 55t59.5 71.5t83 100.5t116.5 141t159.5 192.5q-27 16 -60.5 24.5t-75.5 8.5q-10 0 -15.5 -8.5t-11.5 -21.5q-5 -11 -11.5 -23t-17 -21.5t-26 -15.5t-38.5 -6q-17 0 -30 7.5t-26 20.5q-6 6 -10 9.5t-9 3.5q-9 0 -23.5 -8t-30 -19t-30 -23t-22.5 -21
q-68 -70 -135.5 -152.5t-124.5 -170.5t-99.5 -177.5t-61.5 -172.5zM1355 1079q-196 -240 -390.5 -473.5t-391.5 -472.5q20 -4 40 -6t42 -2q70 0 142.5 22t141.5 64t133 101t118.5 134t97 163t68.5 187q10 36 14.5 75t4.5 75q0 35 -4.5 68.5t-15.5 64.5zM1114 1464z" />
    <glyph glyph-name="Ugrave" unicode="&#xd9;" horiz-adv-x="1444" 
d="M320 481q22 101 47.5 180.5t50.5 148t47.5 131t39.5 129.5l12 48q4 18 7 45t6.5 56.5t9.5 58.5t17.5 52t29.5 37.5t46 14.5q31 0 52.5 -11t34.5 -29t19 -41.5t6 -48.5q0 -21 -2.5 -42t-7.5 -39q-11 -45 -36 -105t-55 -132.5t-61 -157t-55 -178.5q-14 -53 -24.5 -116
t-10.5 -114q0 -41 7 -77.5t25 -64t48.5 -43.5t77.5 -16q36 0 74.5 6t91.5 29q78 35 147.5 90.5t129 126.5t110 153t91.5 170t72.5 178t53.5 177q9 37 14 69.5t7.5 66.5t4 73t5.5 89q3 40 22.5 69.5t59.5 29.5q25 0 43.5 -20t30.5 -49.5t18 -62.5t6 -59q0 -50 -10 -108
t-24 -111q-29 -115 -69.5 -231t-96.5 -227t-130.5 -215.5t-171.5 -195.5q-48 -45 -104 -88.5t-117 -78.5t-125 -56.5t-127 -21.5q-91 0 -158 25.5t-111.5 71.5t-66.5 109.5t-22 139.5q0 36 6 79.5t15 85.5zM826 1890q8 30 30.5 49t47.5 19q24 0 34 -5t19 -13q29 -25 78 -66
t106 -88l40 -33q14 -11 27 -30t13 -45q0 -13 -4 -26.5t-12.5 -24t-21.5 -17.5t-31 -7q-19 0 -33 5t-28 14l-220 147q-24 17 -37.5 35.5t-13.5 46.5q0 18 6 39z" />
    <glyph glyph-name="Uacute" unicode="&#xda;" horiz-adv-x="1444" 
d="M320 481q22 101 47.5 180.5t50.5 148t47.5 131t39.5 129.5l12 48q4 18 7 45t6.5 56.5t9.5 58.5t17.5 52t29.5 37.5t46 14.5q31 0 52.5 -11t34.5 -29t19 -41.5t6 -48.5q0 -21 -2.5 -42t-7.5 -39q-11 -45 -36 -105t-55 -132.5t-61 -157t-55 -178.5q-14 -53 -24.5 -116
t-10.5 -114q0 -41 7 -77.5t25 -64t48.5 -43.5t77.5 -16q36 0 74.5 6t91.5 29q78 35 147.5 90.5t129 126.5t110 153t91.5 170t72.5 178t53.5 177q9 37 14 69.5t7.5 66.5t4 73t5.5 89q3 40 22.5 69.5t59.5 29.5q25 0 43.5 -20t30.5 -49.5t18 -62.5t6 -59q0 -50 -10 -108
t-24 -111q-29 -115 -69.5 -231t-96.5 -227t-130.5 -215.5t-171.5 -195.5q-48 -45 -104 -88.5t-117 -78.5t-125 -56.5t-127 -21.5q-91 0 -158 25.5t-111.5 71.5t-66.5 109.5t-22 139.5q0 36 6 79.5t15 85.5zM1511 1915q-11 -44 -37.5 -71t-65.5 -47l-314 -156
q-18 -10 -48 -10q-23 0 -33 10.5t-10 27.5q0 21 8.5 38t21.5 31t28 24.5t27 18.5l76 45q48 28 94 56.5t86 51t72 37t50 14.5q20 0 33.5 -14t13.5 -37v-9.5t-2 -9.5z" />
    <glyph glyph-name="Ucircumflex" unicode="&#xdb;" horiz-adv-x="1444" 
d="M320 481q22 101 47.5 180.5t50.5 148t47.5 131t39.5 129.5l12 48q4 18 7 45t6.5 56.5t9.5 58.5t17.5 52t29.5 37.5t46 14.5q31 0 52.5 -11t34.5 -29t19 -41.5t6 -48.5q0 -21 -2.5 -42t-7.5 -39q-11 -45 -36 -105t-55 -132.5t-61 -157t-55 -178.5q-14 -53 -24.5 -116
t-10.5 -114q0 -41 7 -77.5t25 -64t48.5 -43.5t77.5 -16q36 0 74.5 6t91.5 29q78 35 147.5 90.5t129 126.5t110 153t91.5 170t72.5 178t53.5 177q9 37 14 69.5t7.5 66.5t4 73t5.5 89q3 40 22.5 69.5t59.5 29.5q25 0 43.5 -20t30.5 -49.5t18 -62.5t6 -59q0 -50 -10 -108
t-24 -111q-29 -115 -69.5 -231t-96.5 -227t-130.5 -215.5t-171.5 -195.5q-48 -45 -104 -88.5t-117 -78.5t-125 -56.5t-127 -21.5q-91 0 -158 25.5t-111.5 71.5t-66.5 109.5t-22 139.5q0 36 6 79.5t15 85.5zM853 1658q3 11 4.5 17.5t4 11.5t6.5 9.5t12 12.5l9 8q64 50 122 98
t115 97q88 78 185 155q16 9 26 11t20 2h18q34 0 54.5 -12t31.5 -32t15 -45.5t4 -52.5q0 -14 -0.5 -28t-1.5 -28v-10q-1 -10 -1.5 -18t-0.5 -15v-10t1 -9l1 2q1 -4 3 -15.5t4.5 -25t4.5 -26t2 -17.5q0 -2 0.5 -8t1.5 -12q1 -7 2 -15q-3 -14 -12.5 -26.5t-22 -21.5
t-27.5 -14.5t-30 -5.5q-16 0 -24.5 5t-19.5 13l-3 2l-9 9q-11 20 -17.5 45.5t-10 53t-5 55.5t-1.5 54l-13 -6l-20 -13q-14 -10 -42.5 -31t-60 -44t-60 -44t-42.5 -32l-61 -54q-7 -6 -18.5 -12.5t-24.5 -11.5t-24.5 -8t-18.5 -3q-11 0 -24 1.5t-25 5t-20 10.5t-8 19q0 6 1 9z
" />
    <glyph glyph-name="Udieresis" unicode="&#xdc;" horiz-adv-x="1444" 
d="M320 481q22 101 47.5 180.5t50.5 148t47.5 131t39.5 129.5l12 48q4 18 7 45t6.5 56.5t9.5 58.5t17.5 52t29.5 37.5t46 14.5q31 0 52.5 -11t34.5 -29t19 -41.5t6 -48.5q0 -21 -2.5 -42t-7.5 -39q-11 -45 -36 -105t-55 -132.5t-61 -157t-55 -178.5q-14 -53 -24.5 -116
t-10.5 -114q0 -41 7 -77.5t25 -64t48.5 -43.5t77.5 -16q36 0 74.5 6t91.5 29q78 35 147.5 90.5t129 126.5t110 153t91.5 170t72.5 178t53.5 177q9 37 14 69.5t7.5 66.5t4 73t5.5 89q3 40 22.5 69.5t59.5 29.5q25 0 43.5 -20t30.5 -49.5t18 -62.5t6 -59q0 -50 -10 -108
t-24 -111q-29 -115 -69.5 -231t-96.5 -227t-130.5 -215.5t-171.5 -195.5q-48 -45 -104 -88.5t-117 -78.5t-125 -56.5t-127 -21.5q-91 0 -158 25.5t-111.5 71.5t-66.5 109.5t-22 139.5q0 36 6 79.5t15 85.5zM836 1755q5 22 17.5 51t41.5 51q20 11 44.5 19.5t32.5 8.5
q17 0 32 -14t26 -30q21 -3 28 -19t7 -36q0 -14 -2 -27t-4 -21q-6 -21 -23 -39t-38.5 -30.5t-44 -19.5t-37.5 -7h-24q-13 0 -26.5 14t-22.5 27t-11 21.5t-2 14.5q0 10 2 19t4 17zM1249 1755q5 22 17.5 51t41.5 51q20 11 44.5 19.5t32.5 8.5q17 0 32 -14t26 -30q21 -3 28 -19
t7 -36q0 -14 -2 -27t-4 -21q-6 -21 -23 -39t-38.5 -30.5t-44 -19.5t-37.5 -7h-24q-13 0 -26.5 14t-22.5 27t-11 21.5t-2 14.5q0 10 2 19t4 17z" />
    <glyph glyph-name="Yacute" unicode="&#xdd;" horiz-adv-x="1395" 
d="M290 -153q0 24 12.5 48.5t34 51t50 55.5t59.5 61q59 60 124 125t124 134q25 30 40 49t22.5 31.5t10 21.5t3.5 18q-42 54 -74.5 117t-58 131.5t-46 138.5t-38.5 137q-17 61 -32.5 123t-40.5 107q-19 34 -32.5 70.5t-13.5 80.5q0 19 4.5 44.5t16 47.5t30 37.5t45.5 15.5
q29 0 54 -20t45 -50.5t34 -66t22 -65.5q10 -43 24.5 -107t29 -131t28.5 -127t25 -96q13 -45 28 -84.5t30 -68t29.5 -45t27.5 -16.5q10 0 31 27q82 109 170.5 233.5t172.5 246.5q31 45 55 83t43.5 72.5t35.5 67t30 65.5l26 105q4 16 13.5 32.5t22 30t29 22t36.5 8.5
q26 0 45 -10.5t31 -27.5t18 -39.5t6 -46.5q0 -27 -10.5 -62t-27.5 -72t-38 -73t-41 -65q-143 -204 -290.5 -413.5t-299.5 -401.5q-135 -171 -264.5 -317t-236.5 -255q-23 -23 -52 -43t-61 -20q-17 0 -28.5 7.5t-18.5 19.5t-10.5 27.5t-3.5 30.5zM1463 1886
q-11 -44 -37.5 -71t-65.5 -47l-314 -156q-18 -10 -48 -10q-23 0 -33 10.5t-10 27.5q0 21 8.5 38t21.5 31t28 24.5t27 18.5l76 45q48 28 94 56.5t86 51t72 37t50 14.5q20 0 33.5 -14t13.5 -37v-9.5t-2 -9.5z" />
    <glyph glyph-name="Thorn" unicode="&#xde;" horiz-adv-x="1075" 
d="M170 63q21 86 50 184t59 198.5t58.5 197t49.5 179.5l38 152q-5 9 -10 19.5t-5 24.5q0 8 4 19.5t9 22.5t10 19t7 8q2 7 11.5 10.5t14.5 8.5q7 7 17 35t19.5 61.5t18 66t13.5 50.5q5 20 7 40t6 42q5 32 9 60t10.5 48.5t18 32t32.5 11.5q25 0 49.5 -6t43 -17t30 -28
t11.5 -38v-9.5t-2 -9.5l-67 -269v-1q0 -4 10 -4q35 0 69 2.5t65 2.5q78 0 148.5 -28.5t124 -75.5t85 -107t31.5 -123q0 -27 -6 -54q-6 -24 -23.5 -48.5t-41.5 -48t-53 -45.5t-58 -40.5t-55 -33.5t-45 -24q-38 -19 -77.5 -37.5t-77 -33.5t-71.5 -24.5t-62 -9.5
q-47 0 -76 16.5t-29 59.5q0 18 6 42q5 17 24.5 28t50.5 20.5t72 21t89 29.5t101.5 45.5t109.5 70.5q22 17 36.5 41.5t14.5 58.5q0 37 -23 63t-57.5 42.5t-75.5 24t-77 7.5q-37 0 -72 -6t-63 -15.5t-46.5 -21t-22.5 -22.5l-52 -157q-15 -44 -30.5 -91.5t-29.5 -90.5
t-24.5 -76t-14.5 -49l-19 -76q-10 -40 -22 -90t-23 -102q-11 -48 -19.5 -94.5t-21.5 -84t-33.5 -60.5t-56.5 -23q-40 0 -67.5 22t-27.5 60q0 14 4 27z" />
    <glyph glyph-name="germandbls" unicode="&#xdf;" horiz-adv-x="1124" 
d="M40 -435q0 15 3 32t5 25q17 91 41.5 188t46.5 193q5 24 12.5 51.5t15.5 55.5t15 55.5t12 50.5q4 19 15.5 61t27.5 95t34 112t35 113t31 97t21 65q25 75 58 146t70 142q44 85 106.5 165.5t139 143t164.5 100t184 37.5q40 0 81 -6t74 -22t53.5 -44t20.5 -71t-20 -86
t-57 -98q-21 -42 -59 -91.5t-83.5 -101t-94 -103.5t-91.5 -98q-4 -4 -4 -7t4 -3q43 -5 87 -19.5t80 -39t58.5 -60.5t22.5 -84q0 -15 -1 -29t-4 -29.5t-8.5 -35.5t-14.5 -48q-25 -82 -77.5 -151t-120 -129t-145 -111t-152.5 -97q-17 -11 -31 -16.5t-26.5 -8t-24.5 -3
t-26 -0.5q-16 0 -32 2t-29 8t-21.5 16.5t-8.5 27.5q0 5 2 14.5t7.5 20.5t14 22t21.5 18q10 0 21 3t21 7.5t17.5 8.5t10.5 6q65 39 132 86.5t124.5 104t100 122t57.5 139.5q1 1 2 6.5t2 12t1.5 13.5t0.5 12q0 13 -8 23.5t-21 18t-30 12t-35 4.5q-38 0 -66.5 -9t-57.5 -28
q-45 -29 -76 -42t-65 -13q-18 0 -35.5 4.5t-31 13.5t-21.5 23t-8 32q0 16 6 28.5t17 24.5q19 15 52.5 44.5t71 64t75 70t65.5 62.5q86 85 144 153.5t101 124.5q14 18 29 39.5t28 44t21 45.5t8 44q0 37 -41 38q-74 -7 -139.5 -41.5t-124 -89.5t-109 -127t-94.5 -154
t-81 -170.5t-67.5 -176.5t-54.5 -172t-42 -157q-7 -29 -17 -74t-21.5 -99.5t-24.5 -115.5t-26.5 -123t-27 -122t-26.5 -111q-22 -40 -54 -66.5t-70 -26.5q-19 0 -35.5 4t-29.5 14z" />
    <glyph glyph-name="agrave" unicode="&#xe0;" horiz-adv-x="993" 
d="M682 43q0 29 7 69.5t7 100.5q-33 -24 -73 -57t-83 -63t-85.5 -50.5t-79.5 -20.5q-30 0 -57 9t-46 24q-53 42 -76.5 84t-23.5 98q0 25 4.5 52t13.5 62q38 158 130.5 292.5t229.5 229.5q53 37 106 47.5t105 10.5q23 0 51.5 -3t51.5 -6q23 5 37.5 7t30.5 2q30 0 50 -8
t32 -21.5t17.5 -31t5.5 -36.5q0 -26 -8 -49.5t-16 -47.5l-132 -527q-4 -43 -7 -79t-12 -67l-7.5 -22.5t-14.5 -26t-25 -21.5t-39 -9q-31 0 -49.5 4t-28.5 11.5t-13 18t-3 24.5zM350 345q-4 -14 -8.5 -40t-4.5 -52q0 -27 8 -48.5t35 -21.5q42 0 78.5 18.5t68.5 44.5
q43 35 87.5 78.5t84 91.5t70 98.5t44.5 100.5q8 29 13.5 67t5.5 68q0 13 -6 25.5t-23 12.5q-49 0 -98.5 -19t-95.5 -51t-87.5 -75.5t-75.5 -93t-58.5 -102t-37.5 -102.5zM543 1350q8 30 30.5 49t47.5 19q24 0 34 -5t19 -13q29 -25 78 -66t106 -88l40 -33q14 -11 27 -30
t13 -45q0 -13 -4 -26.5t-12.5 -24t-21.5 -17.5t-31 -7q-19 0 -33 5t-28 14l-220 147q-24 17 -37.5 35.5t-13.5 46.5q0 18 6 39z" />
    <glyph glyph-name="aacute" unicode="&#xe1;" horiz-adv-x="993" 
d="M682 43q0 29 7 69.5t7 100.5q-33 -24 -73 -57t-83 -63t-85.5 -50.5t-79.5 -20.5q-30 0 -57 9t-46 24q-53 42 -76.5 84t-23.5 98q0 25 4.5 52t13.5 62q38 158 130.5 292.5t229.5 229.5q53 37 106 47.5t105 10.5q23 0 51.5 -3t51.5 -6q23 5 37.5 7t30.5 2q30 0 50 -8
t32 -21.5t17.5 -31t5.5 -36.5q0 -26 -8 -49.5t-16 -47.5l-132 -527q-4 -43 -7 -79t-12 -67l-7.5 -22.5t-14.5 -26t-25 -21.5t-39 -9q-31 0 -49.5 4t-28.5 11.5t-13 18t-3 24.5zM350 345q-4 -14 -8.5 -40t-4.5 -52q0 -27 8 -48.5t35 -21.5q42 0 78.5 18.5t68.5 44.5
q43 35 87.5 78.5t84 91.5t70 98.5t44.5 100.5q8 29 13.5 67t5.5 68q0 13 -6 25.5t-23 12.5q-49 0 -98.5 -19t-95.5 -51t-87.5 -75.5t-75.5 -93t-58.5 -102t-37.5 -102.5zM1138 1346q-11 -44 -37.5 -71t-65.5 -47l-314 -156q-18 -10 -48 -10q-23 0 -33 10.5t-10 27.5
q0 21 8.5 38t21.5 31t28 24.5t27 18.5l76 45q48 28 94 56.5t86 51t72 37t50 14.5q20 0 33.5 -14t13.5 -37v-9.5t-2 -9.5z" />
    <glyph glyph-name="acircumflex" unicode="&#xe2;" horiz-adv-x="993" 
d="M682 43q0 29 7 69.5t7 100.5q-33 -24 -73 -57t-83 -63t-85.5 -50.5t-79.5 -20.5q-30 0 -57 9t-46 24q-53 42 -76.5 84t-23.5 98q0 25 4.5 52t13.5 62q38 158 130.5 292.5t229.5 229.5q53 37 106 47.5t105 10.5q23 0 51.5 -3t51.5 -6q23 5 37.5 7t30.5 2q30 0 50 -8
t32 -21.5t17.5 -31t5.5 -36.5q0 -26 -8 -49.5t-16 -47.5l-132 -527q-4 -43 -7 -79t-12 -67l-7.5 -22.5t-14.5 -26t-25 -21.5t-39 -9q-31 0 -49.5 4t-28.5 11.5t-13 18t-3 24.5zM350 345q-4 -14 -8.5 -40t-4.5 -52q0 -27 8 -48.5t35 -21.5q42 0 78.5 18.5t68.5 44.5
q43 35 87.5 78.5t84 91.5t70 98.5t44.5 100.5q8 29 13.5 67t5.5 68q0 13 -6 25.5t-23 12.5q-49 0 -98.5 -19t-95.5 -51t-87.5 -75.5t-75.5 -93t-58.5 -102t-37.5 -102.5zM465 1118q3 11 4.5 17.5t4 11.5t6.5 9.5t12 12.5l9 8q64 50 122 98t115 97q88 78 185 155q16 9 26 11
t20 2h18q34 0 54.5 -12t31.5 -32t15 -45.5t4 -52.5q0 -14 -0.5 -28t-1.5 -28v-10q-1 -10 -1.5 -18t-0.5 -15v-10t1 -9l1 2q1 -4 3 -15.5t4.5 -25t4.5 -26t2 -17.5q0 -2 0.5 -8t1.5 -12q1 -7 2 -15q-3 -14 -12.5 -26.5t-22 -21.5t-27.5 -14.5t-30 -5.5q-16 0 -24.5 5
t-19.5 13l-3 2l-9 9q-11 20 -17.5 45.5t-10 53t-5 55.5t-1.5 54l-13 -6l-20 -13q-14 -10 -42.5 -31t-60 -44t-60 -44t-42.5 -32l-61 -54q-7 -6 -18.5 -12.5t-24.5 -11.5t-24.5 -8t-18.5 -3q-11 0 -24 1.5t-25 5t-20 10.5t-8 19q0 6 1 9z" />
    <glyph glyph-name="atilde" unicode="&#xe3;" horiz-adv-x="993" 
d="M682 43q0 29 7 69.5t7 100.5q-33 -24 -73 -57t-83 -63t-85.5 -50.5t-79.5 -20.5q-30 0 -57 9t-46 24q-53 42 -76.5 84t-23.5 98q0 25 4.5 52t13.5 62q38 158 130.5 292.5t229.5 229.5q53 37 106 47.5t105 10.5q23 0 51.5 -3t51.5 -6q23 5 37.5 7t30.5 2q30 0 50 -8
t32 -21.5t17.5 -31t5.5 -36.5q0 -26 -8 -49.5t-16 -47.5l-132 -527q-4 -43 -7 -79t-12 -67l-7.5 -22.5t-14.5 -26t-25 -21.5t-39 -9q-31 0 -49.5 4t-28.5 11.5t-13 18t-3 24.5zM350 345q-4 -14 -8.5 -40t-4.5 -52q0 -27 8 -48.5t35 -21.5q42 0 78.5 18.5t68.5 44.5
q43 35 87.5 78.5t84 91.5t70 98.5t44.5 100.5q8 29 13.5 67t5.5 68q0 13 -6 25.5t-23 12.5q-49 0 -98.5 -19t-95.5 -51t-87.5 -75.5t-75.5 -93t-58.5 -102t-37.5 -102.5zM498 1185q1 3 3 8.5t5 10.5q38 56 70 100t66 74.5t72.5 46.5t89.5 16q42 0 77 -21t58 -63
q16 -29 27 -49t22 -20q6 0 13.5 5.5t15 13t13.5 14.5t10 10q9 7 18.5 18t18.5 23t17.5 23.5t15.5 18.5q3 3 9.5 11.5t14 18t15.5 16.5t14 7q20 0 33 -17t13 -42q0 -19 -13.5 -48t-35.5 -61t-50 -63.5t-56.5 -56.5t-55.5 -41t-47 -16q-24 0 -41.5 12.5t-31 31t-25 40.5
t-23.5 40.5t-26 31t-32 12.5q-30 0 -55.5 -19.5t-58.5 -58.5q-15 -18 -28.5 -38.5t-28 -38t-32 -29t-39.5 -11.5q-18 0 -26.5 20t-8.5 43q0 15 3 27z" />
    <glyph glyph-name="adieresis" unicode="&#xe4;" horiz-adv-x="993" 
d="M682 43q0 29 7 69.5t7 100.5q-33 -24 -73 -57t-83 -63t-85.5 -50.5t-79.5 -20.5q-30 0 -57 9t-46 24q-53 42 -76.5 84t-23.5 98q0 25 4.5 52t13.5 62q38 158 130.5 292.5t229.5 229.5q53 37 106 47.5t105 10.5q23 0 51.5 -3t51.5 -6q23 5 37.5 7t30.5 2q30 0 50 -8
t32 -21.5t17.5 -31t5.5 -36.5q0 -26 -8 -49.5t-16 -47.5l-132 -527q-4 -43 -7 -79t-12 -67l-7.5 -22.5t-14.5 -26t-25 -21.5t-39 -9q-31 0 -49.5 4t-28.5 11.5t-13 18t-3 24.5zM350 345q-4 -14 -8.5 -40t-4.5 -52q0 -27 8 -48.5t35 -21.5q42 0 78.5 18.5t68.5 44.5
q43 35 87.5 78.5t84 91.5t70 98.5t44.5 100.5q8 29 13.5 67t5.5 68q0 13 -6 25.5t-23 12.5q-49 0 -98.5 -19t-95.5 -51t-87.5 -75.5t-75.5 -93t-58.5 -102t-37.5 -102.5zM477 1215q5 22 17.5 51t41.5 51q20 11 44.5 19.5t32.5 8.5q17 0 32 -14t26 -30q21 -3 28 -19t7 -36
q0 -14 -2 -27t-4 -21q-6 -21 -23 -39t-38.5 -30.5t-44 -19.5t-37.5 -7h-24q-13 0 -26.5 14t-22.5 27t-11 21.5t-2 14.5q0 10 2 19t4 17zM890 1215q5 22 17.5 51t41.5 51q20 11 44.5 19.5t32.5 8.5q17 0 32 -14t26 -30q21 -3 28 -19t7 -36q0 -14 -2 -27t-4 -21
q-6 -21 -23 -39t-38.5 -30.5t-44 -19.5t-37.5 -7h-24q-13 0 -26.5 14t-22.5 27t-11 21.5t-2 14.5q0 10 2 19t4 17z" />
    <glyph glyph-name="aring" unicode="&#xe5;" horiz-adv-x="993" 
d="M682 43q0 29 7 69.5t7 100.5q-33 -24 -73 -57t-83 -63t-85.5 -50.5t-79.5 -20.5q-30 0 -57 9t-46 24q-53 42 -76.5 84t-23.5 98q0 25 4.5 52t13.5 62q38 158 130.5 292.5t229.5 229.5q53 37 106 47.5t105 10.5q23 0 51.5 -3t51.5 -6q23 5 37.5 7t30.5 2q30 0 50 -8
t32 -21.5t17.5 -31t5.5 -36.5q0 -26 -8 -49.5t-16 -47.5l-132 -527q-4 -43 -7 -79t-12 -67l-7.5 -22.5t-14.5 -26t-25 -21.5t-39 -9q-31 0 -49.5 4t-28.5 11.5t-13 18t-3 24.5zM350 345q-4 -14 -8.5 -40t-4.5 -52q0 -27 8 -48.5t35 -21.5q42 0 78.5 18.5t68.5 44.5
q43 35 87.5 78.5t84 91.5t70 98.5t44.5 100.5q8 29 13.5 67t5.5 68q0 13 -6 25.5t-23 12.5q-49 0 -98.5 -19t-95.5 -51t-87.5 -75.5t-75.5 -93t-58.5 -102t-37.5 -102.5zM611 1237q8 32 24 66.5t42 69t64 67.5t91 62l-2 -1q22 17 51.5 22.5t58.5 5.5q31 0 53 -5.5t38.5 -17
t28.5 -30t24 -44.5q13 -32 13 -63q0 -17 -3 -33.5t-8 -35.5q-8 -33 -24.5 -65.5t-39.5 -63t-52 -57.5t-62 -48q-26 -17 -61.5 -28t-81.5 -11q-82 0 -122 40.5t-40 106.5q0 28 8 63zM741 1241q-2 -8 -3 -16.5t-1 -16.5q0 -26 13.5 -42t45.5 -16q30 0 55.5 15t44.5 37
t31.5 47.5t17.5 47.5q9 30 9 49q0 2 -0.5 3.5t-0.5 3.5v-1q-5 19 -15.5 28t-46.5 9q-17 0 -38.5 -11.5t-42.5 -32t-39.5 -47.5t-29.5 -57z" />
    <glyph glyph-name="ae" unicode="&#xe6;" horiz-adv-x="1586" 
d="M1066 -29q-54 0 -107 15t-94 47.5t-66.5 83.5t-25.5 123q0 13 1 26t3 27q-56 -66 -108.5 -120t-104.5 -93t-106.5 -60.5t-114.5 -21.5q-36 0 -69.5 11.5t-59.5 33.5t-42 54.5t-16 74.5q0 26 8 60q16 64 48 138.5t75.5 149t97.5 143t113.5 121t122.5 84t126 31.5
q28 0 57.5 -5t57.5 -14t53 -20.5t44 -24.5q15 32 34.5 48t57.5 16q15 0 36.5 -11t34.5 -25q54 37 111 59.5t120 22.5q42 0 76 -17t58.5 -45.5t38 -65t13.5 -74.5q0 -25 -6 -49q-8 -31 -31 -65t-56 -66t-73 -60.5t-81.5 -50.5t-81.5 -34.5t-73 -12.5q-45 0 -81.5 5.5
t-56.5 15.5q-21 -39 -37.5 -83t-16.5 -90q0 -26 6.5 -49t21 -40.5t36.5 -28t53 -10.5q37 0 70 6t63.5 16.5t60 25t60.5 31.5q29 16 62.5 44.5t67 56.5t63.5 48.5t51 20.5q17 0 33 -11.5t16 -31.5q0 -7 -1 -11q-12 -47 -44.5 -91.5t-78 -83t-100.5 -70.5t-111.5 -55.5
t-110.5 -36t-97 -12.5zM661 331q30 34 66 82.5t69 99.5t58.5 97t34.5 75q-34 23 -76.5 39.5t-90.5 16.5q-36 0 -75.5 -24.5t-79 -64.5t-77.5 -91t-69 -105.5t-54 -107.5t-34 -96q-4 -15 -4 -29q0 -35 23 -51t55 -16q33 0 67 16t67 41.5t63.5 56.5t56.5 61zM1326 804
q-23 0 -51 -12t-56 -31t-54.5 -43t-46.5 -48.5t-32.5 -47.5t-12.5 -39q0 -8 9 -10t20 -2q17 0 44 7t57.5 19.5t62 30t56.5 39t41 46t16 51.5q0 17 -13 28.5t-40 11.5z" />
    <glyph glyph-name="ccedilla" unicode="&#xe7;" horiz-adv-x="870" 
d="M199 391q19 77 56.5 161t90.5 162.5t120.5 145t147.5 108.5q26 14 57 21t63 7q33 0 61.5 -6t49 -20t32.5 -36t12 -54q0 -24 -7 -48.5t-21 -44t-35 -31.5t-49 -12q-22 0 -40.5 8t-35.5 18q-9 6 -17 10.5t-19 8.5q-40 -18 -75.5 -47.5t-66 -65.5t-56 -77t-46 -82t-35 -80.5
t-23.5 -72.5q-7 -24 -12.5 -54.5t-5.5 -59.5q0 -20 3.5 -38t12.5 -32t24 -22t37 -8q35 0 69.5 9t67.5 23t64.5 32.5t61.5 37.5q19 12 38 25t36 23t31.5 16.5t25.5 6.5q15 0 28 -7.5t13 -25.5q0 -13 -6 -29q-14 -39 -38 -70t-53.5 -55.5t-63 -43.5t-66.5 -35
q-62 -33 -125.5 -49.5t-106.5 -16.5q-14 0 -33 3t-33 9q-81 35 -118 94t-37 140q0 35 5.5 73.5t16.5 80.5zM225 -331q0 27 14 51t47 24q11 0 20.5 -4t21.5 -4q11 0 29 5.5t35.5 15t30 21.5t12.5 25q0 30 -68 51q-35 6 -51 23t-16 38q0 24 19 46q23 35 43.5 68.5t41.5 69.5
q14 23 35.5 32.5t37.5 9.5q28 0 43.5 -19t15.5 -39q0 -13 -6 -23q-14 -22 -27.5 -44t-24.5 -44q21 -11 40 -24.5t33.5 -30t22.5 -36.5t8 -45q0 -50 -27.5 -92.5t-68 -73.5t-87 -48.5t-85.5 -17.5q-17 0 -33 3.5t-28.5 11t-20 20t-7.5 30.5z" />
    <glyph glyph-name="egrave" unicode="&#xe8;" horiz-adv-x="1012" 
d="M182 386q0 43 23 73t61 40q11 22 34 59.5t57 81.5t77.5 88.5t96 81t113 59.5t128.5 23q58 0 101 -14t71 -39t42 -59.5t14 -74.5q0 -34 -9 -65q-14 -56 -52 -98t-89.5 -73.5t-112 -52.5t-121 -35t-116.5 -21.5t-97 -11.5q-9 -18 -15.5 -45.5t-6.5 -53.5q0 -58 46 -90
t127 -32q47 0 90 10.5t81.5 27t72.5 36t62 38.5q36 24 68.5 40.5t57.5 16.5t32 -12.5t7 -26.5q0 -8 -0.5 -15.5t-1.5 -12.5q-5 -26 -20 -52t-38 -45q-104 -82 -213.5 -117t-233.5 -35q-24 0 -56.5 3t-67.5 12t-69 26t-60.5 45t-43 69t-16.5 99q0 47 13 105q-13 2 -24.5 13.5
t-11.5 33.5zM808 663q2 5 2 9v9q0 27 -20 40.5t-48 13.5q-44 0 -86.5 -23t-80 -57.5t-66.5 -74t-45 -71.5q72 6 132 19.5t104.5 34t72 46t35.5 54.5zM692 934zM523 1350q8 30 30.5 49t47.5 19q24 0 34 -5t19 -13q29 -25 78 -66t106 -88l40 -33q14 -11 27 -30t13 -45
q0 -13 -4 -26.5t-12.5 -24t-21.5 -17.5t-31 -7q-19 0 -33 5t-28 14l-220 147q-24 17 -37.5 35.5t-13.5 46.5q0 18 6 39z" />
    <glyph glyph-name="eacute" unicode="&#xe9;" horiz-adv-x="1012" 
d="M182 386q0 43 23 73t61 40q11 22 34 59.5t57 81.5t77.5 88.5t96 81t113 59.5t128.5 23q58 0 101 -14t71 -39t42 -59.5t14 -74.5q0 -34 -9 -65q-14 -56 -52 -98t-89.5 -73.5t-112 -52.5t-121 -35t-116.5 -21.5t-97 -11.5q-9 -18 -15.5 -45.5t-6.5 -53.5q0 -58 46 -90
t127 -32q47 0 90 10.5t81.5 27t72.5 36t62 38.5q36 24 68.5 40.5t57.5 16.5t32 -12.5t7 -26.5q0 -8 -0.5 -15.5t-1.5 -12.5q-5 -26 -20 -52t-38 -45q-104 -82 -213.5 -117t-233.5 -35q-24 0 -56.5 3t-67.5 12t-69 26t-60.5 45t-43 69t-16.5 99q0 47 13 105q-13 2 -24.5 13.5
t-11.5 33.5zM808 663q2 5 2 9v9q0 27 -20 40.5t-48 13.5q-44 0 -86.5 -23t-80 -57.5t-66.5 -74t-45 -71.5q72 6 132 19.5t104.5 34t72 46t35.5 54.5zM692 934zM1140 1346q-11 -44 -37.5 -71t-65.5 -47l-314 -156q-18 -10 -48 -10q-23 0 -33 10.5t-10 27.5q0 21 8.5 38
t21.5 31t28 24.5t27 18.5l76 45q48 28 94 56.5t86 51t72 37t50 14.5q20 0 33.5 -14t13.5 -37v-9.5t-2 -9.5z" />
    <glyph glyph-name="ecircumflex" unicode="&#xea;" horiz-adv-x="1012" 
d="M182 386q0 43 23 73t61 40q11 22 34 59.5t57 81.5t77.5 88.5t96 81t113 59.5t128.5 23q58 0 101 -14t71 -39t42 -59.5t14 -74.5q0 -34 -9 -65q-14 -56 -52 -98t-89.5 -73.5t-112 -52.5t-121 -35t-116.5 -21.5t-97 -11.5q-9 -18 -15.5 -45.5t-6.5 -53.5q0 -58 46 -90
t127 -32q47 0 90 10.5t81.5 27t72.5 36t62 38.5q36 24 68.5 40.5t57.5 16.5t32 -12.5t7 -26.5q0 -8 -0.5 -15.5t-1.5 -12.5q-5 -26 -20 -52t-38 -45q-104 -82 -213.5 -117t-233.5 -35q-24 0 -56.5 3t-67.5 12t-69 26t-60.5 45t-43 69t-16.5 99q0 47 13 105q-13 2 -24.5 13.5
t-11.5 33.5zM808 663q2 5 2 9v9q0 27 -20 40.5t-48 13.5q-44 0 -86.5 -23t-80 -57.5t-66.5 -74t-45 -71.5q72 6 132 19.5t104.5 34t72 46t35.5 54.5zM692 934zM471 1118q3 11 4.5 17.5t4 11.5t6.5 9.5t12 12.5l9 8q64 50 122 98t115 97q88 78 185 155q16 9 26 11t20 2h18
q34 0 54.5 -12t31.5 -32t15 -45.5t4 -52.5q0 -14 -0.5 -28t-1.5 -28v-10q-1 -10 -1.5 -18t-0.5 -15v-10t1 -9l1 2q1 -4 3 -15.5t4.5 -25t4.5 -26t2 -17.5q0 -2 0.5 -8t1.5 -12q1 -7 2 -15q-3 -14 -12.5 -26.5t-22 -21.5t-27.5 -14.5t-30 -5.5q-16 0 -24.5 5t-19.5 13l-3 2
l-9 9q-11 20 -17.5 45.5t-10 53t-5 55.5t-1.5 54l-13 -6l-20 -13q-14 -10 -42.5 -31t-60 -44t-60 -44t-42.5 -32l-61 -54q-7 -6 -18.5 -12.5t-24.5 -11.5t-24.5 -8t-18.5 -3q-11 0 -24 1.5t-25 5t-20 10.5t-8 19q0 6 1 9z" />
    <glyph glyph-name="edieresis" unicode="&#xeb;" horiz-adv-x="1012" 
d="M182 386q0 43 23 73t61 40q11 22 34 59.5t57 81.5t77.5 88.5t96 81t113 59.5t128.5 23q58 0 101 -14t71 -39t42 -59.5t14 -74.5q0 -34 -9 -65q-14 -56 -52 -98t-89.5 -73.5t-112 -52.5t-121 -35t-116.5 -21.5t-97 -11.5q-9 -18 -15.5 -45.5t-6.5 -53.5q0 -58 46 -90
t127 -32q47 0 90 10.5t81.5 27t72.5 36t62 38.5q36 24 68.5 40.5t57.5 16.5t32 -12.5t7 -26.5q0 -8 -0.5 -15.5t-1.5 -12.5q-5 -26 -20 -52t-38 -45q-104 -82 -213.5 -117t-233.5 -35q-24 0 -56.5 3t-67.5 12t-69 26t-60.5 45t-43 69t-16.5 99q0 47 13 105q-13 2 -24.5 13.5
t-11.5 33.5zM808 663q2 5 2 9v9q0 27 -20 40.5t-48 13.5q-44 0 -86.5 -23t-80 -57.5t-66.5 -74t-45 -71.5q72 6 132 19.5t104.5 34t72 46t35.5 54.5zM692 934zM484 1215q5 22 17.5 51t41.5 51q20 11 44.5 19.5t32.5 8.5q17 0 32 -14t26 -30q21 -3 28 -19t7 -36q0 -14 -2 -27
t-4 -21q-6 -21 -23 -39t-38.5 -30.5t-44 -19.5t-37.5 -7h-24q-13 0 -26.5 14t-22.5 27t-11 21.5t-2 14.5q0 10 2 19t4 17zM897 1215q5 22 17.5 51t41.5 51q20 11 44.5 19.5t32.5 8.5q17 0 32 -14t26 -30q21 -3 28 -19t7 -36q0 -14 -2 -27t-4 -21q-6 -21 -23 -39t-38.5 -30.5
t-44 -19.5t-37.5 -7h-24q-13 0 -26.5 14t-22.5 27t-11 21.5t-2 14.5q0 10 2 19t4 17z" />
    <glyph glyph-name="igrave" unicode="&#xec;" horiz-adv-x="518" 
d="M194 183q15 58 36 135t44.5 163t47.5 176t45 175q1 4 7 13.5t17 19t28 16.5t40 7q17 0 33 -3.5t28.5 -10.5t20 -18.5t7.5 -26.5v-6.5t-1 -6.5l-28 -106q-47 -178 -95.5 -357t-94.5 -359q-2 -6 -6 -15t-11 -18t-17 -15t-24 -6q-26 0 -46 10.5t-34 26.5t-21 35t-7 36v9t2 9
zM277 1350q8 30 30.5 49t47.5 19q24 0 34 -5t19 -13q29 -25 78 -66t106 -88l40 -33q14 -11 27 -30t13 -45q0 -13 -4 -26.5t-12.5 -24t-21.5 -17.5t-31 -7q-19 0 -33 5t-28 14l-220 147q-24 17 -37.5 35.5t-13.5 46.5q0 18 6 39z" />
    <glyph glyph-name="iacute" unicode="&#xed;" horiz-adv-x="518" 
d="M194 183q15 58 36 135t44.5 163t47.5 176t45 175q1 4 7 13.5t17 19t28 16.5t40 7q17 0 33 -3.5t28.5 -10.5t20 -18.5t7.5 -26.5v-6.5t-1 -6.5l-28 -106q-47 -178 -95.5 -357t-94.5 -359q-2 -6 -6 -15t-11 -18t-17 -15t-24 -6q-26 0 -46 10.5t-34 26.5t-21 35t-7 36v9t2 9
zM914 1346q-11 -44 -37.5 -71t-65.5 -47l-314 -156q-18 -10 -48 -10q-23 0 -33 10.5t-10 27.5q0 21 8.5 38t21.5 31t28 24.5t27 18.5l76 45q48 28 94 56.5t86 51t72 37t50 14.5q20 0 33.5 -14t13.5 -37v-9.5t-2 -9.5z" />
    <glyph glyph-name="icircumflex" unicode="&#xee;" horiz-adv-x="518" 
d="M194 183q15 58 36 135t44.5 163t47.5 176t45 175q1 4 7 13.5t17 19t28 16.5t40 7q17 0 33 -3.5t28.5 -10.5t20 -18.5t7.5 -26.5v-6.5t-1 -6.5l-28 -106q-47 -178 -95.5 -357t-94.5 -359q-2 -6 -6 -15t-11 -18t-17 -15t-24 -6q-26 0 -46 10.5t-34 26.5t-21 35t-7 36v9t2 9
zM193 1118q3 11 4.5 17.5t4 11.5t6.5 9.5t12 12.5l9 8q64 50 122 98t115 97q88 78 185 155q16 9 26 11t20 2h18q34 0 54.5 -12t31.5 -32t15 -45.5t4 -52.5q0 -14 -0.5 -28t-1.5 -28v-10q-1 -10 -1.5 -18t-0.5 -15v-10t1 -9l1 2q1 -4 3 -15.5t4.5 -25t4.5 -26t2 -17.5
q0 -2 0.5 -8t1.5 -12q1 -7 2 -15q-3 -14 -12.5 -26.5t-22 -21.5t-27.5 -14.5t-30 -5.5q-16 0 -24.5 5t-19.5 13l-3 2l-9 9q-11 20 -17.5 45.5t-10 53t-5 55.5t-1.5 54l-13 -6l-20 -13q-14 -10 -42.5 -31t-60 -44t-60 -44t-42.5 -32l-61 -54q-7 -6 -18.5 -12.5t-24.5 -11.5
t-24.5 -8t-18.5 -3q-11 0 -24 1.5t-25 5t-20 10.5t-8 19q0 6 1 9z" />
    <glyph glyph-name="idieresis" unicode="&#xef;" horiz-adv-x="518" 
d="M194 183q15 58 36 135t44.5 163t47.5 176t45 175q1 4 7 13.5t17 19t28 16.5t40 7q17 0 33 -3.5t28.5 -10.5t20 -18.5t7.5 -26.5v-6.5t-1 -6.5l-28 -106q-47 -178 -95.5 -357t-94.5 -359q-2 -6 -6 -15t-11 -18t-17 -15t-24 -6q-26 0 -46 10.5t-34 26.5t-21 35t-7 36v9t2 9
zM227 1215q5 22 17.5 51t41.5 51q20 11 44.5 19.5t32.5 8.5q17 0 32 -14t26 -30q21 -3 28 -19t7 -36q0 -14 -2 -27t-4 -21q-6 -21 -23 -39t-38.5 -30.5t-44 -19.5t-37.5 -7h-24q-13 0 -26.5 14t-22.5 27t-11 21.5t-2 14.5q0 10 2 19t4 17zM640 1215q5 22 17.5 51t41.5 51
q20 11 44.5 19.5t32.5 8.5q17 0 32 -14t26 -30q21 -3 28 -19t7 -36q0 -14 -2 -27t-4 -21q-6 -21 -23 -39t-38.5 -30.5t-44 -19.5t-37.5 -7h-24q-13 0 -26.5 14t-22.5 27t-11 21.5t-2 14.5q0 10 2 19t4 17z" />
    <glyph glyph-name="eth" unicode="&#xf0;" horiz-adv-x="1012" 
d="M414 141q68 0 127.5 31.5t110.5 82t92.5 114.5t73.5 130t54 127.5t33 106.5q6 22 11.5 51t10 62t7.5 68t3 68q0 49 -7.5 90.5t-27.5 66.5q-37 -20 -80 -48.5t-85 -54.5t-80.5 -45t-65.5 -19q-47 0 -73 13.5t-26 48.5q0 24 11.5 38.5t28.5 24.5t38 18t40 19q22 13 51.5 30
t60 35t59 34.5t48.5 27.5q0 8 -10.5 20t-27.5 23t-37.5 19.5t-41.5 9.5l-7 -1q-18 -2 -37.5 -4.5t-38.5 -4.5t-34.5 -3.5t-25.5 -1.5q-12 0 -16 7.5t-4 18.5q0 27 9.5 51t29 42.5t49 29.5t70.5 11q36 0 75.5 -9t77.5 -25t71.5 -38.5t57.5 -49.5q24 12 54 29t60 33t57 27
t44 11q36 0 63 -17.5t27 -48.5q0 -24 -23.5 -44t-57.5 -37.5t-70.5 -34t-63.5 -32.5q21 -56 31.5 -122.5t10.5 -140.5q0 -136 -35 -279q-17 -69 -51 -149t-81 -160.5t-106.5 -154.5t-128 -131.5t-145.5 -91.5t-158 -34q-75 0 -126.5 21t-83 55.5t-45 78.5t-13.5 90
q0 43 11 87q19 77 59 148.5t93 134.5t114.5 115t123 89.5t119 58.5t102.5 21q26 0 50 -3.5t42 -11.5t28.5 -21t10.5 -32q0 -5 -1 -12.5t-4.5 -15.5t-10.5 -14.5t-20 -9.5h-18q-54 0 -99.5 -17t-85.5 -44q-48 -33 -100.5 -77t-99.5 -98t-84 -117t-55 -134q-5 -22 -5 -39
q0 -38 22 -64.5t74 -26.5z" />
    <glyph glyph-name="ntilde" unicode="&#xf1;" horiz-adv-x="1131" 
d="M906 821q-35 0 -75 -16.5t-83 -44.5t-87.5 -63.5t-87.5 -73.5q-22 -19 -42 -34.5t-40 -23.5q-14 -23 -29.5 -60.5t-30.5 -82t-28.5 -91t-22.5 -86.5q-5 -21 -8 -41t-7 -42.5t-9.5 -48.5t-13.5 -58q-5 -19 -16 -30.5t-23 -17.5t-23 -7.5t-17 -1.5q-38 0 -62 18t-24 70
q0 14 1 29.5t6 34.5q22 95 42.5 171t41.5 141t42.5 122.5t44 116t47 121t52.5 138.5q6 17 31.5 28.5t54.5 11.5q38 0 62.5 -17t24.5 -49q0 -3 -2 -11t-6 -17l-44 -104q42 33 87.5 66t93.5 59.5t96.5 43t95.5 16.5q96 0 150 -51.5t54 -159.5q0 -62 -21.5 -141t-54 -169.5
t-70 -190t-69.5 -202.5q-9 -28 -18.5 -47t-22.5 -30.5t-30.5 -16.5t-42.5 -5q-39 0 -54 14.5t-15 46.5q0 28 8.5 68.5t24 89t36 103.5t44.5 112q19 46 37.5 92t33 89t23.5 82t9 72q0 31 -13.5 54.5t-50.5 23.5zM566 1185q1 3 3 8.5t5 10.5q38 56 70 100t66 74.5t72.5 46.5
t89.5 16q42 0 77 -21t58 -63q16 -29 27 -49t22 -20q6 0 13.5 5.5t15 13t13.5 14.5t10 10q9 7 18.5 18t18.5 23t17.5 23.5t15.5 18.5q3 3 9.5 11.5t14 18t15.5 16.5t14 7q20 0 33 -17t13 -42q0 -19 -13.5 -48t-35.5 -61t-50 -63.5t-56.5 -56.5t-55.5 -41t-47 -16
q-24 0 -41.5 12.5t-31 31t-25 40.5t-23.5 40.5t-26 31t-32 12.5q-30 0 -55.5 -19.5t-58.5 -58.5q-15 -18 -28.5 -38.5t-28 -38t-32 -29t-39.5 -11.5q-18 0 -26.5 20t-8.5 43q0 15 3 27z" />
    <glyph glyph-name="ograve" unicode="&#xf2;" 
d="M206 383q15 61 46.5 129.5t82.5 138.5t122.5 137t165.5 125q15 9 46 19.5t64 12.5q39 42 105 42q78 0 131.5 -39.5t88.5 -107.5q11 -22 20.5 -43t16 -44.5t10.5 -50.5t4 -61q0 -79 -25 -161t-71 -160t-111.5 -149.5t-145.5 -128.5q-54 -39 -119.5 -60.5t-146.5 -21.5
q-77 0 -133.5 20.5t-94 58.5t-56 91t-18.5 118q0 63 18 135zM372 370q-6 -23 -8.5 -43.5t-2.5 -39.5q0 -33 8.5 -61.5t27.5 -49t47.5 -32t69.5 -11.5q76 0 141.5 38.5t116.5 96.5t85.5 124.5t48.5 122.5q9 35 15.5 66t6.5 57t-9.5 48.5t-24.5 50.5q-9 17 -18 35.5t-16 36.5
q-8 -14 -17 -24.5t-27 -19t-49 -15.5t-81 -12q-33 -11 -67 -34t-66.5 -54t-62 -67t-53 -73.5t-41 -73.5t-24.5 -66zM598 1350q8 30 30.5 49t47.5 19q24 0 34 -5t19 -13q29 -25 78 -66t106 -88l40 -33q14 -11 27 -30t13 -45q0 -13 -4 -26.5t-12.5 -24t-21.5 -17.5t-31 -7
q-19 0 -33 5t-28 14l-220 147q-24 17 -37.5 35.5t-13.5 46.5q0 18 6 39z" />
    <glyph glyph-name="oacute" unicode="&#xf3;" 
d="M206 383q15 61 46.5 129.5t82.5 138.5t122.5 137t165.5 125q15 9 46 19.5t64 12.5q39 42 105 42q78 0 131.5 -39.5t88.5 -107.5q11 -22 20.5 -43t16 -44.5t10.5 -50.5t4 -61q0 -79 -25 -161t-71 -160t-111.5 -149.5t-145.5 -128.5q-54 -39 -119.5 -60.5t-146.5 -21.5
q-77 0 -133.5 20.5t-94 58.5t-56 91t-18.5 118q0 63 18 135zM372 370q-6 -23 -8.5 -43.5t-2.5 -39.5q0 -33 8.5 -61.5t27.5 -49t47.5 -32t69.5 -11.5q76 0 141.5 38.5t116.5 96.5t85.5 124.5t48.5 122.5q9 35 15.5 66t6.5 57t-9.5 48.5t-24.5 50.5q-9 17 -18 35.5t-16 36.5
q-8 -14 -17 -24.5t-27 -19t-49 -15.5t-81 -12q-33 -11 -67 -34t-66.5 -54t-62 -67t-53 -73.5t-41 -73.5t-24.5 -66zM1178 1346q-11 -44 -37.5 -71t-65.5 -47l-314 -156q-18 -10 -48 -10q-23 0 -33 10.5t-10 27.5q0 21 8.5 38t21.5 31t28 24.5t27 18.5l76 45q48 28 94 56.5
t86 51t72 37t50 14.5q20 0 33.5 -14t13.5 -37v-9.5t-2 -9.5z" />
    <glyph glyph-name="ocircumflex" unicode="&#xf4;" 
d="M206 383q15 61 46.5 129.5t82.5 138.5t122.5 137t165.5 125q15 9 46 19.5t64 12.5q39 42 105 42q78 0 131.5 -39.5t88.5 -107.5q11 -22 20.5 -43t16 -44.5t10.5 -50.5t4 -61q0 -79 -25 -161t-71 -160t-111.5 -149.5t-145.5 -128.5q-54 -39 -119.5 -60.5t-146.5 -21.5
q-77 0 -133.5 20.5t-94 58.5t-56 91t-18.5 118q0 63 18 135zM372 370q-6 -23 -8.5 -43.5t-2.5 -39.5q0 -33 8.5 -61.5t27.5 -49t47.5 -32t69.5 -11.5q76 0 141.5 38.5t116.5 96.5t85.5 124.5t48.5 122.5q9 35 15.5 66t6.5 57t-9.5 48.5t-24.5 50.5q-9 17 -18 35.5t-16 36.5
q-8 -14 -17 -24.5t-27 -19t-49 -15.5t-81 -12q-33 -11 -67 -34t-66.5 -54t-62 -67t-53 -73.5t-41 -73.5t-24.5 -66zM539 1118q3 11 4.5 17.5t4 11.5t6.5 9.5t12 12.5l9 8q64 50 122 98t115 97q88 78 185 155q16 9 26 11t20 2h18q34 0 54.5 -12t31.5 -32t15 -45.5t4 -52.5
q0 -14 -0.5 -28t-1.5 -28v-10q-1 -10 -1.5 -18t-0.5 -15v-10t1 -9l1 2q1 -4 3 -15.5t4.5 -25t4.5 -26t2 -17.5q0 -2 0.5 -8t1.5 -12q1 -7 2 -15q-3 -14 -12.5 -26.5t-22 -21.5t-27.5 -14.5t-30 -5.5q-16 0 -24.5 5t-19.5 13l-3 2l-9 9q-11 20 -17.5 45.5t-10 53t-5 55.5
t-1.5 54l-13 -6l-20 -13q-14 -10 -42.5 -31t-60 -44t-60 -44t-42.5 -32l-61 -54q-7 -6 -18.5 -12.5t-24.5 -11.5t-24.5 -8t-18.5 -3q-11 0 -24 1.5t-25 5t-20 10.5t-8 19q0 6 1 9z" />
    <glyph glyph-name="otilde" unicode="&#xf5;" 
d="M206 383q15 61 46.5 129.5t82.5 138.5t122.5 137t165.5 125q15 9 46 19.5t64 12.5q39 42 105 42q78 0 131.5 -39.5t88.5 -107.5q11 -22 20.5 -43t16 -44.5t10.5 -50.5t4 -61q0 -79 -25 -161t-71 -160t-111.5 -149.5t-145.5 -128.5q-54 -39 -119.5 -60.5t-146.5 -21.5
q-77 0 -133.5 20.5t-94 58.5t-56 91t-18.5 118q0 63 18 135zM372 370q-6 -23 -8.5 -43.5t-2.5 -39.5q0 -33 8.5 -61.5t27.5 -49t47.5 -32t69.5 -11.5q76 0 141.5 38.5t116.5 96.5t85.5 124.5t48.5 122.5q9 35 15.5 66t6.5 57t-9.5 48.5t-24.5 50.5q-9 17 -18 35.5t-16 36.5
q-8 -14 -17 -24.5t-27 -19t-49 -15.5t-81 -12q-33 -11 -67 -34t-66.5 -54t-62 -67t-53 -73.5t-41 -73.5t-24.5 -66zM552 1185q1 3 3 8.5t5 10.5q38 56 70 100t66 74.5t72.5 46.5t89.5 16q42 0 77 -21t58 -63q16 -29 27 -49t22 -20q6 0 13.5 5.5t15 13t13.5 14.5t10 10
q9 7 18.5 18t18.5 23t17.5 23.5t15.5 18.5q3 3 9.5 11.5t14 18t15.5 16.5t14 7q20 0 33 -17t13 -42q0 -19 -13.5 -48t-35.5 -61t-50 -63.5t-56.5 -56.5t-55.5 -41t-47 -16q-24 0 -41.5 12.5t-31 31t-25 40.5t-23.5 40.5t-26 31t-32 12.5q-30 0 -55.5 -19.5t-58.5 -58.5
q-15 -18 -28.5 -38.5t-28 -38t-32 -29t-39.5 -11.5q-18 0 -26.5 20t-8.5 43q0 15 3 27z" />
    <glyph glyph-name="odieresis" unicode="&#xf6;" 
d="M206 383q15 61 46.5 129.5t82.5 138.5t122.5 137t165.5 125q15 9 46 19.5t64 12.5q39 42 105 42q78 0 131.5 -39.5t88.5 -107.5q11 -22 20.5 -43t16 -44.5t10.5 -50.5t4 -61q0 -79 -25 -161t-71 -160t-111.5 -149.5t-145.5 -128.5q-54 -39 -119.5 -60.5t-146.5 -21.5
q-77 0 -133.5 20.5t-94 58.5t-56 91t-18.5 118q0 63 18 135zM372 370q-6 -23 -8.5 -43.5t-2.5 -39.5q0 -33 8.5 -61.5t27.5 -49t47.5 -32t69.5 -11.5q76 0 141.5 38.5t116.5 96.5t85.5 124.5t48.5 122.5q9 35 15.5 66t6.5 57t-9.5 48.5t-24.5 50.5q-9 17 -18 35.5t-16 36.5
q-8 -14 -17 -24.5t-27 -19t-49 -15.5t-81 -12q-33 -11 -67 -34t-66.5 -54t-62 -67t-53 -73.5t-41 -73.5t-24.5 -66zM534 1215q5 22 17.5 51t41.5 51q20 11 44.5 19.5t32.5 8.5q17 0 32 -14t26 -30q21 -3 28 -19t7 -36q0 -14 -2 -27t-4 -21q-6 -21 -23 -39t-38.5 -30.5
t-44 -19.5t-37.5 -7h-24q-13 0 -26.5 14t-22.5 27t-11 21.5t-2 14.5q0 10 2 19t4 17zM947 1215q5 22 17.5 51t41.5 51q20 11 44.5 19.5t32.5 8.5q17 0 32 -14t26 -30q21 -3 28 -19t7 -36q0 -14 -2 -27t-4 -21q-6 -21 -23 -39t-38.5 -30.5t-44 -19.5t-37.5 -7h-24
q-13 0 -26.5 14t-22.5 27t-11 21.5t-2 14.5q0 10 2 19t4 17z" />
    <glyph glyph-name="divide" unicode="&#xf7;" horiz-adv-x="1210" 
d="M342 647q3 12 11 22.5t19 19t23 13t23 4.5q19 0 41 -2.5t48 -10.5l556 66q5 1 18.5 1.5t18.5 0.5q18 0 36.5 -2.5t33.5 -10t24 -20t9 -31.5q0 -21 -11.5 -38.5t-29 -30.5t-38 -22t-39.5 -12q-16 -3 -52.5 -8.5t-83 -13t-97 -15t-95.5 -14t-79 -12t-46 -7.5
q-16 -3 -42 -5.5t-57.5 -5.5t-66.5 -5.5t-68 -5.5q-32 17 -47.5 40t-15.5 56q0 11 1.5 23t5.5 26zM713 946q5 22 18 51.5t45 54.5q8 4 19.5 8.5t22 8.5t19.5 6t13 2q11 0 21.5 -7t18.5 -15q10 -10 18 -22q20 -3 27.5 -19t7.5 -36q0 -14 -2.5 -27t-4.5 -22
q-5 -21 -22.5 -38.5t-39.5 -30t-44 -19.5t-37 -7h-24q-11 0 -22 9.5t-20 22.5t-14.5 26t-5.5 19q0 10 2 18.5t4 16.5zM553 298q5 21 17.5 50t42.5 52q9 5 20.5 10.5t23 9.5t20.5 6.5t13 2.5q11 0 21.5 -7t18.5 -15q10 -10 18 -22q21 -3 28 -20.5t7 -37.5q0 -14 -2 -26.5
t-4 -20.5q-5 -21 -22.5 -38t-39.5 -30t-44.5 -20t-37.5 -7h-24q-12 0 -23 10.5t-19.5 23.5t-14 25t-5.5 16q0 10 2 20t4 18z" />
    <glyph glyph-name="oslash" unicode="&#xf8;" 
d="M206 383q15 61 46.5 129.5t82.5 138.5t122.5 137t165.5 125q15 9 46 19.5t64 12.5q39 42 105 42q23 0 42 -4q5 9 9.5 18t9.5 18q9 22 18.5 47.5t22.5 47t31 35.5t44 14t47 -12.5t21 -45.5q0 -38 -19 -76t-46 -83q-4 -8 -7 -12l-9 -15q31 -33 56 -79q11 -22 20.5 -43
t16 -44.5t10.5 -50.5t4 -61q0 -79 -25 -161t-71 -160t-111.5 -149.5t-145.5 -128.5q-54 -39 -119.5 -60.5t-146.5 -21.5q-17 0 -33 1.5t-31 3.5q-20 -32 -39 -65t-39 -67q-10 -16 -21 -25t-23 -13t-23 -4.5t-21 -0.5q-22 0 -38.5 12t-16.5 39v8q0 4 0.5 7.5t2.5 7.5
q43 77 86 148q-54 38 -80 98t-26 138q0 63 18 135zM893 738q-92 -151 -181.5 -299.5t-183.5 -305.5q49 3 93.5 22t83.5 49.5t72 69t58.5 80t43.5 83t27 78.5q9 35 15.5 66t6.5 57t-9.5 48.5t-24.5 50.5q-1 0 -1 1zM372 370q-6 -23 -8.5 -43.5t-2.5 -39.5q0 -32 8 -60t26 -48
q88 142 176 281.5t174 284.5q-13 -2 -27.5 -3.5t-31.5 -3.5q-33 -11 -67 -34t-66.5 -54t-62 -67t-53 -73.5t-41 -73.5t-24.5 -66z" />
    <glyph glyph-name="ugrave" unicode="&#xf9;" horiz-adv-x="1135" 
d="M370 890q4 16 11.5 27.5t16 18.5t15.5 10t11 3q11 0 26 -2.5t29 -4.5q16 -3 31 -6q26 -1 37.5 -21t11.5 -48q0 -22 -6 -41q-34 -125 -62 -217.5t-47.5 -157.5t-30 -106t-10.5 -62t5.5 -47t16.5 -48.5t28 -37.5t41 -15q42 0 85 26t82 63.5t70.5 80t51.5 75.5l26 45
q24 42 44.5 96.5t36 109.5t26.5 103.5t17 77.5l26 133q8 38 24.5 52.5t55.5 14.5q25 0 45 -5.5t34 -19.5t21 -37.5t7 -60.5q0 -43 -13.5 -105.5t-29.5 -125.5q-9 -37 -18.5 -78.5t-17 -83t-12 -79t-4.5 -67.5q0 -51 3.5 -102t3.5 -108q0 -26 -1.5 -46t-4.5 -30
q-11 -39 -28.5 -58t-59.5 -19q-29 0 -46 6.5t-26.5 17.5t-12.5 24.5t-4 27.5l-11 189l-9 -3q-33 -42 -72 -94t-86 -97t-102.5 -75.5t-120.5 -30.5q-13 0 -33.5 6.5t-42.5 16.5t-42 22.5t-32 23.5q-55 51 -78 115t-23 130q0 37 6 74t14 71.5t17.5 65t15.5 54.5q19 75 34 132
t26.5 100t19.5 73.5t14 53.5zM460 1350q8 30 30.5 49t47.5 19q24 0 34 -5t19 -13q29 -25 78 -66t106 -88l40 -33q14 -11 27 -30t13 -45q0 -13 -4 -26.5t-12.5 -24t-21.5 -17.5t-31 -7q-19 0 -33 5t-28 14l-220 147q-24 17 -37.5 35.5t-13.5 46.5q0 18 6 39z" />
    <glyph glyph-name="uacute" unicode="&#xfa;" horiz-adv-x="1135" 
d="M370 890q4 16 11.5 27.5t16 18.5t15.5 10t11 3q11 0 26 -2.5t29 -4.5q16 -3 31 -6q26 -1 37.5 -21t11.5 -48q0 -22 -6 -41q-34 -125 -62 -217.5t-47.5 -157.5t-30 -106t-10.5 -62t5.5 -47t16.5 -48.5t28 -37.5t41 -15q42 0 85 26t82 63.5t70.5 80t51.5 75.5l26 45
q24 42 44.5 96.5t36 109.5t26.5 103.5t17 77.5l26 133q8 38 24.5 52.5t55.5 14.5q25 0 45 -5.5t34 -19.5t21 -37.5t7 -60.5q0 -43 -13.5 -105.5t-29.5 -125.5q-9 -37 -18.5 -78.5t-17 -83t-12 -79t-4.5 -67.5q0 -51 3.5 -102t3.5 -108q0 -26 -1.5 -46t-4.5 -30
q-11 -39 -28.5 -58t-59.5 -19q-29 0 -46 6.5t-26.5 17.5t-12.5 24.5t-4 27.5l-11 189l-9 -3q-33 -42 -72 -94t-86 -97t-102.5 -75.5t-120.5 -30.5q-13 0 -33.5 6.5t-42.5 16.5t-42 22.5t-32 23.5q-55 51 -78 115t-23 130q0 37 6 74t14 71.5t17.5 65t15.5 54.5q19 75 34 132
t26.5 100t19.5 73.5t14 53.5zM1174 1346q-11 -44 -37.5 -71t-65.5 -47l-314 -156q-18 -10 -48 -10q-23 0 -33 10.5t-10 27.5q0 21 8.5 38t21.5 31t28 24.5t27 18.5l76 45q48 28 94 56.5t86 51t72 37t50 14.5q20 0 33.5 -14t13.5 -37v-9.5t-2 -9.5z" />
    <glyph glyph-name="ucircumflex" unicode="&#xfb;" horiz-adv-x="1135" 
d="M370 890q4 16 11.5 27.5t16 18.5t15.5 10t11 3q11 0 26 -2.5t29 -4.5q16 -3 31 -6q26 -1 37.5 -21t11.5 -48q0 -22 -6 -41q-34 -125 -62 -217.5t-47.5 -157.5t-30 -106t-10.5 -62t5.5 -47t16.5 -48.5t28 -37.5t41 -15q42 0 85 26t82 63.5t70.5 80t51.5 75.5l26 45
q24 42 44.5 96.5t36 109.5t26.5 103.5t17 77.5l26 133q8 38 24.5 52.5t55.5 14.5q25 0 45 -5.5t34 -19.5t21 -37.5t7 -60.5q0 -43 -13.5 -105.5t-29.5 -125.5q-9 -37 -18.5 -78.5t-17 -83t-12 -79t-4.5 -67.5q0 -51 3.5 -102t3.5 -108q0 -26 -1.5 -46t-4.5 -30
q-11 -39 -28.5 -58t-59.5 -19q-29 0 -46 6.5t-26.5 17.5t-12.5 24.5t-4 27.5l-11 189l-9 -3q-33 -42 -72 -94t-86 -97t-102.5 -75.5t-120.5 -30.5q-13 0 -33.5 6.5t-42.5 16.5t-42 22.5t-32 23.5q-55 51 -78 115t-23 130q0 37 6 74t14 71.5t17.5 65t15.5 54.5q19 75 34 132
t26.5 100t19.5 73.5t14 53.5zM473 1118q3 11 4.5 17.5t4 11.5t6.5 9.5t12 12.5l9 8q64 50 122 98t115 97q88 78 185 155q16 9 26 11t20 2h18q34 0 54.5 -12t31.5 -32t15 -45.5t4 -52.5q0 -14 -0.5 -28t-1.5 -28v-10q-1 -10 -1.5 -18t-0.5 -15v-10t1 -9l1 2q1 -4 3 -15.5
t4.5 -25t4.5 -26t2 -17.5q0 -2 0.5 -8t1.5 -12q1 -7 2 -15q-3 -14 -12.5 -26.5t-22 -21.5t-27.5 -14.5t-30 -5.5q-16 0 -24.5 5t-19.5 13l-3 2l-9 9q-11 20 -17.5 45.5t-10 53t-5 55.5t-1.5 54l-13 -6l-20 -13q-14 -10 -42.5 -31t-60 -44t-60 -44t-42.5 -32l-61 -54
q-7 -6 -18.5 -12.5t-24.5 -11.5t-24.5 -8t-18.5 -3q-11 0 -24 1.5t-25 5t-20 10.5t-8 19q0 6 1 9z" />
    <glyph glyph-name="udieresis" unicode="&#xfc;" horiz-adv-x="1135" 
d="M370 890q4 16 11.5 27.5t16 18.5t15.5 10t11 3q11 0 26 -2.5t29 -4.5q16 -3 31 -6q26 -1 37.5 -21t11.5 -48q0 -22 -6 -41q-34 -125 -62 -217.5t-47.5 -157.5t-30 -106t-10.5 -62t5.5 -47t16.5 -48.5t28 -37.5t41 -15q42 0 85 26t82 63.5t70.5 80t51.5 75.5l26 45
q24 42 44.5 96.5t36 109.5t26.5 103.5t17 77.5l26 133q8 38 24.5 52.5t55.5 14.5q25 0 45 -5.5t34 -19.5t21 -37.5t7 -60.5q0 -43 -13.5 -105.5t-29.5 -125.5q-9 -37 -18.5 -78.5t-17 -83t-12 -79t-4.5 -67.5q0 -51 3.5 -102t3.5 -108q0 -26 -1.5 -46t-4.5 -30
q-11 -39 -28.5 -58t-59.5 -19q-29 0 -46 6.5t-26.5 17.5t-12.5 24.5t-4 27.5l-11 189l-9 -3q-33 -42 -72 -94t-86 -97t-102.5 -75.5t-120.5 -30.5q-13 0 -33.5 6.5t-42.5 16.5t-42 22.5t-32 23.5q-55 51 -78 115t-23 130q0 37 6 74t14 71.5t17.5 65t15.5 54.5q19 75 34 132
t26.5 100t19.5 73.5t14 53.5zM501 1215q5 22 17.5 51t41.5 51q20 11 44.5 19.5t32.5 8.5q17 0 32 -14t26 -30q21 -3 28 -19t7 -36q0 -14 -2 -27t-4 -21q-6 -21 -23 -39t-38.5 -30.5t-44 -19.5t-37.5 -7h-24q-13 0 -26.5 14t-22.5 27t-11 21.5t-2 14.5q0 10 2 19t4 17z
M914 1215q5 22 17.5 51t41.5 51q20 11 44.5 19.5t32.5 8.5q17 0 32 -14t26 -30q21 -3 28 -19t7 -36q0 -14 -2 -27t-4 -21q-6 -21 -23 -39t-38.5 -30.5t-44 -19.5t-37.5 -7h-24q-13 0 -26.5 14t-22.5 27t-11 21.5t-2 14.5q0 10 2 19t4 17z" />
    <glyph glyph-name="yacute" unicode="&#xfd;" horiz-adv-x="1081" 
d="M190 -462q-15 0 -27 8t-20.5 21t-13.5 28.5t-5 30.5q0 19 5 33t12.5 24.5t16 16.5t15.5 9q24 6 56 13t69.5 20.5t80 35t87.5 56.5t94.5 81.5t95.5 109t86 143t66 184.5q-19 -21 -43.5 -47.5t-52.5 -54t-58 -53t-60 -46t-58.5 -32.5t-53.5 -12q-67 0 -114 30.5t-87 100.5
q-11 20 -17 52t-6 65q0 54 5 105t15 106t23.5 115.5t30.5 133.5q1 19 3 36q2 14 2.5 27t1.5 16q2 17 11.5 32t23 26t29 17t30.5 6q21 0 42 -3.5t33 -15.5q17 -18 25.5 -47t8.5 -52q0 -9 -8.5 -36t-24.5 -56q-24 -90 -39 -152.5t-23.5 -104t-12 -66t-3.5 -37.5q0 -54 18 -86
t44 -32q15 0 34.5 6t41.5 20q84 52 144.5 113.5t104 136t75 163.5t57.5 196q2 7 9.5 14t18 12t22.5 8.5t23 3.5q53 0 81.5 -28.5t28.5 -76.5q0 -18 -9 -58t-21 -84.5t-24.5 -85t-19.5 -59.5l-48 -139q-33 -94 -59.5 -173t-56.5 -147.5t-67.5 -129.5t-90.5 -119t-126 -116.5
t-174 -121.5q-62 -37 -121.5 -60.5t-125.5 -23.5zM1174 1346q-11 -44 -37.5 -71t-65.5 -47l-314 -156q-18 -10 -48 -10q-23 0 -33 10.5t-10 27.5q0 21 8.5 38t21.5 31t28 24.5t27 18.5l76 45q48 28 94 56.5t86 51t72 37t50 14.5q20 0 33.5 -14t13.5 -37v-9.5t-2 -9.5z" />
    <glyph glyph-name="thorn" unicode="&#xfe;" horiz-adv-x="1156" 
d="M419 209q14 -2 31.5 -5t33.5 -6.5t28.5 -6t15.5 -2.5q20 0 44 5.5t48 13.5t45.5 17.5t38.5 17.5q50 25 105 59.5t101.5 80t76.5 102.5t30 128q0 28 -7 52.5t-21 43.5t-35.5 30t-49.5 11q-39 0 -70 -4.5t-59.5 -14.5t-57 -25.5t-61.5 -37.5q-20 -13 -35.5 -23t-31 -18
t-32.5 -14.5t-38 -12.5zM641 1122q-12 -43 -24 -87t-23.5 -85.5t-21 -78t-16.5 -64.5q37 25 83 44t95 32t97 19t90 6q71 0 124.5 -25.5t89 -67.5t53.5 -96.5t18 -113.5q0 -42 -10 -86t-28 -85t-43 -77t-55 -64q-97 -89 -200.5 -149.5t-218.5 -99.5q-8 -3 -21.5 -7
t-28.5 -8.5t-29.5 -7.5t-22.5 -3q-45 0 -87.5 8.5t-76.5 29.5l-30 -121q-28 -112 -50.5 -227t-46.5 -228q-3 -12 -15 -21t-28 -14t-33.5 -7.5t-30.5 -2.5q-36 0 -53 12.5t-17 41.5q0 13 5 35q23 92 42 171t35.5 151.5t31.5 141.5t31.5 141.5t34.5 151t41 169.5l208 843
q5 50 13 92t20 89q2 7 8 15t15 15.5t20.5 12.5t23.5 5q15 0 35 -5.5t38 -15.5t30 -24t12 -32q0 -8 -1 -12q-6 -23 -14.5 -57t-19.5 -74.5t-23.5 -86.5t-25.5 -93z" />
    <glyph glyph-name="ydieresis" unicode="&#xff;" horiz-adv-x="1081" 
d="M190 -462q-15 0 -27 8t-20.5 21t-13.5 28.5t-5 30.5q0 19 5 33t12.5 24.5t16 16.5t15.5 9q24 6 56 13t69.5 20.5t80 35t87.5 56.5t94.5 81.5t95.5 109t86 143t66 184.5q-19 -21 -43.5 -47.5t-52.5 -54t-58 -53t-60 -46t-58.5 -32.5t-53.5 -12q-67 0 -114 30.5t-87 100.5
q-11 20 -17 52t-6 65q0 54 5 105t15 106t23.5 115.5t30.5 133.5q1 19 3 36q2 14 2.5 27t1.5 16q2 17 11.5 32t23 26t29 17t30.5 6q21 0 42 -3.5t33 -15.5q17 -18 25.5 -47t8.5 -52q0 -9 -8.5 -36t-24.5 -56q-24 -90 -39 -152.5t-23.5 -104t-12 -66t-3.5 -37.5q0 -54 18 -86
t44 -32q15 0 34.5 6t41.5 20q84 52 144.5 113.5t104 136t75 163.5t57.5 196q2 7 9.5 14t18 12t22.5 8.5t23 3.5q53 0 81.5 -28.5t28.5 -76.5q0 -18 -9 -58t-21 -84.5t-24.5 -85t-19.5 -59.5l-48 -139q-33 -94 -59.5 -173t-56.5 -147.5t-67.5 -129.5t-90.5 -119t-126 -116.5
t-174 -121.5q-62 -37 -121.5 -60.5t-125.5 -23.5zM492 1215q5 22 17.5 51t41.5 51q20 11 44.5 19.5t32.5 8.5q17 0 32 -14t26 -30q21 -3 28 -19t7 -36q0 -14 -2 -27t-4 -21q-6 -21 -23 -39t-38.5 -30.5t-44 -19.5t-37.5 -7h-24q-13 0 -26.5 14t-22.5 27t-11 21.5t-2 14.5
q0 10 2 19t4 17zM905 1215q5 22 17.5 51t41.5 51q20 11 44.5 19.5t32.5 8.5q17 0 32 -14t26 -30q21 -3 28 -19t7 -36q0 -14 -2 -27t-4 -21q-6 -21 -23 -39t-38.5 -30.5t-44 -19.5t-37.5 -7h-24q-13 0 -26.5 14t-22.5 27t-11 21.5t-2 14.5q0 10 2 19t4 17z" />
    <glyph glyph-name="OE" unicode="&#x152;" horiz-adv-x="2169" 
d="M1149 74q0 35 10 74q3 15 7 26q-119 -102 -259.5 -160.5t-290.5 -58.5q-95 0 -170.5 29t-128 82t-80 126t-27.5 162q0 38 4.5 76.5t14.5 78.5q18 75 52 153.5t80 157.5t102.5 155.5t120 148t131 135t135.5 116.5q32 22 59 29t57 7q32 0 57 -9.5t50 -34.5q8 -9 17 -16
t17 -7q2 0 5 4.5t6.5 10.5t8.5 12.5t12 9.5q17 8 40.5 10.5t47.5 2.5q45 0 87 -16.5t74 -46.5q57 -54 93 -123l15 36q12 27 26.5 56t31.5 53.5t35.5 40t38.5 15.5q41 0 62.5 -13.5t26.5 -24.5l9 -41q15 1 39 5.5t48.5 9.5t45.5 10t32 9q66 18 122 31t106.5 21.5t96.5 12.5
t93 4q46 0 75 -5t46 -13.5t23.5 -20t6.5 -24.5q0 -12 -6.5 -25.5t-21.5 -25.5t-39 -21t-60 -12q-9 -2 -41.5 -7.5t-70.5 -12t-72 -12.5t-47 -9h1q-6 -1 -28.5 -7.5t-54.5 -15.5t-69.5 -19.5t-73.5 -21t-67.5 -20.5t-49.5 -17q-62 -23 -96.5 -62t-54.5 -88q-4 -9 -12 -30.5
t-17.5 -49t-20.5 -58.5t-21 -59t-17.5 -51t-10.5 -34q-3 -10 -4 -18t-1 -12q0 -6 3 -6q15 0 62.5 13.5t111 33.5t136 43t139 43t118.5 33.5t75 13.5q35 0 47 -11.5t12 -25.5q0 -36 -25.5 -63t-63.5 -47q-12 -6 -44.5 -17.5t-70 -23.5t-71.5 -23t-49 -17q-93 -36 -153 -60
t-98 -39t-59.5 -23.5t-38.5 -14t-34.5 -10t-46.5 -11.5q-5 -2 -10.5 -2.5t-11.5 -2.5q-9 -21 -21 -63.5t-23 -88t-18.5 -84.5t-7.5 -54q0 -28 10.5 -34.5t21.5 -6.5h10q48 0 115.5 14t133.5 37q63 22 110 48t88.5 48.5t81 38t86.5 16.5q9 0 22 -2t24.5 -6.5t19.5 -13
t8 -20.5v-5q-4 -29 -29 -57t-63 -54t-85 -50t-96 -45.5t-96 -39t-84 -30.5q-92 -32 -179 -47t-156 -15q-76 0 -116.5 28.5t-40.5 94.5zM398 442q-11 -50 -11 -90q0 -56 19.5 -98.5t55 -71t85 -43t108.5 -14.5q101 0 204.5 45t195.5 126.5t167 195t119 251.5q5 18 9 34t9 32
q8 34 12 69t4 68q0 58 -13 111t-43 94t-79 65.5t-120 24.5q-10 0 -15.5 -8.5t-11.5 -21.5q-5 -11 -11.5 -23t-17 -21.5t-26 -15.5t-38.5 -6q-17 0 -30 7.5t-26 20.5q-6 6 -10 9.5t-9 3.5q-9 0 -23.5 -8t-30 -19t-30 -23t-22.5 -21q-68 -70 -135.5 -152.5t-124.5 -170.5
t-99.5 -177.5t-61.5 -172.5zM1104 1464z" />
    <glyph glyph-name="oe" unicode="&#x153;" horiz-adv-x="1649" 
d="M207 379q15 62 47 131t83 138.5t122 136.5t165 125q7 4 19.5 10t27.5 11t31 8.5t31 3.5q23 21 47 32t55 11q202 0 249 -252q30 30 67 58t79 50t87.5 35t92.5 13q58 0 100 -14t69.5 -38.5t41 -58.5t13.5 -73q0 -69 -31 -121t-81.5 -90t-114.5 -64t-130.5 -42.5t-129 -26
t-109.5 -13.5q-11 -30 -17 -53.5t-6 -45.5q0 -60 47 -92.5t130 -32.5q79 0 144 26.5t118 58.5t95 58.5t76 26.5q23 0 30 -11.5t7 -24.5q0 -32 -17 -67.5t-46 -58.5q-105 -84 -214.5 -118.5t-233.5 -34.5q-29 0 -70 5.5t-83.5 21.5t-80 45t-59.5 75q-40 -35 -79 -65.5
t-83 -53t-95 -35.5t-114 -13q-75 0 -131.5 20t-93.5 57t-55.5 89t-18.5 115q0 32 5 66.5t14 71.5zM372 371q-6 -23 -8.5 -43.5t-2.5 -40.5q0 -34 9 -62.5t28 -49.5t48.5 -32.5t70.5 -11.5q75 0 140 38.5t116 96t86 124t49 122.5q9 35 15 64t6 55q0 22 -8 43.5t-19 43.5
t-23 44.5t-20 47.5q-8 -14 -18 -25t-28 -20t-48.5 -15.5t-80.5 -11.5q-50 -17 -101 -59.5t-94 -96t-74.5 -110t-42.5 -101.5zM1097 507q69 6 131.5 19.5t110.5 35.5t76 51.5t28 66.5q0 28 -20.5 41t-49.5 13q-45 0 -87.5 -22t-78.5 -55.5t-64 -73.5t-46 -76z" />
    </font>
</defs>
</svg>
