<?xml version="1.0" standalone="no"?>
<!DOCTYPE svg PUBLIC "-//W3C//DTD SVG 1.1//EN" "http://www.w3.org/Graphics/SVG/1.1/DTD/svg11.dtd" >
<svg xmlns="http://www.w3.org/2000/svg">
<metadata></metadata>
<defs>
<font id="marketing_script_shadowRg" horiz-adv-x="1241" >
<font-face units-per-em="2048" ascent="1638" descent="-410" />
<missing-glyph horiz-adv-x="1024" />
<glyph horiz-adv-x="0" />
<glyph horiz-adv-x="682" />
<glyph horiz-adv-x="872" />
<glyph horiz-adv-x="872" />
<glyph horiz-adv-x="1574" d="M-18 -279q0 -174 114 -202q25 -84 105 -103q31 -8 75 -8q231 0 338 316q27 80 37 151q20 -4 62 -4q29 0 54.5 2t49.5 6q94 14 172 78l22.5 -22.5t28.5 -22.5q53 -39 195 -39q70 0 106 6q123 23 213 113q21 18 21 55v21q0 39 -12 67l2 -2q-2 27 -29 27q-16 0 -25 -13 q0 -2 -2 -2l2 2q0 -2 -2 -2q-27 -37 -75 -71l18 18q20 20 21 58v20q0 39 -13 68l2 -2q-2 27 -28 26q-16 0 -25 -12q0 -2 -2 -2l2 2q0 -2 -2 -2q-37 -49 -104 -88q-63 -35 -91 -35h-28q2 6 6 22h-2q29 88 51.5 154t36.5 109q29 84 48 144t34 101q0 4 2 7v6q0 66 -53 82 q-16 4 -28.5 5t-23.5 3q0 4 2 6v6q0 66 -53 82q-25 8 -69 8q-104 0 -136 -47q55 160 56 256q0 158 -123 211q-53 123 -201 123q-225 0 -430 -494q-45 -106 -88 -236t-86 -284l-55 -196q-16 -57 -26.5 -99.5t-18.5 -70.5q-45 -193 -45 -302zM0 -279q0 96 47 297l100 365 q88 313 172 518q199 481 412 481q94 0 147.5 -56t53.5 -155q0 -117 -82 -329q-66 -166 -205 -334q-115 -135 -203 -197q-20 -14 -20 -26q0 -14 33 -39q31 -23 53 -86q10 -29 29 -35q74 -23 147 -23q72 0 168 84v37q0 37 74 281q27 88 46 152.5t34 109.5q16 53 47 61 q80 23 145 4q18 -4 29.5 -26.5t7.5 -46.5q-51 -147 -92 -272.5t-76 -229.5q-16 -53 -16 -78q0 -27 14 -39q41 -35 147 -35q35 0 101 37q78 47 112 97q10 12 17 -7q14 -32 10 -79q-4 -35 -14 -46q-88 -88 -201 -106q-18 -2 -44 -3t-60 -1q-137 0 -183 33q-20 14 -35.5 28.5 t-25.5 28.5q-66 -57 -158 -80.5t-178 -7.5q-20 2 -25 -14q-4 -41 -13 -79t-21 -73q-102 -301 -320 -301q-39 0 -72 8q-102 23 -102 182zM188 -270q0 -39 29 -45q59 -16 133 182q31 82 31 137q0 20 -23.5 41t-46.5 37q-6 6 -12 6q-10 0 -20 -29q-4 -14 -16.5 -53t-31.5 -104 q-43 -158 -43 -172zM381 446q0 -2 4 -6q6 0 29 25q139 164 270 434q86 174 86 256q0 56 -43 62q-70 8 -149 -213l-185 -515q-12 -35 -12 -43zM545 182l12 11q92 61 207 200q141 168 207 338q2 4 5 11.5t3 11.5q-14 -47 -22.5 -75t-12.5 -38h2q-8 -23 -17 -54.5t-24 -76.5 q-74 -244 -74 -287v-26q-90 -74 -147 -74q-47 0 -86 6q-10 10 -17.5 19.5t-13.5 13.5q-20 14 -22 20zM1133 1208q0 -94 102 -118q10 -68 78 -95q27 -10 51 -10q80 0 135 90q18 31 19 78q0 82 -70 113q-12 4 -21.5 6t-13.5 4q-6 63 -67 92q-37 12 -56 12q-94 0 -127 -67v2 q-31 -55 -30 -107zM1153 1208q0 66 37 109t100 43q104 0 105 -105q-1 -38 -17 -67q-47 -80 -116 -80q-45 0 -77 27.5t-32 72.5z" />
<glyph horiz-adv-x="1564" d="M-18 -279q0 -174 114 -202q25 -84 105 -103q31 -8 75 -8q231 0 338 316q27 80 37 151q20 -4 62 -4q29 0 54.5 2t49.5 6q94 14 166 72q57 -82 223 -82q215 0 338 123q21 18 21 55v21q0 39 -13 67l2 -2q-2 27 -28 27q-16 0 -25 -13q0 -2 -2 -2q-27 -37 -76 -71l19 18 q20 20 20 58v20q0 39 -12 68l2 -2q-2 27 -29 26q-16 0 -26 -16v2q-37 -49 -105 -88q-63 -35 -90 -35h-22q2 6 6 22q25 106 64.5 241.5t92.5 303.5v-2q27 68 41 82q96 127 144 264q14 41 14 82q0 125 -108 148q-25 94 -111 104h-14q-133 0 -203 -186q-16 -41 -28.5 -76 t-22.5 -64v25q0 158 -123 211q-53 123 -201 123q-225 0 -430 -494q-45 -106 -88 -236t-86 -284l-55 -196q-16 -57 -26.5 -99.5t-18.5 -70.5q-45 -193 -45 -302zM0 -279q0 96 47 297l100 365q88 313 172 518q199 481 412 481q94 0 147.5 -56t53.5 -155q0 -117 -82 -329 q-66 -166 -205 -334q-115 -135 -203 -197q-20 -14 -20 -26q0 -14 33 -39q31 -23 53 -86q10 -29 29 -35q74 -23 147 -23q84 0 182 99q8 172 99 491q72 258 159 484q70 184 197 174q43 -4 70.5 -40t27.5 -89q0 -129 -153 -334q-16 -18 -43 -86q-111 -336 -160 -547 q-14 -57 -14 -78q0 -29 14 -43q29 -29 139 -29q35 0 101 37q78 47 112 97q10 12 17 -7q14 -32 10 -79q-4 -35 -15 -46q-84 -84 -200 -106q-29 -4 -59.5 -6t-63.5 -2q-170 0 -219 90q-61 -55 -154.5 -77.5t-177.5 -6.5q-20 2 -25 -14q-4 -41 -13 -79t-21 -73 q-102 -301 -320 -301q-39 0 -72 8q-102 23 -102 182zM188 -270q0 -39 29 -45q59 -16 133 182q31 82 31 137q0 20 -23.5 41t-46.5 37q-6 6 -12 6q-10 0 -20 -29q-4 -14 -16.5 -53t-31.5 -104q-43 -158 -43 -172zM381 446q0 -2 4 -6q6 0 29 25q139 164 270 434q86 174 86 256 q0 56 -43 62q-70 8 -149 -213l-185 -515q-12 -35 -12 -43zM545 182l12 11q92 61 207 200q94 115 160 238q-70 -256 -78 -422q-90 -86 -162 -86q-47 0 -86 6q-10 10 -17.5 19.5t-13.5 13.5q-20 14 -22 20z" />
<glyph horiz-adv-x="1546" d="M-18 211q0 -127 120 -193q61 -127 312 -149q14 -2 24 -2h21q98 0 200 39q111 41 166 102h2q6 0 11 -4q182 -133 379 -133q182 0 301 119q20 18 20 55v21q0 39 -12 67l2 -2q-2 27 -29 27q-18 0 -26 -15q-27 -39 -76 -71l18 18q20 20 21 57v21q0 39 -13 68l2 -3 q-2 27 -28 27q-16 0 -25 -12q0 -2 -2 -2l2 2q0 -2 -2 -2q-29 -41 -88 -80q-61 -41 -106 -43h-17q-113 0 -198 41q57 92 116 278q43 8 75 15.5t54 11.5q74 14 86 94v-2q2 6 2 31q0 74 -57 74h-6q-4 -2 -8 -2q-10 -2 -18.5 -3.5t-16.5 -3.5q0 2 2 5v4v-2q2 6 2 30q0 33 -12 51 q244 72 333 236q33 57 33 119q0 123 -116 182q-49 117 -181 117q-70 0 -140.5 -37t-113.5 -90q-102 -133 -135 -238l-4 -6q-2 0 -39 12q-6 18 -6 17q-12 25 -43 28h-4q-4 0 -16 -4q-14 12 -17 23l-12 31v-2q0 4 -4 14t-6 12q-12 25 -43 29h-4q-35 0 -58.5 -40t-23.5 -91 q0 -100 114 -166q23 -53 90 -94l-34 -111q-41 -8 -67 -12t-40 -4q-68 -8 -86 -97q-4 -25 -7 -40t-3 -23q0 -45 39 -45q4 0 20 4l56 10q-2 -2 -3 -8q-10 -51 -10 -63v-7q-4 -8 -7 -13t-5 -9v-2q-43 29 -127 61h2q-104 41 -207 41h-26q-102 0 -199 -76q-98 -74 -98 -186v-6z M0 211q-4 102 90 176q84 66 191 72q102 6 223 -39q100 -37 127 -64q4 -4 8 -4q8 0 18 19q12 20 56 141q-88 -18 -113 -25q-4 -2 -14 -2q-18 0 -19 25q0 4 3 19.5t8 39.5q14 74 67 80q12 0 43 5t78 16l55 170q10 29 -20 34q-76 14 -133 60q-68 51 -68 123q0 45 17.5 78.5 t46.5 31.5q20 -2 28 -20q8 -16 12.5 -28.5t8.5 -22.5q16 -41 118 -82q41 -16 50 14q35 109 131 232q39 51 105.5 84.5t131.5 33.5q76 0 125 -49t49 -127q0 -53 -30 -108q-90 -164 -336 -228q-16 -4 -29 -45q-6 -27 -12 -51.5t-10 -48.5q68 14 116 24q31 6 42 -16t5 -61 q-8 -63 -69 -76l-142 -29q-35 -111 -68.5 -187.5t-62.5 -123.5q-12 -23 0 -31q160 -127 349 -119q51 4 118 48q59 39 95 86q10 12 16 -7q14 -33 10 -79q-4 -35 -14 -46q-115 -111 -287 -110q-193 0 -366 129q-25 18 -41 0q-68 -74 -183 -109q-111 -31 -211 -22 q-305 23 -313 219zM129 217q0 -111 180 -119q57 -4 141 31t119 78q18 20 -8 39q-29 20 -51.5 32.5t-38.5 20.5q-70 31 -166 35q-176 4 -176 -117zM252 125q8 86 147 86h9q50 0 116 -18q-104 -74 -205 -74h-8q-10 0 -59 6zM1079 1047q-4 -18 4 -27q10 -6 31 2q39 16 74 36.5 t63 47.5q76 63 76 133q0 61 -61 61q-57 0 -119 -96q-53 -84 -68 -157zM1225 1266q18 12 32 14q-14 -4 -21 -8t-11 -6z" />
<glyph horiz-adv-x="784" d="M-18 516q0 -45 36 -45q8 0 21 4l55 10v-4q-2 -2 -2 -6q-10 -51 -10 -61q0 -25 8 -33q-25 -129 -24 -209q0 -121 94 -172q8 -2 12 -4l8 -4q51 -123 246 -123q215 0 338 123q20 18 20 55v21q0 39 -12 67l2 -2q-2 27 -29 27q-18 0 -26 -15q-27 -39 -76 -71l19 18 q20 20 20 58v20q0 39 -12 68l2 -2q-2 27 -29 26q-16 0 -25 -12q0 -2 -2 -2q-37 -49 -104 -88q-63 -35 -90 -35h-23q31 106 52.5 186t35.5 133q53 10 90 17.5t60 11.5q78 18 86 94q2 6 2 31q0 74 -59 74q-20 0 -33 -6l2 2q-12 -4 -17 -4q2 4 3.5 8t1.5 28q0 45 -25 64 q2 2 3 4t3 4q96 127 144 264q14 41 14 82q0 125 -109 148q-25 94 -110 104h-15q-131 0 -204 -188q-72 -188 -160 -492q-35 -6 -57.5 -10t-32.5 -6q-63 -2 -82 -96q-4 -25 -7 -40.5t-3 -21.5zM0 516q0 4 3 18.5t7 38.5q14 76 66 80q10 2 35.5 6.5t70.5 14.5q16 59 32.5 120.5 t33.5 123.5q55 188 117 296q82 143 176 136q43 -4 70.5 -40t27.5 -89q0 -129 -154 -334q-16 -18 -43 -86l-24 -78q51 10 84 17.5t49 11.5q33 6 44 -15.5t5 -62.5q-10 -61 -92 -86q-35 -4 -70 -10.5t-69 -12.5q-61 -199 -86 -311q-14 -59 -15 -80q0 -27 15 -41 q29 -29 139 -29q35 0 100 37q78 47 113 97q10 12 16 -7q14 -33 11 -79q-4 -35 -15 -46q-84 -84 -201 -106q-29 -4 -59.5 -6t-62.5 -2q-238 0 -238 180q0 115 55 346q-92 -18 -110 -24q-2 -2 -13 -2q-18 0 -18 24z" />
<glyph horiz-adv-x="1476" d="M-18 -270v-11q0 -96 110 -159q35 -84 184 -140q49 -16 107 -16q285 0 526 254q109 115 138 192q2 18 43 19q45 0 83.5 3t71.5 7q119 18 211 111q21 18 21 55v21q0 39 -13 67l2 -2q-2 27 -28 27q-16 0 -27 -17v2q-27 -37 -76 -71l19 18q20 20 20 57v21q0 39 -12 68l2 -3 q-2 27 -29 27q-16 0 -24 -12q0 -2 -2 -2l2 2q0 -2 -2 -2q-55 -82 -172 -121v10q0 180 -127 326v-2q-12 12 -13 18q311 158 312 445q0 137 -86 229q-29 31 -68 57q-10 16 -19.5 26.5t-15.5 18.5q-115 123 -303 123q-127 0 -233 -53q-121 -59 -162 -170v2q-20 -49 -21 -96 q0 -119 105 -133q12 -102 115 -103h12q72 0 72 56q0 25 -21 43q2 2 2 4q0 16 2 26q6 41 21 56q70 74 157 73q23 0 74 -10q6 -29 6 -57q0 -31 -12 -74q-29 -96 -96 -168l6 2q-14 -8 -39 -27.5t-62 -48.5q-16 -16 -32 -16q-2 0 -15 4q-49 12 -112 12q-178 0 -178 -131v-12 q0 -84 102 -96v-6q0 -98 139 -99q51 0 113 13q2 -8 2 -39q0 -117 -33 -181q-12 -23 -39 -22q-221 0 -393 -68q-295 -115 -313 -317q0 -6 -2 -10zM2 -262q20 193 303 301q172 66 385 65q31 0 49 21q43 51 43 203q0 82 -22 143q-16 41 -64 29q-45 -10 -81.5 -16.5t-69.5 -6.5 q-127 0 -119 88q8 113 158 113q61 0 110 -14q31 -8 64 18q41 33 63.5 52.5t30.5 23.5q115 121 115 256q0 147 -117 178q-47 12 -86 12q-96 0 -172 -80q-20 -20 -27 -65q-4 -23 -1 -34t6 -17.5t7.5 -12.5t4.5 -14q0 -39 -62 -35q-98 6 -98 113q0 39 18 88q39 104 154 160 q100 49 223 49q27 0 50.5 -3t45.5 -7q123 -29 198 -113t75 -209q0 -16 -1 -30.5t-3 -28.5q-35 -236 -295 -367q-27 -14 4 -49q123 -139 123 -311q0 -18 -5 -52t-5 -51q0 -23 24 -29q20 -4 86 -4q35 0 100 37q78 47 113 97q10 12 16 -7q15 -32 11 -79q-4 -35 -15 -46 q-86 -86 -200 -104q-33 -4 -70 -6t-82 -2q-53 0 -61 -33q-23 -68 -133 -184q-236 -248 -512 -248q-63 0 -101 14q-190 68 -178 197zM164 -262q0 -80 94 -80q123 0 297 170q104 100 104 145q0 18 -45 13q-45 -4 -79.5 -10.5t-63.5 -12.5q-121 -25 -180 -65 q-127 -90 -127 -160zM303 -317q27 45 103 96h-3q20 14 51 27.5t72 23.5q-129 -129 -223 -147zM553 1821q0 -14 18 -35q92 -115 117 -240h70q10 -25 18 -50.5t15 -51.5h190q127 150 248 233q33 20 33 39q0 37 -64 37q-76 0 -178 -59q61 55 106 86q33 20 33 39q0 37 -63 36 q-125 0 -293 -141q-143 143 -211 144q-39 0 -39 -37zM573 1821q0 16 19 16q66 0 211 -151q174 150 293 149q43 0 43 -16q-4 -8 -25 -23q-131 -94 -246 -229h-163q-20 111 -117 231q-13 15 -15 23z" />
<glyph horiz-adv-x="1103" d="M-18 -274q0 -113 116 -183h2q33 -63 101 -102q53 -33 141 -33q168 0 281 137q111 129 110 299v21q0 2 -2 2h23q207 0 329 123q21 18 21 55v21q0 39 -12 67l2 -2q-2 27 -29 27q-10 0 -49 -35q-45 -45 -51 -47q4 2 16 14q20 20 20 57v21q0 39 -12 68l2 -3q-2 27 -28 27 q-18 0 -27 -14q-35 -47 -98 -84q-72 -41 -197 -41h-23q63 20 113 67q98 88 107 205q2 12 2 27v33q0 178 -133 249q-53 102 -195 136q-29 6 -51 6q-78 0 -132.5 -48t-54.5 -114q0 -78 58 -78q25 8 36 13.5t17 9.5q-8 -18 -8 -47q0 -78 57 -78q25 8 40 15t26 9q-2 -4 -4 -14 t-7 -25h3q-23 -63 -121 -108q-78 -37 -125 -37h-15q-63 0 -77 -61q-2 -14 -3 -24.5t-1 -14.5q0 -18 10 -29.5t25.5 -18t34 -10.5t36.5 -8q-2 -12 -3 -21.5t-1 -15.5q0 -41 31 -47q25 -4 32 -6q-47 -14 -74.5 -24.5t-37.5 -16.5h2q-125 -57 -185 -170q-39 -78 -38 -149z M0 -274q0 66 39 141q53 102 174 160q14 8 52 20t102 33q20 6 20 14t-18 31q-66 76 -185 90q-23 4 -10 59q10 39 78 54q53 10 85 19t42 13q109 53 131 121q10 35 10 56q0 55 -55 96q-29 18 -57 18q-18 0 -45 -13t-31 -13q-37 0 -37 57t49 99t117 42q18 0 47 -6 q209 -47 209 -262v-31q0 -14 -2 -26q-8 -109 -101 -191q-66 -55 -137 -74q-20 -6 -6 -20l29.5 -29.5t23.5 -21.5q4 -4 12.5 -16.5t20.5 -28.5q4 -6 14 -11q18 -4 59.5 -5t104.5 3q127 10 219 132q10 12 17 -7q14 -32 10 -79q-4 -35 -14 -46q-137 -133 -349 -112 q-10 0 -10 -6q0 8 0 2t2 -25q8 -164 -98 -295q-113 -137 -272 -137q-80 0 -131 31q-109 66 -109 164zM139 -250q0 -31 21.5 -52.5t54.5 -21.5q53 0 113 60q74 78 80 211q0 16 -7 20q-10 6 -49 -2q-90 -18 -168 -110q-45 -53 -45 -105zM233 1350q0 -14 19 -35 q92 -115 117 -240h69q10 -25 18.5 -50.5t14.5 -51.5h191q127 150 247 233q33 20 33 39q0 37 -63 37q-76 0 -179 -59q61 55 107 86q33 20 33 39q0 37 -64 36q-125 0 -293 -141q-143 143 -211 143q-39 1 -39 -36zM254 1350q0 16 18 16q66 0 211 -152q174 150 293 150 q43 0 43 -16q-4 -8 -24 -23q-131 -94 -246 -229h-164q-20 111 -117 231q-12 15 -14 23zM303 -260q8 10 14.5 17.5t10.5 11.5q-4 -8 -12.5 -14.5t-12.5 -14.5z" />
<glyph unicode=" "  horiz-adv-x="1024" />
<glyph unicode="&#x09;" horiz-adv-x="1024" />
<glyph unicode="&#xa0;" horiz-adv-x="1024" />
<glyph unicode="!" horiz-adv-x="778" d="M-18 84q0 -98 100 -111q6 -96 111 -104q6 0 12 -2h12q129 -1 158 108q8 25 8 62q0 115 -104 131q-16 94 -117 104q-8 0 -15 2h-14q-113 0 -145 -141q-6 -23 -6 -49zM0 84q0 23 6 45q23 78 56.5 103.5t97.5 19.5q100 -8 100 -113q0 -32 -8 -57q-14 -49 -59.5 -72.5 t-100.5 -17.5q-92 8 -92 92zM152 446q0 -80 104 -79v-7v-8q-2 -4 -2 -8q0 -80 123 -80q43 0 59 29q20 35 170 403q137 338 166 418l2 2q4 20 4 31q0 76 -96 110q-2 0 -2 3h-4q-6 66 -96 100q-68 23 -101 22q-70 0 -88 -57l-123 -438q-57 -199 -84.5 -303.5t-29.5 -120.5v-8 q-2 -4 -2 -9zM174 461l115 420q59 215 90 324.5t33 113.5q14 43 67 43q39 0 94 -21q82 -27 82 -92q0 -6 -4 -26l-166 -416q-78 -193 -119.5 -292t-46.5 -109q-20 -31 -102 -11q-51 14 -43 66z" />
<glyph unicode="&#x22;" horiz-adv-x="860" d="M-18 1026q0 -31 26.5 -54.5t57.5 -23.5q10 0 22 4q-6 -16 -6 -28q0 -31 27.5 -54.5t58.5 -23.5q23 0 55 20q86 53 142 140q18 -57 81 -58q10 0 23 4q-6 -16 -6 -28q0 -31 27.5 -54.5t58.5 -23.5q23 0 55 20q100 63 184 209q72 127 72 211q0 10 -1 21.5t-3 21.5 q-8 45 -70 45h-14q-6 -2 -14 -2v17q0 10 -1 21t-3 22q-8 45 -70 45q-84 0 -147 -41q-31 -20 -33 -54q-16 -111 -33 -155q8 25 8 59q0 10 -1 21.5t-3 21.5q-8 45 -69 45h-15q-6 -2 -14 -2v17q0 10 -1 21t-3 22q-8 45 -70 45q-84 0 -147 -41q-31 -20 -33 -54q-8 -59 -16.5 -99 t-18.5 -62q-55 -115 -86 -146q-20 -20 -20 -49zM0 1026q0 18 16 35q31 31 90 151q23 47 37 168q6 54 119 72q53 8 73.5 -3t20.5 -60q0 -80 -69 -201q-80 -137 -176 -203q-27 -16 -45 -16q-25 0 -45.5 17.5t-20.5 39.5zM381 1026q0 18 16 35q31 31 90 151q23 47 37 168 q6 54 119 72q53 8 73.5 -3t20.5 -60q0 -80 -69 -201q-80 -137 -176 -203q-27 -16 -46 -16q-25 0 -45 17.5t-20 39.5z" />
<glyph unicode="#" horiz-adv-x="935" d="M-18 330h106l-6 -103h41l-37 -245h117l-15 -103h164l47 348h39l-35 -245h117l-14 -103h162l47 348h170l2 148h-105l2 102h-32l12 90h170l2 148h-105l3 102h-35l37 250h-117l14 102h-164l-47 -352h-39l37 250h-117l15 102h-164l-49 -352h-174l-2 -147h102v-103h39l-12 -90 h-166zM2 350l6 107h168l33 233h-160l2 107h172l49 352h121l-49 -352h197l47 352h121l-50 -352h154l-2 -107h-166l-33 -233h152l-2 -107h-166l-49 -350h-119l49 350h-196l-50 -350h-120l51 350h-160zM295 457h197l32 233h-196zM434 477l12 90h39l-12 -90h-39z" />
<glyph unicode="$" horiz-adv-x="1193" d="M-18 119q0 -76 100 -115q10 -78 133 -110q-35 -109 -35 -103q0 -47 56 -49q4 0 10 -2h10q33 0 51 18q-8 -16 -11 -26.5t-5 -12.5q-8 -10 -8 -30q0 -47 55 -49q4 0 10 -2h10q47 0 64 34v-2q20 53 36.5 98.5t28.5 84.5v-3q4 14 7 17h6q8 0 27.5 -2t27.5 -2q88 0 203 43 q207 78 248 260q12 55 12 102q0 145 -98 262q-12 14 -36 37t-59 54l-2 4q0 2 -3 5t-10 11t-24 25v16q29 86 53.5 153.5t47.5 116.5q0 2 2 9q-14 0 22 -7v2q80 -27 127 -79q39 -49 66 -50q37 0 65 60q25 51 25 92q0 47 -33 80q-12 12 -74 55q-4 18 -24 43q-43 37 -92 68 q-8 33 -64 32h-4q-35 14 -45 15q2 2 6 16q2 20 6 27q0 41 -65 45q-6 0 -8 2h-9q-51 0 -67 -41q-4 -16 -27 -16q-98 0 -192 -43q-215 -98 -215 -336q0 -186 147 -299q10 -10 17.5 -14.5t13.5 -18.5q0 -8 -6 -27q-25 -72 -56.5 -158.5t-70.5 -189.5q-6 -14 -25 -14q-4 0 -6 2 h-6q-70 8 -164 53q-37 16 -59 16q-41 0 -68 -61q-23 -55 -22 -96zM0 119q0 39 20 82q20 55 52 55q23 0 51 -14q102 -47 170 -56q45 -6 57 25q33 86 64.5 172t62.5 178q8 23 8 35q0 16 -39 47q-139 109 -139 283q0 80 33 151q43 98 145 154q96 53 209 53q39 0 49 29 q8 31 62 26q45 -2 45 -24q0 -4 -7 -26.5t-5 -26.5q10 -4 26 -13q107 -34 185 -106q23 -23 22 -62q0 -35 -20 -77q-23 -53 -50 -54q-16 0 -43 33q-49 61 -143 94q-27 8 -33 6t-16 -20q-16 -35 -42 -103.5t-58 -168.5q-10 -35 14 -56q47 -41 76.5 -69.5t44.5 -44.5 q94 -113 94 -250q0 -47 -12 -99q-41 -178 -234 -247q-129 -47 -227 -37q-31 2 -37 0q-8 -2 -18 -27q-23 -61 -39.5 -106t-26.5 -74q-10 -25 -63 -19q-37 2 -37 29q0 6 6 23q6 12 33 86q27 68 26 77q0 20 -51 23q-139 12 -192 66q-23 23 -23 53zM453 197q-10 -31 43 -23 q143 20 184 135q10 31 10 56q0 78 -82 153q-12 12 -22 12q-12 0 -25 -30q-33 -92 -59.5 -167t-48.5 -136zM494 952q0 -37 47 -94q12 -14 22 -14q8 0 19 18q84 203 84 228q0 29 -54 12q-72 -18 -104 -92q-14 -27 -14 -58zM641 279q10 29 17.5 48t11.5 31q-2 -14 -4 -24 t-4 -19v2q-14 -33 -21 -38zM852 1274v2v-2zM889 961l2 2h2z" />
<glyph unicode="%" horiz-adv-x="1503" d="M-18 674q0 -188 122 -238q49 -121 213 -121q45 0 72 9q-238 -340 -237 -383q0 -18 8 -41t20.5 -41.5t29.5 -30.5t36 -12l10 2q2 -27 25 -58q35 -47 67 -47q31 0 80 76q27 41 43 70q100 168 283 417v-24q0 -188 125 -238q49 -119 213 -118q170 0 297 163q115 152 114 320 q0 186 -125 237q-53 121 -215 121q-29 0 -55 -6q18 23 31.5 39t23.5 27q119 150 119 180q0 35 -45 86v-2q-49 55 -70 57q-8 14 -16 25.5t-16 21.5v-2q-45 57 -74 58q2 0 -166 -99q-86 -47 -147.5 -75.5t-100.5 -36.5q-14 12 -47 26q-53 123 -211 123q-170 0 -295 -166 q-113 -150 -112 -319zM0 674q0 164 111 309q118 156 278 156q172 0 209 -158q100 8 217 68q90 45 166 100q70 51 80 51q16 0 57 -49q41 -51 41 -72q0 -23 -115 -168q-51 -61 -87.5 -107t-61.5 -75q-186 -233 -321.5 -421.5t-223.5 -336.5q-16 -27 -26.5 -45t-18.5 -32 q-33 -57 -59 -58q-25 0 -49.5 39t-24.5 66q0 55 369 557q70 96 144.5 189t154.5 185l118 138l-4 4l-84 -45q-166 -88 -266 -90q-10 -158 -117 -293q-117 -147 -272 -148q-215 0 -215 236zM139 686q0 -125 90 -125q100 0 174 123q63 106 62 215q-33 18 -33 59q0 18 17 23 q-23 35 -72 35q-96 0 -172 -119q-66 -109 -66 -211zM262 584q0 100 64 200q53 84 116 103h2q0 -84 -51 -178q-55 -104 -131 -125zM774 252q0 164 111 309q118 156 278 156q217 0 217 -236q0 -166 -110 -309q-119 -156 -281 -156q-215 0 -215 236zM913 264q0 -125 91 -125 q98 0 172 119q66 106 65 211q0 125 -90 125q-96 0 -172 -119q-66 -109 -66 -211zM1036 164q0 86 51 180q59 102 134 123q-1 -97 -64 -199h2q-59 -90 -123 -104z" />
<glyph unicode="&#x26;" horiz-adv-x="1456" d="M-18 272q0 -168 129 -235q78 -133 309 -160q51 -6 110 -6q260 0 467 154q129 98 185 215q16 35 41 34h61h35q10 -2 14 -2h8q49 0 82 39t33 90q0 61 -61 62h-47q6 18 6 41q0 61 -62 61h-67h-97q-53 0 -122 2q-68 2 -115 2h-76h-2q2 2 2 4q12 33 12 50q0 43 -55 59 q-31 8 -49 25q2 4 2 18q0 31 -29 49q0 45 31 117q35 82 106.5 133t157.5 51q14 0 64 -14v2q33 -12 47 -12q63 0 63 100q0 84 -55 106q-12 4 -24.5 8.5t-24.5 8.5q-6 63 -53 86q-72 31 -148 31q-55 0 -125 -17q-109 -29 -209 -104q-111 -84 -164 -205q-29 -70 -28 -141 q0 -125 67 -176q0 -2 2 -3v-2q-63 -10 -120.5 -35.5t-110.5 -64.5q-190 -141 -190 -371zM0 272q0 12 1 25.5t3 28.5q29 188 180 301q106 76 228 98q27 2 26 12q0 8 -24 27q-59 47 -60 160q0 72 27 133q41 104 147 188q100 82 213 109q33 8 61.5 12t57.5 4q66 0 139 -29 q43 -18 43 -88q0 -80 -43 -79q-8 0 -51 12q-41 12 -59 12q-78 0 -156 -47q-68 -41 -112 -121q-47 -82 -48 -156q0 -82 91 -110q41 -12 41 -39q0 -10 -11 -41q-14 -45 -84 -45q-123 0 -217 -72.5t-131 -191.5q-10 -37 -10 -66q0 -121 160 -147q33 -6 69 -6q141 0 275 96 q86 63 121 119q8 10 8 20t-31 10h-125q-29 -4 -29 19q0 14 23 65q33 70 92 64q135 0 254 -1t223 -3q41 0 41 -41q0 -43 -26.5 -76t-67.5 -33h-6t-14 2h-35h-64q-37 0 -59 -47q-53 -113 -178 -207q-199 -150 -455 -149q-57 0 -109 6q-319 33 -319 272zM375 190v17q0 23 10 59 q35 113 123 181.5t205 68.5h4q-37 -74 -37 -96q0 -39 43 -39h78q-18 -47 -19 -64q0 -14 2 -16q-14 -10 -24 -19.5t-17 -13.5q-127 -92 -262 -92q-66 0 -106 14z" />
<glyph unicode="'" horiz-adv-x="479" d="M-18 1026q0 -31 26.5 -54.5t57.5 -23.5q10 0 22 4q-6 -16 -6 -28q0 -31 27.5 -54.5t58.5 -23.5q23 0 55 20q100 63 185 209q72 127 71 211q0 10 -1 21.5t-3 21.5q-8 45 -69 45h-15q-6 -2 -14 -2v17q0 10 -1 21t-3 22q-8 45 -70 45q-84 0 -147 -41q-31 -20 -33 -54 q-8 -59 -16.5 -99t-18.5 -62q-55 -115 -86 -146q-20 -20 -20 -49zM0 1026q0 18 16 35q31 31 90 151q23 47 37 168q6 54 119 72q53 8 73.5 -3t20.5 -60q0 -80 -69 -201q-80 -137 -176 -203q-27 -16 -45 -16q-25 0 -45.5 17.5t-20.5 39.5z" />
<glyph unicode="(" horiz-adv-x="970" d="M-18 207q0 -313 165 -561q29 -41 66 -43q53 -102 109 -103q18 0 37.5 9.5t37 23.5t27.5 32.5t10 37.5q0 23 -16 51q-125 199 -125 477q0 168 51 330q96 315 295 514q137 141 295 209q37 14 37 55q-1 24 -15 55q-20 70 -59 70q-14 0 -31 -8q-6 23 -12 41q-20 70 -59 69 q-14 0 -33 -8v2q-197 -59 -387 -262q-182 -195 -289 -459q-104 -268 -104 -532zM0 207q0 231 88 481t260 453q199 231 420 299q20 6 27 6q23 0 41 -55q12 -35 12 -50q0 -29 -25 -36q-158 -70 -301 -213q-207 -207 -301 -523q-51 -166 -51 -336q0 -283 129 -487 q12 -23 12 -41q0 -29 -30.5 -55.5t-61.5 -26.5t-55 35q-164 244 -164 549z" />
<glyph unicode=")" horiz-adv-x="923" d="M-18 -274q0 -35 20 -68q25 -39 55 -39q2 0 8.5 1t16.5 3q0 -33 22 -67q25 -39 56 -39q4 0 24 4q141 39 338 229q232 225 334 551q68 217 68 426q0 338 -179 600v-2q-23 35 -59 35q-14 23 -24.5 41t-18.5 29v-3q-23 35 -59 35q-33 0 -74 -35q-39 -33 -39 -65q0 -25 21 -51 q43 -57 77 -156q53 -160 54 -321q0 -197 -70 -392q-92 -260 -250 -430q-96 -102 -274 -211q-47 -31 -47 -75zM0 -274q0 33 39 57q90 53 158.5 108.5t119.5 108.5q158 168 254 436q72 205 72 398q0 170 -55 327q-37 102 -80 162q-16 23 -16 39q0 12 9 26.5t23.5 25.5 t30.5 19.5t29 8.5q27 0 43 -25q174 -254 174 -588q0 -202 -68 -419q-102 -328 -327 -543q-160 -154 -316 -219q-16 -8 -33 -8q-23 0 -40 30.5t-17 55.5z" />
<glyph unicode="*" horiz-adv-x="825" d="M-18 1149l133 -43l-33 -59l78 -25l-137 -119l104 -100l-2 -2l147 -139l121 159l35 -82l49 23l53 -125l183 86l-148 213l260 33l-37 196l-77 -28l-25 131l-98 -35l33 115h-132l29 102h-209l-18 -242l-213 123zM10 1161l76 142l223 -129l19 256h161l-75 -279l256 90 l28 -151l-270 -35l152 -221l-142 -68l-104 248l-166 -219l-115 106l209 180z" />
<glyph unicode="+" horiz-adv-x="851" d="M-18 285h100v-103h203v-200h102v-103h160v303h305v160h-102v102h-203v203h-103v103h-159v-306h-303v-159zM0 305v119h305v305h119v-305h305v-119h-305v-305h-119v305h-305z" />
<glyph unicode="," horiz-adv-x="479" d="M-18 -193q0 -31 26.5 -54t57.5 -23q2 0 22 4q-6 -12 -6 -29q0 -31 27.5 -54.5t58.5 -23.5q23 0 55 21q100 63 185 209q72 127 71 206q0 10 -1 21.5t-3 21.5q-8 45 -69 46h-15q-6 -2 -14 -2v16q0 10 -1 21.5t-3 21.5q-8 45 -70 45q-84 0 -147 -41q-31 -20 -33 -53 q-8 -59 -16.5 -99.5t-18.5 -60.5q-59 -117 -84 -141q-23 -27 -22 -52zM0 -193q0 18 16 35q31 31 90 152q20 43 37 164q6 53 119 71q53 8 73.5 -3t20.5 -60q0 -78 -69 -197q-84 -141 -176 -202q-27 -16 -45 -17q-25 0 -45.5 17.5t-20.5 39.5z" />
<glyph unicode="-" horiz-adv-x="755" d="M-18 418q0 -39 41 -39h8h10q8 0 20 2h41q-20 -41 -20 -66q0 -39 43 -39h8h17q12 0 28 3h60h96q43 0 71.5 -2.5t86.5 -2.5h149q49 0 82 37t33 88q0 61 -62 62h-47q6 18 6 41q0 61 -61 61h-74h-96q-53 0 -123 2t-117 2h-76h-8q-61 0 -94 -75q-23 -57 -22 -74zM0 418 q0 10 23 65q31 70 83 64q137 0 258 -1t228 -3q41 0 41 -41q0 -43 -26.5 -74t-67.5 -31h-148q-59 0 -88 2q-199 6 -274 0q-29 -4 -29 19z" />
<glyph unicode="." horiz-adv-x="391" d="M-18 74q0 -106 100 -115q6 -102 117 -102q102 -1 163 75q29 35 29 80q0 51 -29.5 89t-76.5 49q-25 106 -133 106q-72 0 -127 -61q-43 -53 -43 -121zM0 74q0 59 41 106q49 55 111 56q49 0 82.5 -35t33.5 -86q1 -39 -24 -70q-53 -66 -148 -65q-96 0 -96 94z" />
<glyph unicode="/" horiz-adv-x="913" d="M-18 -66h139l-39 -102h211l620 1565h-143l41 102h-223zM8 -45l594 1524h178l-604 -1524h-168z" />
<glyph unicode="0" horiz-adv-x="978" d="M-18 430q0 -180 63 -293q47 -84 115 -125q82 -117 219 -143q31 -6 59 -6q168 0 310 180q115 152 172 340q59 203 59 432q0 141 -31 227v2q-20 51 -67 52q-16 0 -21 -2q-4 16 -7 29.5t-7 21.5v2q-4 10 -8 17t-9 12q-8 57 -102 88v8q0 49 -65 80q-41 20 -84 20 q-37 0 -82 -18q-92 -37 -230 -199q-285 -340 -284 -725zM0 430q0 377 283 713q133 158 221 192q49 16 74 17q35 0 75 -19q53 -25 54 -61q0 -20 -23 -37q-117 -78 -225 -215q-250 -309 -250 -658q0 -219 123 -219q82 0 168 133q150 229 149 609q0 82 -6 153.5t100 128.5 q20 10 35 11q35 0 49 -39q29 -82 29 -221q0 -469 -227 -760q-135 -172 -293 -172q-25 0 -55 6q-147 29 -222 162q-59 113 -59 276zM332 260q0 111 41 258q59 207 205 387q20 23 32.5 38t16.5 22q2 -14 2 -35v-45q0 -379 -146 -598q-76 -117 -143 -123q-8 31 -8 96z" />
<glyph unicode="1" horiz-adv-x="712" d="M-18 49q0 -57 104 -76q-4 -12 -4 -24q0 -59 108 -78q12 -2 24.5 -3t23.5 -1q96 0 114 74q86 367 173 663.5t175 532.5v2q12 33 13 51q0 37 -31 64.5t-68 27.5h-4v10q0 37 -30.5 64.5t-67.5 27.5q-27 0 -78 -30q-123 -70 -214 -125t-150 -96h2q-35 -23 -35 -60 q0 -23 18 -59q29 -59 62 -60q10 0 22 4q4 -23 19 -47q29 -59 61 -59h8l-180 -573q-27 -90 -41 -138.5t-18 -58.5l2 2q-8 -14 -8 -35zM0 49q0 4 6 27l307 981q10 29 -4 28q-10 0 -24 -12q-78 -59 -148 -92q-16 -6 -20 -6q-20 0 -43 47q-16 37 -17 51q0 27 25 43 q57 39 147 93.5t215 125.5q53 29 68 29q31 0 54.5 -21.5t23.5 -50.5q0 -14 -10 -45l-172 -573q-152 -520 -179 -627q-14 -57 -94 -57q-10 0 -20.5 1t-22.5 3q-92 12 -92 55z" />
<glyph unicode="2" horiz-adv-x="1081" d="M-18 41q0 -66 75 -66h15h10q6 2 14 2q-14 -20 -14 -36q0 -68 78 -68h14q10 0 45 1t94 3q61 2 117 2h109q125 0 202.5 -2t110.5 -6q4 0 8 -2h8q33 0 51.5 24.5t32.5 71.5h-2q14 31 15 62q0 59 -64 71q-8 0 -18 2h-25q2 12 3 19.5t1 9.5q0 59 -63 72q-20 2 -46 3t-55 1h-51 q-23 0 -41 -2q72 66 119 111.5t70 68.5q286 299 286 473v27q0 178 -114 282q-16 12 -27.5 21.5t-19.5 15.5q-23 37 -56 66q-111 104 -301 104q-238 0 -237 -129v-10q0 -115 71 -115q14 0 31 6q0 -109 72 -108q18 0 35 8q57 25 102 25h12q27 0 64 -15q8 -31 8 -51v-6 q0 -23 -10 -59q-66 -217 -332 -484q-53 -41 -107.5 -88t-111.5 -98q-178 -158 -178 -207zM0 41q0 37 174 190q72 63 127 109.5t90 77.5q272 260 340 493q10 37 10 66q2 94 -75 153q-68 49 -131 41q-49 0 -111 -26q-16 -6 -27 -6q-55 0 -51 104q4 109 217 109q92 0 167 -27 t127 -78t78.5 -124t22.5 -165q-10 -176 -280 -458q-39 -41 -116 -113t-195 -176q-25 -23 -25 -31t35 -8l125 6q125 6 196 6q35 0 57.5 -1t37.5 -3q49 -10 49 -51q0 -20 -13 -57q-29 -88 -75 -78q-47 6 -318 6q-141 0 -232 -1t-132 -3q-72 -6 -72 45z" />
<glyph unicode="3" horiz-adv-x="960" d="M-18 129q0 -57 24 -88q18 -20 78 -49q6 -43 35 -62q53 -35 82 -47q20 -4 55 -10t84 -10q10 -2 22 -2h27q125 0 258 61q197 90 256 250q39 98 39 186q0 158 -156 269l-12 18q184 117 184 260v2q0 8 3 15v14q0 166 -152 270q-92 164 -350 164q6 0 -6 0q-10 0 -39 -2 q-57 -2 -82 -84q-10 -37 -10 -65q0 -78 69 -78q6 0 17.5 2t17.5 2q-2 -6 -2 -29q0 -78 70 -78h8q6 2 10 2q10 2 18 2h17q33 0 74 -10q2 -4 2 -18q0 -20 -2 -27q-10 -90 -103 -141q-72 -41 -141.5 -43t-69.5 -86v-10q0 -76 55 -89l-2 3q23 -8 50 -11v-6q0 -76 55 -88l-2 2 q29 -10 78 -12l30 -6q2 -14 3 -26.5t1 -22.5q0 -70 -30 -115q-96 -145 -248 -146q-104 0 -221 62q-14 8 -33 8q-47 0 -59 -90q-2 -10 -2 -41zM2 168q10 72 41 72q12 0 25 -7q119 -63 229 -63q164 0 264 156q35 53 35 125q0 133 -76 159q-53 12 -91 19.5t-62 9.5 q-35 8 -39 70q-4 70 49 73q96 4 170 56q86 59 94 147q20 180 -197 180q-29 0 -38 -2q-63 -8 -64 56q0 23 10 59q23 68 66 70q86 6 174 -15q61 -12 108.5 -44t79 -75t47 -96t9.5 -108q-12 -139 -179 -248q-20 -14 -22 -19q2 -2 5 -6t11 -8q168 -106 168 -268q0 -80 -37 -178 q-57 -156 -245 -242q-129 -57 -250 -57q-49 0 -95.5 6t-91.5 16q-14 8 -30.5 17.5t-36.5 21.5q-41 25 -31 123z" />
<glyph unicode="4" horiz-adv-x="956" d="M-18 401q0 -90 100 -90v-12q0 -82 96 -88q113 -6 131 -6q-2 -6 -7 -26.5t-15 -55.5q-16 -55 -17 -82v-12q0 -59 88 -60h19q-2 -10 -3 -17t-1 -11v-13q0 -61 88 -61q47 0 61 8v-2q31 10 43 53q31 98 53.5 169t36.5 114q2 8 7 12h4h8q2 2 8 2q106 6 178 19q47 10 78 98 q18 51 18 74q0 49 -49 49h-8q-20 -2 -34.5 -4t-24.5 -4q14 37 14 61q0 49 -49 49h-8q-2 0 -11 -2q47 98 84 176t66 138q8 23 8 30q0 41 -80 82q-8 4 -14 6t-10 4q2 6 2 11q0 41 -80 82q-39 20 -72 20q-16 0 -20 -2q23 39 42 67.5t35.5 51t16.5 41.5q0 39 -82 78h2l-25 12 q2 2 3 12q0 39 -82 78h2q-45 27 -97 27q-55 0 -79 -41h2q-141 -219 -269 -543q-49 -129 -86 -232.5t-59 -187.5q-12 -43 -12 -72zM0 401q0 23 12 66q29 98 65 202.5t81 215.5q131 330 266 540q20 31 61 31q37 0 86 -24q70 -33 70 -60q0 -14 -12 -29q-92 -127 -228 -423 q-106 -233 -149 -367q-8 -23 -8 -37q0 -16 39 -14q29 2 56.5 3t53.5 5q29 2 45 45q90 279 197 496q23 41 55 41q27 0 64 -19q68 -35 67 -63q0 -2 -4 -19q-82 -164 -130 -269.5t-64 -156.5q-8 -20 -5 -33q4 -4 25 -4q-16 0 21.5 4.5t134.5 12.5q35 4 35 -29q-1 -18 -17 -67 q-29 -78 -63 -84q-63 -10 -174 -19l-31 -4q-10 -4 -17 -25q-41 -129 -63.5 -199.5t-26.5 -86.5q-10 -31 -25.5 -36t-58.5 -5q-78 0 -67 49q23 147 67 254q6 14 7 24q0 16 -37 15q-37 -4 -99.5 -3t-150.5 5q-78 4 -78 67zM406 539q8 16 12 28.5t8 20.5q-18 -49 -20 -49z" />
<glyph unicode="5" horiz-adv-x="1142" d="M-18 111q0 -94 100 -121q6 -47 33 -68q82 -61 254 -61q190 0 323 73q166 90 226 287q27 88 26 176q0 195 -158 303q-55 86 -163 140q23 72 38 118t21 66t29 20h4q20 0 44.5 -1t55.5 -3t52.5 -3t31.5 -1q150 0 193 51q25 47 38 78t13 64q0 59 -51 59h-9q-6 -2 -10 -2 q-8 -2 -18.5 -4t-24.5 -4q10 35 10 53q0 59 -51 60h-8q-6 -2 -10 -2q-74 -16 -205 -19q-84 0 -215 12q-4 0 -10 2h-11q-70 0 -122 -145q-16 -51 -31 -100t-29 -101h2l-67.5 -211.5t-24.5 -74.5q-2 -12 -3 -19.5t-1 -11.5q0 2 0 -2t2 -12q12 -23 43 -23h18q6 2 21 2 q25 0 33 -2q-10 -37 -11 -35q-2 -12 -3 -19t-1 -12q0 2 0 -2t2 -12q12 -23 43 -22h19q6 2 20 2q55 0 129 -33q10 -37 11 -68q0 -31 -17 -90q-59 -201 -270 -200q-45 0 -84 12l2 -2q-4 2 -8 3t-8 3h2q-18 8 -37 15t-35 16q-55 23 -70 22q-57 0 -65 -80q-4 -27 -6 -44t-2 -27z M8 180q8 61 47 62q16 0 66 -23q29 -14 50.5 -22.5t31.5 -12.5q39 -12 90 -12q225 0 291 215q16 59 16 96q0 131 -125 189q-92 41 -162 33q-31 -4 -37 6q-4 10 3 37q23 78 45 148.5t45 135.5q14 51 28.5 100.5t28.5 98.5q51 141 123 131q96 -16 217 -12q131 2 209 18 q45 8 45 -37q0 -22 -12 -53q-29 -68 -35 -74q-23 -25 -60 -35q-68 -18 -299 -2q-47 2 -55 -37q-6 -27 -24.5 -82t-47.5 -143q-8 -18 -4 -31q4 -8 37 -16q301 -96 301 -358q0 -82 -26 -170q-96 -326 -480 -344q-207 -10 -290 53q-35 29 -17 141z" />
<glyph unicode="6" horiz-adv-x="905" d="M-18 360q0 -262 163 -360q90 -145 269 -145h8q180 0 311 131q113 113 160 276v2q12 49 12 113q0 119 -47 207q-41 74 -102 102q-66 127 -232 127h-2q43 70 92 141q111 154 213 232q31 20 31 49q0 35 -55 45q-20 2 -41 2q-20 0 -43 2q2 0 6 4q31 25 31 49q0 49 -158 49 q-133 0 -184 -49q-147 -137 -267 -376q-53 -111 -91 -219.5t-58 -219.5q-16 -88 -16 -162zM0 360q0 70 16 158q20 106 58.5 214t91.5 218q59 121 124.5 214t137.5 159q45 43 170 43q43 0 102 -6q35 -4 35 -23q0 -16 -22 -32q-111 -84 -224 -244q-51 -74 -92 -145.5 t-69 -143.5q-8 -18 -2 -24q4 -6 26 4q104 41 172 41q14 0 27.5 -1t28.5 -4q106 -16 157 -112q45 -82 45 -197q0 -213 -166 -379q-129 -127 -305 -123q-147 4 -229 106.5t-82 276.5zM203 336q0 -207 125 -207q84 0 151 96q58 78 76 174q10 57 10 90q0 156 -129 156 q-106 0 -164 -57q-70 -68 -69 -252zM326 233q0 55 8 103q14 90 49 128t121 54h6q12 2 19.5 3t9.5 1h4q0 -8 2 -16v-17q0 -29 -10 -86q-23 -109 -84 -182q-59 -70 -119 -71q-6 33 -6 83z" />
<glyph unicode="7" horiz-adv-x="952" d="M-18 86q0 -70 88 -102l12 -4q4 -61 90 -99q43 -18 84 -18q68 0 96 55q346 745 563 1129q37 63 37 102q0 53 -104 82q0 6 2 10v10q0 41 -41 60q-53 27 -143.5 42t-219.5 23q-35 2 -64.5 3t-53.5 1q-106 0 -199 -12q-72 -10 -88 -100q-6 -35 -6 -58q0 -61 71 -61 q6 0 17.5 2t17.5 2q-2 -10 -3 -20.5t-1 -24.5q0 -61 72 -61h10q6 2 12 2q68 6 138 6h39t53 -2q33 -2 55 -2h39q-248 -416 -386 -640.5t-167 -265.5v2q-20 -27 -20 -61zM0 86q0 23 18 47q20 29 170 272.5t426 702.5q14 23 15 35q0 10 -23 14q-70 14 -235 19q-86 2 -146.5 1 t-97.5 -6q-72 -10 -72 39q0 23 6 54q14 76 72 84q133 18 313 8q251 -17 355 -64q29 -12 28 -41q0 -29 -34 -92q-117 -209 -257.5 -489.5t-306.5 -642.5q-23 -41 -77 -41q-39 0 -76 14q-78 35 -78 86z" />
<glyph unicode="8" horiz-adv-x="1032" d="M-18 256q0 -166 137 -248q8 -10 15 -19t11 -16q74 -90 205 -104h6q20 -2 35 -3t25 -1q162 0 280.5 100.5t118.5 259.5q0 162 -96 330q-16 29 -17 37l15 14q94 84 135 137.5t41 106.5q0 27 -10 72q-20 82 -76 82q-6 0 -23 -5q0 29 -20 68q104 -41 133 -61h10q6 -2 11 -2 q35 0 81 47q33 33 33 71q0 35 -35 58h2q-20 14 -37.5 24t-31.5 19v2q0 35 -35 57h2q-121 88 -240 96q-27 2 -43 3t-26 1q-272 0 -371 -223q-29 -68 -29 -139q0 -125 86 -285v2q8 -18 9 -26q0 -2 -2 -4h2q-29 -20 -66 -52t-80 -80q-156 -168 -155 -319zM0 256q0 137 152 305 q82 88 141 129q20 14 0 55q-84 158 -84 275q0 72 27 131q88 211 352 211q160 0 297 -96q25 -18 24 -41q0 -31 -26 -58q-47 -47 -80 -39q-20 18 -150 66q-35 12 -71 12q-35 0 -65 -14t-51.5 -38t-34.5 -55.5t-13 -66.5q0 -90 47 -162q14 -23 43 0q102 84 174 201q8 14 23 14 q39 0 55 -65q10 -47 10 -68q0 -57 -63 -127q-10 -12 -38 -36.5t-69 -63.5q-20 -18 -20 -31q0 -14 20 -47q92 -160 92 -319q0 -152 -112.5 -246t-266.5 -94q-172 0 -254 98q-59 76 -59 170zM168 254q0 -55 42 -88t99 -33q66 0 119 47q63 57 64 156q0 90 -70 203 q-14 27 -37 10q-115 -88 -192 -215q-25 -41 -25 -80zM291 154q0 29 22 67q29 49 67 93t83 85q8 -27 8 -63q0 -22 -6 -49q-16 -59 -51 -92q-47 -41 -105 -41h-18zM541 932q0 55 35.5 98t87.5 51h2q-47 -59 -86 -104h2q-16 -18 -26.5 -29.5t-14.5 -15.5z" />
<glyph unicode="9" horiz-adv-x="915" d="M-18 805q0 -207 131 -268q49 -104 170 -123q39 -6 67 -6q-125 -186 -299 -318q-35 -29 -35 -53q0 -55 117 -64q-14 -14 -14 -36q0 -70 194 -70q92 0 129 31q139 137 258 329q150 242 197 471q18 88 18 172q0 252 -159 349q-84 137 -285 157q-10 2 -20 2h-21 q-180 0 -299 -147v2q-102 -119 -133 -281q-8 -41 -12 -76.5t-4 -70.5zM0 805q0 242 147 414q131 156 322 137q324 -31 324 -383q-1 -80 -19 -168q-45 -223 -194 -465q-123 -199 -254 -328q-27 -23 -115 -22q-174 0 -174 47q0 16 26 37q281 215 388 481q6 16 2 20 q-2 0 -29 -8q-96 -37 -170 -37q-33 0 -70 7q-184 31 -184 268zM211 817q0 -133 123 -133q10 0 22.5 1t26.5 3q88 16 125 53q72 76 72 244q0 88 -27 143q-35 80 -109 80q-156 0 -219 -278q-14 -57 -14 -113zM334 705v10q0 51 14 108q61 262 199 262q12 -43 12 -100 q0 -43 -10 -94q-20 -92 -49 -127q-35 -41 -121 -55h-4q-16 -2 -26.5 -3t-14.5 -1z" />
<glyph unicode=":" horiz-adv-x="583" d="M-18 92q0 -76 63 -112v2q16 -10 39 -17q8 -53 63 -88v2q33 -20 72 -20q97 -1 156 73q31 39 31 95q0 123 -107 141q-20 106 -133 106q-80 0 -141 -67q-43 -53 -43 -115zM0 92q0 53 41 101q55 61 125 61q117 0 117 -125q0 -51 -27 -84q-51 -63 -139 -63q-33 0 -62 16 q-55 33 -55 94zM154 682q0 -98 104 -129q8 -47 52 -78t93 -31q80 0 146 74h-2q37 43 37 107q0 74 -56 108q-23 14 -49 21q-18 106 -145 106q-80 0 -130 -53t-50 -125zM174 682q0 63 44 110.5t116 47.5q127 0 127 -113q0 -59 -31 -92q-59 -68 -129 -68q-49 0 -88 33t-39 82z " />
<glyph unicode=";" horiz-adv-x="681" d="M-18 -190q0 -33 36 -60q20 -18 54 -18h8q4 2 8 2q-6 -12 -6 -27q0 -33 39 -59q20 -18 53 -19q27 0 55 19h-2q119 76 199 217q68 119 68 198q0 8 -1 19.5t-4 26.5v2q-8 51 -81 51h-17v4q0 8 -1 19.5t-3 25.5v2q-8 51 -82 51q-82 0 -141 -41q-31 -23 -35 -59 q-4 -41 -12 -81t-23 -79q-33 -92 -94 -154q-18 -23 -18 -40zM0 -190q0 12 14 26q113 113 136 326q4 31 26 45q33 23 86 33q95 14 105 -31q2 -10 3 -21.5t1 -21.5q0 -98 -86 -223q-80 -117 -170 -176q-43 -29 -84 0q-31 20 -31 43zM262 678q0 -61 55 -105q25 -18 50 -24 q8 -45 50 -76t89 -31q84 0 145 78q31 39 31 107q0 109 -104 127q-14 106 -140 106q-80 0 -127 -53h2q-51 -57 -51 -129zM283 678q0 68 44 115t111 47q121 0 121 -111q0 -61 -27 -94q-55 -70 -129 -70q-47 0 -83.5 33t-36.5 80z" />
<glyph unicode="&#x3c;" horiz-adv-x="866" d="M-18 299l100 -45v-57l784 -344v159l-102 45v58l-395 176l497 221v164l-102 -45v147l-782 -348v-131zM0 311v107l743 330v-121l-589 -262l589 -263v-116z" />
<glyph unicode="=" horiz-adv-x="851" d="M-18 135h100v-102h770v160h-102v102h-768v-160zM-18 434h100v-102h770v160h-102v102h-768v-160zM0 156v118h729v-118h-729zM0 455v118h729v-118h-729z" />
<glyph unicode="&#x3e;" horiz-adv-x="866" d="M-18 -45l100 45v-147l784 344v131l-102 45v57l-782 348v-164l100 -47v-55l395 -176l-495 -221v-160zM0 -14v116l590 263l-590 262v121l743 -330v-107z" />
<glyph unicode="?" horiz-adv-x="821" d="M-18 100q0 -111 100 -123q12 -104 133 -104q35 0 66.5 13.5t56 36t40 52t15.5 64.5q0 106 -106 131q-23 109 -146 109q-106 0 -145 -107q-14 -37 -14 -72zM0 100q0 31 12 66q33 92 129 92q57 0 93 -31.5t36 -85.5q0 -61 -48 -103t-109 -42q-113 0 -113 104zM125 412 q0 -41 22 -52q29 -16 80 -16h2q-2 -10 -2 -35q0 -41 23 -51q29 -16 80 -16h14q49 0 70 57v-2q16 39 26.5 64.5t18.5 35.5h-2q20 33 58 78t91 104.5t91 105.5t59 81q65 108 65 229q0 176 -131 244q-41 86 -153 123v-2q-68 23 -131 22q-31 0 -63 -4t-59.5 -14t-47 -26.5 t-25.5 -41.5v2q-10 -37 -10 -81q0 -16 1 -29.5t3 -24.5q8 -45 49 -45q12 0 43 15q2 0 4 2h2v-21q0 -16 1 -29.5t3 -23.5q8 -45 49 -45q12 0 43 14q20 14 76 14v-2q0 -76 -106 -202q-213 -262 -240 -383q-2 -10 -3 -20.5t-1 -24.5zM150 453q20 111 235 374q111 135 111 215 q0 125 -119 125q-57 0 -96 -20q-14 -8 -27 -8q-23 0 -29 28q-12 57 6 125q10 35 60 51q57 18 115 19q63 0 124 -21q168 -50 168 -243q0 -117 -65 -226q-41 -68 -148 -182q-53 -57 -90 -102t-57 -78q-8 -12 -19.5 -38t-25.5 -64.5t-51 -42.5q-66 -4 -82 12q-23 16 -10 76z " />
<glyph unicode="@" horiz-adv-x="1548" d="M-18 735q0 -354 270 -590q223 -276 604 -276q199 0 368 98.5t279 278.5h-176q35 41 74 102h-10q158 176 157 414q0 276 -213 461q-12 8 -14 10q-16 23 -38.5 46t-49.5 46q-205 174 -490 174q-319 0 -540 -223q-221 -221 -221 -541zM0 735q0 309 217 526.5t526 217.5 q279 0 476 -166q207 -176 206 -449q0 -254 -178 -428q-152 -147 -301 -147q-115 0 -121 121h-4q-109 -121 -229 -121q-131 0 -213 98q-84 100 -84 229q0 207 123 365q131 166 323 166q160 0 228 -146l39 117h143l-147 -540q-16 -61 -17 -95q0 -49 37 -49q117 0 197 152 q68 125 67 254q0 231 -162 374q-152 133 -383 134q-262 0 -424 -181q-164 -180 -163 -440q0 -262 170 -436q172 -172 436 -172q281 0 459 209h143q-98 -162 -258 -249t-352 -87q-319 0 -536.5 211t-217.5 532zM285 520q23 -86 80 -149q16 -20 34.5 -34.5t34.5 -25.5 q12 -18 33 -43q96 -102 227 -102q113 0 217 98q12 -66 68 -86q-96 -39 -217 -39q-217 0 -367 119q-90 115 -110 262zM295 782q35 152 143 271q160 172 408 172q178 0 311 -86h-164l-28 -88q-79 116 -224 116q-203 0 -340 -174q-74 -92 -106 -211zM469 635q0 -82 46 -134 t118 -52q117 0 203 129q76 113 75 237q0 37 -13 70t-34.5 57.5t-51.5 38.5t-62 14q-119 0 -205 -123q-76 -113 -76 -237zM592 532q0 119 70 222q80 119 190 118q4 0 12 -1t19 -3q8 -31 8 -53q0 -115 -72 -223q-77 -123 -186 -123q-27 0 -33 2q-8 23 -8 61zM1137 506l120 442 q4 -29 7.5 -55t3.5 -53q0 -147 -80 -271q-23 -35 -51 -63zM1151 1036l25 90q8 0 8 -6q29 -45 47 -84h-80z" />
<glyph unicode="A" horiz-adv-x="1402" d="M82 18q16 -14 29 -16q31 -63 100.5 -100t144.5 -37q164 0 353 170q10 8 14 12l6 6q8 -12 10 -14q27 -33 84 -45q0 -35 19 -55q59 -66 237 -66q57 0 92 6q123 23 211 111q21 18 21 55v21q0 39 -12 67l2 -2q-2 27 -29 27q-16 0 -25 -13q0 -2 -2 -2l2 2q0 -2 -2 -2 q-27 -35 -73 -69q12 10 16 16q20 20 20 57v21q0 39 -12 68l2 -3q-2 27 -28 27q-16 0 -27 -16v2q-39 -51 -105 -88q-43 -23 -67 -29q4 37 23.5 97.5t52.5 146.5q4 12 27.5 71.5t68.5 167.5q47 121 81 199t52 115q14 27 14 51q0 63 -82 76h3q-6 0 -13 2h-14q4 20 4 24t-4 25 q82 8 82 53q0 31 -39 70q-35 39 -68 45q-4 10 -11 22.5t-17 28.5q-41 55 -103 55q-211 0 -473 -161q-233 -143 -383 -328q-282 -349 -282 -635q0 -166 100 -236zM0 252q0 279 281 625q72 90 166 169.5t210 151.5q260 160 463 160q53 0 84 -45q31 -43 31 -53q0 -27 -82 -35 q-313 -33 -684 -451q-39 -45 -77 -100.5t-75 -122.5q-92 -170 -92 -270q0 -94 80 -121q18 -8 45 -8q168 0 441 419q51 78 119.5 206t160.5 308q27 51 92 52h15q8 0 18 -2q63 -8 64 -56q0 -16 -13 -43q-23 -47 -55.5 -124.5t-77.5 -188.5q-59 -147 -99 -256t-63 -180 q-20 -63 -20 -111q0 -41 26 -55q18 -12 70 -15h9q51 0 116 39q61 37 100 91q10 12 17 -7q11 -25 11 -59q0 -10 -1 -20q-4 -35 -14 -46q-82 -82 -201 -104q-16 -2 -38.5 -3t-49.5 -1q-170 0 -221 57q-14 14 -15 58q0 106 76 278q10 23 -4 23q-6 0 -14 -13q-74 -125 -207 -247 q-182 -164 -338 -164q-84 0 -160 47q-94 63 -94 217zM348 172v6q0 90 90 260q33 59 71 114.5t79 104.5h-2q231 258 428 363q-154 -309 -240 -438q-268 -410 -424 -410h-2z" />
<glyph unicode="B" horiz-adv-x="1468" d="M86 -76q4 -4 8 -5t8 -3q23 -53 72 -86t107 -33q72 0 155 53l-2 -2q63 39 86 74q6 10 19 10q12 0 28 -6q147 -57 252 -57h21q98 0 219 65q196 103 196 326v2q0 166 -104 301l2 2q2 0 4 2q70 41 120 76t79 64q113 106 112 274q0 201 -135 268q-53 113 -203 133h3 q-6 2 -31 2q-63 0 -135 -26q-33 -12 -56.5 -21.5t-40.5 -15.5h-2q4 0 4 10q0 45 -53 45t-108 -24q-74 -35 -82 -82q-2 -10 -2 -17q0 -6 -2 -10q-12 -102 -39 -121q-70 -47 -238 -252q-366 -443 -366 -745q0 -139 104 -201zM0 123q0 297 365 735q160 190 233 248q33 23 41 74 q2 23 4 43t6 41q6 43 70 69q55 23 100 23q33 0 33 -25q0 -37 27 -28q33 12 56 21t40 15q73 25 127 25q14 0 26 -2q218 -27 218 -279q0 -160 -107 -260q-63 -59 -192 -135q-27 -14 -15 -35q100 -131 101 -288q0 -57 -23 -129q-33 -104 -149 -175q-102 -59 -226 -69 q-11 -1 -23 -1q-92 0 -239 54q-20 8 -39.5 3t-38 -17.5t-37 -29.5t-36.5 -32q-78 -49 -144 -49q-41 0 -82 23q-96 55 -96 180zM160 174q-1 -8 -1 -16q0 -56 40 -56q72 0 207 322q114 268 141 403q6 25 -6 25q-6 0 -17 -10q-51 -51 -107.5 -129t-115.5 -185 q-133 -231 -141 -354zM539 229q-10 -16 -10 -27q0 -13 12 -20q33 -18 94 -18q194 0 260 145q35 80 35 146q0 47 -39 151q-10 31 -37 25q-23 -4 -98 -8q-61 -2 -64 -15q-84 -260 -153 -379zM696 188q55 117 117 308q23 2 45.5 3t44.5 3q6 -31 6 -51q0 -64 -32 -134 q-49 -111 -181 -129zM752 868q-2 -7 -2 -13q0 -20 22 -26q92 -23 137 -55q4 -2 9 -2q30 0 104 78q117 125 117 225q0 137 -131 137q-74 0 -164 -59q-23 -16 -31 -53q-37 -162 -61 -232zM887 811q16 53 27.5 98t21.5 84q8 33 22 41h-2q82 55 154 56h8v-15q0 -92 -110 -211 q-67 -71 -89 -71h-1q-12 8 -31 18zM1151 561v2l2 -4z" />
<glyph unicode="C" horiz-adv-x="1388" d="M-18 -55q0 -260 161 -361q93 -153 281 -153h2q274 0 573 411q25 33 25 70q0 18 -8 36.5t-20.5 34t-29 25.5t-30.5 10q-2 0 -14 -4q0 18 -9.5 37t-21.5 34t-27.5 25.5t-29.5 10.5q-18 0 -119 -117q-119 -131 -131 -141q-127 -102 -205 -103h-2q-8 27 -8 78q0 115 49 266 q35 115 98 263q100 242 291 483q162 211 270 254q-10 -47 -33 -92q-61 -133 -217 -178q-57 -18 -57 -64q0 -25 21 -57q35 -55 83 -62q2 -18 19 -41q33 -61 90 -61h6q57 0 168 80q231 170 232 405q0 178 -134 244q-61 125 -208 125q-197 0 -402 -174q-299 -256 -530 -748 q-133 -291 -133 -536zM0 -55q0 240 133 528q225 483 526 739q201 170 388 170q104 0 161.5 -67t57.5 -178q0 -227 -224 -389q-101 -76 -154 -76h-5q-8 0 -21 4q-25 8 -48 38.5t-23 55.5q0 27 43 43q166 53 229 191q39 80 39 143q0 90 -78 90q-125 0 -336 -272 q-100 -129 -173 -250t-120 -238q-41 -100 -65.5 -165.5t-34.5 -98.5q-49 -154 -49 -272q0 -135 82 -187q20 -14 51 -14q86 0 217 106q59 47 101 92.5t69 90.5q42 71 67 71h1q25 0 46 -30.5t21 -57.5q0 -29 -20 -55q-293 -403 -557 -403q-90 0 -168 47q-156 92 -156 344z" />
<glyph unicode="D" horiz-adv-x="1529" d="M-18 412q0 -47 6 -66q23 -74 94 -76q4 -20 6 -26q23 -59 70 -72q-86 -29 -97 -94v-8q-2 -6 -2 -11q0 -72 103 -102q0 -66 82 -98q63 -23 139 -23q86 0 215 64q16 4 27 4q29 0 73 -15q27 -8 45.5 -11t33 -5t38.5 -2h62h8q164 0 321 121q199 153 289 479q35 133 35 246 q0 279 -189 407q-31 43 -67 74q2 4 6 9t4 7q8 14 8 25q0 37 -98 41h2q-8 2 -35 2q29 53 29 59q0 37 -96 41q-10 2 -39 2q-53 0 -84 -41q-18 -25 -43 -24q-406 -10 -678 -305q-147 -162 -217 -342q-51 -135 -51 -260zM0 412q0 123 51 252q84 215 250 374q168 162 385 224 q111 33 244 36q32 2 60 37q23 28 76 28q12 0 26 -1q78 -10 77 -21v1q-3 0 -30 -62q-10 -23 30 -39q117 -45 183 -172q55 -111 55 -250q0 -104 -35 -239q-84 -319 -280 -471q-149 -115 -307 -115h-11q-41 2 -65 2h-35q-20 2 -36.5 4t-31.5 6q-51 19 -84 19q-21 0 -35 -7 q-124 -58 -207 -58q-11 0 -22 1q-177 13 -177 98q0 7 1 15q16 96 231 96h43q18 0 27 -2q33 -4 44 3t24 36q72 182 113.5 286.5t51.5 133.5q160 385 215 456q14 16 15 29q0 20 -45 18q-184 -8 -404 -266q-213 -246 -239 -438q-4 -25 -6 -47.5t-5 -42.5q-12 -45 -59 -45 q-61 0 -82 61q-6 18 -6 60zM248 188q16 10 22 37q2 31 4 52.5t4.5 31.5t2.5 13v-3q31 190 235 429q115 135 217 200q-78 -176 -135 -313q-63 -156 -104 -261.5t-62 -158.5q-12 -29 -26 -29q-10 0 -17 2q-10 2 -29 2h-47h-39t-26 -2zM614 154q0 -18 54 -19q180 4 280 109 q41 41 85 116.5t91 188.5q88 203 88 352q0 174 -114 215q-16 6 -27 6q-16 0 -45 -41q-86 -123 -203 -460q-35 -100 -86 -213t-119 -242l-3 -9zM803 176q84 178 141 336q12 35 40 100.5t71 165.5q94 221 119 221h6q12 -43 12 -98q0 -145 -86 -344q-35 -78 -62.5 -134 t-50.5 -91q-82 -119 -190 -156z" />
<glyph unicode="E" horiz-adv-x="1359" d="M-18 -195q0 -160 129 -229q51 -98 182 -137q37 -10 78 -10q160 0 329 114q45 29 92.5 70t100.5 92q121 117 149 195v2t2 6v14q0 43 -49 78q-35 25 -53 27q-4 35 -41 67q-37 37 -72 37q-33 0 -57 -39q-53 -82 -178 -194q-139 -127 -219 -152q8 106 108 264 q125 205 244 307q20 16 33 17h2q31 -8 69 -8q31 0 54 6q164 43 164 149q0 96 -103 109q-4 104 -137 104q-23 0 -55 -8q12 29 26.5 58.5t30.5 58.5q59 104 141 188q111 115 195 115h4q63 0 115 -45v2q12 -12 22 -12q27 0 49.5 28.5t22.5 61.5v4q0 76 -92 123q-8 4 -15 6 q-27 119 -215 119q-152 0 -288 -86q-182 -115 -312 -361q-59 -115 -59 -209q0 -80 39 -143q20 -31 22 -37q14 -23 19 -25q-4 -2 -7 -4t-8 -6h2q-98 -66 -192 -166q-123 -131 -205 -299q-68 -141 -67 -252zM0 -195q0 90 53 213q76 172 215 324q47 51 94.5 91t94.5 73 q23 16 22 26q0 -6 -41 66q-39 72 -39 139q0 90 58 199q227 436 581 436q39 0 74 -6q121 -23 125 -119v-5q1 -22 -15 -44q-18 -24 -36 -24q4 0 -37 26q-39 25 -100 29h-3q-83 0 -188 -99q-92 -86 -170 -217q-86 -147 -86 -256q0 -43 27 -43q4 0 16 4q111 55 164 56 q117 0 117 -90t-150 -129q-22 -6 -47 -6q-30 0 -65 8q-27 2 -54 -21q-115 -98 -245 -313q-113 -180 -113 -293q0 -111 90 -111t266 164q129 119 180 199q18 29 41 29q12 0 28.5 -9.5t31 -22.5t24 -28.5t9.5 -27.5q0 -2 -4 -23q-18 -47 -113 -147q-281 -301 -537 -302 q-35 0 -71 11q-197 57 -197 243z" />
<glyph unicode="F" horiz-adv-x="1435" d="M-18 -92q0 -111 114 -176q45 -98 209 -144q49 -14 121 -14q270 0 453 209h-2q145 164 251 475q25 -12 70 -12q6 0 8 2h6q-14 -57 -14 -53q0 -51 102 -52q6 0 9 2h8q37 6 45 52v-2q10 33 20.5 65.5t20.5 65.5q33 100 33 123q0 55 -107 81q4 12 4 21q0 41 -37 57 q-14 4 -23 8.5t-16 6.5q59 174 102.5 299t70.5 202q0 2 2 6v17q0 33 -37 55q-16 6 -34 12.5t-34 14.5q2 10 2 20q0 33 -29 49q-33 16 -76.5 33t-99.5 33q-172 49 -288 49h-56q-145 0 -219 -29h2q-164 -53 -164 -215v-8q0 -55 37 -88q27 -31 66 -31q6 -41 37.5 -71.5 t68.5 -30.5h8q51 0 52 45q-2 10 -2 14q0 6 0 5q-2 6 -2 16q0 41 59 70q47 22 90 22h4h17q35 0 163 -33q-27 -70 -60.5 -166t-74.5 -225v2q-4 -10 -24 -10q-35 0 -91.5 -8t-134.5 -25q-66 -16 -77 -102q-2 -14 -3.5 -23.5t-1.5 -13.5q0 -20 7 -29q12 -25 38 -24h11 q16 4 30.5 6t24.5 4q-4 -16 -4 -23q-2 -14 -3 -23t-1 -13q0 -20 6 -29q12 -25 39 -25h10l62 13q-20 -43 -27 -70l2 2q-68 -164 -154 -266q-119 -137 -243 -137h-19q-41 0 -71 6q-14 45 -48 45q-12 0 -18 -2q-2 -2 -4 -2h-4q-20 20 -27 55q-16 49 -49 49q-10 0 -14 -2l-8 -2 q-84 -29 -84 -133zM0 -92q0 90 66 112q10 2 15 3.5t7 1.5q20 0 29 -33q26 -119 194 -119h17q139 6 260 145q90 104 155 271q20 53 34 94t24 68q14 41 -17 45q-15 1 -30 1q-72 0 -172 -22q-20 -2 -26.5 12.5t-0.5 55.5q10 76 61 84q148 32 218 32h4q33 0 43 23 q109 324 153 432q16 35 -4 47q-27 16 -143 45q-53 12 -92 19.5t-62 9.5q-9 1 -17 1q-50 0 -96 -20q-54 -24 -71 -61q-8 -14 -8 -33q0 -6 2 -19t2 -16q0 -23 -33 -24h-8q-36 1 -60 31q-25 32 -24 69v6q6 145 149 197q76 28 215 28q25 0 52 -1q125 -4 282 -50q115 -35 174 -63 q18 -9 18 -31q0 -11 -5 -26q-14 -39 -36 -104.5t-55 -160.5q-33 -92 -57 -165.5t-43 -126.5q-10 -31 27 -37q90 -12 147 -39q25 -10 25 -39q0 -8 -2 -16q-23 -66 -40.5 -123.5t-31.5 -108.5q-8 -33 -27 -35q-16 -4 -47 2q-48 9 -48 26q0 3 1 7q10 37 19.5 64.5t13.5 46.5 q12 37 -8 43q-55 18 -78 18q-25 0 -43 -57q-113 -346 -262 -518q-178 -203 -436 -203q-66 0 -115 14q-209 57 -209 197zM172 -57h4h-4z" />
<glyph unicode="G" horiz-adv-x="1247" d="M-18 -84q0 -113 110 -176q16 -39 49 -66q121 -96 299 -96q469 0 619 494l37 125q35 117 71.5 243.5t77.5 268.5h-2q4 16 4 24q0 61 -104 90q2 2 2 13q0 53 -78 82q-37 14 -55 14q-39 0 -58 -37q-41 -78 -149 -178q-127 -117 -207 -123q0 70 61 190q8 12 12.5 21.5 t8.5 15.5v-2q16 27 27.5 48.5t21.5 40t41 26.5q115 18 244 82q164 84 164 166q0 100 -103 116l-6 31q-14 76 -145 76q-201 0 -357 -166l2 2q-29 -20 -53 -22q-49 -8 -89 -11.5t-69 -3.5q-76 0 -133 19v-2q-16 4 -22 4q-55 0 -56 -84v-11q0 -80 89 -118q8 -6 16 -8 q12 -55 74 -91q-96 -170 -97 -317q0 -125 95 -186q10 -4 16 -8.5t10 -8.5q29 -55 76 -86q80 -49 162 -49q66 0 137 25q-59 -156 -94 -209v2q-117 -168 -299 -168h-23q-49 0 -86 12q-18 37 -41 37q-16 0 -20 -2q-18 16 -25 35v-2q-27 69 -56 69h-1q-25 0 -45 -14 q-53 -29 -53 -127zM0 -84q0 84 45 109q20 12 35 12q16 0 39 -55q16 -45 77 -73q51 -23 112 -23q13 0 26 1q205 14 313 176q70 106 172 431q4 16 4 18q0 8 -8 8q-6 0 -27 -12q-35 -23 -62.5 -41t-43.5 -31q-104 -55 -197 -55q-100 0 -167.5 57.5t-67.5 157.5q0 170 133 371 q14 20 14 30q0 18 -41 13q-11 -2 -22 -2q-41 0 -90 22q-72 33 -76 100v13q0 61 35 61q12 0 16 -2q54 -18 135 -18q72 0 164 14q23 2 64 27q149 159 340 159h2q106 0 125 -61q6 -23 6 -39q0 -76 -160 -151q-119 -57 -231 -76q-45 -10 -54 -33q-23 -41 -41 -72.5t-30 -54.5 q-63 -115 -64 -201q0 -51 31 -87t82 -36q92 0 231 129q113 104 154 183q14 27 39 26q14 0 49 -12q63 -20 63 -63q0 -35 -188 -656q-147 -479 -598 -479q-170 0 -287 92q-51 39 -51 123z" />
<glyph unicode="H" horiz-adv-x="1699" d="M-18 217q0 -147 124 -217q76 -129 236 -129q262 0 432 391q20 55 36.5 101.5t29.5 82.5q10 23 39 23h43q-27 -135 -39.5 -212t-12.5 -99v-6q8 -61 39 -92t70 -48q12 -33 31 -51q94 -90 309 -90q156 0 254 61q14 8 30.5 22.5t36.5 35.5q20 18 21 55v21q0 39 -12 67l2 -2 q-2 27 -29 27q-18 0 -27 -15q-43 -53 -82 -77l25 24q20 20 21 57v21q0 39 -13 68l2 -3q-2 27 -28 27q-18 0 -27 -14q-39 -51 -97.5 -87t-97.5 -36h-22q-29 0 -37 2q18 106 123 430q43 133 77 223t60 137q16 29 27 29q49 0 92 37q59 43 76 111v-2q6 20 6 51q0 102 -105 121 q-6 47 -40.5 75.5t-84.5 28.5q-154 0 -319 -307q-35 -63 -64.5 -131t-58.5 -144v2q-16 -35 -37 -34h-45q53 152 85 246t40 135q0 6 2 10v10q0 55 -57 76h2q-16 6 -28.5 10t-20.5 6l2 10q0 55 -58 76h2q-141 53 -387 53q-125 0 -182 -28q-149 -75 -149 -184q0 -78 61 -78h2 q37 0 55 47q4 8 9 12q-25 -41 -25 -84q0 -78 63 -78q35 0 56 45q23 47 180 47h43t29 -2q-66 -182 -117 -344q-12 -12 -25 -14q-84 -6 -206 -64q-139 -63 -236 -174q-104 -127 -104 -268zM0 217q0 137 102 258q88 104 228 166q123 55 200 61q27 4 43 29l136 406q6 18 6 22 q0 16 -51 31q-33 8 -74 12t-94 4q-172 0 -199 -57q-16 -35 -37 -35q-43 0 -43 57q0 94 139 166q51 27 172 27q244 0 379 -51q43 -15 43 -57q0 -8 -2 -17q-23 -104 -153 -465q-10 -23 0 -31q10 -10 30 -8q14 0 37 -1t45 -1q25 0 47.5 -1t36.5 -1q33 0 56 47q47 131 122 273 q160 295 301 295q45 0 76 -29t31 -74q0 -20 -6 -45q-16 -61 -68 -98q-39 -33 -80 -33q-25 0 -45 -39q-55 -102 -139 -364q-127 -393 -127 -474q0 -89 158 -89q13 0 28 1q23 0 50.5 11.5t57.5 29t57.5 41t47.5 52.5q10 12 17 -7q11 -26 11 -59q0 -10 -1 -20q-4 -35 -14 -46 q-114 -110 -304 -110h-3q-211 0 -295 82q-31 27 -31 84q0 49 70 395q6 27 -17 37h-168q-45 0 -57 -37q-23 -66 -39 -112t-27 -70q-164 -379 -413 -379q-106 0 -173 59.5t-67 163.5zM168 229q0 -65 76 -65h2q80 0 155 137q57 100 86 209q2 6 2 11q0 7 -4 11q-3 2 -7 2 q-6 0 -15 -4q-84 -27 -184 -120q-111 -102 -111 -181z" />
<glyph unicode="I" horiz-adv-x="1091" d="M94 -72q8 -20 39 -55q66 -70 195 -78q14 -2 24 -2h19q291 0 473 338q53 100 101 247.5t93 346.5q53 244 54 367q0 205 -127 247q-31 82 -111 107v-2q-31 10 -66 10q-139 0 -292 -147q-139 -133 -226 -322q-63 -135 -63 -305q0 -162 57 -268v2q49 -96 127 -146 q10 -14 20.5 -26.5t20.5 -26.5q-41 -41 -78 -65h2q-55 -37 -118 -37q-100 0 -136 77q-16 31 -45 31q-75 0 -75 -116q0 -120 112 -177zM0 102q0 98 57 99q16 0 27 -19q41 -90 154 -90q66 0 129 41q33 20 104 92q25 25 -10 35q-123 41 -182 170q-51 104 -52 250q0 164 62 297 q78 166 198 295q156 162 301 162q35 0 60 -9q121 -35 121 -231q-1 -121 -54 -363q-45 -205 -95 -354t-103 -248q-170 -312 -451 -312q-19 0 -39 1q-227 14 -227 184zM498 393q23 -14 32 -14q12 0 25 29q59 139 127 397q70 270 74 405v9q0 44 -35 45q-66 0 -154 -166 q-149 -272 -149 -474q0 -185 80 -231zM541 518q0 129 49 258q31 80 98 209q8 14 12.5 23.5t8.5 15.5q-14 -66 -25.5 -117t-21.5 -90q-70 -274 -117 -383q-2 25 -3 46.5t-1 37.5z" />
<glyph unicode="J" horiz-adv-x="1433" d="M-18 -229q0 -131 118 -189q68 -135 254 -135q272 0 477 266q39 51 99 160q4 10 14 10q16 -2 29.5 -3t23.5 -1q76 -6 117 -6q51 0 88 6q123 23 211 111q21 18 21 55v21q0 39 -13 67l2 -2q-2 27 -28 27q-18 0 -27 -15q-20 -25 -40.5 -44t-43.5 -33q10 8 28.5 26.5 t18.5 54.5v21q0 39 -12 68l2 -3q-2 27 -29 27q-18 0 -26 -14q-39 -51 -100.5 -87t-106.5 -36h-17q20 59 36 102t26 72q84 266 108 408q23 141 35.5 226t12.5 118q0 178 -121 221q-47 116 -192 116h-3q-158 0 -317 -129q-129 -106 -203 -261.5t-74 -327.5q0 -207 144 -312 q2 -2 7 -6t7 -6q39 -61 88 -90q20 -20 55 -35q-4 -10 -6 -19.5t-4 -13.5h2q-10 -29 -22 -28q-47 0 -97.5 -4t-105.5 -13q-182 -29 -281 -96h2q-68 -43 -112.5 -120t-44.5 -154zM0 -229q0 37 12.5 73.5t31.5 71.5t47 64.5t59 48.5q94 63 272 92q55 8 104 12t95 4q25 0 41 43 l30 92q10 29 -24 35q-92 14 -162 66q-135 98 -135 295q0 166 69.5 317.5t198.5 255.5q156 125 305 125q193 0 193 -215q0 -33 -12.5 -117t-34.5 -223q-14 -86 -41 -187.5t-66 -217.5q-29 -86 -50.5 -149.5t-37.5 -106.5q-1 -4 -1 -7q0 -40 165 -41q25 0 54.5 10.5t60 29 t59.5 42t51 52.5q10 12 16 -7q12 -25 12 -60q0 -9 -1 -19q-4 -35 -15 -46q-82 -82 -200 -104q-32 -4 -81.5 -4t-117.5 4q-27 2 -39 3t-10 1q-31 0 -39 -18q-23 -47 -46.5 -86t-49.5 -72q-197 -258 -461 -258q-164 0 -229 115q-23 41 -23 86zM168 -203q0 -33 25.5 -54.5 t60.5 -21.5q78 0 174 84q82 74 123 154q10 25 10 29q0 14 -26 14q-96 0 -222 -55q-145 -68 -145 -150zM324 -240q29 29 59 43l25 13q-25 -18 -84 -56zM584 631q0 -176 125 -203q5 -1 9 -1q16 0 23 11q9 15 21 45q39 104 98 314q58 206 70 315q1 11 1 20q0 60 -44 60 q-39 0 -76 -31q-33 -29 -111 -164q-117 -207 -116 -366zM707 528q0 150 114 357q47 86 64 108q-14 -57 -25.5 -101t-21.5 -77q-37 -147 -66 -238.5t-49 -132.5l2 5h-10q-8 27 -8 79z" />
<glyph unicode="K" horiz-adv-x="1857" d="M-18 186q0 -117 112 -168q55 -139 338 -139q188 0 328 129q111 104 201 305q31 68 55 74q12 4 27.5 11.5t35.5 17.5q-2 -2 -2 -6q-23 -78 -36 -118t-15 -44q-6 -25 -6 -68q0 -133 115 -180q45 -131 280 -131q172 0 275 65q33 20 67 56q20 18 21 55v21q0 39 -13 67l2 -2 q-2 27 -28 27q-16 0 -27 -17v2q-31 -45 -82 -75q45 33 45 79v21q0 39 -12 68l2 -3q-2 27 -29 27q-18 0 -26 -14q-29 -49 -103 -88q-63 -35 -94 -35h-27q96 283 97 334v8q0 111 -111 151q-4 12 -7 21.5t-7 13.5q47 35 110.5 88.5t141.5 124.5q214 199 241 287q6 20 7 47 q0 66 -56 66h-51q2 10 3 19t1 17q0 66 -55 66h-113q-74 0 -106 -51q-23 -35 -77 -106.5t-140 -182.5q-27 -35 -46.5 -58.5t-29.5 -35.5q39 129 39 172q0 55 -18.5 81.5t-71.5 45.5q-2 2 -7.5 3t-7.5 1q-6 72 -88 98q-121 43 -282 43h-21q-150 0 -264 -59q-111 -59 -111 -143 v-5q0 -39 28 -75.5t67 -36.5h8q4 -37 31.5 -70t62.5 -33q47 0 63 31q27 51 31 55q33 31 115 31h31q10 -2 16 -2h12q-29 -115 -63.5 -213t-73.5 -184q-59 -131 -96 -206t-47 -95q-109 -184 -226 -185h-30q-74 0 -109 23l4 -2q-84 92 -129 92q-70 0 -69 -102v-11zM0 186v12 q0 80 51 81q37 0 115 -86q43 -28 121 -28q14 0 30 1q133 10 242 194q20 31 143 304q86 186 154 454q8 33 -22 49q-55 27 -175 27q-133 0 -153 -74q-12 -43 -55 -43q-29 0 -51.5 30t-22.5 62v6q0 78 110 130q115 51 254 51h11q166 -2 276 -41q45 -16 60.5 -39t15.5 -70 q0 -59 -113 -405q-8 -16 -8 -39q0 -27 25 -27q18 0 47 17q41 23 225 262q88 115 142.5 186.5t74.5 104.5q29 41 90 41h111q37 0 37 -46q0 -20 -6 -40q-27 -86 -236 -279q-162 -152 -272 -225q-29 -18 -29 -31q0 -14 33 -16q61 -6 99 -47q36 -39 36 -97v-6q-2 -72 -103 -348 q-8 -18 -8 -43q0 -67 130 -67q17 0 36 1q41 4 103 37q74 41 110 97q10 12 17 -7q11 -26 11 -59q0 -10 -1 -20q-4 -35 -15 -46q-16 -16 -31.5 -29.5t-31.5 -23.5q-94 -59 -264 -59q-272 0 -273 188q0 39 9 66l49 157q41 135 41 142q0 61 -60 61q-16 0 -30 -10 q-25 -20 -40.5 -30.5t-19.5 -14.5q-20 -14 -40.5 -23.5t-43.5 -17.5q-33 -10 -65 -86q-92 -199 -193 -297q-133 -127 -317 -127q-322 0 -330 186z" />
<glyph unicode="L" horiz-adv-x="1546" d="M-18 211q0 -127 120 -193q61 -127 312 -149q14 -2 24 -2h21q98 0 200 39q111 41 166 102h2q6 0 11 -4q182 -133 379 -133q182 0 301 119q20 18 20 55v21q0 39 -12 67l2 -2q-2 27 -29 27q-16 0 -24 -13q0 -2 -2 -2l2 2q0 -2 -2 -2q-27 -37 -76 -71l18 18q20 20 21 57v21 q0 39 -13 68l2 -3q-2 27 -28 27q-16 0 -27 -16v2q-27 -39 -90 -80q-57 -39 -106 -43h-15q-113 0 -198 41q137 258 190 551q2 25 14 28q252 68 348 238q33 57 33 119q0 123 -116 182q-49 117 -181 117q-70 0 -140.5 -37t-113.5 -90q-102 -133 -135 -238l-4 -6q-2 0 -39 12 q-6 18 -6 17q-12 25 -43 28h-4q-4 0 -16 -4q-14 12 -17 23l-12 31v-2q0 4 -4 14t-6 12q-12 25 -43 29h-4q-35 0 -58.5 -40t-23.5 -91q0 -100 114 -166q18 -43 64 -76q10 -10 28 -20l-59 -179q-33 -94 -54.5 -153.5t-35.5 -85.5q-43 29 -127 61h2q-104 41 -207 41h-26 q-102 0 -199 -76q-98 -74 -98 -186v-6zM0 211v8q0 97 90 168q84 66 191 72q12 1 24 1q92 0 199 -40q100 -37 127 -64q12 -12 24 11q8 12 30 72.5t60 170.5q27 78 45.5 134.5t30.5 95.5q10 29 -20 34q-76 14 -133 60q-68 51 -68 123q0 45 17.5 78.5t46.5 31.5q20 -2 28 -20 q8 -16 12.5 -28.5t8.5 -22.5q16 -41 118 -82q41 -16 50 14q35 109 131 232q39 51 105.5 84.5t131.5 33.5q76 0 125 -49t49 -127q0 -53 -30 -108q-90 -164 -336 -228q-20 -6 -29 -45q-25 -131 -80 -293q-59 -178 -121 -276q-12 -23 0 -31q151 -119 327 -119h22q51 4 118 48 q59 39 95 86q10 12 16 -7q11 -25 11 -59q0 -10 -1 -20q-4 -35 -14 -46q-114 -110 -284 -110h-3q-193 0 -366 129q-25 18 -41 0q-68 -74 -183 -109q-86 -24 -165 -24q-23 0 -46 2q-305 23 -313 219zM129 217q0 -111 180 -119h12q54 0 129 31q84 35 119 78q18 20 -8 39 q-29 20 -51.5 32.5t-38.5 20.5q-70 31 -166 35h-11q-165 0 -165 -117zM252 125q8 86 147 86h9q50 0 116 -18q-104 -74 -205 -74h-10q-8 0 -57 6zM1079 1047q-1 -6 -1 -11q0 -10 5 -16q4 -3 11 -3q8 0 20 5q39 16 74 36.5t63 47.5q76 63 76 133q0 61 -61 61q-57 0 -119 -96 q-53 -84 -68 -157zM1225 1266q18 12 32 14q-14 -4 -21 -8t-11 -6z" />
<glyph unicode="M" horiz-adv-x="2283" d="M-18 846q0 -117 59 -189q20 -25 57 -30q41 -102 125 -103q109 0 109 76q0 20 -17 43q-28 38 -28 117v6q0 84 32 158q66 145 183 145v-2q0 -51 -21 -133q-35 -147 -113.5 -366.5t-201.5 -514.5q-4 -12 -4 -18q0 -55 117 -55q-14 -27 -15 -46q0 -57 119 -57q92 0 141 49 q18 37 45 90.5t62 124.5q31 63 56.5 115.5t47.5 97.5q211 426 332 559q53 57 92 88q-33 -94 -81 -213.5t-111 -269.5q-16 -41 -41 -95t-56 -124l-96 -219q-10 -25 -10 -39q0 -59 110 -59h3v-2q-10 -25 -11 -39q0 -59 111 -62q10 0 20 -2h19q104 0 141 86q45 98 100.5 207 t122.5 229q211 373 414 570q-262 -604 -281 -674q-12 -53 -12 -96q0 -123 117 -181q37 -90 180 -129q68 -18 150 -18q29 0 54.5 2t49.5 6q123 23 211 111q21 18 21 55v21q0 39 -13 67l2 -2q-2 27 -28 27q-16 0 -25 -13q0 -2 -2 -2l2 2q0 -2 -2 -2q-27 -37 -76 -71l19 18 q20 20 20 57v21q0 39 -12 68l2 -3q-2 27 -29 27q-18 0 -26 -14q-37 -49 -105 -88q-63 -35 -90 -35q-23 0 -39 1t-27 3q6 27 23 68q154 356 232.5 552.5t89.5 237.5q12 51 12 102q0 150 -113 181q-35 110 -170 110h-2q-150 0 -289 -127q-49 -43 -122 -133q-12 100 -111 139 q-45 119 -188 119q-186 0 -404 -303q-14 129 -123 176q-47 111 -198 127q-10 2 -21 2h-25q-152 0 -276 -92q-127 -92 -160 -239v2q-28 -117 -28 -197v-6zM0 846q0 76 31 196q37 141 153 228q115 88 262 88q248 0 248 -238q0 -82 -24 -174q-10 -35 -18.5 -62.5t-12.5 -45.5 q-6 -23 -6 -37q0 -16 6 -17q6 0 23 23q51 78 86.5 133t58.5 86q227 330 410 330q76 0 127 -45t51 -113q0 -27 -9 -51q-63 -205 -129 -346q-8 -14 -8 -27q0 -2 4 -6q8 0 31 25q53 68 93 119t67 85q141 178 209 240q133 121 274 121q162 0 162 -168q0 -47 -12 -98 q-23 -84 -320 -787q-27 -64 -27 -101q0 -16 5 -28q33 -74 186 -74q35 0 100 37q78 47 113 97q10 12 16 -7q12 -25 12 -60q0 -9 -1 -19q-4 -35 -15 -46q-82 -82 -200 -104q-50 -8 -99 -8q-74 0 -145 18q-180 49 -180 189q0 39 12 92q10 47 89 233.5t226 515.5q20 43 21 76 q0 49 -45 49q-63 0 -135 -69q-215 -207 -430 -584q-70 -123 -126.5 -232.5t-97.5 -207.5q-20 -49 -63 -66q-21 -7 -62 -7q-17 0 -37 1q-90 4 -90 41q0 14 9 31l192 438q170 391 211 537q6 20 6 45q0 71 -55 71h-2q-182 0 -531 -698l-208 -426q-39 -39 -125 -39q-98 0 -99 35 q0 8 2 10q123 297 203 517t115 368q20 82 20 137q0 104 -78 121q-10 2 -22 3t-23 1q-133 0 -200 -158q-35 -86 -35 -166q0 -94 33 -135q12 -16 12 -31q0 -55 -88 -55q-43 0 -64 25q-57 63 -57 174z" />
<glyph unicode="N" horiz-adv-x="1679" d="M55 639q25 -29 58 -39q16 -31 45 -63q39 -43 94 -43q84 0 84 69q0 12 -12 43l2 -2q-20 63 -21 82q0 119 76 272q45 94 135 95q2 -6 2 -27q0 -113 -84 -342q-14 -39 -48 -121t-87 -207q-106 -252 -137 -309q-10 -16 -10 -35q0 -47 98 -47h22q0 -4 -3 -10t-5 -8 q-10 -16 -10 -35q0 -49 98 -49h8q133 0 189 114q119 242 282 517q100 166 183.5 284.5t152.5 192.5q-213 -539 -231 -678q-6 -47 -6 -82q0 -127 102 -186q12 -6 17 -11q25 -57 86 -90q96 -53 215 -53q25 0 49 2t49 6q123 23 211 111q20 18 20 55v21q0 39 -12 67l2 -2 q-2 27 -29 27q-18 0 -26 -15q-27 -39 -76 -71l18 18q20 20 21 57v21q0 39 -12 68l2 -3q-2 27 -29 27q-16 0 -25 -12q0 -2 -2 -2l2 2q0 -2 -2 -2q-37 -49 -104 -88q-63 -35 -90 -35t-33 2q0 20 6 39l140 405q61 180 95 280.5t38 123.5q12 51 12 102q0 137 -115 180 q-37 117 -196 117q-223 0 -443 -311q-23 127 -125 178q-43 84 -141 119q-55 20 -119 20q-190 0 -346 -211q-108 -149 -108 -322q0 -124 73 -206zM0 842q0 174 106 313q154 203 330 203q57 0 113 -19q158 -53 158 -256q0 -125 -58 -297q-4 -16 -4 -20q0 -12 8 -12q14 0 25 22 q106 223 248 383q168 193 338 193q37 0 77 -11q111 -31 111 -163q0 -47 -12 -97q-18 -80 -131 -403q-20 -57 -41 -112.5t-41 -110.5q-66 -197 -66 -234q0 -59 49 -92q41 -27 107 -27q35 0 100 37q78 47 113 97q10 12 16 -7q11 -25 11 -59q0 -10 -1 -20q-4 -35 -14 -46 q-82 -82 -201 -104q-47 -6 -94 -6q-119 0 -200 47q-96 59 -97 170q0 33 6 80q20 160 281 796q4 12 4 21q0 68 -59 68q-123 0 -453 -545q-94 -156 -169 -292t-132 -253q-49 -100 -169 -100h-9q-78 4 -78 26q0 10 8 25q14 29 49 105.5t88 205.5q106 254 136 332q86 229 86 346 q0 150 -123 150q-104 0 -156 -107q-78 -162 -78 -281q0 -29 15 -71q16 -49 16 -51q0 -49 -63 -50q-47 0 -80 37q-70 72 -70 189z" />
<glyph unicode="O" horiz-adv-x="1368" d="M-18 428q0 -319 172 -426q98 -152 292 -152q188 0 359 156q137 127 235 326q82 160 119 313q6 31 25 150v-2q6 29 10 32q100 80 149 144q25 33 25 63q0 20 -8 31l2 -2q-49 100 -92 100q-8 0 -10 -2v4q-2 0 -3 2l3 -2q-49 100 -93 101q-20 0 -45 -25l-24 -25 q-37 43 -82 68q0 8 -4 8h2q-39 68 -109 99q-82 38 -134 38h-3q-61 0 -133 -32q-16 -4 -31 -4q-180 -4 -336 -185q-131 -150 -208.5 -364.5t-77.5 -413.5zM0 428q0 199 66 377q80 215 198 362q160 201 340 203q27 0 80 19q51 18 84 18q45 0 129 -37q51 -23 90 -78t49 -112 q4 -29 19 -29q8 0 20 12l62 62q18 18 30 18q27 0 74 -90q5 -10 5 -21q0 -22 -21 -49q-27 -33 -63 -67.5t-83 -71.5q-12 -8 -18 -45q-23 -133 -25 -147q-33 -139 -116 -310q-92 -190 -230 -315q-166 -154 -346 -154q-74 0 -135 27q-209 82 -209 428zM213 399q0 -100 37 -163 q45 -82 135 -82q145 0 322 323q51 98 82.5 173t41.5 128q4 16 0 27q-4 12 -10 8q-29 -4 -48 -7t-30 -3q-86 0 -159 67q-86 78 -86 180q0 16 2 33q2 39 -8 39q-12 0 -27 -20q-94 -111 -170 -320q-82 -221 -82 -383zM336 297q0 152 80 377q49 137 108 231q25 -31 45 -49 q8 -8 18.5 -16.5t26.5 -18.5q59 -104 170 -133q-16 -41 -39.5 -91.5t-56.5 -109.5q-170 -313 -303 -313q-2 0 -10 1t-23 3q-16 55 -16 119zM618 1135q0 -31 13.5 -61t38 -51.5t58.5 -34.5t73 -13q78 0 82 41q6 74 6 76q0 33 -11.5 63.5t-32 55t-47 39t-57.5 14.5 q-43 0 -69 -25q-53 -47 -54 -104zM741 1032q0 49 47 90q20 18 56 19q12 0 16 -2q8 -16 8 -47q-4 -23 -6 -74q-4 -23 -61 -23q-35 0 -58 9q-2 6 -2 28z" />
<glyph unicode="P" horiz-adv-x="1499" d="M25 -201q35 -59 92 -84q4 -6 6 -10l4 -8q63 -104 190 -105q162 0 306 218q111 168 163 364h-2q4 18 7 21q2 0 14 -5q49 -20 121 -20q299 0 471 324q102 195 102 387q0 262 -168 360q-2 4 -7 11.5t-7 11.5q-102 135 -291 135h-14q-217 0 -449 -182q-258 -203 -416 -564 q-165 -385 -165 -644q0 -134 43 -210zM0 6q0 254 166 639q123 285 336 492q247 241 509 241h15q174 -2 266 -114q84 -106 84 -281q0 -184 -100 -377q-164 -313 -453 -313q-16 0 -78 12q-54 10 -63 10h-2q-8 -2 -16 -32q-55 -203 -160 -359q-139 -209 -289 -209 q-215 0 -215 291zM188 23q0 -82 54 -82q102 0 223 434q31 113 67 418q4 31 34 51t59 39q38 30 71 30h2q39 0 43 -47q2 -28 2 -61q0 -42 -3 -92q-5 -90 -21 -213q-7 -41 22 -45q10 -1 20 -1q160 0 267 181q98 162 98 346q0 231 -151 236h-5q-188 0 -421 -304 q-197 -254 -266 -483q-94 -309 -95 -407zM334 63q33 137 65.5 240t65.5 174q-4 -29 -10.5 -52.5t-10.5 -43.5q-59 -215 -110 -318zM754 901q174 193 319 193h4h8q4 -2 9 -2q12 -48 12 -111q0 -225 -133 -387q-57 -70 -119 -98q12 125 12 206q0 66 -6 84q-12 45 -59 45 q-18 0 -37 -6v23q-2 10 -2 20q-2 12 -4 20.5t-4 12.5zM784 193q2 0 2 2h2z" />
<glyph unicode="Q" horiz-adv-x="1427" d="M-18 229q0 -143 127 -217q57 -102 188 -131q27 -4 57.5 -7t69.5 -3q80 0 145 12q10 -27 17.5 -46t15.5 -34v2q70 -135 141 -170q66 -104 138 -114q14 -2 27.5 -3t27.5 -1q78 0 117 63q25 39 24 74q0 59 -65 59h-6q-10 4 -19.5 8.5t-15.5 8.5q2 10 3 16t1 10q0 57 -64 60 q-8 12 -12 26q-6 12 -12 24.5t-10 22.5l-31 68v-2q-2 2 -2 10q0 6 12 12q141 66 285 201q253 235 282 514v6q0 14 2 42t2 40q0 240 -149 371v-2q-10 8 -18.5 15t-16.5 12q-23 35 -67 77v-2q-121 109 -318 125q-14 2 -29 2h-28q-199 0 -348 -98h2q-162 -104 -197 -262 q-4 -25 -7 -48.5t-3 -45.5q0 -197 137 -265q67 -120 186 -120h2q6 0 13 2h10q57 6 84 28q14 12 33 70v-2q10 25 10 49q0 70 -55 70h-17q-16 0 -33 10q2 6 3 22q0 63 -46 70q2 100 101 160q82 51 188 51q84 0 137 -29l5 -4q51 -94 51 -202q0 -29 -6 -54q-43 -172 -211 -340 q-109 -109 -185 -147q-23 27 -34 36t-21 13q-39 51 -76 82q-109 90 -215 90h-22q-117 0 -198 -59.5t-101 -169.5q-6 -29 -6 -56zM0 229q0 23 6 52q23 106 104 163q72 51 177 51q11 0 22 -1q106 -6 203 -86q68 -55 96 -117q16 -35 51 -19q78 37 195 154q172 172 217 350 q6 25 6 58q0 117 -53 213q-80 145 -262 145q-113 0 -207 -59q-102 -68 -102 -179q0 -25 10 -47t25.5 -38.5t34 -25.5t34.5 -5q5 1 10 1q33 0 33 -51q0 -23 -8 -40q-18 -49 -34.5 -63.5t-65.5 -20.5q-9 -1 -18 -1q-92 0 -150 76q-55 76 -56 185q0 39 11 90q41 178 223 272 q141 72 305 72q24 0 49 -2q209 -14 329 -139t120 -334q0 -23 -1.5 -43t-3.5 -43q-29 -268 -276 -502q-76 -70 -144.5 -120t-134.5 -79q-37 -16 -20 -47q16 -37 29.5 -64.5t23.5 -47.5q57 -127 123 -142q53 -4 53 -39q0 -31 -20 -63q-35 -53 -100 -53q-14 0 -26.5 1t-25.5 3 q-86 16 -161 170q-23 45 -74 184q-8 25 -47 14q-78 -18 -178 -18q-76 0 -123 8q-88 18 -143.5 79.5t-55.5 147.5zM160 240q-1 -6 -1 -12q0 -73 117 -85q15 -1 29 -1q67 0 131 30q20 9 20 25q0 8 -5 18q-20 41 -41 61q-53 53 -140 54q-100 0 -110 -90zM289 162q18 45 84 45 q29 0 63 -10q0 -5 -8 -7q-61 -28 -117 -28h-4h-18z" />
<glyph unicode="R" horiz-adv-x="1536" d="M-18 186q0 -129 79 -180l37 -16q18 -55 67.5 -86t117.5 -31q94 0 183 72.5t150 201.5q45 92 75 159t46 108q14 37 21 37q55 0 90 8q-6 -23 -25 -80q-23 -68 -36 -120t-17 -89q-6 -47 -6 -59q0 -61 51 -95l-2 2q14 -12 53 -22q6 -53 52 -80l-3 2q70 -51 259 -51 q219 0 342 123q20 18 20 55v21q0 39 -12 67l2 -2q-2 27 -29 27q-16 0 -24 -13q0 -2 -3 -2l3 2q0 -2 -3 -2q-27 -39 -73 -69q12 10 16 16q20 20 21 57v21q0 39 -13 68l2 -3q-2 27 -28 27q-18 0 -27 -14q-37 -49 -104 -88q-63 -35 -90 -35h-27q0 6 2 8q6 20 11 34.5t9 24.5 q59 147 60 232q0 43 -15 70q-41 76 -86 104q319 229 320 403v21q0 188 -125 237q-45 106 -176 119q-8 0 -17 2h-16q-59 0 -139 -22q-23 -10 -48.5 -22.5t-54.5 -24.5h-2q-12 -4 -16 -6q6 37 6 45q0 38 -37 38h-2q-20 0 -47 -10q-45 -18 -74.5 -32.5t-49 -29t-31 -29.5 t-19.5 -36q-4 -25 -10 -49t-10 -47q-14 -68 -39 -84q-27 -16 -78 -65.5t-127 -135.5q-164 -184 -227 -284q-127 -211 -127 -398zM0 186q0 180 127 387q27 41 76 105.5t125 150.5q158 182 223 224q27 18 49 90q4 27 10 53.5t13 52.5q25 57 159 109q23 8 37 8q21 0 21 -18 q-2 -8 -3 -21.5t-6 -34.5q-4 -18 7 -18q8 0 137 59q71 24 141 24q14 0 29 -1q180 -15 180 -235v-19q-6 -162 -311 -387q-12 -6 -17 -17q0 -8 19 -16q43 -25 78 -96q12 -25 12 -62q0 -57 -35 -162q-14 -41 -25.5 -71.5t-19.5 -50.5q-14 -45 -14 -72q0 -31 18 -39 q51 -27 144 -27q35 0 100 37q78 47 112 97q10 12 17 -7q11 -25 11 -59q0 -10 -1 -20q-4 -35 -14 -46q-117 -114 -321 -114q-38 0 -79 4q-215 18 -215 117q0 72 60 262q49 160 51 162q2 6 2 16q0 59 -55 59q-4 0 -25 -4q-72 -33 -162 -33q-20 0 -39 -49q-10 -31 -40.5 -96.5 t-79.5 -169.5q-59 -123 -143.5 -192.5t-172.5 -69.5q-57 0 -108 29q-72 47 -72 161zM162 242q0 -47 33 -47q49 0 116 135q4 8 22.5 52t51.5 122q39 92 60.5 152.5t29.5 93.5q8 37 -2 36q-39 0 -182 -254q-129 -231 -129 -290zM705 793q0 -14 34 -19q4 0 15.5 -3t31.5 -7 q35 -8 52 -8q33 0 61 24q53 47 84 76t41 39q88 88 88 184q0 22 -6 45q-23 74 -92 74q-82 0 -189 -74q-25 -16 -37 -55q-47 -152 -73 -240q-10 -37 -10 -36zM854 778q23 72 38 118t19 65l-2 -3q14 37 31 48q86 57 152 67q-2 -82 -82 -164q-39 -35 -67 -61.5t-48 -42.5 l-10 -10q-12 -12 -31 -17z" />
<glyph unicode="S" horiz-adv-x="1505" d="M-18 59q0 -111 133 -206q55 -98 198 -150q117 -41 250 -41q279 0 475 205q14 14 25 14q6 0 8 -2h-2q23 -4 46.5 -7t47.5 -3q23 0 50.5 3t60.5 7h-2q119 16 213 111q20 18 20 55v21q0 39 -12 67l2 -2q-2 27 -29 27q-18 0 -26 -15q-27 -39 -76 -71l18 18q20 20 21 57v21 q0 39 -12 68l2 -3q-2 27 -29 27q-16 0 -25 -12q0 -2 -2 -2l2 2q0 -2 -2 -2q-41 -59 -147 -111q22 86 22 160v6q0 164 -147 279l-10 4q-37 51 -92 98l-207 115q-8 4 -11 4q-8 18 -8 47q0 37 23 86q76 153 277 153h3q18 0 37 -3t39 -7q6 -2 12.5 -4t10.5 -4q8 -35 37 -43v2 q16 -4 24 -4h14q14 -14 18.5 -26.5t6.5 -16.5l-2 2q16 -51 41 -59v2q16 -4 25 -4q57 0 88 71q10 20 10 54q0 123 -123 184q-8 20 -39 55q-90 96 -278 96q-164 0 -297 -75q-145 -84 -215 -224q-45 -90 -46 -176q0 -176 154 -282q59 -90 191 -152q29 -14 53 -27.5t47 -27.5 q23 -41 22 -82q0 -66 -53 -168q-8 -14 -22 -14q-8 0 -11 2l-268 67q-197 49 -301 49q-211 0 -231 -184v2q-2 -6 -2 -31zM2 86q18 150 186 164q13 1 27 1q42 -1 103 -9q81 -12 194 -39l270 -68q8 -2 15 -2q24 0 39 27q55 100 55 176q0 111 -121 190q-57 35 -112.5 68 t-112.5 68q-121 96 -121 245q0 78 43 168q63 135 205 213q131 74 289 74q12 0 27.5 -1t33.5 -3q98 -8 170 -60q86 -59 86 -149q0 -29 -8 -45q-29 -59 -70 -60q-16 -6 -29.5 11.5t-19.5 50.5q-27 63 -131 94q-37 10 -82 10q-217 0 -299 -166q-25 -49 -25 -94q0 -98 131 -172 l209 -116q135 -104 136 -259q0 -115 -48 -237q-14 -31 -14 -37q0 -8 16 -12q43 -14 99 -15q35 0 100 37q78 47 113 97q10 12 16 -7q11 -25 11 -59q0 -10 -1 -20q-4 -35 -14 -46q-90 -90 -201 -104q-60 -8 -109.5 -8t-86.5 8q-27 6 -49 -16q-190 -199 -461 -199 q-276 0 -402 141q-58 70 -58 141q0 9 1 19zM154 57q0 -35 30 -59q88 -74 228 -74q123 0 258 66q33 14 32 24q0 14 -47 25q-123 29 -227 50.5t-192 37.5h-4q-78 0 -78 -70zM276 -33q8 37 58 37q88 -16 141 -25.5t74 -13.5q-63 -20 -137 -20q-72 0 -136 22z" />
<glyph unicode="T" horiz-adv-x="1320" d="M-18 -109q0 -111 110 -161q45 -125 295 -150q10 -2 25 -2h34q289 0 457 254q181 271 412 1264q6 27 6 45q0 33 -39 51q-12 2 -68 18q2 14 3.5 22.5t1.5 10.5q0 41 -60 57q-264 72 -373 72h-4q-20 0 -57 2t-53 2q-348 0 -379 -162q-6 -31 -6 -61q0 -90 55 -90q20 0 49 22 q-2 -8 -2 -34q0 -90 55 -90q6 0 78 36q68 39 103 45h-2q14 2 30.5 3.5t34.5 1.5q59 0 113.5 -4.5t107.5 -12.5q-47 -156 -80.5 -271.5t-56.5 -193.5q-147 -485 -205 -538q-39 -35 -70.5 -59.5t-60.5 -35.5q-53 -24 -134 -24h-7h-12q-129 0 -179 65q-27 33 -51 33 q-29 0 -50 -32.5t-21 -82.5zM0 -109q0 41 16.5 69t36.5 28q14 0 35 -27q56 -74 193 -74h14q49 2 88 8.5t68 20.5q61 29 131 96q59 59 211 547l151 512q3 11 3 20q0 26 -25 35q-129 43 -336 43q-23 0 -40.5 -1t-27.5 -3q-106 -20 -139 -59q-18 -23 -37 -23q-35 0 -35 70 q0 23 6 57q29 145 359 146q209 0 481 -76q45 -12 45 -37q0 -14 -6 -41q-231 -993 -408 -1255q-164 -246 -440 -246h-33q-14 0 -24 2q-287 25 -287 188z" />
<glyph unicode="U" horiz-adv-x="1746" d="M94 688q31 -104 133 -104q98 0 99 67q0 8 -3.5 23.5t-7.5 32t-7 31t-3 24.5q0 61 23 112q31 70 86 117t112 53q-4 -33 -12 -65l-139 -363q-135 -356 -154 -419q-10 -45 -10 -74q0 -102 108 -146q20 -74 121 -110q37 -14 74 -14q80 0 184 51q164 76 303 239q6 -66 56 -110 q14 -14 28.5 -22.5t28.5 -12.5q55 -131 262 -131q66 0 140 12h-3q119 16 213 111q21 18 21 55v21q0 39 -12 67l2 -2q-2 27 -29 27q-18 0 -27 -15q-23 -33 -71 -67l14 14q20 20 21 57v21q0 39 -13 68l2 -3q-2 27 -28 27q-16 0 -27 -16v2q-33 -45 -106 -88q-63 -35 -93 -35 h-20q2 2 2 4v-2q82 311 149.5 565t122.5 455h-2q10 31 10 49q0 63 -90 80q-6 0 -8 2h-6q0 6 2 10v10q0 63 -90 80q-35 6 -59 6q-76 0 -103 -61q-182 -393 -289 -584q-92 -162 -173 -276.5t-156 -184.5q94 254 145 397.5t62 182.5q16 66 16 121q0 168 -131 242 q-68 125 -256 143q-10 2 -23 2h-26q-145 0 -277 -90q-198 -136 -198 -392q0 -167 112 -194zM0 879q0 244 193 378q123 86 264 86h24q12 0 23 -2q266 -27 266 -262q0 -49 -16 -114q-31 -115 -252 -701q-14 -37 -15 -61q0 -35 33 -35q35 0 105 47q176 121 393 512 q51 92 122.5 236.5t166.5 349.5q20 49 84 49q18 0 55 -6q74 -12 74 -60q0 -18 -9 -43q-53 -195 -121.5 -448.5t-150.5 -571.5q-2 -6 -2 -26q0 -104 143 -105q37 0 103 37q78 43 114 97q10 12 17 -7q11 -25 11 -59q0 -10 -1 -20q-4 -35 -14 -46q-90 -90 -201 -104 q-41 -4 -75 -7t-60 -3q-251 0 -251 176q0 12 1 24q6 78 39 205q2 8 18.5 42t44.5 93q17 34 17 53q0 21 -23 21q-8 0 -22 -31q-229 -406 -471 -530q-133 -68 -215 -68q-35 0 -68 13q-113 37 -113 135q0 16 3.5 32.5t7.5 37.5q10 35 48 138t103 277q63 166 98 257t41 110 q14 37 15 84q0 110 -105 110h-2q-66 0 -131 -52t-102 -132q-25 -53 -25 -121q0 -14 10.5 -61t10.5 -49q0 -47 -78 -47q-55 0 -90 46t-35 126z" />
<glyph unicode="V" horiz-adv-x="1355" d="M-18 311q0 -35 2 -65.5t6 -52.5v2q14 -129 129 -195q74 -137 256 -137q176 0 370 147q281 215 435 731q4 10 8 11h6q8 -4 19.5 -8.5t25.5 -8.5q12 -6 23 -6q43 0 77 55h2q14 20 15 52q0 45 -35 55l2 -2q-14 4 -31.5 13t-40.5 20q2 2 2 16q0 25 -12 41q4 27 6 50.5t2 43.5 q0 14 -1 27.5t-3 23.5q-14 94 -108 125q-16 45 -56.5 77t-87.5 32q-27 0 -53 -12q-102 -47 -102 -164q0 -123 69 -199v-8q0 -10 -6 -35q-20 -78 -50 -156.5t-71 -165.5v3q-78 -147 -178 -263q-143 -160 -262 -161q-2 8 -2 45q0 35 6 77q27 188 86 347q39 100 102.5 221 t155.5 268v-2q10 14 10 31q0 59 -98 71q-10 0 -12 2q8 8 8 29q0 59 -98 72h-11q-4 2 -8 2q-10 2 -20 2h-25q-57 0 -115 -51q-90 -82 -206 -387q-131 -344 -131 -613zM0 311q0 262 131 604q113 301 203 381q47 45 100 45q10 0 25.5 -1t36.5 -3q79 -10 79 -50q0 -11 -6 -19 q-92 -147 -156.5 -269t-103.5 -223q-59 -154 -88 -352q-6 -47 -6 -80q0 -168 117 -168q131 0 278 160q57 61 103.5 130t85.5 144q82 162 123 326q12 49 0 61q-63 63 -64 185q0 104 90 145q25 10 45 10q47 0 84 -33.5t45 -78.5q2 -12 3 -24.5t1 -24.5q0 -16 -3 -45t-11 -70 q0 -41 16 -51q10 -4 31 -13.5t53 -23.5q21 -6 21 -35t-23.5 -57.5t-50.5 -28.5q-4 0 -16.5 4t-22.5 8l-20 8q-33 8 -43 -22q-152 -510 -426 -721q-186 -143 -359 -143q-104 0 -178 56t-86 155q-4 31 -6 59.5t-2 54.5z" />
<glyph unicode="W" horiz-adv-x="1771" d="M129 -25q70 -129 240 -129q193 0 315 170q18 -16 33 -18q88 -137 241 -137q219 0 433 332q150 233 245 528q4 18 6 20q-2 -2 21 -6q13 -6 29 -6q29 0 57 43q23 39 23 68q0 31 -31 47q-20 10 -32.5 15t-19 10.5t-7.5 13.5t-1 24v11q0 18 2.5 49.5t2.5 42.5v26q-2 10 -3 21 q-16 115 -114 147q-41 111 -144 111q-14 0 -34 -4q-125 -33 -125 -185q0 -10 1 -21t3 -22q10 -63 24 -84v2l13 -18q47 -72 47 -90q0 -8 -2 -10q-27 -139 -185 -420q-170 -301 -270 -301h-8q-12 51 -12 106v4q0 27 36 58h-2q104 92 158 231q25 63 25 119q0 123 -105 135 q-16 96 -112 105h-11q-133 0 -262 -244q-31 -59 -49 -158q-2 -4 -4 -34.5t-6 -88.5q-10 -102 -17 -108q-100 -137 -190 -162v29q0 156 102 473h-2q47 137 135 284h-2q29 47 57.5 92.5t57.5 92.5q10 16 10 37q0 47 -112 65q10 16 10 37q0 35 -59 53q-41 14 -91 15 q-121 0 -258 -261q-204 -387 -204 -757q0 -283 147 -353zM0 324q0 369 205 751q29 57 53.5 95t40.5 61q70 94 145 94q31 0 76 -10q53 -16 53 -37q0 -12 -8 -27l-112 -184q-90 -145 -136 -289q-102 -313 -102 -479q0 -156 90 -156q109 0 240 174q12 16 16 84q2 47 5 87t9 69 q18 96 48 152q124 233 242 233h9q96 -10 97 -117q0 -47 -23 -110q-53 -139 -151 -223q-45 -39 -43 -78q2 -84 16 -125q27 -86 113 -103q7 -1 14 -1q116 0 289 311q76 137 123 242.5t63 183.5q1 4 1 9q0 40 -60 122q-27 45 -27 116q0 72 36 120t103 48q53 0 92 -41t44 -96 q2 -23 2 -57q0 -33 -4 -78q-1 -8 -1 -16q0 -41 19 -52q6 -4 19.5 -10t33.5 -16q18 -10 19 -29q0 -25 -18.5 -57.5t-41.5 -32.5q-4 0 -22.5 6t-24.5 6q-18 0 -29 -35q-57 -176 -127.5 -322.5t-158.5 -264.5q-190 -258 -371 -258q-150 0 -229 135q-23 37 -35 37q-10 0 -19 -15 q-121 -172 -307 -172q-10 0 -24.5 1t-30.5 3q-211 27 -211 351z" />
<glyph unicode="X" horiz-adv-x="1984" d="M-18 -180q0 -86 102 -127q31 -125 254 -125h12q354 0 731 598q39 -55 101 -103q149 -196 425 -196h3q66 0 143 12q119 18 211 111q21 18 21 55v21q0 39 -13 67l2 -2q-2 27 -28 27q-18 0 -27 -15q-27 -39 -76 -71l19 18q20 20 20 57v21q0 39 -12 68l2 -3q-2 27 -29 27 q-18 0 -26 -14q-37 -49 -105 -88q-63 -35 -90 -35q-123 0 -205 53q-57 86 -112 258q-8 23 -9 37q0 23 13 45q51 84 108.5 166t122.5 164q197 244 291 244q8 0 43 -9q10 -2 18.5 -3t16.5 -1h4q53 0 53 64q0 82 -102 110q-2 33 -23 56q-49 55 -137 55q-61 0 -129 -29 q-51 -23 -114.5 -78t-139.5 -147q-41 -47 -74 -92t-59 -86v8q-2 4 -2 8q-35 135 -84 211q-37 57 -96 92q-4 4 -7 11q-66 100 -168 114h-10q-20 2 -32.5 3t-16.5 1q-92 0 -137 -67q-12 -16 -12 -39q0 -55 49 -55q12 0 16 2h8q10 2 16.5 3t10.5 1t20 -4q-2 -6 -6 -11 q-12 -16 -12 -39q0 -55 49 -55q12 0 17 2h8q4 0 8 2h6q27 -88 51.5 -228t48.5 -335q2 -8 2 -16q0 -20 -10 -41q-76 -139 -274 -344q-236 -242 -377 -271q-25 -4 -46.5 -7t-37.5 -3q-25 0 -86 21q-31 6 -29 6q-74 0 -73 -80zM0 -180q0 59 55 59q6 0 23 -4q65 -22 90 -22h2 q18 0 39.5 3t48.5 7q143 27 387 276q203 209 279 348q12 21 12 51q0 11 -2 23q-78 547 -125 623q-41 59 -86 59q-8 0 -17.5 -1t-19.5 -3q-8 -2 -15 -2q-28 0 -28 35q0 16 8 26q41 59 121 60q10 0 25.5 -1t31.5 -3q94 -10 154 -105q53 -80 80 -205q16 -72 27.5 -126t19.5 -89 q6 -23 20 -22q18 0 37 41q43 96 170 248q152 180 246 219q59 26 117 26h4q78 0 121 -49q18 -23 18 -49q0 -43 -31 -43h-6q-6 0 -34.5 6t-42.5 6q-102 0 -302 -245q-63 -78 -122.5 -162t-114.5 -176q-16 -24 -16 -54q0 -21 8 -45q70 -219 147 -307q104 -121 293 -121 q35 0 100 37q78 47 113 97q10 12 16 -7q12 -25 12 -60q0 -9 -1 -19q-4 -35 -15 -46q-86 -86 -200 -104q-39 -4 -73 -7t-67 -3q-332 0 -473 293q-16 35 -35 34q-12 0 -28 -22q-377 -602 -723 -604h-15q-177 0 -223 90q-10 25 -10 39z" />
<glyph unicode="Y" horiz-adv-x="1783" d="M8 725q35 -80 90 -109q4 -2 8.5 -4t10.5 -4q4 0 4 -6q53 -102 137 -102q82 0 82 63q0 27 -25 45h2q-18 14 -18 62q0 68 33 153q90 238 223 238v-6q0 -29 -8 -54q-10 -29 -45 -125t-94 -258v3q-70 -186 -108 -292t-42 -134q-2 -10 -3 -24.5t-1 -31.5q0 -133 111 -159 q33 -113 178 -113q184 0 389 182q-41 -66 -51 -69q-76 -25 -195 -130q-147 -127 -147 -219q0 -45 34 -73h-2q31 -25 70 -37q4 -43 35 -66h-2q53 -47 129 -47q125 0 274 146q121 121 164 241q10 27 49 41q84 20 146 27q193 23 262 71q16 10 32.5 24.5t32.5 31.5q21 18 21 55 v21q0 39 -12 67l2 -2q-2 27 -29 27q-18 0 -27 -15q-20 -35 -73 -69l16 16q20 20 20 57v21q0 39 -12 68l2 -3q-2 27 -29 27q-16 0 -24 -12q0 -2 -2 -2q-37 -49 -105 -88q-63 -35 -90 -35h-39q49 152 89 273.5t69 219.5q119 395 154 510q6 20 6 45q0 63 -101 82h-4q2 4 2 21 q0 61 -100 82q-35 8 -67 8q-66 0 -84 -57q-82 -244 -297 -596q-113 -186 -206 -305t-165 -173q180 432 209 652q2 16 3 33.5t1 37.5q0 190 -137 267q-72 139 -254 139h-29q-301 0 -451 -322q-38 -84 -38 -172q0 -78 26 -143zM0 864q0 88 39 168q143 310 431 310q15 0 30 -1 q268 -16 268 -282q0 -221 -244 -795q-16 -43 -16 -63q0 -41 49 -41q53 0 129 53q147 106 381 487q223 362 299 600q14 43 64 43q10 0 26.5 -2t36.5 -6q84 -16 84 -61q0 -18 -6 -39q-35 -117 -154 -510q-66 -217 -111.5 -362.5t-72.5 -219.5q-10 -33 -8 -39q2 -12 20 -12 q14 0 37 1t51 3q57 6 88 6q35 0 101 37q78 47 112 97q10 12 17 -7q11 -25 11 -59q0 -10 -1 -20q-4 -35 -14 -46q-16 -16 -32 -29.5t-32 -23.5q-61 -43 -268 -67q-172 -20 -195 -80q-41 -115 -159 -234q-143 -139 -261 -139q-63 0 -114 43q-27 20 -27 57q0 82 141 203 q121 104 187 127q27 8 49 51q72 147 124 281.5t87 259.5q2 12 3 18.5t1 8.5q0 4 -6 2q-4 -4 -6 -8.5t-6 -8.5q-37 -63 -84.5 -127.5t-104.5 -132.5q-270 -315 -504 -315q-166 0 -166 149q0 12 1 24.5t4 22.5q12 59 147 426q131 352 141 381q8 25 8 62q0 129 -122 129 q-145 0 -242 -250q-35 -94 -35 -162q0 -57 25 -78q16 -16 16 -28q0 -43 -61 -43q-27 0 -47 12q-51 27 -82 100q-27 61 -27 129z" />
<glyph unicode="Z" horiz-adv-x="1476" d="M-18 -270v-11q0 -96 110 -159q35 -84 184 -140q49 -16 107 -16q285 0 526 254q109 115 138 192q2 18 43 19q45 0 83.5 3t71.5 7q119 18 211 111q21 18 21 55v21q0 39 -13 67l2 -2q-2 27 -28 27q-18 0 -27 -15q-27 -39 -76 -71l19 18q20 20 20 57v21q0 39 -12 68l2 -3 q-2 27 -29 27q-18 0 -26 -14q-55 -82 -172 -121v10q0 180 -127 326v-2q-12 12 -13 18q311 158 312 445q0 137 -86 229q-29 31 -68 57q-10 16 -19.5 26.5t-15.5 18.5q-115 123 -303 123q-127 0 -233 -53q-121 -59 -162 -170v2q-20 -49 -21 -96q0 -119 105 -133 q12 -102 115 -103h12q72 0 72 56q0 25 -21 43q2 2 2 4q0 16 2 26q6 41 21 56q69 73 155 73h2q23 0 74 -10q6 -29 6 -57q0 -31 -12 -74q-29 -96 -96 -168l6 2q-14 -8 -39 -27.5t-62 -48.5q-16 -16 -32 -16q-2 0 -15 4q-49 12 -112 12q-178 0 -178 -131v-12q0 -84 102 -96v-6 q0 -98 139 -99q51 0 113 13q2 -8 2 -39q0 -117 -33 -181q-12 -23 -39 -22q-221 0 -393 -68q-295 -115 -313 -317q0 -6 -2 -10zM2 -262q20 193 303 301q169 65 379 65h6q31 0 49 21q43 51 43 203q0 82 -22 143q-12 32 -44 32q-9 0 -20 -3q-45 -10 -81.5 -16.5t-69.5 -6.5 q-119 0 -119 78v10q8 113 158 113q61 0 110 -14q7 -2 15 -2q24 0 49 20q41 33 63.5 52.5t30.5 23.5q115 121 115 256q0 147 -117 178q-47 12 -86 12q-96 0 -172 -80q-20 -20 -27 -65q-4 -23 -1 -34t6 -17.5t7.5 -12.5t4.5 -14q0 -35 -51 -35h-11q-98 6 -98 113q0 39 18 88 q39 104 154 160q100 49 223 49q27 0 50.5 -3t45.5 -7q123 -29 198 -113t75 -209q0 -16 -1 -30.5t-3 -28.5q-35 -236 -295 -367q-27 -14 4 -49q123 -139 123 -311q0 -18 -5 -52t-5 -53q0 -20 24 -27q20 -4 86 -4q35 0 100 37q78 47 113 97q10 12 16 -7q12 -25 12 -60 q0 -9 -1 -19q-4 -35 -15 -46q-86 -86 -200 -104q-33 -4 -70 -6t-82 -2q-53 0 -61 -33q-23 -68 -133 -184q-236 -248 -512 -248q-63 0 -101 14q-179 64 -179 182q0 7 1 15zM164 -262q0 -80 94 -80q123 0 297 170q104 100 104 145q0 14 -28 14q-8 0 -17 -1q-45 -4 -79.5 -10.5 t-63.5 -12.5q-121 -25 -180 -65q-127 -90 -127 -160zM303 -317q27 45 103 96h-3q20 14 51 27.5t72 23.5q-129 -129 -223 -147z" />
<glyph unicode="[" horiz-adv-x="800" d="M-18 -352h122l-22 -103h346q-16 44 -16 58q4 10 41 57h-125l336 1503h127q-18 43 -19 58q0 10 29 57h-119q-12 27 -12 45q0 10 28 57h-331zM6 -332l377 1692h281q-14 -20 -15 -37q0 -20 8 -37h-112l-344 -1544h108q-20 -27 -20 -37q0 -18 8 -37h-291z" />
<glyph unicode="\" horiz-adv-x="825" d="M-18 1499l530 -1565h68l34 -102h211l-526 1565h-68l-34 102h-215zM6 1479h176l514 -1524h-170z" />
<glyph unicode="]" horiz-adv-x="800" d="M-18 -352h114q14 -31 15 -45q0 -10 -29 -58h332l387 1733h-125l22 102h-346q17 -43 17 -57q-4 -10 -41 -57h123l-334 -1504h-125q16 -45 16 -57t-26 -57zM14 -332q14 20 15 37q0 20 -9 37h113l344 1544h-108q20 27 20 37q0 18 -8 37h291l-377 -1692h-281z" />
<glyph unicode="^" horiz-adv-x="909" d="M-18 385h145l-45 -102h164l221 497l176 -395h55l47 -102h164l-348 784h-57l-45 102h-131zM10 406l330 743h106l330 -743h-121l-262 589l-262 -589h-121z" />
<glyph unicode="_" horiz-adv-x="1146" d="M-18 -129v-143h100v-103h1065v144h-103v102h-1062zM0 -150h1024v-102h-1024v102z" />
<glyph unicode="`" horiz-adv-x="516" d="M-18 1382v13q0 41 88 41h18q47 0 102 -17q33 -14 41 -39q8 -23 12.5 -36t6.5 -17q16 -4 26.5 -6t16.5 -4q33 -14 41 -39q18 -57 39 -94q12 -4 10 -4h-2q31 -16 33 -43q43 -47 71 -60h-2q33 -14 33 -45q0 -29 -27.5 -45t-58.5 -16q-25 0 -49 10h2q-106 41 -205 133 q-35 33 -49 55q-147 117 -147 213zM0 1393q-8 -76 104 -174q96 -84 183 -117q47 -18 86 4q20 14 20 29q0 18 -20 26q-43 23 -107 99q-25 31 -53 114q-6 16 -29 27q-25 10 -96 14q-86 5 -88 -22z" />
<glyph unicode="a" d="M-18 211q0 -102 59 -178q33 -37 70 -53q12 -23 32 -48q60 -75 169 -75h3q125 0 234 108l45 43q14 -4 23.5 -8t15.5 -6q27 -123 266 -123q31 0 58.5 2t52.5 6q123 23 211 111q20 18 20 55v21q0 39 -12 67l2 -2q-2 27 -29 27q-16 0 -24 -13q0 -2 -2 -2q-27 -37 -76 -71 l18 18q20 20 21 57v21q0 39 -13 68l2 -3q-2 27 -28 27q-16 0 -25 -12q0 -2 -2 -2q-37 -49 -104 -88q-63 -35 -90 -35h-23q4 12 6 16q23 66 45.5 124.5t44.5 109.5q43 98 72 160.5t43 93.5q8 16 8 39q0 59 -100 73q-2 0 -2 2h-4q2 10 3 16.5t1 10.5q0 27 -17 43 q-18 18 -67 27q-53 12 -80 12q-14 0 -27 -4h2q-25 -10 -41 -27q-23 -29 -30 -45q2 6 0 6q-6 0 -15 6q-66 37 -151 37h-12q-113 0 -234 -65q-135 -72 -229 -232q-90 -158 -90 -315zM0 211q0 154 88 303q88 154 223 225q111 61 224 64h8q77 0 145 -35q33 -18 45 2q25 47 58 57 q5 2 15 2q20 0 60 -8q59 -8 74 -22q12 -14 12 -33q0 -13 -6 -29q-2 -6 -43 -94q-20 -41 -37.5 -81t-34.5 -79q-104 -240 -104 -307q0 -27 14 -41q33 -33 138 -33q35 0 100 37q78 47 113 97q10 12 16 -7q11 -25 11 -59q0 -10 -1 -20q-4 -35 -14 -46q-82 -82 -201 -104 q-49 -6 -106 -6q-248 0 -248 135q0 29 16 90q2 8 0 12q-10 4 -22 -18q-35 -66 -111 -133q-113 -100 -219 -100q-98 0 -155.5 66.5t-57.5 164.5zM215 221q0 -96 74 -96q39 0 92 53q10 10 31.5 36t56.5 67q20 23 48 65.5t63 102.5q82 131 82 165q0 35 -70 37h-9 q-72 0 -153 -59q-78 -55 -123 -125q-92 -145 -92 -246zM342 170q18 78 84 184q68 106 160 144q-33 -59 -65.5 -110.5t-67.5 -94.5v2q-12 -16 -21.5 -26.5t-15.5 -18.5v2q-63 -74 -74 -82z" />
<glyph unicode="b" horiz-adv-x="817" d="M-18 223q0 -186 122 -231q39 -96 154 -117q33 -6 74 -6q143 0 264 104q111 94 162 238v-2q59 154 59 266q0 160 -121 227l-10 5q-39 78 -121 112q74 111 105 209h-2q23 68 22 123q0 119 -100 133h-4q-12 88 -99 102q-4 0 -10 3h-12q-109 0 -189 -144 q-35 -63 -75.5 -170.5t-87.5 -263.5q-131 -436 -131 -588zM0 223q0 141 133 582q96 313 162 430q74 133 169 133q10 0 21 -2q82 -12 82 -113q0 -162 -164 -381q-14 -16 -28.5 -43.5t-30.5 -66.5q-12 -29 -30.5 -89.5t-45.5 -156.5q-61 -227 -61 -305t69 -78q33 0 56 21 q188 156 188 363q0 14 -71 50q-51 33 -52 99q0 55 37 97t86 42q29 0 64 -19q110 -65 110 -205q0 -109 -57 -262q-47 -127 -133 -208q-121 -119 -275 -119q-37 0 -69 6q-160 27 -160 225zM340 188q10 49 22.5 104.5t28.5 115.5q16 57 26.5 94t14.5 53q6 -6 12 -8h5l2 -2 q16 -8 24 -13l8 -4q2 -18 13 -36q-25 -184 -156 -304z" />
<glyph unicode="c" horiz-adv-x="905" d="M-18 326q0 -178 145 -275q100 -180 432 -180q33 0 61.5 2t53.5 6q123 23 211 111q20 18 20 55v21q0 39 -12 67l2 -2q-2 27 -29 27q-16 0 -26 -17v2q-25 -37 -68 -63l10 10q20 20 21 57v21q0 39 -12 68l2 -3q-2 27 -29 27q-16 0 -27 -16v2q-27 -39 -90 -78 q-61 -41 -106 -43h-19q-8 -2 -16 -2q-88 0 -141 27q-16 43 -17 79q0 14 2 34t6 44q20 137 107 201q45 33 94 33q43 0 51 -39q12 -47 49 -51q4 -2 19 -2q18 0 35 10l-2 -2q68 33 67 121q0 109 -108 145q-29 123 -224 123h-14q-133 0 -258 -101q-150 -119 -184 -346 q-6 -41 -6 -73zM0 326q0 33 6 69q33 217 178 334q120 96 245 96h15q199 -10 207 -125q1 -10 1 -20q0 -74 -56 -102q-20 -10 -37 -5q-23 0 -35 41q-10 41 -47 48q-12 2 -24 2q-55 0 -105 -37q-86 -59 -115 -213q-4 -23 -6 -44.5t-2 -37.5q0 -123 103 -185q72 -45 175 -45 q19 0 40 2q43 4 100 37q76 43 113 95q10 12 16 -7q11 -25 11 -59q0 -10 -1 -20q-4 -35 -14 -46q-114 -110 -308 -110h-3q-180 0 -299 63q-158 86 -158 269z" />
<glyph unicode="d" horiz-adv-x="1234" d="M35 29q25 -31 69 -52q16 -31 33 -49q60 -71 165 -71h3q129 0 277 161q23 -16 51 -22q27 -125 266 -125q197 0 315 119q21 18 21 55v21q0 39 -12 67l2 -2q-2 27 -29 27q-16 0 -25 -13q0 -2 -2 -2q-27 -37 -75 -71l18 18q20 20 21 57v21q0 39 -13 68l2 -3q-2 27 -28 27 q-16 0 -25 -12q0 -2 -2 -2l2 2q0 -2 -2 -2q-37 -49 -104 -88q-63 -35 -91 -35h-22q0 2 1 7l3 15q14 68 47 175.5t86 254.5v-2q66 168 126.5 313.5t115.5 272.5q6 14 6 33q0 70 -105 86q2 4 3 16q0 70 -105 86q-10 2 -47 2q-18 0 -35 -4l2 2q-47 -10 -80 -59 q-4 -8 -29.5 -69.5t-72.5 -180.5q-8 -18 -14.5 -36.5t-14.5 -39.5v2q-33 -84 -49 -127t-18 -47l-2 -2q-8 0 -11 2h2q-109 20 -149 21h-10q-82 0 -195 -64q-170 -96 -246 -270q-77 -176 -77 -304q0 -112 53 -177zM0 203q0 166 86 323q92 160 229 236q102 55 187 61 q16 2 55 -4t98 -16q29 -6 35 14q27 66 49.5 127.5t44.5 118.5q45 117 71 177t30 69q33 43 67 51q14 3 32 3t42 -3q55 -10 66 -21q22 -22 22 -45q0 -12 -6 -24q-98 -229 -158.5 -375.5t-83.5 -210.5q-111 -295 -135 -432q-7 -43 -7 -71q0 -35 11 -46q33 -33 137 -33 q35 0 101 37q78 47 112 97q10 12 17 -7q11 -25 11 -59q0 -10 -1 -20q-4 -35 -14 -46q-114 -110 -298 -110h-3q-248 0 -248 137q0 31 14 102q2 10 -2 15q-6 0 -20 -21q-185 -247 -337 -247h-1q-98 0 -150.5 62t-52.5 161zM205 213q0 -78 67 -78q47 0 101 60q10 10 30.5 39.5 t53.5 76.5q63 94 105 174t65 150q1 4 1 7q0 20 -40 24h-9q-50 0 -118 -41q-100 -59 -160 -158q-96 -162 -96 -254zM342 193q68 188 184 280q-29 -53 -50.5 -89.5t-35.5 -59.5q-45 -74 -84 -115h2z" />
<glyph unicode="e" horiz-adv-x="983" d="M-18 311q0 -172 116 -270q12 -12 31 -23q29 -43 72 -77q100 -82 344 -82q287 0 418 131q20 18 20 55v21q0 39 -12 67l2 -2q-2 27 -29 27q-16 0 -24 -13q0 -2 -2 -2l2 2q0 -2 -2 -2q-37 -53 -93 -86q12 10 34 32t22 58v21q0 39 -13 68l2 -3q-2 27 -28 27q-16 0 -25 -12 q0 -2 -2 -2q-80 -109 -199 -121q-18 -2 -41.5 -3t-52.5 -1h-4l35.5 35.5l42.5 42.5q137 147 154 250q6 39 6 73q0 152 -123 213q-31 70 -111 107q-37 16 -92 16q-117 0 -214 -63.5t-153 -169.5q-82 -162 -81 -314zM0 311q0 145 82 303q51 100 144 162t204 62q53 0 84 -15 q119 -51 119 -198q0 -31 -6 -70q-16 -98 -148 -240q-39 -41 -79 -76.5t-81 -68.5q-4 -4 -6 -7t-4 -5q0 -6 25 -21q68 -37 188 -37q23 0 46.5 1t49.5 3q127 12 216 132q10 12 16 -7q11 -25 11 -59q0 -10 -1 -20q-4 -35 -14 -46q-126 -122 -400 -122h-4q-442 0 -442 329z M229 266q10 0 21 8q137 88 209 209q45 76 45 125q-1 70 -60 70q-43 0 -92 -39t-78 -98q-65 -139 -65 -227q0 -48 20 -48zM391 422l4 8q20 41 49 70q-4 -4 -4 -6q-27 -45 -49 -72z" />
<glyph unicode="f" horiz-adv-x="1054" d="M-18 -279q0 -174 114 -202q25 -84 105 -103q31 -8 75 -8q231 0 338 316q27 80 37 151q20 -4 62 -4q27 0 52.5 2t49.5 6h-2q84 12 148 58h-3q35 20 68 53q21 18 21 55v21q0 39 -13 67l2 -2q-2 27 -28 27q-16 0 -27 -17v2q-27 -39 -74 -69l17 16q20 20 20 57v21 q0 39 -12 68l2 -3q-2 27 -29 27q-16 0 -24 -12q0 -2 -2 -2q-37 -49 -105 -88q-63 -35 -90 -35q-47 0 -86 6q-10 10 -17.5 19.5t-13.5 13.5q-20 14 -22 20l12 11q92 61 207 200q143 174 207 338q84 217 84 338q0 158 -123 211q-53 123 -201 123q-225 0 -430 -494 q-45 -106 -88 -236t-86 -284l-55 -196q-16 -57 -26.5 -99.5t-18.5 -70.5q-45 -193 -45 -302zM0 -279q0 96 47 297l100 365q88 313 172 518q199 481 412 481q94 0 147.5 -56t53.5 -155q0 -117 -82 -329q-66 -166 -205 -334q-115 -135 -203 -197q-20 -14 -20 -26q0 -14 33 -39 q31 -23 53 -86q10 -29 29 -35q74 -23 147 -23q35 0 100 37q78 47 113 97q10 12 16 -7q12 -25 12 -60q0 -9 -1 -19q-4 -35 -15 -46q-31 -31 -63 -51q-99 -62 -213 -62q-39 0 -80 7q-20 2 -25 -14q-4 -41 -13 -79t-21 -73q-102 -301 -320 -301q-39 0 -72 8q-102 23 -102 182z M188 -270q0 -39 29 -45q4 -1 9 -1q56 0 124 183q31 82 31 137q0 20 -23.5 41t-46.5 37q-6 6 -12 6q-10 0 -20 -29q-4 -14 -16.5 -53t-31.5 -104q-43 -158 -43 -172zM381 446q0 -2 4 -6q6 0 29 25q139 164 270 434q86 174 86 256q0 56 -43 62h-5q-68 0 -144 -213l-185 -515 q-12 -35 -12 -43z" />
<glyph unicode="g" horiz-adv-x="1243" d="M-18 203q0 -176 118 -221q43 -106 179 -119h20l-18 -19q-117 -117 -117 -206q0 -100 102 -119q12 -104 127 -105q176 0 346 385q20 49 142 66q43 4 74.5 8t54.5 6q125 23 213 111q20 18 20 55v21q0 39 -12 67l2 -2q-2 27 -29 27q-16 0 -26 -17v2q-10 -14 -27.5 -30.5 t-40.5 -32.5l10 10q20 20 21 57v21q0 39 -13 68l2 -3q-2 27 -28 27q-18 0 -27 -14q-35 -41 -90 -80h2q-66 -43 -106 -43h-4q25 66 44 116t33 87q123 315 123 338q0 49 -47 67q-25 8 -61 12q6 14 6 23q0 45 -47 68q-29 12 -72 12h-25q-31 0 -43 -4q-41 -18 -49 -33 q-18 -41 -28 -41q-2 0 -9 8q-84 47 -167 47q-139 0 -273 -94q-135 -94 -207.5 -233.5t-72.5 -292.5zM0 203q0 150 72 282q72 135 200 226q131 92 263 92q84 0 155 -43q8 -12 21 -12q23 0 43 45q8 14 43 30q8 2 23 3h10q11 0 26 -1q51 -4 64 -10q35 -16 34 -49 q0 -10 -120 -330q-109 -283 -129 -332q-4 -10 -5 -10q-4 -10 0 -12q10 0 15 2q70 14 166 18q53 4 116 48q63 41 97 86q10 12 16 -7q11 -25 11 -59q0 -10 -1 -20q-4 -35 -14 -46q-86 -86 -201 -104q-37 0 -129 -12q-129 -14 -158 -78q-98 -229 -182 -301t-145 -72 q-106 0 -107 101q0 84 111 192q27 27 53.5 46.5t52.5 33.5q20 10 29 18q82 174 111 240q2 2 2 4t2 6q0 6 -10 6t-19 -14q-29 -49 -125 -115q-110 -70 -194 -70q-10 0 -19 1q-178 14 -178 217zM211 217q0 -88 72 -88q82 0 245 227q97 133 136 242q4 12 4 18q0 43 -76 43 q-37 0 -76 -17t-79 -49t-77.5 -75t-68.5 -92q-80 -129 -80 -209zM344 176q18 53 68 137h-2q80 133 188 195q-45 -82 -86 -139q-100 -141 -168 -193z" />
<glyph unicode="h" horiz-adv-x="1226" d="M-18 47q0 -59 57 -72q4 -2 20 -2q18 0 25 2v-6v-12q-2 -6 -2 -10q0 -61 59 -74q4 -2 21 -2q29 0 67 8q55 8 74 74q41 127 156 301q14 20 23.5 33.5t15.5 23.5q-10 -35 -19.5 -64.5t-13.5 -51.5v-9q-2 -4 -2 -8q-2 -8 -2 -18v-21q0 -92 106 -137q35 -133 312 -133 q207 0 327 121q21 18 21 55v21q0 39 -13 67l3 -2q-2 27 -29 27q-16 0 -27 -17v2q-27 -37 -76 -71l19 18q20 20 20 57v21q0 39 -12 68l2 -3q-2 27 -29 27q-16 0 -26 -16v2q-37 -49 -105 -88q-63 -35 -90 -35h-45q2 4 3 11t5 18q45 135 78 231t53 156q8 18 9 47 q0 117 -105 151v-2h-4q-18 76 -98 105v-2q-31 10 -66 10q-51 0 -108 -23l114 293q14 35 15 62q0 45 -39 71q-16 12 -64 17v14q0 45 -39 72q-20 14 -81 18h-21q-39 0 -59 -6q-45 -14 -72 -72q-33 -70 -164 -501q-76 -248 -124 -428.5t-68 -294.5q0 -4 -2 -11v-12zM2 66 q39 215 195 720q135 446 161 500q23 49 60 60q20 6 55 6h19q55 -4 69 -15q31 -25 31 -55q0 -20 -12 -53q-119 -311 -184.5 -477t-78.5 -195q-14 -33 7 -33q6 0 8 8q63 104 186 222q75 73 173 73h3q35 0 60 -8q90 -29 90 -131q0 -23 -6 -41q-20 -55 -52 -151.5t-79 -235.5 q-14 -41 -15 -76q0 -82 172 -82q35 0 101 37q78 47 112 97q10 12 17 -7q11 -25 11 -59q0 -10 -1 -20q-4 -35 -14 -46q-112 -112 -310 -112h-4q-295 0 -295 147q0 10 1 23.5t3 27.5q6 51 68 226q66 193 65 198q0 25 -20 25t-53 -21q-68 -41 -205 -249q-119 -180 -160 -310 q-14 -49 -57 -59q-41 -6 -62 -6q-13 0 -18 2q-43 8 -43 52q0 8 2 18zM459 500q2 2 3 5l1 3q14 16 27.5 32.5t29.5 32.5z" />
<glyph unicode="i" horiz-adv-x="720" d="M-18 207q0 -35 4 -60.5t16 -48t31.5 -43t50.5 -45.5q4 -4 8 -6l8 -4q23 -45 86 -90q51 -39 195 -39q201 0 319 119q21 18 21 55v21q0 39 -12 67l2 -2q-2 27 -29 27q-18 0 -27 -15q-27 -39 -75 -71l18 18q20 20 20 57v21q0 39 -12 68l2 -3q-2 27 -28 27q-16 0 -25 -12 q0 -2 -2 -2q-37 -49 -104 -88q-63 -35 -91 -35h-28q2 6 6 22h-2q29 88 51.5 154t36.5 109q29 84 48 144t34 101q0 4 2 6v7q0 66 -53 82q-16 4 -28.5 5t-23.5 3q0 4 2 6v6q0 66 -53 82q-25 8 -69 8q-127 0 -150 -90v2q-16 -53 -26.5 -87t-14.5 -44h2q-8 -23 -17 -54.5 t-24 -76.5q-70 -233 -69 -287v-14zM0 221q2 25 19.5 94.5t52.5 186.5q27 88 46 152.5t34 109.5q16 53 47 61q44 13 83 13q32 0 62 -9q18 -4 29.5 -26.5t7.5 -46.5q-51 -147 -92 -272.5t-76 -229.5q-16 -53 -16 -78q0 -27 14 -39q41 -35 147 -35q35 0 101 37q78 47 112 97 q10 12 17 -7q11 -25 11 -59q0 -10 -1 -20q-4 -35 -14 -46q-114 -110 -302 -110h-3q-137 0 -183 33q-59 43 -77.5 83t-18.5 111zM279 1206q0 -94 102 -119q10 -68 78 -94q27 -10 51 -10q80 0 135 90q18 31 19 78q0 82 -70 113q-12 4 -21.5 6t-13.5 4q-6 63 -67 92 q-37 12 -56 12q-94 0 -127 -67v2q-31 -55 -30 -107zM299 1206q0 66 37 109t100 43q104 0 105 -105q-1 -38 -17 -67q-47 -80 -116 -80q-45 0 -77 27.5t-32 72.5z" />
<glyph unicode="j" horiz-adv-x="968" d="M84 -481q8 -47 44 -76t85 -29q88 0 164 107q23 35 67 149q18 47 30.5 78t21.5 45v-2q37 55 61 68h-2q14 4 57 8q219 6 336 123q21 18 21 55v21q0 39 -13 67l2 -2q-2 27 -28 27q-16 0 -25 -13q0 -2 -2 -2q-27 -37 -76 -71l19 18q20 20 20 57v21q0 39 -12 68l2 -3 q-2 27 -29 27q-16 0 -26 -16v2q-37 -49 -105 -88q-63 -35 -90 -35h-28q2 2 2 4h-2l4 16q55 170 98 297t72 213q0 4 2 6v7q0 66 -54 82q-16 4 -28.5 5t-22.5 3q0 4 2 6v6q0 66 -53 82q-25 8 -70 8q-127 0 -149 -90l2 2q-37 -111 -59.5 -182.5t-32.5 -104.5q-78 -279 -82 -417 q0 -37 -8 -48q-10 -27 -22.5 -56.5t-22.5 -61.5v2q-6 -20 -17 -25q-155 -97 -155 -229q0 -100 102 -129zM0 -354q0 123 147 215q18 10 39 67q8 20 14.5 39t14.5 37q12 20 12 62q4 141 82 411q29 98 51.5 169t38.5 118q14 51 47 61q44 13 83 13q33 0 63 -9q18 -4 29.5 -26.5 t7.5 -46.5q-49 -143 -91 -268.5t-77 -235.5q-8 -23 -16.5 -57.5t-18.5 -81.5q-2 -14 2 -19q2 -2 14 0q27 8 164 8q35 0 101 37q78 47 112 97q10 12 17 -7q11 -25 11 -59q0 -10 -1 -20q-4 -35 -15 -46q-86 -86 -200 -104q-12 0 -99 -6q-70 -6 -88 -14q-31 -16 -67 -74 q-10 -16 -25.5 -50t-32.5 -83q-33 -96 -61 -138q-72 -98 -147 -98q-27 0 -60 17q-51 27 -51 92zM500 1206q0 -94 102 -119q10 -68 78 -94q27 -10 51 -10q80 0 135 90q18 31 19 78q0 82 -70 113q-12 4 -21.5 6t-13.5 4q-6 63 -67 92q-37 12 -56 12q-94 0 -127 -67v2 q-31 -55 -30 -107zM520 1206q0 66 37 109t100 43q104 0 105 -105q-1 -38 -17 -67q-47 -80 -116 -80q-45 0 -77 27.5t-32 72.5z" />
<glyph unicode="k" horiz-adv-x="1091" d="M-18 33q0 -59 94 -60h12q-6 -23 -6 -32v-9q0 -61 96 -61q104 0 123 51q23 57 43.5 116.5t40.5 123.5h-2q4 12 4 14q-6 -47 -6 -65v-7q0 -68 102 -104q2 -55 81 -92t192 -37q197 0 315 119q21 18 21 55v21q0 39 -13 67l2 -2q-2 27 -28 27q-16 0 -27 -17v2q-27 -37 -76 -71 l19 18q20 20 20 57v21q0 39 -12 68l2 -3q-2 27 -29 27q-18 0 -26 -14q-37 -49 -105 -88q-63 -35 -90 -35h-18q8 47 11 75.5t5 39.5v12q0 55 -53 92q158 111 196 260q6 20 7 51q0 88 -101 97h-2v6q0 88 -100 96h-17q-25 0 -39 -6l111 305q8 18 8 41q0 72 -104 82q2 6 2 20 q0 82 -119 82h-8q-121 0 -152 -86q-25 -66 -72.5 -216t-119.5 -386q-88 -287 -133 -447.5t-49 -199.5v-8zM0 39q10 76 184 643q156 512 191 602q26 72 130 72h11q98 -4 98 -62q0 -20 -6 -34q-88 -246 -154.5 -429.5t-113.5 -312.5q-2 -10 -4 -19.5t-4 -15.5q-4 -6 4 -10 q4 -4 20 0q10 -2 33 -1t57 3q14 2 50 47q23 31 53 117q29 84 35 123q11 70 73 70q7 0 15 -1q82 -8 82 -75q0 -80 -68 -172q-55 -74 -135 -129q-18 -12 6 -27q48 -28 48 -75q0 -5 -1 -11q-4 -39 -24 -156q-2 -9 -2 -18q0 -45 47 -57q25 -8 104 -9q35 0 100 37q78 47 113 97 q10 12 16 -7q12 -25 12 -60q0 -9 -1 -19q-4 -35 -15 -46q-114 -110 -298 -110h-3q-104 0 -177 31.5t-75 78.5v11q-1 23 5 62q8 50 22 128q4 18 -4 27q-8 6 -27 0q-45 -15 -89 -15h-15q-14 2 -31 -47q-10 -35 -31.5 -94t-50.5 -145q-16 -37 -104 -37q-78 0 -76 45zM571 444 q18 10 29 21q-4 -8 -8 -15.5t-8 -15.5q-2 2 -5.5 4t-7.5 6z" />
<glyph unicode="l" horiz-adv-x="696" d="M-18 170q0 -117 90 -170q8 -4 13 -6t9 -4q23 -61 80 -92t164 -31q215 0 338 123q20 18 20 55v21q0 39 -12 67l2 -2q-2 27 -29 27q-16 0 -24 -13q0 -2 -2 -2q-27 -37 -76 -71l18 18q20 20 21 57v21q0 39 -12 68l2 -3q-2 27 -29 27q-18 0 -27 -14q-37 -49 -104 -88 q-63 -35 -90 -35h-23q2 6 6 22q25 106 65 241.5t93 303.5v-2q27 68 41 82q47 63 84 129t59 135q14 41 15 80q0 127 -109 150q-25 94 -110 104h-15q-133 0 -233 -254q-12 -29 -40 -121t-73 -245q-47 -168 -73.5 -292t-34.5 -208q0 -6 -2 -12v-13v2q-2 -10 -2 -24v-31zM0 170 q0 166 115 571q45 156 71.5 246t36.5 117q96 244 220 244h10q98 -10 98 -131q0 -37 -12 -74q-41 -127 -142 -258q-16 -18 -43 -86q-111 -336 -159 -547q-14 -57 -15 -80q0 -27 15 -41q29 -29 139 -29q35 0 100 37q78 47 113 97q10 12 16 -7q11 -25 11 -59q0 -10 -1 -20 q-4 -35 -14 -46q-118 -114 -319 -114h-4q-100 0 -154 26q-82 43 -82 154z" />
<glyph unicode="m" horiz-adv-x="1667" d="M-18 35q0 -59 106 -60h2q-2 -10 -4 -16t-4 -10v-15q0 -61 108 -61q111 0 134 53q51 100 91 175t68 124q-20 -53 -36.5 -98t-30.5 -82v2q-4 -12 -4 -18q0 -55 116 -56q-6 -12 -10 -28v2q-4 -12 -4 -19q0 -57 119 -57q117 0 135 61q20 74 154 271q-6 -31 -7 -53 q0 -106 109 -150q47 -133 281 -133q219 0 342 123q20 18 20 55v21q0 39 -12 67l2 -2q-2 27 -29 27q-16 0 -24 -13q0 -2 -2 -2l2 2q0 -2 -2 -2q-27 -37 -76 -71l18 18q20 20 21 57v21q0 39 -13 68l2 -3q-2 27 -28 27q-18 0 -27 -14q-29 -41 -88 -80q-61 -41 -106 -43h-11 q0 2 2 4l56 149q35 92 54 149.5t28 86.5q12 45 12 84q0 92 -78 129h2q-4 4 -31 14q-14 59 -73 88h2q-41 23 -92 23q-121 0 -248 -139q-25 23 -64 30q-23 111 -153 111q-96 0 -201 -92l-12 6l-4 2q-16 6 -28.5 9t-19.5 5q0 4 3 11v10q0 41 -52 65q-41 18 -86 19 q-102 0 -121 -78v2q-145 -526 -208 -762v-14zM0 43q53 186 105.5 374.5t105.5 387.5q14 61 100 61q41 0 72 -14q45 -18 45 -49q0 -14 -8 -29q-10 -16 -21.5 -47t-27.5 -72q-35 -98 -35 -118q0 -10 4 -11q10 0 31 33q180 272 340 272q6 0 15 -1t19 -3q102 -18 103 -114 q0 -66 -39 -150q-16 -35 -6 -35q2 2 18.5 20.5t44.5 57.5q174 223 310 223q61 0 104 -34.5t43 -96.5q0 -63 -92 -311q-66 -180 -68 -182q-6 -23 -6 -35q0 -69 116 -69q15 0 32 1q51 4 118 48q59 39 95 86q10 12 16 -7q11 -25 11 -59q0 -10 -1 -20q-4 -35 -14 -46 q-118 -114 -324 -114h-4q-266 0 -266 160q0 63 51 196q16 35 30.5 69t29.5 68q49 113 49 129q0 31 -31 31q-33 0 -84 -70q-35 -45 -80 -107.5t-98 -148.5q-127 -197 -156 -278q-14 -45 -117 -45q-98 0 -98 35q0 -6 219 567q7 20 7 33q0 26 -25 30h-6q-42 0 -111 -81 q-53 -63 -178 -287q-117 -209 -135 -252q-16 -43 -115 -43q-89 0 -89 39q0 4 1 8z" />
<glyph unicode="n" horiz-adv-x="1204" d="M-18 23q0 -61 86 -62q14 0 20 2q-6 -23 -6 -33v-8q0 -63 88 -63q115 0 135 88q16 57 107 227q20 39 39.5 72t35.5 61q-35 -109 -34 -157q0 -102 108 -150q25 -76 117 -109q61 -24 151 -24h7q59 0 137 12q123 23 211 111q20 18 20 55v21q0 39 -12 67l2 -2q-2 27 -29 27 q-16 0 -26 -17v2q-27 -37 -76 -71l18 18q20 20 21 57v21q0 39 -12 68l2 -3q-2 27 -29 27q-16 0 -27 -16v2q-37 -49 -104 -88q-63 -35 -90 -35h-11q0 2 3 4l55 149q35 92 54.5 149.5t27.5 86.5q14 51 14 98q0 92 -92 133q-12 4 -14 7q-16 63 -88 96q-29 14 -70 14 q-98 0 -213 -96q-25 18 -82 18h-8q0 6 2 9q2 10 3 18t1 12q0 63 -100 64h-25q-43 0 -57 -8h2q-51 -14 -70 -68q-10 -29 -35.5 -125t-66.5 -262q-43 -180 -65.5 -277.5t-24.5 -113.5v-8zM0 28q4 30 92 390q84 346 98 383q16 41 60 57q16 6 54 6h20q79 -4 79 -42 q0 -30 -71 -240q-10 -25 2 -25t20 14q213 268 367 269q33 0 61 -13q80 -35 80 -114q0 -76 -94 -326q-66 -180 -68 -182q-6 -23 -6 -35q0 -68 148 -68q35 0 100 37q78 47 113 97q10 12 16 -7q11 -25 11 -59q0 -10 -1 -20q-4 -35 -14 -46q-118 -114 -334 -114h-4 q-84 0 -145 20q-111 39 -111 140q0 59 49 198q39 117 80 197q25 49 25 73q0 20 -19 27q-6 2 -13 2q-42 0 -114 -74q-88 -96 -190 -286q-94 -178 -109 -234q-8 -33 -32 -49q-38 -23 -78 -23q-21 0 -43 7q-29 9 -29 34v6zM465 514q4 8 5 12t3 9q20 27 41 45t41 30 q-43 -41 -90 -96z" />
<glyph unicode="o" horiz-adv-x="862" d="M-18 231q0 -168 127 -233q74 -141 270 -141q256 0 393 278q90 184 90 334q0 168 -114 203q-35 108 -148 108h-2q-29 0 -49 -6q-12 57 -89 57h-5q-133 -2 -267 -122q-121 -111 -163.5 -244t-42.5 -234zM0 231q0 94 43 224q41 127 158 237q125 115 254 119q51 0 65 -20 q20 -27 -16 -48q-27 -14 -98 -102q-203 -250 -203 -444q0 -96 92 -97q84 0 151 97q33 45 74 165q33 92 33 121q0 27 -23 43q-45 33 -45 103q0 131 113 131q141 0 141 -189q0 -150 -88 -325q-131 -266 -375 -266q-72 0 -133 22q-143 57 -143 229zM328 125q20 182 186 387 q2 -2 4 -2q14 -8 14 -27q0 -23 -32 -114q-20 -59 -38 -99.5t-32 -60.5q-45 -63 -102 -84z" />
<glyph unicode="p" horiz-adv-x="1368" d="M-18 -432q0 -37 38 -55h-2q20 -14 68 -15h6q-2 -4 -2 -6t-2 -4q-6 -16 -6 -23q0 -37 41 -55h-2q20 -14 67 -14q18 0 41 2t46.5 10t44 24.5t32.5 45.5l54 188q20 72 34.5 125t24.5 88h6q27 -4 46.5 -5t29.5 -3q29 -4 43 -5l14 -1v29l4 -29q57 10 91 17t44 12h7q2 2 6 2 q8 0 10 -2q90 -29 197 -29h24q236 0 361 125q20 18 20 55v21q0 39 -12 67l2 -2q-2 27 -29 27q-10 0 -49 -35l-24.5 -24.5t-24.5 -22.5l14 14q20 20 21 57v21q0 39 -13 68l2 -3q-2 27 -28 27q-18 0 -27 -14q-35 -47 -100 -86q-33 -16 -53 -25q6 12 10 17q108 166 108 349 q0 132 -121 197q-29 57 -88 94t-122 37q-53 0 -109 -30q-2 35 -45 57q-25 10 -68 10q2 0 2 2v-2q8 14 9 33q0 39 -45 59q-25 11 -70 11h-8q-53 -4 -68 -11q-35 -14 -57 -59q-59 -211 -102.5 -365.5t-71.5 -259.5q-72 -248 -125 -418.5t-88 -265.5q-6 -16 -6 -22zM4 -416 q41 111 95.5 281t121.5 403q59 209 103.5 366t72.5 263q14 31 43 43q12 4 62 8h13q32 0 54 -8q31 -15 31 -44q0 -10 -4 -22q-10 -31 -29.5 -95t-46.5 -163q-4 -16 0 -18q4 -4 10 4q176 207 304 207q49 0 88 -21q120 -59 120 -180q0 -34 -12 -133q-10 -86 -92 -209 q-57 -86 -92 -121q-25 -25 -6 -30q42 -16 100 -16q33 0 70 5q127 18 209 132q10 12 16 -7q11 -25 11 -59q0 -10 -1 -20q-4 -35 -14 -46q-120 -117 -339 -117q-16 0 -32 1q-131 6 -184 22q-16 8 -35 4q-16 -4 -51 -11t-88 -15l-131 12q-16 2 -27 -8l-117 -414 q-16 -39 -57 -47q-48 -11 -83 -11t-58 11q-27 14 -27 38q0 7 2 15zM403 184q-1 -4 -1 -8q0 -9 8 -10q4 0 29.5 6t54.5 6q96 0 149 -31h1q9 0 34 27q57 63 110 172q60 117 62 193v8q0 94 -88 94q-27 0 -55 -16q-59 -33 -175 -207q-109 -164 -129 -234zM582 190q18 33 35.5 62 t33.5 53v-2q115 172 168 201q2 0 4 2h2q-25 -150 -163 -318h2q-6 -8 -10.5 -12t-6.5 -6q-23 14 -65 20z" />
<glyph unicode="q" horiz-adv-x="1234" d="M-18 240q0 -180 127 -242q45 -92 159 -123h-2q20 -6 51 -6q45 0 99 20q-39 -117 -59.5 -184t-22.5 -84v-16q0 -88 102 -94v-9q0 -94 105 -94h6q115 0 141 107q14 59 23.5 105t15.5 75v-2q37 137 90 162q33 14 92 18q82 2 95 6q123 23 210 111q21 18 21 55v21q0 39 -12 67 l2 -2q-2 27 -29 27q-18 0 -27 -15q-27 -39 -75 -71l18 18q20 20 21 57v21q0 39 -13 68l2 -3q-2 27 -28 27q-18 0 -27 -14q-37 -49 -104 -88q-63 -35 -91 -35h-20l162 520l-2 -2q8 14 8 35q0 69 -106 69h-3h-2q8 14 9 33q0 70 -109 70h-25q-84 0 -102 -39q-4 -16 -10 -21h-6 q-78 49 -164 50q-150 0 -279 -111q-111 -98 -182 -242q-59 -129 -59 -245zM0 240q0 113 59 237q68 139 177 234q125 106 266 106q84 0 153 -45q29 -16 43 21q12 35 90 35q10 0 21 -1q88 -2 88 -49q0 -8 -6 -26q-47 -154 -94 -307.5t-95 -307.5q-10 -37 -10 -43q4 -4 10 -2 q41 4 83 7t87 3q35 0 101 37q78 47 112 97q10 12 17 -7q11 -25 11 -59q0 -10 -1 -20q-4 -35 -14 -46q-82 -82 -201 -104q-25 -4 -53.5 -5t-63.5 -3q-47 -4 -73 -17q-70 -35 -103 -174q-10 -45 -18 -88t-19 -88q-34 -94 -125 -94h-4q-85 4 -85 75q0 6 1 13q2 12 22.5 80 t61.5 192q39 119 62.5 190t31.5 95q6 18 7 25q0 2 -4 6q-4 0 -33 -35q-143 -180 -287 -180q-20 0 -45 6q-170 41 -170 242zM274 133q53 0 119 74q35 41 115 164q121 188 121 262q0 49 -70 49q-111 0 -248 -190q-114 -157 -114 -275q0 -84 77 -84zM326 170q14 82 96 197 q41 57 80 98t76 63q-35 -71 -86 -147q-57 -86 -98.5 -138.5t-67.5 -72.5z" />
<glyph unicode="r" horiz-adv-x="1216" d="M-18 80q0 -33 10 -64q12 -35 37 -34h8q16 4 27.5 6t19.5 4q-2 -2 -2 -12q0 -33 10 -64q14 -37 39 -37h8q193 31 357 283q-2 -6 -2 -29q0 -104 106 -141q33 -125 246 -125q61 0 139 12h-2q119 16 213 111q21 18 21 55v21q0 39 -13 67l2 -2q-2 27 -28 27q-16 0 -27 -17v2 q-27 -37 -76 -71l19 18q20 20 20 57v21q0 39 -12 68l2 -3q-2 27 -29 27q-16 0 -24 -12q0 -2 -2 -2q-27 -39 -91 -80q-57 -39 -106 -43h-4q16 41 29.5 74.5t23.5 60.5q63 160 74 197l-2 -2q4 16 4 24q0 51 -43 86h2q-10 8 -26.5 18.5t-39.5 22.5q-6 35 -39 62h3 q-59 39 -99 61v18q0 113 -104 119q-16 102 -107 103h-4q-109 0 -133 -133q-2 -10 -3 -20.5t-1 -20.5q0 -18 20 -72q4 -14 7 -16v-5q-2 0 -4 -6q-86 -295 -203 -440v2l-15 -16q-55 -59 -73 -74q-41 -31 -99 -43q-35 -12 -34 -43zM0 80q0 18 8 20q113 25 193 119 q53 63 121 201q70 139 104 268q2 8 3 11t1 6q0 2 -4 12t-9 23.5t-9.5 27.5t-4.5 25q0 8 1.5 18t3.5 20q19 115 110 115h6q80 -4 88 -100q2 -16 -10 -53q-6 -18 19 -31q25 -14 49 -26.5t51 -24.5q80 -47 98 -62q35 -28 35 -69q0 -9 -2 -19q-4 -16 -21.5 -63t-50.5 -129 q-33 -76 -50 -124t-21 -69q-2 -6 -2 -18q0 -45 49 -54q15 -4 47 -4q22 0 51 2q51 4 119 48q59 39 94 86q10 12 16 -7q12 -25 12 -60q0 -9 -1 -19q-4 -35 -15 -46q-86 -86 -200 -104q-37 -4 -71 -7t-63 -3q-231 0 -231 143q0 68 70 258q35 98 49 119q14 25 0 55 q-16 31 -82 66q-16 10 -27 -19q-43 -109 -69.5 -173t-36.5 -87q-160 -311 -385 -352q-12 0 -19 12q-14 31 -14 68z" />
<glyph unicode="s" horiz-adv-x="1216" d="M-18 80q0 -37 16 -74l-2 2q2 -27 43 -26q16 4 26.5 6t18.5 4q-2 -2 -2 -12q0 -37 16 -74l-2 2q6 -29 45 -29q96 18 160 70q82 -82 217 -82h29q23 0 53.5 3t65.5 11q25 12 43 19q2 2 8 2h4q41 -29 123 -29h39q25 0 44 1t36 3q137 16 233 113q21 18 21 55v21q0 39 -13 67 l2 -2q-2 27 -28 27q-16 0 -27 -17v2q-27 -39 -74 -69q12 10 17 16q20 20 20 57v21q0 39 -12 68l2 -3q-2 27 -29 27q-16 0 -24 -12q0 -2 -2 -2l2 2q0 -2 -2 -2q-33 -49 -103 -88q16 49 17 82v14q0 82 -39 178q-37 100 -95 148l5 -2q0 10 2 14q10 20 18 37.5t16 34.5v-2 q27 49 29 77v6q0 84 -102 95v8q0 96 -119 96h-8q-31 0 -61.5 -11t-56.5 -29.5t-45.5 -43t-25.5 -51.5v-8q-2 -12 -3 -20.5t-1 -12.5q0 -35 15 -66l-3 3l9 -29q-10 -29 -44 -81t-87.5 -128t-95.5 -130t-70 -87h2q-96 -109 -191 -125q-31 -10 -30 -45zM0 80q0 20 8 22 q106 18 209 134q25 29 66 83t100 136q117 162 135 221q0 4 -3 15t-7 25.5t-7 28t-3 23.5q0 8 1 17.5t3 19.5q10 51 65 84q56 35 106 35h5q100 -4 98 -80q-35 -90 -61 -142q-10 -29 0 -36q18 -16 37.5 -45t40.5 -70q47 -91 47 -191v-16q-4 -68 -41 -135q-2 -2 -9.5 -13.5 t-21.5 -31.5q-27 -39 -27 -43q0 -20 73 -20q18 0 40 1q55 4 119 48q59 39 94 86q10 12 16 -7q12 -25 12 -60q0 -9 -1 -19q-4 -35 -15 -46q-113 -109 -296 -109q-20 0 -40 1q-86 2 -114 22q-8 6 -25 2q-49 -18 -51 -20q-16 -4 -43 -6t-66 -4q-13 -1 -26 -1q-132 0 -207 77 q-10 12 -21 2q-61 -49 -155 -68q-18 0 -21 12q-14 29 -14 68zM354 213q0 -4 31 -25q31 -18 41 -65q2 -9 16 -9q10 0 27 5q98 34 137 157q14 43 15 101q0 76 -23 125q-5 11 -12 11q-2 0 -4 -1q-10 0 -17 -14q-4 -10 -27.5 -44t-68.5 -92q-68 -90 -104 -129q-10 -16 -11 -20z " />
<glyph unicode="t" horiz-adv-x="722" d="M-18 674q0 -25 28 -35h8q2 -2 9 -2q10 -2 61 -2q-18 -57 -30.5 -100t-20.5 -74q-51 -174 -51 -228v-22q0 -152 120 -211q61 -131 277 -131q199 0 319 121q21 18 21 55v21q0 39 -12 67l2 -2q-2 27 -29 27q-18 0 -27 -15q-27 -39 -75 -71l18 18q20 20 21 57v21q0 39 -13 68 l2 -3q-2 27 -28 27q-16 0 -27 -16v2q-37 -49 -104 -88q-63 -35 -91 -35q-25 0 -30 2l6 18q41 131 68.5 225.5t44.5 153.5l-3 -2q0 2 5 6h-1q0 3 136 39l6 -41q25 4 35 15q27 27 26 84v12q-6 39 -32 45h-23h-12q-6 0 -15 2h-26q6 25 6 43v12q-6 31 -23 41q14 45 36 110.5 t50 151.5q2 4 2 27q0 53 -38 59q-37 8 -68 13q2 2 3 7t1 23q0 72 -123 72q-113 0 -133 -45q-8 -25 -16 -45q-53 -170 -105 -350q-4 -4 -4 -6h-14q-6 0 -17 2h-34q-41 0 -64 -35q0 -8 -2 -10v4q-12 -43 -18 -62h2q-4 -16 -4 -20zM2 688q14 43 25.5 65.5t40.5 22.5h32 q10 -2 17 -2h16q10 0 25 21q37 127 65.5 223t48.5 162q8 20 43 30q38 10 76.5 10t77.5 -10q25 -6 25 -39q0 -10 -2 -22q-33 -98 -61 -186.5t-54 -171.5q-2 -10 1 -14.5t18.5 -7.5t43 -4t74.5 -3q14 -2 16 -27q1 -5 1 -11q0 -25 -15 -58q-6 -16 -27 -19q6 2 -139 2 q-16 0 -24 -18q-31 -111 -58.5 -204t-52.5 -173q-7 -25 -7 -46q0 -35 21 -56q49 -49 131 -50q35 0 101 37q78 47 112 97q10 12 17 -7q11 -25 11 -59q0 -10 -1 -20q-4 -35 -14 -46q-112 -112 -302 -112h-3q-278 0 -278 219q0 11 1 22q8 109 105 402q2 14 -19 20q-8 0 -27.5 1 t-52.5 3q-12 3 -12 14q0 6 4 15zM86 635q2 0 2 2v-2h-2z" />
<glyph unicode="u" horiz-adv-x="1183" d="M-18 145q0 -125 104 -161h4q23 -76 98 -103q33 -12 86 -12q137 0 267 139q16 -8 26.5 -11t16.5 -5q20 -123 258 -123q201 0 321 121q21 18 21 55v21q0 39 -13 67l3 -2q-2 27 -29 27q-18 0 -27 -15q-27 -39 -76 -71l19 18q20 20 20 57v21q0 39 -12 68l2 -3q-2 27 -29 27 q-16 0 -26 -16v2q-37 -49 -105 -88q-63 -35 -90 -35h-30q2 16 6 27q4 20 23.5 81.5t53.5 165.5q14 35 26.5 70t25.5 70q45 117 45 139q0 55 -109 67q6 18 6 35q0 68 -114 68h-23q-102 0 -127 -84q-82 -285 -223 -500q72 199 110.5 296t38.5 108q0 57 -96 86q-6 0 -8 2 q2 2 2 14q0 57 -96 86q-45 14 -86 14q-61 0 -84 -59q-168 -514 -176 -608v-8q-2 -18 -3 -30.5t-1 -17.5zM0 145q0 4 1 17.5t3 36.5q4 47 47 197.5t129 406.5q14 45 66 45q37 0 80 -14q82 -25 82 -66q0 -10 -11 -37q-10 -23 -31.5 -78t-56.5 -147q-96 -254 -96 -318 q0 -45 55 -45q96 0 254 351q39 86 63.5 150.5t39.5 111.5q18 70 102 70q12 0 25 -1q96 -10 96 -47q0 -14 -45 -137l-49 -135q-74 -221 -80 -250q-8 -39 -8 -65q0 -36 14 -50q39 -39 141 -39q35 0 101 37q78 47 112 97q10 12 17 -7q11 -25 11 -59q0 -10 -1 -20 q-4 -35 -14 -46q-112 -112 -305 -112h-3q-239 0 -239 132q0 37 12 95q2 6 2 17q0 6 -4 2q-2 -2 -14 -19q-158 -227 -324 -227q-43 0 -80 10q-92 33 -92 143zM403 76q16 16 35.5 37.5t42.5 50.5v-2q-2 -2 -2 -4q-14 -25 -38.5 -49.5t-37.5 -32.5z" />
<glyph unicode="v" horiz-adv-x="849" d="M-18 193q0 -147 122 -203q57 -125 199 -125q106 0 227 86q90 61 195 244q125 216 125 376v15q0 133 -107 145q-16 104 -127 105q-117 0 -155 -105q-12 8 -43 14q-8 0 -10 3v6q0 76 -93 94q-35 8 -67 8q-47 0 -78 -43q-47 -66 -113 -248q-76 -215 -75 -344v-28zM0 195v19 q0 133 76 345q63 176 110 242q25 35 62 35q10 0 26.5 -2.5t36.5 -6.5q76 -14 76 -73q0 -20 -16 -58q-186 -371 -187 -514q0 -71 62 -71h2q86 0 201 202q33 57 51 102.5t26 80.5q6 29 2 43l-26 26q-35 34 -35 86v11q2 66 44 109.5t105 43.5q111 0 111 -128v-13 q-6 -168 -123 -367q-100 -174 -188 -239q-115 -80 -215 -80q-88 0 -141.5 57t-59.5 150zM319 164q33 139 160 395l8 -8l23 -23v-2q0 -6 -1 -12t-3 -14q-8 -33 -26.5 -77t-51.5 -101q-31 -57 -58.5 -96.5t-50.5 -61.5z" />
<glyph unicode="w" d="M-18 190q0 -86 43 -153q31 -45 79 -60q8 -20 23 -40q45 -70 131 -70h14q113 0 238 102q4 4 8 6v-2q33 -78 111 -98v2q49 -16 92 -16q100 0 211 80q113 80 211 284.5t98 345.5v11q0 68 -43 110q-29 29 -65 35q-25 106 -136 107q-68 0 -110.5 -52.5t-42.5 -126.5v-8 q0 -35 6 -55q-20 27 -82 39h-10q4 20 4 24q0 59 -96 78h-9q-12 2 -21 3t-13 1q-80 0 -109 -71q-66 -164 -98 -334q-6 -37 -32 -65.5t-50 -55.5q-2 -2 -4 -3t-4 -3q12 47 29.5 99t39.5 110q27 66 53.5 123t53.5 108v2q4 12 4 21q0 69 -102 69h-3h-8q4 4 6 11v2q4 12 4 20 q0 70 -104 70q-59 0 -80 -4q-41 -8 -67 -52q-72 -117 -125 -290q-45 -156 -45 -277v-27zM0 190v19q0 53 9 116q11 74 38 160q51 172 123 289q20 31 55 41q20 4 74 4q84 0 84 -49l-4 -16q-23 -39 -48.5 -96.5t-56.5 -133.5q-82 -203 -88 -315v-10q0 -58 47 -58q10 0 29 6 q47 16 88 52q14 14 26.5 28.5t24.5 28.5q29 39 35 72q31 166 96 329q25 59 91 60q8 0 18 -1t21 -3q79 -16 79 -57q0 -21 -14 -48q-16 -33 -33.5 -77t-38.5 -101q-55 -158 -55 -250q0 -59 55 -59q43 0 97 49q55 53 112 152q29 51 45.5 92t20.5 73q6 51 -4 56q-63 25 -62 112 q2 66 38 112t95 46t91 -40q30 -38 30 -92v-7q-6 -166 -117 -373q-172 -317 -383 -317q-141 0 -184 98q-8 27 -35 8q-113 -90 -229 -100q-7 -1 -14 -1q-74 0 -115 58q-39 57 -41 143zM735 182q14 70 43 149t70 167v-2q16 29 16 57q0 10 -2 12q16 -25 51 -41q-2 0 -2 -6 q0 -72 -67 -188q-51 -90 -105 -144z" />
<glyph unicode="x" horiz-adv-x="1275" d="M-18 4q0 -12 16 -22q6 -8 20 -9q16 0 23 2q18 2 32.5 4.5t24.5 4.5q-14 -45 -16 -80q0 -14 16 -25q8 -8 23 -8q16 0 22 2q199 16 381 213q31 -37 72 -66q110 -155 301 -155h2q68 0 145 14q123 23 211 111q21 18 21 55v21q0 39 -12 67l2 -2q-2 27 -29 27q-16 0 -25 -13 q0 -2 -2 -2l2 2q0 -2 -2 -2q-27 -37 -75 -71l18 18q20 20 21 57v21q0 39 -13 68l2 -3q-2 27 -28 27q-16 0 -27 -16v2q-37 -49 -104 -88q-63 -35 -91 -35q-80 0 -96 4q-14 4 -22 12q-8 20 -14.5 37t-10.5 29q-10 37 -12 53q-8 29 -12 43l-3 14v4q0 10 2 13q33 41 77 90 t102 102q51 49 116 49q68 0 68 70v14q-8 82 -100 82h-2v21q-8 82 -101 82q-37 0 -76 -17q-68 -33 -194 -161q-37 55 -88 73q-55 113 -156 113q-47 0 -83 -31t-36 -76v-6q0 -37 37 -61l-4 2q16 -18 21 -27q18 -45 67 -229q2 -4 2 -8t2 -6q0 -6 -6 -13q-115 -133 -123 -141 l-6 -6q-127 -127 -219 -127h-6q-25 0 -37 -31q-16 -43 -18 -86zM0 2q2 45 16 82q6 16 21 16h3q117 0 236 133q35 39 68 77t64 73q16 16 6 45q-25 92 -41.5 147.5t-26.5 77.5q-2 14 -26 37q-27 25 -27 54q1 34 29 58q30 26 69 27q94 0 148 -116q10 -23 18 -48.5t16 -58.5 q6 -29 21 -14q172 186 244 215q35 14 67 14q74 0 80 -63q1 -6 1 -11q0 -50 -50 -51q-72 0 -129 -55q-121 -115 -180 -195q-8 -14 -6 -34q14 -55 21 -83l7 -28q14 -53 31 -74q51 -84 129 -116q16 -8 104 -9q35 0 101 37q78 47 112 97q10 12 17 -7q11 -25 11 -59q0 -10 -1 -20 q-4 -35 -14 -46q-120 -116 -338 -116h-4q-86 0 -142 24q-135 63 -192 224q-8 20 -23 6q-47 -53 -89 -93t-81 -69q-98 -74 -233 -84q-23 -4 -29 0q-8 2 -8 6z" />
<glyph unicode="y" horiz-adv-x="1161" d="M-17 166q1 -16 3 -31q16 -104 112 -143q23 -47 65 -80t81 -33h16q18 0 25 2l-13 -12q-135 -135 -135 -240q0 -98 103 -102q0 -102 108 -102q66 0 154 75q51 45 110 170q57 119 72 133v-2q14 16 26.5 29.5t22.5 24.5q14 8 64 12q84 4 133 12q123 23 211 111q20 18 20 55 v21q0 39 -12 67l2 -2q-2 27 -29 27q-16 0 -26 -17v2q-10 -14 -27.5 -30.5t-40.5 -32.5l10 10q20 20 21 57v21q0 39 -12 68l2 -3q-2 27 -29 27q-16 0 -25 -12q0 -2 -2 -2l2 2q0 -2 -2 -2q-29 -29 -51 -49.5t-39 -30.5h2q-72 -43 -106 -43h-17q182 530 183 545q0 45 -47 67 q-29 12 -60 13h-2q2 10 6 22q0 45 -47 68q-12 6 -29.5 8t-32 4t-24.5 2t-6 0q-6 0 -16 -2q-53 -18 -62 -43q-47 -106 -83 -185t-58 -133q-100 -211 -176 -270l-2 -2q16 47 33.5 97.5t39.5 103.5q111 279 111 270q0 27 -23 43q-47 31 -86 37q6 12 7 23q0 27 -23 43 q-50 38 -103 38h-3q-6 0 -14.5 -1t-18.5 -3h-8q-51 -8 -74 -47q-45 -72 -107 -248q-75 -212 -75 -368q0 -22 1 -39zM0 201q0 152 76 366q29 78 54.5 139.5t51.5 104.5q25 41 97 41q47 0 94 -35q27 -20 4 -55t-98 -234q-82 -217 -86 -254v-15q0 -70 36 -83q15 -5 31 -5 q39 0 80 32q78 59 182 278q47 104 83 184t59 134q8 18 43 30q8 2 47 0q88 -8 88 -59q0 -12 -219 -653q-2 -14 -7 -21q0 -4 5 -8q20 4 39.5 6t37.5 4h52q27 0 51 4t52 14.5t62 33.5q63 41 97 86q10 12 16 -7q11 -25 11 -59q0 -10 -1 -20q-4 -35 -14 -46q-82 -82 -201 -104 q-25 -4 -56.5 -6t-72.5 -4q-55 -4 -73 -17q-16 -10 -56 -55l-69 -137q-63 -123 -109 -162q-84 -72 -141 -72q-88 0 -88 82q0 45 30 105q27 49 84 106q61 61 109 88q6 4 16 25q33 86 57.5 151.5t41.5 110.5q2 2 2 4t2 6q0 6 -11 6q-10 0 -18 -14q-20 -33 -50 -65.5t-71 -67.5 q-99 -84 -200 -84h-9q-23 0 -45 12.5t-41.5 31.5t-34 44t-16.5 49q-2 16 -3 31.5t-1 32.5zM395 96l34 34t22 24q-4 -14 -10.5 -26.5t-10.5 -10.5q-14 -12 -35 -21z" />
<glyph unicode="z" horiz-adv-x="1103" d="M-18 -274q0 -113 116 -183h2q33 -63 101 -102q53 -33 141 -33q168 0 281 137q111 129 110 299v21q0 2 -2 2h23q207 0 329 123q21 18 21 55v21q0 39 -12 67l2 -2q-2 27 -29 27q-10 0 -49 -35q-45 -45 -51 -47q4 2 16 14q20 20 20 57v21q0 39 -12 68l2 -3q-2 27 -28 27 q-10 0 -58 -41q-49 -47 -67 -57q-72 -41 -197 -41h-23q63 20 113 67q98 88 107 205q2 12 2 27v33q0 178 -133 249q-53 102 -195 136q-29 6 -51 6q-78 0 -132.5 -48t-54.5 -114q0 -78 58 -78q25 8 36 13.5t17 9.5q-8 -18 -8 -47q0 -78 57 -78q25 8 40 15t26 9q-2 -4 -4 -14 t-7 -25h3q-23 -63 -121 -108q-78 -37 -125 -37h-15q-63 0 -77 -61q-2 -14 -3 -24.5t-1 -14.5q0 -18 10 -29.5t25.5 -18t34 -10.5t36.5 -8q-2 -12 -3 -21.5t-1 -15.5q0 -41 31 -47q25 -4 32 -6q-47 -14 -74.5 -24.5t-37.5 -16.5h2q-125 -57 -185 -170q-39 -78 -38 -149z M0 -274q0 66 39 141q53 102 174 160q14 8 52 20t102 33q20 6 20 14t-18 31q-66 76 -185 90q-15 3 -15 26q0 13 5 33q10 39 78 54q53 10 85 19t42 13q109 53 131 121q10 35 10 56q0 55 -55 96q-29 18 -57 18q-18 0 -45 -13t-31 -13q-37 0 -37 57t49 99t117 42q18 0 47 -6 q209 -47 209 -262v-31q0 -14 -2 -26q-8 -109 -101 -191q-66 -55 -137 -74q-20 -6 -6 -20l29.5 -29.5t23.5 -21.5q4 -4 12.5 -16.5t20.5 -28.5q4 -6 14 -11q17 -4 59 -5h18q37 0 87 3q127 10 219 132q10 12 17 -7q11 -25 11 -59q0 -10 -1 -20q-4 -35 -14 -46 q-118 -115 -293 -115q-28 0 -56 3q-10 0 -10 -6q0 8 0 2t2 -25q1 -12 1 -23q0 -150 -99 -272q-113 -137 -272 -137q-80 0 -131 31q-109 66 -109 164zM139 -250q0 -31 21.5 -52.5t54.5 -21.5q53 0 113 60q74 78 80 211q0 16 -7 20q-4 3 -14 3q-13 0 -35 -5q-90 -18 -168 -110 q-45 -53 -45 -105zM303 -260q8 10 14.5 17.5t10.5 11.5q-4 -8 -12.5 -14.5t-12.5 -14.5z" />
<glyph unicode="{" horiz-adv-x="1085" d="M-18 -342q0 -125 110 -164q43 -113 160 -112h162l55 167h-137l35 103h-60q4 14 7 26.5t8 22.5l129 375q27 74 26 139q0 100 -74 147q49 23 91 56q102 84 147 217l131 381q59 164 141 164h117l55 168h-137l35 102h-174q-233 0 -332 -285l-131 -383q-16 -49 -44 -90 t-61.5 -70.5t-70.5 -47t-72 -17.5l-59 -178q90 0 108 -82l-6 -21h11v-10q0 -53 -21 -108l-129 -377q-20 -61 -20 -123zM0 -342q0 61 20 117l130 377q10 29 15 57.5t7 54.5q2 55 -27.5 95t-78.5 40l47 138q70 0 143 67q76 72 109 172l131 383q92 270 313 271h147l-43 -127 h-102q-98 0 -160 -179l-131 -381q-47 -131 -141 -206q-72 -57 -129 -66l-2 -6q106 -20 106 -148q0 -63 -24 -133l-129 -374q-23 -68 -23 -109q0 -70 60 -70h102l-43 -127h-147q-63 0 -106.5 45t-43.5 109z" />
<glyph unicode="|" horiz-adv-x="241" d="M-18 -18h100v-103h160v1518h-103v102h-157v-1517zM0 0v1479h119v-1479h-119z" />
<glyph unicode="}" horiz-adv-x="1083" d="M-18 -516h135l-35 -102h174q231 0 330 284l131 379q16 49 43.5 90t61.5 71t71 47t72 17l59 179q-90 0 -111 81l9 21h-11v12q0 47 21 107l129 381q23 68 22 123q0 123 -114 163q-39 113 -158 113h-162l-55 -168h135l-33 -102h58q-4 -23 -13 -50l-129 -378 q-27 -74 -26 -140q0 -100 71 -147q-41 -18 -88 -55q-102 -84 -147 -217l-131 -377q-59 -164 -139 -164h-117zM6 -496l43 127h103q96 0 157 179l131 376q47 131 142 207q72 57 129 66l2 6q-106 20 -107 147q0 61 25 133l129 379q23 68 22 109q0 70 -59 70h-102l43 127h147 q63 0 106.5 -45.5t43.5 -108.5q0 -57 -21 -117l-129 -381q-10 -31 -15 -58.5t-8 -53.5q-2 -55 28 -95.5t79 -40.5l-47 -137q-72 0 -143 -69q-74 -68 -109 -170l-131 -379q-92 -270 -311 -271h-148z" />
<glyph unicode="~" horiz-adv-x="1077" d="M-18 336l98 -172q4 10 18 39l84 -142q76 172 170 172q84 0 223.5 -69.5t221.5 -69.5q90 0 166 60q43 33 114 137l-96 166q-4 -6 -12 -17.5t-13 -17.5l-77 137q-109 -166 -183 -166q-33 0 -200 72q-158 68 -236 67q-178 0 -278 -196zM4 336q92 176 256 176q74 0 227 -66 q168 -74 209 -73q84 0 181 147l73 -127q-33 -45 -57.5 -74.5t-44.5 -46.5q-72 -55 -154 -55q-78 0 -215 69.5t-229 69.5q-104 0 -172 -147z" />
<glyph unicode="&#xa1;" horiz-adv-x="778" d="M-18 98q0 -80 94 -110q4 0 6 -2q6 -72 96 -101q57 -18 101 -18q63 0 86 61q10 29 41.5 137.5t82.5 294.5l89 320q10 33 16 57.5t10 42.5q0 6 2 11v8q0 68 -106 80q0 2 2 2v2q0 6 2 10v8q0 80 -123 80q-43 0 -62 -27q-14 -23 -169 -405q-59 -150 -100.5 -254.5 t-61.5 -163.5l-2 -2q-4 -20 -4 -31zM0 98q0 7 4 27q16 45 57 147.5t107 268.5q78 190 119 290.5t49 110.5q20 33 102 10q51 -14 43 -65l-114 -418q-55 -201 -86 -310.5t-39 -129.5q-12 -39 -66 -39q-33 0 -94 16q-82 27 -82 92zM375 1208q0 -119 104 -133q12 -96 117 -102 q20 -2 27 -2q6 0 2 0q104 0 147 139q6 20 6 51q0 102 -102 115q-6 94 -111 104q-4 0 -10 2h-12q-129 1 -160 -110q-8 -27 -8 -64zM395 1208q0 33 8 58q31 109 160 94q92 -10 92 -96q0 -80 -39 -125q-45 -51 -120 -43q-100 8 -101 112z" />
<glyph unicode="&#xa2;" horiz-adv-x="876" d="M-18 475q0 -199 127 -260q12 -31 45 -63q-18 -51 -31.5 -88t-24.5 -62q-39 -98 -39 -121q0 -70 107 -76q-4 -16 -4 -26q0 -76 121 -76q37 0 71 102q29 92 52.5 161t42.5 120q106 12 206 64q150 76 199 124q23 23 23 74q0 139 -43 139v-41q-41 0 -60 -8v13q0 61 -6 92 q2 2 3 4t3 4q4 8 11.5 29.5t21.5 58.5q23 68 22 88q0 90 -104 127q-4 19 -12 33q14 35 20 59l23 68v-2q29 74 28 112q0 59 -98 60q-8 0 -10 -2q6 27 6 45q0 59 -98 59q-35 0 -68 -98q-29 -82 -49.5 -137.5t-32.5 -83.5q-164 -33 -303 -172q-150 -152 -149 -320zM0 475 q0 162 145 307q137 137 304 166q31 70 86 234q29 84 49 84q78 0 78 -39q0 -31 -27 -105q-23 -63 -36 -106t-21 -68q129 -29 129 -119q0 -27 -21 -81q-14 -39 -22 -70q-16 -29 -60 -29h-119q-18 0 -18 19q0 4 18 51q20 43 21 59q0 33 -37 33q-70 0 -164 -106 q-109 -121 -108 -240q0 -104 112 -105q86 0 197 54q35 16 73.5 41.5t84.5 60.5q31 23 47 36t20 17q23 0 23 -118q0 -43 -17 -60q-45 -41 -194 -121q-98 -53 -209 -61q-16 -45 -42 -118t-61 -177q-27 -88 -51 -88q-100 0 -100 55q0 14 37 117q37 98 56.5 150.5t21.5 60.5 q-106 27 -150.5 88t-44.5 178zM319 381q8 104 103 207q25 27 43 43q2 -2 20 -2h86v-2q-2 -2 -2 -4q-8 -20 -13 -34t-7 -24q0 -39 39 -39h55q-39 -29 -75.5 -53.5t-71.5 -40.5h2q-98 -47 -179 -51z" />
<glyph unicode="&#xa3;" horiz-adv-x="1310" d="M-18 92q0 -92 100 -112q8 -111 188 -111q78 0 176 35q104 -25 197 -25q162 0 273.5 4t170.5 13l66 223q-41 -8 -76 -14.5t-63 -10.5l37 127q-219 -43 -346 -49q37 76 55 117h174q27 0 43 53h-2l37 111q0 29 -47 28h-80l6 13q18 37 18 61q0 25 -41 29q6 16 17.5 40.5 t27.5 57.5q10 -10 43 -10q10 0 33 3t58 11q-37 -78 -37 -90q0 -27 49 -27q25 0 176 35q76 160 76 248q0 154 -125 209q-53 121 -197 121q-264 0 -426 -418l-69 -180h-160q-37 0 -51 -37q-20 -49 -31.5 -80t-15.5 -43q0 -33 43 -33h83q-8 -23 -14 -39t-10 -30q0 -27 31 -33 q-35 -53 -60 -78q-10 2 -17 3t-11 1q10 -2 17 -3t11 -1l-6 -6l14 4q78 -10 78 -16q0 -8 -202 -9v41q-72 0 -136 -28q-76 -39 -75 -105zM0 92q0 57 72 88q55 25 121 25l124 -15q76 76 129 222h-167q-23 0 -23 12l45 115q8 25 33 24h174l74 193q156 406 407 405 q92 0 145.5 -57t53.5 -150q0 -82 -70 -229q-139 -33 -162 -33q-29 0 -28 6q0 6 47 110.5t45 137.5q-4 43 -49 43q-61 0 -133 -115q-29 -47 -54.5 -101t-48.5 -116l-33 -94h160q27 0 27 -8t-17 -53q-6 -16 -12 -34.5t-12 -35.5q-8 -20 -17 -20h-186q-78 -180 -135 -248 q2 -12 147 -12q135 0 363 43l-51 -181q-57 -8 -163 -11t-265 -3q-90 0 -195 25q-92 -33 -178 -33q-168 0 -168 100zM236 221q12 -2 45 -6q-12 2 -23.5 3t-21.5 3z" />
<glyph unicode="&#xa4;" horiz-adv-x="915" d="M-18 221l100 -100l76 78l-76 -80l102 -101l84 88q88 -74 234 -73q137 0 225 76l88 -91l100 101l-86 86q70 96 70 231q0 141 -70 223l86 86l-208 209l-86 -84q-90 66 -220 66q-143 0 -231 -68l-86 86l-102 -104l86 -88q-70 -82 -70 -227q0 -129 68 -224zM8 221l84 90 q-76 94 -76 224q0 147 80 227l-88 88l76 76l86 -86q88 76 231 75q133 0 220 -73l86 84l77 -78l-84 -84q76 -82 76 -225q0 -137 -76 -232l84 -86l-71 -71l-86 90q-90 -84 -228 -84q-145 0 -233 82l-84 -88zM141 535q0 -111 74 -187q76 -76 184 -76q109 0 181 78q72 82 71 189 q0 104 -74 182t-176 78q-106 0 -184 -78q-76 -76 -76 -186zM264 432q0 102 70 172q72 72 170 72q49 0 98 -23q29 -53 29 -114q0 -100 -68 -174q-66 -72 -164 -72q-59 0 -108 24q-27 51 -27 115z" />
<glyph unicode="&#xa5;" horiz-adv-x="1073" d="M-18 709q0 -55 28 -56h86q-6 -14 -9 -24.5t-5 -14.5h-37q-25 0 -42 -30.5t-17 -53.5q0 -55 28 -55h86q-14 -31 -14 -47q0 -55 31 -55h20l-110 -303v2q-8 -16 -11.5 -28.5t-5.5 -20.5q0 -41 123 -41l-4 -13v2q-8 -16 -11 -28.5t-5 -20.5q0 -43 123 -43q111 0 126 43 l162 451h189q33 0 49 53h-2q10 31 10 49q0 37 -33 37h-84q2 2 6 16h-2q2 4 4.5 11.5t2.5 11.5h149q33 0 49 53h-2q10 31 10 49q0 37 -32 37h-84l4 8l303 326q12 12 12 27q0 29 -82 28q-66 0 -80 -14l-254 -272h-10l311 333q12 12 13 27q0 29 -82 29q-66 0 -80 -15l-309 -331 l-41 202q-6 33 -90 39l-13 64q-10 41 -133 41q-125 0 -125 -49q0 -8 6 -39l60 -301h-123q-25 0 -42 -31t-17 -53zM0 709q0 16 13.5 39.5t27.5 23.5h149l-65 326q-4 27 -6 35q0 29 104 28q109 0 113 -24l84 -416l403 432q8 8 66 8q61 0 61 -8q0 -6 -6 -12l-344 -369h135 q12 0 13 -16q0 -18 -9 -43q-12 -39 -28 -39h-199l-78 -80h201q12 0 12 -16q0 -18 -8 -43q-12 -39 -29 -39h-200l-168 -467q-10 -29 -109 -29q-102 0 -102 23q4 10 7 20t7 20l158 433h-189q-10 0 -10 34q0 16 13.5 40t27.5 24h180l-16 80h-199q-10 0 -10 35z" />
<glyph unicode="&#xa6;" horiz-adv-x="241" d="M-18 -18h100v-103h160v592h-103v102h-157v-591zM-18 905h100v-102h160v594h-103v102h-157v-594zM0 0v553h119v-553h-119zM0 926v553h119v-553h-119z" />
<glyph unicode="&#xa7;" horiz-adv-x="1150" d="M-18 109q0 -113 114 -191h-2q2 -2 6 -5t6 -3q33 -55 93 -94h-2q100 -72 233 -72q160 0 256 74q106 82 107 233q0 45 -41 131q-2 0 -2 2q61 2 114.5 23.5t91 59.5t60 89.5t22.5 112.5q0 135 -104 256q-86 94 -127 140t-62 67q-94 106 -94 190q0 35 43 64v-2q43 25 86 24 q39 0 82 -16q27 -37 62 -47q76 -106 131 -107q96 0 96 103q0 90 -113 172q-2 2 -6 5t-6 3q-29 49 -90 94q-119 84 -252 84q-147 0 -242 -67q-111 -78 -110 -215q0 -82 47 -164q-117 -6 -182 -54q-111 -84 -111 -237q0 -139 104 -252l101 -111h-2q29 -33 51 -56.5t37 -39.5 q96 -109 96 -170q0 -43 -37 -72.5t-84 -29.5q-61 0 -102 22q-27 33 -53 41q-14 16 -24.5 29.5t-18.5 23.5q-41 53 -78 54q-39 0 -66.5 -27t-27.5 -65zM0 109q0 31 22.5 51t53.5 20q29 0 61 -45q43 -55 74 -80q57 -45 141 -45q55 0 98.5 37t43.5 86q0 76 -101 184 q-61 70 -107 121t-79 86q-100 119 -101 238q0 143 103 221q63 49 207 49q-63 94 -64 185q0 129 105 200q88 61 227 62q104 0 217 -64q127 -74 127 -172q0 -82 -76 -82q-41 0 -73 45q-45 61 -66 80q-51 45 -135 45q-51 0 -96 -26q-53 -31 -54 -80q0 -96 101 -205 q123 -139 186 -205q100 -115 100 -244q0 -123 -88 -196q-86 -74 -211 -68q53 -123 54 -153q0 -145 -101 -220q-90 -68 -241 -67q-123 0 -222 67q-106 70 -106 175zM283 778q0 -82 116 -213q119 -131 195 -131q145 0 145 117q0 88 -116 221q-115 133 -209 133 q-131 0 -131 -127zM406 676q0 106 110 106q51 0 107 -43q96 -114 96 -188q0 -96 -125 -96q-45 0 -96 45q-92 111 -92 176z" />
<glyph unicode="&#xa8;" horiz-adv-x="651" d="M-18 1206q0 -94 100 -119q10 -68 78 -94q27 -10 51 -10q80 0 135 90q4 6 5 10t3 9q16 -4 15 -5q10 -68 77 -94q27 -10 52 -10q80 0 135 90q18 31 18 78q0 82 -69 113q-12 4 -21.5 6t-13.5 4q-6 63 -68 92q-37 12 -55 12q-94 0 -127 -67v2q-8 -14 -12 -25.5t-9 -19.5 q-6 6 -16 6q-6 63 -67 92q-37 12 -56 12q-94 0 -127 -67v2q-29 -57 -28 -107zM0 1206q0 66 37 109t100 43q104 0 105 -105q-1 -38 -17 -67q-47 -80 -116 -80q-45 0 -77 27.5t-32 72.5zM287 1206q0 66 36.5 109t100.5 43q104 0 104 -105q0 -38 -16 -67q-47 -80 -117 -80 q-45 0 -76.5 27.5t-31.5 72.5z" />
<glyph unicode="&#xa9;" horiz-adv-x="1626" d="M-18 692q0 -332 229 -549q16 -14 25.5 -22t13.5 -12q25 -31 63 -68q224 -209 543 -209q326 0 547 215q223 217 223 543q0 328 -231 547q-14 12 -23.5 21t-15.5 13q-23 23 -38 40.5t-26 27.5q-219 211 -538 211q-326 0 -549 -217q-223 -215 -223 -541zM0 692 q0 317 217 527q217 211 537 211q315 0 532 -211t217 -527q0 -315 -217 -526q-213 -211 -532 -211t-537 209q-217 211 -217 528zM168 692q0 -260 164 -436t422 -176t420 180q162 174 161 432q0 254 -166 430q-164 178 -415 178q-256 0 -422 -176q-164 -176 -164 -432z M291 590q0 164 67 293q-31 -84 -30 -189q0 -197 123 -334q35 -39 69 -61q125 -178 361 -178q29 0 37 2q-84 -23 -164 -23q-199 0 -342 111q-121 156 -121 379zM348 694q0 195 115 322q117 127 311 127q147 0 246.5 -82t118.5 -225h-140q-16 78 -77.5 124t-147.5 46 q-123 0 -194.5 -84t-71.5 -226q0 -131 70 -219q78 -96 200 -96q92 0 150.5 48t70.5 130h142q-27 -147 -126.5 -231t-236.5 -84q-190 0 -311 127q-119 127 -119 323zM631 594q0 129 66.5 209t179.5 80q47 0 90 -19q6 -16 10 -28.5t6 -20.5h51q35 -41 51 -102h179 q-23 176 -134 266q-10 8 -18 13t-14 9q-94 162 -324 162q-12 0 -29.5 -1t-39.5 -3q70 18 151 19q193 0 336 -113q123 -158 123 -373q0 -164 -68 -293q4 16 10.5 36t10.5 42h-131q10 25 17 50.5t11 52.5h-184q-12 -82 -66.5 -130.5t-136.5 -48.5q-59 0 -108 25 q-39 70 -39 168z" />
<glyph unicode="&#xab;" horiz-adv-x="890" d="M-18 301q109 -164 141 -268q10 0 29.5 2t27.5 2q25 -43 45 -105q98 6 92 7v41q78 -47 170 -50q0 2 -2 2q104 6 93 7v41q80 -47 174 -50q-33 45 -59.5 86t-49.5 80v-2q-14 25 -31.5 58.5t-21.5 42.5q29 23 51.5 44t40.5 37q29 27 48.5 46.5t33.5 31.5q27 25 57.5 53.5 t69.5 63.5q-139 -12 -211 -12h-16q33 31 64.5 59.5t59.5 54.5q-139 -12 -210 -12h-60q-23 0 -37 2q-10 -16 -31.5 -42.5t-50.5 -61.5h-39q20 20 51 49t76 67q-88 -8 -140 -11t-71 -3h-59q-25 0 -41 2q-70 -119 -194 -262zM6 299q109 121 182 244q16 -2 37 -2h51q27 0 64 2 t84 6q-23 -20 -52.5 -51t-68.5 -74q-74 -84 -115 -121q39 -59 79 -121.5t81 -128.5q-111 2 -133 6q-16 0 -35.5 -1t-42.5 -3q-31 94 -131 244zM279 301q76 72 128 133.5t85 108.5q14 -2 34 -2h52q27 0 63.5 2t87.5 6q-47 -45 -88 -84t-76 -72q-43 -43 -104 -92 q51 -82 88 -144.5t59 -103.5q-111 2 -133 6q-16 0 -35.5 -1t-44.5 -3q-8 31 -21.5 63t-29.5 66q-16 29 -32.5 58.5t-32.5 58.5zM418 35q8 0 14 2h12q10 -23 19.5 -46.5t15.5 -47.5q-41 61 -61 92z" />
<glyph unicode="&#xad;" horiz-adv-x="755" d="M-18 418q0 -39 41 -39h8h10q8 0 20 2h41q-20 -41 -20 -66q0 -39 43 -39h8h17q12 0 28 3h60h96q43 0 71.5 -2.5t86.5 -2.5h149q49 0 82 37t33 88q0 61 -62 62h-47q6 18 6 41q0 61 -61 61h-74h-96q-53 0 -123 2t-117 2h-76h-8q-61 0 -94 -75q-23 -57 -22 -74zM0 418 q0 10 23 65q31 70 83 64q137 0 258 -1t228 -3q41 0 41 -41q0 -43 -26.5 -74t-67.5 -31h-148q-59 0 -88 2q-199 6 -274 0q-29 -4 -29 19z" />
<glyph unicode="&#xae;" horiz-adv-x="1626" d="M-18 692q0 -332 229 -549q16 -14 25.5 -22t13.5 -12q25 -31 63 -68q224 -209 543 -209q326 0 547 215q223 217 223 543q0 328 -231 547q-14 12 -23.5 21t-15.5 13q-23 23 -38 40.5t-26 27.5q-219 211 -538 211q-326 0 -549 -217q-223 -215 -223 -541zM0 692 q0 317 217 527q217 211 537 211q315 0 532 -211t217 -527q0 -315 -217 -526q-213 -211 -532 -211t-537 209q-217 211 -217 528zM168 692q0 -260 164 -436t422 -176t420 180q162 174 161 432q0 254 -166 430q-164 178 -415 178q-256 0 -422 -176q-164 -176 -164 -432z M291 590q0 246 153 411v-755h103v-103h180v367h59l158 -264h41l45 -76q-119 -70 -276 -70q-199 0 -342 111q-121 156 -121 379zM465 266v848h319q309 0 310 -244q0 -207 -224 -231l238 -373h-152l-219 367h-133v-367h-139zM604 748h156q96 0 135 20q59 29 59 113 q0 119 -182 118h-168v-251zM631 1135q104 43 225 43q193 0 336 -113q123 -158 123 -373q0 -250 -154 -416l-155 244q211 37 211 248q0 166 -127 225q-80 141 -306 142h-153zM727 768v109h147q10 0 26 -1.5t34 -3.5q-4 -68 -57 -90q-31 -14 -117 -14h-33z" />
<glyph unicode="&#xb0;" horiz-adv-x="708" d="M-18 868q0 -178 145 -268q88 -147 268 -147q131 0 221 90q92 92 93 223q0 166 -148 268q-102 147 -268 148q-133 0 -221 -92q-90 -90 -90 -222zM0 868q0 123 84 207q86 86 209 86q121 0 207 -86t86 -207q0 -123 -86 -209q-84 -84 -207 -84q-125 0 -209 84t-84 209z M106 868q0 -88 50.5 -143t136.5 -55t136 55t50 143t-50 143.5t-136 55.5t-136.5 -55.5t-50.5 -143.5zM143 956q29 59 95 82q-57 -33 -95 -82zM229 766q0 80 46 129t120 49q35 0 54 -8q10 -37 10 -68q0 -80 -46 -129t-120 -49q-29 0 -53 6q-10 31 -11 70zM453 596 q26 14 61 49q6 6 13.5 14.5t15.5 18.5q-29 -59 -90 -82z" />
<glyph unicode="&#xb1;" horiz-adv-x="851" d="M-18 -18h100v-103h770v158h-102v102h-203v127h305v160h-102v102h-203v119h-103v103h-159v-222h-303v-159h100v-103h203v-119h102v-8h-405v-157zM0 0v119h729v-119h-729zM0 389v119h305v221h119v-221h305v-119h-305v-221h-119v221h-305z" />
<glyph unicode="&#xb4;" horiz-adv-x="516" d="M-18 1135q0 -29 32 -50q25 -12 52 -12q25 0 49 10h-2l11 5.5t11 3.5q-8 -4 -13 -8.5t-9 -6.5h2q-33 -14 -33 -45q0 -27 35 -49q25 -12 51 -12q25 0 49 10h-2q111 41 207 135q94 92 94 164v12q0 41 -90 41h-23q10 31 11 49v13q0 41 -90 41h-19q-49 0 -104 -17 q-31 -14 -39 -39q-25 -76 -51 -108l2 2q-61 -70 -103 -94h2q-31 -16 -30 -45zM0 1135q0 18 20 26q43 23 107 99q25 31 53 114q6 18 32 28.5t93 12.5q86 5 88 -22q8 -76 -104 -174q-96 -84 -183 -117q-47 -18 -86 4q-20 14 -20 29z" />
<glyph unicode="&#xb5;" horiz-adv-x="1327" d="M-18 -485q0 -127 102 -133q12 -102 111 -103q82 0 110 103q18 68 33.5 139t30.5 147l69 221q88 33 232 134q20 -43 94 -50v-4q0 -100 131 -100q123 0 352 162q80 57 80 143q0 100 -41 100q-29 -14 -41 -26h2q-10 -8 -17 -13.5t-13 -9.5q8 31 8 51q0 100 -41 101 q-12 -4 -25 -12l60 122q16 35 27 59.5t20 41.5q0 47 -45 47h-82q6 12 13 28.5t11 26.5q0 47 -45 47h-123q-14 0 -43 -20q-94 -94 -157.5 -156.5t-96.5 -93.5l35 72q23 49 23 57q0 39 -41 39h-88l4 6q23 45 22 57q0 39 -41 39h-151q-25 0 -39 -43q-23 -61 -51 -96 q-90 -109 -242 -236q-29 -25 -29 -126q0 -88 31 -89q8 0 31 17q-20 -59 -21 -105q-4 -10 -7 -19t-7 -17q-145 -393 -145 -508zM0 -485q0 102 145 501q8 18 11.5 28.5t5.5 12.5q0 78 59 181l-4 4q-4 -2 -15.5 -13.5t-33.5 -31.5q-33 -29 -37 -29q-10 0 -10 68q0 92 22 110 q145 119 244 240q31 37 53 102q10 29 21 29h151q20 0 21 -19q0 -8 -21 -49l-182 -383q-18 -55 -18 -39q0 -10 6 -10q16 0 117 82q45 35 75.5 59.5t46.5 40.5q88 82 308 301q23 16 30 17h123q25 0 25 -23l-230 -487q0 -18 17 -19q18 0 90 43q12 8 78 76q45 49 86 49 q20 0 20 -80q0 -74 -71 -126q-225 -158 -340 -158q-111 0 -111 78q0 33 33 112q16 39 26.5 66.5t18.5 46.5l-4 4q-285 -242 -439 -295l-71 -229q-10 -59 -25.5 -130t-38.5 -155q-20 -88 -90 -88q-92 0 -92 113z" />
<glyph unicode="&#xb6;" horiz-adv-x="1329" d="M-18 -408h135l-35 -102h209l577 1686h58l-543 -1584h137l-35 -102h209l635 1858h-137l35 102h-559q-489 0 -627 -399q-23 -68 -23 -125q0 -156 132 -226q45 -92 165 -129zM6 -387l365 1059q-156 0 -244 68.5t-88 185.5q0 63 20 118q133 385 609 386h532l-622 -1817h-168 l579 1685h-235l-580 -1685h-168z" />
<glyph unicode="&#xb7;" horiz-adv-x="409" d="M-18 365q0 -113 110 -156q16 -47 60.5 -79t93.5 -32q31 0 60.5 13.5t53 37t37 53t13.5 60.5q0 49 -33 93t-80 61q-43 113 -154 112q-31 0 -60.5 -13t-52 -36.5t-35.5 -53.5t-13 -60zM0 365q0 55 43 99t100 44t100.5 -44t43.5 -99t-43.5 -99.5t-100.5 -44.5t-100 44 t-43 100z" />
<glyph unicode="&#xb8;" horiz-adv-x="643" d="M-18 -348q33 -23 64.5 -38t59.5 -26l-24 -39q133 -90 291 -90q106 0 182 45q88 51 88 154q0 113 -111 154q-12 47 -53 75l19 33h-97q-8 2 -18 3t-27 1h-14l53 96h-119l-79 -165q-8 -14 -9 -23q0 -33 35 -33q2 2 10 2q12 2 21.5 3t15.5 1q25 0 49 -10l-20 -43 q-8 -14 -8 -22q0 -29 24 -31q-25 -18 -67 -18q-92 0 -201 77zM6 -342l45 72q94 -70 197 -70q113 0 112 94q0 72 -90 72q-6 0 -51 -6q-10 0 -10 12q2 6 6 14l74 154h71l-53 -100q6 0 25.5 2t23.5 2q76 0 120 -41t44 -103q0 -90 -84 -139q-66 -39 -166 -39q-152 0 -264 76z " />
<glyph unicode="&#xbb;" horiz-adv-x="933" d="M-18 25q119 8 208 18q18 0 27 -2q-47 -41 -135 -117q74 6 126 10.5t85 8.5q16 0 37.5 -2t50.5 -7q-2 -2 -5 -4t-7 -6q76 6 130 10.5t87 8.5q16 0 37.5 -2t50.5 -7l20 13q0 2 2 4v4q96 12 97 18q0 6 -78 11q63 86 219 204q-33 47 -64.5 116t-60.5 161q-23 -4 -38 -5 t-26 -3q-10 20 -19 47.5t-19 62.5q-35 -4 -66 -7t-55 -3q-16 0 -64.5 6t-128.5 17q6 -8 15 -15q-47 -8 -113 -8q-27 0 -199 25q37 -37 64.5 -66t48.5 -49l10 -10h-2q25 -29 47 -70q10 -16 20.5 -31.5t20.5 -27.5q-31 -23 -71.5 -61t-92.5 -89q-109 -111 -159 -153zM43 51 q84 70 152.5 146.5t140.5 126.5q-35 47 -60.5 83.5t-42.5 63.5q-10 10 -29.5 30.5t-49.5 51.5q59 -8 95 -12t46 -4q23 0 50.5 2t55.5 6q47 -158 121 -250q-184 -134 -239 -240q-33 4 -57.5 6t-41.5 2zM332 51q90 72 153 146q14 16 47 47.5t86 79.5q-12 12 -47 67 q-61 94 -122 160q51 -8 85.5 -11t51.5 -3q23 0 50.5 2t55.5 6q53 -170 111 -250q-177 -138 -230 -240q-33 4 -57 6t-41 2zM422 549q20 -23 40 -44t36 -44q-16 -2 -26.5 -3t-14.5 -1q-10 27 -19.5 49t-15.5 43zM426 -18q10 14 23.5 29.5t27.5 31.5q23 0 31 -2 q-23 -20 -40 -34.5t-30 -24.5h-12zM541 403q4 -8 7 -13t7 -9q10 -14 21.5 -32.5t13.5 -22.5q-10 -10 -15 -13q-12 29 -21 51.5t-13 38.5z" />
<glyph unicode="&#xbf;" horiz-adv-x="821" d="M-18 256q0 -178 127 -244q68 -139 286 -139q172 0 195 84v-2q10 37 10 80q0 16 -1 29.5t-3 23.5q-8 45 -49 45l-11 -3q-10 -3 -32 -11l-2 -1q-2 -1 -4 -3v22q0 16 -1 29.5t-3 23.5q-8 45 -50 46l-10 -4q-10 -3 -33 -11q-27 -14 -75 -14q0 78 106 205q213 262 240 383 q2 10 3 20t1 23q0 39 -25 51h2q-27 14 -82 18q2 8 2 33q0 39 -24 51h2q-33 20 -96 19q-49 -4 -70 -58q-37 -86 -43 -98h2q-20 -33 -58 -79t-91.5 -105.5t-91 -104.5t-58.5 -80q-63 -106 -63 -229zM0 256q0 117 66 225q20 33 57 78t90 103q106 115 147 182q25 55 42.5 98 t54.5 47q55 0 84 -16q20 -8 8 -72q-20 -111 -236 -375q-111 -135 -110 -217q0 -123 119 -123q57 0 96 21q14 8 26 8q23 0 29 -29q12 -57 -6 -125q-18 -66 -174 -65q-59 0 -125 16q-168 51 -168 244zM408 1212q0 -109 104 -135q20 -106 147 -106q106 0 148 108q14 37 14 70 q0 113 -104 129q-12 104 -133 104q-35 0 -67 -14t-56.5 -36.5t-38.5 -54.5t-14 -65zM428 1212q0 31 12.5 57.5t34 47t50 33t59.5 12.5q115 0 114 -111q0 -31 -12 -63q-33 -94 -129 -94q-57 0 -93 32.5t-36 85.5z" />
<glyph unicode="&#xc0;" horiz-adv-x="1351" d="M-18 252q0 -164 100 -234q16 -14 29 -16q31 -63 100.5 -100t144.5 -37q164 0 353 170q10 8 14 12l6 6q8 -12 10 -14q27 -33 84 -45q0 -35 19 -55q59 -66 237 -66q57 0 92 6q123 23 211 111q21 18 21 55v21q0 39 -12 67l2 -2q-2 27 -29 27q-16 0 -25 -13q0 -2 -2 -2l2 2 q0 -2 -2 -2q-27 -35 -73 -69q12 10 16 16q20 20 20 57v21q0 39 -12 68l2 -3q-2 27 -28 27q-16 0 -27 -16v2q-39 -51 -105 -88q-43 -23 -67 -29q4 37 23.5 97.5t52.5 146.5q4 12 27.5 71.5t68.5 167.5q47 121 81 199t52 115q14 27 14 51q0 63 -82 76h3q-6 0 -13 2h-14 q4 20 4 24t-4 25q82 8 82 53q0 31 -39 70q-35 39 -68 45q-4 10 -11 22.5t-17 28.5q-41 55 -103 55q-211 0 -473 -161q-233 -143 -383 -328q-283 -350 -282 -637zM0 252q0 279 281 625q72 90 166 169.5t210 151.5q260 160 463 160q53 0 84 -45q31 -43 31 -53q0 -27 -82 -35 q-313 -33 -684 -451q-39 -45 -77 -100.5t-75 -122.5q-92 -170 -92 -270q0 -94 80 -121q18 -8 45 -8q168 0 441 419q51 78 119.5 206t160.5 308q27 51 92 52h15q8 0 18 -2q63 -8 64 -56q0 -16 -13 -43q-23 -47 -55.5 -124.5t-77.5 -188.5q-59 -147 -99 -256t-63 -180 q-20 -68 -20 -111q0 -41 26 -55q18 -12 70 -15q55 -4 125 39q61 37 100 91q10 12 17 -7q14 -32 10 -79q-4 -35 -14 -46q-82 -82 -201 -104q-16 -2 -38.5 -3t-49.5 -1q-170 0 -221 57q-14 14 -15 58q0 106 76 278q10 23 -4 23q-6 0 -14 -13q-74 -125 -207 -247 q-182 -164 -338 -164q-84 0 -160 47q-94 63 -94 217zM348 172v6q0 90 90 260q33 59 71 114.5t79 104.5h-2q231 258 428 363q-154 -309 -240 -438q-268 -410 -424 -410h-2zM614 1847v13q0 41 91 41h18q47 0 102 -17q33 -14 41 -39q8 -23 12.5 -36t6.5 -17q16 -4 26.5 -6 t16.5 -4q33 -14 41 -39q18 -57 39 -94q12 -4 10 -4h-2q31 -16 33 -43q43 -47 71 -60h-2q33 -14 33 -45q0 -29 -27.5 -45t-58.5 -16q-25 0 -49 10h2q-106 41 -205 133q-35 33 -49 55q-150 117 -150 213zM635 1858q-8 -76 104 -175q96 -84 183 -116q47 -18 86 4q20 14 20 28 q0 18 -20 27q-43 23 -107 98q-25 31 -53 115q-6 16 -29 27q-25 10 -96 14q-86 5 -88 -22z" />
<glyph unicode="&#xc1;" horiz-adv-x="1425" d="M-18 252q0 -164 100 -234q16 -14 29 -16q31 -63 100.5 -100t144.5 -37q164 0 353 170q10 8 14 12l6 6q8 -12 10 -14q27 -33 84 -45q0 -35 19 -55q59 -66 237 -66q57 0 92 6q123 23 211 111q21 18 21 55v21q0 39 -12 67l2 -2q-2 27 -29 27q-18 0 -27 -15q-27 -35 -73 -69 q12 10 16 16q20 20 20 57v21q0 39 -12 68l2 -3q-2 27 -28 27q-18 0 -27 -14q-39 -51 -105 -88q-43 -23 -67 -29q4 37 23.5 97.5t52.5 146.5q4 12 27.5 71.5t68.5 167.5q47 121 81 199t52 115q14 27 14 51q0 63 -82 76h3q-6 0 -13 2h-14q4 20 4 24t-4 25q82 8 82 53 q0 31 -39 70q-35 39 -68 45q-4 10 -11 22.5t-17 28.5q-41 55 -103 55q-211 0 -473 -161q-233 -143 -383 -328q-283 -350 -282 -637zM0 252q0 279 281 625q72 90 166 169.5t210 151.5q260 160 463 160q53 0 84 -45q31 -43 31 -53q0 -27 -82 -35q-313 -33 -684 -451 q-39 -45 -77 -100.5t-75 -122.5q-92 -170 -92 -270q0 -94 80 -121q18 -8 45 -8q168 0 441 419q51 78 119.5 206t160.5 308q27 51 92 52h15q8 0 18 -2q63 -8 64 -56q0 -16 -13 -43q-23 -47 -55.5 -124.5t-77.5 -188.5q-59 -147 -99 -256t-63 -180q-20 -63 -20 -111 q0 -41 26 -55q18 -12 70 -15q55 -4 125 39q61 37 100 91q10 12 17 -7q14 -32 10 -79q-4 -35 -14 -46q-82 -82 -201 -104q-16 -2 -38.5 -3t-49.5 -1q-170 0 -221 57q-14 14 -15 58q0 106 76 278q10 23 -4 23q-6 0 -14 -13q-74 -125 -207 -247q-182 -164 -338 -164 q-84 0 -160 47q-94 63 -94 217zM348 172v6q0 90 90 260q33 59 71 114.5t79 104.5h-2q231 258 428 363q-154 -309 -240 -438q-268 -410 -424 -410h-2zM889 1595q0 -61 86 -61q25 0 49 10h-2q6 2 11 4t9 4q-16 -14 -20 -14q-31 -18 -31 -45q0 -61 86 -61q25 0 49 10h-2 q96 37 189 117q113 94 112 180v12q-6 43 -92 43h-20q10 31 10 47v12q-6 43 -92 43h-17q-47 0 -104 -18q-29 -12 -41 -37q-23 -80 -49 -106l-74 -68q-57 -51 -57 -72zM909 1595q0 14 21 27q27 14 104 98q27 27 56 115q12 39 124 41q85 4 89 -25q8 -76 -105 -174 q-47 -41 -92 -69.5t-90 -44.5q-29 -10 -64 -4q-43 8 -43 36z" />
<glyph unicode="&#xc2;" horiz-adv-x="1431" d="M-18 252q0 -164 100 -234q16 -14 29 -16q31 -63 100.5 -100t144.5 -37q164 0 353 170q10 8 14 12l6 6q8 -12 10 -14q27 -33 84 -45q0 -35 19 -55q59 -66 237 -66q57 0 92 6q123 23 211 111q21 18 21 55v21q0 39 -12 67l2 -2q-2 27 -29 27q-16 0 -27 -17v2 q-27 -35 -73 -69q12 10 16 16q20 20 20 57v21q0 39 -12 68l2 -3q-2 27 -28 27q-16 0 -25 -12q0 -2 -2 -2l2 2q0 -2 -2 -2q-39 -51 -105 -88q-43 -23 -67 -29q4 37 23.5 97.5t52.5 146.5q4 12 27.5 71.5t68.5 167.5q47 121 81 199t52 115q14 27 14 51q0 63 -82 76h3 q-6 0 -13 2h-14q4 20 4 24t-4 25q82 8 82 53q0 31 -39 70q-35 39 -68 45q-4 10 -11 22.5t-17 28.5q-41 55 -103 55q-211 0 -473 -161q-233 -143 -383 -328q-283 -350 -282 -637zM0 252q0 279 281 625q72 90 166 169.5t210 151.5q260 160 463 160q53 0 84 -45q31 -43 31 -53 q0 -27 -82 -35q-313 -33 -684 -451q-39 -45 -77 -100.5t-75 -122.5q-92 -170 -92 -270q0 -94 80 -121q18 -8 45 -8q168 0 441 419q51 78 119.5 206t160.5 308q27 51 92 52h15q8 0 18 -2q63 -8 64 -56q0 -16 -13 -43q-23 -47 -55.5 -124.5t-77.5 -188.5q-59 -147 -99 -256 t-63 -180q-20 -63 -20 -111q0 -41 26 -55q18 -12 70 -15q55 -4 125 39q61 37 100 91q10 12 17 -7q14 -32 10 -79q-4 -35 -14 -46q-82 -82 -201 -104q-16 -2 -38.5 -3t-49.5 -1q-170 0 -221 57q-14 14 -15 58q0 106 76 278q10 23 -4 23q-6 0 -14 -13q-74 -125 -207 -247 q-182 -164 -338 -164q-84 0 -160 47q-94 63 -94 217zM348 172v6q0 90 90 260q33 59 71 114.5t79 104.5h-2q231 258 428 363q-154 -309 -240 -438q-268 -410 -424 -410h-2zM723 1583q0 -37 63 -37q76 0 175 56q-66 -59 -103 -84h2q-35 -23 -35 -37q0 -37 64 -37 q123 0 293 139q137 -141 211 -141q39 0 39 35q0 16 -21 36l2 -2q-96 117 -117 242h-71q-20 49 -31 102h-190q-125 -147 -248 -235h2q-35 -23 -35 -37zM743 1583q2 2 8.5 7t16.5 14q117 82 246 231h164q20 -115 116 -233q15 -15 15 -23q0 -14 -19 -14q-68 0 -209 149 q-176 -147 -295 -147q-43 0 -43 16z" />
<glyph unicode="&#xc3;" horiz-adv-x="1402" d="M-18 252q0 -164 100 -234q16 -14 29 -16q31 -63 100.5 -100t144.5 -37q164 0 353 170q10 8 14 12l6 6q8 -12 10 -14q27 -33 84 -45q0 -35 19 -55q59 -66 237 -66q57 0 92 6q123 23 211 111q21 18 21 55v21q0 39 -12 67l2 -2q-2 27 -29 27q-16 0 -25 -13q0 -2 -2 -2l2 2 q0 -2 -2 -2q-27 -35 -73 -69q12 10 16 16q20 20 20 57v21q0 39 -12 68l2 -3q-2 27 -28 27q-16 0 -25 -12q0 -2 -2 -2q-39 -51 -105 -88q-43 -23 -67 -29q4 37 23.5 97.5t52.5 146.5q4 12 27.5 71.5t68.5 167.5q47 121 81 199t52 115q14 27 14 51q0 63 -82 76h3q-6 0 -13 2 h-14q4 20 4 24t-4 25q82 8 82 53q0 31 -39 70q-35 39 -68 45q-4 10 -11 22.5t-17 28.5q-41 55 -103 55q-211 0 -473 -161q-233 -143 -383 -328q-283 -350 -282 -637zM0 252q0 279 281 625q72 90 166 169.5t210 151.5q260 160 463 160q53 0 84 -45q31 -43 31 -53 q0 -27 -82 -35q-313 -33 -684 -451q-39 -45 -77 -100.5t-75 -122.5q-92 -170 -92 -270q0 -94 80 -121q18 -8 45 -8q168 0 441 419q51 78 119.5 206t160.5 308q27 51 92 52h15q8 0 18 -2q63 -8 64 -56q0 -16 -13 -43q-23 -47 -55.5 -124.5t-77.5 -188.5q-59 -147 -99 -256 t-63 -180q-20 -63 -20 -111q0 -41 26 -55q18 -12 70 -15q55 -4 125 39q61 37 100 91q10 12 17 -7q14 -32 10 -79q-4 -35 -14 -46q-82 -82 -201 -104q-16 -2 -38.5 -3t-49.5 -1q-170 0 -221 57q-14 14 -15 58q0 106 76 278q10 23 -4 23q-6 0 -14 -13q-74 -125 -207 -247 q-182 -164 -338 -164q-84 0 -160 47q-94 63 -94 217zM348 172v6q0 90 90 260q33 59 71 114.5t79 104.5h-2q231 258 428 363q-154 -309 -240 -438q-268 -410 -424 -410h-2zM592 1602q0 -49 49 -50q25 0 86 62q23 23 35 22q8 0 24 -6q-14 -14 -49 -63q-43 -59 -43 -68 q0 -49 49 -49q25 0 86 61q23 23 35 23q14 0 90 -35q117 -55 160 -55q59 0 137 78q90 90 90 116q0 49 -51 50q-23 0 -53 -31q-43 -43 -68 -43q-10 0 -24 6l4 4q90 90 90 117q0 49 -51 49q-23 0 -53 -31q-43 -43 -68 -43q-18 0 -86 37q-109 59 -166 59q-66 0 -135 -86 q-88 -106 -88 -124zM612 1602q0 10 84 112q66 78 119 78t156 -57q70 -39 96 -39q33 0 82 49q25 25 39 24q31 0 31 -28q0 -19 -84 -103q-72 -72 -123 -71q-35 0 -152 53q-78 37 -98 37t-49 -29q-55 -55 -72 -55q-29 0 -29 29z" />
<glyph unicode="&#xc4;" horiz-adv-x="1402" d="M-18 252q0 -164 100 -234q16 -14 29 -16q31 -63 100.5 -100t144.5 -37q164 0 353 170q10 8 14 12l6 6q8 -12 10 -14q27 -33 84 -45q0 -35 19 -55q59 -66 237 -66q57 0 92 6q123 23 211 111q21 18 21 55v21q0 39 -12 67l2 -2q-2 27 -29 27q-16 0 -25 -13q0 -2 -2 -2l2 2 q0 -2 -2 -2q-27 -35 -73 -69q12 10 16 16q20 20 20 57v21q0 39 -12 68l2 -3q-2 27 -28 27q-16 0 -27 -16v2q-39 -51 -105 -88q-43 -23 -67 -29q4 37 23.5 97.5t52.5 146.5q4 12 27.5 71.5t68.5 167.5q47 121 81 199t52 115q14 27 14 51q0 63 -82 76h3q-6 0 -13 2h-14 q4 20 4 24t-4 25q82 8 82 53q0 31 -39 70q-35 39 -68 45q-4 10 -11 22.5t-17 28.5q-41 55 -103 55q-211 0 -473 -161q-233 -143 -383 -328q-283 -350 -282 -637zM0 252q0 279 281 625q72 90 166 169.5t210 151.5q260 160 463 160q53 0 84 -45q31 -43 31 -53q0 -27 -82 -35 q-313 -33 -684 -451q-39 -45 -77 -100.5t-75 -122.5q-92 -170 -92 -270q0 -94 80 -121q18 -8 45 -8q168 0 441 419q51 78 119.5 206t160.5 308q27 51 92 52h15q8 0 18 -2q63 -8 64 -56q0 -16 -13 -43q-23 -47 -55.5 -124.5t-77.5 -188.5q-59 -147 -99 -256t-63 -180 q-20 -63 -20 -111q0 -41 26 -55q18 -12 70 -15q55 -4 125 39q61 37 100 91q10 12 17 -7q14 -32 10 -79q-4 -35 -14 -46q-82 -82 -201 -104q-16 -2 -38.5 -3t-49.5 -1q-170 0 -221 57q-14 14 -15 58q0 106 76 278q10 23 -4 23q-6 0 -14 -13q-74 -125 -207 -247 q-182 -164 -338 -164q-84 0 -160 47q-94 63 -94 217zM348 172v6q0 90 90 260q33 59 71 114.5t79 104.5h-2q231 258 428 363q-154 -309 -240 -438q-268 -410 -424 -410h-2zM578 1659q0 -94 102 -119q10 -68 78 -94q27 -10 51 -10q80 0 135 90q4 6 5 10t3 8q16 -4 15 -4 q10 -68 77 -94q27 -10 52 -10q80 0 135 90q18 31 18 78q0 82 -69 112q-12 4 -21.5 6t-13.5 4q-6 63 -68 93q-37 12 -55 12q-94 0 -127 -68v2q-8 -14 -12 -25t-9 -20q-6 6 -16 6q-6 63 -67 93q-37 12 -56 12q-94 0 -127 -68v2q-31 -55 -30 -106zM598 1659q0 66 37 108.5 t100 42.5q104 0 105 -104q-1 -39 -17 -68q-47 -80 -116 -79q-45 0 -77 27.5t-32 72.5zM885 1659q0 66 36.5 108.5t100.5 42.5q104 0 104 -104q0 -39 -16 -68q-47 -80 -117 -79q-45 0 -76.5 27.5t-31.5 72.5z" />
<glyph unicode="&#xc5;" horiz-adv-x="1402" d="M-18 252q0 -164 100 -234q16 -14 29 -16q31 -63 100.5 -100t144.5 -37q164 0 353 170q10 8 14 12l6 6q8 -12 10 -14q27 -33 84 -45q0 -35 19 -55q59 -66 237 -66q57 0 92 6q123 23 211 111q21 18 21 55v21q0 39 -12 67l2 -2q-2 27 -29 27q-16 0 -27 -17v2 q-27 -35 -73 -69q12 10 16 16q20 20 20 57v21q0 39 -12 68l2 -3q-2 27 -28 27q-16 0 -27 -16v2q-39 -51 -105 -88q-43 -23 -67 -29q4 37 23.5 97.5t52.5 146.5q4 12 27.5 71.5t68.5 167.5q47 121 81 199t52 115q14 27 14 51q0 63 -82 76h3q-6 0 -13 2h-14q4 20 4 24t-4 25 q82 8 82 53q0 31 -39 70q-35 39 -68 45q-4 10 -11 22.5t-17 28.5q-41 55 -103 55q-211 0 -473 -161q-233 -143 -383 -328q-283 -350 -282 -637zM0 252q0 279 281 625q72 90 166 169.5t210 151.5q260 160 463 160q53 0 84 -45q31 -43 31 -53q0 -27 -82 -35 q-313 -33 -684 -451q-39 -45 -77 -100.5t-75 -122.5q-92 -170 -92 -270q0 -94 80 -121q18 -8 45 -8q168 0 441 419q51 78 119.5 206t160.5 308q27 51 92 52h15q8 0 18 -2q63 -8 64 -56q0 -16 -13 -43q-23 -47 -55.5 -124.5t-77.5 -188.5q-59 -147 -99 -256t-63 -180 q-20 -63 -20 -111q0 -41 26 -55q18 -12 70 -15q55 -4 125 39q61 37 100 91q10 12 17 -7q14 -32 10 -79q-4 -35 -14 -46q-82 -82 -201 -104q-16 -2 -38.5 -3t-49.5 -1q-170 0 -221 57q-14 14 -15 58q0 106 76 278q10 23 -4 23q-6 0 -14 -13q-74 -125 -207 -247 q-182 -164 -338 -164q-84 0 -160 47q-94 63 -94 217zM348 172v6q0 90 90 260q33 59 71 114.5t79 104.5h-2q231 258 428 363q-154 -309 -240 -438q-268 -410 -424 -410h-2zM805 1716q0 -117 113 -160q43 -113 161 -112q70 0 120 50t50 120q0 119 -114 162q-43 113 -158 112 q-70 0 -121 -51t-51 -121zM825 1716q0 61 45 106.5t107 45.5q61 0 105 -45.5t44 -106.5t-44 -105t-105 -44t-106.5 44t-45.5 105zM897 1716q0 -33 23.5 -56.5t56.5 -23.5q35 0 57.5 23.5t22.5 56.5q0 80 -80 80q-33 0 -56.5 -22.5t-23.5 -57.5zM918 1716q0 59 59 60 q14 0 29 -9q-55 -27 -82 -79q-6 12 -6 28zM1049 1563q51 25 81 82q8 -14 9 -31q-1 -60 -60 -60q-23 0 -30 9z" />
<glyph unicode="&#xc6;" horiz-adv-x="2275" d="M-18 252q0 -164 100 -234q16 -14 29 -16q31 -63 100.5 -100t144.5 -37q164 0 353 170q10 8 14 12l6 6q8 -12 10 -14q27 -33 84 -45q0 -63 80 -94q-4 -29 -7 -52.5t-3 -44.5q0 -158 129 -227q51 -98 184 -137q37 -10 82 -10q158 0 328 114q45 29 92 70t100 92 q121 117 150 195v2t2 6v14q0 43 -49 78q-35 25 -53 27q-4 35 -41 67q-37 37 -72 37q-33 0 -57 -39q-53 -82 -179 -194q-139 -127 -219 -152q8 106 109 264q125 205 243 307q20 16 33 17h2q31 -8 70 -8q31 0 53 6q164 43 164 149q0 96 -102 109q-4 104 -138 104q-23 0 -55 -8 q12 29 26.5 58.5t30.5 58.5q59 104 142 188q111 115 194 115h4q63 0 115 -45v2q12 -12 23 -12q27 0 49 28.5t22 61.5v4q0 76 -92 123q-8 4 -14 6q-27 119 -215 119q-152 0 -289 -86q-86 -53 -156.5 -130t-128.5 -182q-12 45 -80 58h3q-6 0 -13 2h-14q4 20 4 24t-4 25 q82 8 82 53q0 31 -39 70q-35 39 -68 45q-4 10 -11 22.5t-17 28.5q-41 55 -103 55q-211 0 -473 -161q-233 -143 -383 -328q-283 -350 -282 -637zM0 252q0 279 281 625q72 90 166 169.5t210 151.5q260 160 463 160q53 0 84 -45q31 -43 31 -53q0 -27 -82 -35 q-313 -33 -684 -451q-39 -45 -77 -100.5t-75 -122.5q-92 -170 -92 -270q0 -94 80 -121q18 -8 45 -8q168 0 441 419q51 78 119.5 206t160.5 308q27 51 92 52h15q8 0 18 -2q63 -8 64 -56q0 -16 -13 -43q-23 -47 -55.5 -124.5t-77.5 -188.5q-59 -147 -99 -256t-63 -180 q-20 -63 -20 -111q0 -59 80 -67q139 244 360 397q23 16 23 26q0 -6 -41 66q-39 72 -39 139q0 90 57 199q227 436 582 436q39 0 74 -6q120 -23 124 -119q2 -25 -15 -49t-36 -24q4 0 -37 26q-39 25 -100 29q-84 2 -190 -99q-92 -86 -170 -217q-86 -147 -86 -256q0 -43 26 -43 q4 0 17 4q111 55 163 56q117 0 117 -90t-149 -129q-47 -12 -113 2q-27 2 -53 -21q-115 -98 -246 -313q-113 -180 -113 -293q0 -111 90 -111t267 164q129 119 180 199q18 29 41 29q12 0 28.5 -9.5t31 -22.5t23.5 -28.5t9 -27.5q0 -2 -4 -23q-18 -47 -113 -147 q-281 -301 -534 -302q-39 0 -76 11q-197 57 -197 241q0 84 43 193q-150 2 -200 57q-14 14 -15 58q0 106 76 278q10 23 -4 23q-6 0 -14 -13q-74 -125 -207 -247q-182 -164 -338 -164q-84 0 -160 47q-94 63 -94 217zM348 172v6q0 90 90 260q33 59 71 114.5t79 104.5h-2 q231 258 428 363q-154 -309 -240 -438q-268 -410 -424 -410h-2zM1112 293q45 131 123 319q25 59 40 96t19 50v-21q0 -80 39 -143q20 -31 23 -37q14 -23 18 -25q-4 -2 -7 -4t-7 -6q-139 -96 -248 -229z" />
<glyph unicode="&#xc7;" horiz-adv-x="1396" d="M-18 -778q33 -23 64.5 -38t59.5 -26l-24 -39q133 -90 291 -90q106 0 182 45q88 51 88 154q0 113 -111 154q-10 31 -30 55q244 45 506 405q25 33 24 70q0 18 -8 36.5t-20.5 34t-29 25.5t-30.5 10q-2 0 -14 -4q0 18 -9.5 37t-21.5 34t-27.5 25.5t-29.5 10.5 q-18 0 -119 -117q-119 -131 -131 -141q-127 -102 -205 -103h-2q-8 27 -8 78q0 115 49 266q35 115 98 263q100 242 291 483q162 211 270 254q-10 -47 -32 -92q-61 -133 -217 -178q-57 -18 -58 -64q0 -25 21 -57q35 -55 84 -62q2 -18 18 -41q33 -61 90 -61h6q57 0 168 80 q231 170 232 405q0 178 -133 244q-61 125 -209 125q-197 0 -402 -174q-299 -256 -530 -748q-133 -291 -133 -536q0 -260 162 -361q33 -57 77 -86l-34 -73q-8 -14 -9 -23q0 -33 31 -33q18 0 25 2q10 2 17 3t11 1q31 0 47 -10l-20 -43q-8 -14 -8 -22q0 -31 24 -33 q-29 -16 -67 -17q-96 0 -199 78zM6 -772l45 72q94 -70 195 -70q115 0 114 94q0 72 -90 72q-6 0 -28.5 -3t-24.5 -3q-10 0 -10 12q2 6 6 14l68 142q-61 8 -117 43q-156 94 -156 344q0 240 133 528q225 483 527 739q201 170 387 170q104 0 161.5 -67.5t57.5 -177.5 q0 -227 -223 -389q-106 -80 -160 -76q-8 0 -21 4q-25 8 -48 38.5t-23 55.5q0 27 43 43q166 53 229 191q39 80 39 143q0 90 -78 90q-125 0 -336 -272q-100 -129 -172.5 -250t-120.5 -238q-41 -100 -65.5 -165.5t-34.5 -98.5q-49 -154 -49 -272q0 -135 82 -187q20 -14 51 -14 q86 0 217 106q59 47 101.5 92.5t68.5 90.5q43 72 68 71q25 0 46 -30.5t21 -57.5q0 -29 -20 -55q-279 -389 -539 -403l-43 -84q6 0 25.5 2t23.5 2q76 0 120 -41t44 -103q0 -90 -84 -139q-66 -39 -166 -39q-152 0 -264 76z" />
<glyph unicode="&#xc8;" horiz-adv-x="1298" d="M-18 -195q0 -160 129 -229q51 -98 182 -137q37 -10 78 -10q160 0 329 114q45 29 92.5 70t100.5 92q121 117 149 195v2t2 6v14q0 43 -49 78q-35 25 -53 27q-4 35 -41 67q-37 37 -72 37q-33 0 -57 -39q-53 -82 -178 -194q-139 -127 -219 -152q8 106 108 264 q125 205 244 307q20 16 33 17h2q31 -8 69 -8q31 0 54 6q164 43 164 149q0 96 -103 109q-4 104 -137 104q-23 0 -55 -8q12 29 26.5 58.5t30.5 58.5q59 104 141 188q111 115 195 115h4q63 0 115 -45v2q12 -12 22 -12q27 0 49.5 28.5t22.5 61.5v4q0 76 -92 123q-8 4 -15 6 q-27 119 -215 119q-152 0 -288 -86q-182 -115 -312 -361q-59 -115 -59 -209q0 -80 39 -143q20 -31 22 -37q14 -23 19 -25q-4 -2 -7 -4t-8 -6h2q-98 -66 -192 -166q-125 -133 -205 -297q-68 -145 -67 -254zM0 -195q0 90 53 213q76 172 215 324q47 51 94.5 91t94.5 73 q23 16 22 26q0 -6 -41 66q-39 72 -39 139q0 90 58 199q227 436 581 436q41 0 72 -6q123 -23 127 -119q2 -25 -15.5 -49t-35.5 -24q4 0 -37 26q-39 25 -100 29q-84 2 -191 -99q-92 -86 -170 -217q-86 -147 -86 -256q0 -43 27 -43q4 0 16 4q111 55 164 56q117 0 117 -90 t-150 -129q-47 -12 -112 2q-27 2 -54 -21q-115 -98 -245 -313q-113 -180 -113 -293q0 -111 90 -111t266 164q129 119 180 199q18 29 41 29q12 0 28.5 -9.5t31 -22.5t24 -28.5t9.5 -27.5q0 -2 -4 -23q-18 -47 -113 -147q-281 -301 -537 -302q-35 0 -71 11q-197 57 -197 243z M666 1847v13q0 41 90 41h18q47 0 103 -17q33 -14 41 -39q8 -23 12 -36t6 -17q16 -4 26.5 -6t16.5 -4q33 -14 41 -39q18 -57 39 -94q12 -4 10 -4h-2q31 -16 33 -43q43 -47 71 -60h-2q33 -14 33 -45q0 -29 -27.5 -45t-58.5 -16q-25 0 -49 10h2q-106 41 -205 133q-35 33 -49 55 q-150 117 -149 213zM686 1858q-8 -76 105 -175q96 -84 182 -116q47 -18 86 4q20 14 20 28q0 18 -20 27q-43 23 -107 98q-25 31 -53 115q-6 16 -29 27q-25 10 -96 14q-86 5 -88 -22z" />
<glyph unicode="&#xc9;" horiz-adv-x="1554" d="M-18 -195q0 -160 129 -229q51 -98 182 -137q37 -10 80 -10q158 0 327 114q45 29 92.5 70t100.5 92q121 117 149 195v2t2 6v14q0 43 -49 78q-35 25 -53 27q-4 35 -41 67q-37 37 -72 37q-33 0 -57 -39q-53 -82 -178 -194q-139 -127 -219 -152q8 106 108 264 q125 205 244 307q20 16 33 17h2q31 -8 69 -8q31 0 54 6q164 43 164 149q0 96 -103 109q-4 104 -137 104q-23 0 -55 -8q12 29 26.5 58.5t30.5 58.5q59 104 141 188q111 115 195 115h4q63 0 115 -45v2q12 -12 22 -12q27 0 49.5 28.5t22.5 61.5v4q0 76 -92 123q-8 4 -15 6 q-27 119 -215 119q-152 0 -288 -86q-182 -115 -312 -361q-59 -115 -59 -209q0 -80 39 -143q20 -31 22 -37q14 -23 19 -25q-4 -2 -7 -4t-8 -6h2q-98 -66 -192 -166q-123 -131 -205 -299q-68 -141 -67 -252zM0 -195q0 90 53 213q76 172 215 324q47 51 94.5 91t94.5 73 q23 16 22 26q0 -6 -41 66q-39 72 -39 139q0 90 58 199q227 436 581 436q39 0 74 -6q121 -23 125 -119q2 -25 -15.5 -49t-35.5 -24q4 0 -37 26q-39 25 -100 29q-84 2 -191 -99q-92 -86 -170 -217q-86 -147 -86 -256q0 -43 27 -43q4 0 16 4q111 55 164 56q117 0 117 -90 t-150 -129q-47 -12 -112 2q-27 2 -54 -21q-115 -98 -245 -313q-113 -180 -113 -293q0 -111 90 -111t266 164q129 119 180 199q18 29 41 29q12 0 28.5 -9.5t31 -22.5t24 -28.5t9.5 -27.5q0 -2 -4 -23q-18 -47 -113 -147q-281 -301 -535 -302q-37 0 -73 11q-197 57 -197 243z M1018 1595q0 -61 86 -61q25 0 49 10h-2q6 2 11 4t9 4q-16 -14 -20 -14q-31 -18 -31 -45q0 -61 86 -61q25 0 49 10h-2q96 37 189 117q113 94 112 180v12q-6 43 -92 43h-20q10 31 10 47v12q-6 43 -92 43h-17q-47 0 -104 -18q-29 -12 -41 -37q-23 -80 -49 -106l-74 -68 q-57 -51 -57 -72zM1038 1595q0 14 21 27q27 14 104 98q27 27 56 115q12 39 124 41q85 4 89 -25q8 -76 -105 -174q-47 -41 -92 -69.5t-90 -44.5q-29 -10 -64 -4q-43 8 -43 36z" />
<glyph unicode="&#xca;" horiz-adv-x="1466" d="M-18 -195q0 -160 129 -229q51 -98 182 -137q37 -10 80 -10q158 0 327 114q45 29 92.5 70t100.5 92q121 117 149 195v2t2 6v14q0 43 -49 78q-35 25 -53 27q-4 35 -41 67q-37 37 -72 37q-33 0 -57 -39q-53 -82 -178 -194q-139 -127 -219 -152q8 106 108 264 q125 205 244 307q20 16 33 17h2q31 -8 69 -8q31 0 54 6q164 43 164 149q0 96 -103 109q-4 104 -137 104q-23 0 -55 -8q12 29 26.5 58.5t30.5 58.5q59 104 141 188q111 115 195 115h4q63 0 115 -45v2q12 -12 22 -12q27 0 49.5 28.5t22.5 61.5v4q0 76 -92 123q-8 4 -15 6 q-27 119 -215 119q-152 0 -288 -86q-182 -115 -312 -361q-59 -115 -59 -209q0 -80 39 -143q20 -31 22 -37q14 -23 19 -25q-4 -2 -7 -4t-8 -6h2q-98 -66 -192 -166q-123 -131 -205 -299q-68 -141 -67 -252zM0 -195q0 90 53 213q76 172 215 324q47 51 94.5 91t94.5 73 q23 16 22 26q0 -6 -41 66q-39 72 -39 139q0 90 58 199q227 436 581 436q39 0 74 -6q121 -23 125 -119q2 -25 -15.5 -49t-35.5 -24q4 0 -37 26q-39 25 -100 29q-84 2 -191 -99q-92 -86 -170 -217q-86 -147 -86 -256q0 -43 27 -43q4 0 16 4q111 55 164 56q117 0 117 -90 t-150 -129q-47 -12 -112 2q-27 2 -54 -21q-115 -98 -245 -313q-113 -180 -113 -293q0 -111 90 -111t266 164q129 119 180 199q18 29 41 29q12 0 28.5 -9.5t31 -22.5t24 -28.5t9.5 -27.5q0 -2 -4 -23q-18 -47 -113 -147q-281 -301 -535 -302q-37 0 -73 11q-197 57 -197 243z M758 1583q0 -37 63 -37q76 0 174 56q-66 -59 -102 -84h2q-35 -23 -35 -37q0 -37 64 -37q123 0 293 139q137 -141 210 -141q39 0 39 35q0 16 -20 36l2 -2q-96 117 -117 242h-71q-20 49 -31 102h-191q-125 -147 -247 -235h2q-35 -23 -35 -37zM778 1583q2 2 8.5 7t16.5 14 q117 82 246 231h163q20 -115 117 -233q14 -15 14 -23q0 -14 -18 -14q-68 0 -209 149q-176 -147 -295 -147q-43 0 -43 16z" />
<glyph unicode="&#xcb;" horiz-adv-x="1359" d="M-18 -195q0 -160 129 -229q51 -98 182 -137q37 -10 80 -10q158 0 327 114q45 29 92.5 70t100.5 92q121 117 149 195v2t2 6v14q0 43 -49 78q-35 25 -53 27q-4 35 -41 67q-37 37 -72 37q-33 0 -57 -39q-53 -82 -178 -194q-139 -127 -219 -152q8 106 108 264 q125 205 244 307q20 16 33 17h2q31 -8 69 -8q31 0 54 6q164 43 164 149q0 96 -103 109q-4 104 -137 104q-23 0 -55 -8q12 29 26.5 58.5t30.5 58.5q59 104 141 188q111 115 195 115h4q63 0 115 -45v2q12 -12 22 -12q27 0 49.5 28.5t22.5 61.5v4q0 76 -92 123q-8 4 -15 6 q-27 119 -215 119q-152 0 -288 -86q-182 -115 -312 -361q-59 -115 -59 -209q0 -80 39 -143q20 -31 22 -37q14 -23 19 -25q-4 -2 -7 -4t-8 -6h2q-98 -66 -192 -166q-123 -131 -205 -299q-68 -141 -67 -252zM0 -195q0 90 53 213q76 172 215 324q47 51 94.5 91t94.5 73 q23 16 22 26q0 -6 -41 66q-39 72 -39 139q0 90 58 199q227 436 581 436q39 0 74 -6q121 -23 125 -119q2 -25 -15.5 -49t-35.5 -24q4 0 -37 26q-39 25 -100 29q-84 2 -191 -99q-92 -86 -170 -217q-86 -147 -86 -256q0 -43 27 -43q4 0 16 4q111 55 164 56q117 0 117 -90 t-150 -129q-47 -12 -112 2q-27 2 -54 -21q-115 -98 -245 -313q-113 -180 -113 -293q0 -111 90 -111t266 164q129 119 180 199q18 29 41 29q12 0 28.5 -9.5t31 -22.5t24 -28.5t9.5 -27.5q0 -2 -4 -23q-18 -47 -113 -147q-281 -301 -535 -302q-37 0 -73 11q-197 57 -197 243z M682 1659q0 -94 102 -119q10 -68 78 -94q27 -10 51 -10q81 0 136 90q4 6 5 10t3 8q16 -4 14 -4q10 -68 78 -94q27 -10 51 -10q80 0 135 90q18 31 19 78q0 82 -70 112q-12 4 -21.5 6t-13.5 4q-6 63 -67 93q-37 12 -56 12q-94 0 -127 -68v2q-8 -14 -12 -25t-8 -20q-6 6 -16 6 q-6 63 -68 93q-37 12 -55 12q-94 0 -127 -68v2q-31 -55 -31 -106zM702 1659q0 66 37 108.5t101 42.5q104 0 104 -104q0 -39 -16 -68q-47 -80 -117 -79q-45 0 -77 27.5t-32 72.5zM989 1659q0 66 37 108.5t100 42.5q104 0 105 -104q-1 -39 -17 -68q-47 -80 -116 -79 q-45 0 -77 27.5t-32 72.5z" />
<glyph unicode="&#xcc;" horiz-adv-x="1030" d="M-18 102q0 -117 112 -174q8 -20 39 -55q66 -70 195 -78q14 -2 24 -2h19q291 0 473 338q53 100 101 247.5t93 346.5q53 244 54 367q0 205 -127 247q-31 82 -111 107v-2q-31 10 -66 10q-139 0 -292 -147q-139 -133 -226 -322q-63 -135 -63 -305q0 -162 57 -268v2 q49 -96 127 -146q10 -14 20.5 -26.5t20.5 -26.5q-41 -41 -78 -65h2q-55 -37 -118 -37q-100 0 -136 77q-16 31 -45 31q-76 0 -75 -119zM0 102q0 98 57 99q16 0 27 -19q41 -90 154 -90q66 0 129 41q33 20 104 92q25 25 -10 35q-123 41 -182 170q-51 104 -52 250q0 164 62 297 q78 166 198 295q156 162 301 162q35 0 60 -9q121 -35 121 -231q-1 -121 -54 -363q-45 -205 -95 -354t-103 -248q-182 -334 -490 -311q-227 14 -227 184zM418 621q0 -182 80 -228q23 -14 32 -14q12 0 25 29q59 139 127 397q70 270 74 405q4 53 -35 54q-66 0 -154 -166 q-150 -274 -149 -477zM420 1847v13q0 41 90 41h18q47 0 103 -17q33 -14 41 -39q8 -23 12 -36t6 -17q16 -4 26.5 -6t16.5 -4q33 -14 41 -39q18 -57 39 -94q12 -4 10 -4h-2q31 -16 33 -43q43 -47 72 -60h-2q33 -14 32 -45q0 -29 -27.5 -45t-58.5 -16q-25 0 -49 10h2 q-106 41 -205 133q-35 33 -49 55q-150 117 -149 213zM440 1858q-8 -76 105 -175q96 -84 182 -116q47 -18 86 4q20 14 21 28q0 18 -21 27q-43 23 -106 98q-25 31 -54 115q-6 16 -28 27q-25 10 -97 14q-86 5 -88 -22zM541 518q0 129 49 258q31 80 98 209q8 14 12.5 23.5 t8.5 15.5q-14 -66 -25.5 -117t-21.5 -90q-70 -274 -117 -383q-2 25 -3 46.5t-1 37.5z" />
<glyph unicode="&#xcd;" horiz-adv-x="1339" d="M-18 102q0 -117 112 -174q8 -20 39 -55q66 -70 195 -78q14 -2 24 -2h19q291 0 473 338q53 100 101 247.5t93 346.5q53 244 54 367q0 205 -127 247q-31 82 -111 107v-2q-31 10 -66 10q-139 0 -292 -147q-139 -133 -226 -322q-63 -135 -63 -305q0 -162 57 -268v2 q49 -96 127 -146q10 -14 20.5 -26.5t20.5 -26.5q-41 -41 -78 -65h2q-55 -37 -118 -37q-100 0 -136 77q-16 31 -45 31q-76 0 -75 -119zM0 102q0 98 57 99q16 0 27 -19q41 -90 154 -90q66 0 129 41q33 20 104 92q25 25 -10 35q-123 41 -182 170q-51 104 -52 250q0 164 62 297 q78 166 198 295q156 162 301 162q35 0 60 -9q121 -35 121 -231q-1 -121 -54 -363q-45 -205 -95 -354t-103 -248q-182 -334 -490 -311q-227 14 -227 184zM418 621q0 -182 80 -228q23 -14 32 -14q12 0 25 29q59 139 127 397q70 270 74 405q4 53 -35 54q-66 0 -154 -166 q-150 -274 -149 -477zM541 518q0 129 49 258q31 80 98 209q8 14 12.5 23.5t8.5 15.5q-14 -66 -25.5 -117t-21.5 -90q-70 -274 -117 -383q-2 25 -3 46.5t-1 37.5zM803 1595q0 -61 86 -61q25 0 49 10h-2q6 2 11 4t9 4q-16 -14 -20 -14q-31 -18 -31 -45q0 -61 86 -61 q25 0 49 10h-2q96 37 189 117q113 94 112 180v12q-6 43 -92 43h-20q10 31 10 47v12q-6 43 -92 43h-17q-47 0 -104 -18q-29 -12 -41 -37q-23 -80 -49 -106l-74 -68q-57 -51 -57 -72zM823 1595q0 14 21 27q27 14 104 98q27 27 56 115q12 39 124 41q85 4 89 -25 q8 -76 -105 -174q-47 -41 -92 -69.5t-90 -44.5q-29 -10 -64 -4q-43 8 -43 36z" />
<glyph unicode="&#xce;" horiz-adv-x="1261" d="M-18 102q0 -117 112 -174q8 -20 39 -55q66 -70 195 -78q14 -2 24 -2h19q291 0 473 338q53 100 101 247.5t93 346.5q53 244 54 367q0 205 -127 247q-31 82 -111 107v-2q-31 10 -66 10q98 29 224 129q137 -141 211 -141q39 0 39 35q0 16 -21 36l2 -2q-96 117 -117 242h-71 q-20 49 -31 102h-190q-125 -147 -248 -235h2q-35 -23 -35 -37q0 -37 63 -37q76 0 175 56q-66 -59 -103 -84h2q-35 -23 -35 -37q0 -37 58 -37q-135 -41 -264 -184q-106 -121 -179 -275q-63 -135 -63 -305q0 -162 57 -268v2q49 -96 127 -146q10 -14 20.5 -26.5t20.5 -26.5 q-41 -41 -78 -65h2q-55 -37 -118 -37q-100 0 -136 77q-16 31 -45 31q-76 0 -75 -119zM0 102q0 98 57 99q16 0 27 -19q41 -90 154 -90q66 0 129 41q33 20 104 92q25 25 -10 35q-123 41 -182 170q-51 104 -52 250q0 164 62 297q78 166 198 295q156 162 301 162q35 0 60 -9 q121 -35 121 -231q-1 -121 -54 -363q-45 -205 -95 -354t-103 -248q-182 -334 -490 -311q-227 14 -227 184zM418 621q0 -182 80 -228q23 -14 32 -14q12 0 25 29q59 139 127 397q70 270 74 405q4 53 -35 54q-66 0 -154 -166q-150 -274 -149 -477zM541 518q0 129 49 258 q31 80 98 209q8 14 12.5 23.5t8.5 15.5q-14 -66 -25.5 -117t-21.5 -90q-70 -274 -117 -383q-2 25 -3 46.5t-1 37.5zM573 1583q2 2 8.5 7t16.5 14q117 82 246 231h164q20 -115 116 -233q15 -15 15 -23q0 -14 -19 -14q-68 0 -209 149q-176 -147 -295 -147q-43 0 -43 16z" />
<glyph unicode="&#xcf;" horiz-adv-x="1181" d="M-18 102q0 -117 112 -174q8 -20 39 -55q66 -70 195 -78q14 -2 24 -2h19q291 0 473 338q53 100 101 247.5t93 346.5q53 244 54 367q0 205 -127 247q-31 82 -111 107v-2q-18 8 -47 10q37 23 70 72q4 6 5 10t3 8q16 -4 14 -4q10 -68 78 -94q27 -10 51 -10q80 0 135 90 q18 31 19 78q0 82 -70 112q-12 4 -21.5 6t-13.5 4q-6 63 -67 93q-37 12 -56 12q-94 0 -127 -68v2q-8 -14 -12 -25t-8 -20q-6 6 -16 6q-6 63 -68 93q-37 12 -55 12q-94 0 -127 -68v2q-31 -55 -31 -106q0 -94 102 -119q8 -68 78 -94l12 -6q-96 -29 -206 -133 q-135 -129 -226 -322q-63 -135 -63 -305q0 -162 57 -268v2q49 -96 127 -146q10 -14 20.5 -26.5t20.5 -26.5q-41 -41 -78 -65h2q-55 -37 -118 -37q-100 0 -136 77q-16 31 -45 31q-76 0 -75 -119zM0 102q0 98 57 99q16 0 27 -19q41 -90 154 -90q66 0 129 41q33 20 104 92 q25 25 -10 35q-123 41 -182 170q-51 104 -52 250q0 164 62 297q78 166 198 295q156 162 301 162q35 0 60 -9q121 -35 121 -231q-1 -121 -54 -363q-45 -205 -95 -354t-103 -248q-182 -334 -490 -311q-227 14 -227 184zM418 621q0 -182 80 -228q23 -14 32 -14q12 0 25 29 q59 139 127 397q70 270 74 405q4 53 -35 54q-66 0 -154 -166q-150 -274 -149 -477zM530 1659q0 66 37 108.5t101 42.5q104 0 104 -104q0 -39 -16 -68q-47 -80 -117 -79q-45 0 -77 27.5t-32 72.5zM541 518q0 129 49 258q31 80 98 209q8 14 12.5 23.5t8.5 15.5 q-14 -66 -25.5 -117t-21.5 -90q-70 -274 -117 -383q-2 25 -3 46.5t-1 37.5zM817 1659q0 66 37 108.5t100 42.5q104 0 105 -104q-1 -39 -17 -68q-47 -80 -116 -79q-45 0 -77 27.5t-32 72.5z" />
<glyph unicode="&#xd0;" horiz-adv-x="1619" d="M-18 117q0 -82 100 -115q12 -125 311 -125q53 0 125 12q78 14 115 15q39 0 112 -13q76 -12 115 -12h270q236 0 369 135q121 127 121 338q0 260 -221 504q-59 63 -70 76q4 10 29 45q37 51 37 72q0 16 -70 71q-10 10 -19.5 16.5t-13.5 10.5v4q0 16 -67 70q-68 55 -84 55 q-18 0 -88 -88q-342 262 -574 262q-242 0 -241 -231q0 -113 92 -238q45 -66 147 -160q74 -80 131 -125q94 -76 135 -75q29 0 54 32q-16 -35 -28.5 -61.5t-23.5 -42.5h-204q-31 0 -49 -33q-74 -127 -74 -156t61 -28h70q-29 -57 -29 -74q0 -25 27 -27q-10 -6 -17 -6 q-53 0 -157.5 18.5t-157.5 18.5q-233 0 -233 -145zM0 117q0 125 215 125q53 0 157.5 -18.5t157.5 -18.5q41 0 132 147h-183q-41 0 -41 8q0 18 72 146q12 23 31 22h217q45 82 110 228q84 190 84 225q0 41 -188 156q-186 113 -250 112q-59 0 -59 -51q0 -80 147 -211 q14 -12 35.5 -28.5t52.5 -38.5q37 -29 37 -35q0 -33 -27 -84q-31 -57 -59 -58q-33 0 -123 72q-260 205 -260 404q0 211 221 211q223 0 578 -269q14 16 25.5 30.5t21.5 29.5q29 35 37 34q8 0 69.5 -49t61.5 -55q0 -14 -33 -59t-33 -58q0 -8 76 -90q215 -238 215 -489 q0 -203 -115 -324q-125 -131 -354 -131h-270q-39 0 -115 12q-74 12 -113 13q-39 0 -118.5 -12.5t-120.5 -12.5q-291 0 -291 117zM578 1096q0 31 38 30q51 0 240 -110q31 -18 49.5 -29.5t24.5 -15.5q-2 -29 -56 -150q-8 -20 -15 -33.5t-11 -23.5q2 4 2 18q0 18 -45 52 q-16 10 -29.5 20t-27.5 20v11q0 18 -46 51q-27 18 -45 31.5t-28 21.5q-51 57 -51 107zM774 184q51 -4 86 -6t58 -2q383 0 382 277q0 104 -61 209q-16 29 -48 72.5t-79 107.5q-49 -115 -141 -314h194q41 0 41 -8q0 -18 -71 -145q-12 -23 -31 -23h-217q-49 -88 -113 -168z M983 199l18 30h127q-61 -24 -145 -30zM1151 549q39 82 55 123l15 -21q59 -106 59 -198v-7h-82q29 61 29 74q0 29 -62 29h-14z" />
<glyph unicode="&#xd1;" horiz-adv-x="1679" d="M-18 842q0 -121 73 -203q25 -29 58 -39q16 -31 45 -63q39 -43 94 -43q84 0 84 69q0 12 -12 43l2 -2q-20 63 -21 82q0 119 76 272q45 94 135 95q2 -6 2 -27q0 -113 -84 -342q-14 -39 -48 -121t-87 -207q-106 -252 -137 -309q-10 -16 -10 -35q0 -47 98 -47h22q0 -4 -3 -10 t-5 -8q-10 -16 -10 -35q0 -49 98 -49h8q133 0 189 114q119 242 282 517q100 166 183.5 284.5t152.5 192.5q-213 -539 -231 -678q-6 -47 -6 -82q0 -127 102 -186q12 -6 17 -11q25 -57 86 -90q96 -53 215 -53q25 0 49 2t49 6q123 23 211 111q20 18 20 55v21q0 39 -12 67l2 -2 q-2 27 -29 27q-16 0 -24 -13q0 -2 -2 -2l2 2q0 -2 -2 -2q-27 -37 -76 -71l18 18q20 20 21 57v21q0 39 -12 68l2 -3q-2 27 -29 27q-16 0 -27 -16v2q-37 -49 -104 -88q-63 -35 -90 -35t-33 2q0 20 6 39l140 405q61 180 95 280.5t38 123.5q12 51 12 102q0 137 -115 180 q-37 117 -196 117q-223 0 -443 -311q-23 127 -125 178q-43 84 -141 119q-55 20 -119 20q-190 0 -346 -211q-109 -150 -108 -325zM0 842q0 174 106 313q154 203 330 203q57 0 113 -19q158 -53 158 -256q0 -125 -58 -297q-4 -16 -4 -20q0 -12 8 -12q14 0 25 22 q106 223 248 383q168 193 338 193q37 0 77 -11q111 -31 111 -163q0 -47 -12 -97q-18 -80 -131 -403q-20 -57 -41 -112.5t-41 -110.5q-66 -197 -66 -234q0 -59 49 -92q41 -27 107 -27q35 0 100 37q78 47 113 97q10 12 16 -7q14 -32 10 -79q-4 -35 -14 -46q-82 -82 -201 -104 q-47 -6 -94 -6q-119 0 -200 47q-96 59 -97 170q0 33 6 80q20 160 281 796q4 12 4 21q0 68 -59 68q-123 0 -453 -545q-94 -156 -169 -292t-132 -253q-51 -104 -178 -100q-78 4 -78 26q0 10 8 25q14 29 49 105.5t88 205.5q106 254 136 332q86 229 86 346q0 150 -123 150 q-104 0 -156 -107q-78 -162 -78 -281q0 -29 15 -71q16 -49 16 -51q0 -49 -63 -50q-47 0 -80 37q-70 72 -70 189zM616 1602q0 -49 50 -50q25 0 86 62q23 23 34 22q8 0 25 -6q-14 -14 -49 -63q-43 -59 -43 -68q0 -49 49 -49q25 0 86 61q23 23 35 23q14 0 90 -35 q117 -55 160 -55q59 0 137 78q90 90 90 116q0 49 -51 50q-23 0 -53 -31q-43 -43 -68 -43q-10 0 -25 6l5 4q90 90 90 117q0 49 -52 49q-23 0 -53 -31q-43 -43 -67 -43q-18 0 -86 37q-109 59 -166 59q-66 0 -135 -86q-88 -106 -89 -124zM637 1602q0 10 84 112q66 78 119 78 t155 -57q70 -39 97 -39q33 0 82 49q25 25 38 24q31 0 31 -28q0 -19 -84 -103q-72 -72 -123 -71q-35 0 -151 53q-78 37 -99 37q-20 0 -49 -29q-55 -55 -71 -55q-29 0 -29 29z" />
<glyph unicode="&#xd2;" horiz-adv-x="1306" d="M-18 428q0 -319 172 -426q98 -152 292 -152q188 0 359 156q137 127 235 326q82 160 119 313q6 31 25 150v-2q6 29 10 32q100 80 149 144q25 33 25 63q0 20 -8 31l2 -2q-49 100 -92 100q-8 0 -10 -2v4q-2 0 -3 2l3 -2q-49 100 -93 101q-20 0 -45 -25l-24 -25 q-37 43 -82 68q0 8 -4 8h2q-39 68 -109 99q-84 39 -137 38q-61 0 -133 -32q-16 -4 -31 -4q-180 -4 -336 -185q-131 -150 -208.5 -364.5t-77.5 -413.5zM0 428q0 199 66 377q80 215 198 362q160 201 340 203q27 0 80 19q51 18 84 18q45 0 129 -37q51 -23 90 -78t49 -112 q4 -29 19 -29q8 0 20 12l62 62q18 18 30 18q27 0 74 -90q16 -29 -16 -70q-27 -33 -63 -67.5t-83 -71.5q-12 -8 -18 -45q-23 -133 -25 -147q-33 -139 -116 -310q-92 -190 -230 -315q-166 -154 -346 -154q-74 0 -135 27q-209 82 -209 428zM213 399q0 -100 37 -163 q45 -82 135 -82q145 0 322 323q51 98 82.5 173t41.5 128q4 16 0 27q-4 12 -10 8q-29 -4 -48 -7t-30 -3q-86 0 -159 67q-100 90 -84 213q2 39 -8 39q-12 0 -27 -20q-94 -111 -170 -320q-82 -221 -82 -383zM336 297q0 152 80 377q49 137 108 231q25 -31 45 -49 q8 -8 18.5 -16.5t26.5 -18.5q59 -104 170 -133q-16 -41 -39.5 -91.5t-56.5 -109.5q-170 -313 -303 -313q-2 0 -10 1t-23 3q-16 55 -16 119zM530 1847v13q0 41 91 41h18q47 0 102 -17q33 -14 41 -39q8 -23 12.5 -36t6.5 -17q16 -4 26.5 -6t16.5 -4q33 -14 41 -39 q18 -57 39 -94q12 -4 10 -4h-2q31 -16 33 -43q43 -47 71 -60h-2q33 -14 33 -45q0 -29 -27.5 -45t-58.5 -16q-25 0 -49 10h2q-106 41 -205 133q-35 33 -49 55q-150 117 -150 213zM551 1858q-8 -76 104 -175q96 -84 183 -116q47 -18 86 4q20 14 20 28q0 18 -20 27 q-43 23 -107 98q-25 31 -53 115q-6 16 -29 27q-25 10 -96 14q-86 5 -88 -22zM618 1135q0 -31 13.5 -61t38 -51.5t58.5 -34.5t73 -13q78 0 82 41q6 74 6 76q0 33 -11.5 63.5t-32 55t-47 39t-57.5 14.5q-43 0 -69 -25q-53 -47 -54 -104zM741 1032q0 49 47 90q20 18 56 19 q12 0 16 -2q8 -16 8 -47q-4 -23 -6 -74q-4 -23 -61 -23q-35 0 -58 9q-2 6 -2 28z" />
<glyph unicode="&#xd3;" horiz-adv-x="1368" d="M-18 428q0 -319 172 -426q98 -152 292 -152q188 0 359 156q137 127 235 326q82 160 119 313q6 31 25 150v-2q6 29 10 32q100 80 149 144q25 33 25 63q0 20 -8 31l2 -2q-49 100 -92 100q-8 0 -10 -2v4q-2 0 -3 2l3 -2q-49 100 -93 101q-20 0 -45 -25l-24 -25 q-37 43 -82 68q0 8 -4 8h2q-39 68 -109 99q-84 39 -137 38q-61 0 -133 -32q-16 -4 -31 -4q-180 -4 -336 -185q-131 -150 -208.5 -364.5t-77.5 -413.5zM0 428q0 199 66 377q80 215 198 362q160 201 340 203q27 0 80 19q51 18 84 18q45 0 129 -37q51 -23 90 -78t49 -112 q4 -29 19 -29q8 0 20 12l62 62q18 18 30 18q27 0 74 -90q16 -29 -16 -70q-27 -33 -63 -67.5t-83 -71.5q-12 -8 -18 -45q-23 -133 -25 -147q-33 -139 -116 -310q-92 -190 -230 -315q-166 -154 -346 -154q-74 0 -135 27q-209 82 -209 428zM213 399q0 -100 37 -163 q45 -82 135 -82q145 0 322 323q51 98 82.5 173t41.5 128q4 16 0 27q-4 12 -10 8q-29 -4 -48 -7t-30 -3q-86 0 -159 67q-100 90 -84 213q2 39 -8 39q-12 0 -27 -20q-94 -111 -170 -320q-82 -221 -82 -383zM336 297q0 152 80 377q49 137 108 231q25 -31 45 -49 q8 -8 18.5 -16.5t26.5 -18.5q59 -104 170 -133q-16 -41 -39.5 -91.5t-56.5 -109.5q-170 -313 -303 -313q-2 0 -10 1t-23 3q-16 55 -16 119zM618 1135q0 -31 13.5 -61t38 -51.5t58.5 -34.5t73 -13q78 0 82 41q6 74 6 76q0 33 -11.5 63.5t-32 55t-47 39t-57.5 14.5 q-43 0 -69 -25q-53 -47 -54 -104zM741 1032q0 49 47 90q20 18 56 19q12 0 16 -2q8 -16 8 -47q-4 -23 -6 -74q-4 -23 -61 -23q-35 0 -58 9q-2 6 -2 28zM829 1595q0 -61 86 -61q25 0 50 10h-2q6 2 11 4t9 4q-16 -14 -20 -14q-31 -18 -31 -45q0 -61 86 -61q25 0 49 10h-2 q96 37 188 117q113 94 113 180v12q-6 43 -92 43h-21q10 31 11 47v12q-6 43 -93 43h-16q-47 0 -104 -18q-29 -12 -41 -37q-23 -80 -49 -106l-74 -68q-57 -51 -58 -72zM850 1595q0 14 20 27q27 14 105 98q27 27 55 115q12 39 125 41q84 4 88 -25q8 -76 -104 -174 q-47 -41 -92.5 -69.5t-90.5 -44.5q-29 -10 -63 -4q-43 8 -43 36z" />
<glyph unicode="&#xd4;" horiz-adv-x="1368" d="M-18 428q0 -319 172 -426q98 -152 292 -152q188 0 359 156q137 127 235 326q82 160 119 313q6 31 25 150v-2q6 29 10 32q100 80 149 144q25 33 25 63q0 20 -8 31l2 -2q-49 100 -92 100q-8 0 -10 -2v4q-2 0 -3 2l3 -2q-49 100 -93 101q-20 0 -45 -25l-24 -25 q-37 43 -82 68q0 8 -4 8h2q-39 68 -109 99q-84 39 -137 38q-61 0 -133 -32q-16 -4 -31 -4q-180 -4 -336 -185q-131 -150 -208.5 -364.5t-77.5 -413.5zM0 428q0 199 66 377q80 215 198 362q160 201 340 203q27 0 80 19q51 18 84 18q45 0 129 -37q51 -23 90 -78t49 -112 q4 -29 19 -29q8 0 20 12l62 62q18 18 30 18q27 0 74 -90q16 -29 -16 -70q-27 -33 -63 -67.5t-83 -71.5q-12 -8 -18 -45q-23 -133 -25 -147q-33 -139 -116 -310q-92 -190 -230 -315q-166 -154 -346 -154q-74 0 -135 27q-209 82 -209 428zM213 399q0 -100 37 -163 q45 -82 135 -82q145 0 322 323q51 98 82.5 173t41.5 128q4 16 0 27q-4 12 -10 8q-29 -4 -48 -7t-30 -3q-86 0 -159 67q-100 90 -84 213q2 39 -8 39q-12 0 -27 -20q-94 -111 -170 -320q-82 -221 -82 -383zM336 297q0 152 80 377q49 137 108 231q25 -31 45 -49 q8 -8 18.5 -16.5t26.5 -18.5q59 -104 170 -133q-16 -41 -39.5 -91.5t-56.5 -109.5q-170 -313 -303 -313q-2 0 -10 1t-23 3q-16 55 -16 119zM604 1583q0 -37 64 -37q76 0 174 56q-66 -59 -103 -84h2q-35 -23 -34 -37q0 -37 63 -37q123 0 293 139q137 -141 211 -141 q39 0 39 35q0 16 -21 36l2 -2q-96 117 -116 242h-72q-20 49 -31 102h-190q-125 -147 -248 -235h2q-35 -23 -35 -37zM618 1135q0 -31 13.5 -61t38 -51.5t58.5 -34.5t73 -13q78 0 82 41q6 74 6 76q0 33 -11.5 63.5t-32 55t-47 39t-57.5 14.5q-43 0 -69 -25q-53 -47 -54 -104z M625 1583q2 2 8 7t16 14q117 82 246 231h164q20 -115 117 -233q14 -15 14 -23q0 -14 -19 -14q-68 0 -208 149q-176 -147 -295 -147q-43 0 -43 16zM741 1032q0 49 47 90q20 18 56 19q12 0 16 -2q8 -16 8 -47q-4 -23 -6 -74q-4 -23 -61 -23q-35 0 -58 9q-2 6 -2 28z" />
<glyph unicode="&#xd5;" horiz-adv-x="1368" d="M-18 428q0 -319 172 -426q98 -152 292 -152q188 0 359 156q137 127 235 326q82 160 119 313q6 31 25 150v-2q6 29 10 32q100 80 149 144q25 33 25 63q0 20 -8 31l2 -2q-49 100 -92 100q-8 0 -10 -2v4q-2 0 -3 2l3 -2q-49 100 -93 101q-20 0 -45 -25l-24 -25 q-37 43 -82 68q0 8 -4 8h2q-39 68 -109 99q-84 39 -137 38q-61 0 -133 -32q-16 -4 -31 -4q-180 -4 -336 -185q-131 -150 -208.5 -364.5t-77.5 -413.5zM0 428q0 199 66 377q80 215 198 362q160 201 340 203q27 0 80 19q51 18 84 18q45 0 129 -37q51 -23 90 -78t49 -112 q4 -29 19 -29q8 0 20 12l62 62q18 18 30 18q27 0 74 -90q16 -29 -16 -70q-27 -33 -63 -67.5t-83 -71.5q-12 -8 -18 -45q-23 -133 -25 -147q-33 -139 -116 -310q-92 -190 -230 -315q-166 -154 -346 -154q-74 0 -135 27q-209 82 -209 428zM213 399q0 -100 37 -163 q45 -82 135 -82q145 0 322 323q51 98 82.5 173t41.5 128q4 16 0 27q-4 12 -10 8q-29 -4 -48 -7t-30 -3q-86 0 -159 67q-100 90 -84 213q2 39 -8 39q-12 0 -27 -20q-94 -111 -170 -320q-82 -221 -82 -383zM336 297q0 152 80 377q49 137 108 231q25 -31 45 -49 q8 -8 18.5 -16.5t26.5 -18.5q59 -104 170 -133q-16 -41 -39.5 -91.5t-56.5 -109.5q-170 -313 -303 -313q-2 0 -10 1t-23 3q-16 55 -16 119zM547 1602q0 -49 49 -50q25 0 86 62q23 23 35 22q8 0 24 -6q-14 -14 -49 -63q-43 -59 -43 -68q0 -49 49 -49q25 0 86 61q23 23 35 23 q14 0 90 -35q117 -55 160 -55q59 0 137 78q90 90 90 116q0 49 -51 50q-23 0 -53 -31q-43 -43 -68 -43q-10 0 -24 6l4 4q90 90 90 117q0 49 -51 49q-23 0 -53 -31q-43 -43 -68 -43q-18 0 -86 37q-109 59 -166 59q-66 0 -135 -86q-88 -106 -88 -124zM567 1602q0 10 84 112 q66 78 119 78t156 -57q70 -39 96 -39q33 0 82 49q25 25 39 24q31 0 31 -28q0 -19 -84 -103q-72 -72 -123 -71q-35 0 -152 53q-78 37 -98 37t-49 -29q-55 -55 -72 -55q-29 0 -29 29zM618 1135q0 -31 13.5 -61t38 -51.5t58.5 -34.5t73 -13q78 0 82 41q6 74 6 76 q0 33 -11.5 63.5t-32 55t-47 39t-57.5 14.5q-43 0 -69 -25q-53 -47 -54 -104zM741 1032q0 49 47 90q20 18 56 19q12 0 16 -2q8 -16 8 -47q-4 -23 -6 -74q-4 -23 -61 -23q-35 0 -58 9q-2 6 -2 28z" />
<glyph unicode="&#xd6;" horiz-adv-x="1368" d="M-18 428q0 -319 172 -426q98 -152 292 -152q188 0 359 156q137 127 235 326q82 160 119 313q6 31 25 150v-2q6 29 10 32q100 80 149 144q25 33 25 63q0 20 -8 31l2 -2q-49 100 -92 100q-8 0 -10 -2v4q-2 0 -3 2l3 -2q-49 100 -93 101q-20 0 -45 -25l-24 -25 q-37 43 -82 68q0 8 -4 8h2q-39 68 -109 99q-84 39 -137 38q-61 0 -133 -32q-16 -4 -31 -4q-180 -4 -336 -185q-131 -150 -208.5 -364.5t-77.5 -413.5zM0 428q0 199 66 377q80 215 198 362q160 201 340 203q27 0 80 19q51 18 84 18q45 0 129 -37q51 -23 90 -78t49 -112 q4 -29 19 -29q8 0 20 12l62 62q18 18 30 18q27 0 74 -90q16 -29 -16 -70q-27 -33 -63 -67.5t-83 -71.5q-12 -8 -18 -45q-23 -133 -25 -147q-33 -139 -116 -310q-92 -190 -230 -315q-166 -154 -346 -154q-74 0 -135 27q-209 82 -209 428zM213 399q0 -100 37 -163 q45 -82 135 -82q145 0 322 323q51 98 82.5 173t41.5 128q4 16 0 27q-4 12 -10 8q-29 -4 -48 -7t-30 -3q-86 0 -159 67q-100 90 -84 213q2 39 -8 39q-12 0 -27 -20q-94 -111 -170 -320q-82 -221 -82 -383zM336 297q0 152 80 377q49 137 108 231q25 -31 45 -49 q8 -8 18.5 -16.5t26.5 -18.5q59 -104 170 -133q-16 -41 -39.5 -91.5t-56.5 -109.5q-170 -313 -303 -313q-2 0 -10 1t-23 3q-16 55 -16 119zM588 1659q0 -94 102 -119q10 -68 78 -94q27 -10 51 -10q80 0 135 90q4 6 5.5 10t3.5 8q16 -4 14 -4q10 -68 78 -94q27 -10 51 -10 q80 0 135 90q18 31 19 78q0 82 -70 112q-12 4 -21.5 6t-13.5 4q-6 63 -68 93q-37 12 -55 12q-94 0 -127 -68v2q-8 -14 -12 -25t-8 -20q-6 6 -17 6q-6 63 -67 93q-37 12 -56 12q-94 0 -127 -68v2q-31 -55 -30 -106zM608 1659q0 66 37 108.5t100 42.5q104 0 105 -104 q0 -39 -16 -68q-47 -80 -117 -79q-45 0 -77 27.5t-32 72.5zM618 1135q0 -31 13.5 -61t38 -51.5t58.5 -34.5t73 -13q78 0 82 41q6 74 6 76q0 33 -11.5 63.5t-32 55t-47 39t-57.5 14.5q-43 0 -69 -25q-53 -47 -54 -104zM741 1032q0 49 47 90q20 18 56 19q12 0 16 -2 q8 -16 8 -47q-4 -23 -6 -74q-4 -23 -61 -23q-35 0 -58 9q-2 6 -2 28zM895 1659q0 66 37 108.5t100 42.5q104 0 105 -104q-1 -39 -17 -68q-47 -80 -116 -79q-45 0 -77 27.5t-32 72.5z" />
<glyph unicode="&#xd7;" horiz-adv-x="868" d="M-18 84l213 -213l280 279l283 -279l110 115l-280 276l280 279l-110 114l-2 -2l-101 105l-282 -285l-178 182l-2 -2l-101 105l-110 -111l278 -282zM8 84l281 281l-281 282l84 82l281 -285l282 285l82 -86l-280 -278l280 -279l-82 -86l-282 281l-281 -281z" />
<glyph unicode="&#xd8;" horiz-adv-x="1343" d="M-18 393q0 -260 161 -360q2 -2 5.5 -7.5t5.5 -9.5l-142 -272h156l-53 -102h194l117 231q20 -2 36.5 -3t26.5 -1q221 0 420 168q162 137 277 362q119 236 119 439q0 199 -138 262q-18 33 -43 61l23 -2h18q104 0 105 117q0 80 -72 104l145 283h-155l53 102h-197l-137 -268 q-362 -37 -649 -391q-276 -344 -276 -713zM0 393q0 358 274 701q287 352 648 385l135 266h149l-139 -275q45 -12 62.5 -29.5t17.5 -62.5q0 -104 -100 -96l-72 6l-43 -86q4 2 29 2q104 0 162.5 -70.5t58.5 -193.5q0 -190 -107 -405q-113 -229 -272 -371q-197 -172 -416 -172 q-41 0 -74 6l-118 -234h-148l139 269q-186 88 -186 360zM197 389q0 -129 79 -180l535 1053q-250 -78 -432 -342q-182 -266 -182 -531zM322 346q18 228 172 451q70 106 147 178zM408 176q141 4 284 154q111 115 195 278q98 190 98 324q0 92 -67 92q-78 0 -142 -123zM664 328 l233 460q27 57 61 86q-16 -98 -73 -223q-84 -182 -207 -307q-12 -12 -14 -16z" />
<glyph unicode="&#xd9;" horiz-adv-x="1695" d="M-18 879q0 -164 112 -191q31 -104 133 -104q98 0 99 67q0 8 -3.5 23.5t-7.5 32t-7 31t-3 24.5q0 61 23 112q31 70 86 117t112 53q-4 -33 -12 -65l-139 -363q-135 -356 -154 -419q-10 -45 -10 -74q0 -102 108 -146q20 -74 121 -110q37 -14 74 -14q80 0 195 55 q158 76 292 235q6 -66 56 -110q14 -14 28.5 -22.5t28.5 -12.5q55 -131 262 -131q66 0 140 12h-3q119 16 213 111q21 18 21 55v21q0 39 -12 67l2 -2q-2 27 -29 27q-18 0 -27 -15q-23 -33 -71 -67l14 14q20 20 21 57v21q0 39 -13 68l2 -3q-2 27 -28 27q-16 0 -27 -16v2 q-33 -45 -106 -88q-63 -35 -93 -35h-20q2 2 2 4v-2q82 311 149.5 565t122.5 455h-2q10 31 10 49q0 63 -90 80q-6 0 -8 2h-6q0 6 2 10v10q0 63 -90 80q-35 6 -59 6q-76 0 -103 -61q-182 -393 -289 -584q-92 -162 -173 -276.5t-156 -184.5q94 254 145 397.5t62 182.5 q16 66 16 121q0 168 -131 242q-68 125 -256 143q-10 2 -23 2h-26q-145 0 -277 -90q-199 -137 -198 -395zM0 879q0 244 193 378q123 86 264 86h24q12 0 23 -2q266 -27 266 -262q0 -49 -16 -114q-31 -115 -252 -701q-14 -37 -15 -61q0 -35 33 -35q35 0 105 47q176 121 393 512 q51 92 122.5 236.5t166.5 349.5q20 49 84 49q18 0 55 -6q74 -12 74 -60q0 -18 -9 -43q-53 -195 -121.5 -448.5t-150.5 -571.5q-2 -6 -2 -26q0 -104 143 -105q37 0 103 37q78 43 114 97q10 12 17 -7q14 -32 10 -79q-4 -35 -14 -46q-90 -90 -201 -104q-41 -4 -75 -7t-60 -3 q-268 0 -250 200q6 78 39 205q2 8 18.5 42t44.5 93q37 74 -6 74q-8 0 -22 -31q-229 -406 -471 -530q-133 -68 -215 -68q-35 0 -68 13q-113 37 -113 135q0 16 3.5 32.5t7.5 37.5q10 35 48 138t103 277q63 166 98 257t41 110q14 37 15 84q0 111 -107 110q-66 0 -131 -52 t-102 -132q-25 -53 -25 -121q0 -14 10.5 -61t10.5 -49q0 -47 -78 -47q-55 0 -90 46t-35 126zM690 1847v13q0 41 90 41h19q47 0 102 -17q33 -14 41 -39q8 -23 12 -36t7 -17q16 -4 26 -6t17 -4q33 -14 40 -39q18 -57 39 -94q12 -4 11 -4h-2q31 -16 32 -43q43 -47 72 -60h-2 q33 -14 33 -45q0 -29 -28 -45t-58 -16q-25 0 -49 10h2q-106 41 -205 133q-35 33 -49 55q-150 117 -150 213zM711 1858q-8 -76 104 -175q96 -84 182 -116q47 -18 86 4q20 14 21 28q0 18 -21 27q-43 23 -106 98q-25 31 -53 115q-6 16 -29 27q-25 10 -96 14q-86 5 -88 -22z" />
<glyph unicode="&#xda;" horiz-adv-x="1746" d="M-18 879q0 -164 112 -191q31 -104 133 -104q98 0 99 67q0 8 -3.5 23.5t-7.5 32t-7 31t-3 24.5q0 61 23 112q31 70 86 117t112 53q-4 -33 -12 -65l-139 -363q-135 -356 -154 -419q-10 -45 -10 -74q0 -102 108 -146q20 -74 121 -110q37 -14 74 -14q80 0 184 51 q164 76 303 239q6 -66 56 -110q14 -14 28.5 -22.5t28.5 -12.5q55 -131 262 -131q66 0 140 12h-3q119 16 213 111q21 18 21 55v21q0 39 -12 67l2 -2q-2 27 -29 27q-16 0 -25 -13q0 -2 -2 -2l2 2q0 -2 -2 -2q-20 -33 -71 -67l14 14q20 20 21 57v21q0 39 -13 68l2 -3 q-2 27 -28 27q-18 0 -27 -14q-33 -45 -106 -88q-63 -35 -93 -35h-20q2 2 2 4v-2q82 311 149.5 565t122.5 455h-2q10 31 10 49q0 63 -90 80q-6 0 -8 2h-6q0 6 2 10v10q0 63 -90 80q-35 6 -59 6q-76 0 -103 -61q-182 -393 -289 -584q-92 -162 -173 -276.5t-156 -184.5 q94 254 145 397.5t62 182.5q16 66 16 121q0 168 -131 242q-68 125 -256 143q-10 2 -23 2h-26q-145 0 -277 -90q-199 -137 -198 -395zM0 879q0 244 193 378q123 86 264 86h24q12 0 23 -2q266 -27 266 -262q0 -49 -16 -114q-31 -115 -252 -701q-14 -37 -15 -61q0 -35 33 -35 q35 0 105 47q176 121 393 512q51 92 122.5 236.5t166.5 349.5q20 49 84 49q18 0 55 -6q74 -12 74 -60q0 -18 -9 -43q-53 -195 -121.5 -448.5t-150.5 -571.5q-2 -6 -2 -26q0 -104 143 -105q37 0 103 37q78 43 114 97q10 12 17 -7q14 -32 10 -79q-4 -35 -14 -46 q-90 -90 -201 -104q-41 -4 -75 -7t-60 -3q-268 0 -250 200q6 78 39 205q2 8 18.5 42t44.5 93q37 74 -6 74q-8 0 -22 -31q-229 -406 -471 -530q-133 -68 -215 -68q-35 0 -68 13q-113 37 -113 135q0 16 3.5 32.5t7.5 37.5q10 35 48 138t103 277q63 166 98 257t41 110 q14 37 15 84q0 111 -107 110q-66 0 -131 -52t-102 -132q-25 -53 -25 -121q0 -14 10.5 -61t10.5 -49q0 -47 -78 -47q-55 0 -90 46t-35 126zM950 1595q0 -61 86 -61q25 0 49 10h-2q6 2 11.5 4t9.5 4q-16 -14 -21 -14q-31 -18 -30 -45q0 -61 86 -61q25 0 49 10h-2 q96 37 188 117q113 94 113 180v12q-6 43 -92 43h-21q10 31 10 47v12q-6 43 -92 43h-16q-47 0 -105 -18q-29 -12 -41 -37q-23 -80 -49 -106l-73 -68q-57 -51 -58 -72zM971 1595q0 14 20 27q27 14 105 98q27 27 55 115q12 39 125 41q84 4 88 -25q8 -76 -104 -174 q-47 -41 -92.5 -69.5t-90.5 -44.5q-29 -10 -63 -4q-43 8 -43 36z" />
<glyph unicode="&#xdb;" horiz-adv-x="1746" d="M-18 879q0 -164 112 -191q31 -104 133 -104q98 0 99 67q0 8 -3.5 23.5t-7.5 32t-7 31t-3 24.5q0 61 23 112q31 70 86 117t112 53q-4 -33 -12 -65l-139 -363q-135 -356 -154 -419q-10 -45 -10 -74q0 -102 108 -146q20 -74 121 -110q37 -14 74 -14q80 0 184 51 q164 76 303 239q6 -66 56 -110q14 -14 28.5 -22.5t28.5 -12.5q55 -131 262 -131q66 0 140 12h-3q119 16 213 111q21 18 21 55v21q0 39 -12 67l2 -2q-2 27 -29 27q-16 0 -25 -13q0 -2 -2 -2q-20 -33 -71 -67l14 14q20 20 21 57v21q0 39 -13 68l2 -3q-2 27 -28 27 q-16 0 -27 -16v2q-33 -45 -106 -88q-63 -35 -93 -35h-20q2 2 2 4v-2q82 311 149.5 565t122.5 455h-2q10 31 10 49q0 63 -90 80q-6 0 -8 2h-6q0 6 2 10v10q0 63 -90 80q-35 6 -59 6q-76 0 -103 -61q-182 -393 -289 -584q-92 -162 -173 -276.5t-156 -184.5q94 254 145 397.5 t62 182.5q16 66 16 121q0 168 -131 242q-68 125 -256 143q-10 2 -23 2h-26q-145 0 -277 -90q-199 -137 -198 -395zM0 879q0 244 193 378q123 86 264 86h24q12 0 23 -2q266 -27 266 -262q0 -49 -16 -114q-31 -115 -252 -701q-14 -37 -15 -61q0 -35 33 -35q35 0 105 47 q176 121 393 512q51 92 122.5 236.5t166.5 349.5q20 49 84 49q18 0 55 -6q74 -12 74 -60q0 -18 -9 -43q-53 -195 -121.5 -448.5t-150.5 -571.5q-2 -6 -2 -26q0 -104 143 -105q37 0 103 37q78 43 114 97q10 12 17 -7q14 -32 10 -79q-4 -35 -14 -46q-90 -90 -201 -104 q-41 -4 -75 -7t-60 -3q-268 0 -250 200q6 78 39 205q2 8 18.5 42t44.5 93q37 74 -6 74q-8 0 -22 -31q-229 -406 -471 -530q-133 -68 -215 -68q-35 0 -68 13q-113 37 -113 135q0 16 3.5 32.5t7.5 37.5q10 35 48 138t103 277q63 166 98 257t41 110q14 37 15 84q0 111 -107 110 q-66 0 -131 -52t-102 -132q-25 -53 -25 -121q0 -14 10.5 -61t10.5 -49q0 -47 -78 -47q-55 0 -90 46t-35 126zM713 1583q0 -37 63 -37q76 0 174 56q-66 -59 -102 -84h2q-35 -23 -35 -37q0 -37 64 -37q123 0 292 139q137 -141 211 -141q39 0 39 35q0 16 -20 36l2 -2 q-96 117 -117 242h-72q-20 49 -30 102h-191q-125 -147 -248 -235h3q-35 -23 -35 -37zM733 1583q2 2 8.5 7t16.5 14q117 82 246 231h163q20 -115 117 -233q14 -15 14 -23q0 -14 -18 -14q-68 0 -209 149q-176 -147 -295 -147q-43 0 -43 16z" />
<glyph unicode="&#xdc;" horiz-adv-x="1746" d="M-18 879q0 -164 112 -191q31 -104 133 -104q98 0 99 67q0 8 -3.5 23.5t-7.5 32t-7 31t-3 24.5q0 61 23 112q31 70 86 117t112 53q-4 -33 -12 -65l-139 -363q-135 -356 -154 -419q-10 -45 -10 -74q0 -102 108 -146q20 -74 121 -110q37 -14 74 -14q80 0 184 51 q164 76 303 239q6 -66 56 -110q14 -14 28.5 -22.5t28.5 -12.5q55 -131 262 -131q66 0 140 12h-3q119 16 213 111q21 18 21 55v21q0 39 -12 67l2 -2q-2 27 -29 27q-16 0 -27 -17v2q-20 -33 -71 -67l14 14q20 20 21 57v21q0 39 -13 68l2 -3q-2 27 -28 27q-16 0 -27 -16v2 q-33 -45 -106 -88q-63 -35 -93 -35h-20q2 2 2 4v-2q82 311 149.5 565t122.5 455h-2q10 31 10 49q0 63 -90 80q-6 0 -8 2h-6q0 6 2 10v10q0 63 -90 80q-35 6 -59 6q-76 0 -103 -61q-182 -393 -289 -584q-92 -162 -173 -276.5t-156 -184.5q94 254 145 397.5t62 182.5 q16 66 16 121q0 168 -131 242q-68 125 -256 143q-10 2 -23 2h-26q-145 0 -277 -90q-199 -137 -198 -395zM0 879q0 244 193 378q123 86 264 86h24q12 0 23 -2q266 -27 266 -262q0 -49 -16 -114q-31 -115 -252 -701q-14 -37 -15 -61q0 -35 33 -35q35 0 105 47q176 121 393 512 q51 92 122.5 236.5t166.5 349.5q20 49 84 49q18 0 55 -6q74 -12 74 -60q0 -18 -9 -43q-53 -195 -121.5 -448.5t-150.5 -571.5q-2 -6 -2 -26q0 -104 143 -105q37 0 103 37q78 43 114 97q10 12 17 -7q14 -32 10 -79q-4 -35 -14 -46q-90 -90 -201 -104q-41 -4 -75 -7t-60 -3 q-268 0 -250 200q6 78 39 205q2 8 18.5 42t44.5 93q37 74 -6 74q-8 0 -22 -31q-229 -406 -471 -530q-133 -68 -215 -68q-35 0 -68 13q-113 37 -113 135q0 16 3.5 32.5t7.5 37.5q10 35 48 138t103 277q63 166 98 257t41 110q14 37 15 84q0 111 -107 110q-66 0 -131 -52 t-102 -132q-25 -53 -25 -121q0 -14 10.5 -61t10.5 -49q0 -47 -78 -47q-55 0 -90 46t-35 126zM795 1659q0 -94 102 -119q10 -68 78 -94q27 -10 51 -10q80 0 135 90q4 6 5 10t3 8q16 -4 15 -4q10 -68 78 -94q27 -10 51 -10q80 0 135 90q18 31 18 78q0 82 -69 112 q-12 4 -21.5 6t-13.5 4q-6 63 -68 93q-37 12 -55 12q-94 0 -127 -68v2q-8 -14 -12 -25t-8 -20q-6 6 -17 6q-6 63 -67 93q-37 12 -56 12q-94 0 -127 -68v2q-31 -55 -30 -106zM815 1659q0 66 37 108.5t100 42.5q104 0 105 -104q-1 -39 -17 -68q-47 -80 -116 -79 q-45 0 -77 27.5t-32 72.5zM1102 1659q0 66 37 108.5t100 42.5q104 0 104 -104q0 -39 -16 -68q-47 -80 -117 -79q-45 0 -76.5 27.5t-31.5 72.5z" />
<glyph unicode="&#xdd;" horiz-adv-x="1783" d="M-18 864q0 -74 26 -139q35 -80 90 -109q4 -2 8.5 -4t10.5 -4q4 0 4 -6q53 -102 137 -102q82 0 82 63q0 27 -25 45h2q-18 14 -18 62q0 68 33 153q90 238 223 238v-6q0 -29 -8 -54q-10 -29 -45 -125t-94 -258v3q-70 -186 -108 -292t-42 -134q-2 -10 -3 -24.5t-1 -31.5 q0 -127 111 -157q35 -115 178 -115q184 0 389 182q-41 -66 -51 -69q-76 -25 -195 -130q-147 -127 -147 -219q0 -45 34 -73h-2q31 -25 70 -37q4 -43 35 -66h-2q53 -47 129 -47q125 0 274 146q121 121 164 241q10 27 49 41q84 20 146 27q193 23 262 71q16 10 32.5 24.5 t32.5 31.5q21 18 21 55v21q0 39 -12 67l2 -2q-2 27 -29 27q-16 0 -27 -17v2q-27 -39 -73 -69l16 16q20 20 20 57v21q0 39 -12 68l2 -3q-2 27 -29 27q-16 0 -24 -12q0 -2 -2 -2l2 2q0 -2 -2 -2q-37 -49 -105 -88q-63 -35 -90 -35h-39q49 152 89 273.5t69 219.5 q119 395 154 510q6 20 6 45q0 63 -101 82h-4q2 4 2 21q0 61 -100 82q-35 8 -67 8q-66 0 -84 -57q-82 -244 -297 -596q-113 -186 -206 -305t-165 -173q180 432 209 652q2 16 3 33.5t1 37.5q0 190 -137 267q-72 139 -254 139h-29q-301 0 -451 -322q-39 -86 -38 -176zM0 864 q0 88 39 168q150 326 461 309q268 -16 268 -282q0 -221 -244 -795q-16 -43 -16 -63q0 -41 49 -41q53 0 129 53q147 106 381 487q223 362 299 600q14 43 64 43q10 0 26.5 -2t36.5 -6q84 -16 84 -61q0 -18 -6 -39q-35 -117 -154 -510q-66 -217 -111.5 -362.5t-72.5 -219.5 q-10 -33 -8 -39q2 -12 20 -12q14 0 37 1t51 3q57 6 88 6q35 0 101 37q78 47 112 97q10 12 17 -7q14 -32 10 -79q-4 -35 -14 -46q-16 -16 -32 -29.5t-32 -23.5q-61 -43 -268 -67q-172 -20 -195 -80q-41 -115 -159 -234q-143 -139 -261 -139q-63 0 -114 43q-27 20 -27 57 q0 82 141 203q121 104 187 127q27 8 49 51q72 147 124 281.5t87 259.5q2 12 3 18.5t1 8.5q0 4 -6 2q-4 -4 -6 -8.5t-6 -8.5q-37 -63 -84.5 -127.5t-104.5 -132.5q-270 -315 -504 -315q-166 0 -166 149q0 12 1 24.5t4 22.5q12 59 147 426q131 352 141 381q8 25 8 62 q0 129 -122 129q-145 0 -242 -250q-35 -94 -35 -162q0 -57 25 -78q16 -16 16 -28q0 -43 -61 -43q-27 0 -47 12q-51 27 -82 100q-27 61 -27 129zM958 1595q0 -61 86 -61q25 0 50 10h-2q6 2 11 4t9 4q-16 -14 -20 -14q-31 -18 -31 -45q0 -61 86 -61q25 0 49 10h-2 q96 37 188 117q113 94 113 180v12q-6 43 -92 43h-21q10 31 11 47v12q-6 43 -93 43h-16q-47 0 -104 -18q-29 -12 -41 -37q-23 -80 -49 -106l-74 -68q-57 -51 -58 -72zM979 1595q0 14 20 27q27 14 105 98q27 27 55 115q12 39 125 41q84 4 88 -25q8 -76 -104 -174 q-47 -41 -92.5 -69.5t-90.5 -44.5q-29 -10 -63 -4q-43 8 -43 36z" />
<glyph unicode="&#xde;" horiz-adv-x="2109" d="M-18 190q0 -147 116 -192q54 -133 273 -133q412 0 680 368q451 8 741 134q317 135 317 370q0 135 -139 228q-43 72 -139 127q-160 92 -377 92h-18v4q0 160 -84 160h-11q-6 -2 -12 -2q-12 104 -80 104q-76 0 -123 -90q-16 -37 -43 -139q-117 -469 -268 -664 q-834 -4 -833 -367zM0 190q0 346 825 347q158 195 279 680q14 53 23.5 85.5t17.5 49.5q41 78 104 78t64 -140q0 -117 -88 -360q-76 -213 -164 -381q16 -4 26 -4q231 0 441 73q250 90 250 222q0 74 -115 121q-31 14 -125 22q-47 6 -82 12t-55 15q-66 25 -66 71q0 33 33 57.5 t86 24.5q178 0 336 -73q197 -92 197 -250q0 -268 -418 -394q-137 -41 -294 -63.5t-337 -26.5q-264 -368 -670 -368q-268 0 -268 202zM184 203q0 -55 101 -56q207 0 399 199l-100 -6q-74 -4 -141.5 -15.5t-127.5 -29.5q-131 -39 -131 -92zM1249 573q27 59 50.5 121t46.5 127 q16 43 29.5 83t23.5 79h10q4 -2 8 -2v-2q0 -102 139 -102q109 0 201 -37q0 -121 -235 -203q-123 -45 -273 -64z" />
<glyph unicode="&#xdf;" horiz-adv-x="1150" d="M-18 47q0 -51 61 -59l-2 2q20 -4 43 -4q-2 -10 -2 -39q0 -23 6 -31q-61 -92 -61 -188q0 -115 116 -183q2 0 2 -2q66 -133 244 -133q172 0 289 146q102 127 102 282v33q10 -2 45 -2q182 0 305 123q21 18 21 55v21q0 39 -12 67l2 -2q-2 27 -29 27q-16 0 -27 -17v2 q-37 -53 -96 -88q25 20 42.5 38t17.5 55v20q0 39 -13 68l2 -2q-2 27 -28 26q-16 0 -25 -12q0 -2 -2 -2q-82 -111 -203 -121q-29 -2 -52 -3t-40 -1h-24q55 20 114 67q98 82 107 205q2 12 2 27v33q0 178 -133 250q-45 88 -156 124q115 170 115 287q0 129 -109 148 q-23 94 -110 104h-11q-139 0 -239 -258q-23 -53 -111 -362q-94 -322 -110 -500q-2 -16 -7.5 -40t-15.5 -58q-18 -66 -18 -103zM0 47q0 33 18 98q20 70 25 101q16 172 111 493q47 164 73.5 254t34.5 111q98 252 230 244q98 -10 98 -129q0 -129 -154 -334q-23 -29 -43 -86 l-6 -17q49 43 121 43q18 0 47 -6q209 -47 209 -262v-33q0 -14 -2 -24q-8 -94 -76 -167t-162 -97q-29 -6 47 -72q4 -6 33 -45q4 -6 14 -10q37 -12 164 -3q129 8 219 132q10 12 17 -7q14 -32 10 -79q-4 -35 -14 -46q-119 -115 -291 -114h-29q-14 0 -28 2q-10 0 -11 -6v-2 q2 -10 2 -21q8 -164 -98 -295q-111 -137 -272 -137q-82 0 -133 31q-106 57 -107 164q0 63 37 141q49 104 176 160q20 10 58 23.5t96 29.5q20 6 20 14t-18 31q-37 41 -88 61l-103 31q-8 -33 -13 -58.5t-9 -45.5q-8 -25 -15.5 -45.5t-11.5 -36.5q-8 -16 -20 -29h-41 q-66 0 -70 2q-45 6 -45 41zM186 -248q0 -74 76 -74q57 0 113 60q74 80 80 211q0 16 -6 20q-10 6 -50 -2q-90 -18 -168 -110q-45 -53 -45 -105zM250 319q18 6 33 5q55 -4 143 38q141 68 141 177q0 55 -55 96q-29 18 -57 18q-18 0 -46 -13t-30 -13q-23 0 -31 24 q-65 -213 -98 -332zM340 80q0 8 2 10l12 -4q-8 0 -14 -6zM346 -262l4 4q8 10 14.5 17.5t10.5 11.5q-2 -4 -7.5 -10.5t-7.5 -8.5zM422 383q12 41 21.5 71.5t17.5 53.5q16 -4 20 -4q10 0 32 11t34 13q-2 -14 -4 -23.5t-4 -15.5q-20 -59 -117 -106z" />
<glyph unicode="&#xe0;" horiz-adv-x="1189" d="M-18 211q0 -102 59 -178q33 -37 70 -53q12 -23 32 -48q61 -76 172 -75q125 0 234 108l45 43q14 -4 23.5 -8t15.5 -6q27 -123 266 -123q31 0 58.5 2t52.5 6q123 23 211 111q20 18 20 55v21q0 39 -12 67l2 -2q-2 27 -29 27q-16 0 -24 -13q0 -2 -2 -2q-27 -37 -76 -71l18 18 q20 20 21 57v21q0 39 -13 68l2 -3q-2 27 -28 27q-16 0 -25 -12q0 -2 -2 -2q-37 -49 -104 -88q-63 -35 -90 -35h-23q4 12 6 16q23 66 45.5 124.5t44.5 109.5q43 98 72 160.5t43 93.5q8 16 8 39q0 59 -100 73q-2 0 -2 2h-4q2 10 3 16.5t1 10.5q0 27 -17 43q-18 18 -67 27 q-53 12 -80 12q-14 0 -27 -4h2q-25 -10 -41 -27q-23 -29 -30 -45q2 6 0 6q-6 0 -15 6q-66 37 -151 37h-12q-113 0 -234 -65q-135 -72 -229 -232q-90 -158 -90 -315zM0 211q0 154 88 303q88 154 223 225q111 61 224 64q82 2 153 -35q33 -18 45 2q25 47 58 57q18 4 55 -2 q80 -12 94 -26q20 -23 6 -62q-2 -6 -43 -94q-20 -41 -37.5 -81t-34.5 -79q-104 -240 -104 -307q0 -27 14 -41q33 -33 138 -33q35 0 100 37q78 47 113 97q10 12 16 -7q14 -32 10 -79q-4 -35 -14 -46q-82 -82 -201 -104q-49 -6 -106 -6q-248 0 -248 135q0 29 16 90q2 8 0 12 q-10 4 -22 -18q-35 -66 -111 -133q-113 -100 -219 -100q-98 0 -155.5 66.5t-57.5 164.5zM215 221q0 -96 74 -96q39 0 92 53q10 10 31.5 36t56.5 67q20 23 48 65.5t63 102.5q82 131 82 165q0 35 -70 37q-76 4 -162 -59q-78 -55 -123 -125q-92 -145 -92 -246zM225 1382v13 q0 41 90 41h19q47 0 102 -17q33 -14 41 -39q8 -23 12.5 -36t6.5 -17q16 -4 26 -6t17 -4q33 -14 41 -39q18 -57 38 -94q12 -4 11 -4h-2q31 -16 32 -43q43 -47 72 -60h-2q33 -14 33 -45q0 -29 -27.5 -45t-58.5 -16q-25 0 -49 10h2q-106 41 -205 133q-35 33 -49 55 q-150 117 -150 213zM246 1393q-8 -76 104 -174q96 -84 182 -117q47 -18 86 4q20 14 21 29q0 18 -21 26q-43 23 -106 99q-25 31 -53 114q-6 16 -29 27q-25 10 -96 14q-86 5 -88 -22zM342 170q18 78 84 184q68 106 160 144q-33 -59 -65.5 -110.5t-67.5 -94.5v2 q-12 -16 -21.5 -26.5t-15.5 -18.5v2q-63 -74 -74 -82z" />
<glyph unicode="&#xe1;" d="M-18 211q0 -102 59 -178q33 -37 70 -53q12 -23 32 -48q61 -76 172 -75q125 0 234 108l45 43q14 -4 23.5 -8t15.5 -6q27 -123 266 -123q31 0 58.5 2t52.5 6q123 23 211 111q20 18 20 55v21q0 39 -12 67l2 -2q-2 27 -29 27q-16 0 -24 -13q0 -2 -2 -2l2 2q0 -2 -2 -2 q-27 -37 -76 -71l18 18q20 20 21 57v21q0 39 -13 68l2 -3q-2 27 -28 27q-18 0 -27 -14q-37 -49 -104 -88q-63 -35 -90 -35h-23q4 12 6 16q23 66 45.5 124.5t44.5 109.5q43 98 72 160.5t43 93.5q8 16 8 39q0 59 -100 73q-2 0 -2 2h-4q2 10 3 16.5t1 10.5q0 27 -17 43 q-18 18 -67 27q-53 12 -80 12q-14 0 -27 -4h2q-25 -10 -41 -27q-23 -29 -30 -45q2 6 0 6q-6 0 -15 6q-66 37 -151 37h-12q-113 0 -234 -65q-135 -72 -229 -232q-90 -158 -90 -315zM0 211q0 154 88 303q88 154 223 225q111 61 224 64q82 2 153 -35q33 -18 45 2q25 47 58 57 q16 6 75 -6q59 -8 74 -22q20 -23 6 -62q-2 -6 -43 -94q-20 -41 -37.5 -81t-34.5 -79q-104 -240 -104 -307q0 -27 14 -41q33 -33 138 -33q35 0 100 37q78 47 113 97q10 12 16 -7q14 -32 10 -79q-4 -35 -14 -46q-82 -82 -201 -104q-49 -6 -106 -6q-248 0 -248 135q0 29 16 90 q2 8 0 12q-10 4 -22 -18q-35 -66 -111 -133q-113 -100 -219 -100q-98 0 -155.5 66.5t-57.5 164.5zM215 221q0 -96 74 -96q39 0 92 53q10 10 31.5 36t56.5 67q20 23 48 65.5t63 102.5q82 131 82 165q0 35 -70 37q-76 4 -162 -59q-78 -55 -123 -125q-92 -145 -92 -246z M342 170q18 78 84 184q68 106 160 144q-33 -59 -65.5 -110.5t-67.5 -94.5v2q-12 -16 -21.5 -26.5t-15.5 -18.5v2q-63 -74 -74 -82zM530 1135q0 -27 35 -50q25 -12 51 -12q25 0 50 10h-2l11 5.5t11 3.5q-8 -4 -13 -8.5t-9 -6.5h2q-33 -14 -33 -45q0 -27 35 -49q25 -12 51 -12 q25 0 49 10h-2q111 41 207 135q94 92 94 164v12q0 41 -90 41h-23q10 31 11 49v13q0 41 -91 41h-18q-49 0 -104 -17q-31 -14 -39 -39q-25 -76 -51 -108l2 2q-61 -70 -103 -94h2q-33 -14 -33 -45zM551 1135q0 18 20 26q43 23 107 99q25 31 53 114q6 18 31.5 28.5t93.5 12.5 q86 5 88 -22q8 -76 -104 -174q-96 -84 -183 -117q-47 -18 -86 4q-20 14 -20 29z" />
<glyph unicode="&#xe2;" d="M-18 211q0 -102 59 -178q33 -37 70 -53q12 -23 32 -48q61 -76 172 -75q125 0 234 108l45 43q14 -4 23.5 -8t15.5 -6q27 -123 266 -123q31 0 58.5 2t52.5 6q123 23 211 111q20 18 20 55v21q0 39 -12 67l2 -2q-2 27 -29 27q-16 0 -24 -13q0 -2 -2 -2q-27 -37 -76 -71l18 18 q20 20 21 57v21q0 39 -13 68l2 -3q-2 27 -28 27q-16 0 -27 -16v2q-37 -49 -104 -88q-63 -35 -90 -35h-23q4 12 6 16q23 66 45.5 124.5t44.5 109.5q43 98 72 160.5t43 93.5q8 16 8 39q0 59 -100 73q-2 0 -2 2h-4q2 10 3 16.5t1 10.5q0 27 -17 43q-18 18 -67 27q-53 12 -80 12 q-14 0 -27 -4h2q-25 -10 -41 -27q-23 -29 -30 -45q2 6 0 6q-6 0 -15 6q-66 37 -151 37h-12q-113 0 -234 -65q-135 -72 -229 -232q-90 -158 -90 -315zM0 211q0 154 88 303q88 154 223 225q111 61 224 64q82 2 153 -35q33 -18 45 2q25 47 58 57q16 6 75 -6q59 -8 74 -22 q20 -23 6 -62q-2 -6 -43 -94q-20 -41 -37.5 -81t-34.5 -79q-104 -240 -104 -307q0 -27 14 -41q33 -33 138 -33q35 0 100 37q78 47 113 97q10 12 16 -7q14 -32 10 -79q-4 -35 -14 -46q-82 -82 -201 -104q-49 -6 -106 -6q-248 0 -248 135q0 29 16 90q2 8 0 12q-10 4 -22 -18 q-35 -66 -111 -133q-113 -100 -219 -100q-98 0 -155.5 66.5t-57.5 164.5zM215 221q0 -96 74 -96q39 0 92 53q10 10 31.5 36t56.5 67q20 23 48 65.5t63 102.5q82 131 82 165q0 35 -70 37q-76 4 -162 -59q-78 -55 -123 -125q-92 -145 -92 -246zM283 1114q0 -37 63 -37 q82 0 178 60q-53 -51 -106 -88h2q-35 -23 -35 -37q0 -37 64 -37q121 0 290 139q141 -141 213 -141q39 0 39 37q0 14 -20 34l2 -2q-96 117 -117 242h-72q-20 49 -30 102h-191q-125 -147 -248 -235h2q-35 -23 -34 -37zM303 1114q2 2 8 7t17 14q117 82 245 231h164 q20 -115 117 -233q10 -13 14 -21q0 -16 -18 -16q-68 0 -211 149q-176 -147 -293 -147q-43 0 -43 16zM342 170q18 78 84 184q68 106 160 144q-33 -59 -65.5 -110.5t-67.5 -94.5v2q-12 -16 -21.5 -26.5t-15.5 -18.5v2q-63 -74 -74 -82z" />
<glyph unicode="&#xe3;" d="M-18 211q0 -102 59 -178q33 -37 70 -53q12 -23 32 -48q61 -76 172 -75q125 0 234 108l45 43q14 -4 23.5 -8t15.5 -6q27 -123 266 -123q31 0 58.5 2t52.5 6q123 23 211 111q20 18 20 55v21q0 39 -12 67l2 -2q-2 27 -29 27q-16 0 -24 -13q0 -2 -2 -2q-27 -37 -76 -71l18 18 q20 20 21 57v21q0 39 -13 68l2 -3q-2 27 -28 27q-16 0 -25 -12q0 -2 -2 -2l2 2q0 -2 -2 -2q-37 -49 -104 -88q-63 -35 -90 -35h-23q4 12 6 16q23 66 45.5 124.5t44.5 109.5q43 98 72 160.5t43 93.5q8 16 8 39q0 59 -100 73q-2 0 -2 2h-4q2 10 3 16.5t1 10.5q0 27 -17 43 q-18 18 -67 27q-53 12 -80 12q-14 0 -27 -4h2q-25 -10 -41 -27q-23 -29 -30 -45q2 6 0 6q-6 0 -15 6q-66 37 -151 37h-12q-113 0 -234 -65q-135 -72 -229 -232q-90 -158 -90 -315zM0 211q0 154 88 303q88 154 223 225q111 61 224 64q82 2 153 -35q33 -18 45 2q25 47 58 57 q16 6 75 -6q59 -8 74 -22q20 -23 6 -62q-2 -6 -43 -94q-20 -41 -37.5 -81t-34.5 -79q-104 -240 -104 -307q0 -27 14 -41q33 -33 138 -33q35 0 100 37q78 47 113 97q10 12 16 -7q14 -32 10 -79q-4 -35 -14 -46q-82 -82 -201 -104q-49 -6 -106 -6q-248 0 -248 135q0 29 16 90 q2 8 0 12q-10 4 -22 -18q-35 -66 -111 -133q-113 -100 -219 -100q-98 0 -155.5 66.5t-57.5 164.5zM215 221q0 -96 74 -96q39 0 92 53q10 10 31.5 36t56.5 67q20 23 48 65.5t63 102.5q82 131 82 165q0 35 -70 37q-76 4 -162 -59q-78 -55 -123 -125q-92 -145 -92 -246z M326 1133q0 -49 49 -50q23 0 86 60q23 23 35 22q8 0 24 -6q-8 -8 -21.5 -23.5t-29.5 -37.5q-41 -57 -41 -68q0 -49 49 -49q23 0 86 59q23 23 35 23q23 0 90 -33q117 -57 160 -57q59 0 137 78q90 90 90 118q0 49 -51 50q-23 0 -53 -31q-43 -43 -68 -43q-12 0 -24 4l4 4 q90 90 90 119q0 49 -51 49q-23 0 -54 -31q-43 -43 -67 -43q-20 0 -86 35q-115 61 -166 61q-66 0 -135 -88q-88 -106 -88 -122zM342 170q18 78 84 184q68 106 160 144q-33 -59 -65.5 -110.5t-67.5 -94.5v2q-12 -16 -21.5 -26.5t-15.5 -18.5v2q-63 -74 -74 -82zM346 1133 q0 8 84 110q63 80 119 80q43 0 156 -59q70 -37 96 -37q33 0 82 49q25 25 39 24q31 0 30 -28q0 -21 -84 -105q-72 -72 -123 -71q-33 0 -151 55q-76 35 -98 35q-16 0 -50 -29q-57 -53 -71 -53q-29 0 -29 29z" />
<glyph unicode="&#xe4;" d="M-18 211q0 -102 59 -178q33 -37 70 -53q12 -23 32 -48q61 -76 172 -75q125 0 234 108l45 43q14 -4 23.5 -8t15.5 -6q27 -123 266 -123q31 0 58.5 2t52.5 6q123 23 211 111q20 18 20 55v21q0 39 -12 67l2 -2q-2 27 -29 27q-16 0 -24 -13q0 -2 -2 -2q-27 -37 -76 -71l18 18 q20 20 21 57v21q0 39 -13 68l2 -3q-2 27 -28 27q-16 0 -27 -16v2q-37 -49 -104 -88q-63 -35 -90 -35h-23q4 12 6 16q23 66 45.5 124.5t44.5 109.5q43 98 72 160.5t43 93.5q8 16 8 39q0 59 -100 73q-2 0 -2 2h-4q2 10 3 16.5t1 10.5q0 27 -17 43q-18 18 -67 27q-53 12 -80 12 q-14 0 -27 -4h2q-27 -10 -42 -25.5t-27 -38.5v-2h-2q-6 0 -15 6q-66 37 -151 37h-12q-113 0 -234 -65q-135 -72 -229 -232q-90 -158 -90 -315zM0 211q0 154 88 303q88 154 223 225q111 61 224 64q82 2 153 -35q33 -18 45 4q16 27 23 33q16 16 35 22q16 6 75 -6q59 -8 74 -22 q20 -23 6 -62q-2 -6 -43 -94q-20 -41 -37.5 -81t-34.5 -79q-104 -240 -104 -307q0 -27 14 -41q33 -33 138 -33q35 0 100 37q78 47 113 97q10 12 16 -7q14 -32 10 -79q-4 -35 -14 -46q-82 -82 -201 -104q-49 -6 -106 -6q-248 0 -248 135q0 29 16 90q2 8 0 12q-10 4 -22 -18 q-35 -66 -111 -133q-113 -100 -219 -100q-98 0 -155.5 66.5t-57.5 164.5zM215 221q0 -96 74 -96q39 0 92 53q10 10 31.5 36t56.5 67q20 23 48 65.5t63 102.5q82 131 82 165q0 35 -70 37q-76 4 -162 -59q-78 -55 -123 -125q-92 -145 -92 -246zM319 1206q0 -94 103 -119 q10 -68 78 -94q27 -10 51 -10q80 0 135 90q4 6 5 10t3 9q16 -4 15 -5q10 -68 77 -94q27 -10 52 -10q80 0 135 90q18 31 18 78q0 82 -69 113q-12 4 -21.5 6t-13.5 4q-6 63 -68 92q-37 12 -55 12q-94 0 -127 -67v2q-8 -14 -12 -25.5t-9 -19.5q-6 6 -16 6q-6 63 -68 92 q-37 12 -55 12q-94 0 -127 -67v2q-31 -55 -31 -107zM340 1206q0 66 37 109t100 43q104 0 105 -105q-1 -38 -17 -67q-47 -80 -116 -80q-45 0 -77 27.5t-32 72.5zM342 170q18 78 84 184q68 106 160 144q-33 -59 -65.5 -110.5t-67.5 -94.5v2q-12 -16 -21.5 -26.5t-15.5 -18.5v2 q-63 -74 -74 -82zM627 1206q0 66 36.5 109t100.5 43q104 0 104 -105q0 -38 -16 -67q-47 -80 -117 -80q-45 0 -76.5 27.5t-31.5 72.5z" />
<glyph unicode="&#xe5;" d="M-18 211q0 -102 59 -178q33 -37 70 -53q12 -23 32 -48q61 -76 172 -75q125 0 234 108l45 43q14 -4 23.5 -8t15.5 -6q27 -123 266 -123q31 0 58.5 2t52.5 6q123 23 211 111q20 18 20 55v21q0 39 -12 67l2 -2q-2 27 -29 27q-16 0 -24 -13q0 -2 -2 -2q-27 -37 -76 -71l18 18 q20 20 21 57v21q0 39 -13 68l2 -3q-2 27 -28 27q-16 0 -27 -16v2q-37 -49 -104 -88q-63 -35 -90 -35h-23q4 12 6 16q23 66 45.5 124.5t44.5 109.5q43 98 72 160.5t43 93.5q8 16 8 39q0 59 -100 73q-2 0 -2 2h-4q2 10 3 16.5t1 10.5q0 27 -17 43q-18 18 -67 27q-53 12 -80 12 q-14 0 -27 -4h2q-25 -10 -41 -27q-23 -29 -30 -45q2 6 0 6q-6 0 -15 6q-66 37 -151 37h-12q-113 0 -234 -65q-135 -72 -229 -232q-90 -158 -90 -315zM0 211q0 154 88 303q88 154 223 225q111 61 224 64q82 2 153 -35q33 -18 45 2q25 47 58 57q16 6 75 -6q59 -8 74 -22 q20 -23 6 -62q-2 -6 -43 -94q-20 -41 -37.5 -81t-34.5 -79q-104 -240 -104 -307q0 -27 14 -41q33 -33 138 -33q35 0 100 37q78 47 113 97q10 12 16 -7q14 -32 10 -79q-4 -35 -14 -46q-82 -82 -201 -104q-49 -6 -106 -6q-248 0 -248 135q0 29 16 90q2 8 0 12q-10 4 -22 -18 q-35 -66 -111 -133q-113 -100 -219 -100q-98 0 -155.5 66.5t-57.5 164.5zM215 221q0 -96 74 -96q39 0 92 53q10 10 31.5 36t56.5 67q20 23 48 65.5t63 102.5q82 131 82 165q0 35 -70 37q-76 4 -162 -59q-78 -55 -123 -125q-92 -145 -92 -246zM342 170q18 78 84 184 q68 106 160 144q-33 -59 -65.5 -110.5t-67.5 -94.5v2q-12 -16 -21.5 -26.5t-15.5 -18.5v2q-63 -74 -74 -82zM449 1249q0 -117 112 -159q43 -113 162 -113q70 0 120 50t50 120q0 119 -115 162q-43 113 -157 112q-70 0 -121 -51t-51 -121zM469 1249q0 61 45 106.5t107 45.5 q61 0 105 -45.5t44 -106.5t-44 -105t-105 -44t-106.5 44t-45.5 105zM541 1249q0 -33 23.5 -56.5t56.5 -23.5q35 0 57 24t22 56q0 80 -79 80q-33 0 -56.5 -22.5t-23.5 -57.5zM561 1249q0 59 60 60q14 0 28 -9q-55 -27 -82 -79q-6 12 -6 28zM692 1096q51 25 82 82q8 -14 8 -31 q0 -60 -59 -60q-23 0 -31 9z" />
<glyph unicode="&#xe6;" horiz-adv-x="1566" d="M-18 211q0 -170 127 -229q61 -125 206 -125q135 0 277 153q14 -10 43 -18q18 -82 119 -107q51 -12 188 -12q33 0 100.5 -6t100.5 -6q139 0 248 30q176 49 176 164q0 102 -39 103q-10 0 -45 -35l-47 -47q29 41 28 82q0 102 -39 102q-10 0 -45 -35l-34 -35l-7 -6 q-76 -63 -221 -63h-22q74 68 75 69q168 168 168 332q0 162 -125 213q-53 123 -200 123q-121 0 -221 -70q-6 2 -23 3q-23 0 -39 -11l-6 -2q-23 0 -86.5 22.5t-91.5 22.5q-229 0 -402 -194q-164 -188 -163 -418zM0 211q0 219 164 405q162 186 383 187q29 0 92 -22.5t86 -22.5 l18 6q6 10 56 4q100 70 215 70q94 0 148.5 -57.5t54.5 -155.5q0 -156 -162 -318q-104 -100 -162 -149q43 -57 225 -58q152 0 242 74q4 6 10 10q6 8 25 27q27 27 30 29q18 0 19 -82q0 -100 -162 -146q-111 -28 -242 -28q-33 0 -100.5 6t-99.5 6q-68 0 -114 3t-71 7 q-106 27 -106 123q0 16 8 51t8 49q-2 2 -4 2q-6 0 -18 -18q-170 -233 -330 -233q-98 0 -155.5 63t-57.5 168zM215 221q0 -96 74 -96q68 0 223 217q150 204 150 274q0 35 -78 35q-131 0 -250 -149q-119 -145 -119 -281zM342 172q14 88 94 193q76 100 160 141 q-43 -74 -100 -152q-100 -137 -154 -182zM793 311q0 -47 18 -47q59 0 166 137q111 137 110 207q0 70 -59 70q-96 0 -170 -139q-66 -121 -65 -228z" />
</font>
</defs>
</svg>
