<?xml version="1.0" standalone="no"?>
<!DOCTYPE svg PUBLIC "-//W3C//DTD SVG 1.1//EN" "http://www.w3.org/Graphics/SVG/1.1/DTD/svg11.dtd" >
<svg xmlns="http://www.w3.org/2000/svg">
<metadata></metadata>
<defs>
<font id="marketing_script_inlineRg" horiz-adv-x="1167" >
<font-face units-per-em="2048" ascent="1638" descent="-410" />
<missing-glyph horiz-adv-x="745" />
<glyph horiz-adv-x="0" />
<glyph horiz-adv-x="682" />
<glyph horiz-adv-x="1247" d="M618 1204q41 -6 41 -59q0 -78 -81 -244q-61 -129 -125 -232.5t-131 -183.5q-18 -25 -27 -24q-4 0 -4 6q0 10 12 41q49 141 92 263t82 228q73 215 141 205zM291 43q0 -51 -29 -133q-72 -190 -127 -174q-27 6 -26 43q0 10 41 164q18 70 29 108.5t16 46.5q8 25 18 25 q6 0 12 -6q20 -18 34.5 -30.5t21.5 -16.5q10 -4 10 -27zM1305 184q2 18 0 38t-11 38q-6 18 -14 6q-37 -51 -106 -92q-59 -35 -97 -35q-100 0 -139 33q-12 10 -12 37q0 12 3 31.5t11 44.5q45 131 84 250.5t76 228.5q4 25 -7.5 46t-27.5 26q-66 18 -137 -5q-33 -8 -45 -59 q-20 -63 -39 -124.5t-37 -125.5q-35 -113 -51.5 -179.5t-18.5 -88.5v-37q-92 -80 -159 -80q-76 0 -140 23q-16 2 -26 33q-18 55 -54 83q-29 23 -28 35q0 10 18 27q78 53 193 188q70 82 118 162t76 158q78 209 78 315q0 160 -141 197q-25 6 -49 6q-203 0 -390 -461 q-39 -94 -79.5 -217t-83.5 -280q-39 -145 -63.5 -231.5t-31.5 -117.5q-45 -182 -45 -286q0 -156 97 -174q33 -8 67 -9q207 0 303 289q14 37 21.5 74t11.5 72q2 14 25 12q53 -12 147 4q94 14 170 82q18 -23 57 -53q47 -35 172 -35q53 0 101 6q111 23 188 102q13 12 15 43z M1235 1178q16 27 16 63q0 70 -63 94q-16 6 -37 6q-74 0 -102 -53q-27 -53 -27 -92q0 -61 61 -88q18 -8 41 -8q64 0 111 78zM272 43q0 8 -2 10q-18 10 -57 47q0 -2 -1 -4t-1 -6q-2 -4 -11.5 -42t-31.5 -111q-41 -152 -41 -158q0 -23 12 -25h-2q2 0 3 -1t3 -1q41 0 101 164 q28 80 28 127zM612 1184q-49 0 -118 -189q-43 -123 -93 -264q-16 -49 -34.5 -101t-38.5 -106q61 76 118.5 172.5t114.5 210.5q78 172 78 238q0 37 -21 39h-6zM1253 1167q-53 -86 -129 -86q-25 0 -49 9q-74 33 -74 106q0 49 31 102v-2q31 66 119 66q18 0 53 -12 q66 -31 66 -109q-1 -45 -17 -74zM1325 182q-4 -39 -20 -55q-88 -88 -201 -107q-47 -6 -103 -6q-129 0 -184 37q-14 12 -25.5 22.5t-21.5 20.5q-78 -61 -164 -74q-27 -4 -51.5 -6t-46.5 -2h-33q-14 0 -24 4q-10 -66 -35 -145q-104 -303 -322 -303q-39 0 -71 8 q-113 25 -113 195q0 53 11 124.5t34 165.5q4 18 15.5 59.5t27.5 102.5q10 39 23.5 86t29.5 103q41 154 82 276.5t82 220.5q195 473 408 473q29 0 53 -6q156 -37 155 -215q0 -55 -19 -137t-60 -186q-61 -160 -195 -324q-55 -68 -104.5 -116t-92.5 -76q-12 -10 -12 -11 q0 -6 23 -18q41 -35 59 -94h-2q6 -20 16 -23q55 -18 134 -18q57 0 139 69v27q2 27 19.5 95.5t49.5 178.5q10 31 19.5 63t19.5 62h-2q10 31 19.5 61.5t19.5 63.5v-2q14 63 60 76q20 4 39.5 7t42.5 3q37 0 67 -6q20 -6 34.5 -28.5t14.5 -51.5q0 -4 -1 -6t-1 -6 q-18 -53 -36.5 -113.5t-41.5 -120.5q-20 -61 -39.5 -123.5t-42.5 -127.5h3q-16 -53 -17 -70q0 -18 6 -21q31 -29 127 -28q33 0 86 33q66 37 99 83v0q2 0 2 3l-2 -3v0q2 0 2 3q6 10 13 11t11 1q10 0 16.5 -5t10.5 -22l-2 2q8 -16 10 -32.5t2 -30.5v-21zM1343 180v23 q0 18 -2 36.5t-10 34.5v-4q-4 23 -15 31t-28 8q-8 0 -21.5 -3t-21.5 -21q-35 -47 -92 -76q-49 -31 -76 -31q-86 0 -114 23v8q0 10 4 25.5t10 37.5q23 66 43 128.5t41 123.5q20 59 38.5 118.5t39.5 115.5q0 4 1 9t1 9q0 35 -20.5 61.5t-45.5 34.5q-18 6 -36.5 8.5t-34.5 2.5 q-43 0 -86 -15q-57 -16 -72 -86v2q-10 -33 -20.5 -64.5t-18.5 -62.5v2q-10 -31 -18.5 -63.5t-18.5 -63.5q-70 -227 -72 -278v-18q-72 -59 -120 -60q-39 0 -70 5t-59 16q2 0 0 8q-23 70 -68 102h-2q41 31 87 79t103 114q72 88 122 170t81 161q80 209 80 330q0 190 -172 234 q-31 8 -57 8q-227 0 -424 -485q-39 -94 -81 -219.5t-85 -282.5q-14 -55 -27.5 -102.5t-23.5 -86.5q-16 -59 -27.5 -100t-15.5 -59q-23 -98 -35.5 -171t-12.5 -126q0 -188 127 -213v2q23 -6 41.5 -8.5t34.5 -2.5q236 0 340 316v-2q10 33 17.5 65.5t13.5 65.5q10 -2 20 -2h23 q23 0 48.5 2t51.5 6q84 12 158 68q10 -8 19.5 -16.5t21.5 -16.5q29 -18 78 -29.5t116 -11.5q57 0 107 6q59 12 111.5 40t99.5 75q20 20 24 65zM1268 1157q23 39 22 84q0 47 -24.5 80t-69.5 53q-18 6 -45 6q-102 0 -137 -73q-14 -29 -22.5 -57.5t-8.5 -53.5q0 -90 86 -123 q16 -8 29.5 -10t25.5 -2q87 0 144 96zM621 1145q0 -70 -78 -227q-72 -145 -148 -267q6 18 13.5 37t11.5 35q27 72 49.5 137.5t44.5 126.5q63 178 98 178q9 -2 9 -20zM252 43q0 -23 -7 -51.5t-20 -67.5q-57 -152 -82 -151q-2 0 -3 1t-3 1h6q4 0 4 4q0 6 10.5 44t28.5 109 q10 47 20.5 80t16.5 54q10 -6 15.5 -12.5t13.5 -10.5zM262 37h-2q-2 2 -4 2v0q4 0 6 -2zM469 18v-4q0 -2 -2 -2v-2q0 4 1 5t1 3z" />
<glyph horiz-adv-x="1239" d="M618 1204q41 -6 41 -59q0 -70 -81 -244q-61 -129 -125 -232.5t-131 -183.5q-23 -25 -27 -24q-4 0 -4 6q0 10 12 41q49 141 92 263t82 228q73 215 141 205zM291 43q0 -51 -29 -133q-72 -190 -127 -174q-27 6 -26 43q0 10 41 164q18 70 29 108.5t16 46.5q6 25 18 25 q6 0 12 -6q43 -39 56 -47q10 -4 10 -27zM1294 184q2 18 0 38t-10 38q-4 20 -14 6q-18 -29 -45 -50t-62 -42q-59 -35 -96 -35q-100 0 -131 27q-14 14 -14 43q0 6 3 25.5t11 48.5q23 98 60.5 228t90.5 296q27 63 41 82q94 129 134 246q12 39 12 73q0 51 -26.5 85t-67.5 38 q-119 10 -187 -166q-41 -111 -78.5 -225.5t-70.5 -237.5q-84 -301 -94 -471q-92 -94 -172 -94q-76 0 -140 23q-20 2 -26 33q-18 55 -54 83q-29 23 -28 35q0 10 18 27q78 53 193 188q137 166 194 320q78 209 78 315q0 160 -141 197q-25 6 -49 6q-203 0 -390 -461 q-39 -94 -79.5 -217t-83.5 -280q-39 -145 -63.5 -231.5t-31.5 -117.5q-23 -94 -34 -164.5t-11 -121.5q0 -156 97 -174q33 -8 67 -9q207 0 303 289q14 37 21.5 74t11.5 72q4 16 23 12q57 -12 149 4q94 16 166 78q18 -39 61 -60q57 -29 146 -28q29 0 57.5 3t59.5 7 q111 23 190 102q4 4 7 15.5t5 27.5zM270 43v10q-18 10 -57 47q0 -2 -1 -4t-1 -6q-2 -4 -11.5 -42t-31.5 -111q-41 -152 -41 -158q0 -23 12 -25h-2q2 0 3 -1t3 -1q41 0 101 164q26 74 26 127zM639 1145q0 35 -23 39h-4q-49 0 -118 -189q-43 -123 -93 -264q-16 -49 -34.5 -101 t-38.5 -106q61 76 118.5 172.5t112.5 210.5q80 168 80 238zM1315 182q-4 -39 -21 -55q-88 -88 -200 -107q-31 -4 -60.5 -7t-58.5 -3q-94 0 -156 29q-18 10 -31.5 22.5t-23.5 24.5q-74 -53 -158 -66q-27 -4 -51.5 -6t-46.5 -2h-33q-14 0 -24 4q-10 -66 -35 -145 q-104 -303 -322 -303q-39 0 -71 8q-113 25 -113 195q0 53 11 124.5t34 165.5q4 18 15.5 59.5t27.5 102.5q10 39 23.5 86t29.5 103q41 154 82 276.5t82 220.5q193 473 408 473q29 0 53 -6q156 -37 155 -215q0 -55 -19 -137t-60 -186q-61 -160 -195 -324q-111 -135 -197 -192 q-12 -10 -12 -11q0 -6 23 -18q41 -35 59 -94h-2q6 -20 16 -23q55 -18 134 -18q70 0 153 82q10 172 92 469q33 117 72 232.5t82 232.5q68 178 192 178h13q47 -6 78.5 -45t31.5 -99q0 -33 -12 -78q-23 -66 -56.5 -129t-80.5 -124q-12 -16 -39 -78v2q-102 -317 -148 -522 q-14 -55 -14 -70q0 -20 8 -29q18 -20 117 -20q33 0 86 33q66 37 98 83v-2q6 12 14.5 14.5t12.5 2.5q10 0 16 -5t11 -22l-2 2q8 -16 10 -32.5t2 -30.5v-21zM1333 180v23q0 18 -2 36.5t-10 34.5v-4q-4 23 -15.5 31t-27.5 8q-8 0 -21.5 -3t-21.5 -21q-35 -47 -92 -76 q-49 -31 -76 -31q-88 0 -104 17q-2 2 -2 14q0 14 12 63q43 186 151 523l-2 -4q25 61 37 73q96 129 139 260q14 43 15 84q0 68 -36 113t-93 49h-15q-141 0 -213 -190q-41 -104 -77.5 -221t-71.5 -246q-41 -150 -65.5 -264.5t-30.5 -200.5q-72 -72 -133 -72q-39 0 -70 5 t-59 16q2 0 0 8q-10 33 -28 59.5t-42 42.5q41 31 87 79t103 114q72 88 122 170t81 161q41 104 59.5 187.5t18.5 142.5q0 190 -170 234q-31 8 -57 8q-227 0 -424 -485q-39 -94 -81 -219.5t-85 -282.5q-14 -55 -27.5 -102.5t-23.5 -86.5q-16 -59 -27.5 -100t-15.5 -59 q-23 -98 -35.5 -171t-12.5 -126q0 -188 127 -213v2q23 -6 41.5 -8.5t34.5 -2.5q236 0 340 316v-2q10 33 17.5 65.5t13.5 65.5q10 -2 20 -2h23q23 0 48.5 2t51.5 6q41 8 79 22.5t73 38.5q10 -10 23.5 -20t29.5 -18q66 -33 162 -33q31 0 61.5 3t61.5 7q59 12 111.5 40t99.5 75 q20 20 24 65zM621 1145q0 -70 -78 -227q-72 -145 -148 -267q6 18 13.5 37t11.5 35q25 72 48.5 137.5t45.5 126.5q63 178 98 178q9 -2 9 -20zM252 43q0 -23 -7 -51.5t-20 -67.5q-57 -152 -82 -151q-2 0 -3 1t-3 1h6q4 0 4 4q0 6 10.5 44t28.5 109q10 47 20.5 80t16.5 54 q10 -6 15.5 -12.5t13.5 -10.5zM262 37h-2q-2 2 -4 2v0q4 0 6 -2zM469 18v-4q0 -2 -2 -2v-2q0 4 1 5t1 3z" />
<glyph horiz-adv-x="1298" d="M1214 1268q57 0 58 -60q0 -49 -51 -106q-57 -59 -150 -98q-18 -8 -29 -3q-8 8 -4 25q16 76 64 150q59 92 112 92zM555 233q-29 -35 -104 -69q-82 -35 -142 -33q-170 10 -170 113q0 115 166 110q86 -4 158 -32q16 -8 36.5 -20.5t49.5 -31.5q24 -17 6 -37zM1122 670 q6 35 -3 56.5t-40 16.5q-29 -4 -110 -24l20 95t27 42q233 61 319 215q29 53 29 103q0 82 -61 131q-41 35 -105 34q-61 0 -124.5 -31.5t-98.5 -78.5q-90 -115 -125 -219q-8 -27 -47 -15q-96 41 -111 78q-4 14 -10 25.5t-10 23.5q-10 16 -27 19q-29 2 -44 -31t-15 -74 q0 -66 63 -114q53 -41 125 -58q29 -6 21 -33l-54 -159q-90 -20 -114 -21q-49 -6 -64 -76q-10 -45 -10 -55q0 -23 18 -22q8 0 15 2q8 4 33.5 8t72.5 14q-23 -57 -35 -91t-20 -44q-12 -23 -23 -12q-29 29 -120 59q-57 23 -110.5 32t-100.5 5q-49 -2 -94.5 -19.5t-86.5 -48.5 q-88 -66 -84 -165q6 -186 295 -209q104 -8 215 28q51 20 90 44t68 55q12 16 39 0q86 -66 168 -95.5t178 -29.5q164 0 270 106q12 12 15 43q4 41 -10 76q-8 18 -15 4q-39 -51 -106 -90q-61 -33 -97 -35q-104 -2 -196 35q-35 16 -69 34.5t-62 43.5q-12 8 0 28q55 88 123 295 q43 8 76.5 15.5t56.5 11.5q59 13 65 72zM1214 1247q-45 0 -96 -82q-45 -70 -61 -141v2q0 -2 -1 -3t-1 -3q4 0 8 2q88 37 143 94q47 53 47 92t-39 39zM545 250l-2 1t-6 5q-53 35 -82 47q-35 16 -72 22.5t-78 8.5h-6q-139 0 -139 -90q0 -86 151 -92h8q57 0 125 30q63 27 97 64 zM1143 668q-12 -76 -82 -90q-12 -4 -28.5 -6.5t-35.5 -6.5q-14 -4 -27.5 -6t-29.5 -6q-33 -94 -63.5 -167t-61.5 -120l2 2l-4 -8q29 -25 60.5 -42t66.5 -30q78 -33 174 -32h14q33 0 86 32q31 16 56.5 37t42.5 45q6 10 13 12.5t11 2.5q10 0 17.5 -4.5t11.5 -20.5h-2 q10 -29 10 -63v-19q-4 -41 -18 -55q-115 -111 -285 -111q-98 0 -184 31t-174 96q-4 4 -11 4h-2q-55 -61 -165 -102q-45 -18 -90.5 -25.5t-90.5 -7.5h-22t-21 2q-303 18 -313 228v6q0 104 92 176q88 66 191 72h24q47 0 96.5 -9.5t100.5 -29.5h-2q43 -16 72.5 -30.5 t48.5 -27.5v2q12 18 41 99q-33 -6 -51.5 -9.5t-20.5 -5.5q-10 -4 -19 -4q-37 0 -36 43q0 10 3 24.5t7 35.5q14 82 80 92q8 0 33.5 3t68.5 11l45 145q4 8 4 13h-2l-4 2q-37 6 -70.5 21.5t-62.5 37.5q-72 53 -72 131q0 47 21.5 86t56.5 39h4q29 -2 41 -28q2 -4 4 -12.5 t4 -12.5v2l13 -29q18 -35 102 -67q12 -4 16 -4l4 6q16 53 48 108.5t79 114.5q41 49 108 85t132 36q68 0 117 -39q68 -53 67 -147q0 -57 -30 -113q-88 -158 -330 -223q-4 -2 -10 -24.5t-15 -57.5v2l-4 -10q31 4 51.5 8t32.5 6q4 0 7 1t6 1q29 0 42 -19.5t13 -50.5 q0 -18 -2 -28v2zM1161 662q2 10 2 32q0 41 -16.5 64.5t-56.5 23.5h-15q-8 -2 -20.5 -5t-34.5 -7q12 49 8 49h-2q248 63 344 234h-2q35 63 35 121q0 98 -76 163q-53 41 -129 41q-35 0 -70.5 -10t-69.5 -26.5t-63.5 -40t-50.5 -50.5q-90 -115 -127 -219q-41 16 -63.5 29.5 t-26.5 28.5l2 -3l-12 29v-2q-2 4 -5 12.5t-5 12.5q-18 35 -56 41h-8q-43 0 -69.5 -45t-26.5 -99q0 -88 78 -147q55 -41 127 -62l-39 -122q-72 -14 -90 -15q-76 -8 -99 -106q-8 -35 -8 -64q0 -61 55 -61q14 0 25 4q2 0 10 2t25 4q-6 -14 -9.5 -25.5t-7.5 -19.5 q-20 10 -45.5 23.5t-60.5 23.5q-51 23 -102.5 31t-100.5 8h-24q-113 -6 -201 -76q-100 -76 -100 -190v-8q6 -221 331 -246h-4q10 -2 23 -2h24q98 0 189 32q98 37 162 101q90 -66 178 -97.5t188 -31.5q180 0 299 119q20 20 25 65v21q0 20 -2 37.5t-11 33.5v-4q-6 23 -16 31 t-29 8q-6 0 -19 -3t-22 -21l4 6q-35 -49 -96 -82v2q-49 -29 -78 -31h-12q-92 0 -168 31q-29 12 -54.5 26.5t-53.5 34.5q53 90 114 273q14 2 25 2q12 0 24 4q18 4 35 7t29 7q88 18 96 105v-2zM436 199q-68 -29 -117 -29h-8q-133 10 -133 74q0 72 121 71h4q41 -2 77 -8t66 -20 q10 -6 26.5 -15.5t41.5 -25.5q-14 -12 -33.5 -23.5t-44.5 -23.5zM1214 1229q18 0 19 -21q0 -37 -39 -78q-43 -47 -107 -77q6 25 18.5 49t29.5 53q50 74 79 74zM825 279q4 -4 4 -7l-2 2q0 3 -2 5zM760 850l-2 -6v0q0 2 2 6z" />
<glyph horiz-adv-x="550" d="M549 674q4 35 -4 57.5t-39 16.5q-12 -4 -42 -10.5t-77 -16.5q8 29 13.5 46t7.5 28q29 66 38 79q88 125 125 244q12 37 13 72q0 51 -24.5 84t-63.5 37q-113 10 -174 -164q-35 -92 -71 -210t-75 -263q-39 -8 -61.5 -12.5l-32.5 -6.5q-45 -2 -57 -75q-10 -41 -11 -54 q0 -25 17 -24q8 0 10 2q20 6 100 24q-49 -219 -49 -327q0 -100 74 -146q27 -12 60.5 -19t76.5 -7q27 0 53.5 3t55.5 7q98 18 178 100q12 12 14 43q4 41 -10 74q-6 18 -14 6q-35 -53 -101 -90q-57 -35 -90 -35q-96 0 -123 27q-12 14 -12 39q0 16 12 76q8 41 27.5 113.5 t48.5 178.5q47 10 82 17.5t63 11.5q54 17 62 74zM567 670q-8 -70 -78 -88q-25 -6 -58.5 -12.5t-74.5 -14.5q-29 -104 -46 -174t-25 -107q-8 -29 -10.5 -46t-2.5 -25q0 -16 7 -25q18 -23 110 -22q27 0 82 32q29 18 52.5 39t39.5 45v-2v2v0q2 0 2 2q4 10 11.5 11.5t11.5 1.5 q10 0 15 -5.5t9 -21.5l-2 2q8 -16 10.5 -31.5t2.5 -31.5v-19q-2 -20 -7.5 -33.5t-11.5 -21.5q-82 -84 -190 -107q-29 -4 -55.5 -6t-55.5 -2q-96 0 -145 29q-84 49 -84 162q0 53 10 126.5t31 172.5q-66 -10 -68 -13h2q-8 -4 -18 -4q-35 0 -35 43q0 16 10 58q16 88 74 90 q10 2 28.5 5t51.5 11q37 135 72.5 251t72.5 214q61 176 180 176h13q45 -6 74.5 -44t29.5 -97q0 -33 -12 -78q-23 -63 -53.5 -125.5t-75.5 -122.5q-4 -6 -14.5 -25.5t-22.5 -52.5l2 5q-2 -6 -5 -17.5t-7 -23.5v-5q27 6 45 11.5t30 9.5l-2 -2q6 2 19 2q2 0 4 1t6 1 q29 0 41 -19.5t12 -50.5v-14t-2 -14zM584 664q4 12 4 20v14q0 41 -15.5 65.5t-56.5 24.5q-4 0 -6 -1t-4 -1q-8 0 -13.5 -1t-15.5 -5l8 2q-20 -6 -45 -12q0 10 2 12q10 29 19.5 46.5t13.5 23.5q90 123 131 254q14 45 15 84q0 66 -34 111t-87 49h-15q-131 0 -198 -189 q-61 -172 -140 -454q-27 -6 -43 -8.5t-26 -4.5h2q-74 -2 -92 -106h2q-6 -23 -9.5 -39.5t-3.5 -22.5q0 -63 54 -63q6 0 12 1t14 5q4 2 35 8q-20 -92 -28.5 -160.5t-8.5 -115.5q0 -129 92 -181q31 -14 70 -22t86 -8q29 0 57.5 3t57.5 7q55 12 105 39t93 74q23 23 23 65v21 q0 18 -1 36.5t-9 34.5v-4q-4 23 -14.5 31t-26.5 8q-8 0 -20.5 -3t-20.5 -21q-31 -47 -86 -76q-47 -29 -72 -29q-80 0 -98 14v13q0 8 2 24.5t8 40.5q6 35 23.5 101.5t46.5 167.5q39 8 68.5 14t54.5 10q80 23 92 107zM53 467v0q2 0 4 2z" />
<glyph horiz-adv-x="1181" d="M1239 184q4 41 -8 76q-6 18 -17 6q-18 -29 -44.5 -50t-61.5 -42q-55 -35 -94 -35q-68 0 -89.5 6.5t-13.5 42.5q4 18 6.5 39t2.5 41q0 166 -117 301q-27 33 -4 47q248 129 278 355q2 16 3 30.5t1 26.5q0 125 -75 209q-66 74 -181 102q-47 10 -92 11q-109 0 -207 -47 q-113 -53 -147 -156q-18 -47 -19 -84q0 -106 95 -109q57 -4 57 33q0 18 -14 27q-8 6 -2 49t26 63q68 76 162 76q37 0 80 -12q111 -29 110 -172q0 -35 -10 -76q-27 -96 -98 -170q-2 0 -88 -74q-31 -29 -60 -18q-51 14 -104 14q-141 0 -149 -108q-10 -86 112 -86q57 0 144 22 q43 12 59 -28q20 -53 20 -138q0 -127 -32 -184q-14 -31 -54 -31q-201 0 -362 -63q-264 -104 -287 -293q-14 -125 168 -191q37 -14 94 -14q119 0 240 53.5t244 186.5q106 115 125 178q8 31 59 31q45 0 79 3t62 7q106 18 191 102q8 6 12 43zM586 12q0 -43 -99 -141 q-82 -82 -133 -115q-80 -49 -147 -49q-88 0 -88 78q0 68 119 154q57 39 170 63q20 4 54 10t81 13q43 5 43 -13zM504 1798q0 -6 14 -22q90 -115 109 -224h155q111 135 232 222q23 16 22 22q0 16 -39 16q-113 0 -276 -145q-141 147 -199 148q-18 -1 -18 -17zM473 -115 q90 90 92 125l-4 -4q-4 0 -8 -1t-8 -1q-88 -12 -133 -22q-109 -20 -164 -60h2q-113 -82 -113 -137q0 -57 70 -57q33 0 66.5 10t70.5 35q27 16 58.5 43.5t70.5 68.5zM485 1798q0 35 37 35q61 0 199 -137q160 135 276 135q59 0 60 -35q0 -16 -31 -37q-117 -84 -233 -227h-181 q-25 121 -110 231q-10 12 -13.5 21.5t-3.5 13.5zM1260 182q-2 -37 -21 -55q-88 -90 -199 -107q-29 -4 -63.5 -7t-81.5 -3q-39 0 -41 -18q-12 -35 -44 -81t-85 -106q-127 -135 -251 -189t-247 -54q-59 0 -100 14q-182 68 -182 191q0 4 1 10t1 10q18 199 297 307 q158 66 370 66q25 0 37 22q14 29 22.5 72t8.5 102q0 76 -20 133v-2q-6 16 -25 17q-8 0 -12 -2q-41 -10 -78 -15.5t-70 -5.5q-131 0 -131 94v13q10 127 168 127q59 0 107 -13q6 -4 12 -4q16 0 31 17q37 29 60.5 47t35.5 24l-6 -2q68 74 90 164q12 37 12 70q0 125 -96 153 q-47 12 -76 13q-84 0 -149 -72q-12 -16 -19 -53q-2 -10 -2 -17v-10t-2 -4q18 -16 18 -41q0 -53 -67 -53h-10q-111 8 -111 129q0 39 18 92v-2q43 113 160 168q47 25 101.5 36t111.5 11q49 0 96 -10q113 -25 191 -109q82 -94 82 -221q0 -14 -1 -28.5t-3 -30.5 q-35 -238 -291 -369q0 -6 12 -18v2q59 -70 89 -150t30 -166q0 -47 -6 -84q-2 -8 -2 -14q0 -10 18.5 -11t65.5 -1q29 0 86 35q61 37 98 83v-2v2v0q2 0 2 3q4 10 11.5 11t11.5 1q10 0 16 -5t10 -22l-2 2q8 -16 10.5 -32.5t2.5 -30.5v-21zM1278 180v23q0 18 -2 36.5t-8 34.5v-4 q-6 25 -17.5 33t-27.5 8q-8 0 -20.5 -3t-22.5 -23q-16 -23 -39 -42.5t-51 -35.5q-25 -14 -42.5 -21.5t-33.5 -7.5q-63 0 -66 -6v6q6 25 8 47.5t2 42.5q0 170 -124 324q248 131 282 373q2 16 3 31.5t1 31.5q0 137 -86 234q-78 88 -203 114q-49 12 -98 13q-59 0 -115.5 -13.5 t-107.5 -36.5q-125 -57 -168 -178q-20 -49 -20 -98q0 -141 131 -150h10q88 0 88 74q0 23 -19 45v8q0 6 3 17q2 29 14 41q59 66 135 65q31 0 72 -10q80 -23 80 -135q0 -16 -2.5 -32.5t-6.5 -33.5q-25 -88 -88 -153l9 2q-14 -10 -39 -27.5t-56 -46.5q-10 -8 -20 -8q-2 0 2 -2 q-72 16 -121 16q-176 0 -188 -143v-15q0 -115 151 -114q61 0 152 24h8q2 0 6 -4q18 -53 19 -125q0 -119 -29 -163q-6 -12 -19 -13q-211 0 -376 -65q-287 -115 -312 -326q0 -4 -1 -11t-1 -11q0 -141 195 -209q23 -10 50.5 -13.5t57.5 -3.5q125 0 253 56.5t257 195.5 q59 61 92 109.5t43 83.5q4 4 23 4q47 0 83 3t64 7q123 23 211 113q21 20 25 67zM465 1798q0 -4 5 -18.5t17 -26.5q82 -111 107 -240h205q59 72 118.5 129.5t118.5 100.5q39 31 39 53q0 25 -19.5 40t-58.5 15q-117 0 -274 -131q-133 133 -201 133q-29 0 -43 -15t-14 -40z M459 -100q-35 -37 -67 -65t-60 -44q-66 -45 -125 -45q-51 0 -51 39q0 45 104 123l-2 -2q49 33 158 57q43 8 116 19q-10 -14 -28 -34.5t-45 -47.5zM518 1049q14 -10 14 -17q-4 7 -14 17z" />
<glyph horiz-adv-x="774" d="M831 182q4 41 -8 76q-6 18 -16 6q-35 -47 -98 -88q-27 -16 -52.5 -25.5t-52.5 -11.5q-115 -10 -149 2q-10 4 -15 11q-25 37 -30 43q-8 10 -18.5 19t-20.5 19q-27 23 -4 29q70 20 127 72q84 78 92 182q2 14 2 27v28q0 207 -193 250q-23 6 -43 6q-66 0 -109.5 -41 t-43.5 -94q0 -55 34 -55q10 0 29 13.5t41 13.5q25 0 53 -19q49 -37 50 -92q0 -27 -9 -53q-25 -66 -121 -115q-82 -43 -131 -39q-47 2 -59 -45q-8 -51 10 -55q109 -16 170 -86q16 -18 17 -31q0 -8 -19 -14q-117 -37 -141 -49q-57 -29 -97 -67t-63 -89q-37 -78 -37 -135 q0 -98 101 -158q51 -29 120 -29q166 0 254 138q94 147 88 276q-2 14 -2 18q0 6 0 3q0 6 11 6q49 -6 135 10q109 18 186 100q4 4 7 15.5t5 27.5zM303 -14q-4 -53 -14 -92q-6 -29 -21.5 -56.5t-38.5 -52.5q-57 -57 -104 -57q-29 0 -49.5 20.5t-20.5 48.5q0 51 41 101 q70 90 156 106q35 8 45 2q6 -4 6 -20zM160 1331q0 -6 14 -22q88 -111 109 -222h149q111 135 227 222q23 14 23 20q0 16 -39 17q-113 0 -270 -144q-135 145 -195 146q-18 -1 -18 -17zM283 -12h-9q-4 0 -14 -4q-80 -12 -149 -99q-37 -49 -37 -88q0 -20 14 -34.5t37 -14.5 q43 0 90 49q41 49 55 101q12 43 13 88v2zM141 1331q0 35 37 35q61 0 195 -137q156 135 270 135q57 0 57 -35q0 -14 -28 -37q-113 -82 -230 -223h-176q-10 59 -37.5 115.5t-68.5 113.5q-10 10 -14.5 19.5t-4.5 13.5zM850 180q-4 -41 -19 -55q-43 -43 -92 -69.5t-102 -35.5 q-61 -12 -109 -12h-22v0q2 0 2 -2v-20q0 -131 -92 -273q-47 -74 -115 -109.5t-154 -35.5q-80 0 -131 33q-109 66 -108 174q0 31 8 66.5t29 76.5q53 104 170 164h-2q16 10 52 22.5t93 30.5q0 4 -1 5l-5 5q-31 35 -70 53.5t-90 26.5q-29 6 -29 45q0 16 1.5 21.5t3.5 15.5 q14 59 71 60h15q23 0 50 9t64 25q92 47 113 105h-2q4 16 6 26.5t2 20.5q0 45 -43 76q-16 14 -41 14q-10 0 -19.5 -4t-17.5 -8q-10 -4 -22 -9l-11 -4q-53 0 -53 74q0 31 13.5 58.5t37 49t54 35t67.5 13.5q23 0 47 -6q207 -49 207 -271v-30q0 -12 -2 -27q-4 -59 -29.5 -107.5 t-68.5 -89.5q-29 -25 -57.5 -43t-63.5 -26q0 -2 2 -2v2q12 -10 20.5 -19.5t18.5 -21.5h-2q4 -2 31 -45q2 -2 4 -2h-2q12 -2 26.5 -3t34.5 -1q18 0 39 1t45 3q45 0 98 35q55 33 93 81q4 10 11 11.5t11 1.5q10 0 16.5 -5t10.5 -22l-2 2q6 -16 8 -32.5t2 -30.5v-21zM870 178v23 q0 18 -2 36.5t-10 34.5v-4q-6 23 -16.5 31t-26.5 8q-8 0 -20.5 -3t-20.5 -21q-31 -39 -84 -74q-23 -12 -45 -20.5t-43 -10.5q-25 -2 -45 -3t-39 -1h-29q-12 0 -22 2l4 -4l-4 4q-2 0 -3 1l-1 1h2q-10 16 -16.5 26.5t-10.5 14.5q-6 6 -10 11.5t-8 11.5q27 10 51.5 25.5 t46.5 35.5q47 45 75 97.5t32 111.5q2 14 2 29v30q0 240 -224 289l3 -2q-31 8 -54 8q-41 0 -75.5 -14t-60.5 -37.5t-41 -55.5t-15 -67q0 -94 73 -94q4 0 13.5 3t15.5 7q25 14 41 15q18 0 31 -11l-2 2q37 -29 37 -61q0 -10 -2 -19.5t-7 -21.5v2q-14 -51 -102 -94 q-35 -18 -59.5 -25.5t-44.5 -7.5h-15q-72 0 -92 -88l-2 -6v-23q0 -55 43 -63q45 -8 80 -22.5t59 -39.5q-49 -16 -78.5 -26t-44.5 -21l2 2q-127 -61 -178 -172q-39 -84 -39 -153q0 -121 119 -191q59 -35 139 -35q186 0 285 154q96 145 96 283v2q51 0 113 12h-2 q119 23 207 113q20 20 24 65zM123 1331q0 -4 5 -17.5t15 -27.5q82 -109 107 -237h201q113 141 231 227q39 33 39 53q0 25 -19.5 40t-58.5 15q-113 0 -268 -129q-131 131 -197 131q-29 0 -42 -15t-13 -40zM254 -96q-12 -45 -53 -92h2q-45 -45 -78 -45q-14 0 -23.5 9t-9.5 21 q0 35 33 76q59 78 125 90l6 3t6 1q-2 -18 -3 -33.5t-5 -29.5zM467 176l-2 2zM377 225h4h-4z" />
<glyph unicode=" "  horiz-adv-x="745" />
<glyph unicode="&#x09;" horiz-adv-x="745" />
<glyph unicode="&#xa0;" horiz-adv-x="745" />
<glyph unicode="!" horiz-adv-x="874" d="M815 1192q4 16 4 27q0 61 -74 86q-25 10 -46 14t-35 4q-47 0 -62 -39q-4 -20 -31.5 -123.5t-76.5 -290.5q-49 -188 -75 -286.5t-28 -110.5q-8 -45 39 -61q74 -20 90 10q12 16 148 379q133 346 147 391zM461 117q4 14 5 27.5t1 25.5q0 98 -88 106q-55 6 -85 -17t-52 -99 q-4 -10 -4 -21v-20q0 -82 81 -90q47 -6 88.5 16.5t53.5 71.5zM479 111q-12 -51 -52 -77t-89 -26q-4 0 -10 1t-11 1q-98 8 -98 109q0 10 1 22.5t3 22.5q20 76 50 104.5t81 28.5q6 0 12.5 -1t14.5 -1q104 -6 104 -125q0 -32 -6 -59zM831 1186q-6 -20 -42.5 -118.5 t-104.5 -274.5q-70 -182 -106.5 -276.5t-42.5 -106.5q-16 -25 -54 -25q-31 0 -57 8q-53 12 -53 68q0 2 1 6t1 8q2 16 27.5 115.5t74.5 286.5q10 33 18.5 63.5t14.5 58.5q35 129 53.5 201t22.5 88q20 55 80 55q33 0 88 -20q86 -33 86 -104q0 -10 -1 -17.5t-3 -13.5zM850 1184 l4 16t2 19q0 90 -98 122h2q-29 12 -54.5 16.5t-41.5 4.5q-76 0 -97 -68q-4 -16 -22.5 -87.5t-52.5 -200.5q-6 -29 -14.5 -61t-18.5 -66q-102 -383 -105 -402q0 -4 -1 -9t-1 -7q0 -63 68 -86q18 -6 33.5 -8t27.5 -2q47 0 70 34q8 12 45 108.5t106 278.5v-2q68 176 105 274.5 t43 121.5v4zM496 104q8 33 8 66q0 133 -121 145q-8 0 -15.5 1t-13.5 1q-55 0 -90 -31.5t-57 -115.5q-6 -31 -6 -51q0 -117 114 -129q4 0 11.5 -1t11.5 -1q53 0 98 29.5t60 88.5v-2z" />
<glyph unicode="&#x22;" horiz-adv-x="884" d="M881 1257q-10 35 -80 21q-51 -6 -86 -27q-20 -16 -23 -32q-6 -53 -14 -89t-19 -57q-27 -51 -46 -84t-33 -45q-16 -12 -17 -31q0 -20 19.5 -34.5t40.5 -14.5q16 0 41 15q90 57 157 174q63 102 64 172q0 10 -1 17t-3 15zM539 1257q-10 35 -82 21q-29 -4 -48.5 -10 t-35.5 -17q-18 -14 -23 -32q-16 -109 -33 -146q-53 -104 -81 -129q-14 -14 -15 -31q0 -20 18.5 -34.5t41.5 -14.5q10 0 19 4t22 11q86 57 157 174q63 102 64 172q0 10 -1 17t-3 15zM557 1262q2 -8 3 -16.5t1 -20.5q0 -76 -65 -181q-68 -119 -166 -180q-29 -16 -49 -16 q-29 0 -53.5 19.5t-24.5 45.5q0 23 20 43q12 12 31.5 43t46.5 82q16 37 31 138q2 16 9 26t19 21q16 10 40 18t55 12q10 2 19 3t20 1q53 1 63 -38zM899 1262q2 -8 3 -16.5t1 -20.5q0 -76 -65 -181q-68 -121 -166 -180q-29 -16 -49 -16q-29 0 -53.5 19.5t-24.5 45.5 q0 23 20 43q12 12 31.5 43t46.5 82q8 18 16.5 52t14.5 86q2 16 10 26t21 21q16 10 39.5 18t54.5 12q10 2 19 3t20 1q51 1 61 -38zM918 1266q-12 51 -80 51q-14 0 -23.5 -1t-19.5 -1q-61 -12 -103 -37q-31 -18 -37 -57q-12 -100 -28 -134v3q-27 -51 -45.5 -81t-28.5 -40 q-27 -27 -27 -56q0 -35 32 -59.5t65 -24.5q16 0 30.5 5.5t30.5 15.5q47 29 89 76t81 108q68 113 68 191q0 12 -1 21t-3 18v2zM575 1266q-16 51 -81 51q-12 0 -22.5 -1t-20.5 -1q-59 -12 -101 -37q-31 -18 -37 -57q-8 -51 -14 -84t-14 -50v3q-57 -104 -74 -121 q-27 -25 -27 -56q0 -35 31 -59.5t66 -24.5q29 0 59 21q49 29 91 76t79 108q70 113 70 191q0 12 -1 21t-4 18v2z" />
<glyph unicode="#" horiz-adv-x="894" d="M807 465h-137l30 217h150l2 100h-139l45 328h-111l-43 -328h-178l45 328h-111l-45 -328h-155l-2 -100h145l-29 -217h-153l-6 -100h145l-47 -326h111l45 326h178l-45 -326h108l45 326h150zM590 682l-31 -217h-178l31 217h178zM401 483h142l24 181h-141zM823 346h-153 l-43 -328h-148l45 328h-141l-43 -328h-147l45 328h-144l10 137h152l25 181h-142l2 137h158l45 329h150l-48 -329h142l43 329h149l-47 -329h137l-2 -137h-153l-25 -181h135zM844 502h-131l18 143h156l2 174h-133l45 330h-187l-43 -330h-102l45 330h-186l-45 -330h-160 l-2 -174h139l-20 -143h-154l-10 -174h139l-43 -328h184l43 328h105l-45 -328h184l43 328h156zM442 645h105l-21 -143h-102z" />
<glyph unicode="$" horiz-adv-x="997" d="M977 1126q-39 33 -81 58.5t-91 42.5q-23 8 -25 12q-2 6 4.5 24.5t6.5 24.5q0 23 -41 25q-47 6 -60 -25q-10 -29 -43 -28q-92 0 -172 -39q-111 -53 -158 -158q-31 -74 -30 -143q0 -164 129 -269q37 -29 37 -45q0 -14 -9 -33q-27 -84 -56.5 -165.5t-59.5 -167.5 q-12 -29 -54 -23q-33 4 -71.5 16.5t-85.5 34.5q-31 14 -49 15q-25 0 -48 -54q-18 -53 -18 -77q0 -27 21 -52q47 -51 178 -63q49 -6 49 -21q0 -12 -25 -75q-12 -31 -19 -51.5t-11 -28.5q-20 -43 28 -49q51 -6 58 16q20 55 35.5 98t25.5 74q8 20 18 25q4 4 33 0q94 -6 211 36 q180 70 217 236q12 49 13 94q0 131 -89 238q-16 25 -112 108q-23 23 -12 54q35 109 58 172t34 86q8 16 16 20q4 2 31 -6q86 -31 133 -90q25 -31 39 -31q27 0 45 51q20 41 20 74q0 34 -20 59zM621 1075q0 -25 -78 -217q-10 -16 -19 -16q-8 0 -20 12q-43 51 -43 90q0 27 12 55 q33 70 98 88q50 13 50 -12zM633 334q-39 -111 -170 -129q-51 -8 -41 20q35 104 59.5 176t40.5 113q12 29 25 29q6 0 20 -11q76 -74 76 -147q0 -24 -10 -51zM737 1051q-2 0 -4 -2zM793 1249v2v-2zM440 217q-2 0 -2 -2zM524 866q37 90 56.5 140.5t21.5 66.5h-2q-6 0 -25 -6 q-55 -16 -83 -78q-12 -25 -13 -45q0 -33 39 -78q2 -4 3 -5l1 -1v0q0 2 2 6zM616 338q4 10 6.5 22.5t2.5 24.5q0 68 -72 133l-6 6q2 0 -6 -18q-12 -29 -29.5 -77t-40.5 -116q-6 -23 -14 -46t-17 -50q0 4 2 4q8 0 17 2q121 20 157 117v-2zM989 1139q27 -27 27 -72 q0 -35 -21 -82q-25 -61 -63 -61q-27 0 -55 39q-43 53 -123 84v-3q-10 2 -13.5 3.5t-7.5 1.5l-1 -1t-1 -6q-10 -25 -34.5 -88t-59.5 -170v-12q0 -12 8 -18q47 -45 76 -72t41 -41q90 -113 90 -250q0 -45 -10 -96q-37 -174 -232 -250q-106 -41 -188 -41q-6 0 -13.5 1t-15.5 1 q-6 0 -12 1t-10 1h-6q0 -2 -1.5 -5t-3.5 -11v2q-10 -31 -25.5 -75t-35.5 -97q-14 -33 -59 -33q-4 0 -9.5 1t-9.5 1q-51 2 -51 47q0 16 6 29q4 8 11.5 26.5t17.5 49.5q2 4 1 3t1 3q10 29 15 45t7 22q-2 -2 -28 2q-137 10 -191 70q-27 25 -26 64q0 16 4 36.5t16 49.5 q25 63 64 63q20 0 55 -14q88 -41 153 -51q4 0 5.5 -1.5t5.5 -1.5q18 0 22 15q33 86 61.5 167t57.5 163q6 18 6 28q0 4 -28 29q-137 106 -138 285q0 74 33 151q51 115 168 168q86 41 178 41q20 0 25 14q12 39 63 39q2 0 6 -1t9 -1q61 -4 61 -43q0 2 -2 -7t-4 -17 q-4 -12 -6 -17h12q96 -32 178 -108zM1001 1155q-78 70 -178 105q2 10 4 18t2 10q0 57 -79 64q-4 0 -8.5 1t-6.5 1q-63 0 -80 -54q0 -2 -8 -2q-94 0 -186 -43q-127 -61 -178 -176q-33 -80 -33 -159q0 -186 143 -302l23 -12q0 -4 -6 -22q-29 -82 -57.5 -163t-61.5 -167h-4 q-4 0 -5 1t-6 1q-59 6 -145 47q-23 10 -38 14.5t-25 4.5q-51 0 -82 -78q-23 -51 -23 -92t33 -78h-2q29 -33 81 -50.5t124 -25.5h4q-2 -8 -6 -17.5t-9 -23.5l2 2q-2 -4 -3 -8t-3 -8q-10 -27 -15 -44.5t-9 -21.5q-10 -25 -10 -39q0 -59 69 -65q4 0 10.5 -1t10.5 -1q61 0 77 47 v-2q20 53 36 97t26 75q4 0 7 -1t7 -1q8 0 15.5 -1t13.5 -1q90 0 196 41q197 80 240 266v-2q8 29 10 53.5t2 48.5q0 145 -96 262h2q-18 25 -119 115l-2 2v2v6q35 102 56.5 162.5t31.5 85.5h7h-5q39 -12 68 -32.5t49 -45.5q37 -45 70 -45q51 0 80 74q14 29 18 51.5t4 38.5 q0 51 -30 86zM598 346q-33 -82 -129 -100q6 16 11 31.5t12 29.5v-2q20 59 35.5 106.5t25.5 77.5q51 -53 51 -104q0 -20 -6 -41v2zM518 895q-20 29 -20 49q0 23 8 37q25 53 69 68q-8 -23 -21 -61t-36 -93zM362 -14q0 2 9 2zM508 877v-3v3zM377 -14v2h2z" />
<glyph unicode="%" horiz-adv-x="1466" d="M492 1112q-152 0 -265 -147q-104 -139 -104 -291q0 -221 205 -221q147 0 256 139q100 125 110 276q47 2 110.5 22.5t141.5 61.5l78 43l4 -4l-113 -129q-78 -92 -147.5 -179t-132.5 -175q-348 -473 -348 -526q0 -27 22 -64q27 -37 47 -37t56 56q10 18 21 35.5t22 37.5 q166 274 514 717q35 41 69.5 84t71.5 88q109 137 109 158q0 23 -39 67q-37 47 -56 47q-6 0 -73 -49q-86 -61 -158 -94q-104 -53 -205 -63q-34 147 -196 147zM479 997q47 0 68 -32q-14 -2 -15 -23q0 -39 31 -55q2 -100 -59 -203q-68 -117 -164 -117q-84 0 -84 119 q0 98 63 199q68 112 160 112zM1223 715q-152 0 -265 -150q-104 -135 -104 -289q0 -223 203 -223q152 0 266 150q104 135 104 291q1 221 -204 221zM1210 598q84 0 84 -117q0 -98 -61 -198q-70 -113 -162 -113q-86 0 -86 119q0 96 66 198q65 111 159 111zM479 977 q-82 0 -145 -103q-59 -92 -60 -188q0 -98 66 -98q84 0 147 106q29 45 42.5 91t13.5 89q-31 25 -31 68q0 16 6 27q-8 4 -17.5 6t-21.5 2zM1210 580q-82 0 -145 -103q-59 -92 -59 -188q0 -100 65 -101q82 0 148 103h-2q59 102 59 190q0 99 -66 99zM1223 735q223 0 223 -241 q0 -160 -109 -304q-117 -156 -280 -155q-221 0 -221 241q0 162 108 302q117 157 279 157zM492 1133q168 0 210 -148q41 6 87.5 19.5t93.5 39.5q39 20 76.5 43t78.5 52q72 51 86 51q27 0 70 -53v2q43 -47 43 -82q0 -27 -113 -170q-20 -25 -39.5 -48.5t-37.5 -45.5 q-16 -18 -32 -39t-32 -39q-342 -430 -512 -715q-4 -10 -10 -19.5t-12 -19.5q-16 -23 -17 -27q-47 -72 -76 -71q-33 0 -63 45q-27 39 -27 74q0 53 352 538q66 86 135.5 174t147.5 178l49 62q-137 -76 -239 -86q-4 -72 -33 -138.5t-78 -129.5q-117 -147 -272 -148 q-223 0 -224 242q0 162 109 301q121 158 279 158zM492 1151q-168 0 -295 -164q-111 -145 -111 -313q0 -260 242 -260q166 0 286 153q47 63 76 128t39 136q35 4 71 14.5t77 26.5q-76 -86 -144.5 -171t-128.5 -171q-180 -242 -268 -379t-88 -169q0 -37 28 -84q35 -53 80 -54 q43 0 88 70q4 10 10.5 19.5t10.5 17.5q6 10 11 19.5t11 19.5q166 281 512 712q14 18 28.5 38t31.5 38q20 23 39.5 46.5t40.5 47.5q119 154 118 185q0 33 -49 92h2q-23 29 -43 45t-43 16q-16 0 -98 -57q-39 -29 -77 -51.5t-72 -38.5q-43 -23 -84 -37t-80 -18 q-51 143 -221 143zM1223 754q-168 0 -295 -164q-113 -147 -113 -314q0 -260 242 -260q170 0 297 164q113 147 112 314q1 260 -243 260zM1210 561q47 0 47 -80q0 -84 -57 -180v2q-61 -94 -129 -94q-47 0 -47 80q0 82 59 176q59 96 127 96zM479 958q10 0 15 -2v-14 q0 -51 30 -76q-2 -80 -53 -164q-59 -96 -131 -96q-47 0 -47 80q0 84 59 178q57 94 127 94z" />
<glyph unicode="&#x26;" horiz-adv-x="1583" d="M1399 412q39 0 63.5 31.5t24.5 70.5q0 35 -37 39q-129 2 -241.5 3t-209.5 1q-55 6 -86 -59q-23 -51 -22 -64q0 -20 27 -16h118q29 0 29 -10q0 -8 -8 -19q-16 -25 -44 -53.5t-69 -59.5q-127 -90 -260 -90q-16 0 -32.5 1t-33.5 3q-150 27 -149 140q0 27 10 63 q47 150 170 209q76 39 158 39q61 0 78 43q4 14 7 22.5t3 16.5q0 25 -39 37q-84 25 -84 104q0 51 31 119q39 90 119 141q70 45 147 45q23 0 56.5 -11t48.5 -11q41 0 40 76q0 63 -40 82q-66 27 -132 26q-25 0 -53 -3t-59 -11q-100 -29 -191 -94q-106 -82 -149 -187 q-25 -66 -25 -125q0 -109 56 -151q25 -18 24 -25q0 -10 -27 -12q-115 -23 -212 -92q-145 -109 -170 -285q-2 -14 -3.5 -26.5t-1.5 -24.5q0 -225 301 -258q51 -6 103 -6q238 0 428 143q121 94 168 195q23 45 55 45h62q18 -2 30 -2h21zM1399 393h-23q-12 0 -30 2h-60 q-25 0 -37 -33q-49 -104 -174 -204q-195 -145 -440 -146q-27 0 -52.5 1t-52.5 3q-317 39 -317 279q0 14 1 26.5t3 26.5q25 184 176 297q98 74 219 96h-2v2q-63 49 -63 168q0 31 5 65t21 68q47 113 154 193q94 74 197 98q66 16 118 17q66 0 140 -29q51 -25 51 -100 q0 -96 -59 -97q-14 0 -46 13v-2q-16 4 -32.5 9t-26.5 5q-72 0 -137 -41q-72 -45 -113 -133q-29 -70 -28 -113q0 -63 71 -86q53 -12 53 -55q0 -14 -12 -47q-20 -53 -96 -53q-41 0 -77 -10.5t-73 -26.5q-117 -57 -159 -199q-10 -37 -11 -57q0 -98 136 -119q33 -6 61 -6 q129 0 248 88q41 29 67.5 55.5t42.5 48.5h-2h-4h-123q-41 0 -41 37q0 18 23 70q33 72 94 71h10q86 0 181.5 -1t203.5 -3h66q57 -4 57 -57q0 -47 -30.5 -84t-77.5 -37zM1399 373q57 0 92 44t35 97q0 41 -19.5 57.5t-56.5 20.5h-66q-109 2 -204 3t-181 1h-10q-72 0 -110 -84 q-27 -59 -27 -78q0 -55 61 -55h88q-27 -33 -81 -72q-57 -41 -117 -62.5t-119 -21.5q-27 0 -59 6q-117 20 -117 101q0 14 2 26.5t6 26.5v-2q45 137 152 188q66 33 139 33q88 0 115 70q12 31 12 51q0 51 -66 74q-57 18 -57 67q0 20 5 47t22 58q39 82 106 123q57 39 125 38 q10 0 26.5 -3t28.5 -7h-2q33 -12 52 -12q78 0 77 115q0 90 -65 116q-74 31 -144 31q-51 0 -122 -16q-53 -16 -104.5 -41t-98.5 -60q-59 -47 -100.5 -96t-63.5 -106q-14 -33 -20.5 -69t-6.5 -71q0 -100 47 -157q-51 -12 -98 -36t-92 -56q-156 -113 -186 -312q-2 -14 -3 -26.5 t-1 -28.5q0 -260 335 -297q51 -6 107 -6q252 0 450 151q66 51 111 103.5t70 105.5q12 23 20 23h57q18 -2 33 -2h23z" />
<glyph unicode="'" horiz-adv-x="489" d="M485 1257q-6 35 -71 21q-27 -4 -45.5 -10t-32.5 -17q-18 -18 -21 -32q-12 -111 -28 -146q-51 -106 -74 -129q-12 -12 -12 -31q0 -20 16 -34.5t37 -14.5q12 0 35 15q82 57 143 174q57 102 57 172q0 10 -1 17t-3 15zM504 1262q0 -8 1 -16.5t1 -20.5q0 -74 -57 -181 q-33 -59 -69 -104t-81 -76q-29 -16 -45 -16q-27 0 -49.5 19.5t-22.5 45.5q0 20 19 43q23 23 71 125q6 18 13.5 52t13.5 86q2 16 9 26t18 21q16 10 36.5 18t49.5 12q10 2 17 3t17 1q48 1 58 -38zM520 1266q-12 51 -74 51q-10 0 -19 -1t-19 -1q-55 -12 -93 -37 q-27 -20 -32 -57q-12 -104 -27 -134v3q-23 -51 -40 -81t-26 -40q-25 -25 -24 -56q0 -35 28.5 -59.5t59.5 -24.5q23 0 53 21q45 29 82 76t72 108q33 57 47 105.5t14 85.5q0 12 -1 21t-1 18v2z" />
<glyph unicode="(" horiz-adv-x="716" d="M799 1370q-16 53 -37 53q-6 0 -25 -6q-178 -55 -346 -246q-180 -199 -274 -473q-80 -246 -80 -460q0 -150 38 -281t111 -248q23 -33 52 -33q27 0 55.5 25t28.5 53q0 18 -13 41q-117 193 -116 467q0 80 11 161t36 161q86 299 274 499q63 66 131 118t143 87q23 10 23 35 q0 12 -12 47zM815 1376q14 -35 14 -53q0 -37 -34 -53q-143 -68 -269 -199q-182 -199 -268 -493q-25 -80 -36 -159t-11 -157q0 -272 115 -459q6 -12 10 -23t4 -26q0 -18 -10.5 -34.5t-25.5 -31t-32.5 -22.5t-33.5 -8q-39 0 -66 41q-76 119 -115 252t-39 287q0 219 82 467 q88 272 279 481q176 195 352 252v-2q25 6 31 6q35 0 53 -66zM836 1382q-29 80 -74 80q-16 0 -35 -8q-188 -59 -362 -254h2q-197 -215 -285 -489q-82 -246 -82 -473q0 -158 39 -294.5t117 -256.5q37 -49 82 -49q18 0 39.5 10t39 27.5t29.5 38t12 40.5q0 31 -16 60 q-113 182 -113 448q0 78 11.5 155t33.5 154q84 297 267 486q123 129 262 196l-2 -2q47 14 47 72q0 25 -12 61v-2z" />
<glyph unicode=")" horiz-adv-x="598" d="M573 430q61 209 62 404q0 322 -158 561q-12 25 -39 24q-25 0 -49 -24q-35 -31 -35 -54q0 -14 17 -36q39 -55 71 -154q49 -152 50 -315q0 -190 -64 -379q-43 -129 -101.5 -233.5t-129.5 -186.5q-98 -106 -252 -207q-35 -23 -35 -55q0 -23 10 -43q18 -39 41 -39q12 0 29 8 q143 63 286 209q205 215 297 520zM592 426q-47 -158 -122 -289t-179 -241q-145 -145 -293 -213q-12 -6 -22.5 -8.5t-14.5 -2.5q-35 0 -57 49q-14 27 -15 54q0 43 45 71q80 53 141.5 102.5t108.5 102.5q70 80 126.5 181.5t99.5 230.5q31 92 47 185t16 188q0 162 -47 309 q-31 92 -72 147q-8 14 -13 26.5t-5 22.5q0 29 39 68q35 29 63 29q35 0 54 -33v2q162 -248 161 -573q0 -203 -61 -408zM610 420q61 215 62 414q0 330 -164 583h2q-29 41 -72 41q-41 0 -76 -35q-45 -39 -45 -82q0 -27 23 -59q39 -51 68 -145q47 -147 47 -301 q0 -90 -16.5 -181.5t-47.5 -183.5q-41 -127 -97 -227.5t-124 -177.5q-47 -53 -107.5 -103.5t-136.5 -99.5q-55 -35 -55 -88q0 -16 4 -30.5t12 -31.5q31 -59 74 -59q6 0 17.5 2t27.5 8q76 35 149.5 90.5t147.5 128.5q106 111 183 244t124 293z" />
<glyph unicode="*" horiz-adv-x="677" d="M256 1196l-68 -127l226 -70l-187 -161l103 -95l147 195l94 -219l125 59l-135 197l242 31l-25 135l-229 -80l67 248h-143l-16 -228zM438 1112l19 215h186l-68 -240l218 78l32 -176l-231 -28l131 -189l-164 -78l-88 209l-141 -186l-133 123l176 151l-213 68l88 162z M242 1245l-107 -196l205 -66l-168 -145l162 -150l135 178l84 -196l197 94l-125 182l223 29l-41 215l-205 -72l62 228h-226l-16 -205z" />
<glyph unicode="+" horiz-adv-x="1103" d="M537 418h-275v-107h275v-274h106v274h275v107h-275v274h-106v-274zM244 436h274v275h144v-275h274v-143h-274v-275h-144v275h-274v143zM225 274h275v-274h180v274h274v181h-274v274h-180v-274h-275v-181z" />
<glyph unicode="," horiz-adv-x="706" d="M420 211q-8 33 -74 20q-45 -8 -76 -28q-18 -12 -20 -33q-12 -104 -31 -141q-45 -100 -72 -131q-14 -12 -14 -29q0 -20 17.5 -34.5t35.5 -14.5q16 0 37 14q82 57 144 172q57 102 57 170q0 15 -4 35zM436 213q2 -8 3 -16.5t1 -20.5q0 -78 -59 -178q-61 -119 -150 -178 q-29 -18 -45 -19q-25 0 -47 20.5t-22 47.5q0 23 18 41q25 27 70 125q10 16 16 51t12 86q2 29 27 45q16 10 35.5 19.5t48.5 13.5q10 0 18.5 1t16.5 1q51 0 57 -39zM453 217q-14 53 -74 53q-16 0 -37 -4q-57 -8 -92 -35q-31 -23 -33 -57q-12 -100 -27 -131q-25 -49 -41 -80 t-26 -41q-23 -23 -23 -53q0 -35 29 -59.5t57 -24.5q27 0 56 18q84 59 153 187q61 111 62 186q0 14 -1 22.5t-3 16.5v2z" />
<glyph unicode="-" horiz-adv-x="700" d="M537 285q37 0 60.5 19.5t23.5 47.5q0 23 -37 27q-123 2 -232 2h-198q-45 6 -74 -41q-20 -35 -21 -43q0 -14 27 -10q66 4 242 0q33 -2 84 -2h125zM537 270h-125t-84 2q-45 2 -82 2h-66h-53q-25 0 -41 -2h-6q-39 0 -39 25q0 14 22 49q31 49 84 49h7q80 0 170 -1t194 -3h66 q55 0 55 -39q0 -33 -28.5 -57.5t-73.5 -24.5zM537 258q53 0 86.5 27.5t33.5 66.5q0 29 -18 40t-53 14h-68q-104 2 -194 2h-170h-7q-68 0 -100 -58q-23 -39 -22 -53q0 -37 55 -37h8h92h146q33 -2 84 -2h127z" />
<glyph unicode="." horiz-adv-x="667" d="M391 66q18 20 19 53q0 39 -26 64.5t-65 25.5q-49 0 -83 -41q-31 -35 -31 -80q0 -74 74 -74q73 1 112 52zM403 55q-47 -57 -124 -57q-90 0 -91 90q0 51 35 90q43 47 96 47q45 0 76 -30.5t31 -75.5q0 -35 -23 -64zM416 47q25 31 24 72q0 51 -34.5 87t-86.5 36 q-59 0 -108 -54q-39 -49 -39 -100q0 -104 107 -104q88 0 137 63z" />
<glyph unicode="/" horiz-adv-x="514" d="M705 1442h-162l-537 -1448h152zM170 -25h-190l550 1487h201zM760 1481h-244l-565 -1526h233z" />
<glyph unicode="0" horiz-adv-x="892" d="M858 1112q-14 37 -45 37q-8 0 -15 -2t-18 -6q-96 -55 -90 -123q6 -66 6 -146q0 -213 -43 -354q-16 -61 -40.5 -116.5t-53.5 -102.5q-82 -125 -153 -125q-113 0 -113 207q0 57 10 118.5t29 131.5q51 193 190 370q102 131 205 203q20 16 21 35q0 35 -50 57q-37 18 -67 19 q-29 0 -68 -17q-41 -16 -92 -62t-111 -120q-162 -199 -225 -436q-16 -59 -24.5 -117.5t-8.5 -118.5q0 -160 58 -266q68 -123 198 -149q25 -6 52 -6q139 0 266 165q100 135 153 314q55 190 56 403q0 66 -7.5 118t-19.5 89zM874 1118q29 -82 29 -213q0 -219 -55 -409 q-27 -92 -66 -170t-90 -150q-129 -172 -282 -172q-31 0 -56 6q-135 25 -211 158q-59 106 -59 276q0 63 8 123t25 119q63 240 229 442q123 150 209 189q49 16 76 16q33 0 76 -18q59 -31 59 -76q0 -29 -27 -51q-98 -66 -202 -199q-133 -170 -187 -364q-18 -70 -28.5 -130.5 t-10.5 -113.5q0 -188 95 -188q66 0 139 116q29 43 50 97.5t40 117.5q23 72 32 158t9 190q0 41 -1 77t-3 67v10q0 76 100 131q18 12 41 12q43 0 61 -49v-2zM893 1126q-20 61 -80 62q-12 0 -25.5 -4t-25.5 -8q-109 -63 -109 -150v-12q2 -31 3 -67t1 -75q0 -211 -39 -342 q-35 -119 -92 -208q-68 -109 -120 -109q-74 0 -74 168q0 55 9 114.5t26 125.5q49 182 184 354h-2q100 127 199 196q37 25 36 68q0 57 -69 92q-23 10 -45.5 15.5t-38.5 5.5q-41 0 -82 -17q-86 -33 -217 -192q-82 -102 -140.5 -215t-93.5 -238q-33 -125 -32 -246 q0 -172 63 -286q78 -137 223 -168q25 -6 58 -6q158 0 297 180q53 72 92 151.5t67 176.5q55 197 56 413q0 139 -29 221z" />
<glyph unicode="1" horiz-adv-x="589" d="M627 1217q4 12 6 22t2 18q0 29 -21.5 48.5t-46.5 19.5q-18 0 -59 -27q-123 -74 -201 -126t-119 -80q-20 -12 -20 -41q0 -20 14 -47q18 -45 37 -46q6 0 19 7q31 14 62.5 35.5t66.5 50.5q14 12 22 12q12 0 2 -27q-72 -250 -139.5 -480t-128.5 -445q-6 -16 -6 -25 q0 -41 82 -55q10 -2 18 -3t19 -1q70 0 81 57q10 45 49.5 191.5t108.5 398.5q68 250 105 385t47 158zM641 1208q-8 -23 -45 -156.5t-102 -381.5q-70 -254 -109 -400.5t-49 -191.5q-14 -70 -100 -70q-12 0 -21.5 1t-19.5 3q-96 16 -97 74q0 16 8 33l-2 -2q14 45 26.5 91 t27.5 93q51 174 103 354.5t110 372.5q-33 -27 -65 -46t-62 -36q-12 -6 -25 -6q-29 0 -53 55q-16 33 -16 56q0 37 30 57h-2q41 31 121 84t199 125q47 29 69 29q33 0 59.5 -27t26.5 -62q0 -16 -12 -47v-2zM659 1204q12 31 13 53q0 45 -33 76t-72 31q-27 0 -78 -33 q-119 -72 -198.5 -125t-120.5 -84v2q-39 -25 -39 -73q0 -16 5 -31.5t14 -34.5v2q29 -68 69 -67q14 0 35 10h-2q47 25 86 51q-51 -180 -100.5 -347t-96.5 -327q-12 -47 -25.5 -93t-27.5 -93v2q-4 -8 -5 -17.5t-1 -19.5q0 -74 111 -94q10 -2 19 -3t24 -1q94 0 116 86 q10 45 49 190.5t107 399.5q68 248 105.5 382t45.5 156v2z" />
<glyph unicode="2" horiz-adv-x="856" d="M856 942q8 178 -100 279q-98 92 -264 92q-33 0 -66 -3t-66 -12q-66 -16 -67 -88q-4 -98 47 -98q8 0 25 6q31 14 56 19.5t46 5.5q25 2 57.5 -7.5t62 -32t50 -58t20.5 -84.5q0 -16 -3 -31t-7 -31q-59 -207 -313 -467q-49 -43 -99.5 -86t-101.5 -90q-160 -145 -160 -178 q0 -51 66 -45q92 6 336 6q252 0 293 -8q31 -6 43 16q14 14 26 59q12 31 13 54q0 39 -45 49q-16 2 -37 3t-52 1q-63 0 -180 -6q-115 -6 -114 -6q-33 0 -33 8q0 6 22 29q104 96 176 163.5t111 108.5q252 270 258 432zM877 942q-6 -166 -265 -446q-39 -41 -110.5 -109 t-177.5 -166h-2h30q29 0 84 4q117 6 180 6q33 0 55.5 -1t37.5 -3q59 -8 59 -67q0 -23 -12 -60q-6 -25 -14.5 -40t-14.5 -25q-16 -25 -47 -25q-4 0 -8 1t-8 1q-47 6 -289 6q-123 0 -206 -1t-130 -3h-12q-72 0 -72 64q0 43 166 194q35 31 68.5 62t68.5 59q16 14 32.5 27.5 t33.5 28.5l-2 -3q125 129 200.5 242t106.5 215q8 31 8 58v6q0 39 -16.5 68.5t-41 50t-52 29.5t-50.5 9h-10q-37 0 -94 -22q-16 -8 -33 -8q-66 0 -66 108v8q4 92 82 107q70 16 136 16q174 0 278 -98q106 -100 107 -266v-27zM895 940v29q0 176 -115 280q-109 102 -288 103 q-35 0 -71 -4.5t-69 -10.5q-94 -20 -98 -127v-8q0 -129 86 -129q23 0 37 8q57 25 90 25h10q20 0 45 -8t46.5 -25.5t35.5 -44.5t14 -61v-6q0 -14 -2 -26.5t-4 -27.5v2q-57 -193 -303 -448q-16 -12 -30.5 -25.5t-30.5 -27.5q-70 -63 -139 -121q-172 -154 -172 -209 q0 -84 90 -84h12q92 6 336 6q246 0 287 -8q4 0 9 -1t9 -1q41 0 63 35q8 10 14.5 26.5t16.5 42.5v-2q12 39 12 68q0 41 -18 60.5t-53 27.5q-14 2 -38 3t-61 1q-66 0 -182 -6q-18 -2 -35 -2q-14 0 -26 -2q90 84 153.5 143t98.5 98q264 279 270 457z" />
<glyph unicode="3" horiz-adv-x="811" d="M764 991q4 51 -9.5 101.5t-42 91.5t-72.5 70.5t-99 41.5q-80 20 -158 15q-39 -2 -59 -66q-10 -37 -11 -57q0 -59 58 -51q10 2 37 2q74 0 122 -31q68 -43 56 -139q-12 -98 -103 -150q-33 -18 -66.5 -29.5t-70.5 -13.5q-47 -2 -45 -69q4 -57 35 -66q23 -8 67 -8 q33 -4 72 -19q70 -25 70 -151q0 -68 -31 -117q-96 -147 -242 -147q-96 0 -209 59q-12 6 -22 6q-29 0 -37 -67q-10 -94 25 -113q23 -16 39 -25.5t26 -13.5q41 -14 125 -22q125 -12 273 55q172 84 223 227q33 90 33 168q0 152 -152 254q-16 10 -16 12t20 19q152 96 164 233z M782 989q-12 -143 -172 -248h2l-4 -4q158 -109 158 -264q0 -39 -8 -83t-27 -93q-53 -150 -233 -238q-121 -57 -236 -57h-22t-21 2q-96 10 -127 19q-23 10 -76 45q-33 25 -32 92v18q0 10 2 21q8 86 55 86q16 0 31 -9q106 -57 200 -57q141 0 226 137q29 45 28 107 q0 113 -55 135q-18 4 -35.5 8t-34.5 6q-20 2 -37.5 4t-33.5 9l2 -2q-49 12 -49 82v10q0 78 61 82q72 4 129 41q86 45 94 133q2 8 2 24q0 66 -49 95q-41 29 -112 28q-23 0 -33 -2q-4 0 -8.5 -1t-8.5 -1q-33 0 -48 19.5t-15 54.5q0 16 2 30.5t6 30.5q27 78 78 80q10 0 19.5 1 t19.5 1q31 0 61.5 -4t63.5 -10q113 -25 176 -110t63 -189q0 -6 -1 -12.5t-1 -14.5v-2zM801 991q0 8 1 14.5t1 12.5q0 113 -67.5 202t-186.5 115q-33 8 -63.5 12.5t-65.5 4.5q-10 0 -19.5 -1t-19.5 -1q-66 -2 -94 -97q-10 -41 -11 -65q0 -92 82 -92q4 0 10.5 1t10.5 1 q8 2 29 2q61 0 102 -25q41 -31 41 -80q0 -12 -2 -20q-8 -80 -84 -123q-29 -16 -58.5 -25.5t-62.5 -11.5q-82 -6 -82 -100v-10q4 -84 64 -101h-2q16 -4 33.5 -6t41.5 -4q14 -2 29.5 -5t36.5 -11h-2q45 -18 45 -115q0 -53 -27 -96q-80 -129 -209 -129q-88 0 -192 55 q-20 10 -39 10q-35 0 -51.5 -25.5t-22.5 -74.5q-2 -10 -2 -23v-20q0 -82 43 -109q29 -20 44.5 -28.5t21.5 -12.5q27 -8 62.5 -15t80.5 -11h45q113 0 244 59q186 92 244 248q35 96 34 182q0 78 -34.5 144.5t-108.5 119.5q143 102 160 250v4z" />
<glyph unicode="4" horiz-adv-x="927" d="M838 463q6 23 10 39t4 26q0 29 -31 27q-84 -8 -118.5 -12t-24.5 -4q-20 0 -21 4q-4 8 2 30q35 109 179 404q4 12 4 18q0 29 -62 60q-35 18 -59 18q-31 0 -49 -39q-96 -207 -180 -469q-8 -39 -41 -43q-35 -4 -60.5 -6t-40.5 -2q-35 -2 -35 14q0 10 9 35q18 61 52 148.5 t83 197.5q117 274 207 402q12 14 12 28q0 25 -64 56q-39 23 -79 22q-41 0 -56 -28q-59 -98 -120.5 -225.5t-120.5 -286.5q-45 -113 -78 -211.5t-56 -184.5q-6 -18 -8 -34.5t-2 -26.5q0 -63 70 -66q72 -4 129 -5t98 3q35 4 35 -12q0 -10 -6 -25q-4 -10 -12.5 -39.5 t-22.5 -76.5q-12 -49 -18.5 -80t-8.5 -43q-10 -49 62 -49q39 0 49 6q16 4 27 37q25 80 45 148.5t37 121.5q6 18 16 22l27 5q94 6 159 18q31 2 58 78zM674 545v2v-2zM854 459q-27 -86 -72 -94q-31 -6 -70.5 -10.5t-90.5 -6.5q-4 0 -7.5 -1t-7.5 -1h-4q-4 -4 -6 -12 q-16 -53 -36.5 -122t-45.5 -149q-8 -43 -39 -49v2q-10 -8 -55 -8q-80 0 -80 58v12q2 16 8 47t18.5 78t20.5 76.5t16 44.5q2 4 3 14q0 -4 -5 -4h-8q-16 -2 -36.5 -3t-45.5 -1q-63 0 -149 6q-88 2 -88 84q0 27 12 67q23 82 55.5 180.5t77.5 217.5q59 158 121.5 285.5 t124.5 228.5h-2q23 39 72 39q45 0 88 -25h-2q76 -39 75 -74q0 -23 -16 -39q-90 -131 -205 -399q-51 -113 -84 -199t-51 -145q-6 -23 -6 -27q0 2 8 2h8q12 0 38 2.5t61 6.5q18 2 24 28q41 129 86 246t96 227q25 49 66 50q29 0 65 -19q74 -41 74 -78q0 -8 -8 -28 q-72 -152 -115 -250.5t-59 -147.5q-2 -4 -2 -6t-2 -4h4v-18q18 10 53 19t88 13h6q45 0 45 -45q0 -16 -16 -69zM872 453q10 25 13.5 43t3.5 32q0 66 -64 66h-6q-41 -4 -70.5 -11.5t-52.5 -17.5q35 102 174 396q4 10 6.5 17t2.5 17q0 49 -82 95q-45 23 -76 22q-51 0 -84 -61 q-47 -106 -93 -224t-87 -252q-4 -14 -8 -14q-33 -4 -54.5 -6t-36.5 -2q20 63 53 147t81 195q119 270 204 393q8 10 13.5 23.5t5.5 27.5q0 47 -84 91q-51 27 -96 26q-59 0 -86 -47v2q-61 -100 -124 -229t-124 -291q-41 -111 -74 -210t-57 -187q-14 -45 -15 -74 q0 -100 107 -105q43 -4 80 -4h69h68q-4 -16 -11.5 -42.5t-17.5 -61.5q-14 -53 -20 -85t-8 -42v-14q0 -78 98 -78q43 0 67 10h-4q35 12 47 61v-2q25 82 46.5 148.5t37.5 120.5l1 1t6 1q102 6 163 18q53 8 88 105v2zM678 555v18l4 -4l4 -10q-2 -2 -4 -2t-4 -2zM692 547v-2v2z " />
<glyph unicode="5" horiz-adv-x="813" d="M899 1245q10 31 10 51q0 43 -41 35q-61 -14 -192 -18q-123 0 -203 12q-55 8 -78 -41q-8 -23 -30.5 -90.5t-57.5 -179.5q-39 -121 -59.5 -186.5t-24.5 -82.5q-6 -31 -2 -34q6 -10 35 -6q35 4 72 -4.5t78 -26.5q117 -55 116 -178q0 -39 -16 -93q-59 -203 -268 -202 q-47 0 -84 12q-10 4 -29 11t-47 22q-39 20 -62 20q-35 0 -43 -57q-18 -109 15 -133q78 -63 270 -53q137 8 244 65q154 90 198 262q14 43 20.5 84t6.5 76q0 244 -281 340q-29 6 -32 14q-4 12 4 29q27 84 43 136t22 77q10 37 52 35q215 -16 276 2q35 8 55 33q8 10 15.5 26 t17.5 43zM430 866v6v-6zM915 1237q-23 -61 -34 -74q-25 -31 -66 -39q-37 -10 -113 -10q-35 0 -76.5 2t-93.5 6h-4q-20 0 -26 -20q-4 -14 -22.5 -70.5t-47.5 -148.5q-2 -2 -2 -11q-2 0 4 0t19 -4q293 -94 292 -358q0 -80 -24 -166q-53 -186 -209 -272q-53 -31 -117.5 -47.5 t-136.5 -20.5q-12 0 -23.5 -1t-21.5 -1q-160 0 -236 57q-31 25 -30 84q0 16 2 33t6 35q10 76 61 76q27 0 70 -25q20 -8 35.5 -15t25.5 -11h-2q18 -6 17 -7l-2 2q18 -4 36.5 -7t41.5 -3q195 0 249 189q14 45 15 86q0 113 -105 159q-66 31 -118 31q-10 0 -19 -2h-18 q-29 0 -39 23q0 2 -1 5t-1 7q0 14 1 17t3 12q2 10 23.5 77.5t62.5 194.5h-2q35 111 58.5 180.5t31.5 91.5q25 53 78 54q4 0 9 -1.5t9 -1.5q41 -4 91 -7t110 -3q63 2 110.5 5t77.5 12q4 0 9.5 1t7.5 1q49 0 49 -56q-1 -30 -15 -59zM932 1231q16 37 16 65q0 76 -67 76 q-2 0 -9.5 -1t-11.5 -1q-61 -14 -184 -18q-117 0 -197 12q-4 0 -11 1t-11 1q-35 0 -58.5 -18.5t-38.5 -49.5q-10 -23 -31.5 -92t-58.5 -182q-41 -123 -60.5 -190.5t-23.5 -83.5q-2 -8 -3 -10.5t-1 -20.5q0 -4 1 -10.5t1 -8.5q8 -18 23.5 -26t34.5 -8h16q8 2 21 2 q49 0 112 -29q92 -47 92 -143q0 -20 -4 -39t-8 -41q-51 -176 -233 -176q-23 0 -39.5 3t-32.5 7l4 -2l-6 3t-12 5h2q-23 6 -62 25h2q-23 10 -42 17t-36 7q-68 0 -79 -90q-4 -18 -6.5 -34.5t-2.5 -37.5q0 -72 37 -98q80 -61 248 -61h45q78 4 142.5 22.5t121.5 46.5 q160 96 215 287v-2q14 47 20.5 91t6.5 81q0 272 -307 375h-2q27 80 42 131t23 80q2 6 8 6h7q49 -4 91 -6t76 -2q78 0 119 12h-2q51 12 76 45q18 18 39 82zM449 872v-6v6z" />
<glyph unicode="6" horiz-adv-x="874" d="M809 389q10 51 10 103q0 111 -41 186q-45 92 -143 104q-12 2 -24.5 3t-24.5 1q-66 0 -156 -38q-20 -6 -24 -3q-8 4 2 23q25 66 62.5 136.5t88.5 144.5q53 74 101.5 130t95.5 91q20 14 20 33q0 16 -31 20q-186 20 -245 -35q-117 -111 -221 -319q-55 -113 -93.5 -221.5 t-58.5 -219.5q-8 -41 -12 -76.5t-4 -72.5q0 -166 73.5 -262.5t208.5 -100.5q160 -4 277 117q100 109 139 256zM614 416q-10 -51 -29.5 -95.5t-49.5 -84.5q-63 -76 -127 -76q-113 0 -113 196q0 53 8 101q12 94 55 137q37 37 113 49q10 2 18.5 3t16.5 1q117 0 117 -145 q0 -20 -2.5 -41.5t-6.5 -44.5zM596 420q4 23 6 44t2 38q0 127 -98 127q-4 0 -10.5 -1t-16.5 -3h-4q-74 -14 -104 -45q-37 -37 -49 -127q-8 -47 -9 -97q0 -176 95 -176q55 0 110 68q55 70 78 172zM827 383q-41 -156 -145 -262q-125 -125 -281 -125h-8q-141 4 -221 107.5 t-80 275.5q0 39 4 76t13 77q41 219 153 447q53 104 108.5 184t114.5 140q47 45 168 45q45 0 95 -7q47 -4 47 -38q0 -25 -27 -48q-45 -35 -94 -91t-99 -128q-51 -72 -87.5 -139.5t-61.5 -128.5q96 39 160 39q14 0 26.5 -1t24.5 -3q109 -16 158 -117q23 -41 33 -88t10 -106 q0 -55 -11 -107v-2zM844 379q12 55 12 113q0 121 -45 204v-2q-53 111 -172 127q-12 2 -24.5 3t-28.5 1q-51 0 -123 -22q49 109 127 223q98 145 188 213q35 29 35 64q0 53 -63 59q-53 6 -97 6q-129 0 -180 -51q-113 -111 -229 -330q-57 -117 -95 -228.5t-61 -221.5 q-6 -41 -10 -79t-4 -79q0 -182 83 -289.5t234 -112.5h10q166 0 293 129q55 59 91 127t59 146zM578 424q-10 -47 -28 -88t-46 -76h2q-51 -61 -98 -61q-76 0 -76 157q0 47 8 95q4 41 15.5 69.5t27.5 46.5v-2q29 29 96 41h2q10 2 17 2h8q80 0 80 -106q0 -16 -2 -35.5t-6 -42.5z " />
<glyph unicode="7" horiz-adv-x="782" d="M879 1257q-49 25 -130 39.5t-194 22.5q-158 10 -285 -8q-51 -8 -65 -80q-6 -31 -6 -49q0 -47 65 -37q39 4 94.5 6t128.5 -2q145 -2 213 -19q20 -2 21 -12q0 -10 -12 -35q-248 -426 -383.5 -655t-159.5 -264q-16 -20 -16 -43q0 -51 69 -82q39 -16 70 -16q49 0 71 40 q33 74 95.5 210.5t160.5 336.5q98 205 162 335t94.5 187.5t30.5 88.5q1 26 -24 36zM885 1276q39 -20 39 -55t-35 -99q-31 -55 -94.5 -184t-161.5 -336q-96 -201 -159.5 -336t-96.5 -211q-25 -51 -88 -51q-37 0 -76 16q-82 37 -82 101q0 35 21 57v-2q23 33 157.5 261.5 t382.5 656.5q2 6 4 10l4 8h-4q-70 14 -211 16q-27 2 -49 2h-45q-76 0 -125 -6q-4 0 -10 -1t-10 -1q-66 0 -66 60q0 18 6 53q16 88 80 94q82 12 180 12q29 0 54.5 -1t54.5 -3q115 -8 198 -22t132 -39zM893 1292q-111 51 -336 66q-29 2 -55 2h-56q-47 0 -93 -2t-89 -8 q-78 -14 -96 -111q-6 -35 -6 -57q0 -78 84 -78q4 0 10 1t12 1q49 6 123 6h45q23 0 49 -2q59 -2 106.5 -5t82.5 -9q-244 -420 -377 -646.5t-162 -261.5q-23 -29 -22 -67q0 -80 92 -119q39 -18 84 -18q41 0 64.5 16t39.5 47q63 147 258 547q96 205 158.5 334t93.5 186 q39 68 39 107q0 48 -49 71z" />
<glyph unicode="8" horiz-adv-x="806" d="M887 1233q-102 78 -211 88q-16 2 -30.5 3t-31.5 1q-240 0 -323 -201q-25 -59 -25 -123q0 -109 78 -260q18 -37 0 -51q-55 -35 -129 -123q-96 -102 -123 -184q-10 -25 -13 -50.5t-3 -51.5q0 -94 53 -160q61 -78 176 -92q16 -2 29.5 -3t27.5 -1q139 0 244 92 q104 88 105 231q0 147 -86 301q-18 33 -19 45q0 10 19 29q94 84 123 125q35 45 34 90q0 23 -10 63q-16 61 -51 62q-12 0 -21 -14q-18 -31 -77 -103q-31 -33 -50.5 -54.5t-31.5 -31.5q-25 -20 -39 0q-43 68 -43 154q0 66 43 115t106 49q31 0 66 -13q61 -25 95 -39t42 -22 q31 -8 74 37q25 25 24 53q1 23 -22 39zM520 305q-12 -59 -53 -96q-49 -45 -109 -45q-49 0 -88 29q-41 33 -41 86q0 35 23 75q35 57 78 108.5t98 94.5q20 14 35 -10q63 -102 63 -191q0 -24 -6 -51zM502 309q6 27 6 47q0 80 -64 181q-2 2 -2 6l-2 -2q-104 -84 -172 -197 q-20 -37 -20 -65q0 -45 35 -70q31 -25 75 -25q55 0 97 39q18 16 29.5 38.5t17.5 47.5zM897 1249q31 -23 31 -55q0 -16 -7.5 -33.5t-23.5 -34.5q-37 -43 -74 -43h-18q-25 20 -137 66h2q-16 4 -30.5 6t-31.5 2q-55 0 -93 -43t-38 -100q0 -82 39 -146v0q0 2 2 2t12 7h-2 q16 14 36 34.5t44 49.5h-2q35 41 54.5 64.5t25.5 33.5h-2q14 25 37 24q49 0 70 -77q10 -41 10 -68q0 -51 -39 -100q-16 -27 -48 -58.5t-75 -72.5q-14 -8 -14 -13q0 -12 16 -35q88 -164 88 -311q0 -156 -111 -248q-111 -94 -256 -94q-14 0 -26 1t-29 3h-4q-121 12 -188 99 q-57 74 -58 172q0 29 4.5 55t14.5 53q25 82 125 193q39 41 71.5 71.5t61.5 51.5h-2q2 2 2 4q0 4 -2 11t-4 15v-2q-80 150 -80 268q0 72 26 132q86 211 340 210q16 0 32 -1t32 -3q110 -10 219 -90zM909 1264q-111 86 -229 96q-16 0 -31.5 1t-34.5 1q-268 0 -356 -221 q-29 -70 -29 -140q0 -61 20.5 -129.5t59.5 -146.5v2q4 -8 4 -10q-27 -20 -57.5 -51t-69.5 -72v2q-100 -113 -129 -201q-20 -49 -20 -114q0 -55 16.5 -100.5t48.5 -86.5h-2q70 -86 201 -104h6q14 -2 26.5 -3t28.5 -1q152 0 269 100q117 102 117 262q0 158 -91 322 q-12 14 -12 22q0 -6 4 2q98 88 129 131q41 53 41 113q0 29 -12 72q-8 45 -35 71q10 -4 16.5 -8t10.5 -8q4 0 12 -1t12 -1q43 0 90 51h-2q35 35 35 80q0 47 -39 72zM483 313q-10 -47 -41 -75q-35 -35 -84 -35q-39 0 -65.5 20.5t-26.5 55.5q0 27 19 55q57 104 151 180 q53 -90 53 -158q0 -18 -6 -43zM721 1102q-33 0 -51 -33v2q-10 -16 -29.5 -40.5t-46.5 -57.5q-27 -29 -43 -47.5t-27 -28.5q-29 53 -28 117q0 49 32.5 87t79.5 38q25 0 56 -11h-2q20 -8 36.5 -14t30.5 -12h-8zM451 526l-2 -2h-3q3 0 5 2z" />
<glyph unicode="9" horiz-adv-x="839" d="M831 799q16 88 17 157q0 332 -293 363q-172 16 -291 -131q-88 -106 -119 -254q-16 -78 -16 -135q0 -223 168 -254q31 -6 63 -6q68 0 154 34q25 10 27 9q4 -4 -2 -19q-25 -61 -62 -125.5t-90 -130.5q-47 -59 -97 -108t-102 -90q-25 -18 -24 -35q0 -18 24 -27 q39 -20 134 -20q76 0 104 24q123 125 229 309q68 117 110.5 226t65.5 213zM645 874q-18 -96 -55 -137q-31 -33 -113 -49q-12 -2 -23.5 -3t-21.5 -1q-111 0 -110 125q0 45 12 106q57 264 198 265q59 0 95 -68q29 -57 28 -143q0 -25 -3 -48.5t-7 -46.5zM516 555h-2h2zM627 879 q10 47 10 90q0 76 -27 133q-31 57 -78 57q-125 0 -180 -248q-12 -59 -12 -102q0 -106 92 -107q8 0 17.5 1.5t19.5 3.5h4q74 14 105 45q16 16 27.5 48t21.5 79zM850 795q-20 -104 -65.5 -216t-112.5 -229q-106 -184 -234 -313q-31 -29 -116 -29q-98 0 -142 21q-35 16 -35 45 q0 27 31 49q104 82 195 196q100 121 143 234q-41 -16 -80 -24.5t-74 -8.5q-37 0 -67 6q-182 31 -182 273q0 61 16 139q29 152 121 264v-2q113 139 272 139h17q10 0 20 -2q309 -31 309 -381q0 -37 -3 -78.5t-13 -82.5zM868 791q10 41 13.5 82.5t3.5 82.5q0 369 -326 400h2 q-10 2 -20 2h-21q-84 0 -154.5 -35t-129.5 -109q-96 -117 -127 -272q-16 -78 -17 -143q0 -256 199 -293h-2q31 -6 71 -6q55 0 117 18q-45 -90 -119 -186q-92 -115 -192 -193q-23 -16 -31 -32.5t-8 -32.5q0 -41 45 -62q29 -14 64.5 -19t85.5 -5q94 0 127 32q131 137 237 318 q72 121 117 234t65 219zM608 883q-16 -88 -45 -117q-25 -27 -92 -39h-4q-10 -2 -19.5 -3t-15.5 -1q-74 0 -74 86q0 41 11 98q55 233 163 234q37 0 61.5 -47t24.5 -125q0 -39 -10 -86z" />
<glyph unicode=":" horiz-adv-x="765" d="M592 616q25 31 24 84q0 31 -9 50.5t-27 33.5q-35 20 -70 21q-63 0 -99 -45t-36 -101q0 -53 45 -84q35 -20 61 -20q62 0 111 61zM444 78q23 33 23 78q0 59 -35 90q-25 23 -65 22q-57 0 -107 -55q-35 -45 -35 -92q0 -57 47 -88q25 -14 54 -15q71 1 118 60zM457 68 q-49 -68 -131 -68q-16 0 -31.5 5t-30.5 13v-2q-55 35 -55 105q0 59 39 104q51 63 119 64q43 0 77 -29q39 -37 39 -104q1 -55 -26 -88zM604 604q-53 -68 -123 -67q-37 0 -71 22q-53 37 -54 100q0 61 41 112.5t113 51.5q43 0 78 -22q47 -31 47 -101q0 -57 -31 -96zM616 592 q35 41 35 108q0 80 -55 115q-20 12 -40.5 19.5t-45.5 7.5q-39 0 -70.5 -15.5t-53 -41t-34 -58.5t-12.5 -68q0 -74 59 -114q39 -27 82 -27q74 0 135 74zM469 53q33 45 33 103q0 78 -47 116q-39 35 -88 35q-76 0 -131 -69q-45 -55 -46 -117q0 -76 66 -119h-2q31 -20 72 -20 q90 0 145 71h-2z" />
<glyph unicode=";" horiz-adv-x="763" d="M608 629q23 33 23 88q0 59 -34 80.5t-73 21.5q-57 0 -96 -43q-39 -47 -39 -108q0 -47 41 -82q33 -23 66 -23q63 0 112 66zM463 231q-10 43 -92 29q-45 -6 -74 -29q-23 -18 -25 -43q-6 -80 -30 -151q-31 -92 -86 -154q-12 -12 -13 -24q0 -20 27 -39q33 -29 74 0 q100 70 166 194q57 111 57 179q0 10 -1 19t-3 19zM623 616q-53 -72 -127 -71q-43 0 -76 26q-49 37 -49 97q0 68 45 120h-2q39 49 110 50q45 0 85 -26t40 -95q0 -35 -7 -59t-19 -42zM481 233q0 -10 1 -20t1 -20q0 -80 -57 -187q-33 -63 -76 -114.5t-98 -88.5h2 q-27 -16 -49 -16q-27 0 -45 16q-35 27 -35 56q0 16 18 39q53 55 82 143q12 35 19.5 70.5t11.5 78.5q2 18 10 32t21 24q37 27 82 35q10 2 20 3t21 1q61 0 71 -49v-3zM498 240q-10 63 -88 63q-14 0 -23.5 -1t-19.5 -3q-29 -4 -50.5 -13.5t-42.5 -25.5q-14 -10 -24 -27.5 t-12 -39.5q-4 -39 -11.5 -74t-19.5 -70q-27 -84 -76 -139q-25 -25 -25 -51q0 -37 44 -70l-3 2q12 -14 27.5 -18t30.5 -4q33 0 57 18q53 37 98.5 90t79.5 119q61 117 62 197q0 14 -1 24t-3 21v2zM666 717q0 80 -45.5 110.5t-96.5 30.5q-76 0 -123 -57q-47 -63 -47 -133 q0 -68 56 -111q37 -31 86 -31q80 0 141 80q14 23 21.5 48.5t7.5 62.5z" />
<glyph unicode="&#x3c;" horiz-adv-x="1105" d="M924 602v111l-670 -299v-97l670 -294v106l-531 238zM436 367l506 -226v-147l-706 313v119l706 313v-147zM961 580v188l-744 -330v-143l744 -328v187l-480 213z" />
<glyph unicode="=" horiz-adv-x="1103" d="M918 514h-656v-100h656v100zM918 264h-656v-100h656v100zM936 147h-692v134h692v-134zM936 397h-692v133h692v-133zM954 549h-729v-168h729v168zM954 297h-729v-166h729v166z" />
<glyph unicode="&#x3e;" horiz-adv-x="1105" d="M256 129v-106l670 294v97l-670 299v-111l532 -235zM743 367l-505 225v147l706 -313v-119l-706 -313v147zM219 154v-187l744 328v143l-744 330v-188l477 -213z" />
<glyph unicode="?" horiz-adv-x="917" d="M864 1075q0 180 -151 230q-59 18 -111 18q-49 0 -104 -16q-45 -16 -54 -50q-16 -63 -4 -116q6 -41 49 -21q35 20 86 21q31 0 51.5 -11.5t33 -30t17.5 -39t5 -38.5q0 -78 -98 -203q-193 -250 -211 -354q-12 -57 4 -70q12 -6 31.5 -10t46.5 -2q33 0 45 41q31 78 41 96 q23 39 70.5 98.5t117.5 139.5q135 149 135 317zM340 33q53 0 96 40t43 99q0 53 -32.5 82t-81.5 29q-84 0 -115 -88q-12 -31 -12 -62q0 -100 102 -100zM340 14q-121 0 -121 119q0 33 14 68q33 100 132 100q59 0 96 -34t37 -95q0 -33 -13.5 -61.5t-35 -50t-50 -34t-59.5 -12.5 zM883 1075q0 -172 -142 -332q-70 -82 -116.5 -139t-69.5 -94h2q-4 -10 -15.5 -33.5t-25.5 -60.5v2q-18 -55 -61 -56h-13q-45 0 -71 17q-20 10 -21 49v18q0 12 4 23q23 113 213 362q96 117 97 191q0 31 -18.5 64.5t-70.5 33.5q-47 0 -71 -12q-29 -14 -39 -14q-33 0 -43 43 q-4 10 -4 22v27q0 23 2 41t8 37v-2q8 47 66 63q51 18 108 18t117 -22v2q164 -55 164 -248zM899 1075q0 209 -174 266q-61 20 -123 21q-53 0 -115 -19q-63 -23 -77 -75v2q-6 -23 -8.5 -42.5t-2.5 -41.5q0 -12 1 -25.5t6 -30.5l-3 3q12 -57 62 -58q16 0 22.5 2t16.5 6 q33 18 71 19q41 0 55.5 -27.5t14.5 -52.5q0 -61 -92 -178q-197 -258 -217 -371l2 2q-4 -16 -5 -28.5t-1 -18.5q0 -23 6 -40t22 -28q14 -6 35 -11t47 -5h13q59 0 80 66q16 41 24 63.5t12 26.5v-2q23 39 70 97t117 136q72 80 106.5 166t34.5 178zM340 -6q33 0 64.5 14.5t56 38 t40 56t15.5 69.5q0 72 -43 111t-108 39q-113 0 -150 -113q-8 -18 -11 -38.5t-3 -37.5q0 -139 139 -139z" />
<glyph unicode="@" horiz-adv-x="1550" d="M737 465q-68 0 -110.5 49t-42.5 127q0 117 73 225q80 117 191 117q63 0 108 -51t45 -121q0 -121 -75 -229q-78 -117 -189 -117zM1055 987q-61 139 -215 139q-178 0 -305 -157q-117 -147 -117 -346q0 -61 20.5 -116.5t61.5 -103.5q80 -90 198 -90q115 0 217 115h5 q6 -115 114 -115q145 0 285 140q168 166 168 405q0 254 -193 422q-190 160 -452 160q-293 0 -498 -205t-205 -500q0 -299 205 -502q205 -205 508 -204q180 0 331.5 84t246.5 237h-136q-168 -199 -434 -198q-248 0 -411 163q-162 162 -162 412q0 254 157 420q158 170 398 170 q219 0 362 -127q154 -139 154 -354q0 -147 -80 -267q-76 -119 -170 -118q-35 0 -35 47q0 14 4 35.5t10 52.5l142 512h-137zM1337 836q0 158 -84 272l-145 -528v2q-16 -66 -16 -84q0 -29 16 -29q84 0 156 109q73 113 73 258zM737 483q98 0 172 111q72 102 72 217 q0 61 -39 106.5t-94 45.5q-98 0 -176 -109q-70 -100 -70 -213q0 -70 38 -114t97 -44zM840 1145q139 0 211 -111l28 84h166q-12 14 -25.5 28.5t-27.5 29.5v-2q-141 123 -350 122q-236 0 -385 -161q-152 -168 -152 -408q0 -242 158 -399q162 -158 397 -158q254 0 424 199h180 q-104 -174 -265 -266.5t-347 -92.5q-309 0 -520 209t-211 516q0 301 211 512q211 213 510 213q268 0 463 -166q203 -172 202 -436q0 -127 -44 -230.5t-130 -189.5q-152 -145 -299 -145q-111 0 -129 96q-96 -96 -207 -96q-127 0 -215 98q-84 96 -84 232q0 203 119 358 q132 164 322 164zM1346 426q180 174 180 432q0 270 -207 451q-201 170 -477 170q-307 0 -524.5 -217.5t-217.5 -526.5q0 -313 217 -530q217 -215 535 -215q193 0 360.5 103.5t284.5 295.5h-192q25 17 41 37zM840 1165q-201 0 -336 -174q-125 -158 -125 -368q0 -139 92 -244 t227 -105q51 0 100.5 19.5t96.5 60.5q33 -80 139 -80q43 0 88 11.5t88 36.5q-150 -131 -350 -132q-117 0 -211 38t-172 114q-152 150 -151 385q0 233 147 393q145 158 369 158q205 0 338 -117l22 -24h-137l-21 -62q-77 90 -204 90zM737 502q-51 0 -82.5 40t-31.5 99 q0 104 67 203h-2q68 100 160 100q47 0 81 -40t34 -93q0 -106 -70 -207q-72 -102 -156 -102zM1319 836q0 -135 -74 -246q-68 -100 -137 -101q4 0 4 9q0 14 4 32.5t8 47.5l136 487q59 -100 59 -229z" />
<glyph unicode="A" d="M1225 180q4 41 -11 76q-8 18 -14 4q-23 -29 -47.5 -51.5t-58.5 -38.5q-63 -33 -107 -31q-51 6 -65 15q-25 12 -25 51q0 33 18 104q20 63 57.5 166t96.5 246q45 111 76 184.5t49 110.5q10 20 10 41q0 45 -59 53q-90 12 -117 -47q-86 -170 -151.5 -292t-112.5 -193 q-254 -395 -414 -396q-23 0 -43 6q-74 27 -74 115q0 96 86 256q72 127 144 211q346 393 643 424q76 8 76 33q0 8 -27 49q-33 45 -82 45q-152 0 -375 -119q-246 -131 -413 -336q-264 -330 -265 -590q0 -145 91 -204q70 -47 149 -47q147 0 318 157q123 113 194 234q8 12 12 12 q14 0 4 -22q-70 -164 -69 -263q0 -41 12 -55q49 -55 209 -55q47 0 82 6q109 18 188 98q13 12 15 43zM1243 178q-4 -41 -18 -55q-82 -82 -199 -105q-16 -2 -37.5 -3t-48.5 -1q-168 0 -223 62q-18 18 -19 67q0 76 39 185q-31 -41 -66.5 -80t-78.5 -80q-176 -162 -332 -162 q-88 0 -162 49q-96 66 -96 221q0 272 268 601q84 104 188.5 190t229.5 152q223 121 385 120q59 0 96 -53q33 -45 33 -59q0 -41 -96 -51q-289 -35 -631 -420h2q-35 -41 -70.5 -92.5t-70.5 -114.5q-84 -158 -84 -246q0 -76 61 -96q14 -6 37 -6q150 0 400 387 q43 66 107.5 187.5t152.5 297.5v-2q29 59 102 59h18q10 0 19 -2h-2q78 -12 78 -71q0 -10 -3 -22.5t-12 -24.5q-16 -39 -48 -113t-77 -184q-55 -135 -92 -237.5t-57 -172.5q-10 -35 -15.5 -59.5t-5.5 -38.5q0 -27 17 -35q6 -4 18.5 -6t36.5 -6h8q33 0 88 30q63 35 99 82v-2v2 v0q2 0 2 2q6 10 12 11.5t10 1.5q10 0 17.5 -5.5t11.5 -21.5l-2 2q10 -29 10 -63v-19zM1264 176v21q0 20 -2 37.5t-11 33.5v-4q-6 23 -16 31t-29 8q-6 0 -19 -3t-22 -21l4 6q-16 -23 -39.5 -43.5t-56.5 -36.5q-45 -27 -78 -27h-4q-47 6 -49 8q-6 2 -6 19q0 27 16 92 q18 59 56.5 160.5t97.5 249.5v-2q45 111 74.5 184.5t48.5 111.5v-2q14 35 14 58q0 78 -92 92h-39q-86 0 -119 -68q-86 -170 -150.5 -289.5t-111.5 -191.5q-244 -379 -381 -379q-20 0 -28 2q-49 18 -50 80q0 86 82 236q72 133 138 204q338 381 616 412q113 12 113 72 q0 18 -35 69q-43 61 -113 62q-168 0 -391 -121q-256 -137 -428 -346q-270 -332 -270 -615q0 -168 104 -237q82 -53 172 -53q164 0 344 168h-2q25 23 46.5 45t43.5 45q-12 -59 -12 -101q0 -51 22 -80q61 -70 238 -69q53 0 88 6q59 12 112.5 39t96.5 72q23 20 27 65zM805 395 l-2 -2l-2 -2z" />
<glyph unicode="B" horiz-adv-x="1212" d="M1288 1016q2 12 2 24v25q0 238 -205 262q-51 8 -145 -20q-23 -10 -45.5 -17.5t-44.5 -17.5q-27 -8 -27 26q0 23 -30 23q-47 0 -95 -21q-59 -25 -65 -63q-4 -33 -7 -58.5t-8 -43.5q-6 -25 -32 -50q-35 -25 -89.5 -84t-131.5 -151q-96 -117 -162 -216t-103 -181 q-39 -96 -59.5 -170t-20.5 -127q0 -119 93 -174q41 -20 75 -21q66 0 136 47q57 33 73 62q18 31 70 12q156 -59 248 -53q51 4 100 18t98 43q119 63 154 172q23 63 23 121q0 152 -97 274q-8 18 15 33q131 76 182 127q90 86 98 199zM1081 983q-27 -68 -96 -139q-68 -74 -98 -74 q-6 0 -8 2q-51 35 -129 51q-31 10 -21 37q10 31 24.5 85t34.5 134q6 35 29 51q82 55 154 56q31 0 57 -10q66 -18 66 -119q0 -20 -2.5 -39t-10.5 -35zM537 821q-25 -127 -134 -381q-125 -305 -194 -305q-43 0 -37 68q8 98 115 303q113 217 229 330q10 10 14 10q13 0 7 -25z M864 332q-61 -137 -243 -137q-59 0 -91 16q-20 14 -2 45q35 59 71 147.5t75 210.5q2 14 59 15q74 2 92 6q29 6 35 -23q20 -51 28.5 -87t8.5 -56q0 -69 -33 -137zM1010 670v-2l2 -2zM387 449q47 115 79 203.5t48 154.5q-102 -106 -209 -311q-53 -100 -81.5 -174t-33.5 -121 v-13q0 -33 19 -32q55 0 178 293zM1063 991q12 27 12 66q0 86 -51 100q-31 10 -53 10q-63 0 -146 -53h2q-6 -4 -11 -13t-9 -26q-16 -72 -32.5 -128t-29.5 -97h3q0 -4 6 -6q39 -10 72.5 -23.5t60.5 -32.5q20 0 84 68q67 69 92 135zM848 340q14 33 22.5 65.5t8.5 63.5 q0 39 -35 137v-2q-8 14 -10 14t-3.5 -1t-3.5 -1h4q-14 -4 -98 -8q-43 0 -43 -4q-39 -121 -74.5 -210t-68.5 -148q-8 -16 -8 -15v-2q29 -16 82 -16q172 0 227 127zM1307 1014q-10 -121 -105 -209q-49 -49 -186 -133q-4 -2 -6 -2v0q98 -129 98 -287q0 -55 -23 -127 q-39 -113 -161 -184q-102 -53 -207 -62h-21q-47 0 -106.5 12.5t-130.5 40.5q-12 6 -27 7q-10 0 -16 -11q-18 -31 -82 -69l2 2q-74 -49 -148 -49q-49 0 -86 22q-100 59 -100 191q0 115 82 303q76 174 266 403q78 94 133.5 153.5t89.5 86.5q20 12 25 37q6 25 12 75q2 6 2 13 q0 6 2 14q8 45 76 78q55 23 103 22q51 0 51 -43q0 -10 -4 -10h2q23 10 45 18.5t45 16.5q74 27 127 27q23 0 31 -2h-3q221 -31 222 -283v-27q0 -12 -2 -24zM1327 1012q2 14 2 26v27q0 270 -237 301l2 -2q-10 4 -19 4h-16q-57 0 -133 -25q-29 -14 -66 -24q-10 41 -67 41 q-51 0 -109 -25q-80 -33 -90 -92v2q-2 -8 -2 -20q0 -10 -2 -15q-2 -25 -4 -39t-6 -30q-2 -8 -19 -25q-35 -27 -91 -87t-134 -152q-193 -236 -270 -410q-82 -201 -82 -311q0 -145 108 -209q23 -10 46.5 -17.5t49.5 -7.5q76 0 158 53h-2q63 33 86 76h2q4 0 21 -6 q143 -55 243 -55h23q53 4 105.5 20.5t105.5 42.5q133 76 174 197q12 35 17 67.5t5 65.5q0 154 -88 281q123 72 179 127v-3q102 97 110 224zM829 346q-49 -113 -208 -113q-18 0 -32 1.5t-26 3.5q35 66 73 158.5t79 215.5q-2 -23 18 -22q33 2 53 2q23 0 37 4q35 -90 35 -127 q0 -64 -29 -123zM1044 995q-10 -29 -32.5 -59.5t-55.5 -65.5q-47 -55 -65 -61q-25 16 -55.5 29.5t-65.5 19.5q10 33 22.5 85t30.5 126q6 20 15 29q76 49 133 49q14 0 25.5 -2t21.5 -6q20 -4 29.5 -25.5t9.5 -56.5q0 -39 -10 -60zM369 455q-121 -279 -160 -281q2 0 2 14v11 q4 47 30.5 118.5t80.5 169.5q76 147 149 240q-32 -108 -102 -272zM901 803l-8 4zM764 844q0 4 2 6q0 -2 -2 -6zM549 246v-2h2h-2v2z" />
<glyph unicode="C" horiz-adv-x="985" d="M1096 948q43 88 43 178q0 102 -53.5 169t-151.5 67q-174 0 -365 -162q-141 -123 -264 -299t-229 -409q-125 -270 -125 -508q0 -240 145 -328q72 -45 158 -45q252 0 522 385q20 27 21 55q0 25 -20.5 54.5t-43.5 29.5q-25 0 -63 -67q-49 -86 -160 -179q-121 -100 -205 -100 q-29 0 -47 12q-78 51 -78 179q0 113 47 264q10 33 34 95t61 157q45 113 112.5 228.5t161.5 238.5q203 260 315 260q74 0 74 -86q0 -57 -37 -138q-61 -133 -215 -182q-41 -12 -41 -41q0 -14 19 -45q25 -47 67 -49q49 -2 152 74q113 81 166 192zM1114 940q-55 -113 -174 -201 q-104 -76 -158 -75h-6q-51 0 -84 57q-18 33 -18 55q0 47 53 62q145 47 205 170q33 74 33 129q0 68 -54 67q-106 0 -299 -254q-94 -123 -161.5 -237.5t-112.5 -225.5q-4 -10 -7 -19t-7 -19q-29 -72 -47.5 -123.5t-30.5 -87.5q-45 -143 -45 -258q0 -121 67 -162q10 -10 37 -11 q76 0 193 99q106 88 153 170q47 80 82 80q14 0 29.5 -10.5t27 -27t18.5 -34.5t7 -33q0 -35 -22 -67q-276 -393 -539 -394q-86 0 -168 48q-156 100 -156 346q0 238 127 516q217 471 498 714q193 168 379 168q106 0 164.5 -72.5t58.5 -183.5q0 -47 -10 -93t-33 -93zM1130 932 q47 98 48 194q0 119 -63.5 197t-180.5 78q-190 0 -389 -172q-289 -248 -504 -721q-129 -283 -129 -524q0 -260 166 -363q86 -51 176 -51q270 0 553 403q29 35 29 78q0 18 -9.5 40t-24 40.5t-32.5 30.5t-37 12q-45 0 -96 -88q-23 -39 -60.5 -81t-91.5 -85v2 q-115 -94 -180 -94q-18 0 -26 6q-59 39 -60 146q0 55 11.5 117.5t33.5 133.5q6 25 26.5 78t51.5 133q6 18 8 25.5t6 13.5q43 109 109.5 222.5t161.5 234.5q184 246 284 246q35 0 35 -47q0 -53 -33 -121q-51 -115 -192 -162h2q-70 -18 -70 -78q0 -27 25 -65q35 -63 98 -68h6 q66 0 170 80q59 47 104 98.5t74 110.5z" />
<glyph unicode="D" horiz-adv-x="1445" d="M1374 586q16 61 24.5 117.5t8.5 109.5q0 166 -78 277q-63 88 -147 122q-39 12 -29 37q8 16 14.5 27.5t10.5 17.5q4 8 4 13q0 14 -74 18q-47 6 -65.5 -1t-27.5 -19.5t-19.5 -24.5t-39.5 -14q-109 0 -231 -35q-231 -68 -397 -248q-137 -150 -203 -317q-25 -66 -36 -125.5 t-11 -112.5q0 -37 6 -57q18 -57 76 -58q8 0 24 4q25 10 33 39q2 23 4 42.5t6 41.5q27 184 226 416q205 242 381 252q43 2 43 -18q0 -10 -15 -27q-49 -63 -203 -432q-59 -143 -97 -243.5t-58 -154.5q-12 -29 -23.5 -34.5t-40.5 -1.5q-16 2 -32 2h-35q-205 0 -217 -90 q-16 -92 166 -109q43 -4 97 10.5t120 44.5q33 18 112 -10q25 -10 64 -12h28q25 0 66 -2q152 -2 299 110q96 74 160.5 186t105.5 259zM1141 557q-90 -209 -168 -289q-96 -98 -264 -102q-51 0 -52 18q0 2 5 11q63 119 111 225t83 205q29 88 105 254q33 78 54 121.5t32 60.5 q29 39 43 39q12 0 24 -6q109 -37 109 -203q0 -144 -82 -334zM1122 565q82 184 82 326q0 150 -96 184q-12 4 -18 4q-8 0 -27 -30q-10 -12 -31.5 -57.5t-54.5 -121.5q-35 -82 -61.5 -143t-43.5 -109q-35 -104 -84 -209.5t-108 -220.5v-4q2 2 29 2q160 4 252 97 q35 39 75.5 108.5t85.5 173.5zM1393 582q-80 -301 -273 -457q-76 -55 -150.5 -84t-152.5 -29h-8q-41 2 -68 2h-28q-18 2 -34.5 4t-33.5 9q-45 16 -74 16q-14 0 -26 -4q-119 -59 -203 -59q-6 0 -12 1t-11 1q-186 12 -186 112q0 4 1 9.5t1 9.5q18 106 238 106h39q18 0 32 -2 q8 -2 17 -2q10 0 13 5t11 22q20 53 59.5 152.5t98.5 244.5q158 377 205 436q10 6 10 12h-14h-10q-82 -4 -172.5 -63t-192.5 -182q-98 -115 -153.5 -216.5t-69.5 -187.5v2q0 -4 -1 -7t-1 -5q-4 -18 -5 -39.5t-3 -40.5q-10 -37 -48 -49q-6 -2 -12 -3t-16 -1q-70 0 -97 72 q-6 18 -6 61q0 111 52 246q35 88 86 168t118 155q86 92 186.5 156t221.5 98.5t235 34.5q16 0 24.5 7t14.5 16q10 14 24.5 26.5t53.5 12.5h17q10 0 20 -2q92 -4 92 -39q0 -10 -8 -23q-4 -8 -11 -21.5t-14 -25.5l2 2q0 -4 17 -10q92 -35 158 -127q80 -121 79 -289 q1 -114 -32 -231zM1411 578q35 133 35 235q0 178 -86 297q-35 51 -76 84t-88 55q4 6 8 14.5t8 14.5q2 6 5.5 12t3.5 17q0 31 -29 43t-82 14h4q-10 2 -20 2h-21q-47 0 -63.5 -14.5t-30.5 -30.5q-8 -16 -23 -16q-117 0 -241 -37h2q-250 -72 -418 -260q-139 -152 -211 -328 q-27 -70 -38 -131.5t-11 -120.5q0 -43 8 -68q27 -86 113 -86q16 0 33 7q47 16 63 73q2 18 3 36t5 36v12v-2q29 172 217 393q182 215 336 238q-29 -47 -77 -151.5t-117 -270.5q-59 -145 -97.5 -244.5t-58.5 -152.5q-4 -8 -5 -12l-1 -3q-14 0 -21 3q-16 2 -32 2h-35 q-238 0 -256 -123q0 -4 -1 -10.5t-1 -10.5q0 -115 202 -133q4 0 11.5 -1t13.5 -1q47 0 99.5 16.5t113.5 44.5q2 2 16 3q25 0 66 -15q16 -4 34.5 -8t41.5 -6h28q25 0 66 -2h10q164 0 316 119q194 156 278 467zM1106 573q-90 -203 -160 -276q-84 -88 -235 -92q59 111 103 212 t79 197v-2q16 45 40.5 107.5t61.5 142.5q33 78 53.5 122t28.5 54q16 23 13 23l12 -4q82 -29 82 -166q0 -142 -78 -318zM1212 1274q2 4 2 8l-2 -4v-4zM1186 1227q0 4 4 8q0 -4 -4 -8z" />
<glyph unicode="E" horiz-adv-x="854" d="M1008 1233q0 61 -74 100q-41 18 -113 19q-137 0 -260 -78q-86 -53 -155.5 -138t-129.5 -202q-53 -100 -53 -189q0 -35 8.5 -67.5t28.5 -63.5q37 -66 37 -65q0 -12 -21 -25q-84 -59 -176 -157q-131 -145 -202 -310q-49 -117 -50 -207q0 -176 185 -233q14 -4 31.5 -6 t35.5 -2q143 0 297 104q109 74 207 183q45 49 69.5 84.5t35.5 58.5q4 16 4 22q0 27 -39 60q-29 25 -47 24q-20 0 -39 -28q-23 -35 -64 -83t-106 -108q-164 -158 -248 -157q-86 0 -86 106q0 109 106 283q59 102 118 176t112 123q27 25 51 20q63 -14 104 -2q141 37 142 123 q0 86 -111 86q-39 0 -78 -17.5t-75 -35.5q-18 -10 -28.5 1t-10.5 36q0 104 82 247q35 59 73.5 111.5t83.5 93.5q100 98 178 94q33 0 56.5 -9t39 -18t23.5 -17.5t11 -8.5q16 0 32.5 24.5t14.5 47.5zM1028 1229q0 -31 -21.5 -58.5t-45.5 -27.5q-12 0 -21 12v-2 q-10 8 -36.5 24.5t-72.5 18.5h-4q-68 0 -161 -88q-43 -41 -81 -92t-73 -111q-80 -141 -80 -237q0 -20 6 -21h4q4 2 8.5 5t8.5 5q35 16 72.5 32t74.5 16q129 0 129 -107q0 -104 -153 -143q-18 -6 -50 -6q-35 0 -65 8h-2q-14 0 -31 -17q-59 -49 -114.5 -121.5t-114.5 -171.5 q-100 -168 -101 -272q0 -86 66 -86q74 0 236 150q66 61 105.5 107t61.5 81q20 37 54 37q27 0 59 -27q45 -37 45 -76q0 -10 -1 -14t-1 -8q-18 -55 -113 -156q-49 -55 -101 -101t-105 -83q-158 -111 -310 -111q-39 0 -73 11q-197 61 -197 251q0 98 51 216q35 82 86 160.5 t119 154.5q92 98 180 158h-2q6 4 10 7l5 3l-5 5q-4 5 -12 17q-4 8 -8 16.5t-14 20.5q-37 61 -37 137q0 92 57 199q59 119 131 203t160 143q135 82 270 82q82 0 121 -22q82 -41 86 -117v-4zM1047 1233q-2 88 -97 135q-45 23 -129 23q-150 0 -280 -84q-174 -111 -299 -355 q-57 -113 -58 -207q0 -80 41 -149q2 -4 4 -9t4 -9q12 -18 19 -23q-45 -29 -89 -70t-91 -92q-131 -143 -209 -321q-25 -61 -39 -115.5t-14 -106.5q0 -205 210 -270q37 -12 80 -12q156 0 318 113q57 41 111.5 87t103.5 101q47 49 72.5 86t35.5 63q4 14 7.5 26.5t3.5 16.5 q0 39 -56 91q-43 33 -69 32q-43 0 -72 -45q-20 -33 -60 -79t-104 -105q-154 -147 -221 -148q-47 0 -47 68q0 96 100 260q117 199 223 293q8 8 19 8h2q20 -4 34.5 -5t30.5 -1q25 0 54 6q170 47 170 162q0 125 -150 125q-41 0 -80 -15.5t-75 -33.5q2 47 21.5 101t55.5 120 q63 111 152 197q45 43 82 63.5t65 20.5h4q39 -2 61.5 -13.5t33 -22t16.5 -14.5t19 -4q33 0 59.5 35t26.5 72v4z" />
<glyph unicode="F" horiz-adv-x="1296" d="M1272 549q10 41 -21 53q-63 25 -139 37q-35 6 -25 35q49 147 93.5 279t85.5 253q12 43 -11 54q-51 27 -163 61q-152 45 -267 47q-168 6 -252 -27q-133 -45 -139 -186q-4 -49 29 -78q25 -29 57 -24q31 2 31 24q0 4 -2 14.5t-2 18.5q0 16 8 31q16 35 66.5 57.5t107.5 18.5 q51 -4 160 -31q100 -25 119 -39q18 -12 4 -45q-29 -70 -64 -172.5t-80 -239.5q-10 -23 -41 -22q-33 0 -85 -7.5t-124 -23.5q-47 -8 -57 -80q-6 -39 0 -53q6 -16 25 -12q113 27 190 20q33 -2 17 -43q-14 -39 -27.5 -77t-26.5 -77q-68 -164 -147 -258q-115 -135 -246 -141 q-174 -6 -199 113q-6 35 -26 34q-4 0 -8 -1t-13 -3q-61 -23 -61 -110q0 -131 197 -187q45 -14 108 -14q244 0 410 193q139 160 247 497q14 53 39 54q12 0 31 -3.5t43 -13.5q20 -6 8 -41q-2 -4 -5 -16t-9 -32.5t-9 -35t-7 -22.5q-10 -23 43 -31q31 -6 45 -2q18 2 24 33 q20 70 37 124t31 97zM1290 543q-16 -41 -31.5 -96.5t-33.5 -124.5v2q-10 -45 -43 -48q-4 0 -8.5 -1t-8.5 -1q-8 0 -16 1t-16 1q-63 12 -64 46q0 2 1 4t1 4t5 18.5t14 42.5q4 10 6 17.5t4 13.5q0 6 2 13l2 7q2 4 2 13l16 -4q-61 23 -82 22q-4 0 -20 -41q-111 -344 -252 -504 h2q-172 -201 -426 -200q-70 0 -115 14q-211 57 -211 207q0 102 82 129q4 0 5 1t4 1q6 2 12 2q20 0 29.5 -13.5t17.5 -35.5q18 -96 162 -96h16q123 2 229 131q80 94 146 254l-2 -3q8 25 16 46.5t17 44.5l22 65q4 12 4 17h-2q-6 0 -13 1t-18 1q-31 0 -69.5 -5.5t-85.5 -15.5 h-10q-25 0 -37 23q-4 12 -4 28q0 6 1 15.5t1 19.5q12 86 73 98q143 31 213 31q18 0 23 10v-2q88 270 145 414q4 12 4 16q0 2 -2 4q-16 10 -112 37q-53 12 -92 20.5t-64 10.5h-18q-47 0 -85 -19.5t-53 -48.5q-6 -10 -6 -20q0 -8 2 -16q0 -4 1 -9.5t1 -7.5q0 -41 -49 -43h-8 q-37 0 -65 29q-35 31 -35 84v8q6 156 155 205h-2q35 16 87.5 21t117.5 5h53q63 -2 132 -13t141 -34q53 -14 95 -30.5t71 -30.5q27 -16 26 -47q0 -12 -1 -15.5t-1 -5.5q-41 -121 -89 -260t-97 -286q2 0 2 -2v0q0 -2 12 -3h-2q41 -6 77 -15t69 -26q35 -12 34 -53v-8t-4 -14z M1309 537q4 10 4 14v14q0 55 -49 74l2 -2q-61 27 -138 39q47 143 92.5 274t84.5 248q2 8 3 13.5t1 19.5q0 41 -37 63q-29 14 -72 30.5t-100 33.5h2q-76 23 -145.5 35t-131.5 14h-53q-68 0 -122 -6t-89 -21h2q-160 -57 -168 -225v-8q0 -57 41 -98q35 -35 78 -35h10 q66 6 66 63q0 2 -1 6t-1 9q-2 8 -2 18t2 12q12 23 46 39.5t77 16.5h16q27 -2 63.5 -9.5t88.5 -19.5q37 -10 61.5 -17.5t36.5 -11.5q-2 -2 -2 -4q-55 -139 -141 -411q-2 2 -7 2q-37 0 -91 -7.5t-126 -23.5h2q-78 -14 -90 -115q-2 -10 -3 -18t-1 -19q0 -25 8 -37 q16 -35 54 -34h14q96 23 151 22h7l-19 -59q-8 -23 -16 -44.5t-15 -45.5l3 4q-63 -152 -142 -248q-102 -119 -217 -127h-16q-127 0 -146 82q-8 31 -21 48t-42 17h-10q-4 0 -15 -4h4h-6q-94 -31 -94 -149q0 -160 225 -225h-2q51 -14 121 -15q262 0 438 207q145 164 254 510 q8 23 4 27q10 0 20.5 -2t22.5 -7q0 -4 -1 -8t-1 -8q-2 -6 -4 -14t-6 -19q-4 -16 -8 -29.5t-10 -29.5q0 -2 -1 -7t-1 -7q0 -49 77 -64q20 -4 37 -4q4 0 10.5 1t10.5 1q45 6 57 63h-2q18 68 35.5 121.5t32.5 94.5v2zM1122 657q0 2 2 5q0 -3 -2 -5z" />
<glyph unicode="G" horiz-adv-x="1114" d="M1083 819q2 4 2 17q0 41 -59 61q-27 10 -45 10q-23 0 -37 -24q-37 -74 -143 -174q-127 -123 -215 -123q-20 0 -41 10q-63 27 -64 106q0 37 14.5 85.5t45.5 107.5q16 31 32.5 60.5t32.5 60.5q8 20 51 31q45 8 102.5 27.5t127.5 53.5q135 61 135 136q0 14 -6 36 q-18 59 -117 60q-55 0 -129 -23q-96 -29 -190 -131q-37 -20 -60 -24q-176 -29 -278 4q-4 2 -15 2q-37 0 -32 -72q4 -63 71 -94q55 -29 105 -21q37 6 37 -10q0 -4 -2.5 -12t-10.5 -18q-125 -195 -125 -353q0 -113 80 -164q63 -43 142 -43q82 0 182 54q23 16 46 32.5t48 32.5 q25 14 31 15q6 0 6 -9l-4 -16q-92 -309 -160 -410q-102 -158 -291 -170q-74 -6 -129 22t-71 68q-20 53 -37 54q-8 0 -33 -11q-41 -23 -41 -106q0 -82 47 -117q102 -88 266 -88q211 0 351.5 117t207.5 342q106 368 172 608zM1104 813q-35 -121 -78 -271.5t-96 -336.5 q-70 -233 -215.5 -353t-362.5 -120q-166 0 -278 92q-55 43 -56 133q0 96 52 123q23 14 43 14q29 0 53 -69v2q12 -35 56 -56.5t104 -21.5h22q178 14 279 162v-2q29 47 66.5 146t84.5 251q0 -2 -2 -2v0q-23 -16 -48.5 -33.5t-47.5 -34.5q-94 -53 -188 -53q-80 0 -152 47 q-88 57 -88 178q0 166 127 365q4 4 8 12q-4 0 -6 -1t-6 -1q-6 -2 -15 -2h-12q-41 0 -90 23q-78 39 -82 112v10q0 80 51 80q10 0 21 -4v2q59 -16 125 -16q31 0 67.5 4t79.5 8q6 2 19.5 6t29.5 17l-2 -2l2 2l2 2l-2 -2q94 100 195 135q35 10 69.5 15t65.5 5q117 0 135 -71 q6 -23 6 -43q0 -84 -145 -152q-143 -72 -233 -84q-31 -10 -39 -27q-12 -23 -22.5 -42t-25.5 -41v2q-4 -10 -9 -17.5t-9 -17.5q-57 -119 -57 -183q0 -66 51 -90l16 -4t19 -2q82 0 202 117q53 47 87 90t53 80q20 35 53 35q16 0 51 -15q74 -25 74 -77q0 -12 -4 -23h2zM1120 807 q4 10 4 14v15q0 70 -86 98h2q-35 14 -59 14q-47 0 -70 -47q-18 -33 -51 -74t-86 -90q-115 -113 -188 -112q-14 0 -27 6q-39 20 -39 71q0 33 13.5 77t41.5 98q4 10 9.5 17t9.5 15l-2 -2q12 23 26.5 47.5t24.5 46.5q0 2 19 7q47 8 106 29.5t135 56.5q156 74 156 170 q0 16 -6 47q-27 88 -154 88q-61 0 -141 -25q-104 -31 -207 -139l10 6q-14 -10 -26.5 -14t-18.5 -6q-41 -6 -78 -10.5t-65 -4.5q-66 0 -119 17q-10 4 -14 4h-13q-72 0 -71 -101v-10q4 -90 94 -129q27 -12 50.5 -19t47.5 -7q-115 -184 -115 -353q0 -137 95 -196 q76 -49 164 -50q92 0 192 54l61 43q-80 -250 -137 -338q-45 -72 -110.5 -108t-151.5 -44h-20q-53 0 -92 17.5t-50 46.5q-27 80 -71 80q-18 0 -52 -17l2 2q-63 -37 -63 -141q0 -98 63 -147h-2q57 -49 131 -73t160 -24q223 0 374 124t220 362q55 186 98 338.5t76 271.5v-2z " />
<glyph unicode="H" horiz-adv-x="1443" d="M1534 1169q6 20 6 43q0 41 -29.5 69t-70.5 28q-127 0 -287 -279q-47 -92 -75.5 -156.5t-41.5 -101.5q-23 -43 -53 -43h-25q-20 0 -57 2q-35 2 -53 2h-23q-16 -2 -28 6q-10 8 0 31q63 172 99 281.5t46 156.5q8 51 -39 70q-66 25 -156 36t-204 11q-57 0 -97 -5t-67 -20 q-131 -70 -131 -155q0 -55 41 -55q18 0 35 32q25 55 188 56q111 0 160 -16.5t49 -28.5q0 -8 -6 -21q-35 -104 -68 -199.5t-61 -183.5q-18 -27 -41 -27q-72 -6 -191 -59q-164 -70 -239 -186q-74 -115 -74 -213t64.5 -155.5t162.5 -57.5q131 0 236 106q45 45 84 108.5 t74 145.5q14 29 28.5 72t34.5 100q10 35 53 35h160q23 -10 16 -35q-35 -178 -51 -271t-16 -106q10 -57 31 -75q80 -80 280 -80q29 0 53.5 2t46.5 6q68 10 132 47q16 10 30.5 23.5t28.5 27.5q12 12 14 43q4 41 -10 76q-8 18 -14 4q-20 -27 -47 -49.5t-54.5 -38.5t-54.5 -26.5 t-47 -10.5q-31 -2 -56.5 1t-45.5 7q-76 16 -76 76q0 74 121 447q41 121 72.5 205.5t60.5 138.5q18 37 43 37q39 0 75 30q48 33 64 92zM504 520q-14 -53 -34.5 -103t-49.5 -98q-72 -127 -146 -126q-74 0 -73 63q0 66 94 160q49 47 94 77.5t92 45.5q14 6 21 2q4 -7 2 -21z M403 328q25 47 44.5 93t35.5 97q-84 -27 -174 -117t-90 -145q0 -43 55 -43q61 0 129 115zM1554 1165q-14 -63 -73 -104q-41 -35 -86 -35q-8 0 -27 -27q-53 -102 -129 -340q-121 -373 -121 -440q0 -43 60 -57q16 -4 35.5 -6t39.5 -2h23q35 2 90 34.5t94 81.5q6 10 13.5 12.5 t11.5 2.5q10 0 17 -5.5t11 -21.5l-2 2q10 -29 11 -63v-19q-4 -41 -19 -55q-16 -16 -31.5 -29.5t-31.5 -23.5q-31 -18 -67 -32.5t-70 -19.5q-43 -6 -105 -6q-205 0 -295 84q-27 27 -35 86v6q0 20 15.5 114.5t50.5 262.5l1 1t1 5q0 2 -1 3t-1 4h-156q-27 0 -37 -21 q-39 -119 -61 -174q-35 -84 -76 -148.5t-86 -111.5q-111 -111 -250 -111q-109 0 -178.5 62.5t-69.5 169.5q0 53 20.5 107.5t57.5 113.5q76 119 248 197q59 29 109.5 42t87.5 17l12 4t12 10q29 88 62 182.5t67 198.5q4 12 4 17q0 8 -43 16t-145 8q-152 0 -172 -43 q-16 -43 -51 -43q-61 0 -62 74q0 102 144 174q51 27 172 27q233 0 368 -52h-2q55 -18 56 -71q0 -4 -1 -9.5t-1 -9.5q-23 -92 -152 -448v-2q-2 0 -2 2q0 -2 2 -4h6h8h23q18 0 53 -2q37 -2 57 -2h25q18 0 35 32v-2q16 41 45 105.5t72 154.5q166 289 305 289q51 0 85 -31.5 t34 -83.5q0 -14 -1.5 -26t-3.5 -23v2zM1571 1159q8 27 8 53q0 59 -40 97.5t-99 38.5q-150 0 -322 -301q-47 -92 -76.5 -158t-42.5 -103l2 2q-8 -20 -18 -20h-25q-18 0 -55 2q-27 2 -41 2h-22q61 166 96 273.5t45 154.5q0 4 1 11.5t1 11.5q0 68 -65 92q-70 27 -163 38 t-212 11q-129 0 -181 -29q-154 -74 -153 -190q0 -94 80 -94q45 0 69 57v-2q14 33 154 33q92 0 131 -2t39 -4l-1 -3q-1 -4 -3 -8q-35 -102 -66.5 -195t-60.5 -184q-4 -4 -10 -4q-37 -2 -88.5 -17t-114.5 -44q-174 -76 -256 -201q-80 -123 -80 -233q0 -117 75 -184.5 t191 -67.5q145 0 264 119q94 96 164 264q16 35 30.5 78t35.5 98q2 8 16 8h135q-66 -334 -65 -371v-8q4 -35 15 -58.5t26 -37.5q94 -92 309 -92q31 0 58.5 2t50.5 6q74 10 143 53q16 10 32.5 24.5t35.5 33.5q20 20 24 65v21q0 20 -2 37.5t-10 33.5v-4q-6 23 -16.5 31t-28.5 8 q-6 0 -19.5 -3t-23.5 -19q-35 -45 -84 -75t-82 -32h-23q-18 0 -36.5 2t-34.5 6v-2q-45 10 -45 39q0 35 29.5 143.5t88.5 290.5q41 117 72 201t59 137l9 17q53 0 100 39h-2q60 40 78 112zM387 338q-63 -106 -113 -107q-35 0 -34 25q0 49 84 133q72 70 131 98 q-12 -41 -30 -76.5t-38 -72.5zM817 772h2h-2zM553 750q-2 -2 -2 -7z" />
<glyph unicode="I" horiz-adv-x="847" d="M827 827q49 223 50 344q0 188 -113 220q-23 8 -53 8q-119 0 -258 -133q-123 -123 -203 -299q-57 -123 -57 -283q0 -143 51 -246q53 -113 164 -153q33 -6 10 -33q-33 -33 -56.5 -54.5t-39.5 -31.5q-57 -39 -119 -39q-106 0 -142 84q-10 18 -24 18q-53 0 -53 -94 q0 -66 41 -108q53 -59 168 -68q223 -18 368 168q155 194 266 700zM680 1188q-4 -121 -68 -379q-33 -131 -61.5 -225.5t-54.5 -157.5q-12 -27 -23 -27q-4 0 -12 2t-19 11q-74 43 -73 215q0 63 11 125.5t36 128.5q20 53 42.5 102t47.5 98q82 156 141 156q35 0 33 -49z M662 1196q0 23 -15 23q-23 0 -54.5 -37t-70.5 -111q-53 -100 -90 -199q-45 -121 -45 -245q0 -162 64 -199q14 -10 22 -10q-2 0 4 16q27 59 54.5 152.5t62.5 228.5q63 260 68 373v8zM846 823q-111 -510 -271 -708q-139 -176 -346 -176h-20q-8 0 -19 2q-121 6 -178 73 q-49 49 -49 121q0 113 74 113q27 0 41 -29q31 -74 125 -74q57 0 108 35h-2q31 23 92 84v2q-113 39 -174 166v-2q-29 53 -41 116.5t-12 137.5q0 162 57 289q80 182 209 305q141 141 271 141q33 0 59 -10v2q125 -37 125 -240q0 -125 -49 -348zM864 819q49 223 49 352 q0 215 -139 256h2q-27 10 -65 11q-135 0 -285 -146q-129 -129 -211 -311q-59 -135 -59 -297q0 -150 53 -262q55 -117 162 -164q-23 -20 -40.5 -35.5t-29.5 -23.5q-47 -33 -98 -33q-84 0 -109 61q-18 41 -57 41q-92 0 -92 -133q0 -76 51 -133q61 -70 190 -82q10 -2 21 -2h22 q215 0 363 182q157 205 272 719zM641 1188q0 -113 -66 -371q-33 -127 -60.5 -220t-53.5 -155v2q-55 33 -55 183q0 59 11 118.5t34 120.5q35 92 90 195q70 135 102 137l-2 -2v-8z" />
<glyph unicode="J" horiz-adv-x="1159" d="M1217 182q2 18 -0.5 38t-10.5 38q-6 18 -14 6q-20 -27 -48 -50.5t-56.5 -39.5t-57.5 -26.5t-51 -10.5q-111 0 -141 19q-18 6 -13 26q20 61 40 123t42 123q37 117 62.5 213t38.5 174q23 131 34 212t11 114q0 205 -183 205q-141 0 -286 -119q-152 -123 -207 -295 q-45 -137 -45 -254q0 -186 127 -283q68 -49 151 -61q31 -6 25 -35q-10 -29 -17.5 -50.5t-11.5 -37.5q-16 -41 -39 -41q-43 0 -90 -4t-98 -10q-172 -29 -256 -88q-61 -41 -96 -107q-43 -74 -43 -143q0 -47 20 -82q61 -111 215 -111q102 0 205 49q125 59 229 199 q25 33 46.5 71t43.5 79q8 20 37 20q-6 0 5.5 -1t41.5 -3q123 -12 187 0q111 18 188 100q13 12 15 43zM858 1102q-4 -33 -21.5 -103.5t-45.5 -185.5q-31 -117 -52.5 -193.5t-38.5 -117.5q-8 -20 -13 -30.5t-7 -14.5q-8 -12 -31 -8q-117 27 -117 194q0 53 13 115 q10 49 33.5 107.5t62.5 127.5q70 127 102 154q39 33 74 33q51 0 41 -78zM502 -2q-55 -109 -158 -178q-74 -49 -123 -49q-37 0 -65 28q-14 20 -15 43q0 70 97 123q94 49 221 74q10 2 26 2q25 0 25 -16q0 -11 -8 -27zM483 6q8 20 9 19q-2 -2 -7 -2q-12 0 -22 -3 q-61 -12 -115.5 -31.5t-101.5 -41.5q-86 -49 -86 -105q0 -18 10 -28q16 -23 51 -23q23 0 49.5 10.5t61.5 34.5q100 66 151 172v-2zM772 819q29 111 45.5 182.5t20.5 100.5q0 6 1 12t1 10q0 35 -23 35q-29 0 -61 -26q-16 -14 -40 -52.5t-57 -97.5q-76 -133 -94 -229 q-14 -57 -14 -111q0 -154 102 -174h13l-2 -4l7 14t11 31q16 35 37.5 110.5t52.5 198.5zM1235 180q-4 -41 -18 -55q-43 -43 -93.5 -69.5t-105.5 -35.5q-31 -6 -82 -6q-49 0 -111 6q-25 2 -32 3h-19q-10 0 -12 -9q-23 -41 -44.5 -79.5t-47.5 -73.5q-106 -139 -238 -203 q-53 -29 -106.5 -40t-106.5 -11q-164 0 -233 119q-23 41 -23 92q0 76 47 153q39 70 105 111h-2q47 33 111.5 56.5t152.5 35.5q49 8 97 12t93 4q10 0 21 27h-2q4 16 12 40t18 52l-10 4q-43 8 -83 23.5t-77 44.5q-135 98 -135 297q0 113 49 260q59 176 213 303 q150 125 297 125q201 0 201 -225q0 -70 -43 -330q-12 -72 -38.5 -169t-63.5 -220q-23 -61 -43.5 -126t-42.5 -126l2 4l2 -1t8 -3q14 -8 45 -10t82 -2q20 0 47 9t53.5 24.5t51 37t43.5 45.5q6 10 13 12.5t11 2.5q10 0 17.5 -5t11.5 -22l-2 2q6 -16 8 -32.5t2 -30.5v-21z M1255 178v23q0 18 -2 35.5t-10 35.5v-4q-6 23 -16 31t-29 8q-6 0 -19.5 -3t-21.5 -19q-37 -47 -88 -78t-90 -31q-88 0 -113 8q18 57 38 114.5t40 115.5q37 119 62.5 217t40.5 178q23 131 34 214t11 118q0 244 -222 243q-76 0 -154.5 -30.5t-156.5 -96.5q-162 -131 -217 -313 q-49 -147 -49 -266q0 -207 143 -313q35 -27 75 -43.5t81 -26.5q-10 -23 -14.5 -40t-8.5 -30q-4 -8 -4 -12v-4q-45 0 -92 -4t-98 -10q-174 -27 -273 -97v2q-66 -43 -108 -120q-49 -80 -49 -162q0 -53 24 -103q70 -129 250 -129q111 0 223 54h-2q72 35 131.5 86t112.5 122 q51 70 92 156q10 -2 19 -2q8 0 30 -2h-2q63 -6 113 -6q55 0 86 6h-2q119 20 211 113q20 20 24 65zM754 823q-29 -111 -51.5 -187.5t-38.5 -119.5q-4 -10 -6.5 -16t-6.5 -13q-80 25 -80 156q0 25 2 51.5t9 53.5q10 47 32.5 103t59.5 122q33 59 55.5 96t40.5 49q23 23 47 23 q4 0 4 -17q0 -4 -1 -10t-1 -10q-6 -37 -22 -107t-43 -174zM322 -147q-66 -43 -101 -43q-20 0 -37 16q-4 4 -4 16q0 41 76 88h-2q82 45 203 70q-49 -90 -135 -147zM860 164q0 4 2 6q0 -2 -1 -3t-1 -3zM647 477q0 2 2 4q-2 -2 -2 -4v0zM645 473l2 4q-2 -2 -2 -4v0z" />
<glyph unicode="K" horiz-adv-x="1542" d="M1671 1227q6 20 6 39q0 41 -35 43h-104q-59 0 -86 -39q-23 -35 -75 -102.5t-134 -172.5q-90 -117 -143 -177t-72 -70q-23 -14 -45 -15q-23 0 -22 25q0 18 8 37q53 166 79.5 262t26.5 121q0 41 -13 63.5t-58 38.5q-109 37 -265 37q-72 2 -137 -10.5t-114.5 -36t-79 -56 t-27.5 -71.5q0 -29 20.5 -58.5t51.5 -29.5q41 0 51 41q20 70 147 69q104 0 166 -24q33 -16 23 -47q-61 -246 -148 -428q-61 -133 -95 -205t-42 -82q-102 -174 -229 -184q-98 -6 -146 26l-57 58q-23 23 -53 22q-51 0 -47 -86q6 -176 313 -176q137 0 233 63q139 90 254 336 q33 74 64 82q23 8 41 16.5t39 22.5q8 4 21 14.5t34 26.5q14 10 31 10q55 0 55 -57q0 -18 -39 -133q-43 -141 -47 -150q-6 -31 -6 -61q0 -180 260 -180q57 0 122.5 8t129.5 49q14 10 28.5 22.5t30.5 28.5q12 12 15 43q4 41 -11 76q-6 14 -14 4q-39 -53 -107 -90 q-61 -33 -98 -35q-158 -10 -158 62q0 23 9 41q47 129 71.5 210.5t26.5 116.5q4 66 -41 103q-39 33 -88 39q-33 2 -33 16q0 10 29 29q49 35 113.5 87t146.5 126q198 180 223 262zM1692 1221q-29 -86 -232 -271q-82 -76 -146.5 -128t-115.5 -87q-4 -2 -10 -8h6q53 -6 96 -43 q27 -20 38 -48t11 -63v-8q-2 -35 -27.5 -119t-72.5 -217q-4 -20 -4 -32q0 -43 106 -43h31q37 2 88 34q31 16 56.5 36t42.5 46q6 10 14 12.5t12 2.5q10 0 16.5 -5.5t10.5 -21.5l-2 2q8 -16 10 -31.5t2 -31.5v-19q-4 -39 -20 -55q-31 -31 -64 -51q-68 -43 -135.5 -52.5 t-126.5 -9.5q-281 0 -281 199q0 39 6 63q4 6 15.5 44t34.5 110q18 59 28.5 91t10.5 36q0 39 -37 39q-12 0 -19 -6q-4 -2 -12 -11l2 3q-16 -12 -28.5 -21.5t-18.5 -13.5q-23 -14 -42.5 -24.5t-43.5 -18.5q-10 -4 -23.5 -20.5t-25.5 -49.5q-119 -246 -260 -344 q-109 -68 -246 -68q-326 0 -334 197v8q0 98 68 99q37 0 67 -31q14 -14 28.5 -27.5t29.5 -30.5l-5 3q33 -20 103 -21h31q113 8 215 174q8 16 41.5 85t93.5 198q41 92 77.5 197.5t67.5 228.5q2 4 2 10q0 8 -12 14q-53 23 -158 23q-113 0 -127 -55q-14 -53 -71 -54 q-39 0 -65 36t-26 71v2q0 41 29 76.5t78 61.5t113.5 40t136.5 14h20q154 0 271 -41q53 -18 69.5 -44.5t16.5 -73.5q0 -29 -26 -124.5t-79 -254.5q-8 -16 -10 -26.5t-2 -14.5q0 -6 4 -6q8 0 37 14q33 18 209 242q84 104 136 173.5t71 98.5q31 47 102 47h107q53 -4 53 -61 q0 -25 -6 -45zM1710 1217q6 31 6 49q0 76 -69 82h-109q-43 0 -71.5 -14.5t-49.5 -43.5q-47 -72 -205 -272q-172 -217 -202 -238q-8 -4 -9 -4l5 8q55 170 81.5 268.5t26.5 125.5q0 55 -17.5 85.5t-78.5 53.5q-115 39 -279 39h-20q-76 0 -143.5 -16.5t-120 -44t-83 -66.5 t-30.5 -84v-2q0 -23 8 -45.5t23.5 -41t36 -29.5t43.5 -11q68 0 90 69v-2q8 43 108 43q98 0 152 -20h-2q2 -2 2 2v4q-31 -125 -67 -232.5t-79 -199.5q-61 -131 -94 -200.5t-41 -82.5q-94 -156 -198 -164h-31q-29 0 -51.5 4.5t-38.5 14.5q-10 12 -24.5 26.5l-26.5 26.5 q-39 35 -82 35q-88 0 -88 -117v-10q8 -213 354 -213q152 0 254 70q150 100 268 354q29 55 39 59q25 8 46.5 18.5t43.5 26.5q6 4 19.5 12.5t29.5 22.5q2 0 3 1t3 1q6 6 11 6q16 0 16 -18q0 -10 -37 -123q-41 -137 -45 -141q-6 -25 -8 -44.5t-2 -35.5q0 -219 299 -219 q61 0 131 9t141 54q16 10 31.5 24.5t36.5 33.5q20 20 24 65v21q0 20 -2 37.5t-10 33.5v-4q-4 23 -15 31t-28 8q-8 0 -21.5 -3t-21.5 -21q-33 -43 -90 -76v2q-55 -29 -84 -31h-27q-88 0 -88 23q0 10 7 26q47 131 72.5 216t27.5 126v8q0 78 -55 125q-16 12 -33 21.5t-35 15.5 q96 72 238 201q205 186 235 278v3z" />
<glyph unicode="L" horiz-adv-x="1298" d="M1356 180q4 41 -10 76q-8 18 -15 4q-39 -51 -106 -90q-61 -33 -97 -35q-102 -2 -196 35q-35 16 -69 34.5t-62 43.5q-12 8 0 28q49 78 108 248q29 80 49.5 153t30.5 138q8 35 27 41q233 61 319 215q29 53 29 103q0 82 -61 131q-41 35 -105 34q-61 0 -124.5 -31.5 t-98.5 -78.5q-90 -115 -125 -219q-8 -27 -47 -15q-96 41 -111 78q-4 14 -10 25.5t-10 23.5q-10 16 -27 19q-29 2 -44 -31t-15 -74q0 -66 63 -114q53 -41 125 -58q29 -6 21 -33q-18 -53 -36 -108t-36 -109q-35 -98 -55.5 -155.5t-30.5 -73.5q-12 -20 -23 -10q-29 29 -120 59 q-57 23 -110.5 32t-100.5 5q-49 -2 -94.5 -19.5t-86.5 -48.5q-88 -66 -84 -165q6 -186 295 -209q104 -8 215 28q51 20 90 44t68 55q12 16 39 0q86 -66 168 -95.5t178 -29.5q164 0 270 106q13 12 15 43zM1214 1268q57 0 58 -60q0 -49 -51 -106q-57 -59 -150 -98 q-18 -8 -29 -3q-8 8 -4 25q16 76 64 150q59 92 112 92zM555 233q-29 -35 -104 -69q-82 -35 -142 -33q-170 10 -170 113q0 115 166 110q86 -4 158 -32q16 -8 36.5 -20.5t49.5 -31.5q24 -17 6 -37zM1214 1247q-45 0 -96 -82q-45 -70 -61 -141v2q0 -2 -1 -3t-1 -3q4 0 8 2 q88 37 143 94q47 53 47 92t-39 39zM545 250l-2 1t-6 5q-53 35 -82 47q-35 16 -72 22.5t-78 8.5h-6q-139 0 -139 -90q0 -86 149 -92h10q57 0 125 30q63 27 97 64zM1374 178q-4 -41 -18 -55q-115 -111 -285 -111q-98 0 -184 31t-174 96q-4 4 -11 4h-2q-55 -61 -165 -102 q-45 -18 -90.5 -25.5t-90.5 -7.5h-22t-21 2q-303 18 -313 228v6q0 104 92 176q88 66 191 72h24q47 0 96.5 -9.5t100.5 -29.5h-2q43 -16 72.5 -30.5t48.5 -27.5q10 23 30.5 78t53.5 148l59 174h-2q4 10 5 19t5 20q4 8 4 10h-2l-4 2q-37 6 -70.5 21.5t-62.5 37.5 q-72 53 -72 131q0 47 21.5 86t56.5 39h4q29 -2 41 -28q2 -4 4 -12.5t4 -12.5v2l13 -29q18 -35 102 -67q12 -4 16 -4l4 6q16 53 48 108.5t79 114.5q41 49 108 85t132 36q68 0 117 -39q68 -53 67 -147q0 -57 -30 -113q-88 -158 -330 -223q-6 -2 -12 -27q-20 -119 -84 -293 q-33 -90 -60.5 -151.5t-50.5 -100.5l2 2l-4 -8q29 -25 60.5 -42t66.5 -30q78 -33 174 -32h12q35 0 88 32q31 16 56.5 37t42.5 45v-2q6 12 13 14.5t11 2.5q10 0 17.5 -4.5t11.5 -20.5h-2q10 -29 10 -63v-19zM1395 176v21q0 20 -2 37.5t-11 33.5v-4q-6 23 -16 31t-29 8 q-6 0 -19 -3t-22 -21l4 6q-35 -49 -96 -82v2q-49 -29 -78 -31h-12q-45 0 -87 8t-83 25l2 -2q-29 12 -54.5 26.5t-51.5 32.5q25 41 50 101.5t54 144.5q31 84 52.5 157.5t31.5 139.5h-2q2 10 0 12q248 63 344 234h-2q35 63 35 121q0 98 -76 163q-53 41 -129 41 q-35 0 -70.5 -10t-69.5 -26.5t-63.5 -40t-50.5 -50.5q-90 -115 -127 -219q-41 16 -63.5 29.5t-26.5 28.5l2 -3l-12 29v-2q-2 4 -5 12.5t-5 12.5q-18 35 -56 41h-8q-43 0 -69.5 -45t-26.5 -99q0 -88 78 -147q29 -23 60.5 -37t68.5 -25q-4 -8 -6.5 -14t-4.5 -12l-57 -174 q-27 -76 -45 -126t-29 -77q-18 10 -43.5 23.5t-60.5 23.5q-51 23 -102.5 31t-100.5 8h-24q-113 -6 -201 -76q-100 -76 -100 -190v-8q6 -221 331 -246h-4q10 -2 23 -2h24q98 0 189 32q98 37 162 101q90 -66 178 -97.5t188 -31.5q180 0 299 119q21 20 25 65zM436 199 q-68 -29 -117 -29h-8q-133 10 -133 74q0 72 121 71h6q39 -2 75 -8t66 -20q10 -6 26.5 -15.5t41.5 -25.5q-14 -12 -33.5 -23.5t-44.5 -23.5zM1214 1229q18 0 19 -21q0 -37 -39 -78q-43 -47 -107 -77q6 25 18.5 49t29.5 53q50 74 79 74zM825 279q4 -4 4 -7l-2 2q0 3 -2 5z M760 852q-2 -2 -2 -8q0 4 2 8z" />
<glyph unicode="M" horiz-adv-x="2101" d="M2161 180q4 41 -11 76q-8 18 -14 4q-37 -51 -108 -90q-63 -35 -99 -35q-145 0 -178 70q-16 33 21 121q289 659 309 743q4 25 7 47.5t3 44.5q0 158 -156 158q-137 0 -264 -113q-68 -61 -201 -227q-39 -47 -76.5 -96t-76.5 -97q-20 -23 -31 -22q-4 0 -4 6q0 10 8 25 q33 70 64.5 150.5t60.5 174.5q8 25 8 49q0 66 -50 107t-122 41q-88 0 -166 -57q-51 -35 -107 -98.5t-122 -153.5q-35 -51 -69.5 -102.5t-69.5 -104.5q-29 -41 -29 -6q0 10 6 34q8 27 15.5 52.5t15.5 50.5q10 47 16.5 87t6.5 77q0 203 -197 221q-10 2 -21 2h-20 q-147 0 -260 -86q-109 -86 -141 -211q-16 -55 -22.5 -101.5t-6.5 -82.5q0 -104 55 -166q18 -23 60 -23q86 0 86 51q0 14 -13 31q-31 39 -30 127q0 82 32 156q66 150 193 149q10 0 22.5 -1t22.5 -3q74 -16 74 -115q0 -49 -19 -129q-68 -272 -307 -833q-2 -4 -2 -10 q0 -35 96 -35q80 0 119 39q51 100 101.5 200.5t101.5 200.5q205 408 323 533q115 127 187 127q55 0 55 -68q0 -18 -6 -43q-35 -131 -203 -506q-47 -104 -93 -206.5t-93 -207.5q-6 -18 -6 -28q0 -37 86 -39q66 -4 99.5 8t55.5 59q41 94 95.5 197t119.5 219q211 360 414 551 q72 66 131 66q43 0 43 -47q0 -29 -18 -72q-143 -315 -219 -490.5t-87 -216.5q-12 -49 -12 -88q0 -131 174 -176q115 -33 236 -10q109 18 192 98q13 12 15 43zM2181 178q-4 -39 -20 -55q-88 -86 -203 -105q-49 -6 -100 -6q-37 0 -74 3t-72 14q-186 49 -186 196q0 43 12 92 q10 39 85 216.5t220 494.5q18 39 19 64q0 27 -25 26q-57 0 -117 -59q-203 -186 -409 -547q-139 -233 -215 -414q-25 -47 -54.5 -64.5t-83.5 -17.5q-10 0 -18 1t-18 1q-106 2 -107 60q0 16 10 37q23 51 46.5 102t46 104.5t46 103.5t46.5 103q82 186 132 312.5t70 191.5v-2 q4 10 5 19v20q0 47 -35 47q-63 0 -174 -119q-111 -123 -320 -528q-49 -100 -100 -201q-25 -51 -51.5 -103t-51.5 -102q-47 -47 -135 -47q-115 0 -114 56q0 10 4 16q119 281 194.5 486.5t108.5 345.5q20 76 20 124q0 84 -59 97h2q-10 2 -21.5 3t-21.5 1q-113 0 -174 -137 q-33 -78 -33 -150q0 -80 29 -117q14 -14 14 -41q0 -70 -104 -69q-53 0 -76 28q-59 66 -60 179q0 76 29 190v-2q33 127 152 223q119 90 270 90h20q12 0 23 -2q215 -23 215 -241q0 -78 -25 -170q-8 -23 -13 -44.5t-11 -43.5q29 45 59.5 90t61.5 90q66 92 123 155.5t110 102.5 q86 61 178 61q82 0 136.5 -47t54.5 -121q0 -25 -8 -55q-23 -76 -48.5 -145.5t-56.5 -134.5q12 16 24.5 30.5t24.5 30.5q18 25 38 48.5t38 47.5q135 168 202.5 227.5t136.5 90t142 30.5q176 0 176 -178q0 -45 -12 -96q-23 -86 -309 -746q-25 -59 -25 -90v-12q35 -63 164 -63 q29 0 88 34q66 37 101 82q6 10 13 12.5t11 2.5q10 0 17.5 -5.5t11.5 -21.5l-2 2q8 -16 10 -31.5t2 -31.5v-19zM2200 176v21q0 43 -11 71v-4q-6 23 -17 31t-30 8q-6 0 -19.5 -3t-23.5 -21q-16 -23 -39.5 -41.5t-52.5 -34.5q-51 -29 -78 -29q-119 0 -145 51q2 -2 2 4 q0 23 24 82h-2q145 332 222 518.5t88 229.5q14 55 14 102q0 197 -197 197q-152 0 -288 -123q-35 -31 -86.5 -88t-122.5 -143q-10 -14 -20.5 -26.5t-20.5 -25.5q16 39 28.5 78t26.5 80q6 16 8 29.5t2 29.5q0 84 -60.5 135.5t-150.5 51.5q-100 0 -190 -66q-104 -76 -236 -262 q-14 -20 -28.5 -39.5t-26.5 -40.5q10 43 13 79t3 69q0 240 -231 260h2q-10 2 -25 2h-22q-80 0 -152.5 -23.5t-132.5 -70.5q-119 -92 -153 -232q-33 -117 -33 -194q0 -117 65 -191q37 -37 91 -37q125 0 124 90q0 27 -20 54q-23 33 -23 104q0 35 8.5 70t22.5 71h-2 q59 125 158 125q6 0 17.5 -1t21.5 -3h-2q43 -10 43 -76q0 -49 -19 -118q-33 -135 -108.5 -342t-194.5 -488v2q-4 -10 -5 -16t-1 -10q0 -74 135 -74q94 0 154 55q25 49 50.5 101.5t51.5 103.5q25 51 50.5 101.5t50.5 101.5q207 408 317 524q106 113 158 113q16 0 16 -29 q0 -16 -4 -33q-18 -61 -66.5 -186t-134.5 -315q-25 -53 -47 -103.5t-47 -103.5q-23 -53 -46.5 -104.5t-45.5 -102.5v2q-8 -12 -10 -23.5t-2 -21.5q0 -74 125 -78q10 0 19 -1t19 -1q63 0 96 19.5t58 72.5q41 94 94.5 196.5t118.5 215.5q104 178 205.5 313t204.5 227 q57 57 102 58q4 0 4 -8q0 -25 -16 -56q-285 -635 -305 -712q-14 -55 -15 -99q0 -158 203 -213q74 -20 150 -20q27 0 53 2t51 6h-2q123 23 215 111q21 18 25 65z" />
<glyph unicode="N" horiz-adv-x="1499" d="M1556 180q4 41 -10 76q-6 14 -14 4q-37 -51 -109 -90q-59 -35 -94 -35q-55 0 -100 25q-47 33 -47 88q0 23 6 47q4 14 38 108.5t95 274.5q53 158 84 253t41 128q12 49 12 92q0 123 -106 154q-18 4 -36 7t-38 3q-158 0 -322 -182q-61 -72 -120.5 -161t-114.5 -200 q-6 -23 -23 -22q-8 0 -8 12q0 6 4 18q55 166 56 281q0 193 -150 242q-55 18 -108 18q-164 0 -314 -193q-100 -131 -100 -294q0 -111 65 -179q35 -35 76 -34q61 0 62 47q0 6 -4.5 18t-10.5 28.5t-10 34t-4 33.5q0 115 74 267q49 100 147 100q117 0 117 -141q0 -84 -41 -207 q-27 -78 -69 -186.5t-101 -247.5q-47 -111 -79 -184.5t-50 -108.5q-8 -14 -8 -23q0 -27 73 -28q119 -2 170 98q113 231 285 514q223 367 348 473q47 41 82 41q57 0 57 -66q0 -6 -4 -18q-123 -297 -189.5 -482.5t-76.5 -269.5q-6 -43 -6 -75q0 -109 88 -158q86 -49 195 -49 q23 0 44 2t44 6q111 18 190 98q12 12 14 43zM1577 178q-4 -39 -21 -55q-86 -86 -200 -105q-43 -6 -92 -6q-57 0 -108.5 11.5t-96.5 37.5q-98 55 -98 177q0 35 6 77q12 86 78.5 272.5t189.5 485.5q0 2 1 4t1 6q0 45 -37 45q-29 0 -67 -36q-127 -109 -345 -467 q-88 -145 -160.5 -272.5t-125.5 -239.5q-55 -109 -178 -109h-9q-47 2 -70.5 11.5t-23.5 35.5q0 16 10 33q23 41 53.5 113.5t77.5 177.5q59 139 100.5 246.5t67.5 185.5q39 111 39 201q0 121 -96 120q-88 0 -131 -88q-72 -143 -72 -258q0 -12 7.5 -34.5t13.5 -42.5l-2 2 q10 -31 10 -39q0 -66 -80 -66q-51 0 -88 39q-72 78 -72 193q0 168 105 307q150 199 328 198q53 0 112 -18q164 -55 164 -260q0 -47 -8 -105.5t-31 -126.5q53 98 105.5 175t107.5 143q168 186 336 186q23 0 41 -2t37 -6q121 -41 121 -174q0 -47 -13 -98q-8 -33 -39.5 -128.5 t-85.5 -252.5q-41 -121 -69.5 -203t-44.5 -127l-19 -51q-6 -23 -6 -43q0 -47 39 -72v2q37 -23 90 -22q33 0 86 32q31 16 56.5 37t41.5 45v0q2 0 3 2l-3 -2v0q2 0 3 2q6 10 12 11.5t10 1.5q10 0 17.5 -5.5t11.5 -21.5l-2 2q8 -16 10 -31.5t2 -31.5v-19zM1595 176v21 q0 20 -2 37.5t-10 33.5v-4q-4 23 -15.5 31t-29.5 8q-6 0 -19.5 -3t-21.5 -21q-16 -23 -39.5 -41.5t-52.5 -34.5q-51 -29 -76 -29q-47 0 -80 19h2q-31 20 -30 55q0 14 6 37l16 51v-2q16 47 45 129t70 205q53 158 84 253t41 128q14 55 14 102q0 150 -135 190q-43 12 -84 13 q-178 0 -350 -197q-74 -82 -150 -203q4 29 7 55.5t3 51.5q0 219 -178 278q-59 20 -118 21q-184 0 -345 -207q-109 -145 -108 -319q0 -125 78 -205h-2q43 -47 104 -47q100 0 100 86q0 16 -12 45v-2q-6 18 -11 38.5t-5 32.5q0 111 69 248q37 80 113 80q78 0 78 -102 q0 -41 -10.5 -89.5t-28.5 -107.5q-27 -78 -68 -183.5t-100 -244.5q-45 -104 -75.5 -177t-53.5 -116v2q-12 -25 -12 -41q0 -35 28.5 -50t81.5 -17h11q139 0 196 118q59 121 129 248t154 264q111 180 195.5 296t146.5 169q33 31 55 31q18 0 19 -27l-1 -1t-1 -3v2 q-123 -299 -191 -487t-78 -275q-6 -41 -6 -81q0 -63 26.5 -112.5t80.5 -78.5q94 -55 215 -55q25 0 49 2t47 6h-2q121 23 213 111q20 20 24 65z" />
<glyph unicode="O" horiz-adv-x="993" d="M1167 1130q-43 84 -69 84q-12 0 -29 -16l-57 -59q-10 -10 -21 -11q-14 0 -16 27q-4 23 -13.5 46.5t-25.5 47.5q-37 61 -92 86q-80 35 -121 35q-49 0 -117 -29q-16 -6 -37 -6q-156 -2 -301 -168q-123 -147 -205 -366q-61 -172 -61 -357q0 -328 197 -407q29 -14 60.5 -19.5 t66.5 -5.5q152 0 301 125q141 121 237 320q41 80 67.5 153.5t43.5 139.5q4 12 8 45.5t14 93.5q6 33 17 43q94 76 137 131q28 40 16 67zM829 999q-4 -39 -75 -38q-78 0 -125 47t-47 104q0 53 51 98q25 25 65 25q29 0 54.5 -14.5t44 -38t29 -52t10.5 -59.5q-1 -4 -7 -72z M782 774q-10 -51 -38.5 -121.5t-77.5 -163.5q-164 -305 -304 -305q-18 0 -36 6q-123 39 -123 226q0 154 76 362q74 201 159 303q12 18 25 19q10 0 8 -37q-16 -117 78 -201q70 -63 151 -63q12 0 30 2t42 6q8 2 10 -6q4 -11 0 -27zM811 1001q6 68 6 70q0 27 -9 52.5t-25.5 46 t-38 32.5t-46.5 12q-31 0 -53 -16q-43 -41 -43 -86q0 -49 42 -90t110 -41q55 0 57 20zM764 776v10q-35 -8 -64 -8q-88 0 -163 70q-86 80 -86 184v31l-5 -4q-82 -94 -149 -287q-76 -203 -76 -356q0 -170 109 -207q20 -6 32 -6q127 0 285 297q98 182 117 278v-2zM1182 1141 q6 -8 7 -15.5t1 -13.5q0 -12 -6 -28.5t-17 -30.5q-41 -55 -141 -138q-4 0 -10 -30v2q-8 -59 -13.5 -95t-9.5 -47q-16 -66 -42.5 -140.5t-67.5 -155.5q-100 -203 -244 -326q-156 -131 -313 -131q-74 0 -136 26q-207 86 -206 426q0 186 63 363q43 115 94.5 208t112.5 165 q150 172 315 174q16 0 29 4q35 16 65.5 23.5t59.5 7.5q23 0 55.5 -8.5t73.5 -28.5q61 -27 100 -92h-2q20 -29 29.5 -53.5t13.5 -45.5v-12l62 61q25 25 43 25q39 0 86 -96zM1098 1253q-27 0 -56 -28l-36 -37q-4 18 -14.5 39.5t-22.5 44.5q-45 72 -111 98q-43 18 -75.5 28.5 t-59.5 10.5q-55 0 -133 -33l2 2q-12 -4 -23 -4q-172 -2 -329 -182q-66 -76 -118 -170t-95 -209q-63 -172 -64 -369q0 -356 221 -444l-2 2q66 -29 144 -29q166 0 325 136q78 66 138.5 147.5t109.5 183.5q39 80 66.5 155t46.5 144q4 20 10 55t14 89q4 20 2 18q51 39 86 75 t58 64q14 18 20 37t6 35q0 10 -1 18.5t-7 18.5q-53 104 -102 104zM631 508q-150 -285 -269 -285q-10 0 -26 4q-96 31 -96 189q0 147 75 350q51 145 115 242q10 -102 94 -174h-2q80 -74 178 -74h19q10 0 20 2q-10 -47 -38.5 -110.5t-69.5 -143.5zM793 1004q0 -4 -39 -5 q-59 0 -96 36t-37 77q0 37 36 70q14 14 41 14q43 0 71 -40t28 -85q0 -2 -1 -17t-3 -50z" />
<glyph unicode="P" horiz-adv-x="1232" d="M981 356q141 59 244 260q96 180 96 361q0 158 -72 254q-90 121 -260 123q-211 4 -424 -170q-242 -188 -387 -531q-158 -371 -158 -608q0 -115 41 -190q55 -88 162 -88q143 0 275 198q100 152 149 344q10 29 17 31q10 4 28 -4q43 -18 107 -19q47 0 92 10.5t90 28.5z M1071 842q-14 -70 -42 -132.5t-75 -115.5q-102 -129 -233 -121q-27 4 -21 43q16 123 20.5 209t0.5 139q-2 45 -41 45q-29 0 -70 -28q-29 -18 -55.5 -35t-30.5 -51q-35 -281 -63 -400q-117 -416 -211 -415q-51 0 -51 81q0 41 21.5 138.5t68.5 249.5q61 213 250 460 q223 291 403 289q141 -4 141 -223q0 -33 -2 -65.5t-10 -67.5zM670 322q-2 0 -2 -3h-2zM1051 846q14 63 14 129q0 201 -123 205h-4q-86 0 -180 -71t-203 -212q-94 -121 -154.5 -233.5t-93.5 -221.5q-45 -152 -66.5 -247t-21.5 -134q0 -61 31 -61q76 0 190 401q16 61 31.5 161 t32.5 235q4 37 27.5 55t50.5 35l-2 -2q4 4 10 6t10 6q41 33 80 33q59 0 59 -64q2 -12 2 -28v-31q0 -53 -5 -126t-17 -167q0 -4 -1 -7t-1 -5q0 -10 6 -10h16q106 0 201 112q43 53 72 113.5t39 128.5zM987 340q-92 -41 -188 -41q-66 0 -115 18q-12 4 -12 5q0 -2 -2 -6.5 t-4 -12.5h2q-25 -96 -64 -182t-92 -168q-133 -207 -289 -207q-117 0 -178 100q-43 74 -43 199q0 123 39 276.5t119 340.5q74 174 172 306t221 230q217 174 424 174h12q182 -4 275 -129q76 -96 75 -266q0 -186 -96 -371q-53 -98 -116.5 -165.5t-139.5 -100.5zM995 322 q156 68 265 278q100 195 100 377q0 174 -80 278q-100 135 -291 138h-12q-111 0 -218.5 -45t-217.5 -134q-244 -197 -398 -544q-160 -379 -159 -625q0 -125 45 -209q66 -109 194 -108q162 0 307 215q53 78 89 166t63 188q25 -10 53.5 -14t63.5 -4q51 0 100 11.5t96 31.5z M1032 850q-25 -131 -108 -232q-88 -106 -185 -106q10 92 16.5 165t6.5 130v33q0 16 -2 28q-6 80 -80 80q-41 0 -86 -33q195 244 344 244h4q104 -4 105 -184q-1 -62 -15 -125zM424 406q-106 -385 -174 -386q-12 0 -12 41q0 82 88 377q47 152 155 322q-14 -125 -29.5 -213 t-27.5 -141zM672 303v-2h-6h2q0 2 4 2z" />
<glyph unicode="Q" horiz-adv-x="1228" d="M1225 799q2 23 3 43t1 39q0 219 -135 340q-109 100 -287 112q-209 16 -367 -88q-145 -94 -176 -237q-4 -23 -7 -43.5t-3 -42.5q0 -59 16.5 -105.5t44.5 -83.5q61 -72 150 -61q45 6 67 24q4 6 11.5 19.5t15.5 36.5q8 18 8 41q0 51 -41 45q-14 -2 -31.5 6t-31.5 23.5 t-24.5 37t-10.5 45.5q0 88 78 156q84 72 213 72q14 0 28.5 -1t28.5 -3q123 -14 189 -136q51 -96 51 -202q0 -35 -6 -56q-43 -172 -205 -334q-53 -57 -100.5 -94t-81.5 -53q-33 -16 -50 18q-25 53 -90 111q-88 76 -190 82q-111 6 -186.5 -47t-98.5 -156q-6 -29 -6 -49 q0 -82 53.5 -141.5t132.5 -75.5q29 -4 57.5 -7t59.5 -3q98 0 168 20q35 10 43 -16q55 -150 70 -176q74 -147 151 -162q14 -2 26.5 -3t22.5 -1q61 0 95 51q10 16 14 31.5t4 29.5q0 29 -16.5 32t-32.5 5q-25 6 -45 21q-14 10 -31.5 38.5t-40.5 75.5q-12 29 -24.5 55.5 t-24.5 53.5q-14 29 18 45q129 59 263 191q235 217 260 477zM426 244q16 -27 -14 -41q-74 -35 -150 -27q-117 12 -110 92q10 86 104 86q20 0 29 -2q63 -10 102 -49q19 -22 39 -59zM408 236q-8 16 -17.5 29.5t-17.5 23.5h2q-20 20 -43 29.5t-51 13.5q-8 2 -25 2q-74 0 -84 -66 v-10q0 -53 96 -63q8 -2 23 -2q57 0 115 28q6 2 6 6t-2 6zM1245 797q-29 -266 -266 -490q-137 -131 -268 -194q-10 -6 -11 -11v-10v2l31 -65q4 -10 9 -21.5t12 -23.5q20 -41 35.5 -68t29.5 -37q8 -6 16.5 -11t18.5 -7h6q20 -2 41 -10.5t21 -45.5q0 -31 -23 -71 q-41 -59 -111 -60q-14 0 -26 1t-27 1q-86 14 -164 174v-2q-4 10 -22.5 54.5t-46.5 126.5q-4 4 -11 4q-6 0 -12 -2q-72 -18 -172 -19q-35 0 -63.5 2t-57.5 6q-88 20 -144 83t-56 155v27q0 12 4 26q23 104 98.5 161.5t185.5 57.5h21q106 -6 203 -86q66 -59 96 -120q2 -8 12 -9 h6q72 33 183 144q156 160 198 325q4 10 4 23v29q0 102 -47 192q-61 111 -174 125q-14 2 -28.5 3t-26.5 1q-123 0 -201 -65q-35 -31 -53.5 -66t-18.5 -76q0 -39 25 -65.5t47 -26.5h17q51 0 51 -65q0 -27 -11 -48v3q-14 -51 -30 -68q-20 -20 -78 -27q-4 0 -11 -1t-12 -1 q-82 0 -143 68q-66 78 -65 203q0 25 2 45t6 43q33 152 186 252h-2q141 92 328 92h53q182 -12 299 -121v2q141 -127 141 -354q0 -16 -1 -36t-3 -42v-6zM1264 795v8q2 23 3 42t1 36q0 240 -148 368q-61 55 -139 85t-172 38h2q-12 2 -27 2h-28q-197 0 -338 -96 q-156 -98 -193 -264q-4 -23 -7 -44.5t-3 -47.5q0 -66 18.5 -119t53.5 -94q68 -78 157 -78q4 0 12.5 1t12.5 1q57 8 88 33q18 18 39 75l-2 -4q8 16 9 29.5t1 26.5q0 86 -69 86h-17q-16 0 -33.5 21.5t-17.5 49.5q0 72 65 127q68 61 187 62q10 0 24.5 -1t28.5 -3 q104 -12 160 -117h-2q25 -41 36 -88t11 -94q0 -29 -4 -45q-20 -84 -69.5 -162t-125.5 -156q-100 -100 -172 -139q-31 63 -98 123q-98 86 -215 92h-21q-119 0 -199.5 -61.5t-103.5 -172.5q-6 -29 -6 -57q0 -98 61.5 -166.5t155.5 -89.5q29 -4 59.5 -7t65.5 -3q49 0 93 5 t83 17q27 -70 44.5 -113.5t27.5 -60.5l-2 2q78 -166 182 -184q12 -2 24.5 -3t28.5 -1q84 0 127 67q25 43 25 84q0 51 -25.5 61.5t-52.5 14.5h-10q-16 8 -23 13q-10 6 -23 31.5t-36 68.5q-4 10 -10 22.5t-10 18.5l-3 2v2l-24 57q133 66 272 195q246 230 271 504zM291 213 q-8 0 -17 2q-84 8 -84 43v8q6 49 66 49q12 0 20 -2q53 -10 84 -37q6 -8 12.5 -18t14.5 -22q-43 -23 -96 -23zM604 334q0 -2 -2 -2v0zM395 238l-2 -2q0 2 2 2z" />
<glyph unicode="R" horiz-adv-x="1298" d="M1358 180q4 41 -10 76q-6 16 -17 4q-37 -51 -106 -90q-59 -35 -95 -35q-86 0 -135 25q-31 16 -4 104l43 117q16 47 24.5 86t8.5 68q0 33 -12 57q-29 66 -74 90q-16 10 -16 16q0 4 14 15q289 209 295 366q8 223 -170 240q-82 6 -162 -23q-23 -10 -44 -19t-44 -20 q-37 -16 -41 -16q-10 0 -6 19q4 25 6 37t2 14q0 29 -55 10q-41 -16 -66.5 -29.5t-42 -25t-26 -22.5t-15.5 -25q-10 -41 -17 -70t-9 -47q-8 -47 -41 -70q-49 -29 -191 -186q-76 -84 -128 -150.5t-83 -115.5q-121 -195 -121 -365q0 -109 68 -154q53 -29 105 -28 q82 0 160.5 66.5t135.5 183.5q53 115 82 177t33 75q18 45 37 45q80 0 154 30q12 4 22 4q25 0 41 -20.5t8 -50.5q0 -4 -47 -152q-20 -66 -33.5 -114t-17.5 -82q-6 -37 -6 -52q0 -49 39 -71q43 -29 166 -41q94 -10 186 8q111 18 190 98q13 12 15 43zM1067 1100q6 -18 6 -43 q0 -80 -84 -174q-57 -53 -119 -107q-25 -25 -57 -24q-16 0 -48 9t-44 9q-33 2 -33 16q0 12 8 35q23 70 40.5 125t29.5 103q14 35 35 51q100 70 178 69q68 1 88 -69zM471 745q-4 -23 -24.5 -80t-61.5 -151q-84 -201 -117 -246q-31 -45 -63 -45q-31 0 -31 43q0 20 6 39 q10 35 39 93.5t78 142.5q47 86 83 141t62 80q16 18 27 18q10 0 2 -35zM369 522q35 86 55 139.5t25 79.5q-47 -49 -136 -209q-92 -166 -114 -233q-4 -10 -4 -18v-15q0 -25 10 -24q20 0 49 39q31 42 115 241zM1047 1094q-12 57 -68 57q-66 0 -166 -66q-10 -6 -15 -17t-14 -28 l2 2q-14 -45 -31.5 -101t-39.5 -126q-4 -10 -6 -17t-2 -12q0 6 16 2h-2q10 0 20.5 -2t22.5 -6l49 -8q27 0 45 16l8 11q29 25 55.5 49t53.5 49q41 41 59.5 82t18.5 78q0 21 -6 37zM1376 178q-2 -37 -18 -55q-86 -82 -201 -105q-31 -4 -60.5 -7t-62.5 -3q-20 0 -36.5 1 t-32.5 3q-125 10 -174 43l2 -2q-49 31 -50 90q0 18 7 56q4 37 16 85t33 113l45 135q4 8 4 11q2 6 2 16q0 16 -10.5 26.5t-22.5 10.5q-4 0 -20 -4q-39 -16 -77 -23.5t-79 -7.5q-4 0 -20 -35q-6 -23 -113 -252q-59 -123 -143 -191.5t-172 -68.5q-31 0 -59 7.5t-54 23.5 q-78 49 -78 170q0 176 121 375q31 49 84 115.5t131 152.5q139 156 194 191q20 12 31 57q4 25 10.5 51.5t14.5 61.5q8 18 18 32.5t28.5 27.5t47.5 27.5t72 30.5q12 6 23 8.5t20 2.5q37 0 37 -37q0 -4 -1.5 -14.5t-3.5 -28.5q4 2 7 2q4 0 8 4h2q10 4 21.5 9t23.5 11 q10 4 23.5 10.5t27.5 14.5q29 8 61.5 14t71.5 6q6 0 14.5 -1t16.5 -1q186 -12 186 -239v-19q-2 -164 -301 -381q25 -16 44.5 -39.5t37.5 -58.5q12 -29 12 -65q0 -66 -34 -162q-4 -14 -9.5 -28.5t-11.5 -29.5q-4 -10 -8 -21t-12 -36q-10 -45 -11 -61q0 -16 7 -19 q43 -23 124 -22q33 0 87 32q29 16 55 37t43 45v0q2 0 2 2l-2 -2v0q2 0 2 2q6 10 12 11.5t10 1.5q10 0 16.5 -5.5t10.5 -21.5l-2 2q8 -16 10 -31.5t2 -31.5v-19zM1397 176v21q0 20 -2 37.5t-11 33.5v-4q-6 23 -17 31t-28 8q-8 0 -20 -3t-23 -21q-16 -23 -38.5 -41.5 t-51.5 -34.5q-51 -29 -76 -29q-72 0 -114 19q2 0 2 4q0 23 10 59v-2q4 8 9 23.5t12 31.5q6 14 11 28.5t11 29.5q35 104 35 168q0 41 -16 73q-27 57 -66 90q283 211 289 379v21q0 242 -205 260q-8 0 -17.5 1t-15.5 1q-39 0 -76.5 -8.5t-72.5 -20.5q-10 -4 -19.5 -9t-21.5 -9 q-10 -4 -16.5 -8.5t-16.5 -8.5q2 6 2 15q0 55 -57 55q-27 0 -49 -8q-47 -18 -77 -33.5t-48.5 -29t-29.5 -29t-20 -35.5q-12 -41 -18 -73t-10 -50q-6 -31 -25 -43q-25 -16 -74 -63.5t-122 -131.5q-152 -166 -215 -270q-127 -205 -127 -385q0 -129 86 -186q63 -35 125 -35 q94 0 182 71.5t149 198.5q53 117 83 180.5t34 75.5q6 18 2 21q88 0 162 32q2 0 5 1t7 1q14 0 14 -16q0 -4 -2 -10l-4 -12q-12 -35 -43 -136q-23 -68 -36 -116.5t-17 -83.5q-4 -18 -4 -33v-25q0 -72 57 -104h-2q27 -16 72 -27.5t111 -19.5q16 -2 33.5 -3t37.5 -1q66 0 127 12 q59 12 112.5 39t96.5 72q23 20 27 65zM1030 1090q4 -12 4 -33q0 -66 -73 -146q-27 -25 -53.5 -50t-53.5 -50l-8 -6q-14 -14 -31 -14q4 0 -14.5 3t-32.5 7q-10 2 -18.5 4t-18.5 4v0q2 0 2 2q23 68 40.5 124t29.5 101v-2q8 25 22 35h-2q92 61 156 61q39 0 51 -43v3zM350 530 q-84 -203 -112 -239q-14 -25 -29 -31q4 4 4 6q0 12 4 29v-2q10 33 38 90t75 139q16 29 30.5 54.5t26.5 48.5q-8 -20 -17.5 -44t-19.5 -51z" />
<glyph unicode="S" horiz-adv-x="1171" d="M1229 180q4 41 -8 76q-6 18 -17 6q-18 -29 -44.5 -50.5t-61.5 -39.5q-55 -35 -94 -35q-23 0 -46.5 2t-46.5 11q-16 4 -16 12q0 6 14 35q43 113 43 225q0 150 -127 246l-196 110q-125 74 -125 164q0 41 24 90q78 158 283 158q41 0 76 -10q96 -27 125 -90q6 -18 10 -35 t18 -21q51 -14 84 53q6 18 6 43q0 63 -49 117q-68 70 -192 82q-14 2 -28.5 3t-29.5 1q-145 0 -270 -69q-135 -78 -196 -203q-39 -78 -39 -160q0 -197 215 -297q225 -109 225 -246q0 -37 -13.5 -77.5t-39.5 -90.5q-12 -29 -49 -22l-256 63q-111 27 -188 38.5t-118 6.5 q-158 -14 -176 -155q-12 -80 56 -154q66 -82 206 -112q45 -10 87 -16.5t85 -6.5q256 0 435 188q25 25 47 19q76 -18 184 0q104 14 191 98q12 12 12 43zM557 27q-121 -61 -244 -62q-133 0 -215 70q-29 25 -28 59q0 29 21.5 48.5t55.5 17.5q119 -23 217.5 -44.5t178.5 -39.5 q45 -10 45 -23q0 -12 -31 -26zM549 45q6 2 14 6q-4 2 -9 3l-15 3q-80 18 -178.5 39t-217.5 43q-25 0 -40 -13t-15 -32q0 -27 23 -43q76 -68 202 -67q59 0 116.5 16t117.5 45h2zM1249 178q-2 -35 -20 -53q-43 -45 -92.5 -71.5t-108.5 -33.5h2q-29 -4 -53.5 -7t-50.5 -3 q-47 0 -88 10h2h-9q-14 0 -22 -12q-186 -195 -449 -194q-45 0 -88 5t-88 15q-74 16 -128 48t-91 73q-59 70 -59 141v15q0 8 2 14v-2q18 160 192 174h27q47 0 117.5 -11.5t167.5 -33.5l256 -66h-2q2 -2 10 -2q12 0 20 15q49 92 49 159q0 129 -210 228q-229 106 -230 315 q0 82 43 168q63 133 203 213q133 72 280 72q16 0 31 -1t29 -3q135 -14 203 -88q57 -61 57 -132q0 -14 -2 -26t-8 -23q-29 -70 -84 -69h-8t-15 4v-2q-16 6 -24.5 21.5t-14.5 35.5l2 -2q-2 4 -2 6q0 4 -2 8q-16 49 -110 78q-16 4 -35 6t-37 2q-195 0 -266 -145 q-20 -47 -21 -82q0 -80 115 -145l195 -109q139 -111 139 -266q0 -115 -47 -234q-8 -14 -8 -20h2q43 -12 84 -12q27 0 86 32q29 18 54 39t44 45v0q2 0 2 2l-2 -2v0q2 0 2 2q4 10 11 11.5t11 1.5q10 0 16.5 -5.5t10.5 -21.5l-2 2q8 -16 10 -32.5t2 -30.5v-21zM1268 178v21 q0 18 -2 36.5t-9 34.5v-4q-6 23 -17 31t-28 8q-8 0 -20 -3t-23 -21q-31 -47 -90 -76q-45 -29 -75 -29q-12 0 -27.5 1t-32.5 3q47 125 47 242q0 84 -34.5 153.5t-106.5 122.5l-203 113q-104 61 -104 131q0 33 20 72q63 137 248 137q20 0 36.5 -2t31.5 -6h-2q80 -25 100 -70 q2 -4 2 -8q0 -2 2 -6q4 -23 15.5 -40.5t33.5 -21.5h-2q10 -4 16 -4h13q68 0 102 80v-2q10 27 10 59q0 80 -61 146q-39 39 -91 62.5t-124 29.5q-14 2 -29.5 3t-32.5 1q-154 0 -290 -76q-72 -41 -125.5 -96t-85.5 -121q-43 -92 -43 -178q0 -219 239 -332q201 -98 201 -211 q0 -61 -49 -149q-2 -2 -2 -4v0q-8 0 -10 2l-248 61q-201 49 -291 49q-6 0 -14.5 -1t-14.5 -1q-190 -18 -211 -190l2 2q-4 -10 -4 -18v-13q0 -78 66 -155q39 -43 96 -76t133 -49q45 -10 89 -16.5t91 -6.5q270 0 461 201q8 8 10 8h3q2 0 3 -1t3 -1h2l-8 2q2 0 3 -1t3 -1 q45 -10 86 -10q27 0 52.5 3t53.5 7q59 8 111.5 35.5t99.5 75.5q21 20 25 67zM313 4q-125 0 -192 59q-12 12 -12 31q0 23 30 27q109 -20 198 -40t165 -36q-99 -41 -189 -41zM913 190q8 -4 9 -4h-4q-1 2 -5 4z" />
<glyph unicode="T" horiz-adv-x="1085" d="M1137 1184q6 31 6 39q0 25 -43 37q-197 55 -342 67q-29 2 -56.5 3t-52.5 1q-309 0 -334 -139q-6 -29 -6 -53q0 -68 33 -68q16 0 33 23q35 37 131 55q10 2 25.5 3t37.5 1q186 0 314 -41q35 -12 22 -53q-37 -123 -71.5 -244t-69.5 -244q-141 -463 -199 -520 q-72 -72 -131 -98q-23 -10 -57.5 -15.5t-79.5 -7.5q-141 -2 -193 70q-18 25 -32 25q-18 0 -35 -25t-17 -66q0 -156 269 -180q14 -2 26 -2h29q258 0 412 234q164 250 381 1198zM1155 1180q-215 -948 -385 -1205q-158 -244 -426 -243h-29q-14 0 -28 2q-285 29 -285 200 q0 49 22.5 80t47.5 31q23 0 47 -33q47 -63 166 -63h12q43 2 76 7t55 15q27 10 57.5 34t67.5 58q23 27 71 154t119 361q16 59 36 120.5t36 123t33.5 122t36.5 121.5v-2l4 16q0 8 -12 17l2 -2q-129 41 -310 41q-20 0 -35.5 -1t-25.5 -4h2q-96 -23 -119 -51q-25 -27 -49 -26 q-53 0 -53 86q0 29 6 57q31 154 354 154q23 0 49.5 -1t55.5 -3h4q78 -4 164 -21.5t184 -46.5q55 -14 55 -55q0 -12 -6 -43zM1176 1178q4 14 5 26.5t1 18.5q0 51 -72 73q-201 57 -350 70h-6q-29 2 -55.5 3t-49.5 1q-342 0 -373 -170q-6 -31 -6 -61q0 -106 72 -107q33 0 61 35 q10 14 39 23.5t72 19.5h-2q10 2 24.5 3t32.5 1q92 0 168 -10t133 -29h2h-2q0 -2 -1 -3l-1 -1q-18 -61 -35.5 -122.5t-35.5 -123.5q-16 -61 -35 -121.5t-35 -119.5q-70 -229 -118 -356.5t-70 -149.5q-68 -68 -119 -90q-41 -16 -125 -19h-10q-111 0 -150 54q-16 23 -31.5 31.5 t-31.5 8.5q-31 0 -59.5 -34.5t-28.5 -94.5q0 -195 301 -219q14 -2 28 -2h31q279 0 444 252q86 129 180.5 429t205.5 782z" />
<glyph unicode="U" horiz-adv-x="1564" d="M1624 180q4 41 -10 76q-6 14 -15 4q-41 -53 -110 -90q-63 -35 -96 -35q-137 0 -138 98q0 16 2 27q72 268 136.5 508t124.5 455q4 12 5 22t1 19q0 43 -70 55q-31 6 -51 6q-59 0 -82 -47q-92 -193 -159.5 -331t-114.5 -222q-205 -365 -375 -483q-68 -45 -99 -45t-30 32 q0 23 12 60q109 285 168 448.5t72 212.5q16 59 16 109q0 221 -254 246q-10 2 -22 2h-23q-137 0 -250 -80q-106 -72 -147 -174q-37 -102 -37 -185q0 -78 32.5 -119.5t86.5 -41.5q74 0 73 43q0 12 -9 46.5t-9 57.5q0 63 22 115q35 76 97.5 125t126.5 49q27 0 45 -8 q55 -23 55 -97q0 -37 -12 -82q-6 -10 -133 -344q-59 -154 -96.5 -251t-49.5 -140q-4 -18 -6 -33.5t-2 -31.5q0 -92 107 -131q16 -6 31.5 -8.5t31.5 -2.5q37 0 88 15.5t117 50.5q229 117 448 500q14 29 23 28q6 0 -8 -35q-10 -25 -21.5 -64.5t-25.5 -96.5q-31 -121 -37 -193 q-8 -84 45 -135q63 -57 192 -57q57 0 129 12q106 14 191 98q12 12 14 43zM1645 178q-4 -39 -21 -55q-45 -43 -94 -69.5t-109 -35.5h2q-35 -4 -68.5 -7t-64.5 -3q-139 0 -207 62q-51 49 -51 125q0 6 1 13t1 13q4 72 37 195q4 16 7 31.5t7 29.5q-195 -307 -401 -416 q-135 -68 -215 -67q-33 0 -70 14q-121 43 -120 148q0 18 3 34.5t7 34.5q12 41 48 139.5t97 256.5q63 166 96 250.5t37 93.5v-2q12 39 13 75q0 57 -45 80q-16 6 -37 6q-57 0 -114.5 -46t-90.5 -117q-23 -45 -23 -107q0 -10 4.5 -27.5t8.5 -35.5q4 -10 6 -21.5t2 -19.5 q0 -63 -94 -64q-61 0 -99.5 48t-38.5 134q0 41 8.5 89.5t30.5 101.5q41 109 152 182q119 86 262 86h23q14 0 24 -2q272 -27 272 -266q0 -55 -16 -115q-25 -84 -242 -663q-12 -31 -12 -52q0 -12 12 -12q31 0 91 41h-2q162 111 368 477q47 84 114.5 220.5t160.5 330.5 q25 57 98 57q25 0 55 -6q86 -12 86 -73q0 -8 -2 -19.5t-8 -27.5h2q-59 -215 -123.5 -455t-134.5 -508v2q-2 -10 -2 -23q0 -78 117 -77q31 0 88 32q33 18 58.5 38t41.5 44v-2q6 12 13.5 14.5t11.5 2.5q10 0 17 -4.5t11 -20.5h-2q8 -16 10.5 -31.5t2.5 -31.5v-19zM1663 176v21 q0 20 -2 37.5t-10 33.5v-4q-4 23 -15.5 31t-29.5 8q-6 0 -19.5 -3t-21.5 -21v2q-18 -25 -42 -43.5t-53 -34.5q-51 -29 -77 -29q-98 0 -99 59q0 8 2 19l-2 -2q72 270 136.5 508.5t123.5 453.5v-2q10 29 11 54q0 76 -105 94h2q-31 6 -59 6q-82 0 -117 -70 q-92 -195 -158.5 -331t-113.5 -218q-207 -362 -363 -473v2q-53 -33 -69 -38q0 20 8 36q109 287 169 453t75 215q8 33 12 61.5t4 57.5q0 256 -289 284q-10 2 -24 3h-25q-150 0 -274 -89l2 3q-121 -82 -162 -195q-39 -104 -39 -197q0 -96 43 -148t115 -52q113 0 112 82 q0 6 -2 19t-6 28q-10 31 -10 57q0 55 18 98q31 66 83 109t106 43q20 0 28 -4q33 -12 33 -62q0 -29 -10 -69v2q-4 -8 -37 -93t-96 -251q-59 -147 -95 -247.5t-51 -150.5q-10 -45 -10 -73q0 -123 131 -168q39 -12 78 -13q86 0 223 70q180 94 348 336q-10 -53 -17 -91t-9 -67 q0 -6 -1 -14t-1 -14q0 -86 59 -142q35 -31 91.5 -48t127.5 -17q63 0 135 12q115 14 213 111q21 20 25 65z" />
<glyph unicode="V" horiz-adv-x="1024" d="M1165 885q12 20 13 39q0 27 -21 32q-27 10 -47 19.5t-33 17.5q-14 6 -14 45l2 12l5 27.5t5 34.5t2 35q0 12 -1 23.5t-3 23.5q-8 41 -42 73.5t-79 32.5q-18 0 -43 -10q-84 -37 -84 -137q0 -109 60 -174q12 -12 0 -57q-37 -145 -115 -308q-106 -211 -235 -315 q-119 -94 -203 -94q-109 0 -109 157q0 35 6 76q12 94 33 177t49 155q35 94 96.5 209t147.5 256q6 6 6 16q0 41 -76 49q-18 2 -32.5 3.5t-24.5 1.5q-49 0 -94 -43q-84 -78 -191 -361q-123 -324 -123 -569q0 -29 2.5 -56.5t6.5 -52.5q12 -94 82.5 -147t164.5 -53 q156 0 336 137q258 199 400 680q8 29 41 22q31 -14 41 -16q36 -14 71 39zM1182 874q-35 -51 -74 -51q-12 0 -21 6q-20 2 -30 11q-4 2 -6 2t-7 2h-6q-6 0 -6 -10q-143 -483 -407 -689q-182 -141 -349 -141q-102 0 -177.5 56.5t-88.5 160.5q-4 25 -6 52.5t-2 58.5 q0 254 125 577q109 291 195 365q51 49 106 49h18t25 -2h-2q4 0 9 -1t9 -1q92 -12 93 -68q0 -16 -11 -28v2q-86 -137 -145 -252t-96 -209q-27 -72 -47.5 -154t-32.5 -174q-6 -41 -6 -74q0 -139 90 -139q76 0 190 92q125 104 232 310v-2q37 78 65.5 152.5t46.5 150.5 q6 20 6 32v9q-66 68 -65 186q0 113 96 154q10 6 24.5 9t24.5 3q53 0 92 -38t50 -85q0 -12 1 -23.5t1 -25.5q0 -27 -3 -59.5t-8 -47.5q0 -6 -2 -8q0 -23 11 -24q20 -10 35.5 -17.5t35.5 -17.5l-2 2q33 -8 33 -51q0 -25 -12 -50h-2zM1198 866q18 31 19 58q0 53 -50 69l2 -2 q-20 8 -36.5 15.5t-32.5 17.5q4 8 4 12q4 14 8 48t4 63q0 16 -1 28.5t-3 24.5q-10 53 -55 96t-105 43q-29 0 -57 -14q-109 -47 -109 -172q0 -119 66 -195q0 -10 -4 -26q-18 -72 -46 -147.5t-67 -153.5q-104 -203 -227 -301q-109 -86 -176 -86q-70 0 -70 118v33q0 16 4 37 q14 94 35 174t47 152q70 180 240 454q12 18 12 39q0 41 -27.5 60.5t-83.5 27.5q-4 0 -10 1t-10 1h4h-45q-33 0 -62.5 -11t-58.5 -40h2q-94 -84 -200 -375q-66 -166 -95.5 -310t-29.5 -273q0 -33 1 -60.5t5 -52.5v2q14 -111 96 -174t190 -63q170 0 359 145q133 104 236.5 275 t175.5 419q10 -4 18 -7t16 -7q6 -4 11.5 -5t15.5 -1q51 0 90 61v2zM1087 1032q6 -4 9 -2v-4q-2 2 -4.5 3t-4.5 3zM1174 991h-5h5z" />
<glyph unicode="W" horiz-adv-x="1456" d="M1536 842q12 0 21.5 10t17.5 23.5t12 28t4 24.5q0 18 -16 26q-20 10 -31.5 15.5t-19.5 9.5q-18 10 -19 65q4 41 4 72q0 33 -2 55q-4 51 -39.5 90t-87.5 39q-10 0 -30 -4q-102 -25 -103 -153q0 -16 4 -37q4 -23 8.5 -42.5t12.5 -31.5q4 -6 12 -17t19 -28q35 -45 26 -80 q-33 -143 -178 -401q-176 -311 -289 -291q-78 12 -106 96q-14 41 -17 117q-2 37 41 74q49 41 84 93t62 118q10 29 15 55.5t5 48.5q0 100 -92 111q-117 8 -240 -221q-12 -25 -23 -60t-22 -82q-16 -92 -13 -147.5t-15 -79.5q-125 -164 -230 -164q-84 0 -84 148q0 156 97 450 q43 129 129 272q29 45 54 88.5t52 86.5q8 14 8 26q0 29 -94 41q-8 2 -29 2q-55 0 -110 -55q-47 -47 -117 -180q-86 -154 -129 -301q-68 -219 -68 -408q0 -307 203 -332q12 -2 25.5 -3t25.5 -1q178 0 293 164q8 14 19 14q10 0 32 -34q76 -131 220 -132q170 0 352 246 q164 223 272 555q10 33 29 33q8 0 22.5 -6t22.5 -6zM1536 823q-16 0 -29 6q-6 2 -13 3.5t-5 3.5q-2 -2 -2 -9q0 -4 -4 -12q-109 -332 -277 -559q-186 -254 -368 -254q-154 0 -238 139q-6 10 -9 15.5t-5 7.5l-1 -1t-1 -3q-121 -172 -310 -172q-14 0 -27.5 1t-25.5 3 q-219 31 -219 352q0 98 15.5 200.5t50.5 213.5q23 76 56.5 151.5t74.5 153.5q35 66 65.5 113t54.5 71q66 61 125 62h19q8 0 14 -2q111 -18 111 -62q0 -23 -10 -35q-27 -45 -53.5 -88t-55.5 -86h2q-45 -72 -77 -140.5t-52 -127.5h2q-98 -295 -98 -446q0 -129 65 -129 q92 0 213 157q8 10 9.5 27.5t3.5 46.5t3 64.5t11 78.5q8 49 20.5 86t26.5 64q123 229 248 229h10q111 -6 111 -129q0 -49 -25 -112q-53 -137 -149 -218h2q-35 -29 -35 -55v-4q4 -74 14 -111h-2q27 -70 94 -84h-2q4 0 6 -1t7 -1q96 0 256 285q145 258 176 395q2 4 2 11 q0 23 -23 55q-8 8 -13 16t-9 15l-11 16v-2q-10 16 -15 35.5t-9 44.5q-2 10 -3 18t-1 23q0 139 119 174q10 2 34 2q59 0 100.5 -44t47.5 -101q0 -10 1 -20.5t1 -25.5q0 -16 -1 -38.5t-3 -47.5v-10q0 -33 6 -35q8 -4 19.5 -10t31.5 -14q29 -16 29 -45q0 -12 -6.5 -29.5 t-16.5 -34t-23.5 -29t-29.5 -12.5zM1536 805q18 0 35.5 14.5t31 33.5t20.5 39.5t7 35.5q0 43 -41 61q-23 10 -33 15.5t-14 7.5q4 -4 4 20v10q0 25 1 47.5t1 38.5q0 14 -1 25.5t-1 22.5q-2 31 -16 60.5t-35.5 53t-51.5 36.5t-63 13q-8 0 -19 -2l-22 -4q-131 -31 -131 -190 q0 -16 1 -25.5t3 -19.5q6 -47 27 -86l-2 2q4 -4 7 -9.5t5 -9.5q4 -6 9.5 -13t13.5 -17q20 -27 20 -43h-2v-2q-16 -72 -60 -169.5t-114 -224.5h2q-158 -274 -241 -274q-4 0 -6.5 1t-6.5 1h2q-55 6 -73 72v-2q-10 29 -15 106v2q0 18 27 41q106 88 158 227q23 63 22 117 q0 137 -127 150h-12q-135 0 -266 -242q-31 -53 -50 -154q-10 -41 -11 -78.5t-3 -66.5q0 -25 -1 -43t-5 -23q-115 -147 -199 -147q-45 0 -45 109q0 78 23.5 186t70.5 254q23 63 53.5 129.5t71.5 134.5v-2q29 43 54.5 88t54.5 88q12 25 12 45q0 61 -127 80h2q-6 2 -16 2h-21 q-74 0 -137 -67q-51 -49 -125 -189v2q-41 -76 -74.5 -153.5t-56.5 -155.5q-70 -221 -69 -420q0 -340 235 -371q12 -2 26.5 -3t30.5 -1q186 0 312 162q82 -147 252 -147q190 0 383 260q86 115 154.5 255t125.5 310h2q8 -4 17 -4h16z" />
<glyph unicode="X" horiz-adv-x="1431" d="M1491 182q4 41 -10 76q-6 20 -15 6q-39 -55 -108 -92q-55 -35 -96 -35q-178 0 -281 115q-76 88 -141 293q-18 53 8 94q143 233 282 385q152 170 234 170q18 0 39.5 -5t34.5 -5q35 -2 35 41q0 29 -17 47q-43 45 -117 45q-27 0 -55.5 -5t-58.5 -20q-90 -37 -236 -209 q-63 -76 -103 -135t-61 -100q-14 -39 -34 -39q-14 0 -21 20q-10 53 -22.5 103.5t-22.5 101.5q-31 125 -76 197q-55 86 -147 98q-16 2 -30.5 3t-25.5 1q-78 0 -114 -57q-8 -8 -8 -25q0 -41 41 -30q10 2 19 3t15 1q43 0 84 -58q23 -35 52.5 -182t66.5 -412q6 -41 -10 -69 q-37 -66 -103.5 -149t-162.5 -183q-233 -236 -371 -266q-57 -10 -84 -10t-88 22q-12 4 -23 4q-53 0 -53 -57q0 -16 10 -37q45 -90 228 -86q336 4 692 577q16 23 29 23q16 0 32 -33q135 -283 453 -282q61 0 133 12q111 18 193 100q12 12 14 43zM1511 180q-2 -37 -20 -55 q-90 -90 -203 -105q-72 -12 -137 -12q-330 0 -471 293q-6 20 -14 21l-13 -13l2 2q-362 -584 -710 -587h-13q-182 0 -233 94q-10 25 -10 47q0 76 71 76q6 0 13.5 -2t15.5 -2q29 -10 48.5 -15.5t33.5 -5.5q23 0 80 10q135 29 360 260q188 190 264 328q8 14 9 39q0 8 -2 14 q-35 266 -65 411.5t-50 178.5v-2q-35 49 -68 49q-2 0 -8 -1t-16 -3h-8q-6 -2 -17 -2q-47 0 -47 53q0 23 12 37q47 66 131 66q10 0 21.5 -1t26.5 -3h10q102 -16 162 -111q45 -74 79 -201q10 -51 21.5 -102t24.5 -102v2q2 -8 0 -9q6 2 18 29q39 90 164 240q74 88 135 140 t109 75q66 27 122 26q84 0 131 -53q23 -23 23 -59q0 -61 -51 -62h-4q-10 0 -16.5 1t-16.5 3q-12 4 -22.5 6.5t-18.5 2.5q-74 0 -221 -164q-72 -78 -141.5 -173.5t-139.5 -209.5q-10 -20 -10 -43q0 -6 2 -15.5t6 -19.5q35 -102 69 -173t68 -112q94 -111 265 -110q27 0 86 32 q31 18 56.5 39t43.5 45v0q2 0 2 2q6 10 12 11.5t11 1.5q10 0 17 -4t11 -21l-2 2q8 -18 10 -33.5t2 -31.5v-19zM1530 178v21q0 20 -2 37.5t-10 35.5v-4q-4 23 -15.5 31t-29.5 8q-6 0 -19.5 -3t-23.5 -23q-16 -23 -40 -41.5t-53 -34.5q-25 -14 -42 -21.5t-33 -7.5 q-162 0 -252 100q-70 82 -133 281v-2q-6 12 -7 31q0 14 11 30q141 233 278 383q141 156 205 156q4 0 14.5 -2t22.5 -4q10 -2 17 -3t20 -1h4q72 0 71 80q0 39 -28 71q-53 61 -146 62q-61 0 -131 -31q-100 -39 -250 -219q-119 -143 -159 -229q-10 41 -19.5 81.5t-15.5 81.5 q-37 143 -82 209q-66 102 -174 117h-10q-14 2 -25.5 3t-26.5 1q-98 0 -147 -74l2 2q-16 -25 -16 -49q0 -72 65 -71q12 0 23 2h4l22 4q23 0 50 -39q43 -66 112 -569q4 -10 4 -17v-8q0 -23 -6 -31q-70 -123 -260 -323q-223 -227 -352 -254h2q-27 -4 -47.5 -6t-30.5 -2 q-20 0 -78 18q-6 2 -14 4t-19 2q-92 0 -92 -96q0 -29 15 -53q53 -109 249 -109h13q352 2 719 584q145 -299 487 -299q68 0 139 12q123 20 215 111q23 24 25 67zM809 840v-2q0 2 -2 2v2q2 0 2 -2v0z" />
<glyph unicode="Y" horiz-adv-x="1601" d="M1661 182q2 18 0 38t-10 38q-6 18 -15 6q-20 -29 -46.5 -50t-61.5 -42q-59 -35 -94 -35q-27 0 -51.5 -1t-47.5 -3q-55 -6 -69 -6q-18 0 -21 12q-2 8 8 37q16 53 60.5 190.5t116.5 366.5q66 213 100.5 334t44.5 154q6 20 6 36q0 43 -80 60q-18 4 -34.5 6t-26.5 2 q-43 0 -60 -41q-35 -111 -106.5 -254t-177.5 -321q-229 -369 -365 -465q-86 -66 -145 -49q-25 6 -25 36q0 23 17 62q195 457 229 692q2 16 3 33.5t1 34.5q0 254 -256 270q-297 14 -440 -297q-37 -78 -37 -160q0 -78 35 -143q33 -59 69 -76q20 -12 45 -12q57 0 58 41 q0 16 -15 26q-25 20 -24 76q0 66 33 154q92 240 231 239q10 0 19.5 -1t19.5 -3q78 -14 78 -118q0 -33 -9 -58q-4 -10 -36.5 -101t-98.5 -265q-63 -170 -97 -271.5t-42 -136.5q-2 -10 -3 -22.5t-1 -22.5q0 -72 47 -111q41 -35 111 -34q117 0 237 77q111 72 242 228 q109 127 180 248l12 16q6 2 7 -2q0 -4 -1 -10t-4 -17q-10 -33 -31.5 -93t-56.5 -152q-35 -90 -62.5 -157t-49.5 -114q-20 -41 -47 -51q-61 -25 -179 -121q-135 -121 -135 -194q0 -35 27 -56q47 -41 108 -41q111 0 248 133q117 117 152 224q10 31 47 47q33 16 83 22 t105.5 13.5t109.5 19.5t97 41q14 10 28.5 22.5t31.5 28.5q12 12 14 43zM1681 180q-4 -39 -20 -55t-31.5 -29.5t-30.5 -23.5q-53 -37 -119.5 -48.5t-129.5 -19.5q-43 -4 -81 -9t-59 -18q-37 -12 -47 -38q-37 -109 -155 -232q-139 -137 -263 -137q-76 0 -122 45h2 q-33 25 -33 70q0 86 139 209q57 47 102.5 78.5t84.5 45.5q14 4 34 41q23 45 50.5 112t62.5 159q20 47 34.5 87t24.5 72q-29 -43 -61.5 -86t-69.5 -86q-66 -76 -126 -132t-122 -97q-129 -80 -247 -80q-78 0 -125 37q-53 47 -54 127q0 16 1.5 28.5t3.5 24.5q12 61 143 408v-2 q66 174 97.5 265t35.5 101q6 27 6 52q0 88 -61 100h-4q-10 2 -17.5 3t-13.5 1q-125 0 -213 -227q-31 -80 -31 -148q0 -45 17 -59h-2q25 -18 24 -43q0 -61 -78 -62q-33 0 -55 15q-47 27 -76 84q-20 35 -28.5 72.5t-8.5 80.5q0 41 8.5 83t30.5 85q139 307 428 307h29 q274 -12 274 -288q0 -18 -1 -36t-3 -34q-16 -117 -73.5 -290t-155.5 -408q-6 -16 -10 -29.5t-4 -24.5q0 -16 8 -18t18 -2q51 0 113 47q135 98 356 461q106 176 177 318.5t106 252.5q20 53 80 53q25 0 65 -6q96 -18 97 -80q0 -23 -7 -43q-10 -33 -46 -153.5t-101 -333.5 q-72 -227 -116 -365.5t-62 -191.5h2l-6 -23q12 0 67 7q23 2 48.5 3t52.5 1q31 0 84 32q31 16 57.5 38t42.5 46v-2q6 12 13 14.5t11 2.5q10 0 17.5 -5t11.5 -22l-2 2q8 -16 10 -32.5t2 -30.5v-21zM1700 178v23q0 18 -2 36.5t-10 34.5v-4q-4 23 -15.5 31t-30.5 8q-6 0 -19 -3 t-21 -21q-16 -25 -40 -43.5t-53 -34.5q-51 -29 -75 -29q-27 0 -53.5 -1t-49.5 -3q-14 -2 -22.5 -3t-18.5 -1q37 111 176 553q66 213 102 335t44 154q8 27 8 47q0 76 -111 99v-2q-25 6 -42 8t-27 2q-76 0 -97 -70q-35 -109 -105.5 -249t-176.5 -316q-111 -180 -198 -292.5 t-154 -162.5q-59 -43 -101 -43h-6q0 23 10 45q199 469 234 703q2 16 3 33.5t1 40.5q0 291 -295 309h-29q-297 0 -446 -320v2q-41 -84 -41 -178q0 -47 10 -87t29 -77v3q37 -68 86 -93q37 -16 63 -16q96 0 97 80q0 33 -31 59q-8 8 -8 43q0 29 8 65t22 77q84 213 195 213 q4 0 11 -1.5t18 -3.5h4q45 -12 45 -79q0 -27 -6 -48q-4 -10 -37 -99t-99 -263q-63 -170 -98 -271.5t-41 -136.5q-6 -37 -6 -59q0 -90 59 -143q27 -18 61 -29.5t77 -11.5q127 0 260 82q57 39 118.5 98t131.5 137l53 66q-4 -10 -7 -18.5t-7 -16.5q-35 -92 -62 -156.5 t-49 -111.5q-14 -27 -27 -31q-63 -23 -188 -129q-150 -129 -150 -223q0 -25 9.5 -47.5t31.5 -38.5q61 -49 133 -50q129 0 275 146q123 123 164 237q4 16 35 29q18 10 55 14.5t78 8.5q66 8 134 20t122 51q16 10 31.5 23.5t36 34t24.5 65.5z" />
<glyph unicode="Z" horiz-adv-x="1181" d="M1239 182q4 41 -8 76q-6 18 -17 6q-18 -29 -44.5 -50t-61.5 -42q-59 -35 -94 -35q-70 0 -90.5 6.5t-12.5 42.5q4 18 6.5 39t2.5 41q0 164 -117 299q-29 33 -4 47q248 125 278 351q2 16 3 29.5t1 27.5q0 121 -75 205q-66 74 -181 102q-47 10 -92 10q-106 0 -207 -45 q-113 -53 -147 -155q-18 -47 -19 -84q0 -102 95 -109q57 -4 57 35q0 14 -14 27q-8 6 -2 47q6 43 26 63q68 76 162 76q37 0 80 -12q111 -29 110 -170q0 -35 -10 -76q-27 -96 -98 -170q-4 0 -88 -72q-31 -29 -60 -18q-51 14 -104 14q-141 0 -149 -108q-10 -84 112 -84 q57 0 144 22q43 12 59 -29q20 -53 20 -137q0 -125 -32 -182q-16 -31 -54 -31q-201 0 -362 -63q-264 -102 -287 -289q-14 -123 168 -188q37 -14 94 -15q119 0 240 53.5t244 184.5q106 111 125 176q8 31 59 31q45 0 79 3t62 7q109 18 191 100q8 8 12 43zM586 12 q0 -45 -99 -139q-82 -82 -133 -115q-80 -49 -147 -49q-88 0 -88 78q0 70 119 152q57 39 170 63q20 4 54 10t81 11q43 5 43 -11zM473 -115q90 90 92 125l-4 -4q-4 0 -8 -1t-8 -1q-88 -12 -133 -22q-57 -10 -97.5 -25.5t-66.5 -32.5h2q-113 -82 -113 -137q0 -57 70 -57 q66 0 137 45q27 14 58.5 42.5t70.5 67.5zM1260 180q-4 -39 -21 -55q-43 -43 -93 -69.5t-106 -35.5q-29 -4 -63.5 -7t-81.5 -3q-39 0 -41 -18q-12 -35 -44 -80t-85 -105q-127 -135 -251 -188t-247 -53q-29 0 -53 2t-47 12q-182 66 -182 189q0 4 1 10t1 10q18 197 297 305 q166 66 370 66q27 0 37 20q14 29 22.5 71t8.5 101q0 41 -5 74t-15 57v-2q-6 18 -25 19q-8 0 -12 -2q-80 -20 -148 -21q-131 0 -131 94v11q10 127 168 127q59 0 107 -13q6 -4 12 -4q16 0 31 17q70 55 96 71l-6 -2q66 70 90 160q12 39 12 72q0 123 -96 151q-23 4 -41.5 7 t-34.5 3q-86 0 -149 -69q-12 -16 -19 -53q-2 -10 -2 -17v-8t-2 -4q10 -10 14 -20.5t4 -20.5q0 -53 -67 -53h-10q-111 8 -111 127q0 39 18 92v-2q43 111 160 166q47 25 101.5 36t111.5 11q27 0 50.5 -2t45.5 -6q115 -27 191 -109q82 -94 82 -219q0 -16 -1 -29.5t-3 -29.5 q-35 -236 -291 -367q0 -6 12 -19v3q119 -137 119 -312q0 -47 -6 -84q-2 -8 -2 -16q0 -6 18.5 -7t65.5 -1q33 0 86 32q61 37 98 84q4 10 12.5 12.5t12.5 2.5q10 0 16 -5t10 -22l-2 2q8 -16 10.5 -32.5t2.5 -30.5v-21zM1278 178v23q0 18 -2 36.5t-8 34.5v-4q-6 23 -17.5 31 t-27.5 8q-8 0 -20.5 -3t-22.5 -21q-31 -47 -90 -76q-49 -31 -76 -31q-35 0 -49.5 -1t-16.5 -7v8q6 25 8 47.5t2 42.5q0 170 -124 320q125 66 195.5 160t86.5 210q2 16 3 30.5t1 33.5q0 135 -86 231q-39 41 -88 70t-115 43q-49 12 -98 12q-59 0 -115.5 -13t-107.5 -36 q-125 -57 -168 -176q-20 -49 -20 -98q0 -139 131 -148h10q88 0 88 74q0 23 -19 45l-7 7l-7 7q14 -10 14 -14v8t3 15q2 29 14 40q59 66 135 66q31 0 72 -10q80 -23 80 -133q0 -18 -2.5 -35t-6.5 -33q-25 -84 -88 -149l9 2q-14 -10 -39 -27.5t-56 -46.5q-10 -10 -20 -10 q-2 0 2 -2q-68 18 -121 18q-176 0 -188 -143v-13q0 -115 151 -114q61 0 152 24h8q2 0 6 -4q18 -53 19 -125q0 -55 -6.5 -96t-22.5 -66q-6 -12 -19 -12q-217 0 -376 -63q-287 -115 -312 -324q0 -4 -1 -11t-1 -11q0 -139 195 -207q23 -10 50.5 -13.5t57.5 -3.5q125 0 253 55.5 t257 192.5q115 123 135 193q4 4 23 4q47 0 83 3t64 7q123 23 211 113q21 18 25 65zM459 -100q-74 -78 -127 -107q-66 -45 -125 -45q-51 0 -51 39q0 47 104 121l-2 -2q27 18 65.5 31.5t92.5 25.5q23 4 51.5 9t64.5 10q-10 -14 -28 -34.5t-45 -47.5z" />
<glyph unicode="[" horiz-adv-x="606" d="M477 -244q0 6 19 35h-97l306 1475h100q-8 18 -8 34q0 14 14 35h-250l-336 -1614h260q-8 19 -8 35zM496 -244q0 -14 14 -55h-307l344 1655h295q-27 -45 -27 -56q0 -12 16 -53h-112l-299 -1437h112q-36 -50 -36 -54zM514 -244q0 -2 13.5 15.5t41.5 58.5h-125l289 1397h127 q-16 39 -21 54t-5 19q0 2 10 18.5t33 57.5h-345l-352 -1693h357q-12 37 -17.5 53t-5.5 20z" />
<glyph unicode="\" horiz-adv-x="509" d="M-16 1442l465 -1448h151l-459 1448h-157zM154 1462l471 -1487h-189l-477 1487h195zM-68 1481l490 -1526h229l-485 1526h-234z" />
<glyph unicode="]" horiz-adv-x="606" d="M502 1300q0 -10 -17 -34h97l-308 -1475h-100q8 -18 8 -35q0 -14 -12 -35h250l334 1614h-258q4 -10 5 -19.5t1 -15.5zM485 1300q0 16 -16 56h309l-344 -1655h-295q25 45 25 55q0 12 -17 54h113l297 1437h-108q36 51 36 53zM467 1300q0 2 -13.5 -15t-43.5 -58h125 l-291 -1397h-123q14 -39 19 -54.5t5 -19.5q0 -2 -9 -18.5t-32 -54.5h345l350 1693h-357q12 -39 18.5 -55.5t6.5 -20.5z" />
<glyph unicode="^" horiz-adv-x="1110" d="M829 401h109l-297 670h-96l-299 -670h108l238 533zM592 889l-225 -506h-148l313 707h119l316 -707h-150zM805 365h188l-329 743h-144l-330 -743h189l213 479z" />
<glyph unicode="_" horiz-adv-x="948" d="M985 -119v58h-946v-58h946zM18 -129v80h988v-80h-988zM1024 -141v102h-1024v-102h1024z" />
<glyph unicode="`" horiz-adv-x="860" d="M172 1147q6 47 90 47h17q27 0 49 -4t43 -10q35 -14 43 -41q23 -63 37 -82v2q53 -55 79 -70h-2q20 -8 28.5 -21.5t8.5 -29.5q0 -31 -28 -47q-31 -18 -60 -19q-25 0 -47 11v-2q-90 33 -174 110q-84 80 -84 146v10zM188 1145v-8q0 -59 80 -133q76 -74 170 -107h-2 q18 -8 41 -8q25 0 41 10q31 18 31 39q0 10 -7 20.5t-22 16.5h2q-29 12 -84 74h2q-25 25 -43 86q-10 23 -35 30q-16 4 -37.5 8.5t-45.5 4.5h-17q-72 0 -74 -33zM205 1145q2 20 74 16q49 0 79 -10q18 -10 23 -23q27 -68 45 -90q29 -33 51.5 -52t36.5 -28q16 -6 16 -20 q0 -12 -16 -23q-33 -18 -72 -4q-92 35 -161 105q-82 74 -76 129z" />
<glyph unicode="a" horiz-adv-x="966" d="M1024 174q4 41 -8 72q-6 18 -17 6q-18 -27 -44.5 -48.5t-59.5 -39.5q-57 -33 -94 -33q-98 0 -127 29q-14 14 -15 39q0 25 15 65q12 39 32.5 92.5t51.5 122.5q41 88 67.5 145.5t38.5 86.5q14 37 -6 55q-8 10 -65 20q-53 12 -74 7q-8 -4 -15.5 -9.5t-15.5 -11.5 q-4 -4 -9 -12t-13 -19q-12 -18 -41 -4q-68 35 -144 33q-53 -2 -105 -16.5t-104 -40.5q-135 -74 -213 -219q-76 -143 -75 -265q0 -96 53 -151q49 -61 145 -62q96 0 203 95q70 61 104 120q8 20 21 17q2 -2 0 -10q-16 -55 -16 -82q0 -57 49 -91t182 -34q53 0 100 6 q109 18 187 96q8 8 12 41zM598 586q-90 -186 -178 -293q-33 -37 -52.5 -60.5t-29.5 -31.5q-49 -49 -86 -49q-70 0 -70 88q0 90 86 223q45 70 127 123q82 47 140 45q66 -4 65 -33q0 -8 -2 -12zM580 598q0 12 -45 14h-7q-27 0 -57.5 -10t-64.5 -33q-76 -43 -121 -114 q-82 -125 -82 -215q0 -70 49 -70q29 0 72 43q6 6 17 19.5t30 33.5q10 14 35 41v-2q43 51 84.5 123t89.5 166v4zM1044 172q-2 -35 -20 -53q-84 -82 -197 -101q-39 -8 -102 -8q-72 0 -120 10.5t-76.5 30t-41 46t-12.5 59.5v22q-14 -20 -33.5 -39.5l-42.5 -42.5 q-117 -98 -217 -98q-104 0 -162 70q-29 33 -43 71.5t-14 89.5q0 66 19.5 133.5t60.5 139.5q78 150 221 227q51 27 105.5 42t111.5 17h11q84 0 141 -32q12 -6 14 -6t0 -7q12 20 18.5 28.5t10.5 12.5q12 14 39 25h-2q6 4 24 4q25 0 60 -8q59 -10 75.5 -26.5t16.5 -41.5 q0 -16 -6 -35q-14 -27 -41 -85t-68 -146q-31 -72 -50 -124t-34 -89q-10 -41 -10 -59q0 -16 6 -25q27 -25 115 -24q31 0 84 30q31 16 56.5 37t41.5 45v0q2 0 2 2l-2 -2v0q2 0 2 2q6 8 12.5 9t10.5 1q10 0 16 -4t10 -20l-2 2q8 -16 10 -31.5t2 -30.5v-18zM1063 170v20 q0 18 -2 36t-10 34v-4q-4 23 -15.5 30t-27.5 7q-8 0 -20.5 -3t-20.5 -22q-16 -23 -40 -40t-50 -31q-25 -14 -42.5 -21.5t-33.5 -7.5q-80 0 -101 18q-2 2 -2 13q0 16 13 53q27 86 82 211q41 90 67.5 147.5t38.5 83.5q6 12 8 23.5t2 19.5q0 33 -24 56q-25 25 -86 30v-2 q-23 6 -38.5 8t-23.5 2q-10 0 -17 -1t-18 -5q-12 -4 -21 -11t-19 -15q-12 -16 -23 -27q-66 35 -147 35h-13q-57 -2 -114.5 -17.5t-110.5 -44.5q-147 -78 -229 -235q-80 -147 -80 -281q0 -53 15 -97t48 -79q61 -74 174 -73q109 0 228 102q14 10 25 22.5t24 22.5 q8 -61 67.5 -98t198.5 -37q66 0 106 8h-2q117 18 209 106q23 23 25 64zM389 317h2q-10 -10 -18 -20t-17 -18q-18 -23 -28.5 -35.5t-16.5 -18.5q-41 -37 -59 -37q-31 0 -31 52q0 80 80 202q39 63 115 111q68 41 112 41h4q20 -2 27 0q-84 -173 -170 -277zM563 604q-2 -2 -2 -6 q0 2 2 6z" />
<glyph unicode="b" horiz-adv-x="722" d="M590 340q51 141 51 244q0 137 -98 196q-29 18 -58 19q-45 0 -77.5 -40t-32.5 -91q0 -59 47 -95q23 -10 44 -23t19 -24q-18 -215 -168 -342q-20 -20 -49 -20q-68 0 -63 78q4 80 55 284q23 92 40 149.5t28 82.5q33 72 53 104q92 129 129 250q18 61 18 111q0 94 -73 104 q-96 16 -170 -123q-29 -53 -65 -154.5t-81 -250.5q-59 -209 -89 -345.5t-30 -203.5q0 -190 144 -215q27 -6 61 -6q135 0 246 114q78 82 119 197zM606 334q-39 -115 -123 -205q-115 -119 -258 -119q-35 0 -65 6q-158 29 -158 234q0 72 29.5 209t89.5 346q88 297 147 409 q72 135 168 136q4 0 10.5 -1t10.5 -1q90 -16 90 -125q0 -53 -21 -117h2q-37 -121 -133 -256q-10 -14 -22.5 -39t-28.5 -61q-8 -20 -24.5 -76t-40.5 -154q-53 -209 -56 -278v-6q0 -51 45 -52q20 0 35 15q145 123 164 329q0 4 -13.5 9.5t-29.5 15.5q-4 2 -3 1t-3 1 q-61 39 -62 113q0 29 10.5 55.5t28 48t41 33.5t49.5 12q35 0 66 -18q109 -66 108 -215q0 -51 -12 -114.5t-41 -137.5v2zM625 328q29 74 41 138t12 118q0 162 -117 229q-37 25 -76 25q-33 0 -60.5 -16.5t-47.5 -45.5q20 45 33 66v-2q49 68 81.5 132t53.5 128q10 35 14 64.5 t4 58.5q0 131 -102 143q-4 0 -12.5 1t-12.5 1q-109 0 -184 -145q-59 -113 -148 -414q-121 -422 -120 -559q0 -223 174 -254h-2q31 -6 69 -6q150 0 271 127q90 92 129 211zM338 668q0 -84 63 -127l13 -6q10 -6 20 -9.5t15 0.5q-23 -201 -156 -313q-8 -10 -25 -10 q-27 0 -26 33v4q2 39 14 107.5t39 168.5q23 96 43 162v-10z" />
<glyph unicode="c" horiz-adv-x="645" d="M700 174q4 37 -8 72q-6 18 -16 6q-33 -47 -101 -86q-53 -29 -92 -33q-150 -10 -221 60q-66 59 -65 147q0 39 8 74q20 135 102 194q57 39 117 31q25 -4 33 -16.5t12 -25.5t9 -25.5t22 -12.5q16 -6 32 4q57 31 50 113q-6 102 -187 112q-119 6 -235 -88q-131 -106 -162 -303 q-6 -31 -6 -63q0 -162 143 -244q113 -59 271 -59q29 0 53 1t47 5q109 18 182 96q8 6 12 41zM719 172q-4 -39 -19 -53q-82 -82 -190 -101q-23 -4 -49.5 -6t-54.5 -2q-166 0 -279 64q-154 88 -154 260q0 37 7 67q31 201 167 316q119 90 236 90h12q199 -6 205 -131q0 -6 1 -10 t1 -9q0 -78 -61 -110l2 2q-14 -10 -31 -10q-12 0 -16 2q-25 2 -33 16t-12 33q-4 10 -9.5 18t-19.5 13q-8 2 -19 2q-20 0 -41.5 -6.5t-42.5 -22.5q-78 -59 -96 -184q-8 -35 -8 -70q0 -82 59 -135q61 -55 177 -55q8 0 15 1t15 1q16 2 38 8t46 22q29 16 53.5 36t40.5 42 q6 10 13.5 12t11.5 2q10 0 16.5 -4t10.5 -20l-2 2q10 -29 10 -62v-18zM737 170v20q0 41 -10 70v-4q-6 23 -16.5 30t-26.5 7q-6 0 -18.5 -3t-22.5 -20q-31 -39 -86 -71q-23 -16 -41 -21.5t-35 -7.5h2q-8 0 -16 -1t-16 -1q-109 0 -166 51q-51 51 -52 121q0 29 9 68 q18 119 88 170q35 27 73 26q6 0 15 -2q10 -2 12 -7t4 -11l-2 2q6 -23 16.5 -42.5t43.5 -21.5q8 -2 20 -2q23 0 41 12h-2q70 35 70 125q0 4 -1.5 9.5t-1.5 11.5q-8 141 -223 147h-12q-127 0 -248 -96q-139 -115 -174 -326v3q-6 -31 -6 -72q0 -188 162 -279q123 -63 289 -63 q31 0 58.5 2t49.5 6h-2q115 18 203 106q18 19 22 64z" />
<glyph unicode="d" horiz-adv-x="980" d="M1038 180q4 41 -10 76q-8 18 -14 4q-37 -51 -107 -90q-57 -35 -92 -35q-96 0 -129 31q-16 18 -4 110q10 51 42 152.5t85 255.5q68 174 124 311.5t101 241.5q14 37 -16 66q-8 10 -60 20q-49 6 -69 0q-35 -8 -64 -49q-8 -10 -92 -232q-39 -100 -61.5 -157.5t-26.5 -73.5 q-6 -20 -33 -14q-104 23 -143 18q-76 -2 -174 -57q-150 -82 -223 -246q-70 -160 -70 -283q0 -94 47 -149q53 -63 141 -64q139 0 316 238q14 18 18 18t2 -12q-8 -41 -10 -64.5t-2 -33.5q0 -57 50 -94t179 -37q25 0 48.5 2t46.5 6q106 18 186 98q12 12 14 43zM586 639 q-4 -16 -18.5 -50t-43.5 -87q-29 -55 -53.5 -98.5t-42.5 -71.5q-63 -92 -80 -109q-47 -57 -92 -57q-63 0 -63 74q0 88 90 239q55 96 149 150q72 41 117 39q47 -4 37 -29zM508 512q25 51 39 82t20 47l1 1t1 3h-6q-6 0 -16 2h-4q-41 0 -103 -37q-88 -51 -141 -141 q-88 -152 -88 -229q0 -53 45 -54q37 0 80 50h-2q10 14 30.5 41.5t47.5 66.5q30 47 96 168zM1057 178q-2 -37 -19 -55q-86 -86 -196 -105q-43 -6 -99 -6q-141 0 -195 42t-54 108v18q0 14 4 33q-166 -215 -308 -215q-100 0 -155 68q-29 33 -40 72.5t-11 90.5q0 61 17 134 t54 157q37 86 95.5 148.5t136.5 107.5q92 53 180 60h10q23 0 57.5 -5.5t81.5 -15.5h-2h11h2q4 10 20.5 55t40.5 111v-2q6 16 13.5 33.5t13.5 38.5q43 111 66.5 168t29.5 67q31 47 74 55l-2 -2q10 4 16 4h16h21q10 0 25 -2q27 -4 44 -9t27 -15q25 -25 25 -55q0 -8 -1 -15.5 t-5 -15.5q-45 -104 -101.5 -242.5t-124.5 -312.5v2q-102 -295 -123 -406q-4 -20 -6 -35.5t-2 -27.5q0 -23 6 -29q23 -25 115 -24q31 0 84 32q29 16 54.5 37t41.5 45v-2v2v0q2 0 2 2q6 10 12.5 11.5t10.5 1.5q10 0 17 -4.5t10 -20.5h-3q8 -16 10.5 -31.5t2.5 -31.5v-19z M1075 176v21q0 43 -10 71v-4q-6 23 -16.5 31t-28.5 8q-6 0 -19.5 -3t-21.5 -21q-16 -23 -38.5 -41.5t-51.5 -34.5q-51 -29 -74 -29q-82 0 -102 19v16q0 8 2 23.5t6 35.5q23 104 125 404q66 174 122 310t101 241v-2q4 10 5 20t1 21q0 39 -31 69q-10 10 -31.5 17.5t-51.5 13.5 q-12 2 -25 2h-21h-20q-8 0 -18 -4h4q-47 -12 -86 -64v2q-8 -10 -32 -70.5t-67 -170.5q-8 -20 -14 -36.5t-12 -33.5q-23 -59 -39.5 -93t-22.5 -56q-43 8 -75.5 12t-55.5 4h-10q-92 -6 -191 -61q-156 -84 -237 -265q-76 -170 -76 -299q0 -106 57 -176q63 -74 170 -73 q133 0 285 174q2 -72 61.5 -117t206.5 -45q29 0 54.5 2t48.5 6h-2q119 23 207 111q20 18 24 65zM489 520q-29 -55 -52 -96t-42 -70q-66 -94 -76 -106q-39 -43 -63 -43q-25 0 -25 35q0 41 21.5 95t62.5 126q55 90 136 135q27 14 49 22.5t43 10.5q-8 -16 -21 -43t-33 -66z" />
<glyph unicode="e" horiz-adv-x="722" d="M778 174q4 41 -10 72q-4 20 -14 6q-82 -111 -197 -119q-172 -18 -260 29q-23 12 -23 20l11 11q70 51 145 133q121 129 135 219q6 33 6 63q0 133 -108 180q-29 14 -78 15q-82 0 -166 -45q-100 -55 -151 -160q-76 -145 -76 -276q0 -147 102 -232q88 -72 303 -72 q51 0 97.5 4.5t87.5 12.5q106 20 184 98q4 4 7 14.5t5 26.5zM399 655q53 0 54 -63q0 -45 -41 -113q-66 -115 -191 -190q-39 -29 -39 33q0 43 16.5 95t45.5 113q27 57 71.5 91t83.5 34zM399 637q-35 0 -75.5 -32t-63.5 -81q-29 -61 -43 -111.5t-14 -90.5v-23q2 0 -2 -4 q129 82 194 192q39 72 39 105q0 45 -35 45zM797 172q-2 -18 -7.5 -31.5t-11.5 -21.5q-41 -39 -89 -65.5t-103 -37.5q-88 -16 -189 -16q-221 0 -315 76q-109 90 -109 246q0 137 78 286q29 53 68 95t90 71q88 47 176 47q51 0 84 -16q121 -53 121 -197q0 -35 -6 -67 q-8 -47 -42 -104.5t-100 -125.5q-76 -82 -143 -129q2 -2 6 -2q61 -33 164 -33h41q23 0 45 5q109 12 182 110v0q2 0 2 2l-2 -2v0q2 0 2 2q4 8 11.5 9t11.5 1q10 0 16 -4t8 -20v2q10 -29 11 -62v-18zM815 170v20q0 41 -10 70v-4q-6 23 -16.5 30t-26.5 7q-8 0 -20.5 -3 t-20.5 -20q-70 -90 -168 -100q-23 -4 -43 -4h-41q-84 0 -135 18q33 27 64.5 54.5t60.5 60.5q63 70 99 128t44 112q6 33 6 69q0 154 -131 215q-39 16 -92 17q-96 0 -184 -49q-104 -57 -168 -177q-78 -156 -78 -292q0 -168 115 -263q96 -78 327 -77q55 0 103.5 4t89.5 12 q57 10 108.5 39t92.5 69q20 19 24 64zM399 618q16 0 17 -26q0 -33 -37 -94q-57 -100 -158 -166q2 72 55 182q23 47 58.5 75.5t64.5 28.5z" />
<glyph unicode="f" horiz-adv-x="724" d="M780 182q4 41 -8 76q-6 20 -14 6q-18 -29 -45 -50t-60 -42q-57 -35 -92 -35q-74 0 -135 23q-16 2 -27 33q-18 57 -51 83q-29 23 -29 35q0 10 19 27q82 57 186 188q68 82 114 162t75 158q76 203 75 315q0 160 -135 197q-25 6 -49 6q-195 0 -379 -461q-37 -94 -75.5 -217 t-81.5 -280q-39 -145 -61.5 -231.5t-31.5 -117.5q-43 -188 -43 -286q0 -156 95 -174q31 -8 65 -9q201 0 293 289q14 37 21.5 74t11.5 72q4 16 22 12q53 -12 144 4q35 4 65.5 17.5t61.5 33.5q16 10 29.5 21.5t27.5 27.5q12 12 12 43zM600 1204q41 -6 41 -59q0 -76 -80 -244 q-59 -129 -120.5 -232.5t-127.5 -183.5q-23 -25 -26 -24q-4 0 -4 6t3 15.5t7 25.5q49 141 91 263t79 228q74 213 137 205zM283 43q0 -51 -29 -133q-68 -188 -123 -174q-27 6 -27 43q0 10 41 164q39 143 43 155q8 25 19 25q6 0 12 -6q18 -18 32.5 -30.5t20.5 -16.5 q11 -4 11 -27zM264 43q0 8 -2 10q-12 8 -55 47q0 -2 -1 -4t-1 -6q-2 -4 -11.5 -42t-29.5 -111q-39 -143 -39 -158q0 -20 10 -25h-2q2 0 3 -1t3 -1q39 0 99 164q12 39 19 69.5t7 57.5zM621 1145q0 37 -23 39h-4q-47 0 -115 -189q-20 -61 -42.5 -126.5t-47.5 -137.5 q-16 -49 -33.5 -101t-38.5 -106q59 76 115.5 172.5t112.5 210.5q37 86 56.5 144.5t19.5 93.5zM801 180q-4 -39 -21 -55q-12 -12 -27.5 -25.5t-33.5 -25.5h2q-63 -45 -135 -54h2q-47 -8 -94 -8h-31q-14 0 -27 4q-4 -33 -12 -69.5t-21 -75.5q-98 -303 -311 -303q-39 0 -69 8 q-109 25 -109 195q0 102 43 290q4 18 14.5 59.5t26.5 102.5q10 39 23.5 86t27.5 103q41 154 80 276.5t80 220.5q188 473 395 473q29 0 53 -6q150 -37 150 -215q0 -55 -18.5 -137t-57.5 -186q-31 -80 -78 -160t-112 -164q-111 -139 -191 -192q-12 -10 -12 -11q0 -6 22 -18 q18 -16 34 -41t24 -53h-2q6 -20 14 -23q55 -18 131 -18q31 0 82 32q61 35 96 84v0q2 0 2 2l-2 -2v0q2 0 2 2q6 10 12.5 11.5t10.5 1.5q10 0 16 -5t11 -22l-3 2q8 -16 10.5 -32.5t2.5 -30.5v-21zM819 178v23q0 18 -2 36.5t-10 34.5v-4q-4 25 -15.5 32t-27.5 7q-6 0 -19.5 -3 t-21.5 -21q-16 -23 -38.5 -42.5t-49.5 -33.5q-49 -31 -74 -31q-37 0 -67.5 5t-59.5 16q2 0 0 8q-20 70 -65 102h-2q41 31 86 79t100 114q70 88 119 170t78 161q41 104 59 187.5t18 142.5q0 190 -165 234q-31 8 -58 8q-221 0 -411 -485q-37 -94 -78 -219.5t-82 -282.5 q-16 -55 -28.5 -102.5t-22.5 -86.5q-16 -59 -26.5 -100t-14.5 -59q-45 -193 -45 -297q0 -188 122 -213l-2 2q23 -6 41.5 -8.5t34.5 -2.5q229 0 330 316v-2q10 33 17 65.5t14 65.5q10 -2 18 -2h23q49 0 96 8h-2q80 12 143 57q29 16 64 56q20 20 24 65zM602 1145 q0 -68 -76 -227q-35 -76 -70.5 -141.5t-70.5 -125.5q4 18 11 37t12 35q49 141 92 264q61 178 94 178q8 -2 8 -20zM244 43q0 -43 -25 -119q-57 -152 -80 -151q-2 0 -3 1t-3 1h6q4 0 4 4q0 12 37 153q12 47 21.5 80t15.5 54q8 -6 14.5 -12.5t12.5 -10.5zM254 37h-2q-2 2 -4 2 v0q4 0 6 -2zM455 18v-4v-4v8z" />
<glyph unicode="g" horiz-adv-x="989" d="M1047 178q4 43 -11 76q-6 20 -14 6q-35 -41 -90 -82q-68 -43 -109 -43q-90 -2 -155 -18q-6 -2 -13 -2q-4 2 0 12q2 2 2 4t2 6q10 25 40 102.5t79 209.5q113 293 113 311q0 31 -33 45q-14 8 -59 10q-41 2 -56 -2q-29 -14 -38 -29q-23 -43 -41 -43q-10 0 -19 13 q-63 39 -145 39q-121 0 -244 -86q-121 -86 -187.5 -211t-66.5 -267q0 -193 166 -206q84 -8 199 67q86 59 116 109q8 12 17 12q14 0 6 -14q-29 -61 -54.5 -117.5t-48.5 -110.5q-8 -6 -15 -10t-11 -8q-47 -25 -101 -74q-59 -59 -80.5 -102t-21.5 -80q0 -45 28.5 -69.5 t69.5 -24.5q57 0 136 65q80 66 170 285q27 59 147 74q41 4 70.5 8t50.5 6q106 16 186 98q13 12 15 41zM621 600q-41 -104 -127 -227q-152 -213 -228 -213q-68 0 -67 82q0 76 73 196q29 47 64 87t71.5 70t73.5 47t72 17q29 0 53.5 -12t14.5 -47zM604 606v12q0 10 -17.5 15.5 t-33.5 5.5q-33 0 -67.5 -16.5t-69.5 -44t-68 -66.5t-59 -82h2q-74 -121 -74 -188q0 -63 49 -64q66 0 213 207q41 59 72 114.5t53 108.5v-2zM1065 178q-2 -20 -7 -33.5t-11 -21.5q-82 -82 -199 -105q-12 -2 -29 -2q-14 0 -33 -2q-12 -2 -27.5 -4t-31.5 -4q-113 -16 -131 -61 q-98 -229 -178 -293q-82 -70 -146 -70q-49 0 -83.5 30t-34.5 83q0 41 24.5 88t85.5 106q29 29 54.5 48.5t48.5 31.5q4 4 10 7.5t10 7.5q4 8 8 15t8 17q25 57 56 123q-33 -29 -82 -63q-109 -72 -193 -72h-18q-182 14 -182 225q0 145 67.5 274.5t192.5 219.5q131 90 256 90 q78 0 157 -45q2 -8 7 -8q12 0 26 39q8 14 47 30q6 4 39 5h23q49 -4 67 -11q45 -18 45 -63q0 -16 -114 -320q-92 -240 -117 -301q27 4 62.5 8.5t80.5 6.5q39 0 99 41h-2q53 35 84 75v-2q6 10 13 12.5t11 2.5q10 0 17.5 -4.5t9.5 -20.5l-2 2q8 -16 10 -32.5t2 -30.5v-19z M1083 176v21q0 18 -2 35.5t-8 35.5v-4q-6 23 -16 31t-29 8q-6 0 -19.5 -3t-21.5 -24q-14 -16 -33.5 -31.5t-42.5 -33.5q-59 -37 -90 -37q-35 -2 -61.5 -3t-48.5 -5q31 76 104 270q115 301 115 324q0 55 -58 80q-12 4 -30.5 8t-42.5 6h-23q-16 0 -27.5 -1t-21.5 -5h2 q-37 -16 -57 -47q-4 -8 -5 -10.5t-3 -6.5q-41 25 -82 36t-82 11q-133 0 -264 -94q-129 -92 -201 -225t-72 -283q0 -227 201 -245h20q47 0 98.5 19.5t104.5 53.5q4 4 10 6.5t11 6.5q-6 -12 -12.5 -23.5t-10.5 -23.5q-4 -6 -6 -13.5t-6 -13.5q-4 -4 -7.5 -5t-7.5 -5 q-43 -20 -108 -82q-66 -66 -90.5 -115t-24.5 -94q0 -63 40 -97t97 -34q78 0 160 74v-3q84 70 180 302q16 37 119 49q16 2 30.5 4t26.5 4q18 4 33 4q16 0 29 2q123 23 209 111q20 18 24 65zM584 614q-41 -111 -121 -217q-137 -199 -197 -198q-29 0 -28 43q0 61 67 176 q27 43 58.5 80t64.5 64.5t64.5 43t60.5 15.5h22t11 -3l-1 -1t-1 -3zM991 283q-2 -2 -2 -4z" />
<glyph unicode="h" horiz-adv-x="964" d="M1022 180q4 41 -10 76q-4 18 -15 4q-18 -29 -44.5 -50.5t-59.5 -39.5q-59 -35 -94 -35q-76 0 -118 17.5t-42 60.5q0 29 12 72q39 115 69 206t54 158q6 20 6 39q0 98 -84 123q-25 8 -55 8q-94 0 -164 -69q-23 -23 -50.5 -53.5t-57.5 -69.5q-29 -35 -45.5 -56.5 t-20.5 -29.5q-2 -8 -8 -9q-20 0 -4 31q10 25 70.5 182.5t173.5 452.5q10 31 10 49q0 31 -29 53q-6 6 -22.5 8.5t-40.5 4.5q-25 0 -42.5 -1t-27.5 -3q-33 -10 -55 -58q-23 -55 -150 -471q-74 -242 -119 -411.5t-63 -268.5q-10 -55 39 -67q14 -6 74 6q39 6 53 55 q39 125 149 293q129 199 191 236q31 18 49 18t18 -23q0 -12 -2 -18q-16 -41 -29.5 -84t-27.5 -86q-53 -156 -64 -211q-2 -16 -3 -28.5t-1 -20.5q0 -59 65.5 -100t209.5 -41q29 0 54.5 3t49.5 7q104 18 189 98q4 4 7 15.5t5 27.5zM1040 178q-4 -41 -18 -55q-86 -86 -197 -105 q-25 -4 -51 -6t-57 -2q-154 0 -223.5 46t-69.5 114v14q0 10 2 23v-2q0 4 1 8t1 8q4 23 19.5 76t44.5 139l12 35q10 35 22.5 68.5t24.5 68.5v15q-12 0 -39 -19q-57 -33 -186 -229q-53 -84 -89 -156t-57 -131q-16 -61 -67 -70q-37 -6 -64 -6q-12 0 -18 2q-29 4 -42.5 22.5 t-13.5 47.5q0 4 1 10t1 10q18 100 63.5 270.5t117.5 411.5q61 205 99 322t54 152q23 53 66 67q20 6 76 6q53 -2 75 -18q37 -29 37 -68q0 -10 -3 -25.5t-11 -31.5q-86 -225 -141.5 -369.5t-81.5 -212.5q4 6 11 13.5t13 15.5q33 41 60.5 72.5t50.5 54.5q80 74 178 74 q31 0 61 -9v2q96 -35 97 -143q0 -18 -8 -45q-23 -68 -53.5 -159t-67.5 -205q-12 -35 -13 -66q0 -33 37 -46t105 -13q16 0 35.5 8t48.5 24q63 39 98 84v-2v2v2q6 10 13 11.5t12 1.5q10 0 16 -5.5t10 -21.5l-2 2q10 -29 10 -63v-19zM1061 176v21q0 18 -2 36.5t-10 34.5v-4 q-6 23 -16.5 31t-26.5 8q-8 0 -20.5 -3t-22.5 -21q-31 -47 -91 -76q-47 -29 -73 -29q-57 0 -89 8t-32 31q0 10 2 25.5t8 31.5q37 117 67.5 208t55.5 159q6 31 6 51q0 125 -110 160q-27 10 -66 10q-106 0 -190 -82v2q-16 -12 -30.5 -29.5t-31.5 -35.5q31 80 76 196.5 t104 274.5q14 35 15 63q0 49 -45 84q-10 10 -32 14.5t-54 6.5q-53 0 -80 -6q-29 -10 -46.5 -29t-33.5 -49q-14 -33 -51 -150t-101 -325q-76 -250 -120 -420t-62 -264q0 -4 -1 -12.5t-1 -12.5q0 -72 66 -88q10 -4 26 -4q10 0 26.5 2t41.5 8l-2 -2q61 10 84 84q35 115 145 281 q63 98 105.5 153t70.5 72v0q0 2 2 2q-10 -29 -19 -57.5t-20 -57.5l-10 -35v2q-55 -166 -65 -221q0 -4 -1 -8t-1 -8v2q-2 -12 -3 -23v-16q0 -76 75 -128t239 -52q33 0 59.5 3t50.5 7q121 23 209 111q21 20 25 65zM270 561v0q2 0 2 2q0 -2 -2 -2v0z" />
<glyph unicode="i" horiz-adv-x="491" d="M481 1157q6 14 10.5 29.5t4.5 34.5q0 66 -58 94q-20 4 -35 4q-74 0 -94 -51q-27 -53 -26 -90q0 -59 57 -88q18 -8 39 -9q57 0 102 76zM547 180q4 41 -10 76q-4 18 -15 4q-16 -29 -41.5 -50.5t-56.5 -39.5q-57 -35 -88 -35q-92 0 -131 33q-12 12 -12 37q0 12 4 30.5 t10 43.5q41 129 76.5 246.5t70.5 226.5q4 23 -5 44t-25 25q-61 18 -129 -4q-33 -10 -41 -57q-18 -63 -36 -124t-36 -124q-31 -111 -45 -176.5t-17 -87.5q-2 -70 14.5 -107t69.5 -78q45 -33 160 -32q53 0 92 8q100 18 179 98q4 4 7 15.5t5 27.5zM498 1147q-49 -84 -119 -84 q-25 0 -45 10q-70 29 -70 105q0 47 29 100v-2q29 63 110 63q14 0 50 -12q61 -29 61 -106q0 -41 -16 -74zM565 178q-2 -37 -18 -55q-82 -86 -187 -105q-43 -6 -96 -6q-121 0 -170 37q-53 45 -72.5 82t-19.5 102v15q2 25 16.5 92.5t47.5 177.5q8 31 16 61.5t18 61.5h-2 q10 31 18.5 61.5t18.5 63.5v-2q12 61 53 74q20 4 39 7t39 3q37 0 62 -8q20 -4 33.5 -25.5t13.5 -50.5q0 -4 -1 -6t-1 -6q-16 -53 -35 -112.5t-37 -119t-37.5 -121t-40.5 -127.5h2q-6 -25 -10 -41t-4 -26q0 -18 6 -21q31 -31 119 -30q27 0 78 34q29 16 52 37t40 45 q6 10 13 12.5t11 2.5q10 0 15.5 -5.5t9.5 -21.5l-2 2q8 -16 10 -31.5t2 -31.5v-19zM582 176v21q0 18 -2 36.5t-9 34.5v-4q-4 23 -14 31t-27 8q-8 0 -19 -3t-22 -21q-14 -23 -35.5 -42.5t-47.5 -33.5q-47 -29 -70 -29q-78 0 -109 21q2 0 2 10q0 18 13 61q20 66 38.5 127.5 t38.5 120.5q18 59 37 117.5t35 111.5q0 4 1 10.5t1 10.5q0 33 -18.5 59.5t-40.5 34.5q-18 6 -34.5 8t-33.5 2q-39 0 -80 -14q-53 -16 -67 -86v2q-10 -31 -18.5 -62.5t-18.5 -62.5v2q-10 -31 -17.5 -62.5t-15.5 -62.5v2q-33 -113 -48 -182.5t-17 -93.5v-15q0 -72 20.5 -112.5 t77.5 -87.5q29 -18 74 -29.5t108 -11.5q29 0 53.5 2t47.5 6h-3q115 23 197 111q19 18 23 65zM512 1139q20 41 20 82q0 90 -88 131q-16 6 -41 6q-94 0 -127 -74q-29 -57 -28 -106q0 -88 78 -123q16 -8 28.5 -10.5t24.5 -2.5q78 1 133 97z" />
<glyph unicode="j" horiz-adv-x="509" d="M475 1174q6 14 10 29.5t4 35.5q0 66 -59 94q-18 6 -37 6q-74 0 -98 -53q-27 -53 -27 -92q0 -63 60 -88q18 -8 41 -8q61 0 106 76zM565 182q4 41 -8 76q-6 18 -16 6q-16 -29 -43 -50t-60 -42q-57 -35 -90 -35q-123 0 -149 -8q-12 -2 -15 0q-4 4 -2 18q10 41 17.5 73 t15.5 61q41 135 80 254.5t74 226.5q4 25 -7.5 46t-27.5 26q-68 16 -133 -5q-31 -10 -41 -59q-23 -70 -42.5 -137.5t-41.5 -136.5q-35 -135 -53.5 -232.5t-20.5 -161.5q0 -39 -12 -59q-12 -35 -21.5 -60.5t-17.5 -48t-23 -30.5q-133 -90 -133 -205q0 -63 45 -88 q29 -16 56 -17q72 0 135 95q12 18 26.5 53t32.5 86q18 49 30.5 79t16.5 40q39 57 64 71q10 4 23.5 6.5t35.5 2.5q57 2 111 12q104 18 182 100q8 8 12 43zM203 137q0 2 -1 3t-1 3v-4zM492 1163q-53 -86 -123 -86q-27 0 -47 10q-72 31 -72 107q0 45 29 102v-2q31 63 114 64 q16 0 51 -12q63 -29 64 -107q0 -43 -16 -76zM584 180q0 -37 -19 -55q-86 -90 -192 -105q-45 -8 -113 -12q-20 0 -32.5 -2t-20.5 -6h2q-23 -14 -55 -66v3q-18 -29 -48 -117q-20 -53 -34.5 -88t-26.5 -56q-74 -102 -149 -102q-37 0 -64 18q-55 31 -55 107q0 127 143 221 q6 2 14 23v-2q8 23 18.5 52.5t22.5 63.5q8 14 9 45q2 131 73 400q10 35 20.5 68.5t21 68.5t21.5 68.5t21 68.5l-2 -2q16 66 58 74q39 12 79 12q39 0 64 -8q20 -6 34.5 -27.5t14.5 -50.5q0 -4 -1 -6t-1 -6q-35 -106 -75 -229t-81 -259q-2 -4 -2 -8t-2 -8h2q-6 -23 -13 -49.5 t-13 -54.5q16 2 51 3t94 1q29 0 82 32q61 35 94 84v-2q6 12 13.5 14.5t11.5 2.5q10 0 16 -5t10 -22l-2 2q8 -16 9.5 -32.5t1.5 -30.5v-21zM604 178v23q0 18 -2 36.5t-10 34.5v-4q-6 23 -16.5 31t-26.5 8q-6 0 -18.5 -3t-22.5 -21q-29 -45 -88 -78q-47 -29 -72 -29 q-39 0 -69.5 -1t-53.5 -3q6 23 11.5 42t9.5 38q2 4 2 8t2 8q43 135 82 258t74 228q0 4 1 10t1 10q0 35 -19.5 61.5t-42.5 34.5q-18 6 -35.5 8.5t-34.5 2.5q-41 0 -83 -15q-51 -16 -70 -86v2q-10 -35 -20.5 -68.5t-20.5 -68.5t-20.5 -69.5t-20.5 -69.5q-72 -272 -76 -404 q0 -29 -12 -49q-12 -35 -20.5 -58.5t-16.5 -45.5l2 2q-4 -10 -10 -14q-152 -98 -152 -238q0 -86 68 -125l-2 2q41 -20 74 -20q90 0 163 108q16 23 30.5 60.5t35.5 89.5q18 53 29.5 79.5t15.5 34.5v-2q33 51 47 58h2h-2q12 4 43 4q70 4 115 12q117 20 205 113q20 20 24 65z M506 1155q20 35 20 84q0 90 -90 133q-16 6 -43 6q-94 0 -131 -75q-14 -29 -22.5 -56.5t-8.5 -52.5q0 -88 82 -123q16 -8 28.5 -10t27.5 -2q84 0 137 96zM223 145h-2q0 2 1 3l1 2v-5zM182 164q2 2 6 2q-2 0 -3 -1t-3 -1zM217 -16l-2 -2v2h2z" />
<glyph unicode="k" horiz-adv-x="819" d="M877 180q4 41 -11 76q-4 18 -14 4q-18 -29 -45 -50.5t-59 -39.5q-57 -35 -93 -35q-74 0 -96 8q-51 14 -41 72q10 55 15.5 91t7.5 54q6 53 -43 82q-25 14 -6 25q143 102 180 242q6 25 6 43q0 63 -76 71q-70 8 -80 -65q-10 -55 -41 -135q-25 -68 -41 -93q-31 -39 -45 -43 q-29 -2 -48 -3t-36 1q-14 -4 -18 0q-6 4 -4 11q2 10 4 17t4 15q66 186 127 359.5t121 339.5q2 10 3 17t1 16q0 55 -90 57q-104 2 -131 -68q-16 -43 -59.5 -184t-114.5 -383q-164 -541 -170 -606q-6 -45 69 -45q80 0 97 37q25 72 43 128t32 97q12 49 29 45q43 -4 96 14 q35 10 27 -26q-25 -158 -25 -189q2 -45 68.5 -75.5t165.5 -30.5q23 0 45 2t47 6q106 18 186 98q4 4 7.5 15.5t5.5 27.5zM311 494q0 2 -4 6v-4q2 0 2 -2h2zM895 178q-4 -41 -18 -55q-86 -86 -195 -105q-49 -6 -96 -6q-104 0 -177 36t-75 89v6q0 23 7 69t17 118v2q2 0 2 2 q-2 0 -2 -2h-4q-43 -12 -88 -13h-14l-10 -30h2q-10 -33 -24.5 -74t-31.5 -88q-4 -16 -10 -32.5t-12 -35.5q-18 -47 -113 -47q-90 0 -90 58v8q4 37 47 188.5t123 421.5q74 242 118 383t60 184q27 82 140 82h8q111 -4 110 -77q0 -16 -8 -39q-16 -43 -31.5 -85t-31.5 -89 q-43 -123 -89.5 -253t-93.5 -266q0 -6 -2 -11t-4 -9v2q-2 -2 -2 -8h2q0 2 2 2h17h22q12 0 29 2h12q6 2 35 37q6 10 17.5 31.5t21.5 56.5q14 35 23.5 68.5t13.5 62.5q16 80 88 80h14q92 -6 92 -90q0 -12 -1 -24.5t-3 -25.5q-37 -139 -182 -243q49 -37 49 -88v-13 q-2 -20 -7 -56t-15 -91q-2 -4 -2 -12q0 -29 30 -39q18 -6 90 -6q27 0 84 34q29 16 54.5 37t42.5 45v-2v2v0q2 0 2 2q4 10 11 11.5t11 1.5q10 0 16.5 -5.5t10.5 -21.5l-2 2q10 -29 10 -63v-19zM913 176v21q0 18 -2 36.5t-8 34.5v-4q-6 23 -16 31t-27 8q-8 0 -20.5 -3 t-22.5 -21q-33 -47 -88 -76q-51 -29 -74 -29q-68 0 -86 6q-16 4 -16 19q0 6 2 10v-2q10 53 15 91t8 60v13q0 49 -37 86q129 106 168 243q8 27 8 52q0 98 -111 110h-16q-47 0 -71.5 -25.5t-35.5 -72.5q-4 -27 -12 -58.5t-25 -70.5q-27 -70 -36 -80l-23 -29h-10q-14 -2 -25 -2 h-18q49 135 94 263t90 253q16 45 30.5 87t31.5 85q8 23 8 48q0 92 -129 96h-8q-123 0 -158 -92q-16 -43 -60.5 -185.5t-115.5 -384.5q-80 -274 -124 -426.5t-48 -185.5v-12q0 -78 108 -78q109 0 131 61q6 18 12.5 33.5t10.5 32.5q18 49 30.5 90t22.5 74q4 14 -4 16h10 q33 0 68 8q-18 -121 -19 -164v-8q2 -61 80 -102t191 -41q27 0 50 2t48 6q119 23 205 111q20 18 24 65zM512 434q4 4 8 6q-2 -2 -8 -6zM330 500h-2v2l2 2v-4z" />
<glyph unicode="l" horiz-adv-x="466" d="M522 180q4 41 -10 76q-4 18 -14 4q-16 -29 -42 -50.5t-57 -39.5q-53 -35 -88 -35q-94 0 -121 27q-12 12 -12 39q0 10 2 28.5t10 46.5q20 96 55.5 224.5t84.5 292.5q14 33 23 53t14 26q43 63 74.5 124t50.5 120q10 41 10 70q0 53 -23.5 87t-62.5 38q-113 6 -172 -166 q-57 -156 -123 -408q-84 -313 -98 -467q0 -23 -1.5 -40t-1.5 -31q0 -100 72 -146q53 -27 133 -26q49 0 109 12q100 18 176 98q4 4 7 15.5t5 27.5zM539 178q0 -18 -5.5 -32.5t-11.5 -22.5q-84 -86 -184 -105q-29 -4 -56.5 -7t-56.5 -3q-92 0 -143 29q-80 49 -80 162v22 q0 14 2 31v-2q0 4 1 10t1 12q12 156 96 471q66 248 125 410q61 176 179 176h12q45 -6 73.5 -45t28.5 -98q0 -31 -12 -76q-41 -127 -127 -248q-10 -14 -35 -78v2q-47 -156 -81 -283.5t-56 -230.5q-14 -55 -14 -71t8 -25q18 -23 108 -22q16 0 35 8t45 24q29 18 51.5 39 t38.5 45v-2q6 12 13.5 14.5t11.5 2.5q10 0 15 -5.5t9 -21.5l-2 2q8 -16 9.5 -31.5t1.5 -31.5v-19zM557 176v21q0 18 -2 36.5t-8 34.5v-4q-6 23 -15.5 31t-25.5 8q-8 0 -19.5 -3t-19.5 -21q-31 -47 -86 -76q-45 -29 -70 -29q-82 0 -96 14q-2 2 -2 13q0 8 3 24.5t7 40.5 q23 94 56.5 221t85.5 293l-3 -4q12 31 20.5 49.5t12.5 24.5q90 131 129 256q14 41 15 80q0 68 -33 112.5t-86 49.5h-14q-129 0 -197 -189q-27 -72 -57.5 -174t-65.5 -237v2q-41 -160 -66.5 -279t-31.5 -197q0 -6 -1 -13t-1 -11v4q-2 -16 -2 -31v-24q0 -127 90 -181 q29 -14 66.5 -22t84.5 -8q59 0 115 12h-2q115 23 197 111q18 18 22 65z" />
<glyph unicode="m" horiz-adv-x="1388" d="M1448 174q4 41 -10 74q-6 16 -17 4q-39 -51 -106 -88q-57 -31 -96 -33q-72 -4 -113 19q-27 16 -27 43q0 10 6 32q2 6 64 166q29 76 48.5 128t27.5 85q12 39 12 72q0 72 -61 102q-41 18 -78 19q-76 0 -166 -72q-59 -47 -129 -133q-59 -72 -60 -72q-10 0 7 33q37 80 36 137 q0 86 -98 105q-20 4 -33 4q-152 0 -323 -250q-33 -53 -33 -21q0 10 8 38t25 71q16 39 27.5 65.5t19.5 42.5q8 14 8 27q0 27 -43 45q-31 12 -68 12q-82 0 -96 -55q-53 -193 -102 -364.5t-96 -331.5q-8 -45 81 -45q94 0 111 37q23 57 127 233q113 199 170 262q70 82 111 76 q37 -6 18 -59q-59 -141 -110.5 -267.5t-96.5 -240.5q-16 -43 90 -43q96 0 113 43q23 74 147 254q49 76 91.5 133t76.5 100q55 66 80 66q31 0 31 -29q0 -23 -27 -68q-16 -35 -35.5 -77.5t-41.5 -98.5q-25 -66 -36.5 -109.5t-11.5 -70.5q0 -88 107 -127q55 -20 145 -20 q31 0 60.5 3t60.5 7q111 18 191 96q12 12 14 41zM1466 172q-2 -35 -18 -51q-86 -84 -201 -103q-31 -6 -61.5 -8t-63.5 -2q-94 0 -153 23q-119 39 -119 143q0 57 51 186q23 59 42.5 102.5t35.5 76.5q23 45 22 59q0 8 -10 8q-20 0 -63 -55q-35 -43 -77 -101.5t-93 -132.5 q-125 -186 -146 -249q-20 -57 -129 -58q-113 0 -112 53q0 10 4 17v-2q23 61 49.5 125.5t54.5 132.5q25 59 50.5 122.5t52.5 131.5l-2 -2l8 26q0 4 -8 9h-5q-33 0 -90 -70q-55 -61 -166 -258q-109 -184 -129 -233.5t-127 -49.5q-102 0 -102 58v12q47 160 97.5 333t103.5 365 v-2q18 70 114 70q20 0 39 -2t37 -12q53 -18 54 -62q0 -10 -1.5 -18.5t-7.5 -18.5v2q-10 -18 -21 -44.5t-26 -61.5q-6 -16 -11 -28.5l-9 -22.5q172 238 325 237q10 0 18.5 -1t18.5 -3q113 -18 113 -123q0 -35 -12 -84q61 84 127 133q100 76 178 76q47 0 86 -20h-2 q76 -35 75 -119q0 -37 -12 -76q-8 -29 -27.5 -82t-50.5 -133q-18 -49 -31.5 -83t-21.5 -54q-10 -27 -10 -29q-2 -10 -3 -16t-1 -10q0 -20 16 -29q27 -14 86 -14h17q33 2 86 32q66 35 100 80v-2v2v0q2 0 2 2q4 8 11 9t12 1q10 0 16 -3t10 -19h-2q8 -16 10 -31.5t2 -30.5v-18z M1487 170v20q0 18 -2 36t-10 34v-4q-6 23 -17.5 31t-27.5 8q-8 0 -20.5 -3t-23.5 -22l5 4q-16 -23 -41 -42t-54 -35v2q-55 -29 -79 -31h-15q-53 0 -76 14q-8 2 -8 11q0 10 6 28q0 -6 11 21q6 20 19 55t32 82q29 72 47 124t29 93q14 43 14 80q0 98 -84 135q-45 23 -94 23 q-90 0 -191 -78q-37 -29 -82 -80v14q0 119 -131 141q-10 2 -18 3.5t-21 1.5q-127 0 -258 -144q10 25 17 37l-2 -2q14 23 14 45q0 53 -68 80l2 -2q-23 10 -42 14t-42 4q-113 0 -133 -86q-53 -190 -103 -367t-97 -337v-8q0 -76 120 -76q121 0 148 61h-2q23 55 125 230 q55 98 97 162.5t69 93.5q20 25 36.5 39t26.5 20q-2 -2 -2 -8v4q-27 -68 -52.5 -131.5t-49.5 -124.5q-29 -66 -54.5 -130.5t-48.5 -123.5l2 4q-4 -10 -5 -14t-1 -13q0 -72 131 -71q125 0 150 69q10 33 46 93.5t97 152.5q49 76 91 133.5t77 98.5q10 16 18.5 24t14.5 17 q-4 -8 -7 -15.5t-9 -17.5q-39 -74 -80 -180q-27 -66 -38.5 -115t-11.5 -78q0 -117 132 -164q61 -20 159 -20q35 0 67 2t62 8h-2q119 18 211 106q23 23 27 64z" />
<glyph unicode="n" horiz-adv-x="935" d="M991 174q4 39 -8 74q-6 16 -16 6q-37 -53 -105 -88q-57 -35 -92 -35q-78 0 -107.5 16.5t-29.5 45.5q0 8 1 15t3 17q2 4 18.5 45t44.5 121q57 150 74 215q14 45 14 84q0 74 -73 105q-29 12 -58 12q-74 0 -157.5 -61.5t-184.5 -184.5q-6 -14 -18 -14t-2 22q25 72 40 121 t23 76q6 35 -6 48t-65 15q-49 4 -68 -6q-39 -14 -53 -51q-4 -12 -28.5 -100t-65.5 -252q-84 -332 -86 -357q0 -31 28 -38q53 -18 111 16q23 16 31 45q18 55 102 213q98 184 177 262t118 68q16 -6 16 -25q0 -23 -22 -67q-31 -66 -74 -179q-47 -135 -47 -184q0 -86 102 -127 q109 -37 265 -10q109 18 186 96q12 12 12 41zM1012 172q-4 -37 -21 -51q-41 -43 -91 -67.5t-103 -35.5q-35 -6 -67 -8t-62 -2q-41 0 -77 5t-69 18q-115 41 -114 143q0 29 11 76t36 115q23 61 41 105t32 75q23 39 23 59q0 4 -10 8q4 -2 0 -2q-35 0 -105.5 -75.5 t-161.5 -243.5q-41 -78 -65.5 -129t-32.5 -82q-4 -18 -15 -31.5t-26 -23.5q-41 -25 -86 -25q-23 0 -41 8q-41 10 -41 49v9q2 27 86 358q41 164 66.5 253t30.5 101q16 47 63 62h-2q16 8 53 8h23q53 -2 73.5 -14.5t20.5 -45.5q0 -14 -1 -17l-3 -9q-8 -25 -20.5 -64t-32.5 -96 q188 223 333 223q37 0 64 -14q86 -35 86 -121q0 -41 -12 -90q-8 -29 -27.5 -82t-48.5 -133q-20 -47 -32.5 -82t-20.5 -55q-4 -12 -6.5 -18.5t-2.5 -10.5q-6 -18 -6 -26q0 -20 25.5 -31.5t93.5 -11.5q16 0 35.5 8t48.5 24.5t54.5 37t41.5 42.5v-2v2v0q2 0 2 2q6 10 12.5 11 t10.5 1q10 0 16 -4t10 -20l-2 2q8 -16 10.5 -31.5t2.5 -32.5v-18zM1030 170v20q0 18 -2 36t-10 34v-4q-4 23 -15.5 31t-27.5 8q-8 0 -20.5 -3t-20.5 -22q-33 -45 -90 -73q-51 -29 -74 -29q-59 0 -79.5 7t-20.5 18q0 10 6 28q0 -6 10 21q6 20 19.5 55t31.5 82q55 143 74 217 q10 29 13 52.5t3 41.5q0 96 -98 139q-16 6 -33.5 10.5t-38.5 4.5q-129 0 -286 -162q10 25 14 43t8 33q2 10 4 18t2 12q0 41 -24.5 58.5t-87.5 19.5h-23q-43 0 -59 -8q-53 -18 -76 -74q-8 -25 -92 -354q-43 -172 -64.5 -262t-23.5 -100v-11q0 -51 53 -67q18 -8 47 -8 q55 0 98 28q33 23 46 68q16 53 98 205q78 147 140.5 222t96.5 85q-4 -14 -16 -37q-31 -61 -76 -184q-25 -68 -36 -117t-11 -78q0 -115 127 -164q61 -20 152 -20q33 0 64.5 2t66.5 8q115 18 207 106q22 25 24 64z" />
<glyph unicode="o" horiz-adv-x="759" d="M631 709q-41 20 -70 20q-102 0 -102 -119q0 -66 41 -94q20 -14 20 -39q0 -23 -31 -110q-31 -102 -65 -150q-61 -88 -137 -88q-25 0 -49 12q-33 20 -33 76q0 78 61 213q39 90 121 191q33 41 54.5 63.5t33.5 30.5q33 18 14 43q-12 18 -57 18q-92 -2 -201 -86 q-123 -92 -170 -237q-39 -117 -38 -205q0 -154 129 -209q61 -23 118 -23q217 0 338 244q80 166 80 297q0 119 -57 152zM440 610v27q0 14 4 25q-10 -10 -20 -22.5t-23 -29.5q-80 -98 -118 -186q-59 -135 -60 -207q0 -45 25 -59q25 -10 39 -11q61 0 123 80q33 47 61 146 q31 86 31 104q0 10 -4 15.5t-9 9.5q-49 34 -49 108zM639 725q68 -41 68 -168q0 -137 -82 -303q-123 -256 -355 -256q-63 0 -127 25q-139 57 -139 225q0 94 39 211q49 145 176 246q57 43 108.5 65.5t104.5 24.5q53 0 74 -27q8 -16 10 -27q18 6 45 7q39 0 78 -23zM647 741 q-43 25 -86 25q-10 0 -17 -1t-16 -3l-4 8l-4 8q-27 35 -90 35q-106 -4 -221 -94q-129 -92 -182 -254q-23 -63 -32 -117.5t-9 -99.5q0 -180 151 -244q61 -25 133 -24q244 0 371 264q84 178 84 313q0 139 -76 182zM477 487q6 -4 6 -10q0 -16 -28 -98q-16 -47 -29.5 -82 t-30.5 -57q-53 -74 -108 -74q-16 0 -31 8q-14 6 -14 43q0 72 57 199q37 84 117 180q0 4 6 10q0 -39 13 -70t42 -49z" />
<glyph unicode="p" horiz-adv-x="925" d="M983 180q4 41 -8 76q-6 16 -17 6q-37 -51 -100 -90q-59 -29 -94 -35q-104 -16 -160 10q-18 6 4 29q33 31 88 115q76 119 86 196q12 92 13 125q0 117 -115 172q-39 20 -82 21q-119 0 -285 -197q-6 -8 -10 -4q-4 2 0 19q29 102 46.5 162.5t25.5 80.5q16 41 -25 62 q-16 8 -63 8q-47 -4 -58 -8q-27 -12 -41 -41q-45 -154 -85 -302.5t-80 -291.5q-72 -244 -123.5 -405.5t-79.5 -243.5q-12 -33 22 -52q43 -23 133 0q37 8 54 46q29 104 56.5 201.5t53.5 189.5q6 12 25 10q68 -8 98.5 -11t24.5 -3q43 8 75.5 14t55.5 14h14t19 -4 q49 -18 172 -24q74 -4 159 14q109 18 189 98q12 12 12 43zM612 549q-4 -70 -51 -172q-25 -53 -52.5 -96t-55.5 -78q-29 -29 -33 -25q-51 29 -141 29q-35 0 -51.5 -6t-26.5 -4q-10 0 -6 16q18 61 120 221q111 164 164 195q27 16 51 16q35 0 59.5 -25.5t22.5 -70.5zM594 553 q0 35 -18.5 54.5t-45.5 19.5q-14 0 -43 -15q-51 -31 -157 -190v2q-43 -68 -72 -119t-41 -86q10 4 24.5 6t37.5 2q98 0 143 -28l4 4t12 14h-2q31 37 58.5 79t50.5 89q25 51 36 91t13 73v4zM1004 178q-4 -39 -21 -53q-84 -88 -197 -107q-78 -12 -141 -12h-22q-127 6 -185 27 q-2 2 -10 2q-4 0 -5 -1t-5 -1q-29 -10 -59.5 -14.5t-67.5 -12.5l-4 27v-27q-16 2 -23 2q-6 0 -31 4q-16 2 -32.5 3t-38.5 3h-4h-2q-14 -49 -27.5 -98t-28.5 -102q-14 -45 -25.5 -88t-25.5 -90q-23 -55 -69 -66q-47 -12 -84 -12q-41 0 -64 14h2q-37 18 -37 51v11q0 4 4 12 q31 82 81 243.5t122 405.5q39 143 79 289.5t85 300.5q18 37 53 57q14 4 64 8q51 0 73 -8q41 -20 41 -57q0 -16 -8 -31v2q-6 -18 -21.5 -67.5t-37.5 -133.5q145 164 266 164q49 0 90 -20q125 -63 125 -191q0 -35 -12 -127q-8 -80 -90 -206q-27 -39 -48.5 -68t-39.5 -49h-2 q31 -10 73 -10q25 0 66 6q39 6 88 32q31 18 54.5 38t39.5 42q6 10 13.5 12.5t11.5 2.5q10 0 16 -4.5t10 -20.5l-2 2q8 -18 10.5 -33.5t2.5 -31.5v-19zM1022 176v21q0 43 -10 71v-2q-6 23 -17.5 31t-27.5 8q-8 0 -20.5 -3t-22.5 -21q-37 -47 -86 -76l2 2q-25 -12 -45.5 -20.5 t-36.5 -10.5q-37 -6 -64 -6t-37 2q16 18 34 43t38 53q41 63 64.5 116.5t27.5 98.5t7 78t3 51q0 141 -133 207q-45 23 -100 23q-106 0 -227 -115q14 47 24.5 78t14.5 45q10 20 10 39q0 49 -55 74h2q-25 12 -82 12q-43 -2 -72 -12q-37 -16 -59 -60q-45 -154 -86 -305.5 t-82 -294.5v2q-143 -489 -203 -649q-6 -16 -6 -29q0 -45 51 -69q16 -6 31.5 -10.5t36.5 -4.5q35 0 88 13v-2q31 8 50 25.5t32 45.5q12 47 25 94.5t26 92.5q14 47 26.5 94t26.5 92q33 -4 61 -6q25 -4 31 -4t23 -2l2 63l6 -63q43 8 75.5 14t59.5 16l2 -1l6 -3q53 -20 185 -26 h24q35 0 71 3t75 11h-3q121 23 209 111q21 20 25 65zM575 549q-2 -29 -14 -68t-35 -86q-25 -51 -50 -93t-54 -73q0 -4 -4 -8q-55 25 -139 25q-10 0 -17.5 -1t-13.5 -1q14 29 38.5 71.5t61.5 96.5q53 80 90 126t60 58q10 4 16 7t16 3q18 0 31.5 -14t13.5 -39v-4zM616 182 q4 -4 9 -4q-5 0 -9 4zM285 631l-4 -4q0 4 4 4zM422 16h6h-6z" />
<glyph unicode="q" horiz-adv-x="980" d="M1038 178q4 43 -10 76q-6 20 -14 6q-18 -29 -45 -50.5t-62 -39.5q-57 -35 -92 -35q-125 0 -147 -8q-18 -6 -21 0q0 4 2 14.5t6 26.5q47 160 91.5 303t84.5 274q6 14 7 25q0 45 -82 47q-86 6 -103 -31q-14 -37 -41 -20q-61 41 -143 41q-133 0 -248 -100q-98 -84 -164 -220 q-55 -117 -55 -223q0 -193 158 -229q20 -6 43 -6q131 0 266 172q29 33 31 32q4 0 4 -6q0 -8 -6 -22q-2 -2 -88 -271q-76 -227 -78 -256q-10 -82 78 -84q100 -2 118 87q10 41 18.5 83.5t18.5 85.5q35 131 94 164q35 14 70 15q31 2 58.5 4t50.5 6q106 16 186 98q12 12 14 41z M522 680q66 0 66 -45q0 -70 -113 -248q-39 -59 -64.5 -98t-41.5 -56q-57 -70 -111 -69q-18 0 -33 6q-41 12 -41 72q0 111 109 260q63 90 121.5 134t107.5 44zM522 662q-90 0 -215 -173q-102 -139 -102 -247q0 -47 26 -56q12 -4 27 -4q43 0 94 62q18 23 44 59.5t63 93.5 q111 168 110 238q0 27 -47 27zM1057 178q-2 -20 -7.5 -33.5t-11.5 -21.5q-86 -86 -196 -105q-23 -4 -50.5 -5t-62.5 -3q-33 0 -61 -14q-49 -20 -84 -152v2q-2 -6 -3 -13t-3 -11q-12 -76 -31 -146q-25 -100 -131 -100h-6q-96 2 -97 88v17q4 29 80 260q12 37 21.5 69.5 t17.5 61.5q10 29 17.5 50t11.5 38q-125 -150 -258 -150q-29 0 -49 6h2q-172 43 -172 248q0 115 57 232q70 141 168 227q123 104 260 104q78 0 154 -47h4q4 0 10 19q16 37 96 37h23q100 -2 100 -66q0 -14 -6 -33v2q-41 -129 -84 -273t-90 -304v6q0 -2 -1 -3t-1 -3 q-4 -12 -6 -15q37 6 147 7q16 0 35.5 8t48.5 24q29 18 54.5 39t41.5 45q6 10 13.5 11.5t11.5 1.5q10 0 17 -4.5t10 -20.5l-3 2q8 -16 10.5 -32.5t2.5 -30.5v-19zM1075 176v21q0 18 -2 35.5t-8 35.5v-4q-6 23 -16.5 31t-28.5 8q-6 0 -19.5 -3t-21.5 -24q-16 -23 -38.5 -41 t-51.5 -32q-45 -29 -74 -29q-39 0 -67.5 -1t-51.5 -3q47 154 89 295t83 268q8 14 9 37q0 84 -121 86h-23q-80 0 -112 -51q-72 41 -152 41q-143 0 -272 -111q-104 -88 -174 -231q-29 -61 -44.5 -120.5t-15.5 -119.5q0 -223 189 -266q25 -8 51 -8q106 0 217 98q-4 -8 -4 -10 q-10 -29 -19.5 -61.5t-21.5 -69.5q-80 -231 -82 -264v-19q0 -104 115 -106h8q123 0 149 112q8 37 16.5 74t16.5 74l-2 -2q2 4 2 12q0 6 2 12q33 113 78 140q20 10 51 10q35 2 64.5 4t52.5 6h-2q121 23 207 111q20 18 24 65zM522 641q27 0 27 -6q0 -59 -107 -227 q-41 -59 -66.5 -97.5t-35.5 -52.5q-47 -55 -82 -55q-8 0 -20 4q-14 6 -15 35q0 49 25.5 107.5t73.5 127.5q118 164 200 164zM465 223v-2v2z" />
<glyph unicode="r" horiz-adv-x="788" d="M846 176q4 41 -10 74q-4 18 -15 4q-37 -49 -104 -88q-61 -33 -94 -33q-66 -4 -91 0q-57 12 -45 68q4 16 20.5 60t47.5 116q59 145 66 178q8 49 -31 82q-20 16 -90 55q-35 20 -57.5 30.5t-36 16.5t-17.5 12.5t0 16.5q12 29 8 49q-6 90 -82 92q-86 4 -108 -104 q-2 -10 -2 -21v-16q0 -25 11 -47.5t13 -34.5l-1 -3t-3 -11q-33 -119 -98 -250q-55 -113 -94 -162q-57 -63 -86 -84q-45 -33 -111 -45q-8 -2 -8 -20q0 -33 14 -62q4 -12 17 -12q84 14 157 72q123 100 201 253q2 4 26.5 63.5t71.5 176.5q10 27 27 16q63 -33 76 -59 q12 -29 0 -51q-8 -10 -19.5 -38t-27.5 -73q-39 -102 -58 -192q-6 -25 -6 -45q0 -76 84 -114t254 -9q104 14 189 96q4 4 7 15.5t5 27.5zM864 174q-4 -39 -18 -53q-43 -43 -91 -68.5t-108 -34.5h2q-35 -4 -67.5 -7t-61.5 -3q-117 0 -175 42t-58 110q0 25 6 49q10 39 24.5 87 t36.5 107q14 45 25.5 72t19.5 41q2 4 4.5 8t2.5 8t-2.5 8.5t-4.5 10.5q-8 20 -63 49q-31 -78 -55.5 -134t-34.5 -83q-10 -20 -10 -27q-84 -162 -207 -264q-39 -29 -79 -47t-87 -27h-8q-18 0 -31 23q-14 35 -14 70q0 27 34 41q47 8 90 38q31 23 82 84v-2q41 47 95 158 q31 59 53 120.5t41 127.5q2 4 3 5l1 1v2l-2 5q-2 5 -2 11q-6 14 -13.5 31t-7.5 35q0 10 1 19.5t3 19.5q25 121 125 121h2q92 -4 103 -109v-10q0 -8 -4 -20.5t-11 -30.5h3q0 4 26 -8h-2q18 -10 36.5 -18.5t41.5 -20.5q74 -39 96 -60h-2q41 -31 41 -80v-8t-4 -14l2 2 q-4 -14 -20.5 -60.5t-49.5 -119.5q-31 -74 -46 -118t-19 -58v-13q0 -27 29 -28q20 -4 40 -4q10 0 21.5 1t26.5 1q16 2 36.5 8t47.5 22q63 35 98 82v-2v2v0q2 0 2 2q4 8 11 9t11 1q10 0 16.5 -4t10.5 -20l-2 2q10 -29 10 -61v-19zM885 172v21q0 18 -2 35.5t-11 33.5v-4 q-6 23 -16 31t-27 8q-8 0 -20 -3t-23 -22l5 4q-31 -41 -93 -77v2q-25 -16 -43 -22.5t-34 -8.5q-14 0 -24.5 -1t-21.5 -1q-16 0 -36 4q-14 4 -15 10v6q4 16 20.5 60.5t45.5 113.5q31 78 48 124t21 61l-2 -4q4 10 5 16v12q0 29 -12.5 51.5t-33.5 41.5q-16 16 -40.5 30.5 t-57.5 32.5v-2q-29 16 -47 25.5t-33 15.5h2q-4 2 -6 4t-6 2q4 10 6 19.5t2 17.5v12q-12 125 -121 127h-2q-119 0 -143 -139q-2 -10 -3 -20.5t-1 -20.5q0 -20 7 -38.5t13 -35.5l-2 2q0 -4 2 -8l2 -4v-2q-16 -57 -39.5 -117.5t-54.5 -124.5q-57 -113 -92 -155h2 q-53 -59 -80 -80q-35 -23 -90 -35q-27 -10 -35 -23.5t-8 -35.5q0 -18 3 -38t13 -40q8 -16 18.5 -24.5t29.5 -8.5h10q94 18 176 78q127 109 215 274q0 6 6 23q12 27 32.5 73t49.5 123q16 -8 25.5 -16t13.5 -12l-2 2q2 -4 4 -9.5t2 -3.5l-2 -4q-10 -12 -21.5 -41.5 t-27.5 -74.5q-20 -57 -35.5 -106.5t-26.5 -92.5q-6 -25 -6 -53q0 -76 62.5 -124t189.5 -48q59 0 131 12q115 14 209 109q23 22 25 63zM319 588q2 -2 5 -2q2 0 4 -2q-7 0 -9 4zM424 752v6v-6z" />
<glyph unicode="s" horiz-adv-x="788" d="M846 176q4 39 -10 72q-4 20 -15 6q-37 -49 -104 -88q-61 -33 -94 -35q-80 -4 -95.5 7.5t-1.5 23.5q8 10 19.5 26.5t25.5 40.5q35 68 39 125q4 96 -45 191q-39 76 -71 104q-10 10 0 35q4 8 11 24.5t21 41.5q23 43 25 63q2 70 -92 74q-47 2 -103 -31q-53 -33 -61 -78 q-2 -10 -3 -18t-1 -17q0 -23 11 -47t9 -37q-10 -27 -40.5 -77t-88.5 -127q-49 -70 -87 -121t-64 -80q-96 -104 -195 -123q-8 -2 -8 -20q0 -33 14 -62q2 -12 19 -12q88 18 145 63q8 8 19 -2q78 -82 217 -71q35 2 59.5 4t40.5 6q2 2 49 20q10 4 23 -2q27 -18 106 -22 q35 -2 66.5 -1t58.5 5q106 18 189 96q4 4 7 15.5t5 27.5zM393 293q-37 -115 -129 -146q-35 -12 -39 5q-12 49 -45 63q-23 10 -22 18q0 8 10 19q12 14 36.5 44t59.5 75q41 53 63.5 83.5t26.5 41.5q4 12 17 12q6 4 14 -8q20 -47 21 -115q-1 -53 -13 -92zM375 297q12 37 12 88 q0 61 -16 100q-10 -23 -90 -125q-35 -45 -59.5 -74.5t-39.5 -43.5q-4 -4 -4 -6v-3h2t8 -2q37 -16 54 -69q10 0 16 2q82 27 115 133h2zM864 174q-4 -41 -18 -53q-80 -80 -199 -103q-41 -6 -92 -6h-37q-84 6 -115 25q-2 2 -4 2v0h-2q-39 -12 -45 -19q-43 -10 -110 -12h-27 q-66 0 -115 19.5t-86 54.5q-55 -45 -149 -64q-16 0 -27.5 7.5t-15.5 19.5l2 -2q-14 31 -14 68q0 33 30 43q90 12 176 114h-2q31 35 69 84t85 113q106 150 123 194l-6 27l2 -2q-14 29 -15 59q0 10 1 16.5t3 14.5v2v6q12 55 70 90q53 33 107 33h6q111 0 110 -88v-6 q-2 -12 -7 -30.5t-19 -41.5v2q-12 -25 -20.5 -41t-12.5 -24q-2 -6 -2 -12l-2 2q20 -16 38.5 -45t39.5 -68q25 -47 35 -94t10 -94v-13q-2 -29 -10.5 -61.5t-28.5 -69.5q-33 -55 -51 -71h51q6 0 14 1t19 1q16 2 36.5 8t47.5 22q63 35 98 82v0q2 0 2 2l-2 -2v0q2 0 2 2 q4 8 11 9t11 1q10 0 16.5 -4t10.5 -20l-2 2q10 -29 10 -61v-19zM885 172v21q0 18 -2 35.5t-11 33.5v-4q-6 23 -16 30t-27 7q-8 0 -20 -3t-23 -22l5 6q-16 -23 -40 -42t-53 -35v2q-27 -16 -45 -22.5t-35 -8.5q-8 0 -16 -1t-12 -1q-8 0 -12 -2q6 10 12 21.5t14 23.5 q23 41 32 77t11 64v13q0 102 -47 196q-16 31 -33.5 57.5t-38.5 49.5v0q0 2 2 2q4 10 31 63q27 49 29 78v6q0 104 -131 109h-6q-53 0 -115 -39q-70 -41 -80 -101v-10q-2 -10 -3 -16t-1 -17q0 -16 4 -34.5t8 -30.5v4q0 -6 2 -10t2 -8q-8 -25 -37.5 -71t-80.5 -116 q-102 -143 -150 -198q-43 -47 -86 -75t-86 -34q-23 -8 -31 -21.5t-8 -37.5q0 -37 14 -74q6 -18 23.5 -27.5t40.5 -9.5q86 18 145 57q76 -70 201 -69h27q68 2 120 16q6 6 35 14q37 -18 121 -24h37q55 0 96 6q119 18 209 106q23 25 25 66zM356 303q-31 -94 -100 -121 q-18 39 -49 60q33 33 88 106q23 29 40 52.5t30 39.5q2 -12 3 -25.5t1 -29.5q-1 -45 -13 -82zM512 682q10 -4 12 -7t4 -7q-12 8 -16 14zM352 479l-2 4q0 -2 1 -3t1 -3v2zM389 481q0 -2 -1 -3t-1 -3q0 4 2 6zM393 18q2 0 3 1l1 1z" />
<glyph unicode="t" horiz-adv-x="503" d="M557 178q2 16 -1 40t-7 36q-2 4 -6 8t-8 -2q-20 -29 -47 -52.5t-53.5 -39.5t-50.5 -24.5t-38 -8.5q-39 0 -67.5 12.5t-47.5 32.5q-18 18 -17 50t5 46q4 18 18.5 72.5t31 115t29.5 111t17 56.5t8.5 11t14.5 5q4 0 21.5 -1t37.5 -1h41h23q8 2 13 5t9 14q6 16 10.5 34.5 t2.5 28.5q-2 12 -3 17.5t-12 9.5q-6 2 -22 2h-35h-31h-18q-8 4 -13.5 8t-1.5 16q2 6 17.5 55.5t34 109t34 110.5t15.5 61q4 20 0 36.5t-19 21.5q-33 10 -72.5 9t-62.5 -9q-10 -4 -20.5 -8.5t-18.5 -20.5q-4 -8 -12 -38t-18.5 -69t-22.5 -83t-21.5 -80.5t-16.5 -62.5t-9 -28 l-9 -15t-14 -5q-8 0 -28.5 1t-28.5 1t-19.5 -4t-17.5 -14q-10 -14 -14 -35t-8 -29q-8 -23 8 -27q12 -4 36.5 -2t35 -2t14.5 -7t2 -13q-2 -12 -16.5 -61.5t-31 -109t-30.5 -116.5t-16 -88q-6 -72 15.5 -116t66.5 -74q39 -29 109.5 -38.5t146.5 7.5q37 6 66.5 20.5t52 29.5 t37 29.5l20.5 20.5q8 8 12 41zM301 1190q4 0 6 2zM575 176q-2 -35 -18 -53q-6 -6 -20.5 -19.5t-39 -31t-56 -32.5t-70.5 -24q-23 -4 -46.5 -6t-48.5 -2q-109 0 -174 43q-43 31 -67.5 73t-24.5 107q0 4 1 11.5t1 15.5q2 23 9.5 55.5l16.5 71.5t20.5 79t21.5 74.5t16 60.5 t8 34h-2h2q-4 2 -14 2h-18h-23q-10 0 -14 2q-12 4 -19.5 15.5t-7.5 21.5q0 8 2 12q0 4 4 12q4 14 8.5 30.5t14.5 29.5q10 16 25.5 22t25.5 6q4 0 11 -1t18 -1h28v0q2 0 2 2v-4v4q2 0 3 2l43 158q16 63 34.5 123.5t24.5 83.5q8 20 22.5 26.5t26.5 10.5q2 0 3 1t3 1 q31 10 70 10t69 -10q20 -4 27.5 -20.5t7.5 -38.5q0 -4 -1 -9.5t-1 -9.5t-8 -30.5t-19.5 -63.5t-24.5 -80t-24 -80l-24 -80q0 -2 -1 -3t-1 -3q0 2 6 0h72h14q8 0 18 -4v2q16 -6 20.5 -14t6.5 -27v-8q0 -14 -5 -32.5t-9 -35.5q-6 -18 -15.5 -22t-21.5 -6h-19h-41t-43 2h-22 q-2 0 -6 -8q-2 -4 -11.5 -36t-21.5 -75t-24.5 -91t-22.5 -85q-4 -18 -6 -29.5t-13 -36.5l3 4q-4 -16 -5 -34q0 -12 2.5 -24.5t10.5 -18.5q35 -41 102 -41q14 0 35.5 8t46.5 23.5t49.5 37t42.5 47.5l-2 -4q4 12 10.5 14.5t10.5 2.5q10 0 16 -8.5t10 -12.5q4 -12 7 -34.5 t3 -39.5v-12zM594 174v14q0 18 -4 43t-8 37q-4 10 -13.5 21.5t-29.5 11.5q-10 0 -19.5 -3t-17.5 -19q-16 -25 -39 -44.5t-44.5 -34t-41 -21.5t-31.5 -7q-59 0 -90 35q-4 4 -5 12t-1 19q0 25 2 28v-2q2 10 7 28.5t9 37.5v-2q10 35 22.5 81t24 87t19.5 72.5t10 39.5h14 q18 -2 43 -2h43h21q16 4 28.5 9.5t22.5 31.5q6 16 11 38t5 38v12q-4 23 -9 34t-31 19q-8 4 -19 5h-18h-54l21 61q10 37 23.5 79t24.5 80t19.5 65.5t8.5 33.5q0 4 1 10t1 11q0 29 -11.5 51t-39.5 28l2 -2q-37 10 -74 11q-47 0 -82 -11h6h-6q-14 -6 -31.5 -15t-30.5 -38 q-2 -6 -7 -25.5t-13 -48t-17.5 -63.5t-19.5 -70v2q-14 -49 -25.5 -92t-17.5 -57h-16q-10 0 -17.5 1t-11.5 1q-14 0 -34.5 -8.5t-30.5 -26.5q-10 -12 -14.5 -29.5t-8.5 -29.5q-2 -4 -3 -7.5t-3 -7.5q-2 -8 -2 -22q0 -16 9 -32.5t28 -20.5q10 -4 20 -5h23h12q-4 -14 -9 -32.5 t-12 -40.5q-10 -37 -21 -77t-21.5 -79t-17.5 -72.5t-9 -56.5q0 -8 -1 -15t-1 -12q0 -72 26.5 -117.5t73.5 -78.5q31 -23 80 -35t104 -12q45 0 97 10q41 8 74.5 23.5t58 33t41 32.5t22.5 22q23 24 25 65zM252 264q-2 -4 0 -2v2z" />
<glyph unicode="u" horiz-adv-x="940" d="M997 174q0 18 -1 36.5t-9 35.5q-6 18 -16 6q-35 -51 -105 -88q-53 -33 -92 -33q-96 0 -131 35q-25 25 -6 104q4 20 22.5 78t51.5 152q31 90 49 141t24 64q14 23 15 43q0 33 -90 43q-98 10 -117 -64q-14 -41 -37 -100.5t-59 -139.5q-94 -209 -156 -268q-51 -51 -80 -51 q-51 0 -51 41q0 16 10 63q4 23 24.5 79.5t55.5 148.5q29 78 49.5 128t32.5 77q4 10 6 18t2 16q0 35 -76 60q-47 12 -73 12q-47 0 -62 -41q-78 -231 -119 -367.5t-45 -183.5q-2 -14 -2 -26v-23q0 -100 84 -131q41 -10 76 -10q154 0 299 209q4 6 8 10l6 6q4 4 4 -2t-2 -14 q-12 -55 -12 -86q0 -57 39 -84q57 -39 184 -39q25 0 49.5 2t49.5 6q109 18 186 96q12 12 14 41zM1016 172q-2 -18 -7 -31.5t-12 -21.5q-84 -82 -196 -101q-25 -4 -50.5 -6t-52.5 -2q-66 0 -114.5 10.5t-81.5 32.5q-45 31 -45 99v16t2 18q-139 -176 -287 -176q-23 0 -42 2 t-38 8q-100 37 -100 150q0 10 1 20.5t3 22.5v8q8 84 166 555q18 53 78 53q33 0 79 -12q90 -25 91 -78q0 -18 -13 -43q-10 -27 -30.5 -77t-51.5 -127q-35 -88 -54 -143.5t-23 -80.5q-10 -47 -11 -59q0 -23 33 -23q18 0 68 45q59 59 151 265q35 74 56.5 134t35.5 103 q23 76 119 76h21q106 -6 106 -61q0 -25 -14 -52q-18 -31 -74 -202q-59 -174 -74 -226q-6 -35 -6 -57q0 -25 6 -31q33 -31 119 -30q16 0 35.5 8t48.5 24.5t54.5 36t41.5 43.5v-2v2v0q2 0 2 2q6 8 12.5 9t10.5 1q10 0 16 -4t11 -20l-2 2q8 -16 10 -31.5t2 -30.5v-18zM1034 170 v20q0 41 -10 70v-4q-6 23 -17.5 30t-27.5 7q-6 0 -19.5 -3t-21.5 -22q-16 -23 -38.5 -40t-51.5 -31q-51 -29 -74 -29q-80 0 -104 25q-2 2 -2 18q0 27 6 51q4 18 22.5 73.5t51.5 151.5q29 90 47 139.5t22 59.5q20 35 21 62q0 39 -32 57t-93 22h-23q-111 0 -135 -90v2 q-12 -43 -34.5 -100t-57.5 -135q-47 -100 -83 -165t-67 -93q-41 -41 -53 -41t-12 4t2 19.5t6 37.5q4 20 23.5 74.5t54.5 144.5q31 78 50 127.5t30 77.5q14 29 14 49q0 63 -102 95q-29 10 -49.5 12t-36.5 2q-76 0 -97 -66q-158 -469 -166 -559v-6q-2 -12 -3 -24.5t-1 -22.5 q0 -127 111 -166q43 -14 88 -14q135 0 266 145q2 -68 54 -100q74 -45 206 -45q29 0 54.5 3t50.5 7q115 18 207 106q20 19 24 64z" />
<glyph unicode="v" horiz-adv-x="692" d="M637 651q6 129 -98 129q-57 0 -95 -40t-41 -99q-2 -51 31 -88l25 -25q4 -10 -2 -39q-12 -63 -70 -165q-57 -106 -100 -146.5t-80 -40.5q-57 0 -57 66q0 133 167 469q14 33 15 53q0 51 -68 68q-43 6 -57 6q-35 0 -55 -31q-23 -29 -47.5 -85t-53.5 -136 q-37 -104 -54 -187.5t-13 -144.5q8 -139 116 -180q35 -10 64 -10q90 0 192 73q41 29 83 84.5t87 134.5q105 184 111 334zM655 651q-6 -156 -112 -344q-92 -164 -174 -223q-109 -78 -205 -78q-35 0 -68 12q-121 47 -131 195v27q0 59 17.5 137t52.5 176q57 166 102 225 q27 39 70 39q10 0 24.5 -1t34.5 -5q84 -18 84 -86q0 -29 -16 -61q-166 -338 -166 -461q0 -45 39 -45q31 0 70.5 37.5t93.5 136.5q29 51 45 92t22 70q4 20 4 24v2l-20 21q-37 37 -37 92v8q2 70 45 114t109 44q117 0 116 -133v-15zM674 649v17q0 152 -135 151q-74 0 -122 -50 t-50 -126v-8q0 -61 41 -107l14 -14l-2 -16v2q-6 -29 -21.5 -68t-44.5 -88q-53 -94 -87 -130t-60 -36q-20 0 -21 27q0 127 164 452q8 16 13.5 34t5.5 36q0 41 -23.5 67.5t-75.5 36.5q-20 4 -36.5 6.5t-26.5 2.5q-49 0 -86 -47q-47 -70 -105 -230q-35 -98 -52 -178t-17 -143 v-27q8 -162 141 -213q18 -8 36.5 -10t39.5 -2q53 0 106.5 19.5t108.5 62.5q82 59 178 229q111 192 117 350z" />
<glyph unicode="w" horiz-adv-x="1081" d="M1024 651q2 61 -33 97q-35 31 -80 30q-57 0 -88.5 -43t-34.5 -100q-2 -82 58 -103q10 -4 4 -51q-10 -61 -64 -153q-53 -90 -100 -133q-49 -47 -92 -48q-51 0 -51 54q0 88 51 229q33 94 65 162q14 23 15 43q0 39 -74 51q-10 2 -18.5 3t-18.5 1q-61 0 -84 -53 q-63 -152 -90 -301q-8 -39 -32.5 -64.5t-47.5 -52.5q-18 -16 -38.5 -28.5t-43.5 -18.5q-16 -6 -26 -6q-49 0 -45 61q6 102 82 287q57 141 98 209q4 12 4 16q0 45 -78 45q-29 0 -45 -1t-24 -3q-35 -10 -52 -37q-72 -119 -114 -262q-49 -154 -43 -270q2 -80 36 -129 q43 -61 121 -55q111 6 209 88q25 23 37 -2q29 -61 92 -80q43 -12 80 -13q88 0 184 70q86 59 172 221q105 188 109 340zM1044 651q-6 -158 -110 -348q-94 -168 -178 -229q-106 -72 -197 -72q-41 0 -86 14v-2q-74 23 -102 90v2q-2 -2 -4 -3t-5 -3q-104 -86 -221 -92h-14 q-76 0 -121 64q-41 59 -43 139v25q0 57 11.5 119.5t33.5 131.5q23 74 50.5 139.5t66.5 125.5q12 20 26.5 30.5t34.5 16.5q8 2 26.5 3t49.5 1q96 0 96 -64q0 -12 -4 -18v-2q-45 -84 -98 -211q-74 -180 -80 -283v-6q0 -35 25 -35q6 0 18 4q37 14 76 41q4 6 9 11.5t13 13.5 q16 18 32 37.5t22 48.5q14 76 37.5 151.5t54.5 151.5q29 66 100 66q10 0 17.5 -1t17.5 -3h6q88 -16 88 -70q0 -27 -14 -53v2q-16 -35 -33.5 -75t-34.5 -85q-49 -139 -49 -223q0 -35 33 -35q35 0 78 41q45 41 98 131q53 94 59 145q2 10 2 27q0 4 3 4q-63 27 -64 113v8 q2 66 39 114t102 48q53 0 93 -35q41 -41 40 -103v-8zM1063 649v10q0 70 -45 115q-41 41 -107 41q-76 0 -117.5 -54t-43.5 -126v-8q0 -88 63 -123q0 -10 -2 -17q-8 -53 -57 -141q-25 -41 -48.5 -71.5t-46.5 -53.5q-43 -37 -65 -37q-14 0 -14 17q0 72 51 215q16 49 32.5 89 t30.5 70l-2 -2q20 33 21 62q0 70 -107 88h-8q-10 2 -17.5 3t-17.5 1q-88 0 -121 -78q-29 -74 -52 -150.5t-40 -154.5q-4 -23 -18.5 -42t-30.5 -36h2q-6 -6 -13 -12t-11 -12q-29 -23 -66 -35q-8 -4 -12 -4q-6 0 -6 16v6q6 92 79 277q29 72 53.5 122t45.5 87v2l2 2q4 8 4 24 q0 82 -117 82q-29 0 -49 -2t-31 -4q-23 -6 -41 -18.5t-32 -34.5q-37 -61 -67 -128t-52 -142q-45 -137 -45 -256v-27q2 -88 43 -148q51 -72 139 -71h16q59 4 113.5 25.5t103.5 58.5q35 -57 109 -76h-2q45 -14 92 -14q100 0 209 75q88 68 182 234q107 194 113 356z" />
<glyph unicode="x" horiz-adv-x="792" d="M850 174q4 39 -10 72q-6 18 -17 6q-35 -51 -104 -88q-57 -33 -94 -33q-82 0 -97 6q-66 29 -120 107q-8 12 -14.5 28.5t-14.5 38.5q-4 12 -10.5 38t-16.5 63q-2 18 6 32q61 80 168 179q55 49 121 49q51 0 45 55q-6 59 -74 59q-33 0 -63 -14q-66 -25 -227 -194 q-14 -14 -21 12q-12 63 -33 96q-45 106 -137 107q-35 0 -64.5 -24t-27.5 -58q2 -18 6 -24.5t21 -18.5q23 -23 24 -35q10 -27 25.5 -78t38.5 -127q6 -29 -6 -41q-47 -55 -79 -89t-44 -48q-111 -125 -224 -121q-14 0 -20 -14q-6 -23 -9 -41.5t-5 -34.5q0 -6 8 -8h26 q119 8 218 80q41 31 79.5 67.5t79.5 79.5q12 12 21 -6q49 -141 180 -203q92 -43 264 -12q109 18 187 96q10 8 14 41zM188 244v2v-2zM868 172q-2 -18 -7 -31.5t-11 -21.5q-84 -82 -199 -101q-72 -12 -135 -12q-41 0 -75.5 5t-63.5 20q-135 66 -187 205q-35 -41 -73.5 -75 t-79.5 -67q-104 -74 -225 -82q-8 -2 -23 -2q-12 0 -20 8q-14 6 -15 23q0 14 3 33.5t14 44.5q12 29 36 28h5q100 0 204 117l7 4q16 16 44.5 49t69.5 80q6 6 6 13l-4 12q-23 82 -38 134t-25 75q0 8 -19 24l4 -2q-23 14 -27.5 23.5t-6.5 32.5v6q0 41 34.5 69.5t75.5 28.5 q100 0 156 -119q18 -43 33 -92q78 80 133 126t88 63q35 14 71 14q86 0 93 -76v-12q0 -63 -64 -64q-61 0 -108 -45q-51 -47 -93.5 -91t-72.5 -85q-2 -2 -2 -10v-4q4 -14 7 -27.5t7 -23.5q4 -16 5 -28.5t5 -21.5q8 -23 14.5 -38t12.5 -25v2q47 -72 113 -100q12 -6 90 -6 q31 0 84 30q31 16 56.5 37t41.5 45v-2v2v0q2 0 2 2q6 8 12 9t10 1q10 0 16.5 -4t10.5 -20l-2 2q8 -16 10 -31.5t2 -30.5v-18zM887 170v20q0 41 -10 70v-4q-6 23 -17.5 30t-28.5 7q-6 0 -19 -3t-21 -22q-35 -43 -91 -71q-25 -14 -42 -21.5t-33 -7.5q-76 0 -82 4 q-53 25 -103 92q-14 20 -24 60q-4 12 -15 47q-4 10 -6 21t-6 24v6v2q55 74 164 170q41 41 94 41q84 0 84 82v14q-10 92 -113 92q-18 0 -37.5 -4t-41.5 -12l2 2q-72 -29 -209 -170q-8 35 -23 66v-3q-59 129 -172 129q-49 0 -89 -33.5t-40 -82.5v-6q4 -29 10.5 -40.5 t30.5 -29.5l8 -12q10 -29 27.5 -81t38.5 -130q0 -4 2 -4q-41 -47 -70.5 -80t-46.5 -49l-6 -9q-98 -109 -190 -108h-5q-39 0 -55 -41q-10 -25 -13 -45.5t-5 -36.5q0 -31 26 -43q10 -6 16.5 -7t12.5 -1q10 0 21 2q66 4 125 26.5t112 59.5q35 29 69 57.5t68 63.5 q57 -129 183 -187q59 -27 149 -26q33 0 69 2t70 10h-2q117 18 209 106q21 19 25 64z" />
<glyph unicode="y" horiz-adv-x="921" d="M977 180q4 39 -8 74q-6 18 -17 6q-33 -41 -88 -80q-35 -23 -60.5 -33t-47.5 -12q-39 -2 -64 -2q-23 0 -28 -2q-53 -6 -62.5 -8t-11.5 -2q-4 4 -4 8l6 18q203 598 203 617q0 33 -31 45q-18 8 -49 10q-37 2 -45 0q-29 -12 -39 -28q-35 -78 -68 -153t-63 -146 q-102 -211 -170 -263q-53 -41 -103 -24q-37 12 -32 92q0 31 77 240q39 98 60.5 151t32.5 68q20 33 -5 51q-41 33 -88 33q-6 0 -14 -1t-18 -3q-39 -4 -56 -35q-23 -35 -47 -93.5t-51 -136.5q-72 -209 -72 -344q0 -16 1 -31.5t3 -27.5q8 -51 48 -89t79 -40q90 -10 195 78 q80 70 113 127q6 12 16 12q16 0 6 -14q-25 -66 -47 -128.5t-45 -121.5q-10 -20 -14 -23q-35 -23 -88 -69q-68 -68 -91 -113q-29 -55 -28 -98q0 -78 82 -78q53 0 131 67q41 35 100 152q29 61 44.5 93t19.5 36q18 23 31.5 36t17.5 17q18 10 71 15q78 2 119 12q106 16 187 98 q8 8 12 43zM997 178q-2 -37 -20 -55q-82 -86 -195 -105q-20 -4 -50 -6t-70 -4q-47 -4 -62 -12q-4 -4 -14.5 -15.5t-30.5 -33.5v2q-2 -2 -17.5 -35t-45.5 -94q-57 -115 -107 -158q-82 -70 -141 -70q-100 0 -101 97q0 23 6.5 49t22.5 55q14 27 37.5 57.5t58.5 63.5 q59 57 90 72l2 4t7 10v-2q16 45 32.5 91t32.5 93q-16 -18 -36.5 -38.5t-45.5 -41.5q-100 -84 -188 -84h-17q-23 0 -46 12.5t-43.5 33t-36 47t-19.5 55.5q-2 12 -3 28.5t-1 32.5q0 70 17.5 158t54.5 193q57 166 100 233q20 35 68 45h8q6 2 12 3t16 1q47 0 101 -37 q20 -18 20 -41q0 -14 -14 -39q-6 -12 -28.5 -65t-59.5 -150q-39 -98 -57.5 -155.5t-20.5 -75.5v-12q0 -53 23 -64l-5 2q8 -2 13.5 -3t9.5 -1q33 0 65 27q29 23 70 86t92 168q33 72 65 146.5t66 152.5q14 25 58 39q2 0 6 1t10 1q4 0 12.5 -1t16.5 -1q43 -4 55 -11 q45 -18 45 -63q0 -14 -205 -619q8 2 21 2q12 0 31 3l-5 -3q10 4 52 5q10 0 21 1t26 1q39 2 98 41h-2q29 18 48.5 37.5t35.5 37.5v0q2 0 2 2l-2 -2v0q2 0 2 2q6 8 12 9.5t11 1.5q10 0 16 -4.5t10 -20.5l-2 2q8 -16 10 -32.5t2 -30.5v-19zM1016 176v21q0 18 -2 36.5t-10 34.5 v-4q-4 23 -15.5 31t-27.5 8q-8 0 -20.5 -3t-20.5 -21q-14 -16 -34 -33t-42 -33q-29 -20 -51.5 -28.5t-38.5 -10.5q-14 0 -24.5 -1t-20.5 -1q-41 0 -52 -2q-8 -2 -20 -2q197 571 197 596q0 55 -58 80q-10 4 -25.5 8t-33.5 6q-8 0 -17.5 1t-13.5 1q-6 0 -14 -1l-8 -1 q-51 -18 -68 -53q-35 -78 -66.5 -151.5t-64.5 -147.5v2q-102 -205 -158 -248q-27 -20 -53 -20l-16 2q-6 6 -7 43v10q4 18 22.5 73.5t55.5 153.5q35 94 57.5 147.5t30.5 65.5q14 25 15 47q0 35 -29 56q-49 41 -111 41q-10 0 -17 -1t-13 -4h-9q-55 -10 -81 -53 q-25 -41 -49.5 -99t-53.5 -136q-37 -106 -54.5 -196.5t-17.5 -162.5q0 -20 1.5 -35.5t3.5 -29.5q4 -31 20 -60.5t40 -51t50.5 -36t50.5 -14.5h19q45 0 97 21.5t106 66.5q4 4 9 8t9 8q-10 -25 -18.5 -49t-16.5 -49l2 2q-4 -10 0 -6q-33 -23 -96 -76q-74 -70 -98 -123 q-16 -35 -24.5 -62.5t-8.5 -51.5q0 -117 121 -117q66 0 155 78q49 43 109 164q29 55 43 85.5t18 39.5l-2 -5q16 18 27.5 30.5t15.5 17.5q4 2 18.5 3t33.5 3q88 4 124 12h-2q121 23 207 111q21 20 25 65zM244 240q-4 0 -4 2zM924 283q-2 -2 -2 -4z" />
<glyph unicode="z" horiz-adv-x="774" d="M831 178q4 41 -8 76q-6 18 -16 6q-37 -49 -98 -86q-53 -35 -105 -37q-115 -10 -149 2q-10 2 -15 8q-12 20 -20 30.5t-10 12.5q-8 10 -18.5 19.5t-20.5 19.5q-29 23 -4 29q33 10 65.5 26.5t61.5 43.5q82 74 92 178q2 16 2 29v26q0 203 -193 246q-23 6 -43 6 q-66 0 -109.5 -40t-43.5 -93t34 -53q10 0 29 12t41 12q25 0 53 -18q49 -37 50 -90q0 -27 -9 -51q-25 -66 -121 -115q-41 -20 -73.5 -28.5t-57.5 -8.5q-47 2 -59 -43q-10 -55 10 -55q111 -16 170 -86q16 -16 17 -29q0 -8 -19 -14q-59 -18 -94 -29.5t-47 -20.5 q-115 -55 -160 -151q-37 -78 -37 -133q0 -96 101 -154q49 -31 120 -31q164 0 254 136q94 143 88 272q-2 12 -2 18t0 3q0 6 11 6q49 -6 135 10q106 16 186 98q4 4 7 14.5t5 26.5zM303 -14q-2 -25 -5 -47.5t-9 -42.5q-6 -29 -21.5 -55.5t-38.5 -51.5q-57 -57 -104 -57 q-29 0 -49.5 20.5t-20.5 48.5q0 49 41 99q70 88 156 104q35 8 45 2q6 -4 6 -20zM270 -100q12 39 13 86v2h-9q-4 0 -14 -4q-82 -12 -149 -97q-37 -49 -37 -86q0 -20 14 -34.5t37 -14.5q43 0 90 49q39 46 55 99zM850 178q-4 -41 -19 -55q-86 -86 -194 -105q-31 -4 -58.5 -7 t-50.5 -3h-22v0q2 0 2 -2v-20q0 -129 -92 -267q-92 -143 -269 -143q-80 0 -131 31q-109 66 -108 172q0 31 8 65.5t29 73.5q53 106 170 162h-2q16 10 52 22.5t93 30.5q0 4 -1 5l-5 5q-31 35 -70 52.5t-90 25.5q-29 6 -29 45q0 14 1.5 20.5t3.5 16.5q14 57 71 57h15 q23 0 50 9.5t64 25.5q92 45 113 103h-2q4 14 6 25.5t2 19.5q0 45 -43 75q-14 12 -41 13q-20 0 -37 -10q-10 -4 -22 -9l-11 -6q-53 0 -53 74q0 59 50.5 105t121.5 46q23 0 47 -6q207 -47 207 -264v-29q0 -12 -2 -28q-4 -55 -29.5 -103.5t-68.5 -89.5q-29 -25 -57.5 -42 t-63.5 -27h2q12 -8 20.5 -17.5t18.5 -19.5h-2q4 -4 11 -15.5t20 -29.5q2 -4 4 -4l-2 2q25 -6 61 -6q18 0 39 1t45 3q45 2 98 34q55 33 93 82q4 8 11 9.5t11 1.5q10 0 16.5 -4.5t10.5 -20.5l-2 2q6 -16 8 -32.5t2 -30.5v-19zM870 176v21q0 18 -2 35.5t-10 35.5v-4 q-6 23 -16.5 31t-26.5 8q-8 0 -20.5 -3t-20.5 -24l2 7q-2 -2 -2 -7q-35 -41 -84 -69q-45 -27 -88 -31q-25 -2 -45 -3t-39 -1h-29q-12 0 -22 2l4 -4l-4 4q-2 0 -3 1l-1 1h2q-25 35 -29 39h2q-6 6 -10 11t-8 12q27 10 51.5 25.5t46.5 35.5q47 43 75 93t32 110q2 16 2 28v31 q0 236 -224 285l3 -2q-31 8 -54 8q-41 0 -75.5 -14.5t-60.5 -38t-41 -54t-15 -65.5q0 -92 73 -92q4 0 13.5 3t15.5 7q10 4 20.5 9t20.5 5q14 0 31 -12l-2 2q37 -25 37 -59q0 -8 -2 -18.5t-7 -22.5v2q-14 -47 -102 -92q-66 -33 -104 -33h-15q-72 0 -92 -86l-2 -6v-21 q0 -51 43 -63q45 -8 80 -21.5t59 -38.5q-49 -16 -78.5 -26.5t-44.5 -20.5l2 2q-127 -61 -178 -170q-39 -80 -39 -149q0 -119 119 -187q55 -35 139 -34q188 0 285 151q96 143 96 277v2q51 0 113 12h-2q121 23 207 111q22 22 24 65zM254 -94q-12 -43 -53 -90h2 q-45 -45 -78 -45q-14 0 -23.5 9t-9.5 21q0 35 33 74q59 76 125 88l6 3t6 1q-2 -16 -3 -32.5t-5 -28.5zM467 174l-2 2zM377 221h4h-4z" />
<glyph unicode="{" horiz-adv-x="837" d="M180 422q47 0 73 -39t23 -90q-2 -25 -6 -52.5t-14 -56.5l-119 -362q-18 -59 -18 -113q0 -59 40 -103t97 -44h137l39 123h-94q-55 0 -55 65q0 23 5 48.5t15 56.5l119 362q12 35 17 66.5t5 60.5q0 51 -25.5 91t-72.5 50l2 7q55 10 119 63q90 72 131 197l121 366 q55 170 147 170h95l38 123h-135q-203 0 -289 -260l-120 -367q-16 -49 -43 -91t-58.5 -72.5t-65.5 -48t-65 -17.5zM209 573q31 0 64.5 16.5t65.5 45.5t57.5 68.5t41.5 87.5l121 366q86 272 305 273h160l-51 -160h-107q-76 0 -131 -158l-121 -364q-41 -127 -135 -209 q-23 -18 -43 -30.5t-41 -23.5q35 -23 52.5 -59.5t17.5 -81.5q0 -59 -25 -133l-118 -363q-10 -29 -15.5 -52t-5.5 -46q0 -47 37 -47h119l-51 -160h-150q-66 0 -111 49.5t-45 116.5q0 57 21 119l119 362q10 27 13 52.5t5 52.5v4q0 43 -27.5 73.5t-74.5 30.5zM127 383 q53 0 83 -24.5t30 -59.5v-4q-4 -47 -19 -98l-119 -365v2q-12 -31 -16 -62.5t-4 -62.5q0 -78 50 -132t124 -54h162l67 201h-147q-16 0 -16 26q0 37 18 92l119 363v-2q25 74 24 141q0 84 -51 135q14 10 27.5 20.5t29.5 22.5q104 88 144 219v-2l121 365q49 145 112 145h121 l66 201h-189q-229 0 -325 -287l-121 -368v2q-16 -43 -41 -81t-55.5 -64.5t-62.5 -42t-62 -15.5z" />
<glyph unicode="|" horiz-adv-x="268" d="M123 39h72v1401h-72v-1401zM111 1460h96v-1442h-96v1442zM100 0h119v1479h-119v-1479z" />
<glyph unicode="}" horiz-adv-x="837" d="M641 549q-47 0 -73.5 38t-24.5 91q2 25 6 52.5t14 55.5l119 365q20 55 20 113q0 59 -39.5 103t-99.5 44h-135l-39 -123h94q53 0 54 -65q0 -45 -21 -105l-119 -364q-23 -72 -22 -127q0 -53 26.5 -92t71.5 -50l-2 -6q-55 -10 -119 -63q-90 -78 -129 -199l-121 -362 q-57 -170 -145 -170h-94l-41 -123h137q201 0 287 260l121 364q16 49 42.5 91t58.5 73t65.5 48.5t64.5 17.5zM610 397q-31 0 -64.5 -16t-64 -45t-56.5 -69t-42 -87l-121 -364q-88 -272 -303 -273h-162l51 160h109q74 0 127 158l121 362q43 129 137 209q41 35 80 53 q-31 20 -48.5 58.5t-17.5 83.5q0 61 25 133l119 364q18 55 18 99q0 47 -35 47h-118l51 160h147q68 0 113 -49.5t45 -116.5q0 -59 -21 -119l-118 -365q-16 -49 -21 -104v-4q0 -43 28.5 -74t76.5 -31zM694 588q-53 0 -82.5 24.5t-29.5 59.5v6q2 20 5 43.5t13 50.5l119 367v-2 q20 61 20 127q0 39 -13 72.5t-37.5 59t-56.5 40t-69 14.5h-162l-65 -201h147q16 0 17 -26q0 -18 -5.5 -41t-13.5 -52l-119 -364v2q-25 -72 -24 -141q0 -82 51 -138q-16 -10 -30.5 -20t-30.5 -20q-94 -82 -142 -220v2l-120 -362q-47 -145 -109 -145h-121l-65 -201h188 q229 0 322 287v-3l120 365q14 45 40 82t56.5 64.5t63.5 43t64 15.5z" />
<glyph unicode="~" horiz-adv-x="1130" d="M971 444q-90 -117 -166 -116q-39 0 -193 57q-141 53 -209 53q-150 0 -235 -139l68 -100q61 117 157 116q96 0 217 -57q109 -53 193 -53q76 0 141 43q41 31 94 96zM1061 344q-68 -84 -105 -108q-68 -47 -153 -48q-88 0 -201 56q-59 27 -110.5 41t-98.5 14q-84 0 -155 -137 l-93 137q96 156 258 156q74 0 218 -54q147 -57 184 -57q70 0 168 131zM973 506q-109 -145 -168 -146q-14 0 -59.5 13.5t-118.5 42.5q-72 27 -127.5 41t-96.5 14q-172 0 -278 -172l115 -170q84 154 153 154q86 0 199 -54q121 -57 211 -57q86 0 164 49q41 31 116 121z" />
<glyph unicode="&#xa1;" horiz-adv-x="874" d="M240 156q-2 -6 -2 -25q0 -61 71 -86q51 -18 84 -18q47 0 60 41q14 41 110 413q47 186 73 284.5t28 111.5q8 47 -37 61q-72 18 -92 -10q-12 -20 -150 -379q-66 -176 -101.5 -273t-43.5 -120zM596 1233q-8 -25 -8 -53q0 -98 90 -107q53 -6 83 16.5t52 98.5q6 25 6 43 q0 84 -82 92q-49 4 -89 -19.5t-52 -70.5zM578 1239q12 49 51 76.5t90 27.5q4 0 10 -1t10 -1q98 -10 99 -110q0 -27 -7 -47q-23 -76 -51 -104.5t-80 -28.5q-4 0 -11 1t-13 1q-106 8 -107 127q1 34 9 59zM223 162q8 20 44 119.5t102 275.5q72 182 108.5 277.5t42.5 105.5 q18 25 55 25q31 0 56 -9q53 -16 53 -67q0 -4 -1 -8t-1 -9q-2 -6 -7 -30.5t-16 -65.5q-12 -49 -32.5 -123.5t-44.5 -177.5q-49 -190 -78 -292.5t-35 -121.5q-18 -53 -76 -53q-31 0 -90 17q-84 33 -84 106q0 10 1 17.5t1 11.5zM205 166q-2 -10 -3 -17.5t-1 -17.5 q0 -90 98 -123q55 -20 94 -20q72 0 94 65q6 20 34 125t77 293q25 102 45.5 177t32.5 124q10 41 16 68.5t8 33.5q0 4 1 7.5t1 7.5q0 63 -67 86q-31 8 -60 8q-51 0 -71 -35l2 2q-16 -25 -154 -387v2q-68 -178 -103.5 -276.5t-43.5 -118.5v-4zM561 1245q-6 -18 -8 -34.5 t-2 -30.5q0 -133 123 -146q6 0 14 -1t12 -1q59 0 92 32t56 114q8 27 8 53q0 119 -115 129q-4 0 -11 1t-11 1q-55 0 -98 -31t-60 -88v2z" />
<glyph unicode="&#xa2;" horiz-adv-x="888" d="M639 653q37 0 45 15q10 23 29 77q18 61 18 78q0 88 -117 113q8 27 21.5 67.5t32.5 96.5q23 66 22 100q0 37 -69 37q-16 0 -46 -80q-27 -80 -45 -135t-30 -86q-145 -25 -275 -160q-131 -141 -131 -289q0 -111 39 -168t137 -83q-10 -29 -26.5 -78t-44.5 -123 q-16 -47 -24.5 -75t-8.5 -36q0 -51 90 -51q23 0 47 82q33 100 54.5 170t37.5 111q94 8 189 59q66 35 109.5 63.5t66.5 51.5q14 14 14 55q0 66 -4 89.5t-16 23.5q6 0 -62 -52q-78 -61 -141 -96q-102 -51 -178 -51q-100 0 -101 100q0 113 97 226q84 102 149 102q33 0 33 -33 q0 -12 -19 -57q-16 -39 -16 -47q0 -16 16 -17h107zM532 633q-35 0 -34 37q0 2 4 16t14 39q16 45 16 49q0 12 -14 12q-55 0 -135 -94q-92 -109 -92 -213q0 -80 82 -80q78 0 170 50h-2q37 18 70.5 41.5t70.5 52.5q10 8 30.5 12t41.5 4v37q23 0 31 -27.5t8 -103.5 q0 -45 -21 -70q-23 -25 -68 -53.5t-110 -65.5q-47 -23 -93 -38t-95 -21q-12 -37 -29 -89t-39 -122q-4 -14 -8 -27.5t-8 -29.5q-31 -96 -66 -96q-109 0 -109 71q0 12 35 117q6 14 11.5 28.5t9.5 26.5q14 41 24.5 73t18.5 54q-92 29 -131 90.5t-39 173.5q0 156 137 304 q59 66 129 106.5t143 56.5q25 57 74 209q31 92 62 92q88 0 88 -55q0 -16 -5.5 -44t-19.5 -62v2q-6 -18 -11 -33.5t-9 -32.5q-8 -23 -14.5 -42t-12.5 -38q113 -35 113 -127q0 -20 -21 -84q-10 -33 -17 -54t-12 -28q-14 -25 -61 -24h-107zM639 614q57 0 75.5 33t33.5 86 q12 33 16 56.5t4 33.5q0 102 -106 140q4 14 8 28.5t12 32.5q4 14 9 30.5t11 35.5v-3q14 35 19.5 64t5.5 49q0 76 -106 76q-45 0 -80 -107v2q-23 -70 -39.5 -118.5t-28.5 -81.5q-76 -16 -143.5 -58.5t-130.5 -107.5q-141 -154 -142 -318q0 -115 38 -179t126 -97 q-6 -23 -16 -48.5t-21 -60.5q-4 -12 -9 -25.5t-11 -27.5q-35 -104 -35 -125q0 -90 127 -90q23 0 44.5 26.5t37.5 84.5l18 55q23 66 38.5 115t27.5 84q47 6 91 22.5t87 38.5q141 78 184 119q27 31 27 86q0 86 -11.5 118.5t-45.5 32.5v-77q-41 0 -69 5t-15 15 q-35 -29 -69 -53.5t-66 -40.5q-90 -47 -162 -47q-63 0 -64 61q0 100 88 201q66 82 115 88q-4 -6 -7 -15.5t-7 -21.5q-10 -25 -14.5 -41t-4.5 -20q0 -55 53 -56h107z" />
<glyph unicode="&#xa3;" horiz-adv-x="921" d="M186 565q-20 0 -30 -22q-23 -53 -33 -81l-10 -28q0 -10 20 -10h158q-51 -139 -121 -207q-127 12 -117 12q-55 0 -112 -22q-68 -31 -68 -82q0 -96 158 -96q41 0 82 8t84 24q49 -12 95 -17t87 -5q287 0 401 12l47 168q-207 -39 -338 -39q-135 0 -139 10q27 35 58.5 91.5 t68.5 142.5h174q10 0 16.5 19.5t22.5 64.5q6 18 10.5 30.5t4.5 18.5q0 8 -25 8h-150l31 88q41 115 96 203q70 106 125 107q43 0 45 -41q4 -33 -41 -127q-45 -100 -45 -105q0 -4 27 -4q8 0 45 7t107 24q66 137 65 213q0 86 -50 140t-136 54q-233 0 -381 -379l-70 -180h-162z M94 246q14 -2 41 -6q-10 2 -20.5 3t-20.5 3zM336 584l65 168q152 391 398 391q94 0 149.5 -58.5t55.5 -154.5q0 -78 -70 -232q-143 -33 -166 -32q-45 0 -45 24q0 16 45 113q20 45 30.5 72.5t10.5 44.5v2q-4 23 -27 22q-47 0 -110 -98h2q-29 -47 -52.5 -96.5t-41.5 -102.5 l-25 -63h125q45 0 45 -27q0 -18 -18 -57q-6 -14 -9.5 -25.5t-7.5 -19.5h2q-8 -27 -15 -39.5t-26 -12.5h-162q-63 -139 -112 -206q10 0 37.5 1t74.5 1q119 0 367 47l-61 -211q-63 -10 -166 -13.5t-250 -3.5q-82 0 -184 23q-86 -31 -164 -31q-176 0 -176 115q0 61 77 98 q59 27 121 27v-39h99q49 0 73.5 2t15 7t-70.5 13l-12 -4l6 7q-8 0 -14.5 1t-14.5 3q6 -2 12 -2q8 0 17 -2q55 61 100 167h-131q-39 0 -39 31q4 14 7 23.5t8.5 22t11.5 27.5t16 42q16 35 49 35h150zM186 602q-23 0 -40 -11t-27 -36v2q-10 -27 -16.5 -43t-11.5 -27.5t-8 -20.5 t-9 -24q0 -57 59 -57h100q-37 -88 -90 -141l29 8q104 -12 160.5 -21.5t77.5 -15.5q-25 -6 -23 -14l-2 -4q-47 -4 -138 -5.5t-194 -1.5v78q-63 0 -129 -26q-88 -41 -88 -117q0 -135 195 -135q84 0 170 30q49 -10 93 -15t85 -5q145 0 251.5 4t178.5 12l72 254 q-137 -27 -234.5 -39t-157.5 -12q-27 0 -45 -1t-32 -3q39 61 88 170h151q29 0 38 14.5t20 49.5q4 8 8 19t10 26q16 43 16 63q0 27 -14 36t-49 9h-96l14 37q39 117 92 197q57 88 92 88q4 0 5 -1l1 -1v-2q0 -14 -8 -42t-28 -69q-23 -51 -36.5 -80t-13.5 -39q0 -43 66 -43 q14 0 178 37q39 86 58.5 145.5t19.5 100.5q0 104 -60.5 167.5t-164.5 63.5q-258 0 -418 -403l-59 -156h-136zM401 199q4 4 5.5 7t5.5 7q28 -10 -11 -14zM96 264l43 -6q-12 2 -23.5 3t-19.5 3zM139 258q4 -2 13 -2q-9 0 -13 2z" />
<glyph unicode="&#xa4;" horiz-adv-x="890" d="M131 238l68 -66l75 80q80 -74 211 -74q127 0 205 76l78 -82l66 66l-76 77q68 82 67 209q0 133 -67 203l76 78l-70 69l-78 -75q-78 66 -199 65q-133 0 -208 -67l-78 77l-70 -69l80 -78q-72 -76 -72 -207q0 -115 68 -201zM487 760q94 0 160 -72q66 -70 66 -164 q0 -98 -65.5 -169.5t-162.5 -71.5q-96 0 -166 69q-68 68 -67 168q0 100 67 168q72 72 168 72zM487 741q-88 0 -153 -65q-63 -63 -64 -156q0 -92 63.5 -155.5t151.5 -63.5t148 66q61 68 61 157q0 47 -15 83t-46 69q-60 65 -146 65zM184 319q-63 84 -63 201q0 129 63 207 l-78 78l95 96l78 -78q78 59 208 60q121 0 199 -58l78 76l96 -96l-78 -78q61 -76 62 -203q0 -123 -62 -209l78 -77l-92 -93l-80 82q-80 -68 -203 -67q-131 0 -211 65l-75 -80l-93 93zM80 238l121 -117l75 80q84 -59 209 -60q119 0 203 62l80 -82l117 117l-80 79q59 88 59 207 q0 121 -57 203l78 78l-121 121l-82 -80q-82 57 -195 57q-63 0 -113 -15.5t-93 -43.5l-80 82l-121 -121l82 -80q-59 -80 -60 -205q0 -57 13.5 -106t42.5 -95zM487 723q78 0 131 -59q57 -57 58 -140q0 -82 -58 -145q-53 -59 -133 -60q-80 0 -139 60q-57 57 -57 141 q0 86 57 144q59 59 141 59z" />
<glyph unicode="&#xa5;" horiz-adv-x="907" d="M582 594l71 74h185q14 0 26 37q6 25 6 38q0 16 -10 17h-125l318 344q4 4 4 12q0 6 -56 6q-53 0 -61 -6l-371 -405l-77 389q-2 23 -103 22q-96 0 -96 -26q0 -2 1 -9.5t3 -23.5l61 -303h-137q-16 0 -27.5 -23.5t-11.5 -36.5q0 -33 11 -32h182l16 -74h-166 q-16 0 -27.5 -23.5t-11.5 -35.5q0 -33 11 -33h172l-144 -404q-14 -37 -14 -39q0 -20 94 -20q92 0 101 27l153 436h186q14 0 27 35q6 27 6 41q0 16 -10 16h-186zM662 649l-35 -37h141q29 0 29 -34q0 -8 -1 -18.5t-8 -27.5h3q-14 -51 -46 -51h-174l-149 -422q-10 -41 -117 -41 q-113 0 -112 41q0 4 14 45v-2l137 379h-147q-29 0 -29 54q0 8 4 21t12.5 25.5t18.5 21.5t22 9h142l-9 37h-165q-29 0 -29 51q0 8 4 21.5t12 26t18.5 21.5t22.5 9h113l-55 281q-6 31 -7 37q0 47 117 47t121 -41v2l72 -352l346 376q14 14 73 15q76 0 76 -27q0 -14 -12 -26 l-287 -312h82q31 0 31 -35q0 -6 -2 -17t-8 -28h2q-14 -49 -45 -49h-176zM838 629q43 0 61 63q6 16 8 28.5t2 22.5q0 25 -13 40.5t-36 15.5h-39l260 278h-2q16 20 17 39q0 45 -95 45q-70 0 -88 -18l-321 -348l-62 313v-4q-8 57 -141 57q-135 0 -135 -65q0 -12 6 -39l51 -258 h-90q-16 0 -29.5 -11.5t-23.5 -27t-16.5 -32.5t-6.5 -28q0 -72 48 -71h18q-27 -8 -44 -42t-17 -52q0 -72 47 -72h118l-127 -352q-14 -41 -14 -52q0 -59 131 -59q119 0 135 53v-2l146 412h159q45 0 62 63q6 16 8 28.5t2 23.5q0 45 -35 51h56z" />
<glyph unicode="&#xa6;" horiz-adv-x="268" d="M123 39h72v524h-72v-524zM123 915h72v525h-72v-525zM111 1460h96v-563h-96v563zM111 582h96v-564h-96v564zM100 0h119v602h-119v-602zM100 877h119v602h-119v-602z" />
<glyph unicode="&#xa7;" horiz-adv-x="1054" d="M659 332q119 -6 197 63q82 70 82 189q0 113 -94 231q-45 47 -87 97.5t-85 97.5q-94 106 -94 194q0 43 51 76q39 27 88 27q76 0 125 -43q6 -4 21.5 -23.5t39.5 -52.5q29 -43 68 -43q70 0 69 78q0 76 -96 147q-100 76 -221 76q-129 0 -211 -57q-96 -68 -96 -193 q0 -88 59 -174q-133 0 -192 -47q-94 -74 -95 -211q0 -102 93 -225q88 -102 172 -197q94 -109 94 -176q0 -49 -41 -83t-90 -34q-80 0 -131 43q-25 18 -68 76q-35 43 -57 43q-29 0 -49.5 -19.5t-20.5 -50.5q0 -100 98 -166q88 -66 205 -65q156 0 238 78q78 74 78 196 q0 35 -17 71t-33 77zM774 563q0 -111 -135 -110q-70 0 -180 127q-109 127 -109 200q0 121 123 121q88 0 193 -125q108 -125 108 -213zM756 563q0 78 -105 199q-100 119 -178 119q-102 0 -102 -101q0 -33 24.5 -81t77.5 -107q104 -121 166 -121q117 0 117 92zM866 381 q-76 -68 -178 -70v-2h2q16 -33 27.5 -63.5t11.5 -61.5q0 -131 -84 -209q-86 -84 -252 -84q-61 0 -115.5 16.5t-101.5 51.5h2q-109 74 -108 182q0 39 27.5 63.5t62.5 24.5q37 0 71 -49q23 -29 38.5 -47t25.5 -27q47 -39 121 -38q43 0 76.5 28.5t33.5 69.5q0 29 -20.5 68.5 t-67.5 93.5q-20 23 -40.5 45t-41.5 47h2l-92 104q-98 129 -98 240q0 147 102 225q57 45 170 51q-23 41 -33 80t-10 76q0 133 105 207q86 63 221 63q63 0 121.5 -20.5t111.5 -59.5q104 -82 105 -163q0 -98 -90 -99q-45 0 -84 52q-43 59 -58 71q-45 39 -112 39q-39 0 -80 -22 v2q-39 -27 -39 -62q0 -80 86 -180q16 -16 28.5 -31.5t26.5 -31.5q29 -35 59.5 -69t61.5 -65q96 -125 96 -243q0 -131 -90 -203zM881 367q94 82 94 217q0 129 -88 243q-31 31 -67 71t-64 75q-16 16 -28.5 30.5t-27.5 30.5q-84 96 -84 170q0 20 33 43h-2q33 20 70 21 q59 0 100 -37q6 -4 19.5 -21.5t35.5 -46.5q41 -57 99 -57q109 0 108 117q0 94 -112 178q-111 84 -244 84q-137 0 -231 -66v2q-115 -80 -115 -225q0 -72 33 -139q-94 -8 -150 -51q-111 -88 -110 -242q0 -121 100 -252l94 -104q20 -23 41 -46.5t39 -46.5q84 -92 84 -149 q0 -33 -28.5 -55.5t-63.5 -22.5q-61 0 -109 35q-18 14 -61 67q-39 59 -86 60q-45 0 -77 -31t-32 -78q0 -121 117 -200l-2 2q100 -72 227 -72q176 0 264 88q90 86 91 225q0 29 -9.5 55.5t-19.5 55.5q94 13 162 72zM735 563q0 -72 -96 -71q-51 0 -152 112q-98 117 -98 176 q0 82 84 82q72 0 164 -112q98 -107 98 -187z" />
<glyph unicode="&#xa8;" horiz-adv-x="483" d="M721 926q14 20 14 51q0 51 -55 74q-10 4 -18 4h-17q-72 0 -94 -41q-25 -41 -25 -72q0 -51 58 -70q10 -4 18 -5t19 -1q61 1 100 60zM473 926q14 25 14 51q0 53 -57 74q-10 4 -33 4q-72 0 -94 -41q-25 -41 -24 -72q0 -51 57 -70q10 -4 18 -5t19 -1q59 1 100 60zM489 918 q-49 -68 -116 -68q-23 0 -45 8q-68 23 -68 84q0 33 27 80v-2q31 51 110 51q12 0 47 -10q61 -23 62 -84q-1 -32 -17 -59zM737 918q-47 -68 -116 -68q-23 0 -46 8q-68 23 -67 84q0 33 27 80v-2q31 51 110 51q12 0 49 -10q59 -23 60 -84q-1 -32 -17 -59zM752 909q20 35 20 68 q0 72 -86 104q-10 4 -41 4q-92 0 -125 -57l-6 -10q-18 41 -76 63q-10 4 -41 4q-90 0 -127 -57q-27 -49 -26 -86q0 -70 78 -98q23 -10 51 -10q74 0 125 69q14 -39 71 -59q23 -10 52 -10q78 -1 131 75z" />
<glyph unicode="&#xa9;" horiz-adv-x="1554" d="M817 -6q295 0 498 194q213 201 213 506q0 303 -213 506q-205 193 -498 193q-295 0 -500 -193q-215 -203 -215 -506q0 -307 215 -506q203 -194 500 -194zM262 694q0 246 160 412t395 166q231 0 393 -168q160 -166 160 -410q0 -250 -160 -415q-156 -164 -393 -164 q-238 0 -395 164q-160 165 -160 415zM1051 569q-12 -78 -67.5 -124t-141.5 -46q-117 0 -187 88q-72 88 -71 211q0 129 67.5 211t186.5 82q82 0 139 -43t74 -117h133q-18 137 -117 218q-47 35 -104.5 54t-124.5 19q-186 0 -295 -121q-111 -121 -111 -305t113 -303 q113 -123 297 -123q129 0 223 80t119 219h-133zM1208 588q-14 -78 -47 -140.5t-81 -106.5t-109.5 -67.5t-128.5 -23.5q-193 0 -312 131q-117 125 -116 315q0 193 114 320q115 125 310 125q143 0 239 -78q104 -84 127 -252h-170q-16 74 -69.5 118t-126.5 44 q-111 0 -172.5 -76t-61.5 -199q0 -121 66 -200q68 -78 172 -78q78 0 129 45t63 123h174zM283 694q0 -244 151 -401q156 -160 383 -160t379 160q154 160 154 401q0 236 -154 396q-154 162 -379 161q-229 0 -383 -159q-151 -158 -151 -398zM817 -25q-303 0 -514 199 q-219 209 -219 520t219 518q209 201 514 201q299 0 512 -201q219 -207 219 -518t-219 -520q-213 -199 -512 -199zM817 -45q311 0 524 205q225 213 226 534q0 322 -226 535q-215 203 -524 203q-313 0 -528 -203q-225 -213 -226 -535q0 -322 226 -534q213 -205 528 -205z M301 694q0 231 147.5 385t368.5 154q215 0 367 -156q147 -154 147 -383q0 -231 -149 -387q-145 -154 -365 -153q-223 0 -368 153q-148 154 -148 387zM1018 608q-12 -78 -59.5 -124t-116.5 -46q-96 0 -158 74l2 -2q-63 82 -63 188q0 113 56 183.5t159 70.5q66 0 114.5 -43 t65.5 -116h209q-20 193 -137 286q-104 82 -252 82q-207 0 -326 -135q-117 -129 -117 -330q0 -98 29 -181t90 -148v2q125 -137 328 -138q145 0 250.5 100.5t138.5 276.5h-213z" />
<glyph unicode="&#xab;" horiz-adv-x="749" d="M635 373q53 49 89 82.5t58 50.5q-102 -6 -137 -6h-39q-18 0 -37 2q-31 -45 -79 -96.5t-113 -112.5q29 -51 58.5 -99.5t45.5 -111.5q16 2 35 3t37 1q-6 0 121 -6q-27 37 -46.5 65.5t-31.5 51.5q-43 78 -55 96q33 27 55.5 45.5t38.5 34.5zM367 367q53 66 141 139 q-98 -6 -133 -6h-39q-18 0 -39 2q-35 -53 -76 -105.5t-88 -105.5q90 -131 117 -209q16 2 33.5 3t35.5 1q-6 0 121 -6q-49 72 -85 126t-58 89q31 27 70 72zM381 356q-18 -23 -33.5 -39t-30.5 -26q27 -37 66 -96.5t82 -122.5q-16 53 -34.5 92t-41.5 74l-37 59q147 137 207 221 q20 -2 43 -2h43q23 0 68 2t123 8q-6 -4 -20.5 -16t-31 -26.5t-34 -30t-29.5 -25.5q-31 -31 -74 -68q-31 -31 -82 -69q8 -16 19.5 -37t27.5 -49q14 -23 38 -59.5t61 -84.5q-31 2 -60.5 8.5t-51 14.5t-33.5 14l-13 6v-36q-14 0 -36.5 -1t-45.5 -4v-2h2q-31 2 -59.5 8.5 t-50 14.5t-33.5 14l-11 6v-36q-16 0 -37.5 -1t-43.5 -4q-31 90 -129 230q53 57 97 113.5t79 111.5q23 -2 47 -2h43q16 0 60 3t130 9q-72 -59 -116.5 -101t-67.5 -71zM659 346q23 18 41.5 35.5t32.5 34.5v-2q12 10 36 31.5t48.5 43t45 39t26.5 23.5q-117 -10 -172 -13t-72 -3 h-47l8 8t10 8q-109 -10 -165 -13t-76 -3q-18 0 -48 1t-51 3q-41 -66 -89 -126.5t-101 -119.5q106 -152 139 -248q23 2 47.5 4t46.5 2v70l11 -7q10 -8 28.5 -19t43 -22.5t49.5 -19.5q2 -2 2 -4t2 -4h22q10 -2 33 -2q-4 0 -6 6q12 0 24.5 1t24.5 1v70l19 -13q18 -12 46.5 -26 t63.5 -26.5t66 -12.5q-47 63 -77 105t-42.5 65t-22.5 40t-18 34q23 18 40 32.5t31 28.5v-2z" />
<glyph unicode="&#xad;" horiz-adv-x="700" d="M537 285q37 0 60.5 19.5t23.5 47.5q0 23 -37 27q-123 2 -232 2h-198q-45 6 -74 -41q-20 -35 -21 -43q0 -14 27 -10q66 4 242 0q33 -2 84 -2h125zM537 270h-125t-84 2q-45 2 -82 2h-66h-53q-25 0 -41 -2h-6q-39 0 -39 25q0 14 22 49q31 49 84 49h7q80 0 170 -1t194 -3h66 q55 0 55 -39q0 -33 -28.5 -57.5t-73.5 -24.5zM537 258q53 0 86.5 27.5t33.5 66.5q0 29 -18 40t-53 14h-68q-104 2 -194 2h-170h-7q-68 0 -100 -58q-23 -39 -22 -53q0 -37 55 -37h8h92h146q33 -2 84 -2h127z" />
<glyph unicode="&#xae;" horiz-adv-x="1554" d="M817 -6q295 0 498 194q213 201 213 506q0 303 -213 506q-205 193 -498 193q-295 0 -500 -193q-215 -203 -215 -506q0 -307 215 -506q203 -194 500 -194zM262 694q0 246 160 412t395 166q231 0 393 -168q160 -166 160 -410q0 -250 -160 -415q-156 -164 -393 -164 q-238 0 -395 164q-160 165 -160 415zM676 639h127l207 -348h143l-225 354q213 20 213 219q0 229 -295 230h-301v-803h131v348zM676 748v237h160q172 0 172 -113q0 -80 -54 -106q-41 -18 -131 -18h-147zM694 967v-201h129q86 0 121 18q45 18 45 88q0 94 -153 95h-142z M283 694q0 -244 151 -401q156 -160 383 -160q213 0 359 139h-179l-206 346h-97v-346h-170v842h322q313 0 313 -250q0 -203 -201 -235l226 -350l12 14q154 160 154 401q0 236 -154 396q-154 162 -379 161q-229 0 -383 -159q-151 -158 -151 -398zM817 -25q-303 0 -514 199 q-219 209 -219 520t219 518q209 201 514 201q299 0 512 -201q219 -207 219 -518t-219 -520q-213 -199 -512 -199zM817 -45q311 0 524 205q225 213 226 534q0 322 -226 535q-215 203 -524 203q-313 0 -528 -203q-225 -213 -226 -535q0 -322 226 -534q213 -205 528 -205z M817 1233q215 0 367 -156q147 -154 147 -383t-145 -381l-193 301q186 47 187 250q0 268 -334 269h-338q131 100 309 100zM301 694q0 231 148 385q14 12 27 25.5t30 23.5v-872q-16 12 -29.5 23.5t-27.5 27.5q-148 154 -148 387zM817 154q-178 0 -309 98h207v348h65l209 -348 h131q-129 -98 -303 -98zM836 946q133 0 133 -74q0 -57 -33 -71q-27 -14 -113 -15h-108v160h121z" />
<glyph unicode="&#xb0;" horiz-adv-x="718" d="M449 973q76 0 119.5 -48t43.5 -126t-44 -127t-119 -49q-74 0 -119 49t-45 127t45 126t119 48zM449 541q109 0 182 73q37 39 56.5 84t19.5 101q0 104 -76 180q-74 76 -182 76q-109 0 -183 -76q-74 -74 -73 -180q0 -109 73 -185q74 -73 183 -73zM449 954q-66 0 -106 -44 t-40 -111q0 -70 40 -114t106 -44t105.5 44t39.5 114q0 68 -39.5 111.5t-105.5 43.5zM449 522q-115 0 -195 80t-80 197q0 115 80 192q80 82 195 82q121 0 194 -82q82 -76 82 -192q0 -115 -82 -197q-77 -80 -194 -80zM449 506q123 0 206 84q86 86 86 209q0 125 -86 205 q-82 88 -206 88q-119 0 -207 -88q-86 -84 -86 -205q0 -123 86 -209q88 -84 207 -84zM449 936q59 0 94 -39t35 -98q0 -61 -35 -100.5t-94 -39.5q-57 0 -92 39t-35 101q0 59 35 98t92 39z" />
<glyph unicode="&#xb1;" horiz-adv-x="1103" d="M537 494h-275v-107h275v-199h106v199h275v107h-275v198h-106v-198zM262 37h656v106h-656v-106zM244 162h692v-144h-692v144zM244 512h274v199h144v-199h274v-143h-274v-199h-144v199h-274v143zM225 0h729v180h-274v170h274v180h-274v199h-180v-199h-275v-180h275v-170 h-275v-180z" />
</font>
</defs>
</svg>
