<?xml version="1.0" standalone="no"?>
<!DOCTYPE svg PUBLIC "-//W3C//DTD SVG 1.1//EN" "http://www.w3.org/Graphics/SVG/1.1/DTD/svg11.dtd" >
<svg xmlns="http://www.w3.org/2000/svg">
<metadata></metadata>
<defs>
<font id="janda_apple_cobbler_solidRg" horiz-adv-x="1362" >
<font-face units-per-em="2048" ascent="1638" descent="-410" />
<missing-glyph horiz-adv-x="812" />
<glyph horiz-adv-x="0" />
<glyph unicode="&#xd;" horiz-adv-x="1000" />
<glyph unicode=" "  horiz-adv-x="812" />
<glyph unicode="&#x09;" horiz-adv-x="812" />
<glyph unicode="&#xa0;" horiz-adv-x="812" />
<glyph unicode="!" horiz-adv-x="696" d="M26 1834l614 142l-146 -1490l-154 -12zM271 160q11 60 54 109t117 47q46 -2 69 -26t28 -59t-7 -75t-37 -75t-62 -58t-79 -23q-54 0 -74 50t-9 110z" />
<glyph unicode="&#x22;" horiz-adv-x="1000" d="M92 1257q8 61 32 115t64 93t94 45q68 0 108 -24t56 -59t9 -77t-34 -79t-71 -63t-102 -28q-28 0 -42 4t-40 20q0 -62 24 -85t61 -25t82 8t87 12q0 -28 -25 -45t-59 -27t-67 -13t-51 -3q-52 0 -82 34t-41 85t-3 112zM556 1317q6 67 35 119t83 80t132 10q52 -10 79 -40 t33 -68t-6 -79t-37 -74t-61 -53t-80 -16q-16 0 -28 6t-23 14t-24 13t-27 3q10 -54 26 -83t43 -42t67 -16t94 -3q0 -16 -17 -27t-39 -19t-43 -12t-27 -4q-66 10 -108 56t-60 107t-12 128z" />
<glyph unicode="#" horiz-adv-x="1766" d="M148 960l314 108l-40 502l372 46l-32 -450q16 0 60 12t95 28t100 32t77 26l-2 394l350 74l-66 -382l236 60l-8 -122l-254 -66l-34 -248q46 0 74 5t52 12t53 15t77 14l4 -132l-252 -72q-2 -18 -8 -63t-14 -106t-17 -128t-17 -127t-14 -106t-8 -62l-70 -18l-38 554 l-400 -112l-22 -514l-124 -6q-2 16 -10 81t-17 141t-17 141t-10 81l-360 -110l-8 122l350 102l-22 276l-320 -110zM746 796l370 134l-14 208l-350 -112z" />
<glyph unicode="$" horiz-adv-x="1640" d="M78 406l182 190q24 -76 83 -129t130 -83t138 -35t105 19l-18 590q-176 -28 -277 -3t-140 82t-25 137t66 161t134 154t180 119l-84 330l328 48l-18 -322q36 8 96 -2t113 -45t81 -99t2 -164l-74 6q10 26 9 64t-23 71t-69 57t-129 24l4 -426q66 0 139 -1t146 -11t143 -32 t128 -64t102 -109t66 -165q8 -112 -26 -195t-93 -144t-133 -102t-147 -69t-136 -44t-97 -28l24 -432l-300 6l16 374q-100 -2 -195 11t-176 45t-147 85t-108 131zM534 1297q-4 -59 29 -104t121 -47l-38 350q-42 -26 -75 -83t-37 -116zM884 1008q0 -164 12 -327t12 -327 q44 0 115 33t137 81t114 104t48 102q0 88 -42 151t-107 104t-142 60t-147 19z" />
<glyph unicode="%" horiz-adv-x="1632" d="M18 50q6 4 23 36t62 112t127 218t218 354t336 520t482 716l322 -154q-318 -410 -546 -708t-385 -506t-252 -336t-146 -199t-69 -96l-18 -25zM143 1629q-9 55 9 112t58 103t96 73t122 19q86 -10 136 -55t66 -104t2 -123t-55 -113t-106 -73t-151 -4q-82 20 -125 65t-52 100 zM1021 242q5 60 39 119t84 100t111 55t121 -14q86 -52 118 -112t26 -116t-44 -105t-91 -82t-115 -44t-118 9q-76 26 -106 78t-25 112z" />
<glyph unicode="&#x26;" horiz-adv-x="1566" d="M47 598q17 130 65 270t118 282q-50 114 -61 238t10 235t69 198t113 125t143 16t160 -126q24 -62 24 -135t-15 -147t-42 -144t-56 -127t-56 -96t-45 -49q62 -116 133 -224t154 -203t180 -175t211 -140q40 30 70 104t48 163t25 174t3 135l-180 -18l-4 80l394 10l8 -76 l-164 10q10 -64 9 -140t-16 -157t-44 -163t-73 -158q0 -2 19 -14t48 -30t62 -40t61 -40t47 -31t19 -15l-98 -112q-6 8 -41 31t-75 48t-75 47t-43 30q-28 -30 -92 -72t-151 -80t-189 -63t-206 -24t-201 37t-175 122q-66 86 -87 200t-4 244zM334 707q2 -71 21 -144t59 -136 t104 -110t156 -67q8 -6 41 -14t81 -6t105 21t109 65q-132 90 -232 172t-175 159t-128 151t-91 150q-24 -44 -38 -107t-12 -134zM393 1544q-5 -90 11 -168t50 -110q28 28 52 82t42 119t27 133t7 123t-18 89t-46 34q-60 -44 -90 -128t-35 -174z" />
<glyph unicode="'" horiz-adv-x="588" d="M80 1498q0 42 19 82t51 70t73 48t85 18q90 0 137 -41t57 -101t-14 -128t-77 -124t-132 -88t-177 -18q20 12 64 29t86 39t71 52t19 68q-34 -22 -79 -30t-86 2t-69 39t-28 83z" />
<glyph unicode="(" horiz-adv-x="958" d="M14 674q-8 106 17 247t78 292t128 303t166 281t193 223t210 132l24 -54q-38 -12 -89 -74t-105 -157t-107 -217t-95 -255t-68 -271t-24 -266q2 -148 42 -277t106 -238t149 -195t168 -147t165 -97t140 -42q-14 -14 -38 -48q-22 -28 -59 -78t-95 -126q-178 20 -343 102 t-291 219t-201 324t-71 419z" />
<glyph unicode=")" horiz-adv-x="976" d="M-150 2036q14 14 38 48q22 28 59 77t95 127q178 -20 343 -102t291 -219t200 -325t72 -418q8 -106 -17 -247t-78 -292t-128 -303t-166 -281t-194 -223t-209 -132l-24 54q38 12 89 74t105 157t107 217t95 255t67 271t25 266q0 148 -41 277t-107 238t-149 195t-168 147 t-165 97t-140 42z" />
<glyph unicode="*" horiz-adv-x="1344" d="M132 866l114 246l368 -228l-32 426l328 -28l-136 -420l414 298l92 -294l-446 -92l354 -240l-270 -274l-220 412l-212 -380l-346 138l424 342z" />
<glyph unicode="+" horiz-adv-x="772" d="M76 610l182 34q2 0 -1 37t-8 88t-10 104t-7 87l294 28l-28 -308l216 26l4 -56l-220 -30l-24 -398l-192 -10l-22 372l-182 -32z" />
<glyph unicode="," horiz-adv-x="406" d="M60 120q-2 38 12 73t37 61t54 39t65 11q70 -6 107 -48t47 -98t-7 -117t-56 -108t-98 -71t-135 -4q16 10 49 22t65 30t52 42t12 60q-24 -18 -59 -21t-66 9t-54 42t-25 78z" />
<glyph unicode="-" horiz-adv-x="924" d="M76 784l764 -60l4 -202l-758 -98z" />
<glyph unicode="." horiz-adv-x="462" d="M97 113q-5 35 6 72t34 65t55 43t68 5q84 -18 114 -72t17 -108t-63 -90t-126 -18q-50 10 -75 39t-30 64z" />
<glyph unicode="/" horiz-adv-x="1538" d="M18 50q6 4 23 36t62 112t127 218t218 354t336 520t482 716l322 -154q-318 -410 -546 -708t-385 -506t-252 -336t-146 -199t-69 -96l-18 -25z" />
<glyph unicode="0" horiz-adv-x="1294" d="M29 991q-1 155 25 301t80 274t140 219t203 137t269 30q126 -18 219 -86t155 -170t94 -230t39 -269t-10 -286t-56 -281t-98 -254t-134 -203t-165 -131t-192 -38q-106 -12 -194 39t-157 146t-118 224t-74 276t-26 302zM393 1082q-1 -154 17 -303t59 -270t109 -199t168 -88 q94 24 155 107t94 204t39 267t-10 294t-53 287t-91 245t-124 168t-150 56q-42 12 -80 -49t-67 -170t-47 -252t-19 -297z" />
<glyph unicode="1" horiz-adv-x="870" d="M62 1332q104 30 204 98t187 156t154 188t107 190h76l-6 -1960l-550 -2l394 1686q-38 -40 -91 -100t-122 -122t-154 -116t-187 -78z" />
<glyph unicode="2" horiz-adv-x="1590" d="M32 8q262 438 448 751t276 516t76 303t-152 112q-68 -2 -138 -22t-132 -56t-110 -89t-70 -118t-13 -142t63 -165l-48 -44q-84 126 -79 248t70 230t176 197t238 148t258 83t235 1t169 -97t61 -210q0 -16 -5 -67t-31 -138t-82 -208t-159 -279t-262 -352t-391 -424 q230 -72 416 -106t323 -32t223 36t114 98q18 110 -15 173t-82 79t-95 -15t-52 -111q0 -26 17 -41t37 -16t37 10t17 37l54 -4q4 -62 -31 -92t-80 -29t-85 33t-44 94q-2 72 32 121t83 71t105 15t101 -46t69 -112t8 -181q-32 -60 -72 -96t-107 -54t-173 -22t-267 -2t-389 8 t-542 6z" />
<glyph unicode="3" horiz-adv-x="1614" d="M48 234q-6 118 23 201t85 137t132 82t162 34t177 -5t177 -36t162 -59t132 -72q102 176 119 320t-30 250t-150 171t-240 84t-298 -13t-325 -120q-10 0 -21 18t-15 34q124 56 208 97t143 74t99 59t76 54q102 88 119 138t-19 70t-109 13t-154 -32t-154 -65t-107 -86h-92 l110 356l94 -14l-14 -82q78 18 174 42t195 45t194 33t172 4t126 -40t59 -98q0 -60 -41 -114t-97 -97t-114 -73t-92 -44q188 28 324 -19t219 -140t111 -220t-2 -259t-118 -257t-236 -213q2 -4 14 -20t25 -40t24 -54t11 -58l-48 -26q-4 22 -11 48t-20 52t-31 47t-42 31 q-286 -192 -481 -285t-320 -103t-191 57t-94 193zM415 343q-9 -77 45 -187q18 -28 59 -29t96 18t119 51t127 73t120 84t101 81q-60 50 -145 79t-171 34t-165 -14t-128 -66t-58 -124z" />
<glyph unicode="4" horiz-adv-x="1158" d="M30 1904l374 52l-204 -846l508 138l-64 712l490 -4l-216 -1960l-124 -6l-76 1196l-656 -200z" />
<glyph unicode="5" horiz-adv-x="1398" d="M24 1954l904 30q94 -8 150 -39t82 -73t26 -89t-17 -87t-47 -67t-65 -28t-68 29t-59 104l42 28q6 -52 32 -72t55 -15t52 32t23 71q-12 76 -61 109t-142 40t-237 -6t-344 -31q0 -82 7 -176t15 -192t14 -199t4 -199q66 34 162 65t201 47t209 11t189 -45t138 -120t57 -212 q-8 -96 -71 -207t-161 -217t-219 -201t-243 -160t-236 -92t-196 3q-110 52 -145 135t-12 172t92 167t165 121t207 34t219 -95q-46 14 -107 13t-125 -19t-125 -53t-104 -88t-63 -123t-2 -160q36 -40 101 -36t144 39t164 97t158 140t128 168t75 180q10 134 -21 213t-90 116 t-140 38t-168 -20t-174 -57t-160 -75t-124 -73t-67 -50z" />
<glyph unicode="6" horiz-adv-x="1312" d="M38 566q2 152 31 356t79 465t114 587l438 -64q-36 -84 -93 -222t-116 -301t-112 -341t-86 -344t-36 -307t41 -233q4 70 34 167t81 198t120 198t150 169t172 108t187 18q124 -52 184 -129t69 -167t-27 -186t-104 -186t-162 -166t-201 -124t-222 -64t-225 16 q-116 40 -186 111t-101 180t-29 261zM374 168q2 -26 18 -40t41 -20t57 -7t68 -1q72 10 142 66t127 134t95 167t46 166t-19 129t-99 58q-40 4 -93 -29t-107 -88t-106 -127t-91 -145t-62 -143t-17 -120z" />
<glyph unicode="7" horiz-adv-x="1426" d="M38 1560q-6 66 15 133t60 121t94 88t115 34q90 6 181 -25t173 -75t150 -88t114 -62q24 66 67 134t98 117t120 66t133 -21q42 -52 50 -104t-9 -100t-52 -89t-77 -70t-86 -43t-78 -8l-354 -1568l-376 6l530 1610q-152 74 -266 96t-190 5t-113 -63t-37 -108q0 -52 20 -80 t50 -40t67 -14t73 -2q-26 -20 -70 -31t-96 -12t-104 10t-96 34t-73 60t-33 89zM1138 1646q10 -12 34 -6t52 27t56 51t45 63t18 67t-23 62q-34 0 -67 -28t-59 -69t-41 -86t-15 -81z" />
<glyph unicode="8" horiz-adv-x="1140" d="M74 360q-4 110 31 226t105 228t166 198q-132 54 -203 145t-92 195t4 211t85 195t149 147t199 65q138 -6 229 -46t142 -104t64 -145t-4 -169t-61 -176t-108 -164q120 -80 199 -191t111 -232t17 -243t-82 -225t-189 -176t-302 -97q-158 -10 -258 36t-149 129t-53 193z M261 582q-7 -80 8 -152t52 -126t99 -75t149 -1t201 100q60 56 78 117t5 123t-52 120t-92 108t-114 89t-117 61q-64 -24 -110 -81t-73 -130t-34 -153zM424 1679q10 -63 42 -132t72 -131t82 -108t72 -60q54 48 81 116t29 140t-18 141t-58 121t-93 79t-121 15q-60 -20 -79 -69 t-9 -112z" />
<glyph unicode="9" horiz-adv-x="1254" d="M46 1232q0 118 46 231t125 207t182 164t216 101t229 16t220 -89l22 98l134 -36l-366 -1914l-470 12l352 994q-42 -14 -110 -33t-145 -31t-154 -10t-140 31t-102 91t-39 168zM422 1344q12 -118 54 -180t146 -62q66 0 122 44t97 107t64 135t23 126q0 44 -15 102t-43 109 t-71 86t-97 35q-78 0 -132 -49t-88 -124t-49 -163t-11 -166z" />
<glyph unicode=":" horiz-adv-x="446" d="M73 261q-1 37 18 74t50 65t70 42t79 4q58 -18 82 -50t23 -68t-23 -71t-54 -62t-71 -41t-73 -6q-54 16 -77 46t-24 67zM89 731q-1 37 18 74t50 65t70 42t79 4q58 -18 82 -50t23 -68t-23 -71t-54 -62t-71 -41t-73 -6q-54 16 -77 46t-24 67z" />
<glyph unicode=";" horiz-adv-x="446" d="M55 508q-1 40 16 81t47 72t69 48t79 7q62 -20 90 -56t29 -77t-20 -81t-54 -69t-73 -44t-80 -3q-54 16 -78 49t-25 73zM80 76q-2 38 12 73t37 61t54 39t65 11q70 -6 107 -48t47 -98t-7 -117t-56 -108t-98 -71t-135 -4q16 10 49 22t65 30t52 42t12 60q-24 -18 -59 -21 t-66 9t-54 42t-25 78z" />
<glyph unicode="&#x3c;" horiz-adv-x="1208" d="M80 712l988 674l58 -374l-690 -274l712 -240l-18 -366z" />
<glyph unicode="=" horiz-adv-x="962" d="M76 784l804 -106l10 -174l-802 -34zM84 924l4 166l812 22l-2 -322z" />
<glyph unicode="&#x3e;" horiz-adv-x="1208" d="M80 498l712 240l-690 274l58 374l988 -674l-1050 -580z" />
<glyph unicode="?" horiz-adv-x="1368" d="M98 1416q-22 162 19 270t125 172t199 86t237 10t241 -54t212 -107t149 -148t52 -177q-6 -116 -43 -203t-96 -152t-134 -111t-156 -79t-164 -58t-157 -45l-210 -396h-130l-80 638q76 -18 170 -3t190 52t186 95t159 127t107 145t30 154q-4 48 -44 92t-103 76t-141 51 t-157 18t-153 -24t-126 -75t-77 -136t-7 -206zM140 139q-2 39 14 78t47 67t72 40t89 0q80 -42 96 -104t-9 -116t-83 -85t-126 -9q-52 20 -75 55t-25 74z" />
<glyph unicode="@" horiz-adv-x="2110" d="M116 756q-12 246 53 422t178 297t260 192t299 105t295 39t249 -7q170 -22 295 -94t203 -180t107 -245t11 -289q-34 -146 -113 -260t-179 -185t-207 -96t-199 7t-155 126t-73 260q-18 -60 -66 -107t-111 -75t-132 -34t-127 15t-97 70t-41 131q-6 82 10 167t58 155t112 115 t170 45q58 0 116 -33t100 -69v8l-8 132l146 -34q-42 -212 -49 -356t12 -232t58 -126t88 -36t102 37t98 94t79 135t44 158q12 174 -38 310t-148 226t-237 132t-307 28q-170 -50 -290 -150t-194 -227t-101 -271t-11 -283t76 -262t160 -207t241 -119t319 1l-14 -68 q-102 -18 -216 -17t-225 25t-214 73t-185 126t-136 184t-66 247zM781 835q7 -51 29 -82t64 -25q64 8 112 51t78 101t37 123t-11 121t-66 93t-128 39q-28 -22 -52 -71t-40 -110t-23 -125t0 -115z" />
<glyph unicode="A" horiz-adv-x="2830" d="M60 368q0 114 59 222t152 191t207 133t224 50q13 1 25 1q64 0 110 -26q55 -31 83 -79q29 -50 29 -111q0 -57 -27 -105q-28 -50 -86 -83q-55 -31 -136 -31h-10q-58 0 -86 25t-32 58q-1 7 -1 13q0 27 13 55q16 35 44 56q26 19 59 19h7q38 -2 78 -40q0 -14 -11 -26t-31 -12 q-28 24 -53 16t-37 -29t-3 -44t51 -27q64 0 105 26t60 64q18 36 18 76q0 44 -21 80q-20 34 -58 52q-23 11 -51 11q-19 0 -39 -5q-100 0 -202 -44t-185 -118t-136 -171t-53 -201q0 -84 22 -163t67 -140t112 -98t157 -37q98 8 193 87t180 215t159 323t135 412t104 481t67 532 h58q12 -40 31 -114t43 -167t52 -193t56 -191t54 -162t46 -105l706 484l88 -98l-754 -484q16 -58 71 -140t133 -170t169 -171t178 -143t162 -88q39 -15 69 -15q28 0 50 13q54 14 91 41t60 61t33 75t12 81q-6 78 -41 140t-85 103t-109 62q-50 18 -96 18q-9 0 -17 -1 q-54 -4 -97 -33t-61 -85q0 -26 22 -39t47 -12t47 14t22 39l54 -4v-11q0 -54 -36 -83q-40 -32 -90 -33h-3q-48 0 -92 29q-45 30 -49 92q12 78 61 127t118 67q39 10 81 10q33 0 67 -6q79 -14 149 -61t122 -127t66 -194q0 -112 -47 -210t-126 -173t-182 -118t-213 -43 q-96 18 -171 71t-134 129t-106 168t-87 189t-77 191t-77 176l-194 -130q-18 -72 -42 -167t-60 -196t-86 -201t-120 -181t-164 -138t-216 -71q-34 -7 -73 -7q-29 0 -60 4q-73 9 -145 37t-140 76t-119 116t-82 154q-29 81 -29 177v13zM1436 946l116 88q0 2 -4 10t-15 36 t-31 84t-52 152z" />
<glyph unicode="B" horiz-adv-x="1298" d="M28 1836l520 146l14 -100q58 14 131 21q39 4 79 3q34 0 69 -2q75 -6 147 -28t129 -68t91 -119t36 -181q0 -90 -34 -173t-83 -150t-102 -116t-89 -71q71 14 123 14q37 0 64 -7q65 -17 95 -51t36 -72t8 -54q3 -24 3 -63q0 -42 -18 -100q-19 -61 -67 -135t-144 -153 t-248 -159t-380 -152l-10 -40l-136 -12zM408 146q62 14 144 39t168 64t168 94t143 129t93 168q22 65 22 142q0 34 -4 70q-28 58 -71 76q-18 8 -43 8q-33 0 -78 -14q-78 -24 -202 -89t-316 -171zM448 784q174 84 291 164t192 152t114 133t57 110t21 85t5 54q2 19 2 37 q0 86 -47 147q-57 74 -149 109q-83 31 -176 31h-22q-106 -4 -192 -46z" />
<glyph unicode="C" horiz-adv-x="1308" d="M54 797q24 169 87 323t157 289t201 241t220 179t212 104q65 20 121 20q29 0 56 -5q78 -16 118 -88l-66 -46q-43 49 -103 49q-10 0 -21 -1q-74 -10 -157 -72t-167 -167t-151 -235t-110 -277t-45 -293q-1 -21 -1 -41q0 -131 34 -221q39 -104 106 -158t154 -63q18 -2 37 -2 q69 0 140 27q90 34 177 107t153 181l92 -24q-22 -62 -77 -140t-131 -156t-169 -146t-191 -112t-197 -54q-20 -2 -39 -2q-77 0 -148 32q-88 40 -161 138t-121 270q-20 102 -20 202q0 71 10 141z" />
<glyph unicode="D" horiz-adv-x="1672" d="M14 1848q150 50 317 81t333 33h21q155 0 301 -28q156 -30 283 -102t218 -192t125 -294v-35q0 -215 -45 -387q-49 -186 -142 -330t-224 -249t-289 -180t-339 -122t-373 -73l-26 70l128 42q-2 26 -7 109t-11 201t-14 261t-17 290t-19 289t-19 258t-19 196t-18 102l-146 -38 zM530 78q188 66 317 165t212 213t129 234t69 226t30 189t13 125q4 30 4 60q0 96 -45 181q-59 111 -158 193t-222 133t-237 61z" />
<glyph unicode="E" d="M30 1932l1260 24l26 -242q-96 54 -195 78t-198 32q-79 6 -158 6h-40q-33 -1 -66 -1q-65 0 -129 3l-90 -816l492 28l-8 -126l-482 -26l-108 -742q43 -2 83 -2q107 0 198 12q125 16 225 46t175 69t131 78t95 74t65 57l-18 -430l-1212 -36z" />
<glyph unicode="F" horiz-adv-x="1330" d="M32 1964l1078 -2h9q58 0 101 -23q46 -25 71 -65t29 -88q1 -8 1 -16q0 -39 -17 -74q-20 -42 -65 -72t-117 -34q-58 0 -86 25t-32 58q-1 7 -1 13q0 27 13 55q16 35 44 56q26 19 59 19h7q38 -2 78 -40q0 -16 -11 -27t-23 -11h-8q-28 24 -53 16t-37 -29t-3 -44t51 -27 q78 14 108 53q23 30 23 61q0 9 -2 18q-9 40 -54 70q-42 28 -106 28h-9l-506 -12l-92 -582l432 16l6 -108l-456 -30l-172 -1172l-162 -32z" />
<glyph unicode="G" horiz-adv-x="1482" d="M56 716q2 176 52 362t135 352t200 297t246 196q105 52 217 52q28 0 56 -3q142 -16 282 -142l-44 -34q-104 76 -193 89q-26 4 -50 4q-61 0 -115 -23q-76 -32 -138 -101t-111 -157t-84 -187t-57 -192t-31 -172q-6 -55 -6 -94q0 -17 1 -31q-2 -28 -2 -59q0 -67 9 -145 q13 -114 43 -222t77 -199t108 -136q48 -36 105 -36q15 0 31 3q75 12 162 111t183 296t202 519l-444 -36l-6 96l558 36q-20 -104 -51 -213t-70 -215t-82 -207t-85 -187q-98 -172 -216 -258t-238 -99q-24 -3 -48 -3q-95 0 -185 41q-113 51 -203 150t-146 240t-62 307z" />
<glyph unicode="H" horiz-adv-x="1426" d="M22 1952l624 12l-68 -1014l518 -2l6 1016l298 -6l-102 -1958l-196 -6v98t-2 150t-4 175t-2 175v152t2 102h-522l-18 -858h-194z" />
<glyph unicode="I" horiz-adv-x="1032" d="M62 1880l6 82l942 10q0 -4 3 -17t4 -26q0 -6 0.5 -12.5t-0.5 -12.5q-1 -12 -7 -14l-230 -12l-234 -1806l428 20l-2 -86l-896 -26l-8 74l310 18l-60 1812q10 2 -12 2q-20 0 -73 -1t-171 -5z" />
<glyph unicode="J" horiz-adv-x="1280" d="M18 324v10q0 88 35 169q37 85 113 149t194 84q10 1 20 1q55 0 95 -20q47 -23 73 -61t31 -84q1 -11 1 -22q0 -34 -12 -65q-16 -41 -54 -71t-96 -38l-40 56q70 14 102 44t36 62q1 5 1 10q0 27 -19 53q-22 31 -59 49q-33 16 -78 16h-10q-51 -2 -105 -34q-52 -32 -87 -87 t-50 -119q-10 -44 -10 -88q0 -21 2 -42q7 -66 39 -123t89 -97t145 -50q138 22 227 107t141 208t71 275q16 131 16 266v43q-3 157 -24 306t-48 269t-57 199t-50 93l-334 -78l-16 78l1142 256l24 -84l-284 -70q14 -72 24 -194t11 -272v-20q0 -141 -13 -297q-14 -167 -51 -331 t-99 -312t-158 -261t-231 -179q-131 -64 -304 -64h-11q-106 2 -180 54t-112 132t-40 174z" />
<glyph unicode="K" horiz-adv-x="1254" d="M36 1970h504l-128 -760l738 766l70 -52l-748 -808l752 -874l-232 -232l-620 1006l-128 -1014l-132 2z" />
<glyph unicode="L" horiz-adv-x="1322" d="M52 1958l652 12l-142 -1860l710 -6l-2 -86l-1122 -14l-6 88q6 2 28 3t48 1h48t28 2z" />
<glyph unicode="M" horiz-adv-x="2824" d="M33 248q13 64 49 110q20 24 52 37q28 11 56 11h9q33 -2 63 -17t46 -45q13 -24 13 -58q0 -9 -1 -18q-4 -46 -38 -106l-50 30q19 48 19 79q0 12 -3 22q-10 35 -35 45t-55 -1t-46 -37q-20 -32 -24 -75q-1 -6 -1 -13q0 -36 20 -71q23 -41 76 -73t147 -40q106 22 189 114 t146 225t108 291t74 310t43 284t18 212q-6 88 -37 170t-75 145t-97 98q-48 31 -93 31h-10q-50 -4 -92 -55t-64 -163l-60 20q18 110 63 172t106 81q28 9 57 8q35 0 73 -12q69 -23 135 -82t121 -150t89 -209l298 -1030q96 330 201 577t215 425t220 294t218 184l88 -126 q-122 -154 -221 -334t-164 -363t-94 -359q-18 -109 -18 -205q0 -60 7 -115q18 -144 84 -247t192 -141q26 -6 52 -6q55 0 113 28q85 42 157 118t126 174t74 192q9 44 9 83q0 46 -12 86q-23 75 -103 105q-52 0 -91 -21t-61 -64q-23 -44 -24 -110q0 -61 28 -141q-64 56 -82 117 q-10 32 -10 63q0 28 8 55q16 57 58 106t97 80t117 40q19 3 37 3q42 0 80 -15q55 -21 98 -76t59 -155q0 -150 -51 -282t-138 -234t-203 -169t-246 -87q-23 -2 -45 -2q-73 0 -139 25q-86 33 -158 98t-126 155t-86 192t-41 211q-3 34 -3 67q0 74 14 144l-262 -724l-158 6 l-224 566q-34 -76 -65 -160t-65 -166t-75 -156t-97 -130t-131 -90t-177 -36q-116 6 -178 50t-84 105q-14 38 -14 78q0 23 5 47z" />
<glyph unicode="N" horiz-adv-x="1834" d="M54 0l78 1938l186 8l898 -1474q-72 194 -130 380t-88 353q-26 147 -26 276v34q4 143 54 250t154 172t274 79q16 1 32 1q78 0 137 -25q71 -30 115 -84t62 -124q14 -52 13 -106q0 -18 -1 -35q-6 -71 -37 -136t-84 -110t-129 -62q-30 -7 -63 -7q-51 0 -109 16q-52 16 -74 58 q-18 34 -18 70q0 8 1 16q5 44 36 79t89 37q-32 -24 -49 -54t-18 -57t13 -49t44 -34q58 4 97 42t57 92q16 49 16 103v12q-2 61 -24 113t-65 87t-107 35q-142 -32 -218 -110t-103 -188q-17 -71 -17 -152q0 -45 5 -93q15 -135 54 -283t94 -302t109 -300q2 -6 15 -43t30 -87 t38 -108t38 -108t30 -86t15 -42l-98 -6l-1044 1782l256 -1772z" />
<glyph unicode="O" horiz-adv-x="1572" d="M36 770q-4 64 -4 127q0 116 14 229q22 174 82 329t165 271t258 181q140 60 326 60q17 0 35 -1q194 -38 321 -138t198 -239t91 -305q10 -79 10 -159q0 -88 -12 -177q-22 -170 -81 -330t-144 -289t-191 -214t-224 -101q-52 -20 -122 -26q-25 -2 -50 -2q-47 0 -97 7 q-77 11 -156 40t-150 81t-128 128t-91 178q-38 168 -50 350zM489 929q1 -155 23 -301t61 -262t96 -189t129 -83q140 30 240 122t162 222t88 286q22 131 22 264q0 26 -1 51q-5 159 -40 308t-95 265t-145 187t-189 73q-92 -38 -159 -132t-110 -222t-63 -281q-19 -146 -19 -293 v-15z" />
<glyph unicode="P" horiz-adv-x="1760" d="M51 284q-1 21 -1 43q0 92 17 200q21 133 64 271t108 270t147 240l-116 572h-182v74l778 24l-6 -74l-134 -8l8 -260q66 58 162 120t203 111t215 79q90 25 168 25q16 0 30 -1q90 -6 151 -55t75 -155q-8 -176 -94 -316t-214 -238t-281 -152t-295 -58q-64 12 -93 47t-33 77 q-1 8 -1 15q0 34 15 67q18 40 52 66t79 28h5q43 0 90 -32l-48 -54q-28 24 -52 23t-41 -18t-23 -42t2 -50t31 -44t65 -21q96 0 181 48t150 123t103 169t38 184q0 78 -33 119t-117 41q-70 0 -141 -21t-137 -57t-125 -83t-105 -99q-6 -102 -9 -223t-5 -253t-2 -268t-2 -268 t-5 -253t-9 -223l-62 -6l-42 152q-134 -112 -232 -145q-54 -18 -98 -18q-36 0 -64 12q-64 27 -97 106t-38 189zM211 438v-9q0 -80 17 -141q18 -64 60 -89q24 -14 56 -14q24 0 53 8q67 19 165 99l-140 906q-42 -74 -80 -170t-67 -198t-46 -204t-18 -188z" />
<glyph unicode="Q" horiz-adv-x="1816" d="M69 757q19 181 87 360t178 343t250 283t305 182q119 46 246 46q48 0 97 -7q76 0 169 -50t175 -143t138 -225t56 -298q0 -182 -40 -339t-98 -281t-121 -215t-111 -141l166 -314l-394 -310l-56 418q-18 -14 -73 -38t-136 -43t-181 -23h-25q-88 0 -179 24q-182 48 -287 164 t-145 271q-27 105 -27 222q0 56 6 114zM546 742v-17q0 -170 39 -305q41 -142 116 -221t178 -82h6q101 0 219 93l-28 552l106 58l98 -236q78 82 127 200t67 249q11 81 11 163q0 51 -4 101q-11 133 -50 244t-106 191t-159 104q-118 0 -229 -84t-197 -231t-139 -347t-55 -432z " />
<glyph unicode="R" horiz-adv-x="1490" d="M30 1874l486 90l-16 -244q34 30 81 64t102 66t113 58t112 39q44 11 83 11q9 0 18 -1q47 -3 79 -29q74 -64 92 -155q8 -40 8 -82q0 -54 -13 -112q-23 -103 -82 -212t-140 -209t-179 -184t-198 -136q-10 -38 -10 -106t14 -147t43 -160t77 -147t117 -109t165 -45h9 q64 0 109 28q48 30 76 73t40 92q9 37 9 67q0 10 -1 19q-4 37 -21 54t-45 -1q-18 0 -30 -14t-19 -33t-9 -39t-2 -32l-36 -6q-6 20 1 57t27 72t54 62t82 27h9q64 0 103 -26q42 -28 60 -73q16 -40 16 -89v-11q-2 -55 -20 -108t-48 -99t-66 -70q-90 -62 -189 -79q-40 -7 -79 -7 q-58 0 -114 15q-94 25 -178 90t-147 167t-97 238q-29 116 -29 254q0 24 1 50l-68 -26l-82 -776h-152zM432 938q186 128 284 260t140 245t43 193v17q0 66 -7 89q-6 28 -33 44t-66 18h-11q-35 0 -74 -11q-46 -13 -89 -44t-79 -81t-56 -120q-6 -30 -12 -85t-12 -120t-11 -133 t-9 -126t-6 -98t-2 -48z" />
<glyph unicode="S" horiz-adv-x="1418" d="M20 302q16 76 70 124t140 52h9q82 0 183 -68q-41 14 -79 14q-17 0 -33 -3q-52 -9 -90 -35t-57 -62q-16 -30 -15 -60v-13q4 -37 36 -67t98 -42q55 -20 111 -19q30 0 61 5q88 16 169 63t147 120t108 156t51 171q2 18 2 36q0 69 -28 132q-35 80 -120 144t-233 98 q-86 24 -170 55t-151 79t-109 118t-42 170q2 150 80 255t193 166t248 78q53 7 102 6q76 0 145 -15q114 -26 189 -97t75 -185q-6 -70 -53 -124t-102 -73q-23 -8 -45 -8q-30 0 -58 15q-48 26 -56 116l64 18q12 -42 44 -56q19 -9 39 -8q12 0 24 3q31 9 52 39q16 23 16 56 q0 9 -1 20q-14 92 -72 128q-47 29 -106 29q-13 0 -27 -1q-75 -8 -155 -53t-137 -115t-80 -158q-8 -32 -8 -65q0 -57 25 -117q16 -66 64 -107t117 -68t150 -46t164 -40t160 -49t136 -75t93 -117q30 -63 31 -152q0 -11 -1 -22q-6 -128 -52 -228t-118 -176t-168 -128t-203 -85 t-222 -47q-101 -12 -199 -12h-28q-152 2 -240 55t-121 126q-22 49 -22 100q0 24 5 49z" />
<glyph unicode="T" horiz-adv-x="1366" d="M42 1964l1284 12v-262q-46 30 -80 53t-76 37t-100 18q-19 1 -42 1q-46 0 -108 -5l-158 -1828h-170l-164 1824q-41 2 -77 2q-98 0 -156 -16q-79 -22 -113 -49t-36 -48t-2 -13z" />
<glyph unicode="U" horiz-adv-x="1792" d="M44 1950l672 -2l-8 -72l-128 -6q-8 -110 -17 -273t-12 -346q-1 -61 -1 -122q0 -123 4 -248q6 -187 27 -343t60 -266t103 -140q34 -17 67 -17q30 0 59 14q62 29 119 105t107 191t92 254t74 294t50 312t23 307q1 44 1 86q0 101 -8 192h-140v80l564 6v-86l-96 6 q-16 -122 -28 -282t-20 -336t-14 -354t-10 -335t-6 -280t-4 -187l88 12q16 -26 12 -51t-4 -53l-412 -12v90l208 10l-90 824q-30 -102 -60 -211t-70 -213t-93 -197t-127 -161t-173 -107q-86 -34 -196 -34q-17 0 -35 1q-146 22 -233 121t-134 250t-61 340t-14 390t5 401 q2 91 2 176q0 103 -3 198l-134 -6z" />
<glyph unicode="V" horiz-adv-x="1998" d="M26 1860q212 48 329 73t171 37t65 14l11 2l446 -1554q6 104 26 252t55 310t89 325t130 297t177 224t231 106q116 -6 168 -52t59 -107q1 -12 1 -23q0 -50 -24 -101q-30 -63 -82 -102t-116 -41h-4q-62 0 -120 60q0 14 10 38t26 24q34 -52 77 -56q6 -1 12 -1q36 0 70 21 q39 24 64 68q23 41 23 81v6q-2 43 -41 76t-127 35q-94 -18 -173 -88t-142 -176t-111 -241t-83 -283t-57 -299t-32 -290q-9 -126 -9 -236v-22q1 -119 13 -201l-86 -36z" />
<glyph unicode="W" horiz-adv-x="2416" d="M20 1840l534 156l430 -1732l240 818l124 12l318 -702q22 124 38 292t38 348t56 354t93 309t148 214q81 72 197 72q12 0 24 -1q62 -32 89 -73q28 -43 28 -89q0 -42 -18 -83q-19 -43 -46 -75t-57 -50t-52 -14l-36 64q64 32 91 72q26 39 26 73q0 37 -24 64q-23 25 -60 26h-3 q-36 0 -79 -27q-45 -28 -89 -100q-52 -84 -79 -219t-37 -297q-9 -147 -9 -307v-32q1 -177 7 -345t13 -313t7 -245l-456 -20l-246 722l-206 -702h-178z" />
<glyph unicode="X" horiz-adv-x="1784" d="M37 157q-6 27 -6 54q0 30 8 59q15 54 61 94t128 48q12 1 24 1q40 0 66 -16q34 -21 47 -52q9 -22 9 -47q0 -9 -1 -19q-5 -35 -27 -59t-59 -30q-7 -1 -14 -1q-32 0 -71 21q-6 16 2 30t20 16q2 2 4 2t4 2q32 -16 55 -6t28 31t-10 42t-55 25q-62 -6 -97 -33t-47 -63 q-7 -22 -7 -45q0 -15 3 -31q8 -40 31 -69t57 -43q17 -7 36 -7t40 7q64 6 146 79t162 186t150 253t110 284l-718 756l42 26t105 64t137 83t137 84t107 65t48 28l358 -660l270 652l478 -206l-608 -728l538 -1014l-52 -26l-680 754q-198 -300 -368 -486t-308 -256 q-46 -17 -86 -17q-26 0 -49 7q-59 18 -97 60t-51 101z" />
<glyph unicode="Y" horiz-adv-x="1342" d="M4 1770l588 200l326 -538l320 550l70 -50l-352 -600l110 -1332l-662 18l290 1216q-172 130 -291 221t-196 150t-118 92t-60 49t-22 20z" />
<glyph unicode="Z" horiz-adv-x="1754" d="M2 0l1058 1836q-75 13 -156 13q-44 0 -90 -4q-130 -11 -257 -47t-243 -94t-206 -132l54 364l1496 38l-1218 -1794q12 -28 76 -50t156 -34q74 -10 159 -10q21 0 44 1q111 3 219 22t203 57t155 100t75 149q3 20 3 42q0 72 -38 163q-42 28 -93 28t-96 -27t-75 -78t-30 -123 q-32 61 -32 111q0 9 1 18q7 57 44 96t94 61t121 22t124 -21t102 -67t58 -117q6 -26 5 -55q0 -52 -17 -116q-32 -102 -111 -170t-189 -110t-243 -61t-272 -25q-83 -4 -166 -4q-55 0 -110 2q-137 4 -256 10t-210 10q-30 1 -56 1q-51 0 -83 -5z" />
<glyph unicode="[" horiz-adv-x="684" d="M38 10l44 1946l548 8l6 -58h-106l-296 -1842l398 8l-4 -54z" />
<glyph unicode="\" horiz-adv-x="1538" d="M18 1852l322 154q280 -412 481 -716t337 -520t218 -354t127 -218t62 -112t23 -36l-154 -68q-2 0 -19 25t-68 96t-146 199t-252 336t-385 506t-546 708z" />
<glyph unicode="]" horiz-adv-x="692" d="M38 1906l6 58l548 -8l44 -1946l-590 8l-4 54l398 -8l-296 1842h-106z" />
<glyph unicode="^" horiz-adv-x="830" d="M10 1194l370 446l318 -516l-44 -34l-260 432l-194 -456z" />
<glyph unicode="_" horiz-adv-x="1066" d="M56 330l948 -92l4 -198l-948 -48z" />
<glyph unicode="`" horiz-adv-x="670" d="M44 1254l142 230l426 -418z" />
<glyph unicode="a" d="M40 244v21q0 85 29 183q33 110 93 213t143 189t177 131q83 40 171 40q12 0 23 -1q100 -6 198 -86l40 144l310 -30q-24 -64 -61 -151t-75 -183t-73 -194t-54 -184q-18 -82 -18 -145v-7q1 -66 35 -100q31 -14 62 -14q17 0 33 4q47 12 87 43t69 76t41 89l50 -76 q-14 -52 -51 -95t-85 -75t-100 -50t-96 -18h-7q-55 0 -84 29q-31 31 -46 76t-19 97t-10 94q-96 -126 -249 -198q-141 -66 -311 -66h-28q-98 18 -144 84t-50 160zM278 380q0 -102 55 -154t155 -52q90 0 153 37t121 103q-4 12 0 49t12 86t19 106t20 111t16 100t7 72 q-46 82 -109 103q-30 10 -61 10q-34 0 -68 -12q-66 -23 -130 -81t-110 -137t-70 -168q-15 -56 -15 -110q0 -32 5 -63z" />
<glyph unicode="b" horiz-adv-x="1184" d="M59 153q-3 20 -3 40q0 23 4 46q8 43 27 78t46 56t59 19l32 -70q-26 6 -50 -16t-38 -56q-15 -37 -15 -75q0 -36 20 -59q21 -24 66 -29q6 -1 12 0q43 0 111 29l-260 1840l498 -28q-20 -220 -32 -378t-19 -266t-8 -174t-1 -104t1 -54t1 -22q56 44 103 81t95 62t104 36 q32 6 71 7q28 0 59 -4q102 -10 158 -74q46 -53 46 -131q0 -17 -2 -35q-2 -60 -31 -150t-85 -188t-138 -195t-190 -172t-243 -119q-114 -37 -245 -37q-24 0 -48 1q-48 22 -73 60t-32 81zM456 156q78 0 159 57t150 141t119 182t68 180q7 40 7 73q0 42 -11 73q-20 56 -62 81 q-35 21 -81 21q-9 0 -19 -1q-58 -5 -116 -37t-110 -90t-84 -140z" />
<glyph unicode="c" horiz-adv-x="998" d="M50 333q-2 27 -2 54q0 88 24 182q32 123 93 227t145 176t178 84q25 3 49 3q42 0 78 -9q57 -14 99 -35t69 -41t37 -26l6 40l88 -6l-6 -212l-88 10q-2 16 1 43t5 43q-10 20 -50 44t-90 37q-38 10 -76 10l-24 -1q-50 -4 -82 -38q-48 -52 -82 -133t-52 -170t-21 -180 q-1 -17 0 -33q0 -71 10 -131q13 -73 42 -120t75 -51q33 -6 70 -6q26 0 53 3q67 7 129 37t108 84t58 136l76 -4q-14 -114 -76 -187t-155 -112t-209 -50q-55 -5 -112 -5q-62 0 -126 6q-118 38 -175 128t-67 203z" />
<glyph unicode="d" horiz-adv-x="1358" d="M34 258q4 106 42 205t100 185t145 155t180 112t202 58q43 6 86 6q63 0 127 -13l-48 980l420 42q0 -2 -3 -22t-13 -76t-27 -156t-45 -264t-70 -399t-98 -561q-24 -144 -25 -229v-13q0 -76 11 -118q12 -46 30 -60t34 -16q11 -2 22 -2q34 0 58 20q32 26 52 66t28 88t10 86 h68q2 -14 2 -30q0 -46 -14 -98q-18 -68 -57 -120t-98 -76q-28 -12 -61 -12q-35 0 -74 14q-56 42 -77 93t-24 113q-1 19 -1 38q0 46 5 99q7 75 11 165q-46 -80 -121 -171t-167 -169t-195 -129t-201 -51q-56 0 -96 22t-66 58t-39 83t-13 97zM346 432q0 -30 6 -69t21 -74 t40 -59t63 -24h26q78 30 153 86t134 128t94 157t35 173q0 78 -24 122t-106 44q-94 0 -175 -41t-140 -109t-93 -155t-34 -179z" />
<glyph unicode="e" horiz-adv-x="1140" d="M43 298q-3 26 -3 53q0 70 20 149q14 56 41 121t65 126t84 116t98 93q84 52 184 90q97 37 189 37h5q94 -1 172 -51t120 -174q2 -6 2 -12q0 -22 -22 -50q-28 -36 -78 -79t-116 -89t-135 -94t-132 -94t-107 -88q-6 -22 -4 -53t11 -61t26 -53t43 -29q46 -26 104 -33 q21 -3 43 -2q37 0 76 7q61 12 117 39t99 69t65 94q16 38 16 82q0 16 -2 32q2 -2 16 2t30 10t28 11t12 3q2 -20 2 -40q0 -96 -56 -174q-68 -94 -182 -156t-255 -88q-87 -16 -172 -16q-52 0 -103 6h-8q-73 0 -135 35q-65 37 -106 103t-52 158zM360 816q2 -46 6 -85t10 -77 t14 -77t18 -85q16 14 69 39t112 58t112 76t69 93q5 22 5 40q0 27 -10 49q-17 37 -53 58t-84 27q-17 2 -34 2q-32 0 -64 -7q-50 -11 -95 -39t-75 -72z" />
<glyph unicode="f" horiz-adv-x="1020" d="M12 1000l4 68l192 4q2 86 4 188t14 204t39 197t76 168t125 116t190 43h18q87 0 153 -36q73 -40 117 -103t58 -139q6 -30 6 -60q0 -44 -13 -86q-21 -70 -78 -124t-153 -72l-10 58q60 14 100 52t59 88q17 45 17 96v11q-2 57 -25 106t-68 86t-111 49q-106 -8 -178 -67 t-107 -164q-31 -94 -31 -225v-30q4 -150 50 -340l376 -2v-76l-352 -8l188 -1006l-420 -10l1 -21l-1 24q-2 47 -7 146t-11 232t-12 261t-9 233t-3 147z" />
<glyph unicode="g" horiz-adv-x="1208" d="M-80 -672q0 94 32 176t83 147t118 108t140 62q48 12 95 12q25 0 50 -3q72 -10 134 -54l-36 -50q-49 37 -110 37h-3q-63 -1 -120 -36t-100 -102t-53 -163q-7 -41 -7 -82q0 -59 14 -117q23 -99 79 -170t142 -101q38 -13 81 -13q54 0 117 21q118 40 184 124t95 195t31 239 v34q0 111 -11 223q-13 129 -31 250t-26 217q-40 -66 -113 -124t-160 -98t-177 -54q-34 -5 -66 -5q-52 0 -97 14q-73 23 -119 89q-44 63 -44 178v10q0 164 56 311t139 256t183 173q98 63 186 63h3q89 -1 156 -76t87 -243q4 34 9 79t15 93t28 95t50 85t81 62t121 28l-4 -88 q-12 1 -22 1q-38 0 -66 -16q-36 -21 -59 -63t-33 -98t-11 -117v-14q0 -54 7 -110q8 -63 20 -117q2 -16 21 -72t44 -143t53 -196t46 -230t21 -247v-31q0 -110 -18 -214q-21 -119 -73 -225t-144 -186q-84 -68 -188 -108t-213 -48q-29 -2 -58 -2q-79 0 -155 16q-104 22 -189 76 t-143 139t-72 203zM386 408q-1 -19 -1 -37q0 -67 18 -111q23 -56 61 -80q30 -19 67 -19q9 0 19 1q48 6 94 39t84 91t56 138q10 42 16 107q4 43 4 90q0 23 -1 47q-3 72 -19 143t-48 127q-49 31 -90 31q-11 0 -22 -2q-50 -11 -87 -55t-64 -112t-45 -140t-28 -142t-14 -116z " />
<glyph unicode="h" horiz-adv-x="1158" d="M6 1974h442l-114 -1208v-10q64 64 122 126t120 110t131 76q64 26 144 27q6 0 11 -1q72 -6 113 -54t63 -129t30 -186t12 -224t9 -247t23 -250l-312 2q34 226 58 397t30 289q2 32 2 60q0 75 -12 123q-16 65 -64 79q-15 5 -32 5q-43 0 -96 -29q-74 -40 -148 -106t-138 -142 t-100 -132l-70 -554h-118z" />
<glyph unicode="i" horiz-adv-x="524" d="M28 1072q184 4 277 7t130 4l37 1l-164 -1084h-100q-4 40 -17 115t-36 201t-55 311t-72 445zM67 1505q0 61 30 122q31 63 85 95q41 11 75 12q25 0 47 -7q50 -15 78 -51t32 -86q1 -9 1 -17q0 -41 -16 -81q-19 -48 -62 -88t-109 -56h-7q-79 0 -115 44q-39 47 -39 113z" />
<glyph unicode="j" horiz-adv-x="738" d="M-753 -625q3 119 52 225t144 183t235 95q10 1 20 1q55 0 95 -20q47 -23 73 -61t31 -84q1 -11 1 -22q0 -34 -12 -65q-16 -41 -54 -71t-96 -38l-40 56q68 14 103 44t42 64q2 10 2 19q0 24 -13 46q-18 31 -52 49q-32 17 -78 17h-5q-49 -1 -103 -33q-78 -48 -118 -161 t-40 -257q0 -54 16 -120t49 -123t82 -95t115 -38q102 6 202 76t180 184t131 260t55 302q3 78 3 152q0 149 -11 283q-16 201 -40 357t-51 259t-43 141l510 54q-2 -54 -4 -174t-12 -281t-33 -349t-67 -376t-113 -362t-172 -307t-244 -212q-138 -77 -320 -77h-9q-140 2 -233 70 t-137 169q-41 95 -41 205v15zM96 1478q0 48 17 91t48 76t75 45q35 7 66 7q43 0 78 -13q60 -22 93 -65t37 -98q1 -8 1 -15q0 -47 -22 -89q-25 -49 -82 -85t-145 -40q-58 2 -95 30t-54 68t-17 88z" />
<glyph unicode="k" horiz-adv-x="1084" d="M70 0l16 1964h444l-204 -1226l500 360l34 -50l-462 -356l676 -558l-134 -128l-646 604l-118 -610h-106z" />
<glyph unicode="l" horiz-adv-x="518" d="M24 1952l442 8l-110 -1956q0 -6 -11 -8q-7 -1 -16 -1h-10q-15 1 -29 3t-20 2z" />
<glyph unicode="m" horiz-adv-x="1458" d="M12 1072l360 8q1 -56 1 -97v-37q-1 -50 -4 -77t-5 -35l-2 -8q26 20 65 63t81 84t80 70q31 24 52 24q4 0 8 -1q18 4 33 4q28 0 46 -14q29 -22 43 -73t14 -131t-10 -184q36 74 86 144t99 126t94 90t73 34q21 8 40 8q33 0 59 -24q41 -38 71 -117t52 -190t41 -236t38 -255 t43 -246l-316 -12q16 220 22 378q4 118 4 208v57q-2 107 -10 170t-19 97t-24 45t-27 13q-26 -10 -60 -40t-68 -71t-67 -90t-58 -96t-41 -88t-16 -67q0 -54 1 -103t4 -106t10 -130t17 -177l-150 6q14 258 22 430t8 280t-6 163t-18 76t-28 20t-36 -3q-36 -30 -74 -66t-72 -75 t-62 -77t-44 -70l-100 -678h-112z" />
<glyph unicode="n" horiz-adv-x="962" d="M28 1066l318 6l-36 -260q48 32 100 77t106 86t111 69t119 28q8 1 16 1q52 0 78 -47q30 -54 39 -146q5 -55 5 -120q0 -43 -2 -91q-6 -119 -10 -241q-2 -70 -2 -136q0 -50 1 -99q3 -113 27 -193h-312q14 58 31 145t32 185t28 198t20 184q6 74 6 128v15q-1 59 -13 75 q-8 20 -22 34t-53 -2t-111 -72t-194 -172l-144 -714l-96 -8z" />
<glyph unicode="o" horiz-adv-x="1038" d="M28 330q-14 66 -14 128t14 120q28 116 93 209t156 159t191 97q79 25 158 25q20 0 41 -2q99 -8 177 -61t126 -156t48 -263q-4 -132 -65 -245t-154 -193t-206 -119q-82 -28 -161 -28q-30 0 -60 4q-108 15 -200 93t-144 232zM274 419q4 -77 21 -145t49 -110t83 -51 q9 -2 19 -1q45 0 104 32q62 48 101 138t53 191q8 54 8 108q0 46 -6 92q-12 99 -52 166t-109 86q-17 5 -37 5q-57 0 -132 -42q-22 -10 -42 -55t-35 -111t-22 -146q-4 -51 -4 -101q0 -28 1 -56z" />
<glyph unicode="p" horiz-adv-x="1218" d="M-32 -994q26 84 51 214t47 289t42 340t38 366t35 367t33 342q-4 34 -17 66t-33 47t-45 3t-53 -64l-36 64q38 58 90 76q21 7 40 7q30 0 56 -16q44 -27 69 -104q15 -47 15 -114q0 -43 -6 -95q32 76 109 138t175 98t203 40h20q93 0 172 -34q87 -38 143 -127t56 -237 q-6 -158 -77 -291t-185 -222t-262 -127q-78 -20 -160 -20q-72 0 -148 16l52 -1008zM338 244q0 -78 24 -122t106 -44q80 0 147 47t118 122t86 168t50 186q11 66 11 127q0 25 -2 48q-6 82 -37 134t-87 64q-12 2 -24 2q-49 0 -116 -36q-24 -12 -70 -42t-92 -104t-80 -205 t-34 -345z" />
<glyph unicode="q" horiz-adv-x="1208" d="M44 500v22q0 150 50 258q54 116 140 187t191 98q69 18 135 18q35 0 68 -5q98 -14 176 -68t110 -144q-9 57 -9 102q0 57 14 95q25 69 72 92q26 13 55 13q23 0 47 -8q55 -18 95 -66l-34 -74q-30 44 -59 56t-52 1t-38 -38t-17 -63q26 -158 56 -388t59 -499t57 -562t54 -575 l-450 -32l114 1234q-80 -92 -171 -130q-82 -34 -164 -34h-17q-90 4 -173 45t-149 110t-109 160t-51 195zM316 602q-3 -34 -3 -67q0 -55 8 -109q13 -88 48 -157t94 -111q56 -40 134 -40h7q88 2 142 62t79 150t25 196t-20 201t-55 164t-81 85q-48 17 -91 17q-32 0 -60 -9 q-67 -22 -115 -77t-76 -136t-36 -169z" />
<glyph unicode="r" horiz-adv-x="888" d="M26 1024l500 50l-40 -120q72 72 139 89q32 8 60 8q31 0 58 -10q51 -19 82 -66t33 -106v-7q0 -56 -31 -113q-33 -61 -109 -109l-50 22q76 86 93 148q7 27 7 49q0 28 -12 47q-22 34 -71 40q-9 1 -19 1q-41 0 -85 -21q-55 -26 -105 -83t-72 -149q-28 -98 -41 -175t-18 -150 q-3 -46 -3 -93q0 -28 1 -57q3 -77 7 -177l-224 -34z" />
<glyph unicode="s" horiz-adv-x="852" d="M6 300q10 74 82 146l34 -44q-12 -10 -30 -47q-16 -33 -16 -72v-9q2 -44 36 -86t122 -62q60 0 123 9t115 34t85 71t33 120q2 11 2 20q0 37 -31 60q-39 28 -103 45t-142 29t-145 33t-111 56q-42 33 -42 93v6q-5 23 -5 46q0 56 28 110q39 76 108 133t158 88q67 23 134 23 q22 0 43 -2q90 -4 145 -30t84 -66t34 -87q2 -16 2 -31q0 -31 -7 -62h-54q4 14 4 30t-4 35q-8 37 -30 71t-57 58t-83 26q-52 0 -99 -33t-83 -81t-59 -104t-27 -105q-1 -9 -1 -18q0 -37 14 -65q17 -34 59 -38q180 -16 281 -55t151 -88t62 -100t12 -89q-34 -100 -102 -154 t-148 -80t-160 -28h-38q-56 0 -98 4q-84 8 -152 50t-101 104q-25 48 -25 102q0 17 2 34z" />
<glyph unicode="t" horiz-adv-x="880" d="M32 1050v78l240 4l-112 818l434 16l-42 -816l300 8l-6 -74l-292 -12l-52 -1082l-116 2l-112 1068q-12 -4 -47 -5t-74 -1t-74 -1t-47 -3z" />
<glyph unicode="u" horiz-adv-x="998" d="M46 613q0 181 22 441l352 4q-64 -262 -97 -437t-44 -283q-7 -66 -7 -112q0 -29 3 -51q7 -55 21 -78t31 -25t29 -8q90 10 151 68t102 147t62 197t32 215t12 204t1 163l248 6l-52 -1062l-104 -6l-40 606q-16 -90 -51 -197t-91 -200t-133 -155t-179 -62q-17 -2 -34.5 -2 t-36.5 2q-37 4 -72 36t-64 100t-45 188t-16 301z" />
<glyph unicode="v" horiz-adv-x="1180" d="M6 1030l356 44l224 -842l290 856l272 -64q-100 -36 -173 -112t-126 -172t-90 -204t-63 -209t-44 -187t-36 -136l-136 -4z" />
<glyph unicode="w" horiz-adv-x="1590" d="M26 1048l440 56l140 -858l196 266l-90 286l134 56l40 -232l146 212l38 -40l-160 -242l100 -352q2 74 20 161t47 178t65 179t74 163t74 131t66 82l236 -32q-46 -36 -118 -116t-145 -210t-136 -312t-93 -420l-126 -6l-144 466l-208 -290l12 -168l-152 -16z" />
<glyph unicode="x" horiz-adv-x="1016" d="M20 958l290 126l194 -440l232 440l156 -94l-324 -494q68 -186 128 -284t106 -134q34 -26 60 -27q9 0 18 4q32 13 45 49q8 21 8 45q0 17 -4 35q-9 44 -43 72q2 -2 10 3t17 11t17 11t8 3q62 -82 62 -147t-36 -102t-93 -43q-8 -1 -16 -1q-48 0 -95 31q-84 58 -144 144 t-118 190l-188 -360h-236l308 488z" />
<glyph unicode="y" horiz-adv-x="1290" d="M30 904l470 158l260 -920l412 926l98 -10q-46 -104 -103 -267t-118 -358t-122 -408t-113 -418t-92 -390t-60 -321l10 6l-484 150q30 42 76 119t99 173t108 201t100 204t76 183t39 136z" />
<glyph unicode="z" horiz-adv-x="998" d="M24 774v286h926l-556 -868l574 100l14 -274l-956 -10l730 922z" />
<glyph unicode="{" horiz-adv-x="1016" d="M66 908v90q80 12 183 46t195 77t153 92t55 91q2 30 -26 47t-72 31t-94 34t-88 57t-57 97t1 158q12 56 64 113t128 107t169 89t187 58t179 15t145 -40l-38 -46q-58 24 -121 24t-116 -10t-86 -22t-31 -10q-96 -72 -136 -144t-43 -141t19 -133t47 -120t45 -102t12 -80 q-16 -54 -59 -93t-97 -70t-110 -59t-100 -64q28 -12 77 -18t96 -19t83 -38t38 -73q-20 -48 -56 -104t-73 -116t-67 -126t-42 -136t3 -145t71 -153q46 -46 102 -71t116 -34t118 -2t106 25q4 -14 8 -22q2 -6 6 -14l4 -8q-58 -42 -142 -58t-177 -9t-186 37t-168 83t-124 127 t-53 168q-4 78 29 144t84 121t112 99t113 80t85 64t29 50q12 26 -11 41t-69 22t-105 7t-119 -3t-113 -7t-83 -4z" />
<glyph unicode="|" horiz-adv-x="518" d="M38 2074l450 6l-140 -2172q0 -6 -11 -8t-26 -1t-29 3t-20 2z" />
<glyph unicode="}" horiz-adv-x="880" d="M-288 2068q60 36 145 40t179 -15t187 -58t169 -89t128 -107t64 -113q18 -98 0 -158t-56 -97t-88 -57t-94 -34t-72 -31t-26 -47q-4 -28 23 -60t75 -63t110 -60t128 -54t131 -43t119 -26v-90q-32 0 -84 4t-112 7t-119 3t-105 -7t-69 -22t-11 -41q-4 -22 29 -50t85 -64 t113 -80t112 -99t84 -121t29 -144q-4 -94 -53 -168t-124 -127t-168 -83t-186 -37t-177 9t-142 58q0 4 2 8q4 8 6 14q4 8 10 22q48 -18 106 -25t118 2t116 34t102 71q56 78 71 153t3 145t-42 136t-67 126t-73 116t-56 104q2 48 38 73t83 38t96 19t77 18q-44 36 -100 64 t-110 59t-97 70t-59 93q-8 34 12 80t45 102t47 120t19 133t-43 141t-136 144q2 -2 -31 10t-86 22t-116 10t-121 -24z" />
<glyph unicode="~" horiz-adv-x="1006" d="M94 564q-10 158 39 261t138 127t205 -41t238 -243q38 -38 66 -47t47 1t27 34t7 52t-13 54t-34 40l74 -8q40 -62 35 -123t-44 -98t-106 -41t-149 50q-84 90 -149 125t-114 36t-83 -24t-54 -57t-28 -61t-6 -37h-96z" />
<glyph unicode="&#xa1;" horiz-adv-x="696" d="M60 -42l146 1490l154 12l314 -1360zM161 1703q-5 35 7 75t37 75t62 58t79 23q54 0 74 -50t9 -110t-54 -109t-117 -47q-46 2 -69 26t-28 59z" />
<glyph unicode="&#xa3;" horiz-adv-x="1380" d="M24 682l62 252l340 -46q-12 88 -9 202t23 233t59 233t100 204t145 145t196 55q108 0 180 -41t112 -105t48 -142t-16 -150t-78 -131t-138 -83q-4 0 -10 7t-12 16t-9 17t-1 10q36 24 63 67t44 92t22 99t-3 86q-16 62 -59 88t-98 10t-116 -76t-111 -171t-82 -277t-32 -392 l244 -24l-10 -114l-264 -4q-20 -234 -45 -360t-47 -160q124 38 233 52t208 1t190 -52t181 -105l-126 -196q-58 24 -116 58t-127 63t-150 50t-186 22t-235 -25t-296 -90l-48 60q104 62 168 136t102 157t58 174t40 187z" />
<glyph unicode="&#xa5;" horiz-adv-x="1336" d="M8 1770l588 200l326 -538l320 550l70 -50l-352 -600l14 -170l190 6l-2 -322l-164 26l10 -120l136 -18l10 -174l-130 -6l46 -554l-662 18l122 516l-178 -8l-12 314l256 -34l30 128l-278 46l4 166l326 8l20 80q-172 130 -291 221t-196 150t-118 92t-60 49t-22 20z" />
<glyph unicode="&#xa8;" horiz-adv-x="806" d="M53 1223q-1 37 18 74t50 65t70 42t79 4q58 -18 82 -50t23 -68t-23 -71t-54 -62t-71 -41t-73 -6q-54 16 -77 46t-24 67zM433 1219q-1 37 18 74t50 65t70 42t79 4q58 -18 82 -50t23 -68t-23 -71t-54 -62t-71 -41t-73 -6q-54 16 -77 46t-24 67z" />
<glyph unicode="&#xad;" horiz-adv-x="924" d="M76 784l764 -60l4 -202l-758 -98z" />
<glyph unicode="&#xaf;" horiz-adv-x="862" d="M24 1364l768 -18l4 -202l-768 -48z" />
<glyph unicode="&#xb4;" horiz-adv-x="660" d="M44 1066l426 418l142 -230z" />
<glyph unicode="&#xb8;" horiz-adv-x="766" d="M134 -379q2 37 18 61t48 32t78 -10q-40 -4 -55 -32t-10 -61t26 -64t51 -43q58 4 96 31t53 64t8 81t-38 82t-87 66t-138 34l10 184h146l-10 -76q134 12 215 -34t114 -118t21 -157t-66 -150t-147 -97t-221 2q-38 22 -64 57t-38 73t-10 75z" />
<glyph unicode="&#xbf;" horiz-adv-x="1368" d="M62 456q6 116 43 203t96 152t134 111t156 79t164 58t157 45l210 396h130l80 -638q-76 18 -170 3t-190 -52t-186 -95t-159 -127t-107 -145t-30 -154q4 -48 44 -92t103 -76t141 -51t157 -18t153 24t126 75t77 136t7 206l98 12q22 -162 -19 -270t-125 -172t-199 -86 t-237 -10t-241 54t-212 107t-149 148t-52 177zM936 1704q-16 62 9 116t83 85t126 9q52 -20 75 -55t25 -74t-14 -78t-47 -67t-72 -40t-89 0q-80 42 -96 104z" />
<glyph unicode="&#xc0;" horiz-adv-x="2830" d="M60 368q0 114 59 222t152 191t207 133t224 50q80 6 135 -25t83 -79t29 -107t-27 -109t-86 -83t-146 -31q-58 0 -86 25t-32 58t12 68t44 56t66 19t78 -40q0 -14 -11 -26t-31 -12q-28 24 -53 16t-37 -29t-3 -44t51 -27q64 0 105 26t60 64t18 80t-21 76t-58 52t-90 6 q-100 0 -202 -44t-185 -118t-136 -171t-53 -201q0 -84 22 -163t67 -140t112 -98t157 -37q98 8 193 87t180 215t159 323t135 412t104 481t67 532h58q12 -40 31 -114t43 -167t52 -193t56 -191t54 -162t46 -105l706 484l88 -98l-754 -484q16 -58 71 -140t133 -170t169 -171 t178 -143t162 -88t119 -2q54 14 91 41t60 61t33 75t12 81q-6 78 -41 140t-85 103t-109 62t-113 17t-97 -33t-61 -85q0 -26 22 -39t47 -12t47 14t22 39l54 -4q4 -62 -36 -94t-90 -33t-95 29t-49 92q12 78 61 127t118 67t148 4t149 -61t122 -127t66 -194q0 -112 -47 -210 t-126 -173t-182 -118t-213 -43q-96 18 -171 71t-134 129t-106 168t-87 189t-77 191t-77 176l-194 -130q-18 -72 -42 -167t-60 -196t-86 -201t-120 -181t-164 -138t-216 -71q-60 -12 -133 -3t-145 37t-140 76t-119 116t-82 154t-29 190zM1130 2172l142 230l426 -418z M1436 946l116 88q0 2 -4 10t-15 36t-31 84t-52 152z" />
<glyph unicode="&#xc1;" horiz-adv-x="2830" d="M60 368q0 114 59 222t152 191t207 133t224 50q80 6 135 -25t83 -79t29 -107t-27 -109t-86 -83t-146 -31q-58 0 -86 25t-32 58t12 68t44 56t66 19t78 -40q0 -14 -11 -26t-31 -12q-28 24 -53 16t-37 -29t-3 -44t51 -27q64 0 105 26t60 64t18 80t-21 76t-58 52t-90 6 q-100 0 -202 -44t-185 -118t-136 -171t-53 -201q0 -84 22 -163t67 -140t112 -98t157 -37q98 8 193 87t180 215t159 323t135 412t104 481t67 532h58q12 -40 31 -114t43 -167t52 -193t56 -191t54 -162t46 -105l706 484l88 -98l-754 -484q16 -58 71 -140t133 -170t169 -171 t178 -143t162 -88t119 -2q54 14 91 41t60 61t33 75t12 81q-6 78 -41 140t-85 103t-109 62t-113 17t-97 -33t-61 -85q0 -26 22 -39t47 -12t47 14t22 39l54 -4q4 -62 -36 -94t-90 -33t-95 29t-49 92q12 78 61 127t118 67t148 4t149 -61t122 -127t66 -194q0 -112 -47 -210 t-126 -173t-182 -118t-213 -43q-96 18 -171 71t-134 129t-106 168t-87 189t-77 191t-77 176l-194 -130q-18 -72 -42 -167t-60 -196t-86 -201t-120 -181t-164 -138t-216 -71q-60 -12 -133 -3t-145 37t-140 76t-119 116t-82 154t-29 190zM1130 1984l426 418l142 -230z M1436 946l116 88q0 2 -4 10t-15 36t-31 84t-52 152z" />
<glyph unicode="&#xc2;" horiz-adv-x="2830" d="M60 368q0 114 59 222t152 191t207 133t224 50q80 6 135 -25t83 -79t29 -107t-27 -109t-86 -83t-146 -31q-58 0 -86 25t-32 58t12 68t44 56t66 19t78 -40q0 -14 -11 -26t-31 -12q-28 24 -53 16t-37 -29t-3 -44t51 -27q64 0 105 26t60 64t18 80t-21 76t-58 52t-90 6 q-100 0 -202 -44t-185 -118t-136 -171t-53 -201q0 -84 22 -163t67 -140t112 -98t157 -37q98 8 193 87t180 215t159 323t135 412t104 481t67 532h58q12 -40 31 -114t43 -167t52 -193t56 -191t54 -162t46 -105l706 484l88 -98l-754 -484q16 -58 71 -140t133 -170t169 -171 t178 -143t162 -88t119 -2q54 14 91 41t60 61t33 75t12 81q-6 78 -41 140t-85 103t-109 62t-113 17t-97 -33t-61 -85q0 -26 22 -39t47 -12t47 14t22 39l54 -4q4 -62 -36 -94t-90 -33t-95 29t-49 92q12 78 61 127t118 67t148 4t149 -61t122 -127t66 -194q0 -112 -47 -210 t-126 -173t-182 -118t-213 -43q-96 18 -171 71t-134 129t-106 168t-87 189t-77 191t-77 176l-194 -130q-18 -72 -42 -167t-60 -196t-86 -201t-120 -181t-164 -138t-216 -71q-60 -12 -133 -3t-145 37t-140 76t-119 116t-82 154t-29 190zM916 2112l370 446l318 -516l-44 -34 l-260 432l-194 -456zM1436 946l116 88q0 2 -4 10t-15 36t-31 84t-52 152z" />
<glyph unicode="&#xc3;" horiz-adv-x="2830" d="M60 368q0 114 59 222t152 191t207 133t224 50q80 6 135 -25t83 -79t29 -107t-27 -109t-86 -83t-146 -31q-58 0 -86 25t-32 58t12 68t44 56t66 19t78 -40q0 -14 -11 -26t-31 -12q-28 24 -53 16t-37 -29t-3 -44t51 -27q64 0 105 26t60 64t18 80t-21 76t-58 52t-90 6 q-100 0 -202 -44t-185 -118t-136 -171t-53 -201q0 -84 22 -163t67 -140t112 -98t157 -37q98 8 193 87t180 215t159 323t135 412t104 481t67 532h58q12 -40 31 -114t43 -167t52 -193t56 -191t54 -162t46 -105l706 484l88 -98l-754 -484q16 -58 71 -140t133 -170t169 -171 t178 -143t162 -88t119 -2q54 14 91 41t60 61t33 75t12 81q-6 78 -41 140t-85 103t-109 62t-113 17t-97 -33t-61 -85q0 -26 22 -39t47 -12t47 14t22 39l54 -4q4 -62 -36 -94t-90 -33t-95 29t-49 92q12 78 61 127t118 67t148 4t149 -61t122 -127t66 -194q0 -112 -47 -210 t-126 -173t-182 -118t-213 -43q-96 18 -171 71t-134 129t-106 168t-87 189t-77 191t-77 176l-194 -130q-18 -72 -42 -167t-60 -196t-86 -201t-120 -181t-164 -138t-216 -71q-60 -12 -133 -3t-145 37t-140 76t-119 116t-82 154t-29 190zM978 2004q-10 158 36 264t128 133 t191 -38t225 -247q46 -74 88 -82t66 22t23 84t-37 102h70q40 -62 33 -127t-47 -107t-106 -45t-140 59q-94 78 -163 110t-118 32t-80 -22t-48 -50t-22 -54t-3 -34h-96zM1436 946l116 88q0 2 -4 10t-15 36t-31 84t-52 152z" />
<glyph unicode="&#xc4;" horiz-adv-x="2830" d="M60 368q0 114 59 222t152 191t207 133t224 50q80 6 135 -25t83 -79t29 -107t-27 -109t-86 -83t-146 -31q-58 0 -86 25t-32 58t12 68t44 56t66 19t78 -40q0 -14 -11 -26t-31 -12q-28 24 -53 16t-37 -29t-3 -44t51 -27q64 0 105 26t60 64t18 80t-21 76t-58 52t-90 6 q-100 0 -202 -44t-185 -118t-136 -171t-53 -201q0 -84 22 -163t67 -140t112 -98t157 -37q98 8 193 87t180 215t159 323t135 412t104 481t67 532h58q12 -40 31 -114t43 -167t52 -193t56 -191t54 -162t46 -105l706 484l88 -98l-754 -484q16 -58 71 -140t133 -170t169 -171 t178 -143t162 -88t119 -2q54 14 91 41t60 61t33 75t12 81q-6 78 -41 140t-85 103t-109 62t-113 17t-97 -33t-61 -85q0 -26 22 -39t47 -12t47 14t22 39l54 -4q4 -62 -36 -94t-90 -33t-95 29t-49 92q12 78 61 127t118 67t148 4t149 -61t122 -127t66 -194q0 -112 -47 -210 t-126 -173t-182 -118t-213 -43q-96 18 -171 71t-134 129t-106 168t-87 189t-77 191t-77 176l-194 -130q-18 -72 -42 -167t-60 -196t-86 -201t-120 -181t-164 -138t-216 -71q-60 -12 -133 -3t-145 37t-140 76t-119 116t-82 154t-29 190zM1055 2141q-1 37 18 74t50 65t70 42 t79 4q58 -18 82 -50t23 -68t-23 -71t-54 -62t-71 -41t-73 -6q-54 16 -77 46t-24 67zM1435 2137q-1 37 18 74t50 65t70 42t79 4q58 -18 82 -50t23 -68t-23 -71t-54 -62t-71 -41t-73 -6q-54 16 -77 46t-24 67zM1436 946l116 88q0 2 -4 10t-15 36t-31 84t-52 152z" />
<glyph unicode="&#xc5;" horiz-adv-x="2830" d="M60 368q0 114 59 222t152 191t207 133t224 50q80 6 135 -25t83 -79t29 -107t-27 -109t-86 -83t-146 -31q-58 0 -86 25t-32 58t12 68t44 56t66 19t78 -40q0 -14 -11 -26t-31 -12q-28 24 -53 16t-37 -29t-3 -44t51 -27q64 0 105 26t60 64t18 80t-21 76t-58 52t-90 6 q-100 0 -202 -44t-185 -118t-136 -171t-53 -201q0 -84 22 -163t67 -140t112 -98t157 -37q98 8 193 87t180 215t159 323t135 412t104 481t67 532h58q12 -40 31 -114t43 -167t52 -193t56 -191t54 -162t46 -105l706 484l88 -98l-754 -484q16 -58 71 -140t133 -170t169 -171 t178 -143t162 -88t119 -2q54 14 91 41t60 61t33 75t12 81q-6 78 -41 140t-85 103t-109 62t-113 17t-97 -33t-61 -85q0 -26 22 -39t47 -12t47 14t22 39l54 -4q4 -62 -36 -94t-90 -33t-95 29t-49 92q12 78 61 127t118 67t148 4t149 -61t122 -127t66 -194q0 -112 -47 -210 t-126 -173t-182 -118t-213 -43q-96 18 -171 71t-134 129t-106 168t-87 189t-77 191t-77 176l-194 -130q-18 -72 -42 -167t-60 -196t-86 -201t-120 -181t-164 -138t-216 -71q-60 -12 -133 -3t-145 37t-140 76t-119 116t-82 154t-29 190zM1148 2207q2 59 34 117t82 101t113 61 t129 -4q86 -52 119 -113t27 -119t-43 -109t-90 -85t-114 -46t-117 8q-78 28 -110 79t-30 110zM1255 2208q7 -36 45 -68q18 -10 61 14t79 66t48 94t-32 100q-18 14 -47 8t-59 -26t-55 -51t-36 -66t-4 -71zM1436 946l116 88q0 2 -4 10t-15 36t-31 84t-52 152z" />
<glyph unicode="&#xc6;" horiz-adv-x="2986" d="M60 368q0 114 59 222t152 191t207 133t224 50q80 6 135 -25t83 -79t29 -107t-27 -109t-86 -83t-146 -31q-58 0 -86 25t-32 58t12 68t44 56t66 19t78 -40q0 -14 -11 -26t-31 -12q-28 24 -53 16t-37 -29t-3 -44t51 -27q64 0 105 26t60 64t18 80t-21 76t-58 52t-90 6 q-100 0 -202 -44t-185 -118t-136 -171t-53 -201q0 -84 22 -163t67 -140t112 -98t157 -37q140 32 256 126t213 239t178 335t153 412t138 469t134 507l1354 18l26 -248q-94 56 -192 80t-195 32t-195 6t-192 2l-88 -840l484 30l-8 -130l-474 -28l-108 -764q230 -10 395 31 t277 99t180 119t106 95l-18 -442l-1194 -38l-20 876l-272 -54q-18 -72 -44 -175t-65 -216t-92 -226t-126 -206t-169 -158t-218 -79q-60 -12 -133 -3t-145 37t-140 76t-119 116t-82 154t-29 190zM1436 946l226 38q-2 34 0 94t3 129t2 139t-1 123t-7 82t-15 17z" />
<glyph unicode="&#xc7;" horiz-adv-x="1308" d="M54 797q24 169 87 323t157 289t201 241t220 179t212 104t177 15t118 -88l-66 -46q-50 58 -124 48t-157 -72t-167 -167t-151 -235t-110 -277t-45 -293q-6 -158 33 -262t106 -158t154 -63t177 25t177 107t153 181l92 -24q-22 -62 -77 -140t-131 -156t-169 -146t-191 -112 t-197 -54t-187 30t-161 138t-121 270q-34 174 -10 343zM476 -351q2 37 18 61t48 32t78 -10q-40 -4 -55 -32t-10 -61t26 -64t51 -43q58 4 96 31t53 64t8 81t-38 82t-87 66t-138 34l10 184h146l-10 -76q134 12 215 -34t114 -118t21 -157t-66 -150t-147 -97t-221 2 q-38 22 -64 57t-38 73t-10 75z" />
<glyph unicode="&#xc8;" d="M30 1932l1260 24l26 -242q-96 54 -195 78t-198 32t-198 6t-195 2l-90 -816l492 28l-8 -126l-482 -26l-108 -742q156 -6 281 10t225 46t175 69t131 78t95 74t65 57l-18 -430l-1212 -36zM360 2218l142 230l426 -418z" />
<glyph unicode="&#xc9;" d="M30 1932l1260 24l26 -242q-96 54 -195 78t-198 32t-198 6t-195 2l-90 -816l492 28l-8 -126l-482 -26l-108 -742q156 -6 281 10t225 46t175 69t131 78t95 74t65 57l-18 -430l-1212 -36zM396 1984l426 418l142 -230z" />
<glyph unicode="&#xca;" d="M30 1932l1260 24l26 -242q-96 54 -195 78t-198 32t-198 6t-195 2l-90 -816l492 28l-8 -126l-482 -26l-108 -742q156 -6 281 10t225 46t175 69t131 78t95 74t65 57l-18 -430l-1212 -36zM336 2112l370 446l318 -516l-44 -34l-260 432l-194 -456z" />
<glyph unicode="&#xcb;" d="M30 1932l1260 24l26 -242q-96 54 -195 78t-198 32t-198 6t-195 2l-90 -816l492 28l-8 -126l-482 -26l-108 -742q156 -6 281 10t225 46t175 69t131 78t95 74t65 57l-18 -430l-1212 -36zM321 2141q-1 37 18 74t50 65t70 42t79 4q58 -18 82 -50t23 -68t-23 -71t-54 -62 t-71 -41t-73 -6q-54 16 -77 46t-24 67zM701 2137q-1 37 18 74t50 65t70 42t79 4q58 -18 82 -50t23 -68t-23 -71t-54 -62t-71 -41t-73 -6q-54 16 -77 46t-24 67z" />
<glyph unicode="&#xcc;" horiz-adv-x="1032" d="M62 1880l6 82l942 10q0 -4 3 -17t4 -26t0 -25t-7 -14l-230 -12l-234 -1806l428 20l-2 -86l-896 -26l-8 74l310 18l-60 1812q10 2 -12 2q-20 0 -73 -1t-171 -5zM232 2172l142 230l426 -418z" />
<glyph unicode="&#xcd;" horiz-adv-x="1032" d="M62 1880l6 82l942 10q0 -4 3 -17t4 -26t0 -25t-7 -14l-230 -12l-234 -1806l428 20l-2 -86l-896 -26l-8 74l310 18l-60 1812q10 2 -12 2q-20 0 -73 -1t-171 -5zM232 1984l426 418l142 -230z" />
<glyph unicode="&#xce;" horiz-adv-x="1032" d="M62 1880l6 82l942 10q0 -4 3 -17t4 -26t0 -25t-7 -14l-230 -12l-234 -1806l428 20l-2 -86l-896 -26l-8 74l310 18l-60 1812q10 2 -12 2q-20 0 -73 -1t-171 -5zM172 2112l370 446l318 -516l-44 -34l-260 432l-194 -456z" />
<glyph unicode="&#xcf;" horiz-adv-x="1032" d="M62 1880l6 82l942 10q0 -4 3 -17t4 -26t0 -25t-7 -14l-230 -12l-234 -1806l428 20l-2 -86l-896 -26l-8 74l310 18l-60 1812q10 2 -12 2q-20 0 -73 -1t-171 -5zM157 2141q-1 37 18 74t50 65t70 42t79 4q58 -18 82 -50t23 -68t-23 -71t-54 -62t-71 -41t-73 -6 q-54 16 -77 46t-24 67zM537 2137q-1 37 18 74t50 65t70 42t79 4q58 -18 82 -50t23 -68t-23 -71t-54 -62t-71 -41t-73 -6q-54 16 -77 46t-24 67z" />
<glyph unicode="&#xd1;" horiz-adv-x="1834" d="M54 0l78 1938l186 8l898 -1474q-72 194 -130 380t-88 353t-26 310t54 250t154 172t274 79q98 6 169 -24t115 -84t62 -124t12 -141t-37 -136t-84 -110t-129 -62t-172 9q-52 16 -74 58t-17 86t36 79t89 37q-32 -24 -49 -54t-18 -57t13 -49t44 -34q58 4 97 42t57 92t16 115 t-24 113t-65 87t-107 35q-142 -32 -218 -110t-103 -188t-12 -245t54 -283t94 -302t109 -300q2 -6 15 -43t30 -87t38 -108t38 -108t30 -86t15 -42l-98 -6l-1044 1782l256 -1772zM328 2032q-10 158 36 264t128 133t191 -38t225 -247q46 -74 88 -82t66 22t23 84t-37 102h70 q40 -62 33 -127t-47 -107t-106 -45t-140 59q-94 78 -163 110t-118 32t-80 -22t-48 -50t-22 -54t-3 -34h-96z" />
<glyph unicode="&#xd2;" horiz-adv-x="1572" d="M36 770q-12 182 10 356t82 329t165 271t258 181t361 59q194 -38 321 -138t198 -239t91 -305t-2 -336t-81 -330t-144 -289t-191 -214t-224 -101q-52 -20 -122 -26t-147 5t-156 40t-150 81t-128 128t-91 178q-38 168 -50 350zM489 929q1 -155 23 -301t61 -262t96 -189 t129 -83q140 30 240 122t162 222t88 286t21 315t-40 308t-95 265t-145 187t-189 73q-92 -38 -159 -132t-110 -222t-63 -281t-19 -308zM502 2172l142 230l426 -418z" />
<glyph unicode="&#xd3;" horiz-adv-x="1572" d="M36 770q-12 182 10 356t82 329t165 271t258 181t361 59q194 -38 321 -138t198 -239t91 -305t-2 -336t-81 -330t-144 -289t-191 -214t-224 -101q-52 -20 -122 -26t-147 5t-156 40t-150 81t-128 128t-91 178q-38 168 -50 350zM489 929q1 -155 23 -301t61 -262t96 -189 t129 -83q140 30 240 122t162 222t88 286t21 315t-40 308t-95 265t-145 187t-189 73q-92 -38 -159 -132t-110 -222t-63 -281t-19 -308zM502 1984l426 418l142 -230z" />
<glyph unicode="&#xd4;" horiz-adv-x="1572" d="M36 770q-12 182 10 356t82 329t165 271t258 181t361 59q194 -38 321 -138t198 -239t91 -305t-2 -336t-81 -330t-144 -289t-191 -214t-224 -101q-52 -20 -122 -26t-147 5t-156 40t-150 81t-128 128t-91 178q-38 168 -50 350zM442 2112l370 446l318 -516l-44 -34l-260 432 l-194 -456zM489 929q1 -155 23 -301t61 -262t96 -189t129 -83q140 30 240 122t162 222t88 286t21 315t-40 308t-95 265t-145 187t-189 73q-92 -38 -159 -132t-110 -222t-63 -281t-19 -308z" />
<glyph unicode="&#xd5;" horiz-adv-x="1572" d="M36 770q-12 182 10 356t82 329t165 271t258 181t361 59q194 -38 321 -138t198 -239t91 -305t-2 -336t-81 -330t-144 -289t-191 -214t-224 -101q-52 -20 -122 -26t-147 5t-156 40t-150 81t-128 128t-91 178q-38 168 -50 350zM350 2004q-10 158 36 264t128 133t191 -38 t225 -247q46 -74 88 -82t66 22t23 84t-37 102h70q40 -62 33 -127t-47 -107t-106 -45t-140 59q-94 78 -163 110t-118 32t-80 -22t-48 -50t-22 -54t-3 -34h-96zM489 929q1 -155 23 -301t61 -262t96 -189t129 -83q140 30 240 122t162 222t88 286t21 315t-40 308t-95 265 t-145 187t-189 73q-92 -38 -159 -132t-110 -222t-63 -281t-19 -308z" />
<glyph unicode="&#xd6;" horiz-adv-x="1572" d="M36 770q-12 182 10 356t82 329t165 271t258 181t361 59q194 -38 321 -138t198 -239t91 -305t-2 -336t-81 -330t-144 -289t-191 -214t-224 -101q-52 -20 -122 -26t-147 5t-156 40t-150 81t-128 128t-91 178q-38 168 -50 350zM427 2141q-1 37 18 74t50 65t70 42t79 4 q58 -18 82 -50t23 -68t-23 -71t-54 -62t-71 -41t-73 -6q-54 16 -77 46t-24 67zM489 929q1 -155 23 -301t61 -262t96 -189t129 -83q140 30 240 122t162 222t88 286t21 315t-40 308t-95 265t-145 187t-189 73q-92 -38 -159 -132t-110 -222t-63 -281t-19 -308zM807 2137 q-1 37 18 74t50 65t70 42t79 4q58 -18 82 -50t23 -68t-23 -71t-54 -62t-71 -41t-73 -6q-54 16 -77 46t-24 67z" />
<glyph unicode="&#xd8;" horiz-adv-x="1572" d="M2 50q4 2 12 16t23 42t40 74t65 114q-16 28 -31 59t-25 65q-38 168 -50 350t10 356t82 329t165 271t258 181t361 59q146 -32 248 -92q22 34 44 66t46 66l322 -154q-88 -114 -168 -216q62 -102 93 -224t34 -251t-19 -261t-64 -255t-102 -232t-133 -194t-158 -139t-175 -66 q-56 -22 -131 -27t-158 9t-166 50t-155 96q-70 -94 -92 -126t-22 -34zM490 862q110 172 255 391t333 499q-52 56 -111 87t-127 33q-98 -40 -167 -141t-111 -241t-60 -303t-12 -325zM536 498q38 -168 104 -280t158 -124q124 26 216 101t154 183t96 239t42 271t-8 279t-52 263 q-242 -316 -416 -543t-294 -389z" />
<glyph unicode="&#xd9;" horiz-adv-x="1792" d="M44 1950l672 -2l-8 -72l-128 -6q-8 -110 -17 -273t-12 -346t3 -370t27 -343t60 -266t103 -140q64 -32 126 -3t119 105t107 191t92 254t74 294t50 312t23 307t-7 278h-140v80l564 6v-86l-96 6q-16 -122 -28 -282t-20 -336t-14 -354t-10 -335t-6 -280t-4 -187l88 12 q16 -26 12 -51t-4 -53l-412 -12v90l208 10l-90 824q-30 -102 -60 -211t-70 -213t-93 -197t-127 -161t-173 -107t-231 -33q-146 22 -233 121t-134 250t-61 340t-14 390t5 401t-1 374l-134 -6zM612 2172l142 230l426 -418z" />
<glyph unicode="&#xda;" horiz-adv-x="1792" d="M44 1950l672 -2l-8 -72l-128 -6q-8 -110 -17 -273t-12 -346t3 -370t27 -343t60 -266t103 -140q64 -32 126 -3t119 105t107 191t92 254t74 294t50 312t23 307t-7 278h-140v80l564 6v-86l-96 6q-16 -122 -28 -282t-20 -336t-14 -354t-10 -335t-6 -280t-4 -187l88 12 q16 -26 12 -51t-4 -53l-412 -12v90l208 10l-90 824q-30 -102 -60 -211t-70 -213t-93 -197t-127 -161t-173 -107t-231 -33q-146 22 -233 121t-134 250t-61 340t-14 390t5 401t-1 374l-134 -6zM738 2038l426 418l142 -230z" />
<glyph unicode="&#xdb;" horiz-adv-x="1792" d="M44 1950l672 -2l-8 -72l-128 -6q-8 -110 -17 -273t-12 -346t3 -370t27 -343t60 -266t103 -140q64 -32 126 -3t119 105t107 191t92 254t74 294t50 312t23 307t-7 278h-140v80l564 6v-86l-96 6q-16 -122 -28 -282t-20 -336t-14 -354t-10 -335t-6 -280t-4 -187l88 12 q16 -26 12 -51t-4 -53l-412 -12v90l208 10l-90 824q-30 -102 -60 -211t-70 -213t-93 -197t-127 -161t-173 -107t-231 -33q-146 22 -233 121t-134 250t-61 340t-14 390t5 401t-1 374l-134 -6zM552 2112l370 446l318 -516l-44 -34l-260 432l-194 -456z" />
<glyph unicode="&#xdc;" horiz-adv-x="1792" d="M44 1950l672 -2l-8 -72l-128 -6q-8 -110 -17 -273t-12 -346t3 -370t27 -343t60 -266t103 -140q64 -32 126 -3t119 105t107 191t92 254t74 294t50 312t23 307t-7 278h-140v80l564 6v-86l-96 6q-16 -122 -28 -282t-20 -336t-14 -354t-10 -335t-6 -280t-4 -187l88 12 q16 -26 12 -51t-4 -53l-412 -12v90l208 10l-90 824q-30 -102 -60 -211t-70 -213t-93 -197t-127 -161t-173 -107t-231 -33q-146 22 -233 121t-134 250t-61 340t-14 390t5 401t-1 374l-134 -6zM537 2141q-1 37 18 74t50 65t70 42t79 4q58 -18 82 -50t23 -68t-23 -71t-54 -62 t-71 -41t-73 -6q-54 16 -77 46t-24 67zM917 2137q-1 37 18 74t50 65t70 42t79 4q58 -18 82 -50t23 -68t-23 -71t-54 -62t-71 -41t-73 -6q-54 16 -77 46t-24 67z" />
<glyph unicode="&#xdd;" horiz-adv-x="1342" d="M4 1770l588 200l326 -538l320 550l70 -50l-352 -600l110 -1332l-662 18l290 1216q-172 130 -291 221t-196 150t-118 92t-60 49t-22 20zM650 1984l426 418l142 -230z" />
<glyph unicode="&#xde;" horiz-adv-x="1226" d="M-30 -776l164 2056l196 42l-36 -528q32 76 109 138t175 98t203 40t192 -34t143 -127t56 -237q-6 -158 -77 -291t-185 -222t-262 -127t-308 -4l54 -790zM338 244q0 -78 24 -122t106 -44q80 0 147 47t118 122t86 168t50 186t9 175t-37 134t-87 64t-140 -34q-24 -12 -70 -42 t-92 -104t-80 -205t-34 -345z" />
<glyph unicode="&#xdf;" horiz-adv-x="1322" d="M76 1484q2 112 26 195t74 149q30 38 91 74t143 63t176 41t188 9t181 -35t155 -90t108 -154t42 -230q0 -90 -34 -173t-83 -150t-102 -116t-89 -71q122 24 187 7t95 -51t36 -72t8 -54q2 -14 2 -53t-16 -94t-55 -123t-116 -141t-199 -148t-302 -145l-18 68q54 18 120 48 t133 71t130 95t110 121t72 148t19 177q-24 48 -51 69t-75 13t-125 -45t-199 -103l-52 86q186 106 286 211t145 191t51 142t6 66q-4 64 -39 129t-89 116t-123 81t-139 26t-137 -49t-119 -147q-48 -92 -74 -222t-36 -280t-9 -314t8 -326t16 -313t13 -277l-4 -22l-120 16 q-46 306 -87 550t-70 437t-45 340t-14 259z" />
<glyph unicode="&#xe0;" d="M40 244q-4 94 29 204t93 213t143 189t177 131t194 39t198 -86l40 144l310 -30q-24 -64 -61 -151t-75 -183t-73 -194t-54 -184t-18 -152t35 -100q48 -22 95 -10t87 43t69 76t41 89l50 -76q-14 -52 -51 -95t-85 -75t-100 -50t-96 -18q-60 -2 -91 29t-46 76t-19 97t-10 94 q-96 -126 -249 -198t-339 -66q-98 18 -144 84t-50 160zM278 380q0 -102 55 -154t155 -52q90 0 153 37t121 103q-4 12 0 49t12 86t19 106t20 111t16 100t7 72q-46 82 -109 103t-129 -2t-130 -81t-110 -137t-70 -168t-10 -173zM286 1262l142 230l426 -418z" />
<glyph unicode="&#xe1;" d="M40 244q-4 94 29 204t93 213t143 189t177 131t194 39t198 -86l40 144l310 -30q-24 -64 -61 -151t-75 -183t-73 -194t-54 -184t-18 -152t35 -100q48 -22 95 -10t87 43t69 76t41 89l50 -76q-14 -52 -51 -95t-85 -75t-100 -50t-96 -18q-60 -2 -91 29t-46 76t-19 97t-10 94 q-96 -126 -249 -198t-339 -66q-98 18 -144 84t-50 160zM278 380q0 -102 55 -154t155 -52q90 0 153 37t121 103q-4 12 0 49t12 86t19 106t20 111t16 100t7 72q-46 82 -109 103t-129 -2t-130 -81t-110 -137t-70 -168t-10 -173zM396 1066l426 418l142 -230z" />
<glyph unicode="&#xe2;" d="M40 244q-4 94 29 204t93 213t143 189t177 131t194 39t198 -86l40 144l310 -30q-24 -64 -61 -151t-75 -183t-73 -194t-54 -184t-18 -152t35 -100q48 -22 95 -10t87 43t69 76t41 89l50 -76q-14 -52 -51 -95t-85 -75t-100 -50t-96 -18q-60 -2 -91 29t-46 76t-19 97t-10 94 q-96 -126 -249 -198t-339 -66q-98 18 -144 84t-50 160zM278 380q0 -102 55 -154t155 -52q90 0 153 37t121 103q-4 12 0 49t12 86t19 106t20 111t16 100t7 72q-46 82 -109 103t-129 -2t-130 -81t-110 -137t-70 -168t-10 -173zM336 1194l370 446l318 -516l-44 -34l-260 432 l-194 -456z" />
<glyph unicode="&#xe3;" d="M40 244q-4 94 29 204t93 213t143 189t177 131t194 39t198 -86l40 144l310 -30q-24 -64 -61 -151t-75 -183t-73 -194t-54 -184t-18 -152t35 -100q48 -22 95 -10t87 43t69 76t41 89l50 -76q-14 -52 -51 -95t-85 -75t-100 -50t-96 -18q-60 -2 -91 29t-46 76t-19 97t-10 94 q-96 -126 -249 -198t-339 -66q-98 18 -144 84t-50 160zM264 1204q-10 158 36 264t128 133t191 -38t225 -247q46 -74 88 -82t66 22t23 84t-37 102h70q40 -62 33 -127t-47 -107t-106 -45t-140 59q-94 78 -163 110t-118 32t-80 -22t-48 -50t-22 -54t-3 -34h-96zM278 380 q0 -102 55 -154t155 -52q90 0 153 37t121 103q-4 12 0 49t12 86t19 106t20 111t16 100t7 72q-46 82 -109 103t-129 -2t-130 -81t-110 -137t-70 -168t-10 -173z" />
<glyph unicode="&#xe4;" d="M40 244q-4 94 29 204t93 213t143 189t177 131t194 39t198 -86l40 144l310 -30q-24 -64 -61 -151t-75 -183t-73 -194t-54 -184t-18 -152t35 -100q48 -22 95 -10t87 43t69 76t41 89l50 -76q-14 -52 -51 -95t-85 -75t-100 -50t-96 -18q-60 -2 -91 29t-46 76t-19 97t-10 94 q-96 -126 -249 -198t-339 -66q-98 18 -144 84t-50 160zM278 380q0 -102 55 -154t155 -52q90 0 153 37t121 103q-4 12 0 49t12 86t19 106t20 111t16 100t7 72q-46 82 -109 103t-129 -2t-130 -81t-110 -137t-70 -168t-10 -173zM321 1223q-1 37 18 74t50 65t70 42t79 4 q58 -18 82 -50t23 -68t-23 -71t-54 -62t-71 -41t-73 -6q-54 16 -77 46t-24 67zM701 1219q-1 37 18 74t50 65t70 42t79 4q58 -18 82 -50t23 -68t-23 -71t-54 -62t-71 -41t-73 -6q-54 16 -77 46t-24 67z" />
<glyph unicode="&#xe5;" d="M40 244q-4 94 29 204t93 213t143 189t177 131t194 39t198 -86l40 144l310 -30q-24 -64 -61 -151t-75 -183t-73 -194t-54 -184t-18 -152t35 -100q48 -22 95 -10t87 43t69 76t41 89l50 -76q-14 -52 -51 -95t-85 -75t-100 -50t-96 -18q-60 -2 -91 29t-46 76t-19 97t-10 94 q-96 -126 -249 -198t-339 -66q-98 18 -144 84t-50 160zM278 380q0 -102 55 -154t155 -52q90 0 153 37t121 103q-4 12 0 49t12 86t19 106t20 111t16 100t7 72q-46 82 -109 103t-129 -2t-130 -81t-110 -137t-70 -168t-10 -173zM414 1289q2 59 34 117t82 101t113 61t129 -4 q86 -52 119 -113t27 -119t-43 -109t-90 -85t-114 -46t-117 8q-78 28 -110 79t-30 110zM521 1290q7 -36 45 -68q18 -10 61 14t79 66t48 94t-32 100q-18 14 -47 8t-59 -26t-55 -51t-36 -66t-4 -71z" />
<glyph unicode="&#xe6;" horiz-adv-x="1746" d="M40 244q-4 94 29 204t93 213t143 189t177 131t194 39t198 -86q56 38 125 75t140 61t142 30t134 -13t113 -70t82 -141q8 -26 -20 -62t-78 -79t-116 -89t-135 -94t-132 -94t-107 -88q-6 -22 -4 -53t11 -61t26 -53t43 -29q46 -28 104 -34t119 6t117 40t99 68t65 93t14 115 q2 -2 16 2t30 10t28 11t12 3q14 -120 -54 -214t-182 -156t-255 -88t-275 -10q-74 -2 -136 30t-102 90q-94 -70 -212 -107t-252 -33q-98 18 -144 84t-50 160zM278 380q0 -102 55 -154t155 -52q96 0 170 46q-22 62 -25 136t19 162q20 80 65 171t107 169q-48 72 -110 87 t-128 -10t-127 -85t-106 -137t-67 -164t-8 -169zM952 834q2 -46 6 -85t10 -77t14 -77t18 -85q16 14 69 39t112 58t112 76t69 93q12 52 -5 89t-53 58t-84 27t-98 -5t-95 -39t-75 -72z" />
<glyph unicode="&#xe7;" horiz-adv-x="998" d="M50 333q-10 113 22 236t93 227t145 176t178 84q70 8 127 -6t99 -35t69 -41t37 -26l6 40l88 -6l-6 -212l-88 10q-2 16 1 43t5 43q-10 20 -50 44t-90 37t-100 9t-82 -38q-48 -52 -82 -133t-52 -170t-21 -180t10 -164t42 -120t75 -51q56 -10 123 -3t129 37t108 84t58 136 l76 -4q-14 -114 -76 -187t-155 -112t-209 -50t-238 1q-118 38 -175 128t-67 203zM330 -395q2 37 18 61t48 32t78 -10q-40 -4 -55 -32t-10 -61t26 -64t51 -43q58 4 96 31t53 64t8 81t-38 82t-87 66t-138 34l10 184h146l-10 -76q134 12 215 -34t114 -118t21 -157t-66 -150 t-147 -97t-221 2q-38 22 -64 57t-38 73t-10 75z" />
<glyph unicode="&#xe8;" horiz-adv-x="1140" d="M43 298q-11 92 17 202q14 56 41 121t65 126t84 116t98 93q84 52 184 90t194 37t172 -51t120 -174q8 -26 -20 -62t-78 -79t-116 -89t-135 -94t-132 -94t-107 -88q-6 -22 -4 -53t11 -61t26 -53t43 -29q46 -26 104 -33t119 5t117 39t99 69t65 94t14 114q2 -2 16 2t30 10 t28 11t12 3q14 -120 -54 -214t-182 -156t-255 -88t-275 -10q-78 -2 -143 35t-106 103t-52 158zM276 1372l142 230l426 -418zM360 816q2 -46 6 -85t10 -77t14 -77t18 -85q16 14 69 39t112 58t112 76t69 93q12 52 -5 89t-53 58t-84 27t-98 -5t-95 -39t-75 -72z" />
<glyph unicode="&#xe9;" horiz-adv-x="1140" d="M43 298q-11 92 17 202q14 56 41 121t65 126t84 116t98 93q84 52 184 90t194 37t172 -51t120 -174q8 -26 -20 -62t-78 -79t-116 -89t-135 -94t-132 -94t-107 -88q-6 -22 -4 -53t11 -61t26 -53t43 -29q46 -26 104 -33t119 5t117 39t99 69t65 94t14 114q2 -2 16 2t30 10 t28 11t12 3q14 -120 -54 -214t-182 -156t-255 -88t-275 -10q-78 -2 -143 35t-106 103t-52 158zM286 1066l426 418l142 -230zM360 816q2 -46 6 -85t10 -77t14 -77t18 -85q16 14 69 39t112 58t112 76t69 93q12 52 -5 89t-53 58t-84 27t-98 -5t-95 -39t-75 -72z" />
<glyph unicode="&#xea;" horiz-adv-x="1140" d="M43 298q-11 92 17 202q14 56 41 121t65 126t84 116t98 93q84 52 184 90t194 37t172 -51t120 -174q8 -26 -20 -62t-78 -79t-116 -89t-135 -94t-132 -94t-107 -88q-6 -22 -4 -53t11 -61t26 -53t43 -29q46 -26 104 -33t119 5t117 39t99 69t65 94t14 114q2 -2 16 2t30 10 t28 11t12 3q14 -120 -54 -214t-182 -156t-255 -88t-275 -10q-78 -2 -143 35t-106 103t-52 158zM226 1194l370 446l318 -516l-44 -34l-260 432l-194 -456zM360 816q2 -46 6 -85t10 -77t14 -77t18 -85q16 14 69 39t112 58t112 76t69 93q12 52 -5 89t-53 58t-84 27t-98 -5 t-95 -39t-75 -72z" />
<glyph unicode="&#xeb;" horiz-adv-x="1140" d="M43 298q-11 92 17 202q14 56 41 121t65 126t84 116t98 93q84 52 184 90t194 37t172 -51t120 -174q8 -26 -20 -62t-78 -79t-116 -89t-135 -94t-132 -94t-107 -88q-6 -22 -4 -53t11 -61t26 -53t43 -29q46 -26 104 -33t119 5t117 39t99 69t65 94t14 114q2 -2 16 2t30 10 t28 11t12 3q14 -120 -54 -214t-182 -156t-255 -88t-275 -10q-78 -2 -143 35t-106 103t-52 158zM211 1223q-1 37 18 74t50 65t70 42t79 4q58 -18 82 -50t23 -68t-23 -71t-54 -62t-71 -41t-73 -6q-54 16 -77 46t-24 67zM360 816q2 -46 6 -85t10 -77t14 -77t18 -85q16 14 69 39 t112 58t112 76t69 93q12 52 -5 89t-53 58t-84 27t-98 -5t-95 -39t-75 -72zM591 1219q-1 37 18 74t50 65t70 42t79 4q58 -18 82 -50t23 -68t-23 -71t-54 -62t-71 -41t-73 -6q-54 16 -77 46t-24 67z" />
<glyph unicode="&#xec;" horiz-adv-x="524" d="M-30 1492l142 230l426 -418zM28 1072q184 4 277 7t130 4l37 1l-164 -1084h-100q-4 40 -17 115t-36 201t-55 311t-72 445z" />
<glyph unicode="&#xed;" horiz-adv-x="524" d="M-10 1230l426 418l142 -230zM28 1072q184 4 277 7t130 4l37 1l-164 -1084h-100q-4 40 -17 115t-36 201t-55 311t-72 445z" />
<glyph unicode="&#xee;" horiz-adv-x="524" d="M-80 1322l370 446l318 -516l-44 -34l-260 432l-194 -456zM28 1072q184 4 277 7t130 4l37 1l-164 -1084h-100q-4 40 -17 115t-36 201t-55 311t-72 445z" />
<glyph unicode="&#xef;" horiz-adv-x="524" d="M-85 1313q-1 37 18 74t50 65t70 42t79 4q58 -18 82 -50t23 -68t-23 -71t-54 -62t-71 -41t-73 -6q-54 16 -77 46t-24 67zM28 1072q184 4 277 7t130 4l37 1l-164 -1084h-100q-4 40 -17 115t-36 201t-55 311t-72 445zM295 1309q-1 37 18 74t50 65t70 42t79 4q58 -18 82 -50 t23 -68t-23 -71t-54 -62t-71 -41t-73 -6q-54 16 -77 46t-24 67z" />
<glyph unicode="&#xf1;" horiz-adv-x="962" d="M28 1066l318 6l-36 -260q48 32 100 77t106 86t111 69t119 28q64 8 94 -46t39 -146t3 -211t-10 -241t-1 -235t27 -193h-312q14 58 31 145t32 185t28 198t20 184t6 143t-13 75q-8 20 -22 34t-53 -2t-111 -72t-194 -172l-144 -714l-96 -8zM38 1222q-10 158 36 264t128 133 t191 -38t225 -247q46 -74 88 -82t66 22t23 84t-37 102h70q40 -62 33 -127t-47 -107t-106 -45t-140 59q-94 78 -163 110t-118 32t-80 -22t-48 -50t-22 -54t-3 -34h-96z" />
<glyph unicode="&#xf2;" horiz-adv-x="1038" d="M28 330q-28 132 0 248t93 209t156 159t191 97t199 23t177 -61t126 -156t48 -263q-4 -132 -65 -245t-154 -193t-206 -119t-221 -24t-200 93t-144 232zM234 1254l142 230l426 -418zM274 419q4 -77 21 -145t49 -110t83 -51t123 31q62 48 101 138t53 191t2 200t-52 166 t-109 86t-169 -37q-22 -10 -42 -55t-35 -111t-22 -146t-3 -157z" />
<glyph unicode="&#xf3;" horiz-adv-x="1038" d="M28 330q-28 132 0 248t93 209t156 159t191 97t199 23t177 -61t126 -156t48 -263q-4 -132 -65 -245t-154 -193t-206 -119t-221 -24t-200 93t-144 232zM234 1066l426 418l142 -230zM274 419q4 -77 21 -145t49 -110t83 -51t123 31q62 48 101 138t53 191t2 200t-52 166 t-109 86t-169 -37q-22 -10 -42 -55t-35 -111t-22 -146t-3 -157z" />
<glyph unicode="&#xf4;" horiz-adv-x="1038" d="M28 330q-28 132 0 248t93 209t156 159t191 97t199 23t177 -61t126 -156t48 -263q-4 -132 -65 -245t-154 -193t-206 -119t-221 -24t-200 93t-144 232zM174 1194l370 446l318 -516l-44 -34l-260 432l-194 -456zM274 419q4 -77 21 -145t49 -110t83 -51t123 31q62 48 101 138 t53 191t2 200t-52 166t-109 86t-169 -37q-22 -10 -42 -55t-35 -111t-22 -146t-3 -157z" />
<glyph unicode="&#xf5;" horiz-adv-x="1038" d="M28 330q-28 132 0 248t93 209t156 159t191 97t199 23t177 -61t126 -156t48 -263q-4 -132 -65 -245t-154 -193t-206 -119t-221 -24t-200 93t-144 232zM128 1132q-10 158 36 264t128 133t191 -38t225 -247q46 -74 88 -82t66 22t23 84t-37 102h70q40 -62 33 -127t-47 -107 t-106 -45t-140 59q-94 78 -163 110t-118 32t-80 -22t-48 -50t-22 -54t-3 -34h-96zM274 419q4 -77 21 -145t49 -110t83 -51t123 31q62 48 101 138t53 191t2 200t-52 166t-109 86t-169 -37q-22 -10 -42 -55t-35 -111t-22 -146t-3 -157z" />
<glyph unicode="&#xf6;" horiz-adv-x="1038" d="M28 330q-28 132 0 248t93 209t156 159t191 97t199 23t177 -61t126 -156t48 -263q-4 -132 -65 -245t-154 -193t-206 -119t-221 -24t-200 93t-144 232zM159 1223q-1 37 18 74t50 65t70 42t79 4q58 -18 82 -50t23 -68t-23 -71t-54 -62t-71 -41t-73 -6q-54 16 -77 46t-24 67z M274 419q4 -77 21 -145t49 -110t83 -51t123 31q62 48 101 138t53 191t2 200t-52 166t-109 86t-169 -37q-22 -10 -42 -55t-35 -111t-22 -146t-3 -157zM539 1219q-1 37 18 74t50 65t70 42t79 4q58 -18 82 -50t23 -68t-23 -71t-54 -62t-71 -41t-73 -6q-54 16 -77 46t-24 67z " />
<glyph unicode="&#xf8;" horiz-adv-x="1088" d="M16 36q4 4 23 31t71 99q-50 70 -82 164q-26 130 0 243t87 205t150 158t186 100t194 31t177 -49q12 14 25 28t27 30l222 -82l-132 -132q26 -54 40 -122t14 -154q-4 -108 -46 -203t-108 -170t-151 -127t-175 -72t-179 -6t-165 72q-22 -24 -35 -39t-23 -25l-16 -16zM276 544 q-6 -86 2 -166q68 84 161 195t219 257q-40 70 -109 93t-173 -35q-24 -10 -45 -61t-35 -124t-20 -159zM318 208q30 -66 86 -90t146 26q40 32 71 83t52 114t30 132t7 135q-134 -136 -231 -234t-161 -166z" />
<glyph unicode="&#xf9;" horiz-adv-x="998" d="M46 613q0 181 22 441l352 4q-64 -262 -97 -437t-44 -283t-4 -163t21 -78t31 -25t29 -8q90 10 151 68t102 147t62 197t32 215t12 204t1 163l248 6l-52 -1062l-104 -6l-40 606q-16 -90 -51 -197t-91 -200t-133 -155t-179 -62q-34 -4 -71 0t-72 36t-64 100t-45 188t-16 301z M178 1354l142 230l426 -418z" />
<glyph unicode="&#xfa;" horiz-adv-x="998" d="M46 613q0 181 22 441l352 4q-64 -262 -97 -437t-44 -283t-4 -163t21 -78t31 -25t29 -8q90 10 151 68t102 147t62 197t32 215t12 204t1 163l248 6l-52 -1062l-104 -6l-40 606q-16 -90 -51 -197t-91 -200t-133 -155t-179 -62q-34 -4 -71 0t-72 36t-64 100t-45 188t-16 301z M232 1194l426 418l142 -230z" />
<glyph unicode="&#xfb;" horiz-adv-x="998" d="M46 613q0 181 22 441l352 4q-64 -262 -97 -437t-44 -283t-4 -163t21 -78t31 -25t29 -8q90 10 151 68t102 147t62 197t32 215t12 204t1 163l248 6l-52 -1062l-104 -6l-40 606q-16 -90 -51 -197t-91 -200t-133 -155t-179 -62q-34 -4 -71 0t-72 36t-64 100t-45 188t-16 301z M146 1268l370 446l318 -516l-44 -34l-260 432l-194 -456z" />
<glyph unicode="&#xfc;" horiz-adv-x="998" d="M46 613q0 181 22 441l352 4q-64 -262 -97 -437t-44 -283t-4 -163t21 -78t31 -25t29 -8q90 10 151 68t102 147t62 197t32 215t12 204t1 163l248 6l-52 -1062l-104 -6l-40 606q-16 -90 -51 -197t-91 -200t-133 -155t-179 -62q-34 -4 -71 0t-72 36t-64 100t-45 188t-16 301z M139 1223q-1 37 18 74t50 65t70 42t79 4q58 -18 82 -50t23 -68t-23 -71t-54 -62t-71 -41t-73 -6q-54 16 -77 46t-24 67zM519 1219q-1 37 18 74t50 65t70 42t79 4q58 -18 82 -50t23 -68t-23 -71t-54 -62t-71 -41t-73 -6q-54 16 -77 46t-24 67z" />
<glyph unicode="&#xfd;" horiz-adv-x="1290" d="M30 904l470 158l260 -920l412 926l98 -10q-46 -104 -103 -267t-118 -358t-122 -408t-113 -418t-92 -390t-60 -321l10 6l-484 150q30 42 76 119t99 173t108 201t100 204t76 183t39 136zM360 1202l426 418l142 -230z" />
<glyph unicode="&#xfe;" horiz-adv-x="1140" d="M46 1976l498 -28q-20 -220 -33 -358t-21 -218t-11 -113t-4 -41t-1 -5t0 -3q56 44 103 81t95 62t104 36t130 3q102 -10 158 -74t44 -166q-2 -52 -23 -124t-60 -153t-98 -164t-135 -158t-172 -135t-208 -94l16 -336h-110zM420 436q78 0 159 57t150 141t119 182t68 180 q16 90 -4 146t-62 81t-100 20t-116 -37t-110 -90t-84 -140z" />
<glyph unicode="&#xff;" horiz-adv-x="1290" d="M30 904l470 158l260 -920l412 926l98 -10q-46 -104 -103 -267t-118 -358t-122 -408t-113 -418t-92 -390t-60 -321l10 6l-484 150q30 42 76 119t99 173t108 201t100 204t76 183t39 136zM367 1305q-1 37 18 74t50 65t70 42t79 4q58 -18 82 -50t23 -68t-23 -71t-54 -62 t-71 -41t-73 -6q-54 16 -77 46t-24 67zM747 1301q-1 37 18 74t50 65t70 42t79 4q58 -18 82 -50t23 -68t-23 -71t-54 -62t-71 -41t-73 -6q-54 16 -77 46t-24 67z" />
<glyph unicode="&#x152;" horiz-adv-x="2082" d="M36 756q-12 174 7 342t72 321t148 271t233 191t326 83l1188 -16l26 -242q-96 54 -195 78t-198 32t-198 6t-195 2l-90 -816l492 28l-8 -126l-482 -26l-108 -742q156 -6 281 10t225 46t175 69t131 78t95 74t65 57l-18 -430q-364 -42 -642 -59t-484 -10t-347 38t-233 86 t-142 135t-74 184q-38 162 -50 336zM490 853q6 -143 29 -276t61 -236t92 -170t122 -77l-42 1722q-74 -62 -126 -167t-84 -234t-45 -274t-7 -288z" />
<glyph unicode="&#x153;" horiz-adv-x="1782" d="M28 330q-30 146 7 273t116 224t187 158t219 77t212 -20t165 -132q34 34 64 56q84 52 184 90t194 37t172 -51t120 -174q8 -26 -20 -62t-78 -79t-116 -89t-135 -94t-132 -94t-107 -88q-6 -22 -4 -53t11 -61t26 -53t43 -29q46 -28 104 -34t119 6t117 39t99 69t65 94t14 114 q2 -2 16 2t30 10t28 11t12 3q14 -120 -54 -214t-182 -156t-255 -88t-275 -10q-70 -2 -129 27t-101 81q-94 -70 -202 -100t-210 -11t-189 96t-135 225zM274 419q4 -77 21 -145t49 -110t83 -51t123 31q52 40 88 113t54 159q2 18 6 37t8 39q12 100 -2 195t-54 158t-108 81 t-166 -38q-22 -10 -42 -55t-35 -111t-22 -146t-3 -157zM1010 826q2 -46 6 -85t10 -77t14 -77t18 -85q16 14 69 39t112 58t112 76t69 93q12 52 -5 89t-53 58t-84 27t-98 -5t-95 -39t-75 -72z" />
<glyph unicode="&#x178;" horiz-adv-x="1342" d="M4 1770l588 200l326 -538l320 550l70 -50l-352 -600l110 -1332l-662 18l290 1216q-172 130 -291 221t-196 150t-118 92t-60 49t-22 20zM519 2141q-1 37 18 74t50 65t70 42t79 4q58 -18 82 -50t23 -68t-23 -71t-54 -62t-71 -41t-73 -6q-54 16 -77 46t-24 67zM899 2137 q-1 37 18 74t50 65t70 42t79 4q58 -18 82 -50t23 -68t-23 -71t-54 -62t-71 -41t-73 -6q-54 16 -77 46t-24 67z" />
<glyph unicode="&#x2c6;" horiz-adv-x="830" d="M10 1194l370 446l318 -516l-44 -34l-260 432l-194 -456z" />
<glyph unicode="&#x2dc;" horiz-adv-x="952" d="M78 1086q-10 158 36 264t128 133t191 -38t225 -247q46 -74 88 -82t66 22t23 84t-37 102h70q40 -62 33 -127t-47 -107t-106 -45t-140 59q-94 78 -163 110t-118 32t-80 -22t-48 -50t-22 -54t-3 -34h-96z" />
<glyph unicode="&#x2000;" horiz-adv-x="1279" />
<glyph unicode="&#x2001;" horiz-adv-x="2558" />
<glyph unicode="&#x2002;" horiz-adv-x="1279" />
<glyph unicode="&#x2003;" horiz-adv-x="2558" />
<glyph unicode="&#x2004;" horiz-adv-x="852" />
<glyph unicode="&#x2005;" horiz-adv-x="639" />
<glyph unicode="&#x2006;" horiz-adv-x="426" />
<glyph unicode="&#x2007;" horiz-adv-x="426" />
<glyph unicode="&#x2008;" horiz-adv-x="319" />
<glyph unicode="&#x2009;" horiz-adv-x="511" />
<glyph unicode="&#x200a;" horiz-adv-x="142" />
<glyph unicode="&#x2010;" horiz-adv-x="924" d="M76 784l764 -60l4 -202l-758 -98z" />
<glyph unicode="&#x2011;" horiz-adv-x="924" d="M76 784l764 -60l4 -202l-758 -98z" />
<glyph unicode="&#x2012;" horiz-adv-x="924" d="M76 784l764 -60l4 -202l-758 -98z" />
<glyph unicode="&#x2013;" horiz-adv-x="924" d="M76 784l764 -60l4 -202l-758 -98z" />
<glyph unicode="&#x2014;" horiz-adv-x="2204" d="M76 784l2037 -60l11 -202l-2021 -98z" />
<glyph unicode="&#x2018;" horiz-adv-x="588" d="M84 1574q10 60 57 101t137 41q44 0 85 -18t73 -48t51 -70t19 -82q0 -54 -28 -83t-69 -39t-86 -2t-79 30q-10 -38 19 -68t71 -52t85 -39t65 -29q-98 -14 -177 18t-132 88t-77 124t-14 128z" />
<glyph unicode="&#x2019;" horiz-adv-x="588" d="M80 1498q0 42 19 82t51 70t73 48t85 18q90 0 137 -41t57 -101t-14 -128t-77 -124t-132 -88t-177 -18q20 12 64 29t86 39t71 52t19 68q-34 -22 -79 -30t-86 2t-69 39t-28 83z" />
<glyph unicode="&#x201a;" horiz-adv-x="588" d="M92 166q0 42 19 82t51 70t73 48t85 18q90 0 137 -41t57 -101t-14 -128t-77 -124t-132 -88t-177 -18q20 12 64 29t86 39t71 52t19 68q-34 -22 -79 -30t-86 2t-69 39t-28 83z" />
<glyph unicode="&#x201c;" horiz-adv-x="1000" d="M92 1257q8 61 32 115t64 93t94 45q68 0 108 -24t56 -59t9 -77t-34 -79t-71 -63t-102 -28q-28 0 -42 4t-40 20q0 -62 24 -85t61 -25t82 8t87 12q0 -28 -25 -45t-59 -27t-67 -13t-51 -3q-52 0 -82 34t-41 85t-3 112zM556 1317q6 67 35 119t83 80t132 10q52 -10 79 -40 t33 -68t-6 -79t-37 -74t-61 -53t-80 -16q-16 0 -28 6t-23 14t-24 13t-27 3q10 -54 26 -83t43 -42t67 -16t94 -3q0 -16 -17 -27t-39 -19t-43 -12t-27 -4q-66 10 -108 56t-60 107t-12 128z" />
<glyph unicode="&#x201d;" horiz-adv-x="1000" d="M90 1418q6 38 33 68t79 40q78 18 132 -10t83 -80t35 -119t-12 -128t-60 -107t-108 -56q-6 0 -27 4t-43 12t-39 19t-17 27q54 0 93 3t66 16t44 42t27 83q-16 2 -28 -3t-23 -13t-24 -14t-27 -6q-44 -4 -80 16t-61 53t-37 74t-6 79zM553 1350q-7 42 9 77t56 59t108 24 q54 -6 94 -45t64 -93t32 -115t-3 -112t-41 -85t-82 -34q-18 0 -51 3t-67 13t-59 27t-25 45q42 -2 87 -12t82 -8t61 25t24 85q-26 -16 -40 -20t-42 -4q-58 2 -102 28t-71 63t-34 79z" />
<glyph unicode="&#x201e;" horiz-adv-x="1000" d="M126 324q6 38 33 68t79 40q78 18 132 -10t83 -80t35 -119t-12 -128t-60 -107t-108 -56q-6 0 -27 4t-43 12t-39 19t-17 27q54 0 93 3t66 16t44 42t27 83q-16 2 -28 -3t-23 -13t-24 -14t-27 -6q-44 -4 -80 16t-61 53t-37 74t-6 79zM589 256q-7 42 9 77t56 59t108 24 q54 -6 94 -45t64 -93t32 -115t-3 -112t-41 -85t-82 -34q-18 0 -51 3t-67 13t-59 27t-25 45q42 -2 87 -12t82 -8t61 25t24 85q-26 -16 -40 -20t-42 -4q-58 2 -102 28t-71 63t-34 79z" />
<glyph unicode="&#x2026;" horiz-adv-x="1504" d="M68 162q0 38 12 80t36 77t58 57t76 22q76 0 121 -40t45 -116q0 -42 -19 -80t-51 -67t-71 -46t-81 -17q-58 0 -92 37t-34 93zM568 166q0 38 13 74t37 63t58 44t76 17q56 0 93 -34t37 -96q0 -44 -19 -83t-50 -69t-72 -48t-83 -18q-36 0 -54 11t-26 31t-9 48t-1 60z M1086 140q0 38 14 78t39 72t60 53t77 21q30 0 58 -14t50 -37t35 -53t13 -60q0 -38 -21 -74t-54 -64t-72 -45t-77 -17q-68 0 -95 41t-27 99z" />
<glyph unicode="&#x202f;" horiz-adv-x="511" />
<glyph unicode="&#x205f;" horiz-adv-x="639" />
<glyph unicode="&#x20ac;" horiz-adv-x="1582" d="M80 840l212 -28q4 34 11 65t15 65l-230 38l4 166l302 8q66 148 160 276t200 229t215 170t205 97t172 11t114 -87l-66 -46q-40 46 -96 48t-120 -31t-132 -98t-131 -152t-118 -191t-93 -218l398 24l-2 -322l-456 24q-4 -22 -4 -41v-39v-42l442 -14l10 -174l-420 -28 q46 -132 140 -186t206 -38t225 96t197 216l92 -24q-22 -62 -77 -140t-131 -156t-169 -146t-191 -112t-197 -54t-187 30t-161 138t-121 270q-4 22 -7 45t-7 45l-192 -8z" />
<glyph unicode="&#x25fc;" horiz-adv-x="1080" d="M0 0v1080h1080v-1080h-1080z" />
</font>
</defs>
</svg>
