<?xml version="1.0" standalone="no"?>
<!DOCTYPE svg PUBLIC "-//W3C//DTD SVG 1.1//EN" "http://www.w3.org/Graphics/SVG/1.1/DTD/svg11.dtd" >
<svg xmlns="http://www.w3.org/2000/svg">
<metadata></metadata>
<defs>
<font id="janda_apple_cobblerregular" horiz-adv-x="1362" >
<font-face units-per-em="2048" ascent="1638" descent="-410" />
<missing-glyph horiz-adv-x="812" />
<glyph horiz-adv-x="0" />
<glyph unicode="&#xd;" horiz-adv-x="1000" />
<glyph unicode=" "  horiz-adv-x="812" />
<glyph unicode="&#x09;" horiz-adv-x="812" />
<glyph unicode="&#xa0;" horiz-adv-x="812" />
<glyph unicode="!" horiz-adv-x="696" d="M26 1834l614 142l-146 -1490l-154 -12zM148 1724q0 -26 11 -54t25 -50q26 18 33 47t7 57h-76zM158 1660q46 20 61 47t15 67q0 24 -10 13t-22 -35t-25 -52t-19 -40zM214 1534q0 -34 4 -69t18 -69l16 18v120h-38zM271 160q11 60 54 109t117 47q46 -2 69 -26t28 -59t-7 -75 t-37 -75t-62 -58t-79 -23q-54 0 -74 50t-9 110zM286 1224q0 -34 4 -57t14 -63v138l-16 16q0 -4 -1 -17t-1 -17zM322 1586q18 10 18 26v8q-18 -8 -18 -26v-8zM322 1706q10 8 29 4t37 -10t32 -8t14 10v10q-14 -12 -31 -8t-33 10t-29 8t-19 -16zM348 1780q14 4 32 14t35 24 t28 29t11 29l-2 4v4q-36 -10 -62 -41t-42 -63zM350 1500q0 -8 6 -8t6 8t-6 8t-6 -8zM356 1362q0 -8 3 -27t6 -42t6 -42t3 -27l16 18q2 2 9 26t15 57t16 67t12 56q2 2 2 15v19v18t-2 18l-86 -138v-18zM372 112q0 -4 1 -13t1 -13l68 156h-8q-16 0 -28 -16t-20 -38t-11 -43 t-3 -33zM374 1534q28 20 49 54t21 68v8t-2 8zM388 807q0 -21 1 -44t1 -44v-29q12 54 20 94t12 76t5 73t1 85v20t-1 31t-1 31v20q-16 -36 -24 -71t-11 -69t-3 -70v-74v-29zM400 629q0 -11 8 -9q8 4 8 10t-8 8t-8 -9zM494 1572h28l7 23t15 57t16 73t14 69q0 4 1 20t1 20 q-32 0 -47 -14t-25 -44q24 2 30 -7t6 -25q0 -30 -7 -48t-16 -35t-16 -37t-7 -52z" />
<glyph unicode="&#x22;" horiz-adv-x="1000" d="M92 1257q8 61 32 115t64 93t94 45q68 0 108 -24t56 -59t9 -77t-34 -79t-71 -63t-102 -28q-28 0 -42 4t-40 20q0 -62 24 -85t61 -25t82 8t87 12q0 -28 -25 -45t-59 -27t-67 -13t-51 -3q-52 0 -82 34t-41 85t-3 112zM252 1324q0 -2 2 -4l34 34h-8q-28 0 -28 -26v-4z M288 1440q4 -4 17 -11t17 -7t11 7t7 11h-52zM368 1319q0 -9 6 -9t6 9t-6 9t-6 -9zM556 1317q6 67 35 119t83 80t132 10q52 -10 79 -40t33 -68t-6 -79t-37 -74t-61 -53t-80 -16q-16 0 -28 6t-23 14t-24 13t-27 3q10 -54 26 -83t43 -42t67 -16t94 -3q0 -16 -17 -27t-39 -19 t-43 -12t-27 -4q-66 10 -108 56t-60 107t-12 128zM728 1363q0 -11 8 -9t8 8t-8 8q-8 4 -8 -7zM748 1405q0 -9 6 -9t6 9t-6 9t-6 -9zM788 1302h8q12 0 20 9t14 22t8 26t2 21v8q-10 -6 -19 -18t-16 -26t-11 -26t-6 -16zM798 1457q0 -9 8 -9q6 0 6 9t-6 9q-8 0 -8 -9z" />
<glyph unicode="#" horiz-adv-x="1766" d="M148 960l314 108l-40 502l372 46l-32 -450q16 0 60 12t95 28t100 32t77 26l-2 394l350 74l-66 -382l236 60l-8 -122l-254 -66l-34 -248q46 0 74 5t52 12t53 15t77 14l4 -132l-252 -72q-2 -18 -8 -63t-14 -106t-17 -128t-17 -127t-14 -106t-8 -62l-70 -18l-38 554 l-400 -112l-22 -514l-124 -6q-2 16 -10 81t-17 141t-17 141t-10 81l-360 -110l-8 122l350 102l-22 276l-320 -110zM546 1350q0 -6 1 -26t1 -26q34 20 53 62t19 80q-46 0 -60 -25t-14 -65zM576 730h24v120q-4 0 -10 -6t-6 -10q-2 -6 -3 -21t-2 -31t-2 -31t-1 -21zM598 1167 q-2 -5 2 -7q8 -4 15 3t3 15q-2 4 -6 2t-8 -5t-6 -8zM636 252q10 36 15 92t6 115t1 115v94q-4 0 -7 -19t-7 -44t-6 -48t-2 -29v-276zM636 1364q0 -8 6 -8t6 8t-6 8t-6 -8zM638 784q0 -32 4 -32q26 38 37 76t10 67t-13 47t-30 18q-4 0 -6 -33t-2 -72v-71zM746 710l360 116 q18 6 18 26v8q-4 0 -19 -6t-32 -12t-31 -11t-18 -7q-26 -8 -70 -24t-86 -32t-73 -28t-33 -14zM746 796l370 134l-14 208l-350 -112zM1152 839q0 -11 8 -9t8 8t-8 10q-8 2 -8 -9zM1164 719q0 -11 8 -9t8 8t-8 10q-8 2 -8 -9zM1211 623q1 -41 2 -91t1 -99t-2 -75v-18v-18 l18 18l1 43t2 101t4 121t9 105q0 2 5 15t10 29t10 30t5 16l-48 -56q-2 0 -8 -27t-8 -43q-2 -10 -1 -51zM1240 1451q0 9 6 9t6 -9t-6 -9t-6 9zM1244 1434q24 0 35 17t16 40t5 48v41q-24 0 -35 -16t-16 -39t-5 -48v-43zM1246 848h16v34h-16v-34zM1246 986q0 -10 9 -15t17 -5h4 q2 0 4 2q12 32 15 52t3 52v34q-4 -4 -12 -20t-17 -35t-16 -38t-7 -27z" />
<glyph unicode="$" horiz-adv-x="1640" d="M78 406l182 190q24 -76 83 -129t130 -83t138 -35t105 19l-18 590q-176 -28 -277 -3t-140 82t-25 137t66 161t134 154t180 119l-84 330l328 48l-18 -322q36 8 96 -2t113 -45t81 -99t2 -164l-74 6q10 26 9 64t-23 71t-69 57t-129 24l4 -426q66 0 139 -1t146 -11t143 -32 t128 -64t102 -109t66 -165q8 -112 -26 -195t-93 -144t-133 -102t-147 -69t-136 -44t-97 -28l24 -432l-300 6l16 374q-100 -2 -195 11t-176 45t-147 85t-108 131zM234 374h122q0 14 -12 24t-27 18t-29 17t-16 21l-38 -62v-18zM268 288q44 -26 83 -40t89 -14q6 0 26 1t26 1 q-32 42 -64 48t-82 6h-40t-38 -2zM386 1108q0 -30 19 -45t53 -15q8 0 27 2t41 5t42 5t28 4l-18 18l-190 52q0 -4 -1 -13t-1 -13zM404 1234q0 -26 29 -41t53 -15q0 58 12 109t12 105v18q-42 -28 -74 -76t-32 -100zM540 1261q-4 -57 27 -92t117 -23l-38 350q-40 -48 -71 -113 t-35 -122zM632 284q6 -16 20 -23t32 -10t36 -3h32q-28 44 -60 48t-60 -12zM664 1772q0 -12 2 -21t6 -5q8 6 8 26t-8 26q-4 2 -6 -6t-2 -20zM678 203q0 -9 6 -9q8 0 8 9t-8 9q-6 0 -6 -9zM741 -81q-1 -5 0 -13t1 -28v-52l34 18l-22 118q-6 -22 -9 -30t-4 -13zM742 1866 l16 -206h34v240q-4 0 -17 -7t-17 -9l-10 -10t-6 -8zM838 -48q0 -12 4 -28t4 -30q4 -16 22 -19t30 -3l-6 244q0 14 -7 25t-19 11h-10q-16 -50 -17 -99t-1 -101zM884 1008q0 -164 12 -327t12 -327q44 0 115 33t137 81t114 104t48 102q0 88 -42 151t-107 104t-142 60t-147 19z M1096 1048q48 -22 82 -51t65 -61t61 -66t68 -64v16q0 44 -23 88t-59 79t-81 56t-89 21q-14 0 -24 -18zM1198 374q4 0 10 -1t8 -1q58 0 114 37t100 93t71 122t27 122q0 28 -7 71t-24 84t-45 71t-68 30q0 -34 17 -64t37 -60t37 -62t17 -70q0 -62 -28 -117t-71 -102t-95 -86 t-100 -67zM1364 1013q0 -9 8 -9q6 0 6 9t-6 9q-8 0 -8 -9z" />
<glyph unicode="%" horiz-adv-x="1632" d="M18 50q6 4 23 36t62 112t127 218t218 354t336 520t482 716l322 -154q-318 -410 -546 -708t-385 -506t-252 -336t-146 -199t-69 -96l-18 -25zM138 84q10 -4 29 7t41 27q-2 4 -2 18q0 34 18 64t36 58q-18 -12 -38 -38t-37 -53t-30 -51t-17 -32zM143 1629q-9 55 9 112 t58 103t96 73t122 19q86 -10 136 -55t66 -104t2 -123t-55 -113t-106 -73t-151 -4q-82 20 -125 65t-52 100zM267 1568q1 -20 23 -20q2 0 13 20t23 45t19 45t5 20q-22 0 -42 -20t-31 -45t-10 -45zM276 292q24 18 41 47t29 57q-24 -18 -41 -47t-29 -57zM362 430q8 -4 15 3t3 15 q-4 6 -14 -4t-4 -14zM408 499q0 -9 6 -9q8 0 8 9t-8 9q-6 0 -6 -9zM410 1558q20 6 41 16t38 28t28 45t11 67q0 6 -15 25t-17 25q-2 -6 -6 -21t-10 -31t-11 -31l-7 -21q-10 -22 -31 -47t-21 -47v-8zM410 1794l70 40l-58 38zM432 534q0 -2 8 -2q16 0 22 16t6 28l-2 4v4z M546 706q0 -8 6 -8q8 0 8 8t-8 8q-6 0 -6 -8zM552 584q24 20 43 46t35 52t35 50t43 42l546 920q-14 -12 -32 -32t-36 -41t-32 -39t-20 -26zM564 740q0 -8 6 -8t6 8t-6 8t-6 -8zM1021 242q5 60 39 119t84 100t111 55t121 -14q86 -52 118 -112t26 -116t-44 -105t-91 -82 t-115 -44t-118 9q-76 26 -106 78t-25 112zM1158 187q0 -9 2 -13q12 10 41 37t62 58t62 58t41 37q14 12 25 17t17 8t9 7t3 18q0 28 -16 33t-40 5q-34 0 -53 -9t-47 -45q12 -4 36 -11t32 -23q-12 -24 -40 -35t-58 -25t-53 -36t-23 -68v-13zM1238 1780q2 -2 4 -2h4q32 0 61 31 t51 57q-8 4 -34 10t-36 8h-16q-4 -24 -11 -53t-23 -51zM1264 1596l232 218q-10 22 -37 29t-49 7v-36zM1366 226l36 -18q14 22 24 49t10 55v16q-26 -16 -43 -45t-27 -57z" />
<glyph unicode="&#x26;" horiz-adv-x="1566" d="M47 598q17 130 65 270t118 282q-50 114 -61 238t10 235t69 198t113 125t143 16t160 -126q24 -62 24 -135t-15 -147t-42 -144t-56 -127t-56 -96t-45 -49q62 -116 133 -224t154 -203t180 -175t211 -140q40 30 70 104t48 163t25 174t3 135l-180 -18l-4 80l394 10l8 -76 l-164 10q10 -64 9 -140t-16 -157t-44 -163t-73 -158q0 -2 19 -14t48 -30t62 -40t61 -40t47 -31t19 -15l-98 -112q-6 8 -41 31t-75 48t-75 47t-43 30q-28 -30 -92 -72t-151 -80t-189 -63t-206 -24t-201 37t-175 122q-66 86 -87 200t-4 244zM140 590q6 -58 10 -117t18 -118 t44 -113t84 -98q10 -2 43 -5t43 -3q18 -2 43 -12t50 -17t47 -7t34 18q-142 -16 -226 41t-119 163t-26 247t53 295q-36 -54 -66 -126t-32 -138v-6v-4zM262 1428l30 -54q-4 4 -4 32t4 70t12 91t20 94t28 78t38 45q-8 16 -33 -16t-49 -88t-40 -125t-6 -127zM283 1264 q-1 -10 1 -22t5 -23t5 -13l38 168l-38 -96q-10 -4 -11 -14zM334 707q2 -71 21 -144t59 -136t104 -110t156 -67q8 -6 41 -14t81 -6t105 21t109 65q-132 90 -232 172t-175 159t-128 151t-91 150q-24 -44 -38 -107t-12 -134zM393 1544q-5 -90 11 -168t50 -110q28 28 52 82 t42 119t27 133t7 123t-18 89t-46 34q-60 -44 -90 -128t-35 -174zM414 1048l114 -202q12 10 18 20t10 46q-2 0 -2 4v4zM512 54q6 -10 35 -10t70 6t88 16t86 22t66 24t29 20q2 2 -25 -2t-69 -12t-91 -18t-91 -19t-70 -17t-28 -10zM614 836q0 -8 6 -10q8 0 8 8t-8 10 q-6 0 -6 -8zM634 808q0 -10 11 -30t26 -40t31 -36t26 -16h4q2 0 3 1t3 1q-18 36 -45 69t-55 61q-2 -4 -2 -6t-2 -4zM747 669q-1 -9 5 -11q6 0 6 9t-6 11q-4 0 -5 -9zM1059 339q-1 -9 5 -9q10 -2 10 7t-8 9q-6 2 -7 -7zM1102 348q30 -44 63 -55t66 -16t63 -19t52 -62l32 -40 l2 34l32 -20v4v4q2 20 -16 44q-30 38 -62 52t-67 21t-72 16t-75 37h-10h-8z" />
<glyph unicode="'" horiz-adv-x="588" d="M80 1498q0 42 19 82t51 70t73 48t85 18q90 0 137 -41t57 -101t-14 -128t-77 -124t-132 -88t-177 -18q20 12 64 29t86 39t71 52t19 68q-34 -22 -79 -30t-86 2t-69 39t-28 83zM234 1474l70 14l18 120l-32 -66q-16 -12 -28 -24q-10 -10 -19 -22t-9 -22zM341 1609 q3 -19 9 -41t12 -38t6 -12q2 8 5 28t3 41t-7 35t-27 8q-4 -2 -1 -21z" />
<glyph unicode="(" horiz-adv-x="958" d="M14 674q-8 106 17 247t78 292t128 303t166 281t193 223t210 132l24 -54q-38 -12 -89 -74t-105 -157t-107 -217t-95 -255t-68 -271t-24 -266q2 -148 42 -277t106 -238t149 -195t168 -147t165 -97t140 -42q-14 -14 -38 -48q-22 -28 -59 -78t-95 -126q-178 20 -343 102 t-291 219t-201 324t-71 419zM82 642q0 -78 22 -152t63 -137t99 -111t134 -74q4 6 10 27t6 27q0 22 -23 40t-52 33t-58 29t-43 30q-6 12 -19 43t-27 66t-26 67t-16 46v11t-1 25t-1 28v22q-2 246 82 488q-4 -2 -10 -9t-6 -11q-58 -120 -97 -238t-37 -250zM251 783 q-1 -29 1 -39q0 -36 2 -63t8 -53t17 -53t31 -61v26v24q-4 14 -12 51t-17 77t-17 77t-10 53q-2 -10 -3 -39zM300 1100q0 -4 2 -10t2 -8q10 16 14 27t2 27q0 2 -1 8t-1 10q-12 -16 -14 -27t-4 -27zM318 477q0 -7 2 -13t6 -2q6 4 7 17t-9 17q-4 2 -5 -5t-1 -14zM330 1326 q4 0 13 17t17 36t13 36t1 17q-4 2 -13 -15t-17 -37t-13 -37t-1 -17zM337 427q-1 -9 7 -9q6 0 7 9t-5 9q-8 0 -9 -9zM520 74q0 -8 6 -10q6 0 6 8t-6 8q-6 2 -6 -6zM536 55q0 -9 8 -7q6 0 6 9t-6 9q-8 -2 -8 -11zM542 160q2 -12 11 -26t20 -28t23 -23t24 -9q22 2 42 20 q-4 4 -19 14t-32 20t-32 19t-21 13h-4q-2 0 -4 2q-2 0 -2 -1t-2 -1h-4zM606 -10q0 -8 6 -8q6 -2 6 6t-6 10q-6 0 -6 -8zM748 -112v-38q20 0 37 4t33 20q-6 2 -26 7t-26 7q-2 2 -4 2q-4 0 -4 2q-2 0 -5 -2t-5 -2zM846 -127q0 -9 6 -7q6 -2 6 7t-6 11q-6 -2 -6 -11zM938 -192 q4 -8 11 -9t7 7q2 8 -9 8t-9 -6z" />
<glyph unicode=")" horiz-adv-x="976" d="M-150 2036q14 14 38 48q22 28 59 77t95 127q178 -20 343 -102t291 -219t200 -325t72 -418q8 -106 -17 -247t-78 -292t-128 -303t-166 -281t-194 -223t-209 -132l-24 54q38 12 89 74t105 157t107 217t95 255t67 271t25 266q0 148 -41 277t-107 238t-149 195t-168 147 t-165 97t-140 42zM6 2092q-2 -8 9 -8t9 6q-4 8 -11 9t-7 -7zM104 2025q0 -9 6 -11q6 2 6 11t-6 7q-6 2 -6 -7zM144 2024q6 -2 26 -7t26 -7q2 -2 4 -2t2 -1t2 -1t5 2t5 2v38q-20 0 -37 -4t-33 -20zM300 1804q4 -4 19 -14t32 -20t32 -19t21 -13q2 -2 4 -2h4h4q2 0 4 2 q-4 12 -12 26t-19 28t-23 23t-24 9q-22 -2 -42 -20zM344 1910q0 -8 6 -10q6 0 6 8t-6 8q-6 2 -6 -6zM412 1841q0 -9 6 -9q8 2 8 11t-8 7q-6 0 -6 -9zM430 1826q0 -8 6 -8q6 -2 6 6t-6 10q-6 0 -6 -8zM546 1676q0 -22 23 -40t52 -33t58 -29t43 -30q6 -12 19 -43t27 -66 t26 -67t16 -46v-11t1 -25t1 -28v-22q2 -246 -82 -488q4 2 10 9t6 11q58 120 97 238t37 250q0 78 -22 151t-63 136t-100 112t-133 75q-4 -6 -10 -27t-6 -27zM588 466q4 -2 13 15t17 37t13 37t1 17t-13 -17t-17 -36t-13 -36t-1 -17zM611 1471q-1 -9 5 -9q8 0 9 9t-7 9 q-6 0 -7 -9zM629 1419q-1 -13 9 -17q2 -2 4 4t2 14t-2 13t-6 3q-6 -4 -7 -17zM642 762q0 -2 1 -8t1 -10q12 16 14 27t4 27q0 4 -2 10t-2 8q-10 -16 -14 -27t-2 -27zM652 1334q4 -16 12 -52t17 -76t16 -77t11 -53q2 10 3 39t-1 39q0 36 -2 63t-8 53t-17 53t-31 61v-26v-24z " />
<glyph unicode="*" horiz-adv-x="1344" d="M132 866l114 246l368 -228l-32 426l328 -28l-136 -420l414 298l92 -294l-446 -92l354 -240l-270 -274l-220 412l-212 -380l-346 138l424 342zM234 884q20 -16 46 -19t48 -3q0 22 -21 39t-37 17q-8 0 -22 -13t-14 -21zM296 464l50 -16q8 -2 24 13t32 36t30 42t18 29 q-8 -4 -27 -16t-41 -26t-42 -26t-28 -18q-4 -2 -10 -8t-6 -10zM304 970q2 -8 8 -8t10 8q2 8 -9 8t-9 -8zM432 422q0 -18 18 -26q4 2 10 8l8 8q6 8 18 31t26 47t26 46t16 32q-8 -6 -28 -25t-41 -41t-37 -44t-16 -36zM784 1168q0 -4 1 -13t1 -13l18 70q-16 -4 -18 -18t-2 -26z M870 574q0 -20 14 -28t32 -8h4q2 0 4 2l-52 50q0 -2 -1 -8t-1 -8zM886 436q0 -2 2 -8t2 -10l52 52q-24 4 -40 -4t-16 -30zM936 522q0 -8 6 -8t6 8t-6 8t-6 -8zM1060 990h8q16 0 39 13t23 31v8zM1146 938h10q16 0 24 18z" />
<glyph unicode="+" horiz-adv-x="772" d="M76 610l182 34q2 0 -1 37t-8 88t-10 104t-7 87l294 28l-28 -308l216 26l4 -56l-220 -30l-24 -398l-192 -10l-22 372l-182 -32zM366 830q-2 -38 3 -82t5 -82l8 6l-6 -100q6 28 12 58t4 52l12 156l-10 38q-14 -4 -20 -6t-7 -6t0 -12t-1 -22zM370 472l14 -192q6 2 9 -13 t6 -9t5 48t4 158l-38 16v-8zM382 672l10 10q-6 22 -8 24zM423 466q1 -32 11 -30q6 2 9 34t3 79t-2 102t-3 104t-1 84t4 43q-4 -100 -10 -183t-9 -142t-2 -91z" />
<glyph unicode="," horiz-adv-x="406" d="M60 120q-2 38 12 73t37 61t54 39t65 11q70 -6 107 -48t47 -98t-7 -117t-56 -108t-98 -71t-135 -4q16 10 49 22t65 30t52 42t12 60q-24 -18 -59 -21t-66 9t-54 42t-25 78zM166 128l6 -12q4 -10 8 -30l52 8l-42 76zM280 116q0 6 8 22t14 32t6 27t-14 7q-4 0 -6 -16t-4 -33 t-3 -30t-1 -9z" />
<glyph unicode="-" horiz-adv-x="924" d="M76 784l764 -60l4 -202l-758 -98zM172 536h114q-24 12 -41 14t-41 2h-32v-16zM182 636h114q-14 8 -28 24t-18 42h-68v-66zM316 635q0 -9 4 -9t4 9t-4 9t-4 -9zM360 684l24 -40q2 0 31 -2t45 -2q62 0 91 5t52 13t53 15t94 11h-390zM612 602q0 -8 4 -8t4 8t-4 8t-4 -8z M650 602q8 -2 29 -3t44 -2t44 -3t29 -4h12l2 34q-40 0 -81 -4t-79 -18zM768 683q0 -9 6 -9q4 0 4 9t-4 9q-6 0 -6 -9z" />
<glyph unicode="." horiz-adv-x="462" d="M97 113q-5 35 6 72t34 65t55 43t68 5q84 -18 114 -72t17 -108t-63 -90t-126 -18q-50 10 -75 39t-30 64zM160 174l16 -96l32 -20zM234 224q0 -4 7 -11t11 -7q6 0 26 7t26 11h-70z" />
<glyph unicode="/" horiz-adv-x="1538" d="M18 50q6 4 23 36t62 112t127 218t218 354t336 520t482 716l322 -154q-318 -410 -546 -708t-385 -506t-252 -336t-146 -199t-69 -96l-18 -25zM138 84q10 -4 29 7t41 27q-2 4 -2 18q0 34 18 64t36 58q-18 -12 -38 -38t-37 -53t-30 -51t-17 -32zM276 292q24 18 41 47t29 57 q-24 -18 -41 -47t-29 -57zM362 430q8 -4 15 3t3 15q-4 6 -14 -4t-4 -14zM408 499q0 -9 6 -9q8 0 8 9t-8 9q-6 0 -6 -9zM432 534q0 -2 8 -2q16 0 22 16t6 28l-2 4v4zM546 706q0 -8 6 -8q8 0 8 8t-8 8q-6 0 -6 -8zM552 584q24 20 43 46t35 52t35 50t43 42l546 920 q-14 -12 -32 -32t-36 -41t-32 -39t-20 -26zM564 740q0 -8 6 -8t6 8t-6 8t-6 -8zM1238 1780q2 -2 4 -2h4q32 0 61 31t51 57q-8 4 -34 10t-36 8h-16q-4 -24 -11 -53t-23 -51zM1264 1596l232 218q-10 22 -37 29t-49 7v-36z" />
<glyph unicode="0" horiz-adv-x="1294" d="M29 991q-1 155 25 301t80 274t140 219t203 137t269 30q126 -18 219 -86t155 -170t94 -230t39 -269t-10 -286t-56 -281t-98 -254t-134 -203t-165 -131t-192 -38q-106 -12 -194 39t-157 146t-118 224t-74 276t-26 302zM148 586q34 16 43 60t9 78v18l-52 -36v-120zM166 810 q2 -2 4 -2h4q8 0 15 30t12 76t9 99t7 99t4 78t1 36q0 6 -1 26t-1 26q-4 -10 -10 -46t-11 -84t-10 -103t-10 -103t-8 -85t-5 -47zM168 1364q6 16 20 55t31 83t32 83t21 55q6 14 19 44t33 42q30 22 73 47t65 57q-68 -12 -122 -59t-92 -111t-59 -136t-21 -134v-26zM214 356 q0 -20 10 -42t25 -42t33 -37t34 -29q-20 26 -31 55t-16 57t-5 53t4 43q-34 -6 -44 -20t-10 -38zM216 492q0 -4 1 -14t1 -12q6 2 19 15t15 19q2 8 -5 28t-13 24q-14 -16 -16 -29t-2 -31zM296 638q0 -8 8 -8q6 0 6 8t-6 8q-8 0 -8 -8zM338 156q12 -16 34 -35t44 -19h4q2 0 4 2 q-4 34 -20 44t-40 10q-4 0 -13 -1t-13 -1zM382 621q0 -9 8 -9q6 0 6 9t-6 9q-8 0 -8 -9zM393 1082q-1 -154 17 -303t59 -270t109 -199t168 -88q94 24 155 107t94 204t39 267t-10 294t-53 287t-91 245t-124 168t-150 56q-42 12 -80 -49t-67 -170t-47 -252t-19 -297zM434 86 q0 -8 8 -8q6 0 6 8t-6 8q-8 0 -8 -8zM434 431q0 -9 8 -9q6 0 6 9t-6 9q-8 0 -8 -9zM452 379q0 -9 6 -9q8 0 8 9t-8 9q-6 0 -6 -9zM468 337q0 -11 8 -9t8 8t-8 8q-8 4 -8 -7zM484 301q0 -11 10 -7q8 2 8 8t-8 8q-10 2 -10 -9zM502 267q0 -11 8 -9q8 4 8 10t-8 8t-8 -9z M520 241q0 -9 8 -9q6 0 6 9t-6 9q-8 0 -8 -9zM544 216q0 -18 23 -31t39 -13h8q-12 16 -34 30t-36 22v-8zM624 155q0 -9 6 -9q8 0 8 9t-8 9q-6 0 -6 -9zM702 1898l104 -50q0 2 1 8t1 8q0 30 -19 33t-43 3h-23t-21 -2zM824 1830q60 -42 108 -117t83 -171t57 -204t31 -216 t4 -206t-25 -174h14l3 14t6 33t5 39t4 34q4 96 10 172q2 32 3 63t3 56t3 41l1 16q0 136 -49 275t-141 241q-10 12 -27 30t-34 34t-29 28t-14 12h-16zM954 250q-6 2 18 33t53 73t51 86t12 72q0 -2 -1 -2t-1 -2v-4q-40 -78 -73 -148t-59 -108zM1006 1778q0 -8 8 -8q6 0 6 8 t-6 8q-8 0 -8 -8zM1069 539q-3 -17 1 -17q2 0 8 17t11 37t7 37t0 17q-4 0 -9 -17t-10 -37t-8 -37zM1070 699q0 -11 10 -9q8 2 8 8t-8 8q-10 4 -10 -7z" />
<glyph unicode="1" horiz-adv-x="870" d="M62 1332q104 30 204 98t187 156t154 188t107 190h76l-6 -1960l-550 -2l394 1686q-38 -40 -91 -100t-122 -122t-154 -116t-187 -78zM372 172l36 18l-18 16q-18 -8 -18 -24v-10zM408 276l68 34v18l-68 -18v-34zM442 482l68 138q-12 10 -21 14t-21 4h-8q-2 -6 -4 -23t-5 -37 t-6 -37t-3 -23v-18v-18zM520 750q0 -12 8 -8q8 2 8 8t-8 8q-8 4 -8 -8zM536 810q0 -8 3 -13t7 -3q8 4 8 17t-8 17q-4 2 -7 -4t-3 -14zM570 1274q0 -8 6 -8t6 8t-6 8t-6 -8zM580 190q2 -8 8 -8t8 8q4 8 -7 8t-9 -8zM588 604q0 -8 2 -14t6 -4q10 4 10 17t-10 17q-4 2 -6 -3 t-2 -13zM676 1326q0 -70 2 -148t7 -151t15 -113q14 16 16 24t2 24v20q0 20 -2 70t-4 117t-4 140t-5 140t-5 117t-2 70l-16 -34q0 -4 -1 -25t-2 -49t-1 -55v-43v-104zM680 672h20l3 10t6 23t5 28t4 25v20q0 10 -1 19t-17 13q-10 -34 -15 -69t-5 -69zM682 456q0 -4 1 -13 t1 -11q18 4 18 22v28v18t-2 18q-14 -16 -16 -29t-2 -33zM684 224h34v18h-34v-18zM694 345q0 -9 6 -9q8 0 8 9t-8 9q-6 0 -6 -9z" />
<glyph unicode="2" horiz-adv-x="1590" d="M32 8q262 438 448 751t276 516t76 303t-152 112q-68 -2 -138 -22t-132 -56t-110 -89t-70 -118t-13 -142t63 -165l-48 -44q-84 126 -79 248t70 230t176 197t238 148t258 83t235 1t169 -97t61 -210q0 -16 -5 -67t-31 -138t-82 -208t-159 -279t-262 -352t-391 -424 q230 -72 416 -106t323 -32t223 36t114 98q18 110 -15 173t-82 79t-95 -15t-52 -111q0 -26 17 -41t37 -16t37 10t17 37l54 -4q4 -62 -31 -92t-80 -29t-85 33t-44 94q-2 72 32 121t83 71t105 15t101 -46t69 -112t8 -181q-32 -60 -72 -96t-107 -54t-173 -22t-267 -2t-389 8 t-542 6zM204 180q10 4 51 34t88 68t87 75t50 55q-4 2 -31 -21t-58 -51t-58 -51t-29 -23q-18 0 -35 -2t-30 -10t-23 -26t-12 -48zM369 423q-1 -5 3 -7q8 -4 13 4t1 18q-2 2 -6 0t-7 -6t-4 -9zM472 536q26 12 59 43t59 115q-16 -16 -33 -38t-33 -44t-30 -43zM572 536 q4 -10 10 -10t8 10t-9 10t-9 -10zM600 575q0 -9 6 -9t6 9t-6 9t-6 -9zM600 733q0 -9 6 -9t6 9t-6 9t-6 -9zM782 916q4 6 21 39t36 70t35 68t18 35v20q-2 -2 -7 -10t-11 -18t-10 -19t-6 -13q-2 -2 -2 -4v-4l-10 -24t-24 -53t-26 -55t-14 -32zM806 1772q0 -14 12 -26t22 -4 q10 4 29 26t23 32h-18q-8 0 -33 -8t-33 -12q0 -2 -1 -2t-1 -2v-4zM906 1195q-2 -5 2 -7q6 -4 13 3t3 17q-2 4 -6 2t-7 -6t-5 -9zM918 1706q0 -16 11 -34t25 -33t26 -26l12 -11q18 12 18 30q0 16 -10 29t-25 23t-30 16t-27 6zM942 1246q14 10 25 30t11 40q0 2 -1 5t-1 7z M942 1504l18 20l-18 18v-38zM976 1820l134 20h-118zM986 1366q0 -10 6 -10t6 10t-6 10t-6 -10zM1026 1760l18 -18l14 18h-32zM1110 1662q2 -8 14 -22t18 -18v88q-10 0 -23 -17t-9 -31zM1154 1424q0 -10 6 -10t6 10t-6 10t-6 -10zM1176 1810q0 -18 10 -26l58 36l-18 27 t-22 15q-16 0 -22 -18t-6 -34z" />
<glyph unicode="3" horiz-adv-x="1614" d="M48 234q-6 118 23 201t85 137t132 82t162 34t177 -5t177 -36t162 -59t132 -72q102 176 119 320t-30 250t-150 171t-240 84t-298 -13t-325 -120q-10 0 -21 18t-15 34q124 56 208 97t143 74t99 59t76 54q102 88 119 138t-19 70t-109 13t-154 -32t-154 -65t-107 -86h-92 l110 356l94 -14l-14 -82q78 18 174 42t195 45t194 33t172 4t126 -40t59 -98q0 -60 -41 -114t-97 -97t-114 -73t-92 -44q188 28 324 -19t219 -140t111 -220t-2 -259t-118 -257t-236 -213q2 -4 14 -20t25 -40t24 -54t11 -58l-48 -26q-4 22 -11 48t-20 52t-31 47t-42 31 q-286 -192 -481 -285t-320 -103t-191 57t-94 193zM188 230q22 16 37 37t15 49v18q-22 -14 -37 -43t-15 -53v-8zM232 172q0 -24 11 -53t23 -29h25t17 2q6 0 13 6t5 10l-52 104l-40 -32q-2 -2 -2 -4v-4zM240 1638q14 4 29 13t23 23h-52v-36zM258 1742h52q-8 12 -13 21t-5 23 q0 16 18 24l-18 18q-10 -20 -19 -42t-15 -44zM290 492q0 -4 2 -4l34 34q-12 -2 -24 -7t-12 -19v-4zM358 376q0 -4 1 -21t1 -21q14 30 25 58t11 62q0 2 -1 8t-1 10q-24 -18 -30 -43t-6 -53zM362 1760q2 0 8 -1t8 -1q50 0 101 14t102 30t101 30t100 14t88 -11t88 -11 q18 0 39 -4t21 16q0 2 -1 5t-1 5q-34 10 -49 14t-43 4q-148 0 -285 -30t-277 -74zM415 343q-9 -77 45 -187q18 -28 59 -29t96 18t119 51t127 73t120 84t101 81q-60 50 -145 79t-171 34t-165 -14t-128 -66t-58 -124zM648 1466q0 -8 6 -8q8 0 8 8t-8 8q-6 0 -6 -8zM792 1500 h18q2 0 19 10t39 23t45 28t35 25l14 14l21 21t20 21t13 14h-8q-28 0 -59 -17t-60 -41t-54 -51t-43 -47zM878 1708q22 10 22 34h-22v-34zM930 1398l276 -122h18q-18 20 -43 43t-53 42t-57 34t-55 19q-6 2 -18 0t-26 -5t-26 -6t-16 -5zM1064 1738q48 0 87 20t39 78 q0 14 -14 26t-33 20t-38 12t-27 4h-10q4 -6 17 -26t17 -26q0 -2 15 -1t15 -3q0 -16 1 -29t-3 -26t-19 -25t-47 -24zM1172 1414q22 -28 44 -32t50 -4q6 0 23 1t21 1q-32 14 -60 25t-60 11q-4 0 -10 -1t-8 -1zM1208 534l72 136v18q-14 -4 -27 -22t-23 -40t-16 -45t-6 -39v-8z M1232 1251q0 -11 8 -9q10 2 10 8t-10 10q-8 2 -8 -9zM1279 881q1 -53 1 -63v-10q14 0 19 49t6 110t-1 115t-2 64q-12 0 -16 -47t-6 -106t-1 -112zM1314 584q8 -4 15 3t3 15t-14 -3t-4 -15zM1360 981q0 -9 6 -9t6 9t-6 9t-6 -9zM1376 964q0 -8 8 -8q6 0 6 8t-6 8q-8 0 -8 -8z M1418 1171q0 -9 6 -9t6 9t-6 9t-6 -9zM1436 704q44 34 58 80t14 96q0 10 -1 28t-1 20l-18 18q-12 -24 -21 -53t-16 -61t-11 -62t-4 -56v-10zM1442 1154q2 -8 8 -8t8 8q4 8 -8 8t-8 -8zM1451 986q-3 -24 11 -24q2 0 5 1t5 1q-6 8 0 36t13 59t10 55t-11 24q-2 0 -2 -1t-2 -1 h-4q6 -8 0 -36t-14 -59t-11 -55z" />
<glyph unicode="4" horiz-adv-x="1158" d="M30 1904l374 52l-204 -846l508 138l-64 712l490 -4l-216 -1960l-124 -6l-76 1196l-656 -200zM150 1490q0 -30 2 -54t6 -16t6 28t2 42t-2 41t-6 27t-6 -15t-2 -53zM152 1645q0 -9 6 -9t6 9t-6 9t-6 -9zM234 1862q0 -20 14 -48t14 -48q0 -28 -12 -51t-12 -57q26 0 39 27 t20 62t8 69t3 46h-74zM244 1542l18 52h-18v-52zM738 1748q0 -8 2 -34t2 -34q2 -14 4 -35t5 -40t6 -33l3 -14h22q0 8 -1 25t-2 37t-2 37t-1 23q0 16 -6 42t-10 26h-22zM786 1344q0 -26 2 -47t6 -13q4 6 6 23t2 37t-2 37t-6 23t-6 -14t-2 -46zM842 138q0 -2 1 -8t1 -10l16 52 q-14 -4 -16 -14t-2 -20zM852 77q0 -11 8 -9q8 4 8 10t-8 8t-8 -9zM864 1628l16 156h-16v-156zM886 474q0 -12 2 -21t6 -5q10 6 10 26t-10 26q-4 2 -6 -6t-2 -20zM912 552q4 22 10 69t12 106t12 124t11 123t8 104t3 68q0 4 -1 17t-1 17l-16 -18q-2 0 -4 -18t-5 -43t-6 -51 t-3 -42v-52q0 -2 -1 -32t-4 -74t-5 -96t-5 -96t-4 -74t-1 -32zM932 1800q26 -22 44 -20t30 -1t19 -21t11 -78h16q2 0 6 17t7 41t5 47t2 35q-34 0 -74 -7t-66 -13zM962 1266h22v52q-16 -6 -19 -23t-3 -29zM994 1490q0 -8 8 -8q6 0 6 8t-6 8q-8 0 -8 -8zM1016 1594q0 -4 1 -10 t1 -8q16 4 18 14t2 20q0 4 -1 10t-1 8q-16 -4 -18 -14t-2 -20z" />
<glyph unicode="5" horiz-adv-x="1398" d="M24 1954l904 30q94 -8 150 -39t82 -73t26 -89t-17 -87t-47 -67t-65 -28t-68 29t-59 104l42 28q6 -52 32 -72t55 -15t52 32t23 71q-12 76 -61 109t-142 40t-237 -6t-344 -31q0 -82 7 -176t15 -192t14 -199t4 -199q66 34 162 65t201 47t209 11t189 -45t138 -120t57 -212 q-8 -96 -71 -207t-161 -217t-219 -201t-243 -160t-236 -92t-196 3q-110 52 -145 135t-12 172t92 167t165 121t207 34t219 -95q-46 14 -107 13t-125 -19t-125 -53t-104 -88t-63 -123t-2 -160q36 -40 101 -36t144 39t164 97t158 140t128 168t75 180q10 134 -21 213t-90 116 t-140 38t-168 -20t-174 -57t-160 -75t-124 -73t-67 -50zM138 1158q0 -4 1 -21t1 -21q28 22 45 57t17 75q-34 0 -49 -28t-15 -62zM140 928l20 -20q22 18 29 46t7 58q0 4 -1 20t-1 22q-12 -22 -15 -35l-6 -26t-9 -27t-24 -38zM140 1388q8 12 17 63t18 112t16 116t13 71h-18 q-4 0 -12 -38t-16 -84t-13 -87t-5 -49v-104zM200 384q8 4 25 15t37 25t37 26t23 16q4 2 10 10t8 12l-32 -16t-40 -23t-38 -30t-30 -35zM314 1514q0 -20 3 -32t15 -30v126q-12 -20 -15 -33t-3 -31zM316 1032q6 32 10 57t6 49t2 49v55q0 10 -1 42t-1 42l-16 -42v-252zM368 509 q0 -11 6 -11q8 0 8 11t-8 11q-6 0 -6 -11zM610 1116q4 -10 11 -10t9 10t-10 10t-10 -10zM890 448q2 -10 8 -10t10 10q2 10 -9 10t-9 -10zM960 1116q10 -26 34 -26v26h-34zM970 511q0 -9 6 -9q8 0 8 9t-8 9q-6 0 -6 -9zM988 1054q0 -10 6 -10t6 10t-6 10t-6 -10zM1028 678 q18 10 18 32v10zM1070 1075q2 -15 7 -35t11 -35t12 -15q4 2 1 17t-8 33t-11 34t-10 16t-2 -15zM1117 711q-1 -31 3 -33l30 208h-20q0 -6 -3 -38t-6 -69t-4 -68zM1162 1075q0 -11 6 -11t6 11t-6 11t-6 -11zM1202 634q2 0 10 22t14 47t10 47t2 22q-4 0 -11 -22t-14 -47 t-11 -47t0 -22zM1238 972q0 -4 7 -17t15 -30t14 -35t4 -30q0 8 1 31t-1 50t-7 53t-17 38q-10 -8 -13 -29t-3 -31z" />
<glyph unicode="6" horiz-adv-x="1312" d="M38 566q2 152 31 356t79 465t114 587l438 -64q-36 -84 -93 -222t-116 -301t-112 -341t-86 -344t-36 -307t41 -233q4 70 34 167t81 198t120 198t150 169t172 108t187 18q124 -52 184 -129t69 -167t-27 -186t-104 -186t-162 -166t-201 -124t-222 -64t-225 16 q-116 40 -186 111t-101 180t-29 261zM130 294q0 -34 12 -69t40 -53v10q0 34 -16 75t-36 71v-34zM164 542q0 -40 1 -74t17 -72l24 272l62 160q-28 -20 -43 -58t-24 -80t-16 -83t-21 -65zM194 155q0 -9 6 -9t6 9t-6 9t-6 -9zM252 120l16 -16v16h-16zM252 896q12 8 24 18t12 26 l-2 4v4q-14 -8 -22 -23t-12 -29zM280 1224q0 -8 6 -8t6 8t-6 8t-6 -8zM296 991q0 -11 8 -9q8 4 8 10t-8 8t-8 -9zM320 86q0 -10 9 -14t20 -5t21 0l10 1h44q-22 10 -45 24t-41 28q-4 -2 -11 -15t-7 -19zM372 1684h10q22 0 42 15t20 37q0 2 -1 9t-1 9q-26 -4 -43 -26t-27 -44z M374 168q2 -26 18 -40t41 -20t57 -7t68 -1q72 10 142 66t127 134t95 167t46 166t-19 129t-99 58q-40 4 -93 -29t-107 -88t-106 -127t-91 -145t-62 -143t-17 -120zM390 1806l86 86h-4q-2 0 -4 2q-12 0 -25 -10t-23 -23t-19 -28t-11 -27zM546 1806q36 4 64 27t38 59 q-2 0 -12 1t-14 1q-38 0 -50 -27t-26 -61zM648 68h18q66 0 117 34t89 88q20 26 49 72t56 90t47 77t20 37v16q-30 -10 -57 -47t-51 -82t-45 -86t-37 -61q-46 -52 -97 -77t-109 -61zM752 844h8q30 14 56 34t57 35t72 18t99 -17q20 26 20 56q-36 0 -82 -8t-91 -23t-83 -39 t-56 -56zM872 138q26 8 62 31t69 55t55 66t22 64v8q-46 -34 -79 -84t-77 -88zM958 810h18v18zM1010 742l18 -104q8 6 17 18t16 26t12 26t7 16q-4 16 -19 18t-25 2q-4 0 -13 -1t-13 -1zM1090 397q0 -9 6 -9q8 0 8 9t-8 9q-6 0 -6 -9zM1112 860q18 0 37 6t19 28q0 12 -3 23 t-17 15q-16 -12 -26 -32t-10 -40zM1182 732q0 -16 11 -33t25 -27v90q-14 0 -25 -8t-11 -22z" />
<glyph unicode="7" horiz-adv-x="1426" d="M38 1560q-6 66 15 133t60 121t94 88t115 34q90 6 181 -25t173 -75t150 -88t114 -62q24 66 67 134t98 117t120 66t133 -21q42 -52 50 -104t-9 -100t-52 -89t-77 -70t-86 -43t-78 -8l-354 -1568l-376 6l530 1610q-152 74 -266 96t-190 5t-113 -63t-37 -108q0 -52 20 -80 t50 -40t67 -14t73 -2q-26 -20 -70 -31t-96 -12t-104 10t-96 34t-73 60t-33 89zM128 1528q0 -18 15 -36t33 -18q0 70 17 122t57 106q0 2 -8 2q-22 0 -42 -20t-36 -48t-26 -58t-10 -50zM234 1462q2 -10 8 -10t8 10q4 8 -8 8t-8 -8zM354 1738q8 -4 15 2t3 14t-15 -2t-3 -14z M650 344q58 52 102 122h-8q-22 0 -38 -13t-27 -32t-18 -40t-11 -37zM650 568q20 10 27 35t7 43v10q-12 -20 -20 -43t-14 -45zM680 104h38v38q-16 0 -27 -11t-11 -27zM702 294q2 -2 4 -2h4q22 0 42 15t20 37v10t-2 8zM736 862q10 6 23 35t26 69t26 86t23 86t16 70t6 38l-2 4 v4q-12 -20 -30 -75t-35 -118t-32 -120t-21 -79zM752 638l36 34q-2 0 -5 1t-5 1q-26 0 -26 -28v-8zM786 768q0 -2 1 -5t1 -5q50 10 77 48t27 90q0 4 -1 10t-1 8q-12 -10 -30 -27t-35 -37t-28 -41t-11 -41zM906 1340q18 10 18 26l-2 4v4zM950 1479q0 -9 8 -9q6 0 6 9t-6 9 q-8 0 -8 -9zM990 1560q18 0 31 13t23 27q-12 18 -28 18t-21 -22t-5 -36zM1044 1686q2 -2 4 -2h4q16 0 30 14t14 30v10zM1138 1646q10 -12 34 -6t52 27t56 51t45 63t18 67t-23 62q-34 0 -67 -28t-59 -69t-41 -86t-15 -81z" />
<glyph unicode="8" horiz-adv-x="1140" d="M74 360q-4 110 31 226t105 228t166 198q-132 54 -203 145t-92 195t4 211t85 195t149 147t199 65q138 -6 229 -46t142 -104t64 -145t-4 -169t-61 -176t-108 -164q120 -80 199 -191t111 -232t17 -243t-82 -225t-189 -176t-302 -97q-158 -10 -258 36t-149 129t-53 193z M142 426q-2 -66 29 -128t77 -107t99 -66t95 -3l-2 4q-2 2 -2 4q-230 76 -284 342q0 -4 -6 -23t-6 -23zM174 1435q-4 -29 4 -69l24 34l52 248q-28 -32 -42 -65t-24 -79q-10 -40 -14 -69zM177 519q-1 -13 5 -11q4 4 4 22t-2 36t-2 32t4 8t1 -23l-6 -34t-4 -30zM182 1339 q-2 -11 6 -9q10 -2 10 5t-6 11q-8 4 -10 -7zM196 454q-10 -46 18 -78q0 2 2 4q0 2 1 2t1 2v4v4q0 6 -2 17t-5 24t-6 24t-5 17q0 -2 -1 -10t-3 -10zM222 356q-2 -6 4 -10q6 0 8 7t-4 7q-6 2 -8 -4zM261 582q-7 -80 8 -152t52 -126t99 -75t149 -1t201 100q60 56 78 117t5 123 t-52 120t-92 108t-114 89t-117 61q-64 -24 -110 -81t-73 -130t-34 -153zM264 1298q-6 -26 12 -52t28 -38q2 2 2 4t2 4q4 24 -8 50t-36 32zM314 1772q6 0 19 2t28 6t29 10t22 16q-28 2 -53 -6t-45 -28zM324 1556l2 -74l14 72zM358 1644q12 10 20 18t10 20v6t2 6 q-16 -2 -20 -11t-8 -21v-9t-4 -9zM402 1242q16 2 27 15t17 31t10 38t8 36q4 26 -2 40t-36 38q-2 -4 -6 -20t-4 -22q-4 -22 -7 -39t-5 -34t-2 -37v-46zM424 1679q10 -63 42 -132t72 -131t82 -108t72 -60q54 48 81 116t29 140t-18 141t-58 121t-93 79t-121 15q-60 -20 -79 -69 t-9 -112zM452 1148q28 -4 37 13t13 39q2 4 4 17t2 17q-22 -6 -36 -34t-20 -52zM502 168q4 -2 12 -4t12 -2q50 -10 101 16t85 56zM587 1217q-1 -9 7 -9q6 -4 7 5t-5 13q-8 0 -9 -9zM591 1143q-1 -7 5 -11q8 0 9 8t-7 8q-6 2 -7 -5zM596 1048q16 8 43 23t31 41q-24 4 -46 -8 t-26 -38q0 -2 -2 -9t0 -9zM688 970q0 -2 4 -11t8 -13q4 -2 13 -9t19 -15t19 -15t11 -9l4 6q2 8 -1 23t-10 31t-16 28t-21 16q-10 4 -18 -6t-12 -26zM765 1757q-1 -9 5 -9q6 -2 7 7t-5 11q-6 0 -7 -9zM782 1734q22 -64 35 -134t19 -138q14 26 23 43t13 41q4 20 2 50t-12 59 t-27 51t-41 28h-12zM866 911q-2 -9 4 -11q8 0 10 9t-6 9q-6 2 -8 -7zM880 889q-2 -9 4 -13q6 0 8 9t-4 9q-6 4 -8 -5zM888 380q4 4 19 7t19 3t10 -9t2 -15q12 14 26 36t26 46t21 43t13 27q-32 -12 -51 -23t-31 -26t-19 -38t-13 -55zM893 867q-1 -9 5 -11t7 7t-5 11t-7 -7z M906 845q-2 -9 4 -9q8 -4 10 5t-6 11q-6 2 -8 -7zM920 823q-2 -9 4 -9q6 -2 8 6t-4 8q-6 4 -8 -5zM940 800q2 -4 7 -18t12 -30t15 -32t14 -26q0 2 3 9t3 9q4 26 -8 54t-38 34h-8zM1008 654q-2 -8 4 -12q10 0 12 8t-8 8q-6 4 -8 -4zM1020 622q-4 -12 6 -12q8 2 9 8t-7 8 q-4 8 -8 -4z" />
<glyph unicode="9" horiz-adv-x="1254" d="M46 1232q0 118 46 231t125 207t182 164t216 101t229 16t220 -89l22 98l134 -36l-366 -1914l-470 12l352 994q-42 -14 -110 -33t-145 -31t-154 -10t-140 31t-102 91t-39 168zM108 1138q0 -8 6 -8q8 0 8 8t-8 8q-6 0 -6 -8zM124 1112q0 -12 8 -8q8 2 8 8t-8 8q-8 4 -8 -8z M150 1068h16l-16 18v-18zM178 1052q0 -8 6 -8t6 8t-6 8t-6 -8zM192 1147q0 -11 10 -9q8 2 8 8t-8 10q-10 2 -10 -9zM228 1327q0 -15 2 -26t6 -7q8 8 8 34t-8 34q-4 4 -6 -8t-2 -27zM234 1508q22 0 30 26t8 44l-2 4v4q-18 -12 -27 -34t-9 -44zM284 1138q0 -64 40 -84t92 -20 h26q-2 4 -8 10l-8 8q-14 10 -34 25t-40 28t-34 23l-14 10h-20zM338 1250q0 -18 2 -31t16 -29q0 4 1 13t1 13q0 18 -2 31t-16 29q0 -4 -1 -13t-1 -13zM352 1534h22l34 104q-24 -16 -40 -46t-16 -58zM408 1706l18 -34q8 12 13 22t5 22l-2 4v4zM422 1344q12 -118 54 -180 t146 -62q66 0 122 44t97 107t64 135t23 126q0 44 -15 102t-43 109t-71 86t-97 35q-78 0 -132 -49t-88 -124t-49 -163t-11 -166zM506 142q44 16 77 46t33 96q0 2 -1 5t-1 5q-42 -34 -63 -76t-45 -76zM562 418q0 -2 2 -4q32 18 51 60t19 78v8t-2 8q-18 -8 -31 -26t-22 -39 t-13 -43t-4 -38v-4zM632 380q18 8 18 26v8q-18 -10 -18 -26v-8zM642 155q0 -9 8 -9q6 0 6 9t-6 9q-8 0 -8 -9zM702 672q0 2 6 9t13 15t16 12t15 -2q12 28 33 72t21 84q0 2 -1 8t-1 10l-102 -190v-18zM718 156h18l3 12q3 12 5 28t5 33t3 29q0 2 1 8t1 10q0 2 -1 8t-1 10 q-14 -34 -21 -70t-13 -68zM728 474q0 -12 8 -8q8 2 8 8t-8 8q-8 4 -8 -8zM744 526q0 -12 8 -8q10 2 10 8t-10 8q-8 4 -8 -8zM798 1000q0 -8 6 -8q8 0 8 8t-8 8q-6 0 -6 -8zM804 482l18 18l7 22t15 52t16 62t14 54v16q-32 -44 -51 -105t-19 -109v-10zM816 914q0 -8 6 -8t6 8 t-6 8t-6 -8zM822 156h18l-18 102v-102zM822 1034q18 16 38 40t30 46q16 34 39 89t45 107t38 91t16 41v18q-10 -6 -27 -33t-37 -68t-41 -89t-41 -94t-36 -86t-24 -62zM840 1914q38 -30 65 -60t46 -63t34 -71t27 -82q2 4 9 17t7 17v8q0 38 -9 79t-28 76t-51 57t-76 22h-24z M916 879q0 -7 3 -13t7 -4q8 4 8 17t-8 17q-4 2 -7 -4t-3 -13zM934 939q0 -11 8 -7q8 2 8 8t-8 8t-8 -9zM952 991q0 -11 8 -9q8 4 8 10t-8 8t-8 -9zM970 1035q0 -9 8 -9q6 0 6 9t-6 9q-8 0 -8 -9zM1010 1130q0 -4 1 -14t1 -12q10 22 14 35t4 33q0 4 -1 10t-1 8 q-14 -16 -16 -29t-2 -31zM1074 1603q0 -9 6 -9q8 0 8 9t-8 9q-6 0 -6 -9zM1074 1793q0 -9 6 -9q8 0 8 9t-8 9q-6 0 -6 -9zM1096 1656q0 -4 1 -10t1 -8l34 34l52 172q-22 -10 -38 -32t-27 -49t-17 -56t-6 -51z" />
<glyph unicode=":" horiz-adv-x="446" d="M73 261q-1 37 18 74t50 65t70 42t79 4q58 -18 82 -50t23 -68t-23 -71t-54 -62t-71 -41t-73 -6q-54 16 -77 46t-24 67zM89 731q-1 37 18 74t50 65t70 42t79 4q58 -18 82 -50t23 -68t-23 -71t-54 -62t-71 -41t-73 -6q-54 16 -77 46t-24 67zM154 710l40 52l-24 44zM194 214 l78 32l76 106zM290 866l8 -68q2 -16 6 -30q4 -12 5 -25t3 -23l20 70z" />
<glyph unicode=";" horiz-adv-x="446" d="M55 508q-1 40 16 81t47 72t69 48t79 7q62 -20 90 -56t29 -77t-20 -81t-54 -69t-73 -44t-80 -3q-54 16 -78 49t-25 73zM80 76q-2 38 12 73t37 61t54 39t65 11q70 -6 107 -48t47 -98t-7 -117t-56 -108t-98 -71t-135 -4q16 10 49 22t65 30t52 42t12 60q-24 -18 -59 -21 t-66 9t-54 42t-25 78zM178 452l78 32l76 106zM186 84l6 -12q4 -10 8 -30l52 8l-42 76zM300 72q0 6 8 22t14 32t6 27t-14 7q-4 0 -6 -16t-4 -33t-3 -30t-1 -9z" />
<glyph unicode="&#x3c;" horiz-adv-x="1208" d="M80 712l988 674l58 -374l-690 -274l712 -240l-18 -366zM252 694q54 -22 115 -37t119 -15h26q-34 30 -86 52t-88 34q-22 -4 -44 -13t-42 -21zM700 1004h18q4 0 25 11t50 27t63 35t64 37l-202 -92zM804 970h18l250 74l-14 80q-58 -34 -84 -50t-45 -29t-44 -28t-81 -47z M936 453q0 -9 6 -9t6 9t-6 9t-6 -9zM952 436q0 -8 8 -8q6 0 6 8t-6 8q-8 0 -8 -8zM958 326q2 -8 8 -8t10 8q2 8 -9 8t-9 -8zM958 430q2 -8 8 -8t10 8q2 8 -9 8t-9 -8zM992 308q14 -20 36 -20v38zM994 418q2 -8 8 -8t10 8q2 8 -9 8t-9 -8zM1004 315q0 -9 8 -9q6 0 6 9t-6 9 q-8 0 -8 -9zM1010 412l34 -52v52h-34z" />
<glyph unicode="=" horiz-adv-x="962" d="M76 784l804 -106l10 -174l-802 -34zM84 924l4 166l812 22l-2 -322zM122 954h14q8 2 31 4t47 3t46 2t32 3q-40 16 -85 20t-85 4v-36zM158 1048q0 -8 4 -8t4 8t-4 8t-4 -8zM178 538h122q-24 12 -42 14t-44 2h-36v-16zM186 1048q68 -4 101 -11t57 -14t55 -13t97 -6q8 0 22 1 t27 1t23 1l10 1l26 40h-418zM190 636h122q-16 8 -30 25t-18 41h-74v-66zM326 967q0 -9 4 -9t4 9t-4 9t-4 -9zM332 636q0 -8 4 -8t4 8t-4 8t-4 -8zM380 684l26 -40q2 0 33 -2t49 -2q66 0 95 -1t50 -3t51 -2t98 4zM642 1000q0 -8 4 -8q6 0 6 8t-6 8q-4 0 -4 -8zM650 603 q0 -9 4 -9t4 9t-4 9t-4 -9zM672 1000h122v66h-74q-4 -24 -19 -41t-29 -25zM684 902h120v16h-34q-26 0 -44 -2t-42 -14zM690 602q8 -2 29 -10t43 -18t42 -19t30 -11h12l2 36q-22 0 -41 6t-39 12t-39 9t-39 -5zM802 638q0 -8 6 -8q4 0 4 8t-4 8q-6 0 -6 -8z" />
<glyph unicode="&#x3e;" horiz-adv-x="1208" d="M80 498l712 240l-690 274l58 374l988 -674l-1050 -580zM156 1044l250 -74h18q-58 32 -82 47t-43 28t-45 29t-84 50zM184 360l34 52h-34v-52zM200 288q22 0 36 20l-36 18v-38zM210 315q0 -9 6 -9q8 0 8 9t-8 9q-6 0 -6 -9zM216 418q4 -8 10 -8t8 8t-9 8t-9 -8zM252 326 q4 -8 10 -8t8 8t-9 8t-9 -8zM252 430q4 -8 10 -8t8 8t-9 8t-9 -8zM262 436q0 -8 6 -8q8 0 8 8t-8 8q-6 0 -6 -8zM280 453q0 -9 6 -9t6 9t-6 9t-6 -9zM308 1114q30 -18 64 -37t63 -35t50 -27t25 -11h18l-18 18zM716 642h26q58 0 119 15t115 37q-20 12 -42 21t-44 13 q-36 -12 -88 -34t-86 -52z" />
<glyph unicode="?" horiz-adv-x="1368" d="M98 1416q-22 162 19 270t125 172t199 86t237 10t241 -54t212 -107t149 -148t52 -177q-6 -116 -43 -203t-96 -152t-134 -111t-156 -79t-164 -58t-157 -45l-210 -396h-130l-80 638q76 -18 170 -3t190 52t186 95t159 127t107 145t30 154q-4 48 -44 92t-103 76t-141 51 t-157 18t-153 -24t-126 -75t-77 -136t-7 -206zM140 139q-2 39 14 78t47 67t72 40t89 0q80 -42 96 -104t-9 -116t-83 -85t-126 -9q-52 20 -75 55t-25 74zM204 182q50 46 88 52t63 -3t36 -20t5 -1q0 22 -13 40t-39 18q-46 0 -84 -23t-56 -63zM268 950l18 16h-18v-16zM278 880 q0 -8 8 -8q6 0 6 8t-6 8q-8 0 -8 -8zM286 656l34 120h-34v-120zM302 846h88q-10 4 -36 10t-34 6h-8h-10v-16zM348 570q0 -8 6 -8q8 0 8 8t-8 8q-6 0 -6 -8zM366 621q0 -9 6 -9t6 9t-6 9t-6 -9zM388 674q0 -4 1 -10t1 -8l7 21t11 31t10 31t6 21v8v8q-14 -22 -25 -49t-11 -53z M440 1000q6 -4 21 -6t31 -2t31 2t21 6t-11 6t-40 2t-41 -2t-12 -6zM486 759q0 -9 6 -9q8 0 8 9t-8 9q-6 0 -6 -9zM504 794q0 -8 6 -8t6 8t-6 8t-6 -8zM700 1122h34v16zM744 949q0 -9 8 -9q6 0 6 9t-6 9q-8 0 -8 -9zM778 967q0 -9 8 -9q6 0 6 9t-6 9q-8 0 -8 -9zM814 1144 q40 0 60 33t32 65q-46 -18 -69 -33t-23 -65zM820 984q2 -8 8 -8t10 8q2 8 -9 8t-9 -8zM924 1104h8q12 0 21 4t23 14h-10q-12 0 -21 -4t-21 -14zM954 1221q0 -5 16 -5v-8q0 -12 1 -13t3 2t3 7t-1 4q4 14 -3 17t-13 2t-6 -6zM970 1286q2 -8 8 -8t8 8q4 8 -8 8t-8 -8z M1020 1364q0 -16 12 -22t26 -6q26 0 30 25t4 47q0 16 -3 25t-17 25q-22 -14 -37 -43t-15 -51zM1072 1700q2 -8 8 -35t10 -35q4 6 10 26t8 26v10q0 22 -36 24v-8v-8zM1142 1200q48 52 85 114t37 134q0 52 -14 101t-56 81q-14 -28 -13 -55t6 -54t10 -58t3 -69q0 -6 -9 -32 t-19 -57t-19 -57t-11 -32v-8v-8z" />
<glyph unicode="@" horiz-adv-x="2110" d="M116 756q-12 246 53 422t178 297t260 192t299 105t295 39t249 -7q170 -22 295 -94t203 -180t107 -245t11 -289q-34 -146 -113 -260t-179 -185t-207 -96t-199 7t-155 126t-73 260q-18 -60 -66 -107t-111 -75t-132 -34t-127 15t-97 70t-41 131q-6 82 10 167t58 155t112 115 t170 45q58 0 116 -33t100 -69v8l-8 132l146 -34q-42 -212 -49 -356t12 -232t58 -126t88 -36t102 37t98 94t79 135t44 158q12 174 -38 310t-148 226t-237 132t-307 28q-170 -50 -290 -150t-194 -227t-101 -271t-11 -283t76 -262t160 -207t241 -119t319 1l-14 -68 q-102 -18 -216 -17t-225 25t-214 73t-185 126t-136 184t-66 247zM184 790q2 10 10 34t17 52t16 52t9 34v8v10q-38 -22 -45 -60t-7 -78v-52zM216 652q0 -2 1 -8t1 -10q2 -6 10 -23t16 -37t15 -37t11 -23v138h-54zM290 997q0 -11 8 -9q8 4 8 10t-8 8t-8 -9zM316 1058 q18 50 36 102t28 94t9 69t-21 27q4 -2 10 -15t6 -19q-4 -8 -15 -34t-23 -59t-21 -69t-9 -62v-34zM340 410q2 -6 13 -30t29 -24q2 0 5 1t5 1q-4 12 -16 33t-28 21q-2 0 -2 -1t-2 -1h-4zM655 871q9 -85 33 -177q-12 62 -14 142t6 157t28 142t54 99q-46 -30 -72 -83t-35 -124 t0 -156zM781 835q7 -51 29 -82t64 -25q64 8 112 51t78 101t37 123t-11 121t-66 93t-128 39q-28 -22 -52 -71t-40 -110t-23 -125t0 -115zM1209 1247q1 -17 3 -30t6 -7q8 14 6 36t-10 36q-4 8 -5 -5t0 -30zM1282 1742q12 -6 20 -13t15 -14t15 -11t22 -4v22l-50 66zM1424 1708 q54 -40 75 -63t37 -34t41 -14t85 -3h8q-36 36 -96 69t-150 45zM1510 536q26 6 58 16t61 25t48 38t23 57q-40 -44 -89 -79t-101 -57zM1694 1466q0 -8 6 -8t6 8t-6 8t-6 -8zM1726 1268q0 -12 8 -8q8 2 8 8t-8 8q-8 4 -8 -8zM1744 1216q0 -12 8 -8q8 2 8 8t-8 8q-8 4 -8 -8z M1768 1380l18 -18v18h-18zM1794 1337q0 -11 10 -9q8 2 8 8t-8 10q-10 2 -10 -9zM1804 1484q4 -16 18 -18t24 -2q4 0 13 1t13 1q-16 12 -26 15t-26 3h-16zM1856 880l16 -18l34 36h-8q-12 0 -21 -4t-21 -14zM1872 1398q2 -8 8 -28t10 -24q0 -2 8 -2q26 0 26 28q0 16 -11 21 t-23 5h-18zM1888 1044q0 -8 2 -8q12 2 24 7t12 17q0 2 -1 5t-1 5q-12 -4 -24 -9t-12 -17zM1924 984q2 -2 8 -3t10 -1q18 0 26 14t8 32v10zM1924 1260q2 -2 8 -2h10q28 0 43 22t15 48h-24z" />
<glyph unicode="A" horiz-adv-x="2830" d="M60 368q0 114 59 222t152 191t207 133t224 50q13 1 25 1q64 0 110 -26q55 -31 83 -79q29 -50 29 -111q0 -57 -27 -105q-28 -50 -86 -83q-55 -31 -136 -31h-10q-58 0 -86 25t-32 58q-1 7 -1 13q0 27 13 55q16 35 44 56q26 19 59 19h7q38 -2 78 -40q0 -14 -11 -26t-31 -12 q-28 24 -53 16t-37 -29t-3 -44t51 -27q64 0 105 26t60 64q18 36 18 76q0 44 -21 80q-20 34 -58 52q-23 11 -51 11q-19 0 -39 -5q-100 0 -202 -44t-185 -118t-136 -171t-53 -201q0 -84 22 -163t67 -140t112 -98t157 -37q98 8 193 87t180 215t159 323t135 412t104 481t67 532 h58q12 -40 31 -114t43 -167t52 -193t56 -191t54 -162t46 -105l706 484l88 -98l-754 -484q16 -58 71 -140t133 -170t169 -171t178 -143t162 -88q39 -15 69 -15q28 0 50 13q54 14 91 41t60 61t33 75t12 81q-6 78 -41 140t-85 103t-109 62q-50 18 -96 18q-9 0 -17 -1 q-54 -4 -97 -33t-61 -85q0 -26 22 -39t47 -12t47 14t22 39l54 -4v-11q0 -54 -36 -83q-40 -32 -90 -33h-3q-48 0 -92 29q-45 30 -49 92q12 78 61 127t118 67q39 10 81 10q33 0 67 -6q79 -14 149 -61t122 -127t66 -194q0 -112 -47 -210t-126 -173t-182 -118t-213 -43 q-96 18 -171 71t-134 129t-106 168t-87 189t-77 191t-77 176l-194 -130q-18 -72 -42 -167t-60 -196t-86 -201t-120 -181t-164 -138t-216 -71q-34 -7 -73 -7q-29 0 -60 4q-73 9 -145 37t-140 76t-119 116t-82 154q-29 81 -29 177v13zM604 -130q0 -8 6 -8h2q6 4 6 9t-6 7 q-8 2 -8 -8zM692 -138h48q30 0 66 14t69 37t55 54t22 65l-2 4v4q-14 -8 -48 -31t-73 -49t-73 -50t-48 -32q-10 -6 -16 -16zM994 202q0 -8 6 -8q4 0 4 8t-4 8q-6 0 -6 -8zM1032 218q6 -4 13 3t3 13q-4 8 -13 -2q-5 -6 -5 -10q0 -2 2 -4zM1094 448q0 -2 2 -4q16 10 28 30 t19 44t11 47t6 41h-14l-6 -17t-14 -40t-16 -48t-14 -41q-2 -2 -2 -4v-4v-4zM1128 266q2 0 8 -2t10 -2q14 0 25 14t18 34t12 39t9 31q-42 -18 -57 -46t-25 -68zM1224 596q0 -12 4 -25t22 -13t29 15t17 36t8 42t2 35v18q-50 -8 -66 -37t-16 -71zM1274 832q0 -2 8 -2 q36 0 55 44t27 101t8 112v75v19t-1 27t-1 27v17zM1356 1624q0 -28 1 -80t4 -121t9 -139l18 32v16t1 31t1 34v27v37t-1 49t-1 43v23q-2 16 -8 40t-10 24h-14v4v-20zM1436 946l116 88q0 2 -4 10t-15 36t-31 84t-52 152zM1758 694q0 -16 4 -36t12 -40t21 -36t29 -24h-16l64 32 l-114 114v-10zM1888 508l32 34l-16 16zM1930 525q0 -7 6 -7t6 7t-6 7t-6 -7zM1962 492q0 -8 6 -8q8 0 8 8t-8 8q-6 0 -6 -8zM1986 250h6q18 0 26 16h-8q-18 0 -24 -16zM2034 364q2 -2 4 -2h4h4q2 0 2 2q6 2 25 8t25 8l-50 48zM2048 154l18 -16l32 32h-4q-2 0 -4 2 q-10 0 -19 -5t-23 -13zM2146 56q0 -4 7 -10t11 -6q12 0 29 9t33 22t29 26t21 23q-6 -2 -23 -8t-35 -14t-33 -15t-21 -9q-4 -2 -10 -8t-8 -10zM2146 266h8q16 0 37 3t21 23q0 14 -16 24zM2164 1316q10 6 35 20t54 29t54 29t35 20q16 12 16 24l-2 4v4q-52 -22 -106 -52 t-86 -78zM2292 202l32 16h-4q-2 0 -4 2q-16 0 -24 -18zM2388 106l130 14l16 18q-4 16 -22 17t-28 1q-58 0 -96 -50z" />
<glyph unicode="B" horiz-adv-x="1298" d="M28 1836l520 146l14 -100q58 14 131 21q39 4 79 3q34 0 69 -2q75 -6 147 -28t129 -68t91 -119t36 -181q0 -90 -34 -173t-83 -150t-102 -116t-89 -71q71 14 123 14q37 0 64 -7q65 -17 95 -51t36 -72t8 -54q3 -24 3 -63q0 -42 -18 -100q-19 -61 -67 -135t-144 -153 t-248 -159t-380 -152l-10 -40l-136 -12zM134 1356q-1 -5 -1 -9q0 -16 14 -6q17 13 39 39t42 53t26 27l-98 -80zM162 1560q36 6 45 9t14 14t13 36t40 75q-18 -22 -37 -33t-36 -21t-28 -27t-11 -53zM208 880v-10q0 -13 4 -9q6 5 18 33t28 66t32 82t30 84l-96 -160 q-14 -62 -16 -86zM224 1294q22 4 57 45t68 92t56 100t23 67v16q-32 -16 -51 -57t-19 -71l-21 -30t-46 -66t-46 -66zM260 1594q14 8 50 45t74 83t68 89t30 61h-20zM276 400q6 -76 14 -80t16 36t15 111t12 145t6 138v39q0 35 -1 53l-44 -342zM408 146q62 14 144 39t168 64 t168 94t143 129t93 168q22 65 22 142q0 34 -4 70q-28 58 -71 76q-18 8 -43 8q-33 0 -78 -14q-78 -24 -202 -89t-316 -171zM448 784q174 84 291 164t192 152t114 133t57 110t21 85t5 54q2 19 2 37q0 86 -47 147q-57 74 -149 109q-83 31 -176 31h-22q-106 -4 -192 -46z M1078 1746q0 -2 16 -29t35 -57t35 -52t16 -14q6 12 -9 39t-36 54t-39 46q-14 14 -17 14q-1 0 -1 -1zM1138 952q14 2 24 -27t17 -65t11 -70t6 -42q6 0 8 13q1 9 1 19v10q-1 16 -3 30t-2 18q0 16 -3 36t-10 37t-17 29t-24 12h-8zM1190 1465q0 -9 8 -9q6 0 6 9t-6 9q-8 0 -8 -9 z" />
<glyph unicode="C" horiz-adv-x="1308" d="M54 797q24 169 87 323t157 289t201 241t220 179t212 104q65 20 121 20q29 0 56 -5q78 -16 118 -88l-66 -46q-43 49 -103 49q-10 0 -21 -1q-74 -10 -157 -72t-167 -167t-151 -235t-110 -277t-45 -293q-1 -21 -1 -41q0 -131 34 -221q39 -104 106 -158t154 -63q18 -2 37 -2 q69 0 140 27q90 34 177 107t153 181l92 -24q-22 -62 -77 -140t-131 -156t-169 -146t-191 -112t-197 -54q-20 -2 -39 -2q-77 0 -148 32q-88 40 -161 138t-121 270q-20 102 -20 202q0 71 10 141zM148 609q0 -13 8 -13t8 7t-8 11q-8 8 -8 -5zM174 652l112 288v18 q-12 -20 -30 -53t-36 -73t-32 -82t-14 -80v-18zM196 384l16 -28q20 8 29 33t9 47v10q-6 -2 -16 -11t-19 -20t-15 -20q-4 -7 -4 -10v-1zM206 502q18 8 38 38t37 66t29 71t12 55v12q0 8 2 22t5 29t5 29t2 22q-4 -6 -11 -19t-9 -17q-6 -16 -22 -60t-34 -93t-33 -93t-21 -62z M276 190q0 -2 1 -9t1 -9q14 6 25 22t13 36q-2 0 -2 2v4v4q-20 -8 -29 -18t-9 -32zM302 356q0 -4 1 -11t1 -11l142 140l-18 42q-14 -18 -32 -39t-36 -43t-34 -43t-24 -35zM306 994q2 -2 8 -4t8 -4q16 -4 26 10t16 35t9 42t3 31v10zM406 208l176 130q-6 12 -16 10t-20 2 q-4 0 -24 -19t-44 -43t-45 -48t-27 -32zM436 98q2 0 5 -2t5 -2q3 -1 7 -1q11 0 20 10q13 13 24 31t19 35t10 23q-24 -16 -48 -42t-42 -52zM610 130q104 36 198 87t176 129q-36 -12 -72 -38t-74 -53t-76 -46q-31 -16 -63 -16l-13 1q-6 -8 -16 -13t-22 -9t-22 -9t-14 -13v-10 q0 -2 -1 -5t-1 -5z" />
<glyph unicode="D" horiz-adv-x="1672" d="M14 1848q150 50 317 81t333 33h21q155 0 301 -28q156 -30 283 -102t218 -192t125 -294v-35q0 -215 -45 -387q-49 -186 -142 -330t-224 -249t-289 -180t-339 -122t-373 -73l-26 70l128 42q-2 26 -7 109t-11 201t-14 261t-17 290t-19 289t-19 258t-19 196t-18 102l-146 -38 zM276 1706q4 4 23 19t41 34t41 36t23 23q2 4 -16 8t-20 8q26 18 46 32l44 32l-100 -60q-10 0 -20 -5t-18 -11q-8 -8 -18 -16zM280 1528l30 50l-30 30v-80zM346 862l32 -8l52 138q-22 -6 -38 -13t-27 -21t-16 -37q-4 -16 -4 -39q0 -10 1 -20zM366 190q22 10 36 49t22 90 t12 106t8 98t9 66t15 9q0 2 -10 -10t-20 -28q-14 -18 -30 -42l-40 -312q-2 -4 -2 -10v-16zM368 1524q4 2 16 7t16 5q6 8 25 28t41 41t41 40t29 27q6 22 9 36t1 40v18q-54 -50 -97 -111t-81 -131zM374 666q0 -4 1 -17t1 -21q4 2 8 8t6 10q2 6 10 23t16 36t15 36t9 23 q-16 -10 -28 -17t-21 -16t-14 -24q-4 -11 -4 -27q0 -7 1 -14zM378 1170l2 -34q8 -2 16 -2q29 0 40 32q12 35 12 79v13q0 4 -1 8t-1 8q-2 6 -2 12zM530 78q188 66 317 165t212 213t129 234t69 226t30 189t13 125q4 30 4 60q0 96 -45 181q-59 111 -158 193t-222 133t-237 61z M1104 322q3 -1 5 -1l15 8q10 11 10 23q0 6 -7 3t-13 -10t-10 -14q-2 -4 -2 -6t2 -3zM1200 1722q2 -30 14 -50t26 -48q28 -16 38 -10t8 24q0 14 -11 30t-26 29t-29 22t-20 13v-10zM1268 528q14 16 31 69t33 126t31 159t26 166t17 148q4 51 4 85v21q-2 4 -2 15t-2 13 q-6 -6 -15 -62t-20 -137t-22 -174t-22 -175t-20 -139t-13 -65q-2 -6 -14 -23t-12 -27zM1288 1594l40 -74q16 -4 33 5t17 35q-2 12 -17 24t-25 16q0 -12 -6 -11t-14 4t-16 5t-12 -4zM1358 1420l28 -8v26q-4 1 -8 1q-14 0 -20 -19zM1438 942q8 12 12 21t2 25v10 q-12 -4 -14 -13q-1 -4 -1 -10t1 -13v-20zM1480 998q3 0 3 6v3q-1 9 -5 11q-2 1 -4 1q-3 0 -3 -6q0 -13 9 -15z" />
<glyph unicode="E" d="M30 1932l1260 24l26 -242q-96 54 -195 78t-198 32q-79 6 -158 6h-40q-33 -1 -66 -1q-65 0 -129 3l-90 -816l492 28l-8 -126l-482 -26l-108 -742q43 -2 83 -2q107 0 198 12q125 16 225 46t175 69t131 78t95 74t65 57l-18 -430l-1212 -36zM114 1630q2 -4 2 -8q0 -8 2 -10 q0 -6 4 -14t4 -10q12 38 15 65t9 52t19 53t43 68h-84l-3 -22t-5 -54t-4 -65t-2 -55zM115 1214q3 -56 14 -110t17 -78q0 -6 5 -22t5 -20q8 12 8 48v15q-2 49 -5 108q-1 25 -1 50q0 33 2 64q4 55 26 79q-2 0 -4 2l-4 4q-40 0 -53 -42q-11 -34 -11 -77q0 -11 1 -21zM137 535 q3 -55 9 -105t13 -91t13 -59q2 -4 6 -15t6 -17q3 29 3 70v22q-1 56 -2 122t-2 137v47q0 46 1 90q-22 0 -33 -29t-14 -73q-2 -22 -2 -46.5t2 -52.5zM150 928q8 0 5 11t-9 11q-6 2 -6 -4q0 -13 10 -18zM240 1620q0 -2 2 -4q0 -2 2 -4q34 46 79 108t65 124l-108 2q6 -20 6 -38 q0 -14 -4 -26q-8 -28 -20 -53t-21 -51q-5 -14 -5 -29q0 -14 4 -29zM259 1482q1 -20 5 -34q2 -4 4 -16t4 -16l46 150h-6q-2 0 -6 2q-18 0 -28 -14t-15 -33q-4 -16 -4 -32v-7zM266 636l6 -20q2 14 10 54t17 84t16 84t9 56q4 10 5 34t1 34h-12q-20 0 -28 -24zM286 248 q10 8 14 14t0 18q0 4 -2 7t-2 5zM296 335q4 -11 10 -13q8 0 6 11t-10 11q-7 1 -7 -4q0 -2 1 -5zM318 1002q10 12 16 31t10 37q-16 -12 -20 -31t-6 -37zM318 1609q2 -11 10 -11q10 0 7 11t-13 11q-4 0 -4 -6v-5zM344 1112q4 -10 10 -10q10 0 6 10t-12 10q-5 0 -5 -4 q0 -3 1 -6zM354 1155q2 -11 10 -11q6 0 4 11t-10 11q-4 0 -4 -6v-5zM361 1198q3 -10 11 -10q10 0 8 10t-12 10q-8 0 -8 -6q0 -2 1 -4zM447 1672q3 -12 9 -12q10 0 7 12t-11 12q-6 0 -6 -6q0 -3 1 -6zM748 120q4 0 24 -1t24 -1q15 -1 30 -1q83 0 157 19q87 22 181 46 q10 10 16 28t8 36q-28 -28 -81 -48t-114 -33t-118 -19t-91 -8q-8 0 -21 -7t-15 -11z" />
<glyph unicode="F" horiz-adv-x="1330" d="M32 1964l1078 -2h9q58 0 101 -23q46 -25 71 -65t29 -88q1 -8 1 -16q0 -39 -17 -74q-20 -42 -65 -72t-117 -34q-58 0 -86 25t-32 58q-1 7 -1 13q0 27 13 55q16 35 44 56q26 19 59 19h7q38 -2 78 -40q0 -16 -11 -27t-23 -11h-8q-28 24 -53 16t-37 -29t-3 -44t51 -27 q78 14 108 53q23 30 23 61q0 9 -2 18q-9 40 -54 70q-42 28 -106 28h-9l-506 -12l-92 -582l432 16l6 -108l-456 -30l-172 -1172l-162 -32zM142 1694q22 34 38 76t16 82q-10 0 -32 -5t-22 -15v-138zM158 1350q0 -16 3 -26t15 -26q4 12 14 41t21 62t20 63t13 42v4q0 2 1 2t1 2 l-2 4v4q-40 -22 -63 -74t-23 -98zM188 516q0 -20 2 -36q0 50 6 120t15 148t18 158t17 150t13 125t5 83q0 8 -1 34t-1 34q-18 -30 -31 -90t-22 -136t-13 -160t-6 -162t-2 -142v-98v-28zM208 146h1q5 0 20 35q17 39 41 144t53 290t59 477v52q-20 -64 -37 -154t-32 -189 t-28 -200t-26 -191t-26 -159t-25 -105zM254 1687q0 -11 8 -9t8 8t-8 8q-8 4 -8 -7zM256 1557q0 -9 6 -9t6 9t-6 9t-6 -9zM344 1368h22l7 16t15 38t16 45t14 39v16q-34 -38 -54 -71t-20 -83zM366 1540q22 28 22 68h-22v-68zM400 1230q16 4 18 18t2 24q0 4 -1 13t-1 13 q-4 -6 -10 -26t-8 -26v-16zM412 1706q28 0 49 19t43 37z" />
<glyph unicode="G" horiz-adv-x="1482" d="M56 716q2 176 52 362t135 352t200 297t246 196q105 52 217 52q28 0 56 -3q142 -16 282 -142l-44 -34q-104 76 -193 89q-26 4 -50 4q-61 0 -115 -23q-76 -32 -138 -101t-111 -157t-84 -187t-57 -192t-31 -172q-6 -55 -6 -94q0 -17 1 -31q-2 -28 -2 -59q0 -67 9 -145 q13 -114 43 -222t77 -199t108 -136q48 -36 105 -36q15 0 31 3q75 12 162 111t183 296t202 519l-444 -36l-6 96l558 36q-20 -104 -51 -213t-70 -215t-82 -207t-85 -187q-98 -172 -216 -258t-238 -99q-24 -3 -48 -3q-95 0 -185 41q-113 51 -203 150t-146 240t-62 307zM138 594 q8 0 22 14t28 32t25 36t11 28l-58 -60q-16 0 -22 -17t-6 -33zM144 728q4 2 13 13t20 25t21 26t14 16q2 2 8 12t19 42t37 89t62 153q-4 -2 -9 -10t-7 -12q-52 -96 -101 -184t-77 -170zM186 1042l16 22l136 334q-18 -18 -44 -65t-50 -102t-41 -106t-17 -75v-8zM205 462 q1 -42 11 -82t16 -62q-2 30 -1 56t1 36q0 42 11 90t21 78q-36 -8 -48 -41q-11 -30 -11 -69v-6zM316 238q18 -30 20 -52t26 -40q-18 56 -24 129t-16 135q-4 -12 -3 -32t3 -45t1 -50t-7 -45zM344 1236q2 0 23 31t45 67t43 67t17 31q-4 0 -25 -31t-45 -67t-43 -67 q-16 -26 -16 -30q0 -1 1 -1zM364 640l30 -398v95t-3 107t-9 105t-18 91zM428 92q7 -2 12 -2q13 0 20 13q10 19 13 48t4 58t5 41z" />
<glyph unicode="H" horiz-adv-x="1426" d="M22 1952l624 12l-68 -1014l518 -2l6 1016l298 -6l-102 -1958l-196 -6v98t-2 150t-4 175t-2 175v152t2 102h-522l-18 -858h-194zM212 1522h24q2 14 6 26q6 22 10 44v8v8q-16 -16 -28 -38t-12 -48zM212 1808q4 -10 10 -43t8 -43l52 138h-10q-14 0 -37 -13t-23 -29v-10z M252 1300q0 -36 9 -70t9 -70h18q2 0 6 12t10 28t11 34t7 30q0 2 1 21t1 29q0 28 -2 53t-18 53q-26 -42 -39 -64t-13 -56zM264 1643q0 -9 6 -9t6 9t-6 9t-6 -9zM292 858q22 0 32 14t14 33t3 40t-1 35q0 6 -1 30t-1 30q-18 -14 -28 -38t-14 -51t-4 -53v-40zM320 636 q0 -22 3 -39t15 -41l18 18l-18 104q-16 -4 -17 -18t-1 -24zM374 1556q-2 -4 5 -17t11 -17q12 24 15 40t3 38v26q-6 -6 -19 -33t-15 -37zM382 1761q0 -7 2 -9q4 8 16 26t24 40t21 42t7 30v8v10q-34 -20 -52 -61t-18 -77v-9zM396 110q3 -1 6 -1q7 0 18 3q16 4 40 4q0 32 4 56 t7 47t5 45t0 52q-2 -8 -9 -25t-15 -37t-16 -37t-10 -23q-4 -4 -19 -17t-17 -17q-3 -22 -3 -33q0 -15 9 -17zM406 733q0 -29 2 -39q28 64 41 132t13 136q0 6 -1 23t-1 21q-36 -52 -45 -114t-9 -120v-39zM406 1212q0 -14 2 -18q10 32 23 68t13 70q0 4 -1 10t-1 8 q-22 -38 -29 -61t-7 -59v-18zM418 1661q0 -9 8 -9q6 0 6 9t-6 9q-8 0 -8 -9zM440 506h36v172q-2 -10 -7 -32t-11 -46t-10 -47t-6 -31q0 -2 -1 -8t-1 -8zM452 1385q0 -9 8 -9q6 0 6 9t-6 9q-8 0 -8 -9zM458 1144q0 -4 1 -10t1 -8l52 52q2 36 6 68q4 28 6 56t4 48v18v16 q-4 -12 -14 -44t-20 -68t-20 -68t-14 -44q-2 -2 -2 -6v-10zM460 1556q20 12 42 21t44 15q6 34 10 60t5 50t2 49t1 55v17t-1 23t-1 23v15l-86 -310v-18h-16zM470 1040q0 -8 6 -8q8 0 8 8t-8 8q-6 0 -6 -8zM1124 596q0 -18 2 -33t6 -11q4 6 6 18t2 26t-2 26t-6 16q-4 6 -6 -9 t-2 -33zM1140 750q0 -18 2 -33t6 -9q4 4 6 16t2 26t-2 26t-6 18q-4 4 -6 -11t-2 -33zM1158 311q0 -23 2 -40q1 -13 4 -13q1 0 2 2q4 6 6 20t2 31t-2 31t-6 20t-6 -11t-2 -40zM1158 854q0 -12 2 -21t6 -5q8 6 8 26t-8 26q-4 2 -6 -6t-2 -20zM1158 966q0 -8 2 -14t6 -4 q8 4 8 18t-8 18q-4 2 -6 -4t-2 -14zM1174 501q0 -15 3 -27q2 -9 5 -9q1 0 2 1q8 8 8 34t-8 36q-4 4 -7 -8t-3 -27zM1174 1113q0 -11 10 -9q8 2 8 8t-8 10q-10 2 -10 -9zM1176 1156q0 -8 8 -8q6 0 6 8t-6 8q-8 0 -8 -8zM1192 638q0 -8 2 -13q1 -4 4 -4q1 0 2 1q8 4 8 17 t-8 17q-4 2 -6 -4t-2 -14zM1210 776q0 -8 2 -13q1 -4 4 -4q1 0 2 1q8 4 8 17t-8 17q-4 2 -6 -4t-2 -14zM1226 923q0 -27 2 -47q2 -15 4 -15q1 0 2 1q4 6 6 24t2 37t-2 37t-6 24t-6 -14t-2 -47zM1244 1147q0 -33 2 -60q1 -20 4 -20q1 0 2 3q4 8 6 30t2 47t-2 47t-6 30t-6 -18 t-2 -59zM1270 1260q6 46 14 128t15 174t13 180t6 146h-38z" />
<glyph unicode="I" horiz-adv-x="1032" d="M62 1880l6 82l942 10q0 -4 3 -17t4 -26q0 -6 0.5 -12.5t-0.5 -12.5q-1 -12 -7 -14l-230 -12l-234 -1806l428 20l-2 -86l-896 -26l-8 74l310 18l-60 1812q10 2 -12 2q-20 0 -73 -1t-171 -5zM432 319q2 -31 2 -39v-112q14 70 24 148t10 154q-18 0 -26 -27t-10 -60 q-1 -16 -1 -32t1 -32zM434 700l16 42h-16v-42zM444 1072q0 -10 2 -41t4 -41q12 24 28 60t30 75t23 77t9 66l-2 4v4q-6 -4 -20 -19t-28 -35t-26 -39t-14 -29q-2 -4 -4 -35t-2 -47zM464 1360q4 2 9 10t7 12q4 10 15 36t23 56t22 56t14 36h-4q-2 0 -4 2q-18 0 -33 -16t-26 -38 t-17 -48t-6 -44v-62zM464 1690q2 6 10 34t18 60t20 58t16 26q2 0 8 -20t13 -46t12 -48t9 -24l-46 -80q6 6 21 39t33 71t33 70t21 38q6 8 13 11t12 6t8 9t3 20h-22t-33 -1t-33 -2t-22 -1l-25 -5l-30 -6t-25 -6t-10 -5zM474 805q0 -11 6 -11q4 0 4 11t-4 11q-6 0 -6 -11z M494 374q28 0 34 25t10 55q6 30 14 74t16 91l16 94t15 86t11 63t4 26v40q-16 -16 -28 -37t-16 -47l-76 -432v-38zM494 844q16 16 23 38t7 46v22l-6 -18t-9 -25t-9 -24t-6 -17v-10v-12zM518 309q0 -9 1 -16q1 -4 2 -4t3 1q6 4 6 20t-6 20q-4 2 -5 -5t-1 -16zM582 1484 q28 14 45 42t17 72v8q-22 -22 -37 -55t-25 -67zM640 1164q12 0 22 26t17 65t12 85t8 87t4 71t1 36q0 4 -1 16t-1 16q-8 -36 -19 -87t-20 -106t-16 -110t-7 -99z" />
<glyph unicode="J" horiz-adv-x="1280" d="M18 324v10q0 88 35 169q37 85 113 149t194 84q10 1 20 1q55 0 95 -20q47 -23 73 -61t31 -84q1 -11 1 -22q0 -34 -12 -65q-16 -41 -54 -71t-96 -38l-40 56q70 14 102 44t36 62q1 5 1 10q0 27 -19 53q-22 31 -59 49q-33 16 -78 16h-10q-51 -2 -105 -34q-52 -32 -87 -87 t-50 -119q-10 -44 -10 -88q0 -21 2 -42q7 -66 39 -123t89 -97t145 -50q138 22 227 107t141 208t71 275q16 131 16 266v43q-3 157 -24 306t-48 269t-57 199t-50 93l-334 -78l-16 78l1142 256l24 -84l-284 -70q14 -72 24 -194t11 -272v-20q0 -141 -13 -297q-14 -167 -51 -331 t-99 -312t-158 -261t-231 -179q-131 -64 -304 -64h-11q-106 2 -180 54t-112 132t-40 174zM698 122q2 -2 4 -2h4q16 0 38 10t43 27t36 37t15 40q0 4 -14 0t-14 0zM838 1699q-1 -5 -1 -8q0 -7 5 -7q22 0 38 16t16 38q-14 0 -18 12t-5 25t-4 20q-1 3 -4 3t-9 -6q8 -4 4 -22 t-11 -37t-11 -34zM875 1212q7 -6 15 -28q10 26 11 47t1 61q0 2 -1 8t-1 8q-20 -44 -27 -60q-6 -14 -6 -21q0 -8 8 -15zM886 1462q0 -6 2 -8q14 10 25 27t11 33q0 2 -1 5t-1 5q-22 -10 -29 -22t-7 -30v-10zM920 348l104 296l-102 -264q-2 -2 -2 -14v-18zM938 686l152 474 q-52 -32 -79 -99t-41 -140t-20 -139t-12 -96zM944 1616q8 6 20 18t23 25t19 26t8 25q0 2 -1 5t-1 5q-16 -18 -37 -47t-31 -57zM960 1322q30 66 54 102l44 66t35 69t27 113q0 2 1 11t1 11q-20 0 -30 -9l-30 -27q12 -16 15 -27t3 -27v-16l-120 -248v-18zM1046 1772 q4 -10 10 -10q8 0 8 12q0 6 -9 6q-11 0 -9 -8z" />
<glyph unicode="K" horiz-adv-x="1254" d="M36 1970h504l-128 -760l738 766l70 -52l-748 -808l752 -874l-232 -232l-620 1006l-128 -1014l-132 2zM146 1864l12 -150q0 -14 8 -18t12 -4q6 0 12 4t6 18l-12 150q0 4 -5 11t-9 7t-14 -7t-10 -11zM166 890q4 0 3 10t-5 10q-3 0 -3 -6q0 -14 5 -14zM162 1513q0 -29 1 -57 t3 -44l14 2q10 0 14 18t5 41t0 47t-1 36q0 4 -2 25t-6 25l-24 -20q-2 -2 -3 -23t-1 -50zM170 290q4 0 3 12t-5 12q-3 0 -3 -8q0 -16 5 -16zM166 409q0 -9 2 -16t6 -3q6 4 5 21t-9 21q-4 2 -4 -6v-17zM174 751q0 -17 2 -31q0 -4 1 -16t3 -16q6 18 8 31t0 31q0 4 -2 12t-2 10 q-10 -4 -10 -21zM174 1124q0 -4 1 -16t1 -16q16 22 20 54q2 16 2 32.5t-2 33.5q-20 -2 -22 -32q-1 -15 -1 -29t1 -27zM190 920q12 18 10 34v12zM255 1849v-11q0 -11 1 -23q2 -17 2 -27q0 -4 1 -15t1 -15q10 4 23 18t11 38q0 8 -2 22t-4 26t-7 20t-11 8q-8 0 -11 -12t-4 -29z M259 1074q1 -18 1 -32q0 -2 1 -6t1 -6q14 16 17 49t1 61q0 2 -1 10t-1 10q-10 -6 -14 -20t-5 -31v-17v-18zM264 1651q0 -11 4 -11t4 11t-4 11t-4 -11zM268 1450q0 -2 2 -6t2 -6q10 16 22 42t8 54v10q-10 -16 -23 -43q-11 -23 -11 -45v-6zM342 1886q4 -28 11 -35t17 -5 q16 0 25 12t25 12h4q6 -8 19 -23t11 -19l-78 -560l2 -18q32 150 53 286t37 292v24q-2 20 -11 29t-22 11q-9 1 -17 1h-8q-12 -1 -20 -1q-6 0 -24 -1t-24 -5zM368 1186q6 2 5 9t-7 11h-1q-4 0 -4 -8q0 -19 7 -12zM470 988q8 -22 20 -22l6 4q-10 24 -22 24q-2 -2 -2 -4t-2 -2z M614 790q8 2 7 13q-1 9 -7 9h-2q-3 0 -3 -7q0 -15 5 -15zM630 782q6 -10 16 -27t22 -33t25 -29t25 -17v11t-2 11q-2 40 -30 63t-50 23q-2 0 -2 -1t-2 -1h-2zM778 655q0 -11 6 -11q4 2 4 13q0 9 -3 9h-1q-6 0 -6 -11zM812 626q4 0 3 10t-5 10q-5 0 -5 -7q0 -13 7 -13z M826 614q6 -18 21 -31t29 -11h6q-10 16 -23 30t-29 14zM883 499q1 -15 5 -13q6 4 6 13t-8 11l-1 1q-2 0 -2 -7v-5zM926 414q11 -28 30 -28h2l-4 56q-20 -2 -28 -28z" />
<glyph unicode="L" horiz-adv-x="1322" d="M52 1958l652 12l-142 -1860l710 -6l-2 -86l-1122 -14l-6 88q6 2 28 3t48 1h48t28 2zM138 1762h36q2 -2 16 -10t18 -8q10 2 22 24t22 47t17 49t9 32q-16 -6 -35 -24t-38 -39t-36 -41t-31 -30zM196 1196l16 -104v120zM218 1422q78 78 126 153t100 159q8 14 13 22t5 22 q-2 2 -2 4v4q-30 -8 -70 -54t-75 -103t-60 -110t-25 -73q0 -2 -2 -5t-4 -7q-4 -6 -6 -12zM230 886q4 0 10 6t6 10q2 8 5 35t3 35h-24v-86zM246 644q10 12 15 21t5 23q-2 2 -2 4v4q-14 -4 -16 -14t-2 -20v-18zM256 610q0 -8 2 -14t6 -4q8 4 8 17t-8 17q-4 2 -6 -3t-2 -13z M278 1290q0 -4 1 -13t3 -13q14 8 29 36t28 61t22 64t13 45q-18 -10 -35 -33t-31 -50t-22 -53t-8 -44zM324 1083q0 -11 10 -9q8 4 8 10t-8 8q-10 2 -10 -9zM332 454q0 -2 1 -8t1 -8q26 14 39 50t13 62q-2 2 -2 4v4q-24 -16 -38 -46t-14 -58zM342 124q4 0 13 1t13 1 q6 28 10 49t5 41t2 39t1 45q0 4 -1 25t-1 25zM346 816q0 -4 2 -17t2 -17q4 8 14 31t21 47t21 46t14 32v8v8q-40 -38 -57 -66t-17 -72zM394 394q0 -12 8 -8q8 2 8 8t-8 8q-8 4 -8 -8zM396 592q0 -8 6 -8t6 8t-6 8t-6 -8zM402 712q30 16 41 49t11 63v10q-4 -6 -11 -21t-16 -31 t-16 -31t-9 -21v-8v-10zM402 1040l70 138h-18l-7 -14t-15 -33t-16 -39t-14 -34v-8v-10zM448 1437q0 -9 6 -9t6 9t-6 9t-6 -9zM452 212q0 -20 2 -36t18 -32l16 52l86 896v18q-10 -16 -21 -43t-13 -43l-86 -776q0 -4 -1 -18t-1 -18zM556 1373v-13q0 -30 7 -61q9 -37 29 -69 q8 68 13 123t5 119q0 4 -1 17t-1 17q-24 -26 -37 -61t-15 -72zM576 1636q2 -18 6 -18l10 -2q0 -22 3 -38t13 -38q12 58 12 129v121q0 6 -1 26t-1 26q-30 -94 -37 -141q-5 -37 -5 -56v-9z" />
<glyph unicode="M" horiz-adv-x="2824" d="M33 248q13 64 49 110q20 24 52 37q28 11 56 11h9q33 -2 63 -17t46 -45q13 -24 13 -58q0 -9 -1 -18q-4 -46 -38 -106l-50 30q19 48 19 79q0 12 -3 22q-10 35 -35 45t-55 -1t-46 -37q-20 -32 -24 -75q-1 -6 -1 -13q0 -36 20 -71q23 -41 76 -73t147 -40q106 22 189 114 t146 225t108 291t74 310t43 284t18 212q-6 88 -37 170t-75 145t-97 98q-48 31 -93 31h-10q-50 -4 -92 -55t-64 -163l-60 20q18 110 63 172t106 81q28 9 57 8q35 0 73 -12q69 -23 135 -82t121 -150t89 -209l298 -1030q96 330 201 577t215 425t220 294t218 184l88 -126 q-122 -154 -221 -334t-164 -363t-94 -359q-18 -109 -18 -205q0 -60 7 -115q18 -144 84 -247t192 -141q26 -6 52 -6q55 0 113 28q85 42 157 118t126 174t74 192q9 44 9 83q0 46 -12 86q-23 75 -103 105q-52 0 -91 -21t-61 -64q-23 -45 -24 -110q0 -61 28 -141q-64 56 -82 117 q-10 32 -10 63q0 28 8 55q16 57 58 106t97 80t117 40q19 3 37 3q42 0 80 -15q55 -21 98 -76t59 -155q0 -150 -51 -282t-138 -234t-203 -169t-246 -87q-23 -2 -45 -2q-73 0 -139 25q-86 33 -158 98t-126 155t-86 192t-41 211q-3 34 -3 67q0 74 14 144l-262 -724l-158 6 l-224 566q-34 -76 -65 -160t-65 -166t-75 -156t-97 -130t-131 -90t-177 -36q-116 6 -178 50t-84 105q-14 38 -14 78q0 23 5 47zM974 830v8q4 -8 11 -32t16 -51l17 -51t12 -30v312q-22 -10 -33 -28t-16 -40t-6 -45t-1 -43zM1150 588h10q26 0 26 26q0 12 -5 22t-13 22z M1236 296q8 24 22 51t14 53q0 16 -3 25t-15 25q-16 -26 -17 -50t-1 -52v-52zM1556 977q0 -11 8 -9t8 8t-8 10q-8 2 -8 -9zM1632 770v-23t2 -21q0 6 3 18t5 26t5 26t3 16v10v8q-19 -4 -19 -26zM1650 986q24 10 30 41t6 53v26l-7 -21t-11 -31t-11 -31l-7 -21v-8v-8zM1676 502 q0 -8 3 -13t7 -3q8 4 8 17t-8 17q-4 2 -7 -4t-3 -14zM1816 1347q0 -9 6 -9q8 0 8 9t-8 9q-6 0 -6 -9zM1832 1407q0 -11 8 -7q8 2 8 8t-8 8t-8 -9zM1856 1468q0 -2 1 -8t1 -10q4 8 14 31t20 47t20 46t14 32v4q0 2 1 2t1 2t-1 5t-1 5q-40 -20 -55 -69t-15 -87zM2530 307 q0 -9 6 -9t6 9t-6 9t-6 -9zM2554 342q12 8 21 23t13 29q-14 -10 -22 -24t-12 -28zM2570 894q52 -42 70 -93t18 -117q0 -32 -8 -63t-19 -61t-19 -61t-8 -63v-8q44 66 58 141t14 151v21t-1 31t-1 31v21q1 7 1 14q0 34 -18 46q-21 14 -53 14q-4 0 -17 -1t-17 -3z" />
<glyph unicode="N" horiz-adv-x="1834" d="M54 0l78 1938l186 8l898 -1474q-72 194 -130 380t-88 353q-26 147 -26 276v34q4 143 54 250t154 172t274 79q16 1 32 1q78 0 137 -25q71 -30 115 -84t62 -124q14 -52 14 -106q0 -18 -2 -35q-6 -71 -37 -136t-84 -110t-129 -62q-30 -7 -63 -7q-51 0 -109 16q-52 16 -74 58 q-18 34 -18 70q0 8 1 16q5 44 36 79t89 37q-32 -24 -49 -54t-18 -57t13 -49t44 -34q58 4 97 42t57 92q16 49 16 103v12q-2 61 -24 113t-65 87t-107 35q-142 -32 -218 -110t-103 -188q-17 -71 -17 -152q0 -45 5 -93q15 -135 54 -283t94 -302t109 -300q2 -6 15 -43t30 -87 t38 -108t38 -108t30 -86t15 -42l-98 -6l-1044 1782l256 -1772zM134 144q2 -24 6 -48q6 0 18 2t23 4t20 5t9 7l-20 138q-26 -10 -38 -26t-16 -37q-3 -14 -3 -29q0 -8 1 -16zM180 426q20 8 31 28t15 45t3 51t-3 46q0 2 -1 8t-1 8l-16 -16zM226 1344q0 -2 2 -8t2 -8 q14 30 25 71q8 30 8 56q0 10 -1 19l-2 4q-2 2 -2 4q-10 -28 -23 -65q-10 -28 -10 -56q0 -9 1 -17zM244 1772l8 -52q16 4 16 22t-2 30h-22zM252 880q8 0 7 9t-9 9q-5 0 -5 -7q0 -11 7 -11zM264 924q8 2 7 8t-9 8q-6 2 -6 -5q0 -17 8 -11zM264 992q2 -8 5 -14t7 -4q6 4 5 18 t-11 18q-4 2 -6 -4q-1 -3 -1 -6.5t1 -7.5zM271 1061q1 -7 4 -13t7 -4q6 4 4 17t-10 17q-4 2 -5 -4v-6v-7zM282 1546q6 0 5 9t-7 9q-5 0 -5 -7q0 -11 7 -11zM290 1624q8 2 7 8t-9 10q-8 2 -8 -6q0 -15 10 -12zM350 816q0 -10 6 -35t15 -53t16 -52t9 -34h20l-18 122 q-26 42 -37 52t-11 0zM364 246q40 0 53 33q10 25 10 51q0 8 -1 16q-2 6 -5 23t-3 21q-20 -28 -40 -67q-15 -30 -15 -59q0 -9 1 -18zM412 144q39 0 39 33q0 4 -1 9q-39 0 -39 -33q0 -4 1 -9zM1494 1944q22 -18 58 -45t72 -27q2 0 8 1t10 1q-24 28 -62 49t-72 23q-2 0 -7 -1 t-7 -1zM1630 1460q52 40 62 79q5 20 5 45.5t-5 57.5q0 6 -4 29t-6 31q-2 -22 -6 -54t-10 -66t-15 -66t-21 -56zM1660 1856q6 -14 17 -28t23 -22v4q0 2 1 2t1 2q-2 12 -10 28t-24 16h-4q-2 0 -4 -2z" />
<glyph unicode="O" horiz-adv-x="1572" d="M36 770q-4 64 -4 127q0 116 14 229q22 174 82 329t165 271t258 181q140 60 326 60q17 0 35 -1q194 -38 321 -138t198 -239t91 -305q10 -79 9 -159q0 -88 -11 -177q-22 -170 -81 -330t-144 -289t-191 -214t-224 -101q-52 -20 -122 -26q-25 -2 -50 -2q-47 0 -97 7 q-77 11 -156 40t-150 81t-128 128t-91 178q-38 168 -50 350zM146 816q20 6 36 20t28 30q-2 2 -10 2t-8 -2q-6 -4 -24 -24t-22 -26zM172 378q6 0 5 9t-7 9q-7 0 -7 -7q0 -11 9 -11zM184 414q8 0 7 8t-9 8q-5 0 -5 -6q0 -10 7 -10zM198 508q14 14 37 40t21 54q0 2 -1 5t-1 5 q-22 -18 -35 -47t-21 -57zM200 284q6 -14 16 -28t26 -24l36 122q-12 -20 -31 -42t-47 -28zM326 724q0 -4 1 -13t3 -13q20 40 34 66t26 70q4 16 3 49t-3 68t-3 67t3 48zM352 310q0 -2 1 -2t1 -2v-4q14 4 15 14t-1 20q0 2 -1 8t-1 10q-8 -14 -11 -23t-3 -21zM366 132 q4 -2 13 -2h13q20 0 27 5t9 14t-1 24t-5 33q-2 0 -2 4v4q-22 -20 -30 -38t-24 -44zM390 628h34l-4 36zM411 467v-11q0 -23 3 -52q0 -6 4 -26t4 -26l30 36l-16 138q-24 -32 -25 -59zM489 929q1 -155 23 -301t61 -262t96 -189t129 -83q140 30 240 122t162 222t88 286 q22 131 22 264q0 26 -1 51q-5 159 -40 308t-95 265t-145 187t-189 73q-92 -38 -159 -132t-110 -222t-63 -281q-19 -146 -19 -293v-15zM518 266q-3 -16 -3 -32q0 -19 4 -37q7 -35 26 -59t48 -33q10 -3 22 -3q20 0 41 10zM1112 1782l92 -72l116 -244q22 0 36 -5t18 19 q-46 58 -64 103t-37 81t-53 65t-108 53zM1356 1326q2 -12 9 -21t17 -15l-4 36h-22zM1376 1158q16 12 31 34t11 44v8q-10 -6 -17 -18t-13 -26t-9 -26t-3 -16zM1398 914q0 -2 2 -4q0 -2 2 -4q22 14 35 29t11 39q-2 4 -3 10t-5 8q-14 -14 -30 -35q-13 -17 -13 -34q0 -5 1 -9z M1450 1076q5 0 5 6v2q-1 8 -7 8q-5 0 -5 -6q0 -10 7 -10z" />
<glyph unicode="P" horiz-adv-x="1760" d="M51 284q-1 21 -1 43q0 92 17 200q21 133 64 271t108 270t147 240l-116 572h-182v74l778 24l-6 -74l-134 -8l8 -260q66 58 162 120t203 111t215 79q90 25 168 25q16 0 30 -1q90 -6 151 -55t75 -155q-8 -176 -94 -316t-214 -238t-281 -152t-295 -58q-64 12 -93 47t-33 77 q-1 8 -1 15q0 34 15 67q18 40 52 66t79 28h5q43 0 90 -32l-48 -54q-28 24 -52 23t-41 -18t-23 -42t2 -50t31 -44t65 -21q96 0 181 48t150 123t103 169t38 184q0 78 -33 119t-117 41q-70 0 -141 -21t-137 -57t-125 -83t-105 -99q-6 -102 -9 -223t-5 -253t-2 -268t-2 -268 t-5 -253t-9 -223l-62 -6l-42 152q-134 -112 -232 -145q-54 -18 -98 -18q-36 0 -64 12q-64 27 -97 106t-38 189zM211 438v-9q0 -80 17 -141q18 -64 60 -89q24 -14 56 -14q24 0 53 8q67 19 165 99l-140 906q-42 -74 -80 -170t-67 -198t-46 -204t-18 -188zM507 1494 q1 -10 1 -12q0 -6 1 -26t1 -26q16 16 17 36t1 42v42q-12 -2 -16 -12t-5 -22v-11.5v-10.5zM520 1154q0 -8 8 -8q6 0 6 8t-6 8q-8 0 -8 -8zM580 1714l68 112l-6 94q-16 0 -28 -25t-20 -59t-11 -69t-3 -53zM594 1350q0 -20 2 -42t0 -34q-2 -4 4 -20t4 -20q-2 0 -2 -10v-14 q0 -24 -3 -50t-4 -52t2 -50t17 -42q10 96 15 192t5 192q-24 0 -32 -15t-8 -35zM606 981q0 -9 8 -9q6 0 6 9t-6 9q-8 0 -8 -9zM614 1516q10 2 14 12t5 22t0 22t-1 12v26t-2 26q0 -6 -3 -21t-5 -31t-5 -31t-3 -21v-8v-8zM1166 1808h16q16 0 26 3t26 15h-18q-16 0 -26 -2 t-24 -16zM1286 1808h52q-24 18 -44 18h-8v-18zM1354 1792q4 -8 10 -8t8 8t-9 8t-9 -8zM1400 1395q0 -9 6 -9q8 0 8 9t-8 9q-6 0 -6 -9zM1418 1740q0 -8 6 -8t6 8t-6 8t-6 -8zM1434 1464q0 -8 6 -8q8 0 8 8t-8 8q-6 0 -6 -8zM1450 1533q0 -7 2 -13q2 -4 4 -4h2q8 4 8 17 t-8 17q-4 2 -6 -4t-2 -13zM1452 1688q0 -8 6 -8t6 8t-6 8t-6 -8zM1466 1835q0 -9 6 -9q8 0 8 9t-8 9q-6 0 -6 -9zM1484 1818q0 -8 6 -8t6 8t-6 8t-6 -8zM1490 1766l16 -18q14 6 18 17t4 23q-28 0 -38 -22zM1528 1878q2 -36 24 -36q12 0 23 6t21 12q-16 12 -26 15t-26 3h-16z M1594 1629q0 -11 1 -23t1 -23v-15q24 40 47 90t23 100q0 20 -9 39t-27 29q-28 -52 -32 -90t-4 -90v-17z" />
<glyph unicode="Q" horiz-adv-x="1816" d="M69 757q19 181 87 360t178 343t250 283t305 182q119 46 246 46q48 0 97 -7q76 0 169 -50t175 -143t138 -225t56 -298q0 -182 -40 -339t-98 -281t-121 -215t-111 -141l166 -314l-394 -310l-56 418q-18 -14 -73 -38t-136 -43t-181 -23h-25q-88 0 -179 24q-182 48 -287 164 t-145 271q-27 105 -27 222q0 56 6 114zM166 512q38 52 64 134t44 166q-8 -8 -26 -11t-36 -7t-32 -11t-14 -21v-250zM180 438q10 -62 32 -113t48 -87q4 10 14 39t20 67t18 77t8 67q-18 0 -35 -10t-33 -21t-34 -18t-38 -1zM220 968q0 -2 2 -4l162 372q-28 -44 -50 -84t-41 -80 t-36 -85t-35 -101q-2 -4 -2 -6v-6v-6zM316 1012q16 10 33 36t19 62zM342 134q2 -4 12 -13t14 -9q6 0 10 8t5 18t1 20v14v38zM380 661q0 -11 4 -11t4 11t-4 11t-4 -11zM380 1160q0 -12 4 -12t4 12t-4 12t-4 -12zM396 432q12 0 23 16t27 16l4 -4q4 -2 8 -5t8 -7q6 -6 12 -10 v-178q0 -18 12 -36t29 -32t33 -23t22 -9q2 0 6 1t6 1q-18 78 -34 140t-29 123t-25 129t-20 156q-14 -18 -28 -54t-26 -76t-20 -80t-8 -68zM450 86h56l-56 48v-48zM478 1210l14 -24q28 44 56 102t38 124zM546 742v-17q0 -170 39 -305q41 -142 116 -221t178 -82h6 q101 0 219 93l-28 552l106 58l98 -236q78 82 127 200t67 249q11 81 11 163q0 51 -4 101q-11 133 -50 244t-106 191t-159 104q-118 0 -229 -84t-197 -231t-139 -347t-55 -432zM572 1520q-1 -2 -1 -4q0 -3 3 -4q4 -6 10 4t2 20q0 6 -3 4t-6 -8t-5 -12zM600 134q2 -10 7 -10 t9 10q2 12 -7 12t-9 -12zM624 1584h18l136 174l-6 4q-18 0 -44 -11t-49 -33t-39 -56t-16 -78zM1181 456q1 -16 1 -18v-38t2 -38q4 4 11 16t14 26t12 29t5 27q0 16 -9 41t-19 35q-8 -2 -12 -16t-5 -31q-1 -9 -1 -17t1 -16zM1224 198q0 -4 1 -19t1 -19l26 126q-20 -14 -24 -36 t-4 -52zM1254 -64v-24q10 12 16 19t16 7q6 0 16 18t20 46t18 60t11 60t-2 47t-21 19q-6 0 -6 -2zM1280 -140v-24q8 6 30 24t46 38t45 38t29 26q2 4 7 13t5 11q-12 46 -14 54t-3 -2t-7 -26t-24 -16q-10 -24 -28 -48t-38 -42t-34 -31t-14 -15zM1316 486q0 -16 5 -29t11 -19 q42 38 69 98t55 124l-108 -174h-32zM1350 1818q0 -2 8 -16t19 -34t23 -44t20 -46q0 -2 4 -10t9 -17t9 -16t6 -7q12 0 15 -1t2 0t-3 6t-2 17q0 102 -28 149t-82 47v-28zM1478 736q0 -12 4 -12q6 0 6 12t-6 12q-4 0 -4 -12zM1498 562q38 62 74 140t65 167t47 184t18 193 q0 30 -1 59t-15 57v-126q0 -4 -14 -61t-33 -133t-40 -154t-33 -126q-4 -12 -14 -41t-21 -60t-20 -59t-13 -40zM1535 1554q1 -16 4 -29t11 -13q10 0 24 17t18 33l-56 98v-62q0 -2 -1 -15q-1 -7 -1 -14t1 -15zM1550 1162q30 42 50 104t20 132v14l-70 -176v-74zM1558 1044 q0 -10 1 -19q1 -6 3 -6q1 0 2 1q6 6 6 25t-6 25h-1q-3 0 -4 -7q-1 -9 -1 -19z" />
<glyph unicode="R" horiz-adv-x="1490" d="M30 1874l486 90l-16 -244q34 30 81 64t102 66t113 58t112 39q44 11 83 11q9 0 18 -1q47 -3 79 -29q74 -64 92 -155q8 -40 8 -82q0 -54 -13 -112q-23 -103 -82 -212t-140 -209t-179 -184t-198 -136q-10 -38 -10 -106t14 -147t43 -160t77 -147t117 -109t165 -45h9 q64 0 109 28q48 30 76 73t40 92q9 37 9 67q0 10 -1 19q-4 37 -21 54t-45 -1q-18 0 -30 -14t-19 -33t-9 -39t-2 -32l-36 -6q-6 20 1 57t27 72t54 62t82 27h9q64 0 103 -26q42 -28 60 -73q16 -40 16 -89v-11q-2 -55 -20 -108t-48 -99t-66 -70q-90 -62 -189 -79q-40 -7 -79 -7 q-58 0 -114 15q-94 25 -178 90t-147 167t-97 238q-29 116 -29 254q0 24 1 50l-68 -26l-82 -776h-152zM94 1278q0 -2 2 -2h4h4q2 0 2 2q10 6 18 25t14 39t9 37l3 17h-6h-8zM106 1602q4 12 8 22t6 17t4 7q18 0 23 11t5 26t-2 32t4 31q0 2 7 11t14 19t14 18t9 12v4q0 2 1 2t1 2 q-2 0 -2 2v4v4q-28 4 -45 -13t-27 -44t-13 -58t-4 -57t-1 -42t-2 -10zM136 1040q2 -6 7 -30t7 -28q12 26 21 57t9 59v22q-6 -8 -23 -30t-21 -30v-10v-10zM192 1158q12 4 34 33t48 70t53 88t49 89t35 72t13 38q-30 -42 -68 -101t-72 -118t-60 -106t-32 -65zM192 1290l88 198 v38q-4 0 -9 -7t-7 -11q-8 -18 -20 -48t-24 -58t-20 -49t-8 -23v-40zM198 223q0 -9 2 -16q1 -4 3 -4q1 0 3 1q8 4 8 19t-8 19q-4 2 -6 -4t-2 -15zM208 1642q22 20 42 52t20 66h-18zM218 984q0 -4 1 -15t1 -15q22 42 34 73t12 75v15t-2 15q-22 -44 -34 -75t-12 -73zM266 1582 q12 0 38 20t53 48t48 58t21 48q-12 -8 -43 -33t-61 -54t-49 -55q-12 -16 -12 -24q0 -6 5 -8zM316 895q0 -11 8 -11q4 0 4 11t-4 11q-8 0 -8 -11zM432 938q186 128 284 260t140 245t43 193v17q0 66 -7 89q-6 28 -33 44t-66 18h-11q-35 0 -74 -11q-46 -13 -89 -44t-79 -81 t-56 -120q-6 -30 -12 -85t-12 -120t-11 -133t-9 -126t-6 -98t-2 -48zM686 1052q2 0 7 -1t9 -1q30 12 61 38t60 59t54 67t45 62q-18 -10 -41 -33t-46 -50t-45 -51t-38 -38t-33 -24t-33 -28zM822 1866q2 -2 4 -2h4q14 0 22 20q-2 0 -4 2q-2 0 -4 2q-14 0 -22 -22zM896 1832 q0 -20 12 -30t18 -6l70 -28q2 0 2 10q0 8 -2 8q-18 24 -51 35t-49 11zM904 1905q0 -9 4 -9q6 0 6 9t-6 9q-4 0 -4 -9zM932 1428l30 42h-8q-10 0 -15 -13t-7 -29zM952 1906q46 -18 83 -49t77 -71q0 2 1 6t1 6q0 30 -14 51t-35 33t-44 18t-39 6h-30zM1182 498q2 -10 14 -10h20 q16 0 29 1t31 9q-12 8 -23 8h-27h-23t-21 -8zM1274 460q0 -4 4 -4t4 4t-4 4t-4 -4zM1292 486q4 0 6 4t-6 4q-6 0 -6 -3q0 -5 6 -5zM1310 474q32 -30 39 -76t11 -80q4 16 7 25t3 25q0 4 -2 21t-8 36t-16 34t-26 15h-8zM1342 288q0 -4 2 -4h2q4 2 4 5t-4 3h-2q-2 0 -2 -4z" />
<glyph unicode="S" horiz-adv-x="1418" d="M20 302q16 76 70 124t140 52h9q82 0 183 -68q-41 14 -79 14q-17 0 -33 -3q-52 -9 -90 -35t-57 -62q-16 -30 -15 -60v-13q4 -37 36 -67t98 -42q55 -20 111 -19q30 0 61 5q88 16 169 63t147 120t108 156t51 171q2 18 2 36q0 69 -28 132q-35 80 -120 144t-233 98 q-86 24 -170 55t-151 79t-109 118t-42 170q2 150 80 255t193 166t248 78q53 7 102 7q76 0 145 -16q114 -26 189 -97t75 -185q-6 -70 -53 -124t-102 -73q-23 -8 -45 -8q-30 0 -58 15q-48 26 -56 116l64 18q12 -42 36 -56t49 -5t47 40t32 77q0 20 -9 47t-24 51t-36 41t-45 17 h-8q-82 -42 -168 -90t-153 -108t-100 -137q-18 -43 -18 -93q0 -39 11 -82q16 -66 64 -107t117 -68t150 -46t164 -40t160 -49t136 -75t93 -117q30 -63 30 -152v-22q-6 -128 -52 -228t-118 -176t-168 -128t-203 -85t-222 -47q-101 -12 -199 -12h-28q-152 2 -240 55t-121 126 q-22 49 -22 100q0 24 5 49zM162 127q0 -9 6 -9t6 9t-6 9t-6 -9zM164 1472l2 -8t4 -19t4 -19t4 -6v7q0 31 33 85q37 60 90 123t111 115t94 66q-48 -16 -105 -52t-108 -84t-87 -102t-42 -106zM184 102q0 -12 10 -18t23 -8t26 -2h19t23 1t21 1l-122 34v-8zM206 1609q0 -9 6 -9 t6 9t-6 9t-6 -9zM216 1282l86 -86h20q0 54 -26 85t-80 31v-30zM232 1390q0 -2 2 -4q12 10 34 30t22 44q-22 0 -40 -21t-18 -45v-4zM330 1179q0 -9 6 -9q8 0 8 9t-8 9q-6 0 -6 -9zM380 1403q0 -7 2 -13t6 -4q8 4 8 17t-8 17q-4 2 -6 -4t-2 -13zM410 92h16q36 0 76 -7 q15 -3 28 -3q23 0 44 8q-40 0 -82 8q-15 3 -30 3q-27 0 -52 -9zM436 1574h8q22 0 48 14t50 35t42 45t24 44q-38 -24 -89 -61t-83 -77zM692 1786q0 -2 2 -4l122 68q-2 10 -14 15t-26 7t-26 2h-14q0 -18 -7 -28t-15 -18t-15 -16t-7 -22v-4zM734 76q2 0 8 -1t8 -1q20 0 55 15 t69 35t59 41t25 33v10q-6 -2 1 -11t1 -13q-14 -6 -46 -22t-68 -32t-68 -32zM814 219q0 -9 8 -9q6 0 6 9t-6 9q-8 0 -8 -9zM924 304q40 14 57 48t27 80q-22 2 -36 -14t-22 -37t-14 -43t-12 -34zM1060 604q2 0 5 -1t5 -1q22 0 41 20t19 42t-11 48t-25 48q-12 -14 -18 -37 t-9 -47t-5 -45t-2 -27zM1140 639q0 -9 6 -9q8 0 8 9t-8 9q-6 0 -6 -9zM1164 828l68 -104l36 18q-10 28 -38 57t-58 29h-8zM1284 638h18v18h-18v-18z" />
<glyph unicode="T" horiz-adv-x="1366" d="M42 1964l1284 12v-262q-46 30 -80 53t-76 37t-100 18q-19 1 -42 1q-46 0 -108 -5l-158 -1828h-170l-164 1824q-41 2 -77 2q-98 0 -156 -16q-79 -22 -113 -49t-36 -48t-2 -13zM76 1880h-2l12 -1q16 -1 37 -2t38 -4t11 -7q2 -2 4 -2h4q14 -4 48 -3t68 6t60 14t24 23 l-152 -12zM130 1848q0 -8 6 -8q8 0 8 8t-8 8q-6 0 -6 -8zM530 1490q22 10 37 37t24 61t15 68t10 58l-28 172l-20 -146q0 -24 -7 -60t-14 -74t-13 -70q-4 -24 -4 -38v-8zM548 1266q28 14 32 48t4 58v16t-3 19t-11 14t-22 1v-156zM632 1000q0 -38 2 -67t6 -19t6 34t2 52t-2 52 t-6 34t-6 -19t-2 -67zM642 680q0 -8 3 -14t7 -4q8 4 8 17t-8 17q-4 2 -7 -3t-3 -13zM652 192l16 18q2 0 8 26t15 62t17 74t12 62q0 2 1 12t1 14t-1 13t-1 13q-2 -8 -9 -28t-15 -42t-16 -41t-12 -27q-2 -4 -8 -10l-8 -8v-138zM668 1146q10 12 14 21t4 21v8q-10 -12 -14 -21 t-4 -21v-8zM702 1646q8 6 20 19t22 27t18 25t10 15l2 19t5 43t6 43t1 19q-12 0 -26 -29t-26 -67t-21 -72t-11 -42zM720 1404q66 84 104 155t38 173h-56q8 -6 23 -25t11 -27l-120 -258v-18zM748 1111q0 -9 6 -9q8 0 8 9t-8 9q-6 0 -6 -9zM764 1154q0 -9 4 -9q2 0 4 1q8 2 8 8 t-8 8q-8 4 -8 -8zM1004 1862l18 18h-18v-18zM1108 1880l120 -36q-10 -6 -3 -13t21 -11t30 -7t22 -3h18q-10 2 -15 12t-7 22t-2 22v14h-184z" />
<glyph unicode="U" horiz-adv-x="1792" d="M44 1950l672 -2l-8 -72l-128 -6q-8 -110 -17 -273t-12 -346q-1 -61 -1 -122q0 -123 4 -248q6 -187 27 -343t60 -266t103 -140q34 -17 67 -17q30 0 59 14q62 29 119 105t107 191t92 254t74 294t50 312t23 307q1 44 1 86q0 101 -8 192h-140v80l564 6v-86l-96 6 q-16 -122 -28 -282t-20 -336t-14 -354t-10 -335t-6 -280t-4 -187l88 12q16 -26 12 -51t-4 -53l-412 -12v90l208 10l-90 824q-30 -102 -60 -211t-70 -213t-93 -197t-127 -161t-173 -107q-86 -34 -196 -34q-17 0 -35 1q-146 22 -233 121t-134 250t-61 340t-14 390t5 401 q2 91 2 176q0 103 -3 198l-134 -6zM250 1158q14 16 17 26t3 26q0 2 -1 8t-1 10q-16 -4 -17 -19t-1 -25v-26zM250 1418q8 2 15 34t13 79t11 101t8 102t5 82t2 42l-24 -62zM266 960q0 -22 1 -42t19 -36q18 34 29 69t11 73q-30 0 -58 -20q0 -4 -1 -21t-1 -23zM300 728 q0 -4 1 -10t1 -8q8 -36 16 -86t20 -103t28 -103t40 -88v70q-4 36 -13 92t-17 109t-15 90l-7 37h-54zM352 1453q0 -27 2 -27t5 27t5 69t4 89t3 89t1 69t-2 27t-5 -27t-5 -69t-4 -89t-3 -89t-1 -69zM414 296q0 -8 3 -13t7 -3q8 4 8 17t-8 17q-4 2 -7 -4t-3 -14zM416 1313 q0 -9 8 -9q6 0 6 9t-6 9q-8 0 -8 -9zM422 1004q0 -4 1 -10t1 -8q14 4 16 14t2 20q0 4 -1 10t-1 8q-14 -4 -16 -14t-2 -20zM440 1348q8 4 15 36t13 80t10 103t7 104t5 84t2 41v10q-6 -4 -13 -36t-12 -77t-10 -98t-9 -100t-6 -80t-2 -41v-26zM518 339q0 -11 8 -9q10 4 10 10 t-10 8q-8 2 -8 -9zM542 270q0 -34 1 -70t11 -66t32 -49t62 -19v40l-104 208q0 -4 -1 -21t-1 -23zM1474 1602q22 48 29 102t7 108v2q-6 -32 -12 -66t-12 -64t-9 -52t-3 -30zM1475 1336q1 -20 1 -32v-8q18 26 26 63t8 67v8q-16 -4 -24 -21t-10 -37q-1 -13 -1 -27v-13z" />
<glyph unicode="V" horiz-adv-x="1998" d="M26 1860q212 48 329 73t171 37t65 14l11 2l446 -1554q6 104 26 252t55 310t89 325t130 297t177 224t231 106q116 -6 168 -52t59 -107q1 -12 1 -23q0 -50 -24 -101q-30 -63 -82 -102t-116 -41h-4q-62 0 -120 60q0 14 10 38t26 24q34 -52 77 -56q6 -1 12 -1q36 0 70 21 q39 24 64 68q23 41 23 81v6q-2 43 -41 76t-127 35q-94 -18 -173 -88t-142 -176t-111 -241t-83 -283t-57 -299t-32 -290q-9 -126 -9 -236v-22q1 -119 13 -201l-86 -36zM160 1806q0 -14 26 -59t55 -95t50 -94t11 -56q0 2 -8 39t-19 81t-19 82t-8 40q2 4 9 26t9 26q10 20 33 26 t35 26h-16q-6 0 -31 -3t-54 -8t-51 -13t-22 -18zM364 1708q0 -28 2 -66t8 -81t10 -81t8 -67t4 -39q0 -20 17 -48t41 -38l-84 456q-6 -8 -6 -36zM472 1762q8 34 13 61t5 59v18l-18 -18v-120zM503 1557q1 -43 3 -93t4 -92t2 -48q0 -10 13 -27t23 -23v154q-18 114 -28 153 q-8 31 -12 31q-1 0 -2 -2q-3 -8 -3 -37v-16zM662 1241q0 -7 2 -13t6 -4q8 4 8 17t-8 17h-2q-3 0 -4 -4q-2 -6 -2 -13zM738 1086l104 -482q4 -4 17 -18t17 -18v70q0 6 -10 46l-23 92t-28 105t-25 85q-2 6 -9 23t-15 37t-16 37t-12 23zM886 552q0 -8 8 -8q6 0 6 8t-6 8 q-8 0 -8 -8zM938 465q0 -9 8 -9q6 0 6 9t-6 9q-8 0 -8 -9zM956 448q0 -8 6 -8q8 0 8 8t-8 8q-6 0 -6 -8z" />
<glyph unicode="W" horiz-adv-x="2416" d="M20 1840l534 156l430 -1732l240 818l124 12l318 -702q22 124 38 292t38 348t56 354t93 309t148 214q81 72 197 72q12 0 24 -1q62 -32 89 -73q28 -43 28 -89q0 -42 -18 -83q-19 -43 -46 -75t-57 -50t-52 -14l-36 64q64 32 91 72q26 39 26 73q0 37 -24 64q-23 25 -60 26h-3 q-36 0 -79 -27q-45 -28 -89 -100q-52 -84 -79 -219t-37 -297q-9 -147 -9 -307v-32q1 -177 7 -345t13 -313t7 -245l-456 -20l-246 722l-206 -702h-178zM152 1823q0 -9 6 -9t6 9t-6 9t-6 -9zM176 1806q6 -38 18 -101t30 -129t42 -127t56 -95q0 2 5 -16t10 -40t9 -40t4 -16 q0 18 -9 65t-23 106t-32 125t-37 122t-38 96t-35 50zM365 1782q13 -48 46 -105t59 -114t32 -114q1 -7 1 -15q0 -49 -35 -90h8q22 0 25 24t3 38q0 10 -8 44t-20 80t-25 99t-25 99t-20 80t-8 42q0 16 11 21t23 5h20q2 -2 16 -10t18 -8q14 0 16 13t2 21q0 14 -5 25t-21 11 q-2 0 -5 -1t-5 -1q-78 -20 -97 -58q-11 -23 -11 -49q0 -17 5 -37zM394 1108q0 -26 10 -55t26 -57t35 -54t37 -46q0 4 1 13t1 13q0 22 -7 54t-21 61t-35 50t-47 21zM586 1164q0 -48 3 -85t33 -79q16 16 18 33t2 37q0 24 -3 44t-10 39t-17 40t-24 49q0 -10 -1 -39t-1 -39z M598 690q0 -8 8 -8q6 0 6 8t-6 8q-8 0 -8 -8zM598 1414q0 -8 8 -8q6 0 6 8t-6 8q-8 0 -8 -8zM614 664q0 -12 8 -8q8 2 8 8t-8 8q-8 4 -8 -8zM616 1362q0 -8 6 -8q8 0 8 8t-8 8q-6 0 -6 -8zM634 621q0 -9 6 -9t6 9t-6 9t-6 -9zM668 724q0 -8 6 -8t6 8t-6 8t-6 -8zM689 854 q0 -22 19 -26v8v8q0 6 -3 18t-5 26t-5 26t-3 18q-2 -4 -2 -22v-22zM702 655q0 -9 6 -9q8 0 8 9t-8 9q-6 0 -6 -9zM718 612q0 -12 8 -8q8 2 8 8t-8 8q-8 4 -8 -8zM806 414q0 -8 6 -8t6 8t-6 8t-6 -8zM1284 748l192 -408l12 -150q-2 22 -11 73t-25 114t-36 131t-42 123t-45 88 t-45 29zM1334 878q0 -34 23 -63t49 -49v8q0 32 -20 72t-50 58q0 -4 -1 -13t-1 -13zM1900 1647q0 -9 8 -9q6 0 6 9t-6 9q-8 0 -8 -9zM1918 1682q0 -8 6 -8t6 8t-6 8t-6 -8zM1942 1716q18 10 18 26l-2 4v4zM1994 1802q2 -1 4 -1q4 0 8.5 4t4.5 9q0 3 -1 6q-2 3 -4 3 q-4 0 -10 -6t-6 -10q0 -3 4 -5z" />
<glyph unicode="X" horiz-adv-x="1784" d="M37 157q-6 27 -6 54q0 30 8 59q15 54 61 94t128 48q12 1 24 1q40 0 66 -16q34 -21 47 -52q9 -22 9 -47q0 -9 -1 -19q-5 -35 -27 -59t-59 -30q-7 -1 -14 -1q-32 0 -71 21q-6 16 2 30t20 16q2 2 4 2t4 2q32 -16 55 -6t28 31t-10 42t-55 25q-62 -6 -97 -33t-47 -63 q-7 -22 -7 -45q0 -15 3 -31q8 -40 31 -69t57 -43q17 -7 36 -7t40 7q64 6 146 79t162 186t150 253t110 284l-718 756l42 26t105 64t137 83t137 84t107 65t48 28l358 -660l270 652l478 -206l-608 -728l538 -1014l-52 -26l-680 754q-198 -300 -368 -486t-308 -256 q-46 -17 -86 -17q-26 0 -49 7q-59 18 -97 60t-51 101zM278 1596q58 -46 89 -73t46 -39t17 -12t2 10q0 12 -15 39t-33 55t-35 49t-23 19zM448 1712l34 -34q4 6 10 26t8 26v16zM464 1384l276 -276l36 -16v16l-18 36l-242 258h-8q-12 0 -23 -5t-21 -13zM532 1650q0 -22 5 -35 t31 -23q16 4 18 18t2 26q0 24 -7 39t-31 37q-14 -16 -16 -30t-2 -32zM586 1782l34 -70h18l-36 86zM618 1522h20v52q-8 -10 -14 -24t-6 -28zM680 1471q0 -7 2 -13t6 -4q10 4 10 17t-10 17q-4 2 -6 -4t-2 -13zM688 1816q8 10 14 24t6 28h-20v-52zM714 1617q0 -11 10 -9 q8 4 8 10t-8 8q-10 2 -10 -9zM756 1720q0 -22 8 -43t28 -33v4q0 2 1 2t1 2q0 22 -12 48t-24 46q0 -2 -1 -12t-1 -14zM786 1074q0 -8 6 -8t6 8t-6 8t-6 -8zM792 1480q0 -24 9 -51t24 -52t34 -46t37 -33v18q0 18 -3 24t-15 28q-4 8 -16 27t-26 41t-26 42t-18 28v-26zM808 1608 q0 -10 2 -20t16 -14v4q0 2 2 4q0 14 -5 23t-13 21q0 -2 -1 -8t-1 -10zM836 1549q0 -11 8 -9t8 8t-8 8q-8 4 -8 -7zM852 914l6 -6zM852 1514q0 -12 10 -8q8 2 8 8t-8 8q-10 4 -10 -8zM872 1471q0 -9 6 -9q8 0 8 9t-8 9q-6 0 -6 -9zM888 979q0 -11 8 -9q8 4 8 10t-8 8t-8 -9z M906 953q0 -9 6 -9q8 0 8 9t-8 9q-6 0 -6 -9zM1084 1234q0 -2 2 -4q18 14 42 36t46 46t38 51t16 51q-22 0 -47 -21t-46 -50t-36 -59t-15 -46v-4zM1102 920q0 -2 1 -7t13 -30t40 -80t84 -157q6 -6 24 -27t38 -46t38 -46t24 -25v4q0 2 1 2t1 2q0 20 -20 55t-47 70t-53 64 t-38 37q-4 0 -21 29t-36 64t-34 64t-15 27zM1138 1144h16l156 172v16q-26 -14 -53 -35t-50 -46t-42 -52t-27 -55zM1268 1333q0 -9 8 -9q6 0 6 9t-6 9q-8 0 -8 -9zM1310 1384q3 -1 6 -1q5 0 8 4q6 7 2 15t-14 -3q-6 -6 -6 -10q0 -3 4 -5zM1310 1574l17 17l17 17l20 25t23 28 t18 23l7 10l-16 18q-6 -6 -17 -23t-25 -37t-26 -41t-18 -37zM1464 1608q14 4 29 13t23 23l-34 16q-10 -12 -14 -21t-4 -21v-10zM1544 1626q0 -8 6 -8q8 0 8 8t-8 8q-6 0 -6 -8z" />
<glyph unicode="Y" horiz-adv-x="1342" d="M4 1770l588 200l326 -538l320 550l70 -50l-352 -600l110 -1332l-662 18l290 1216q-172 130 -291 221t-196 150t-118 92t-60 49t-22 20zM126 1732q2 -10 10 -18t18 -6q2 0 5 1t5 1l-38 32v-10zM180 1692q14 -18 28 -16h8q-10 18 -26 16h-10zM228 1659q0 -9 6 -9t6 9t-6 9 t-6 -9zM254 1644q2 -8 8 -8t8 8t-9 8q-8 0 -8 -4q0 -2 1 -4zM280 1800q2 -4 8 -9t10 -7q24 -16 63 -37t76 -42t64 -35t29 -14h16q-12 18 -34 48t-48 60t-52 52t-46 22q-22 0 -49 -8t-37 -30zM296 1619q6 1 10 9q2 10 -9 9q-9 -1 -9 -8q0 -11 8 -10zM324 1612q2 -8 9 -7t9 9 q0 8 -11 7q-8 -1 -8 -5q0 -2 1 -4zM352 1596q0 -8 6 -8q8 0 8 8t-8 8q-6 0 -6 -8zM396 1572q6 0 5 9t-7 9q-7 -2 -7 -9q0 -11 9 -9zM438 1557q6 1 10 9q2 8 -9 7q-9 -1 -9 -7q0 -10 8 -9zM482 1550q4 -8 10 -8t6 8q4 8 -8 7q-9 -1 -9 -4q0 -1 1 -3zM526 174l2 -54 q36 2 56 41t29 90t12 100t7 71q2 2 6 15t9 28t10 27t5 16q10 48 24 125t26 152t21 132t9 63l-2 34zM536 1536q4 -8 17 -8t17 8q2 4 -4 6t-14 2t-13 -2q-4 -1 -4 -4q0 -1 1 -2zM550 1898q12 -24 28 -55t36 -62t41 -58t45 -41v16l-116 202zM558 1639q0 -9 6 -9q6 2 6 11t-6 7 q-6 0 -6 -9zM586 1520q4 -8 11 -8t7 8q2 8 -9 8t-9 -8zM658 266q30 18 39 51t7 63v10zM710 1655q0 -11 8 -9q10 4 10 10t-10 8h-2q-6 0 -6 -9zM746 202q0 -4 2 -17t2 -17q14 16 15 29t1 31q-2 4 -2 13v13q-18 -4 -18 -23v-29zM850 686q0 -6 2 -23t4 -21q8 2 22 11t28 20 t23 23t9 18l-10 174q-42 -60 -62 -102q-17 -35 -17 -81q0 -9 1 -19zM860 538q8 4 8 10t-8 8q-7 0 -7 -9q0 -14 7 -9zM856 918q2 -2 2 -8v-10q40 36 55 72q12 28 12 67q0 10 -1 21q0 8 -4 34t-4 34q-38 -40 -50 -101q-10 -52 -10 -95v-14zM862 278l64 4q4 64 8 108 q2 22 2 46.5t-2 51.5q0 4 -2 18t-2 18q-40 -60 -56 -115q-13 -44 -13 -101q0 -15 1 -30z" />
<glyph unicode="Z" horiz-adv-x="1754" d="M2 0l1058 1836q-75 13 -156 13q-44 0 -90 -4q-130 -11 -257 -47t-243 -94t-206 -132l54 364l1496 38l-1218 -1794q12 -28 76 -50t156 -34q74 -10 159 -10q21 0 44 1q111 3 219 22t203 57t155 100t75 149q3 20 3 42q0 72 -38 163q-42 28 -93 28t-96 -27t-75 -78t-30 -123 q-32 61 -32 111q0 9 1 18q7 57 44 96t94 61t121 22t124 -21t102 -67t58 -117q6 -26 5 -55q0 -52 -17 -116q-32 -102 -111 -170t-189 -110t-243 -61t-272 -25q-83 -4 -166 -4q-55 0 -110 2q-137 4 -256 10t-210 10q-30 1 -56 1q-51 0 -83 -5zM92 74h64v52t24 36q10 6 34 23 t52 37t52 37t34 23v18h-70l-17 -16t-39 -38t-45 -46t-37 -38q-10 -14 -26 -41t-26 -47zM208 92q0 -8 6 -8t6 8t-6 8t-6 -8zM284 1744q4 0 10 1t8 3q6 2 21 9t31 15t31 16t21 12h-36q-10 -2 -25 -4t-28 -5t-23 -6l-10 -3v-38zM434 1817q0 -9 6 -9t6 9t-6 9t-6 -9zM456 402 q24 6 56 22t62 38t51 49t21 55l-2 4v4zM718 1104h18l190 206v18zM840 1086h8q16 0 39 17t43 41t34 48t14 40q0 2 -1 5t-1 5l-23 -23l-37 -37l-37 -37t-23 -25q-4 -4 -10 -17t-6 -17zM1096 1582q8 -18 26 -18h8q14 16 45 53t41 69q-44 -4 -72 -36t-48 -68zM1234 1736l18 -16 l16 34h-8q-18 0 -26 -18zM1266 1840q0 -14 6 -33t22 -19t28 20t16 32h-72zM1303 139q-2 -3 -2 -6t3 -5q1 -1 3 -1q3 0 6 5q5 8 1 12q-6 2 -11 -5zM1340 156h6l26 6q16 8 26 18q-16 0 -31 -7t-27 -17zM1432 198q38 16 60 37t38 47q-28 -16 -53 -34t-41 -42zM1598 592 q10 -32 26 -58t28 -52q15 23 15 41q0 8 -3 15q-10 22 -34 40q-4 2 -15 7t-17 7z" />
<glyph unicode="[" horiz-adv-x="684" d="M38 10l44 1946l548 8l6 -58h-106l-296 -1842l398 8l-4 -54zM126 415q0 -9 6 -9t6 9t-6 9t-6 -9zM148 518q0 -6 1 -26t1 -26q2 12 6 41t10 62t11 63l7 42q0 2 1 8t1 8h-20l-3 -14t-5 -33t-5 -39t-3 -34q0 -2 -1 -22t-1 -30zM153 909q1 -11 1 -13v-52q10 32 15 54t5 50 q0 2 -1 8t-1 10q-10 -2 -14 -12t-5 -22t0 -23zM160 104q0 -8 6 -8q8 0 8 8t-8 8q-6 0 -6 -8zM166 138q28 54 53 115t25 125q-30 0 -46 -23t-23 -55t-8 -65t-1 -53v-44zM188 1530q0 18 3 61t5 93t5 94t3 62q0 2 1 8t1 8h-18v-326zM240 819q0 -7 2 -9q28 22 40 46t12 58 q0 4 -1 17t-1 17q-16 -28 -34 -57t-18 -63v-9zM252 622l52 120h-4q-2 0 -4 2q-16 0 -25 -12t-13 -29t-5 -35t-1 -30v-16zM272 1692q0 -4 1 -13t1 -11q18 4 18 22v28v18t-2 18q-14 -16 -16 -29t-2 -33zM290 1530l18 34q-18 -10 -18 -26v-8zM290 1842q14 0 15 1t0 1t0 1t13 1 q14 0 18 7t8 27l-54 -24v-14zM326 1068q0 -8 1 -31t1 -31q4 8 8 47t10 95t12 121t10 124t7 103t3 58v16q-12 -8 -20 -45t-14 -88t-9 -110t-5 -112t-3 -93t-1 -54zM326 1674q38 34 61 44t37 21t22 36t18 89h-8q-18 0 -40 -23t-42 -53t-34 -61t-14 -45v-8z" />
<glyph unicode="\" horiz-adv-x="1538" d="M18 1852l322 154q280 -412 481 -716t337 -520t218 -354t127 -218t62 -112t23 -36l-154 -68q-2 0 -19 25t-68 96t-146 199t-252 336t-385 506t-546 708zM110 1814l232 -218l-146 218v36q-22 0 -49 -7t-37 -29zM248 1866q22 -26 51 -57t61 -31h4q2 0 4 2q-16 22 -23 51 t-11 53h-16q-10 -2 -36 -8t-34 -10zM352 1694l546 -920q24 -18 43 -42t35 -50t35 -52t43 -46l-582 972q-6 8 -20 26t-32 39t-36 41t-32 32zM1030 740q0 -8 6 -8t6 8t-6 8t-6 -8zM1046 706q0 -8 8 -8q6 0 6 8t-6 8q-8 0 -8 -8zM1138 576q0 -12 6 -28t22 -16q8 0 8 2l-34 50 q-2 -2 -2 -4v-4zM1184 499q0 -9 8 -9q6 0 6 9t-6 9q-8 0 -8 -9zM1226 448q-4 -8 3 -15t15 -3q6 4 -4 14t-14 4zM1260 396q12 -28 29 -57t41 -47q-12 28 -29 57t-41 47zM1346 258q18 -28 36 -58t18 -64q0 -14 -2 -18q22 -16 41 -27t29 -7q-4 8 -17 32t-30 51t-37 53t-38 38z " />
<glyph unicode="]" horiz-adv-x="692" d="M38 1906l6 58l548 -8l44 -1946l-590 8l-4 54l398 -8l-296 1842h-106zM210 1864q10 -64 18 -89t22 -36t36 -21t62 -44v8q0 14 -14 45t-34 61t-42 53t-40 23h-8zM296 1554q0 -14 3 -58t7 -103t10 -124t12 -121t10 -95t8 -47q0 8 1 31t1 31q0 14 -1 54t-3 93t-5 112t-9 110 t-14 88t-20 45v-16zM330 1880q4 -20 8 -27t18 -7q12 0 13 -1t0 -1t0 -1t15 -1v14zM366 1564l18 -34v8q0 16 -18 26zM370 742l52 -120v16q0 12 -1 30t-5 35t-13 29t-25 12q-2 0 -2 -1t-2 -1h-4zM380 914q0 -34 12 -58t40 -46q2 2 2 9v9q0 34 -18 63t-34 57q0 -4 -1 -17 t-1 -17zM382 1690q0 -18 18 -22q0 2 1 11t1 13q0 20 -2 33t-16 29q-2 -4 -2 -18v-18v-28zM430 378q0 -64 25 -125t53 -115v44q0 20 -1 53t-8 65t-23 55t-46 23zM468 1856q0 -2 1 -8t1 -8q0 -18 3 -62t5 -94t5 -93t3 -61v326h-18zM488 690q0 -2 1 -8t1 -8l7 -42t11 -63 t10 -62t6 -41q0 6 1 26t1 26q0 10 -1 30t-1 22q0 14 -3 34t-5 39t-5 33l-3 14h-20zM500 104q0 -8 8 -8q6 0 6 8t-6 8q-8 0 -8 -8zM500 948q0 -28 5 -50t15 -54v52q0 2 1 13t0 23t-5 22t-14 12q0 -4 -1 -10t-1 -8zM536 415q0 -9 6 -9t6 9t-6 9t-6 -9z" />
<glyph unicode="^" horiz-adv-x="830" d="M10 1194l370 446l318 -516l-44 -34l-260 432l-194 -456zM154 1178q0 -10 20 -14q0 2 1 5t1 5q0 16 -10 20q-12 -4 -12 -16zM206 1224q4 -2 8 3t2 9t-8 -3t-2 -9zM236 1276q12 10 25 29t17 23q-10 -10 -24 -23t-18 -29zM276 1411q0 -5 4 -5t4 5t-4 5t-4 -5z" />
<glyph unicode="_" horiz-adv-x="1066" d="M56 330l948 -92l4 -198l-948 -48zM118 58h172q-34 14 -60 16t-62 2h-50v-18zM134 162h172q-20 8 -42 25t-26 43h-104v-68zM334 161q0 -9 8 -9q6 0 6 9t-6 9q-8 0 -8 -9zM402 212l36 -42q2 0 16 -1t32 -1t37 -1t31 -1q62 0 92 2t43 6t18 9t18 10t44 9t95 6zM782 127 q0 -9 6 -9t6 9t-6 9t-6 -9zM840 126q26 -4 48 -8t48 -8h18l2 36h-41t-18 -2t-18 -6t-39 -12zM892 207q0 -9 8 -9q6 0 6 9t-6 9q-8 0 -8 -9z" />
<glyph unicode="`" horiz-adv-x="670" d="M44 1254l142 230l426 -418zM110 1276l236 -102h18q-58 32 -82 47t-43 28t-45 29t-84 50v-52zM248 1318q30 -18 60 -40t56 -42t44 -34t22 -14h18l-18 18z" />
<glyph unicode="a" d="M40 244v21q0 85 29 183q33 110 93 213t143 189t177 131q83 40 171 40q12 0 23 -1q100 -6 198 -86l40 144l310 -30q-24 -64 -61 -151t-75 -183t-73 -194t-54 -184q-18 -82 -18 -145v-7q1 -66 35 -100q31 -14 62 -14q17 0 33 4q47 12 87 43t69 76t41 89l50 -76 q-14 -52 -51 -95t-85 -75t-100 -50t-96 -18h-7q-55 0 -84 29q-31 31 -46 76t-19 97t-10 94q-96 -126 -249 -198q-141 -66 -311 -66h-28q-98 18 -144 84t-50 160zM132 274q2 -24 8 -53t14 -53t12 -22t1 25t-9 50t-13 50t-11 25q-3 1 -2 -9q-1 -5 0 -13zM158 408q0 -14 9 -18 t25 -8q10 28 15 45t5 41q0 4 -1 10t-1 8q-18 -14 -35 -35t-17 -43zM198 264q0 -12 15 -44t36 -65t43 -58t38 -25q4 0 16 2t26 5t27 6t19 5q4 0 9 7t7 9q-44 12 -88 29t-84 41q0 -2 -10 13t-22 31zM278 380q0 -102 55 -154t155 -52q90 0 153 37t121 103q-4 12 0 49t12 86 t19 106t20 111t16 100t7 72q-46 82 -109 103q-30 10 -61 10q-34 0 -68 -12q-66 -23 -130 -81t-110 -137t-70 -168q-15 -56 -15 -110q0 -32 5 -63zM866 478l11 36t23 79t23 79t11 34l70 138q-2 0 -8 1t-10 1q-14 0 -28 -24t-27 -62t-25 -83t-21 -85t-14 -72t-5 -42zM928 966 q2 0 11 7t18 16t15 17t4 8q-4 0 -13 -8t-18 -17t-15 -16q-4 -4 -4 -6q0 -1 2 -1zM986 914q2 0 5 -1t5 -1q32 12 60 27t42 29q12 12 12 19q0 2 -1 3q-2 5 -15 5q-7 0 -16 -1z" />
<glyph unicode="b" horiz-adv-x="1184" d="M59 153q-3 20 -3 40q0 23 4 46q8 43 27 78t46 56t59 19l32 -70q-26 6 -50 -16t-38 -56q-15 -37 -15 -75q0 -36 20 -59q21 -24 66 -29q6 -1 12 0q43 0 111 29l-260 1840l498 -28q-20 -220 -32 -378t-19 -266t-8 -174t-1 -104t1 -54t1 -22q56 44 103 81t95 62t104 36 q32 6 71 6q28 0 59 -3q102 -10 158 -74q46 -53 46 -131q0 -17 -2 -35q-2 -60 -31 -150t-85 -188t-138 -195t-190 -172t-243 -119q-114 -37 -245 -37q-24 0 -48 1q-48 22 -73 60t-32 81zM244 1376q10 10 17 18t9 22q12 44 22 80q10 30 17 55t7 27q-6 -6 -17 -34t-23 -61 t-21 -63t-9 -36q0 -2 -1 -2t-1 -2v-4zM276 1180q2 6 9 20l15 30t14 30t8 20v4q0 2 1 2t1 2v10q-26 -26 -35 -45t-13 -47v-26zM302 915q2 -21 8 -51q4 6 13 25t9 25q6 14 17 47t24 70t24 71t15 48q-24 -10 -42 -30t-32 -47t-23 -56t-11 -53q-3 -19 -3 -34q0 -8 1 -15z M324 511v-9q0 -50 20 -110q4 14 11 51t14 78t14 77t9 50q0 2 2 18t2 22q0 10 2 16q0 6 2 12q-4 8 -23 17t-27 7q-2 -6 -4 -22t-5 -34t-5 -34t-2 -22q-8 -64 -10 -117zM364 1808q0 -6 6 -6q8 0 9 7t-7 11q-8 2 -8 -12zM372 790q34 16 40 50t10 64q2 8 3 34t3 34 q-4 -10 -12 -33t-17 -50l-17 -51t-10 -32v-8v-8zM386 1238q14 8 23 22t17 29t16 29t22 24l28 308l-104 -396zM405 1693q0 -7 5 -9q6 0 7 9t-5 9q-7 3 -7 -9zM450 1826l40 -6l6 56q-5 1 -9 1q-17 0 -25 -14q-10 -17 -12 -37zM456 156q78 0 159 57t150 141t119 182t68 180 q7 40 7 73q0 42 -11 73q-20 56 -62 81q-35 21 -81 21q-9 0 -19 -1q-58 -5 -116 -37t-110 -90t-84 -140zM778 1024l40 44q6 -4 4 -15l-4 -22t-3 -20t5 -9q8 -2 14 4t10 14t7 18t3 16q-20 2 -40 -6t-36 -24zM942 1018q4 -24 14 -60t26 -78t30 -75t24 -50q6 -10 8 -10t2 5 q0 12 -11 60t-41 146v18q-6 -2 -14 11t-16 27t-13 24q-3 6 -4 6t-1 -2h-1q-4 0 -4 -9q0 -5 1 -13zM1058 872l22 -2q1 15 1 30v16q-1 24 -15 42z" />
<glyph unicode="c" horiz-adv-x="998" d="M50 333q-2 27 -2 54q0 88 24 182q32 123 93 227t145 176t178 84q25 3 49 3q42 0 78 -9q57 -14 99 -35t69 -41t37 -26l6 40l88 -6l-6 -212l-88 10q-2 16 1 43t5 43q-10 20 -50 44t-90 37q-38 10 -76 10l-24 -1q-50 -4 -82 -38q-48 -52 -82 -133t-52 -170t-21 -180 q-1 -17 0 -33q0 -71 10 -131q13 -73 42 -120t75 -51q33 -6 70 -6q26 0 53 3q67 7 129 37t108 84t58 136l76 -4q-14 -114 -76 -187t-155 -112t-209 -50q-55 -5 -112 -5q-62 0 -126 6q-118 38 -175 128t-67 203zM160 185q0 -7 3 -13t7 -4q8 4 8 16t-8 16q-4 2 -7 -3t-3 -12z M180 134q0 -8 3 -14t7 -4q10 4 10 18t-10 18q-4 2 -7 -4t-3 -14zM200 99q0 -9 8 -9t8 9t-8 9t-8 -9zM228 82q4 -14 14 -16t22 -2h20q-14 10 -25 15t-25 5q-2 0 -2 -1t-2 -1h-2zM258 540h44l8 202q-6 -16 -15 -42t-17 -55t-14 -57t-6 -48zM302 236h24q0 34 -7 68t-17 66v-134 zM322 152q6 -12 12 -15t16 -3q8 0 14 -9t10 -19t7 -15q1 -2 2 -2t1 3q0 6 -5 20t-12 29t-15 26t-14 11q-18 0 -13 -7t-3 -19z" />
<glyph unicode="d" horiz-adv-x="1358" d="M34 258q4 106 42 205t100 185t145 155t180 112t202 58q43 6 86 6q63 0 127 -13l-48 980l420 42q0 -2 -3 -22t-13 -76t-27 -156t-45 -264t-70 -399t-98 -561q-24 -144 -25 -229v-13q0 -76 11 -118q12 -46 30 -60t34 -16q11 -2 22 -2q34 0 58 20q32 26 52 66t28 88t10 86 h68q2 -14 2 -30q0 -46 -14 -98q-18 -68 -57 -120t-98 -76q-28 -12 -61 -12q-35 0 -74 14q-56 42 -77 93t-24 113q-1 19 -1 38q0 46 5 99q7 75 11 165q-46 -80 -121 -171t-167 -169t-195 -129t-201 -51q-56 0 -96 22t-66 58t-39 83t-13 97zM174 104q0 -10 13 -16t21 -6v82 q-10 0 -16 -8t-10 -19t-6 -21t-2 -12zM182 319q0 -11 10 -9q8 2 8 9t-8 9q-10 2 -10 -9zM270 577q0 -11 8 -9q8 4 8 10t-8 8t-8 -9zM292 138q0 -22 5 -37t33 -15q10 0 20 1t14 17l-70 68q0 -4 -1 -17t-1 -17zM346 432q0 -30 6 -69t21 -74t40 -59t63 -24h26q78 30 153 86 t134 128t94 157t35 173q0 78 -24 122t-106 44q-94 0 -175 -41t-140 -109t-93 -155t-34 -179zM982 1362q0 -6 1 -26t1 -26q18 26 27 58t9 64q0 2 -1 8t-1 8q-32 -8 -34 -36t-2 -50zM984 1586q16 22 37 64t21 76q-4 0 -13 -1t-19 -4t-18 -6t-8 -9v-120zM1002 932q16 46 25 83 t9 79v26l-34 -34v-154zM1064 897q0 -9 6 -9q8 0 8 9t-8 9q-6 0 -6 -9zM1070 1294q34 46 52 106t18 118v16q-12 -22 -24 -53t-22 -63t-17 -62t-7 -54v-8zM1168 1793q0 -9 6 -9t6 9t-6 9t-6 -9z" />
<glyph unicode="e" horiz-adv-x="1140" d="M43 298q-3 26 -3 53q0 70 20 149q14 56 41 121t65 126t84 116t98 93q84 52 184 90q97 37 189 37h5q94 -1 172 -51t120 -174q2 -6 2 -12q0 -22 -22 -50q-28 -36 -78 -79t-116 -89t-135 -94t-132 -94t-107 -88q-6 -22 -4 -53t11 -61t26 -53t43 -29q46 -26 104 -33 q21 -3 43 -3q37 0 76 8q61 12 117 39t99 69t65 94q16 38 16 82q0 16 -2 32q2 -2 16 2t30 10t28 11t12 3q2 -20 2 -40q0 -96 -56 -174q-68 -94 -182 -156t-255 -88q-87 -16 -172 -16q-52 0 -103 6h-8q-73 0 -135 35q-65 37 -106 103t-52 158zM106 468q-2 -4 7 6t21 22l21 21 t9 7q4 14 8 42t10 44v4q0 2 1 2t1 2t2 4t2 4q-12 -6 -25 -27t-25 -46t-21 -49t-11 -36zM158 408q0 -14 9 -18t25 -8q10 28 15 45t5 41q0 4 -1 10t-1 8q-18 -14 -35 -35t-17 -43zM162 259q2 -15 6 -33t9 -33t9 -19l2 128q-22 -6 -26 -22q-1 -3 -1 -8t1 -13zM267 398v-8 q0 -14 3 -12q4 2 8 24t8 55t7 70t5 70t2 56t-2 27t-6 -18t-8 -56t-8 -75t-6 -76t-3 -57zM274 274q2 -24 5 -51t6 -48t3 -17t-1 29t-3 52t-4 47t-4 16q-3 -3 -3 -14q0 -6 1 -14zM360 816q2 -46 6 -85t10 -77t14 -77t18 -85q16 14 69 39t112 58t112 76t69 93q5 22 5 40 q0 27 -10 49q-17 37 -53 58t-84 27q-17 2 -34 2q-32 0 -64 -7q-50 -11 -95 -39t-75 -72zM368 338q2 -54 4 -98l4 -100q-4 -12 2 -22t20 -14h10zM734 940l108 -50q6 0 -1 8t-19 17t-23 18t-9 15zM812 1018q6 -28 16 -38t30 -14q10 -4 21 -4t21 14q-14 18 -28 25t-34 11 q-4 0 -13 2t-13 4z" />
<glyph unicode="f" horiz-adv-x="1020" d="M12 1000l4 68l192 4q2 86 4 188t14 204t39 197t76 168t125 116t190 43h18q87 0 153 -36q73 -40 117 -103t58 -139q6 -30 6 -60q0 -44 -13 -86q-21 -70 -78 -124t-153 -72l-10 58q60 14 100 52t59 88q17 45 17 96v11q-2 57 -25 106t-68 86t-111 49q-106 -8 -178 -67 t-107 -164q-31 -94 -31 -225v-30q4 -150 50 -340l376 -2v-76l-352 -8l188 -1006l-420 -10l1 -21l-1 24q-2 47 -7 146t-11 232t-12 261t-9 233t-3 147zM306 585q0 -35 2 -89t6 -117t8 -117t7 -90t7 -34q2 0 2 36t-2 88t-6 113t-8 115t-8 90t-6 38t-2 -33zM317 1539v-17 q0 -54 17 -92q-1 6 -1 15q0 20 6 55q9 50 23 106t31 106t31 70q2 6 8 19t13 28t13 29t10 20q-42 -30 -75 -87t-53 -122t-23 -130zM351 1186q-1 -3 -1 -5q0 -6 6 -7q8 0 10 7t-6 11q-2 1 -3 1q-4 0 -6 -7zM352 1093q-1 -3 -1 -7q0 -12 13 -20l22 12l-16 74q-4 -2 -7 -15 t-5 -17q-2 -10 -6 -27zM368 402q-1 0 -1 -1q0 -3 9 -20q12 -23 28 -53t31 -54t19 -24q4 2 -8 25t-28 50t-32 51t-18 26zM376 996q2 -10 8 -55t17 -103t28 -118t41 -102q4 -2 13 -4t13 -2q-4 12 -16 64t-26 112t-26 112t-18 64q-6 16 -12 22t-22 10zM454 470q-4 -15 -4 -31 q0 -24 10 -48q16 -39 56 -49q3 12 3 25q0 27 -15 54q-22 39 -44 67q0 -2 -2 -8t-4 -10zM502 164q-2 -4 -2 -8q0 -10 12 -22q2 0 16 2t32 6t33 11t19 17q1 6 1 13q0 12 -4 29q-7 26 -23 30h-4q-2 0 -4 2q-6 -4 -16 -14t-22 -21t-22 -21t-12 -14q0 -2 -2 -5t-2 -5z" />
<glyph unicode="g" horiz-adv-x="1208" d="M-80 -672q0 94 32 176t83 147t118 108t140 62q48 12 95 12q25 0 50 -3q72 -10 134 -54l-36 -50q-49 37 -110 37h-3q-63 -1 -120 -36t-100 -102t-53 -163q-7 -41 -7 -82q0 -59 14 -117q23 -99 79 -170t142 -101q38 -13 81 -13q54 0 117 21q118 40 184 124t95 195t31 239 v34q0 111 -11 223q-13 129 -31 250t-26 217q-40 -66 -113 -124t-160 -98t-177 -54q-34 -5 -66 -5q-52 0 -97 14q-73 23 -119 89q-44 63 -44 178v10q0 164 56 311t139 256t183 173q98 63 186 63h3q89 -1 156 -76t87 -243q4 34 9 79t15 93t28 95t50 85t81 62t121 28l-4 -88 q-12 1 -22 1q-38 0 -66 -16q-36 -21 -59 -63t-33 -98t-11 -117v-14q0 -54 7 -110q8 -63 20 -117q2 -16 21 -72t44 -143t53 -196t46 -230t21 -247v-31q0 -110 -18 -214q-21 -119 -73 -225t-144 -186q-84 -68 -188 -108t-213 -48q-29 -2 -58 -2q-79 0 -155 16q-104 22 -189 76 t-143 139t-72 203zM-12 -650q0 -36 2 -64t16 -62q2 16 10 58t16 89t15 89t11 58v8v10q-22 -12 -36 -33t-22 -48t-10 -54t-2 -51zM24 -810q6 -12 17 -31t25 -37t31 -30t33 -12q0 20 2 34t-1 21t-14 10t-37 3q-2 0 -10 7t-18 15t-18 14t-10 6zM138 -930q0 -8 6 -8t6 8t-6 8 t-6 -8zM146 146q0 -16 10 -33t24 -27q0 2 1 8t1 10q0 20 -4 33t-14 35q-12 -4 -15 -10t-3 -16zM152 527q0 -9 6 -9t6 9t-6 9t-6 -9zM168 579q0 -9 8 -9q6 0 6 9t-6 9q-8 0 -8 -9zM248 216q0 -20 3 -43t11 -43t23 -33t41 -13h21t15 16q-28 2 -50 17t-34 43q-11 26 -11 60v6 q1 38 17 84q-24 -16 -30 -41t-6 -53zM266 414l68 310l-18 -16q-8 -10 -17 -44t-16 -76t-12 -83t-5 -65v-26zM316 862q10 0 23 13t13 23q0 4 -8 -1t-15 -12t-12 -15q-3 -4 -3 -6t2 -2zM386 408q-1 -19 -1 -37q0 -67 18 -111q23 -56 61 -80q30 -19 67 -19q9 0 19 1q48 6 94 39 t84 91t56 138q10 42 16 107q4 43 4 90q0 23 -1 47q-3 72 -19 143t-48 127q-49 31 -90 31q-11 0 -22 -2q-50 -11 -87 -55t-64 -112t-45 -140t-28 -142t-14 -116zM868 328q0 -54 1 -94t17 -96v414q-6 -34 -10 -61t-6 -53t-2 -52v-58zM896 604q0 -8 6 -8q8 0 8 8t-8 8 q-6 0 -6 -8zM938 -810q12 2 26 11t28 21t23 26t9 28q0 4 -7 11t-11 7q-24 -18 -41 -47t-27 -57zM946 -352q0 -18 2 -33t6 -11q4 6 6 18t2 26t-2 26t-6 16q-4 6 -6 -9t-2 -33zM970 294q0 -28 1 -52t17 -52v-258q0 -6 7 -26t11 -26q2 -2 4 -2h4q26 0 27 23t1 39q0 102 -12 208 t-58 198q0 -6 -1 -26t-1 -26zM1034 -587q0 -9 6 -9q8 0 8 9t-8 9q-6 0 -6 -9zM1040 -386v-10q4 -10 10 -43t8 -43v120q-12 -6 -15 -10t-3 -14zM1052 -327q0 -9 6 -9t6 9t-6 9t-6 -9zM1054 -620q0 -22 20 -36v36h-20z" />
<glyph unicode="h" horiz-adv-x="1158" d="M6 1974h442l-114 -1208v-10q64 64 122 126t120 110t131 76q64 26 144 26h11q72 -6 113 -54t63 -129t30 -186t12 -224t9 -247t23 -250l-312 2q34 226 58 397t30 289q2 32 2 60q0 75 -12 123q-16 65 -64 79q-15 5 -32 5q-43 0 -96 -29q-74 -40 -148 -106t-138 -142 t-100 -132l-70 -554h-118zM128 1264q0 -52 6 -82q8 14 16 59t13 97t8 98t3 62q0 34 -1 70t-35 58q0 -8 -1 -34t-1 -34q0 -28 -3 -79t-4 -107t-1 -108zM128 1721q0 -11 10 -9q8 4 8 10t-8 8q-10 2 -10 -9zM130 706q2 -90 10 -179t28 -173q0 16 1 56t1 86v86v56v75v93t-1 80 t-1 38q0 14 -2 38t-5 46t-5 38t-4 16h-20q0 -86 -2 -176q-1 -45 -1 -90t1 -90zM158 158q0 -18 3 -36t5 -29l1 -5l-1 8l40 42q6 0 1 -1t-14 1t-17 8t-8 22l-2 4v4q-8 0 -8 -18zM180 343q0 -33 2 -60t6 -19t6 31t2 47t-2 46t-6 32q-4 8 -6 -18t-2 -59zM260 811q2 -7 5 -13 t7 -4q8 4 5 18t-11 18q-4 2 -6 -5q-1 -4 -1 -7t1 -7zM302 1539q0 -15 3 -27t7 -8q8 8 8 34t-8 34q-4 4 -7 -7t-3 -26zM322 1607q0 -9 6 -9q8 0 8 9t-8 9q-6 0 -6 -9zM328 1660l18 16q2 2 6 22t10 47t11 56t7 47q0 2 1 15t1 21q0 4 -1 17t-1 17q-14 -4 -18 -5t-5 -3t-4 -5 t-15 -9q5 -24 5 -57v-11q-1 -40 -5 -77t-8 -63q-3 -17 -3 -24q0 -3 1 -4zM734 990q2 -4 17 -1t36 9t41 13t32 15q-14 0 -42 -3t-28 -23l-9 -2t-19 -3t-14 -2zM898 1020q0 -22 11 -42t25 -39t28 -36t20 -33q2 0 2 9v13q0 46 -23 81t-63 47zM966 128l30 64l12 256 q-2 -2 -8 -52t-14 -109t-14 -108t-6 -51z" />
<glyph unicode="i" horiz-adv-x="524" d="M28 1072q184 4 277 7t130 4l37 1l-164 -1084h-100q-4 40 -17 115t-36 201t-55 311t-72 445zM67 1505q0 61 30 122q31 63 85 95q41 11 75 12q25 0 47 -7q50 -15 78 -51t32 -86q1 -9 1 -17q0 -41 -16 -81q-19 -48 -62 -88t-109 -56h-7q-79 0 -115 44q-39 47 -39 113z M98 1004q0 -6 2 -20t4 -31t4 -31t2 -20l10 -65t13 -76t12 -64l5 -27l20 -14q2 6 8 19t13 28t13 29t10 20v6q-4 24 -14 38t-21 25t-21 24t-12 35q-1 12 -1 25q0 21 4 42t4 42q0 12 -1 25zM180 554l10 -100q10 22 22 52t8 56zM184 1552l2 -2v-2l34 62q0 2 4 3t8 3q4 0 10 1 t8 1q6 -4 14 -6l16 -4q4 2 12 15t12 19v8q-4 16 -18 18q-5 1 -9 1q-9 0 -17 -3q-42 -10 -63 -41q-15 -22 -15 -51q0 -10 2 -22zM198 1414l4 -18q28 6 57 19t52 33t36 46t7 56q0 2 -2 7t-2 7l-62 -70q-16 4 -31 -8t-29 -28q-16 -20 -30 -44zM226 444l28 -270q4 52 4 104v35 q-2 69 -10 137zM296 992h8q10 4 15 8t9 16zM303 468q1 -10 4 -19q2 -6 5 -6q1 0 2 1q6 6 4 26t-10 24q-4 2 -5 -7v-9v-10zM322 540q6 2 5 10t-7 6q-5 -2 -5 -7q0 -9 7 -9zM378 844h2q5 2 5 9v2q-1 7 -5 7h-2q-5 -2 -5 -9q0 -9 5 -9z" />
<glyph unicode="j" horiz-adv-x="738" d="M-753 -625q3 119 52 225t144 183t235 95q10 1 20 1q55 0 95 -20q47 -23 73 -61t31 -84q1 -11 1 -22q0 -34 -12 -65q-16 -41 -54 -71t-96 -38l-40 56q68 14 103 44t42 64q2 10 2 19q0 24 -13 46q-18 31 -52 49q-32 17 -78 17h-5q-49 -1 -103 -33q-78 -48 -118 -161 t-40 -257q0 -54 16 -120t49 -123t82 -95t115 -38q102 6 202 76t180 184t131 260t55 302q3 78 3 152q0 149 -11 283q-16 201 -40 357t-51 259t-43 141l510 54q-2 -54 -4 -174t-12 -281t-33 -349t-67 -376t-113 -362t-172 -307t-244 -212q-138 -77 -320 -77h-9q-140 2 -233 70 t-137 169q-41 95 -41 205v15zM-668 -644q0 -28 11 -87t32 -118t51 -104t70 -45q2 0 5 1t5 1q-42 42 -69 82t-43 81t-22 87t-6 104t9 112t9 112v8q-36 -52 -44 -111t-8 -123zM-604 -375q0 -9 6 -9t6 9t-6 9t-6 -9zM-484 -1013q0 -9 6 -9q8 0 8 9t-8 9q-6 0 -6 -9zM6 -926 q2 -2 4 -2h4q16 0 38 10t43 27t36 37t15 40q0 4 -1 13t-1 13zM96 1478q0 48 17 91t48 76t75 45q35 7 66 7q43 0 78 -13q60 -22 93 -65t37 -98q1 -8 1 -15q0 -47 -22 -89q-25 -49 -82 -85t-145 -40q-58 2 -95 30t-54 68t-17 88zM212 866q16 -12 27 -15t27 -3q22 0 38 16 t16 38q-28 0 -56 -10t-52 -26zM218 1522q0 -2 2 -4l34 70q-14 -10 -25 -27t-11 -35v-4zM228 -682v-18l104 296l-102 -264q-2 -2 -2 -14zM236 664q0 -6 2 -8q14 10 25 27t11 33q0 2 -1 5t-1 5q-22 -10 -29 -22t-7 -30v-10zM272 1432q20 14 41 37t39 49t30 54t12 54 q-22 0 -36 -22q-10 -16 -25 -42t-28 -50t-23 -43l-10 -19v-18zM295 465q3 -71 19 -117q6 12 9 47t6 75t4 79t1 59q0 2 -1 8t-1 8q-37 -82 -37 -149v-10zM350 -202l70 362q-38 14 -53 37t-16 35t5 4t11 -53q4 -32 4 -88q0 -23 -1 -49q-2 -92 -20 -248zM368 780q8 6 20 18 t23 25t19 26t8 25q0 2 -1 5t-1 5q-16 -18 -37 -47t-31 -57zM374 1398q24 16 48 36t24 50q0 2 -1 8t-1 8q-10 -6 -22 -18t-22 -25t-18 -26t-8 -25v-8zM384 486q30 66 60 119t56 105t47 109t33 131q0 2 1 11t1 11q-20 0 -30 -9l-30 -27q12 -16 15 -27t3 -27v-16l-156 -362v-18 zM470 936q4 -10 10 -10q8 0 8 12q0 6 -9 6q-11 0 -9 -8z" />
<glyph unicode="k" horiz-adv-x="1084" d="M70 0l16 1964h444l-204 -1226l500 360l34 -50l-462 -356l676 -558l-134 -128l-646 604l-118 -610h-106zM110 933v-7q0 -11 4 -23q6 -15 15 -34t9 -49q0 -8 1 -31t1 -29q16 26 17 45t-3 38t-11 40t-7 53v17t-2 17q-22 -22 -24 -37zM114 1344v-5q0 -8 4 -15q6 -10 13 -25 t7 -37v-20q0 -6 3 -23t6 -37t5 -37t4 -23q24 30 24 49t-9 37t-20 38t-11 52q0 8 -2 34t-4 34q-18 -12 -20 -22zM114 1850q0 -14 9 -30t18 -31t13 -28t-6 -21l-8 140zM116 1470q18 8 18 26v8zM118 238l16 34q2 4 6 27t9 56t10 68l9 63q0 2 1 15t1 21q0 4 -1 17t-1 17l-46 -96 zM126 1668q0 -12 8 -8q10 2 10 8t-10 8q-8 4 -8 -8zM152 60q24 56 28 106q2 29 2 52q0 18 -1 32q-3 34 -5 52t10 12h-16l-18 -206v-48zM214 1418q0 -8 8 -8q6 0 6 8t-6 8q-8 0 -8 -8zM220 1210q0 -2 1 -8t1 -8q24 36 46 77t22 87v26q-4 -10 -16 -29t-24 -44t-21 -52t-9 -49z M226 1834q0 -4 2 -18t2 -18l7 14t11 21t10 21t6 14v4q0 2 1 2t1 2l-2 4v4q-14 4 -22 -1t-11 -14t-4 -19t-1 -16zM238 1452l18 34q-18 -8 -18 -26v-8zM238 1590l112 320q-4 0 -13 1t-13 1q-14 0 -29 -44t-28 -100t-21 -107t-8 -63v-8zM276 1199q0 -7 3 -13t7 -4q8 4 8 17 t-8 17q-4 2 -7 -4t-3 -13zM298 1495q0 -9 8 -9q6 0 6 9t-6 9q-8 0 -8 -9zM302 1250l70 190l12 38q-16 -10 -31 -36t-26 -56t-18 -61t-7 -49v-26zM314 1572q0 -12 2 -21t6 -5q10 6 10 26t-10 26q-4 2 -6 -6t-2 -20zM368 1856l8 -278l12 -10q10 68 13 117t4 83t4 57t11 43 q-2 0 -11 1t-18 1t-16 -3t-7 -11zM464 550q6 -8 20 -26t31 -36t35 -32t32 -14q6 0 16 -12t22 -26t22 -24t16 -6q-10 8 -32 36t-48 60t-52 57t-46 25h-8t-8 -2zM736 366q0 -12 27 -49t63 -78t70 -73t50 -32q31 0 31 8l-1 38q0 4 -8 6t-8 4l-120 70l-16 16t-36 37t-28 29z" />
<glyph unicode="l" horiz-adv-x="518" d="M24 1952l442 8l-110 -1956q0 -6 -11 -8q-7 -1 -16 -1h-10q-15 1 -29 3t-20 2zM92 1792q0 -2 1 -11t1 -11q2 -14 10 -59t15 -96t14 -95t11 -58q10 6 24 24t10 28l-32 256q-4 16 -24 19t-30 3zM158 1416q0 -92 38 -178v156q0 10 -15 16t-23 6zM196 1102q0 -12 2 -21t6 -5 q8 6 8 26t-8 26q-4 2 -6 -6t-2 -20zM214 990q0 -8 2 -14t6 -4q8 4 8 17t-8 17q-4 2 -6 -3t-2 -13zM222 1610q4 2 10 8t6 10q2 6 3 31t3 54t3 54t1 31h-24zM228 1199q0 -15 2 -27t6 -8q8 8 8 34t-8 36q-4 4 -6 -8t-2 -27zM248 1499q0 -11 8 -9t8 8t-8 8q-8 4 -8 -7zM251 224 q1 -14 4 -32t7 -32t8 -14t3 14t-4 32t-7 32t-8 14q-3 0 -3 -9v-5zM256 1800q0 -4 6 -11t10 -7t18 8t18 10h26q16 0 30 -3t14 -23q0 -2 -1 -5t-1 -5q-2 -6 -13 -44t-23 -83t-22 -83t-12 -46q-2 -2 -2 -4v-4v-4q0 -2 2 -4q14 20 35 63t40 94t33 101t14 84h-26q-16 0 -39 1 q-12 0 -23 0.5t-22 -0.5q-22 -1 -39 -9t-23 -26zM262 871q0 -7 2 -13t6 -4q10 4 10 17t-10 17q-4 2 -6 -4t-2 -13zM264 819q0 -9 6 -9q8 0 8 9t-8 9q-6 0 -6 -9zM288 52h18l-18 52v-52zM340 854q8 62 15 112t11 96t7 91t3 97q0 8 -1 34t-1 36q-12 -18 -23 -52t-11 -52v-362z " />
<glyph unicode="m" horiz-adv-x="1458" d="M12 1072l360 8q1 -56 1 -97v-37q-1 -50 -4 -77t-5 -35l-2 -8q26 20 65 63t81 84t80 70q31 24 52 24q4 0 8 -1q18 4 33 4q28 0 46 -14q29 -22 43 -73t14 -131t-10 -184q36 74 86 144t99 126t94 90t73 34q21 8 40 8q33 0 59 -24q41 -38 71 -117t52 -190t41 -236t38 -255 t43 -246l-316 -12q16 220 22 378q4 118 4 208v57q-2 107 -10 170t-19 97t-24 45t-27 13q-26 -10 -60 -40t-68 -71t-67 -90t-58 -96t-41 -88t-16 -67q0 -54 1 -103t4 -106t10 -130t17 -177l-150 6q14 258 22 430t8 280t-6 163t-18 76t-28 20t-36 -3q-36 -30 -74 -66t-72 -75 t-62 -77t-44 -70l-100 -678h-112zM82 978q0 -64 20 -122v122h-20zM188 960q2 -6 15 -19t19 -15l52 -276l18 34v258q0 40 -11 48t-39 8h-17t-20 -4t-15 -12q-4 -5 -4 -12q0 -4 2 -10zM196 78h16l46 464l-16 -18zM720 433q0 -9 8 -9q6 0 6 9t-6 9q-8 0 -8 -9zM740 184l4 -146 h20q0 40 -7 74t-17 72zM1210 192q22 0 40 6t18 34v18q-18 -8 -38 -21t-20 -37zM1234 462q0 -10 6 -24t13 -30t7 -26q24 0 19 12t-5 40q0 14 -6 26t-22 12q-12 0 -12 -10zM1234 556h22v34q-22 -10 -22 -34zM1254 82q0 -12 9 -19t21 -10t24 -3h18q0 10 -1 24t-4 26t-10 20 t-21 8q-20 0 -28 -14t-8 -32zM1272 314q4 -8 10 -8q8 0 8 10q0 6 -9 6q-11 0 -9 -8z" />
<glyph unicode="n" horiz-adv-x="962" d="M28 1066l318 6l-36 -260q48 32 100 77t106 86t111 69t119 28q8 1 16 1q52 0 78 -47q30 -54 39 -146q5 -55 5 -120q0 -43 -2 -91q-6 -119 -10 -241q-2 -70 -2 -136q0 -50 1 -99q3 -113 27 -193h-312q14 58 31 145t32 185t28 198t20 184q6 74 6 128v15q-1 59 -13 75 q-8 20 -22 34t-53 -2t-111 -72t-194 -172l-144 -714l-96 -8zM70 826q0 -34 5 -64t15 -64q14 16 16 29t2 31q0 20 -6 44t-32 24zM88 366q0 -18 2 -33t6 -9q8 10 8 43t-8 43q-4 4 -6 -11t-2 -33zM102 542q0 -4 1 -24t1 -26q12 30 24 66t12 72q0 2 -1 8t-1 8q-28 -18 -32 -46 t-4 -58zM104 988l18 -70q6 12 22 40t16 50q-4 0 -13 -1t-19 -4t-17 -7t-7 -8zM112 56q28 24 35 63q5 30 5 62v18q-2 41 -8 76t-4 53q0 4 -1 13t-1 13q-10 -16 -7 -48t5 -64t-1 -54t-23 -18v-114zM202 760l36 18q6 26 14 48q6 20 11 39t9 33q0 4 1 10t1 8h-20zM660 94h22 q4 0 8 10t6 24t3 29t1 23q0 4 -1 10t-1 8q-24 -12 -31 -46t-7 -58zM720 592h36v122l-7 -21t-11 -31t-10 -31t-6 -21q0 -2 -1 -8t-1 -10zM722 471q0 -9 6 -9q8 0 8 9t-8 9q-6 0 -6 -9zM738 268q0 -12 2 -21t6 -5q8 6 8 26t-8 26q-4 2 -6 -6t-2 -20zM740 87q0 -9 6 -9t6 9 t-6 9t-6 -9zM772 812q18 18 18 46v50v29t-2 31q0 -8 -3 -28t-5 -42t-5 -41t-3 -27v-10v-8zM774 522q0 -8 6 -8t6 8t-6 8t-6 -8z" />
<glyph unicode="o" horiz-adv-x="1038" d="M28 330q-14 66 -14 128t14 120q28 116 93 209t156 159t191 97q79 25 158 25q20 0 41 -2q99 -8 177 -61t126 -156t48 -263q-4 -132 -65 -245t-154 -193t-206 -119q-82 -28 -161 -28q-30 0 -60 4q-108 15 -200 93t-144 232zM92 494q20 0 35 16t25 38t15 46t5 40v10 q-38 -32 -59 -65t-21 -85zM136 432q0 -36 4 -62t32 -58q10 50 25 96t15 98q-10 0 -14 4t-5 7t-4 3t-11 -6q0 -4 -7 -16t-14 -25l-14 -26t-7 -15zM146 247q0 -7 2 -13t6 -4q8 4 8 17t-8 17q-4 2 -6 -4t-2 -13zM204 730q0 -4 1 -10t1 -8q12 8 24 18t12 26l-2 8q-22 2 -29 -8 t-7 -26zM210 158l40 -14q0 18 -4 35t-18 33q-12 -16 -15 -26t-3 -28zM274 419q4 -77 21 -145t49 -110t83 -51q9 -2 19 -1q45 0 104 32q62 48 101 138t53 191q8 54 8 108q0 46 -6 92q-12 99 -52 166t-109 86q-17 5 -37 5q-57 0 -132 -42q-22 -10 -42 -55t-35 -111t-22 -146 q-4 -51 -4 -101q0 -28 1 -56zM476 988q0 -8 6 -8t6 8t-6 8t-6 -8zM524 996q6 0 10 10q2 8 -9 8q-9 0 -9 -6q0 -12 8 -12zM620 1006q8 -10 28 -32t42 -46t41 -47t27 -31q2 -4 13 -19t22 -33t21 -33t12 -19q4 -2 10 -8l8 -8v8q0 16 -9 41t-21 49t-23 45t-17 29q-6 12 -18 29 t-22 34t-19 29l-9 12h-86zM672 178q30 16 53 50t39 74t24 83t8 77q0 8 -2 31t-2 29q-16 -78 -51 -160t-69 -150v-34zM852 687q0 -9 7 -9h3q8 2 8 8t-8 8q-3 1 -5 1q-5 0 -5 -8z" />
<glyph unicode="p" horiz-adv-x="1218" d="M-32 -994q26 84 51 214t47 289t42 340t38 366t35 367t33 342q-4 34 -17 66t-33 47t-45 3t-53 -64l-36 64q38 58 90 76q21 7 40 7q30 0 56 -16q44 -27 69 -104q15 -47 15 -114q0 -43 -6 -95q32 76 109 138t175 98t203 40h20q93 0 172 -34q87 -38 143 -127t56 -237 q-6 -158 -77 -291t-185 -222t-262 -127q-78 -20 -160 -20q-72 0 -148 16l52 -1008zM76 -799q0 -9 6 -9t6 9t-6 9t-6 -9zM116 -524v-16q12 22 24 53t22 63t17 62t7 54v8q-34 -46 -52 -106t-18 -118zM178 97q0 -9 8 -9q6 0 6 9t-6 9q-8 0 -8 -9zM214 -732q4 0 13 1t19 4t18 6 t8 9v120q-16 -22 -37 -64t-21 -76zM220 -100v-26l34 34v154q-16 -46 -25 -83t-9 -79zM236 -438q0 -2 1 -8t1 -8q32 8 34 36t2 50q0 6 -1 26t-1 26q-18 -26 -27 -58t-9 -64zM338 244q0 -78 24 -122t106 -44q80 0 147 47t118 122t86 168t50 186q11 66 11 127q0 25 -2 48 q-6 82 -37 134t-87 64q-12 2 -24 2q-49 0 -116 -36q-24 -12 -70 -42t-92 -104t-80 -205t-34 -345zM888 964l70 -68q0 4 1 17t1 17q0 22 -5 37t-33 15q-10 0 -20 -1t-14 -17zM970 416q0 -6 8 -8h2q6 0 6 9q0 11 -8 9q-8 -4 -8 -10zM1048 780q10 0 16 8t10 19t6 20t2 13 q0 10 -13 16t-21 6v-82z" />
<glyph unicode="q" horiz-adv-x="1208" d="M44 500v22q0 150 50 258q54 116 140 187t191 98q69 18 135 18q35 0 68 -5q98 -14 176 -68t110 -144q-9 57 -9 102q0 57 14 95q25 69 72 92q26 13 55 13q23 0 47 -8q55 -18 95 -66l-34 -74q-30 44 -59 56t-52 1t-38 -38t-17 -63q26 -158 56 -388t59 -499t57 -562t54 -575 l-450 -32l114 1234q-80 -92 -171 -130q-82 -34 -164 -34h-17q-90 4 -173 45t-149 110t-109 160t-51 195zM124 692q0 -4 3 -13t7 -18t11 -16t17 -3l-4 82q-8 -4 -21 -13t-13 -19zM246 290q8 4 7 10t-9 8q-7 -2 -7 -10q0 -13 9 -8zM244 816q0 -4 1 -17t1 -17l68 88 q-4 14 -14 13t-20 -5q-28 -8 -33 -24q-4 -11 -4 -26q0 -6 1 -12zM316 602q-3 -34 -3 -67q0 -55 8 -109q13 -88 48 -157t94 -111q56 -40 134 -40h7q88 2 142 62t79 150t25 196t-20 201t-55 164t-81 85q-48 17 -91 17q-32 0 -60 -9q-67 -22 -115 -77t-76 -136t-36 -169z M858 -434q0 -12 1 -25t4 -25t11 -19t24 -7q0 2 1 8t1 8q0 16 8 45t17 61t14 59t-5 37q0 -4 -11 -25t-26 -46t-27 -47t-12 -24zM870 -658l4 -120q0 -6 5 -22t11 -34t13 -31t11 -13q0 18 -5 51t-11 67t-13 63t-15 39zM984 -399q-2 -12 -2 -25q0 -15 3 -32q5 -30 16 -58t23 -48 l-2 16q0 28 16 67l32 78t25 74q3 12 3 21q0 20 -12 32l-82 -82q-16 -16 -20 -43zM986 228l2 -236l36 -24l-2 26q0 20 -3 52t-8 65t-11 64t-14 53zM1024 -944q2 2 11 24t16 49t12 48q4 15 4 18q0 2 -1 1q-4 0 -12 -23t-15 -49t-13 -47q-4 -13 -4 -18q0 -3 2 -3z" />
<glyph unicode="r" horiz-adv-x="888" d="M26 1024l500 50l-40 -120q72 72 139 89q32 8 60 8q31 0 58 -10q51 -19 82 -66t33 -106v-7q0 -56 -31 -113q-33 -61 -109 -109l-50 22q76 86 93 148q7 27 7 49q0 28 -12 47q-22 34 -71 40q-9 1 -19 1q-41 0 -85 -21q-55 -26 -105 -83t-72 -149q-28 -98 -41 -175t-18 -150 q-3 -46 -3 -93q0 -28 1 -57q3 -77 7 -177l-224 -34zM175 670q1 -58 4 -110t9 -68q6 16 12 68t10 110t7 110t3 70h-44q0 -18 -1 -70v-53.5v-56.5zM193 232q1 -22 5 -20t7 23t4 47t0 47t-5 23t-7 -21t-4 -50v-26v-23zM198 954l34 -34q16 6 19 26t3 30q-10 0 -30 -3t-26 -19z M248 188q10 40 19 87t15 86t2 41t-14 -38t-19 -90t-15 -90q-4 -24 -4 -33q0 -5 2 -5q3 0 14 42zM248 524q0 -4 1 -18t1 -18q32 38 33 91t1 99q0 2 1 18t2 34t2 33t1 17q-10 -30 -17 -64t-13 -68t-9 -66t-3 -58zM370 938q0 -24 4 -42t14 -46l34 138q-2 2 -8 3t-10 1 q-22 0 -28 -18t-6 -36z" />
<glyph unicode="s" horiz-adv-x="852" d="M6 300q10 74 82 146l34 -44q-12 -10 -30 -47q-16 -33 -16 -72v-9q2 -44 36 -86t122 -62q60 0 123 9t115 34t85 71t33 120q2 11 2 20q0 37 -31 60q-39 28 -103 45t-142 29t-145 33t-111 56q-42 33 -42 93v6q-5 23 -5 46q0 56 28 110q39 76 108 133t158 88q67 23 134 23 q22 0 43 -2q90 -4 145 -30t84 -66t34 -87q2 -16 2 -31q0 -31 -7 -62h-54q4 14 4 30t-4 35q-8 37 -30 71t-57 58t-83 26q-52 0 -99 -33t-83 -81t-59 -104t-27 -105q-1 -9 -1 -18q0 -37 14 -65q17 -34 59 -38q180 -16 281 -55t151 -88t62 -100t12 -89q-34 -100 -102 -154 t-148 -80t-160 -28h-38q-56 0 -98 4q-84 8 -152 50t-101 104q-25 48 -25 102q0 17 2 34zM166 661q0 -15 16 -29q0 8 3 39t6 67t6 66t3 40v6v8q-8 -12 -14 -35t-11 -47t-7 -47t-2 -37v-31zM226 78q6 0 28 -1t28 -1q44 0 74 3t70 25q-2 0 -9 1t-11 1q-46 0 -93 -9t-87 -19z M622 190q0 -6 6 -6q4 0 4 6t-4 6q-6 0 -6 -6zM650 457q0 -7 6 -7q4 0 4 7t-4 7q-6 0 -6 -7zM664 443q0 -7 6 -7t6 7t-6 7t-6 -7zM670 350h14v14z" />
<glyph unicode="t" horiz-adv-x="880" d="M32 1050v78l240 4l-112 818l434 16l-42 -816l300 8l-6 -74l-292 -12l-52 -1082l-116 2l-112 1068q-12 -4 -47 -5t-74 -1t-74 -1t-47 -3zM268 1876q2 -52 5 -114l6 -124t8 -119t11 -101l14 -88q0 42 -1 115t-3 154t-6 157t-12 122zM296 1285q0 -17 4 -40t8 -41t8 -12t4 21 t-3 31t-7 31t-8 21q-6 6 -6 -11zM305 1107q1 -7 4 -13t7 -4q8 4 6 17t-12 17q-4 2 -5 -4v-6v-7zM361 1676q-1 -16 -1 -26q0 -12 2 -12q4 0 10 39t11 86t7 85t-2 38t-9 -39t-10 -86t-8 -85zM390 318l46 -172q10 0 12 13t0 31t-6 36t-6 26q-4 22 -20 34t-26 32zM394 1056 q10 0 18 8t15 34t13 78t15 139t21 216t28 311v8q-2 8 -11 22q-5 8 -8 8q-2 0 -3 -4zM398 796l20 -368q8 54 10 125t2 138t-1 122v33q0 29 1 42l-8 6q-4 0 -9 -12t-8 -27t-5 -31t-2 -28zM484 912q0 -8 8 -8q6 0 6 8t-6 8q-8 0 -8 -8zM486 1015q2 -9 8 -9t6 6q0 12 -10 12 q-4 0 -4 -5v-4z" />
<glyph unicode="u" horiz-adv-x="998" d="M46 613q0 181 22 441l352 4q-64 -262 -97 -437t-44 -283q-7 -66 -7 -112q0 -29 3 -51q7 -55 21 -78t31 -25t29 -8q90 10 151 68t102 147t62 197t32 215t12 204t1 163l248 6l-52 -1062l-104 -6l-40 606q-16 -90 -51 -197t-91 -200t-133 -155t-179 -62q-17 -2 -34.5 -2 t-36.5 2q-37 4 -72 36t-64 100t-45 188t-16 301zM118 808v-6q0 -9 4 -20q14 28 33 64t19 74v18q-10 0 -21 -16t-17 -26q-2 -4 -2 -8v-12q0 -14 -4 -25t-7 -21t-5 -22zM136 498q0 -10 1 -39t1 -39q40 52 55 123t15 135v18q-38 -48 -55 -92t-17 -106zM156 282q-1 -8 -1 -17 q0 -16 4 -35q7 -30 19 -59t29 -55t35 -40q0 2 1 8t1 8q-44 38 -51 80q-3 15 -3 31q0 27 8 54q12 43 32 86t30 85v10q-4 -2 -20 -25t-34 -51t-34 -52t-16 -28zM256 938h20v34q-20 -14 -20 -34zM264 830q0 -16 1 -33t25 -17q14 26 18 53t4 55q-28 0 -38 -17t-10 -41zM832 163 q0 -11 2 -20q1 -6 4 -6q1 0 2 1q8 6 8 26t-8 26q-4 2 -6 -7t-2 -20zM849 609q1 -83 4 -166t3 -159q0 -8 1 -31t1 -29q2 4 3 24t1 44v44v26q2 20 3 66t2 105t1 125t1 128t2 112t5 78l-20 -44q-6 -76 -7 -158v-82v-83zM900 869q0 -9 6 -9h2q10 2 10 8t-10 10q-8 2 -8 -9z M908 1036l18 -106v88z" />
<glyph unicode="v" horiz-adv-x="1180" d="M6 1030l356 44l224 -842l290 856l272 -64q-100 -36 -173 -112t-126 -172t-90 -204t-63 -209t-44 -187t-36 -136l-136 -4zM164 926l86 -120h34q-16 6 -27 28t-20 48t-16 49t-15 31q-2 -2 -4 -2h-4q-10 -6 -23 -19t-11 -15zM256 682q0 -18 3 -40t10 -44t18 -41t29 -29 q0 2 8 5t8 5v18q-4 14 -9 34t-10 39t-10 33l-5 14zM364 755q0 -19 2 -34t6 -9q8 10 8 43t-8 43q-4 6 -6 -9t-2 -34zM372 642q2 -28 3 -36t3 -8t2 8q8 -20 11 -45t2 -44t-3 -29t-2 2q0 30 3 53t6 44t1 42t-10 49q-12 -8 -14 -11t-2 -13v-12zM412 426q0 -26 10 -44t26 -42 q0 2 1 8t1 8q0 22 -7 49t-29 37q0 -2 -1 -8t-1 -8zM440 268q0 -8 6 -8t6 8t-6 8t-6 -8zM456 243q0 -11 8 -9t8 8t-8 8q-8 4 -8 -7zM472 208q0 -12 8 -8q10 2 10 8t-10 8q-8 4 -8 -8zM490 173q0 -9 6 -9h2q8 4 8 10t-8 8t-8 -9zM834 818l88 120v8q0 26 -1 46t-25 20 q0 -28 -4 -41t-9 -21t-9 -16t-4 -22q0 -24 -18 -43t-18 -43v-8z" />
<glyph unicode="w" horiz-adv-x="1590" d="M26 1048l440 56l140 -858l196 266l-90 286l134 56l40 -232l146 212l38 -40l-160 -242l100 -352q2 74 20 161t47 178t65 179t74 163t74 131t66 82l236 -32q-46 -36 -118 -116t-145 -210t-136 -312t-93 -420l-126 -6l-144 466l-208 -290l12 -168l-152 -16zM178 930 q0 -4 2 -6q2 -6 10 -19t16 -28t15 -28t11 -19l20 100l-74 8v-8zM240 816q2 -6 10 -21t15 -32t14 -33t11 -22q2 -2 7 -8t7 -8q0 2 1 7t1 7q0 10 -4 28t-11 36t-18 32t-23 16q-2 -2 -4 -2h-6zM371 725q0 -13 7 -9q8 2 9 13t-7 15q-9 2 -9 -19zM381 825q0 -13 7 -13q8 4 9 15 t-7 15q-9 4 -9 -17zM391 458q0 -6 5 -6q8 2 9 7t-7 5q-7 5 -7 -6zM410 424q2 -6 6 -24t4 -22q4 -14 16 -46t24 -67t24 -67t16 -46q2 4 3 11t1 11q2 24 -4 61t-19 76t-31 74t-38 51q-2 0 -2 -2v-4v-6zM454 982q0 -6 6 -8q4 0 4 6t-4 6q-6 2 -6 -4zM464 866q14 2 16 9t4 17 q0 8 -2 16t-12 14zM476 688q12 4 15 11t3 17q2 2 1 8t-1 8q-12 -4 -15 -12t-3 -16v-16zM495 409q1 -27 25 -55v14v8q0 2 2 6q0 8 -3 29t-5 44t-5 44t-3 29q-4 -8 -6 -30t-4 -28q-1 -23 -1 -42v-19zM507 127q0 -5 4 -5h3q6 2 7 7t-5 7q-9 2 -9 -9zM816 724q-1 -7 -1 -14 q0 -14 3 -28q4 -20 20 -34q0 2 1 7t1 7q2 26 0 50t-4 52q-16 -2 -17 -16t-3 -24zM1097 406q0 -5 5 -6q4 0 5 6t-3 6q-7 2 -7 -6zM1118 434q2 4 9 16t13 25t11 25t5 16q6 18 21 64t31 98t30 97t20 63l-16 -12l-122 -348zM1332 842q4 6 16 28t26 48t24 51t12 39v8 q-16 -6 -29 -26t-23 -44t-16 -48t-8 -40q0 -4 -1 -9t-1 -7zM1349 978q0 -5 3 -5q2 0 4 1q8 0 8 5t-8 9h-2q-5 0 -5 -10z" />
<glyph unicode="x" horiz-adv-x="1016" d="M20 958l290 126l194 -440l232 440l156 -94l-324 -494q68 -186 128 -284t106 -134q34 -26 60 -27q9 0 18 4q32 13 45 49q8 21 8 45q0 17 -4 35q-9 44 -43 72q2 -2 10 3t17 11t17 11t8 3q62 -82 62 -147t-36 -102t-93 -43q-8 -1 -16 -1q-48 0 -95 31q-84 58 -144 144 t-118 190l-188 -360h-236l308 488zM182 798q2 -16 16 -32t30 -22q10 32 15 65q2 13 2 26q0 21 -5 41q-22 -4 -43 -29q-16 -19 -16 -38q0 -6 1 -11zM278 112l18 4l70 172q-46 -22 -67 -75t-21 -101zM302 892q12 10 19 29t3 37q0 6 -2 8zM306 730q0 -8 8 -10q8 24 7 40t-5 38 q-2 4 2 -4t4 -4q-6 -6 -8 -5t-1 4t4 2t5 -11q0 -4 -4 -14t-8 -19t-4 -17zM358 724q18 34 24 59t-4 59q0 4 -2 12t-4 12q-14 -43 -14 -86q0 -24 4 -48q2 -4 -1 -3t-3 -5zM370 620q4 -28 14 -45t38 -41q16 6 15 20t-5 26q-4 22 -15 50t-39 36q-13 -6 -13 -18.5t5 -27.5z M550 400q10 4 9 11t-11 7q-6 0 -6 -6q0 -15 8 -12zM584 322q6 2 4 11t-8 7q-3 -2 -3 -8q0 -12 7 -10zM606 310q4 2 3 10t-7 4q-6 0 -6 -5q0 -12 10 -9zM618 302q4 -22 28 -28l-6 32zM659 260q0 8 7 8q6 2 8 -7t-6 -9q-2 -1 -4 -1q-5 0 -5 9zM726 932q20 4 30 18t16 30 l-20 16q-12 -14 -21 -30q-6 -11 -6 -23q0 -5 1 -11z" />
<glyph unicode="y" horiz-adv-x="1290" d="M30 904l470 158l260 -920l412 926l98 -10q-46 -104 -103 -267t-118 -358t-122 -408t-113 -418t-92 -390t-60 -321l10 6l-484 150q30 42 76 119t99 173t108 201t100 204t76 183t39 136zM182 860q8 -10 27 -3t35 7q24 0 35 17t11 33q-28 0 -60 -15t-48 -39zM346 834 q2 -2 4 -2h4q18 0 23 20t5 34q0 2 -1 8t-1 10zM348 718q0 -20 38 -24v56q-14 0 -26 -9t-12 -23zM362 -888v-34h60q0 18 -18 26t-32 8h-10zM396 -802q0 -2 7 -8t11 -8t20 -4t20 -2q0 22 -3 48t-19 44zM446 681q0 -15 1 -32t1 -43l8 -58l5 14t10 33t10 40t9 35v6q0 4 1 6t1 4 v20t-3 24t-9 20t-16 8q-2 0 -2 -1t-2 -1h-4q-6 -26 -8 -43t-2 -32zM516 -776q0 -16 15 -24t25 -10v34h-40zM522 -466h18v34zM526 548q-2 1 -2 0t3 -5q5 -7 13 -16t17 -16t13 -5q4 0 0 7t-13 14l-18 14t-13 7zM530 437q0 -9 6 -9t6 9t-6 9t-6 -9zM546 419q0 -9 8 -9q6 0 9 5 t-9 13q-8 0 -8 -9zM572 -632q0 -16 6 -22t14 -11t17 -9t17 -16q16 46 26 83t10 81q0 4 -1 13t-1 13q-46 -14 -67 -51t-21 -81zM626 -448l34 -18q28 46 40 100t12 106v36q-30 -18 -45 -62t-23 -76q-4 -10 -6 -24t-6 -28q-4 -16 -6 -34zM670 -156q0 -8 8 -8q6 0 6 8t-6 8 q-8 0 -8 -8zM712 -86v-18q20 20 28 33t8 35v10t-2 8l-17 -34zM884 190l150 398q-24 -16 -50 -68t-49 -114t-37 -121t-14 -87v-8zM912 361q0 -9 6 -9q8 0 8 9t-8 9q-6 0 -6 -9z" />
<glyph unicode="z" horiz-adv-x="998" d="M24 774v286h926l-556 -868l574 100l14 -274l-956 -10l730 922zM126 844l342 90q-2 0 -8 1t-8 1q-42 0 -57 -4t-24 -8t-25 -8t-58 -4zM206 76q2 -8 8 -8t8 8q4 8 -8 8q-9 0 -9 -4q0 -2 1 -4zM275 225q-1 -5 -1 -9q0 -14 12 -22q10 6 22 22t24 33t23 34t21 27 q-20 2 -42 -12t-38 -33t-21 -40zM302 72q4 0 17 -1t17 -1q10 0 29 1t23 19q-10 18 -26 18q-2 0 -2 -1t-2 -1h-4l-12 -6t-16 -10t-15 -11t-9 -7zM416 360q16 0 31 15t21 25h-52v-40zM440 158q2 -10 12 -14t22 -5t22 0t12 1t13 -1t23 0t22 5t12 14h-138zM496 952q0 -8 6 -8 q8 0 8 8t-8 8q-6 0 -6 -8zM588 1006q0 -8 6 -8t6 8t-6 8t-6 -8zM622 1006q0 -8 6 -8q8 0 8 8t-8 8q-6 0 -6 -8zM654 158q2 0 8 -1t8 -1q48 0 66 9t38 31q-24 -10 -40 -9t-29 1t-25 -5t-26 -25zM680 1024q4 -8 17 -8t17 8q2 4 -4 6t-13 2t-13 -2q-4 -2 -4 -4v-2zM728 796 q6 -4 13 3t3 15t-14 -3q-6 -6 -6 -10q0 -3 4 -5zM750 106q6 0 29 -1t31 -1h50t44 20q-2 12 -13 16t-23 4t-23 -1t-13 -1q-22 0 -47 -1t-35 -35zM784 1026q2 -8 8 -8t8 8t-9 8q-8 0 -8 -4q0 -2 1 -4zM818 200q4 -14 14 -16t22 -2q30 14 33 28q1 3 1 6q0 10 -9 15q-6 4 -14 4 q-7 0 -16 -3q-19 -6 -31 -32z" />
<glyph unicode="{" horiz-adv-x="1016" d="M66 908v90q80 12 183 46t195 77t153 92t55 91q2 30 -26 47t-72 31t-94 34t-88 57t-57 97t1 158q12 56 64 113t128 107t169 89t187 58t179 15t145 -40l-38 -46q-58 24 -121 24t-116 -10t-86 -22t-31 -10q-96 -72 -136 -144t-43 -141t19 -133t47 -120t45 -102t12 -80 q-16 -54 -59 -93t-97 -70t-110 -59t-100 -64q28 -12 77 -18t96 -19t83 -38t38 -73q-20 -48 -56 -104t-73 -116t-67 -126t-42 -136t3 -145t71 -153q46 -46 102 -71t116 -34t118 -2t106 25q4 -14 8 -22q2 -6 6 -14l4 -8q-58 -42 -142 -58t-177 -9t-186 37t-168 83t-124 127 t-53 168q-4 78 29 144t84 121t112 99t113 80t85 64t29 50q12 26 -11 41t-69 22t-105 7t-119 -3t-113 -7t-83 -4zM184 310q0 -30 7 -65t24 -66t43 -52t64 -23v8q-82 74 -76 185t76 263v8q-30 -20 -55 -49t-43 -64t-29 -72t-11 -73zM308 310q2 10 18 57t40 105t53 113t59 79 v26q-30 -16 -61 -66t-55 -111t-39 -118t-15 -85zM424 1592q0 -20 9 -40t24 -37t35 -27t42 -10q0 42 -12 71t-12 69t9 76t9 74v8q-42 -36 -73 -81t-31 -103zM576 1832q0 -8 6 -8t6 8t-6 8t-6 -8zM600 1866q24 18 41 47t27 57q-24 -18 -41 -47t-27 -57z" />
<glyph unicode="|" horiz-adv-x="518" d="M38 2074l450 6l-140 -2172q0 -6 -11 -8t-26 -1t-29 3t-20 2zM92 1972q0 -2 1 -11t1 -11q2 -10 6 -47t9 -88t10 -109t10 -109t9 -89t6 -46q10 6 24 24t10 28l-32 436q-4 16 -24 19t-30 3zM158 1416q0 -92 38 -178v156q0 10 -15 16t-23 6zM196 1102q0 -12 2 -21t6 -5 q8 6 8 26t-8 26q-4 2 -6 -6t-2 -20zM214 990q0 -8 2 -14t6 -4q8 4 8 17t-8 17q-4 2 -6 -3t-2 -13zM222 1610q4 2 10 8t6 10q2 6 3 59t3 116t3 116t1 59h-24zM228 1199q0 -15 2 -27t6 -8q8 8 8 34t-8 36q-4 4 -6 -8t-2 -27zM248 1499q0 -11 8 -9t8 8t-8 8q-8 4 -8 -7z M251 224q1 -14 4 -32t7 -32t8 -14t3 14t-4 32t-7 32t-8 14t-3 -14zM256 1980q0 -4 6 -11t10 -7t18 8t18 10h26q16 0 30 -3t14 -23q0 -2 -1 -5t-1 -5q-2 -4 -7 -37t-12 -80t-16 -101t-16 -101t-12 -80t-7 -37q-2 -2 -2 -4v-4v-4q0 -2 2 -4q10 14 22 51t26 88t27 108t24 111 t17 97t6 67h-26q-16 0 -39 1t-45 0t-39 -9t-23 -26zM262 871q0 -7 2 -13t6 -4q10 4 10 17t-10 17q-4 2 -6 -4t-2 -13zM264 819q0 -9 6 -9q8 0 8 9t-8 9q-6 0 -6 -9zM280 8v-52h18zM340 854q8 62 15 112t11 96t7 91t3 97q0 8 -1 34t-1 36q-12 -18 -23 -52t-11 -52v-362z" />
<glyph unicode="}" horiz-adv-x="880" d="M-288 2068q60 36 145 40t179 -15t187 -58t169 -89t128 -107t64 -113q18 -98 0 -158t-56 -97t-88 -57t-94 -34t-72 -31t-26 -47q-4 -28 23 -60t75 -63t110 -60t128 -54t131 -43t119 -26v-90q-32 0 -84 4t-112 7t-119 3t-105 -7t-69 -22t-11 -41q-4 -22 29 -50t85 -64 t113 -80t112 -99t84 -121t29 -144q-4 -94 -53 -168t-124 -127t-168 -83t-186 -37t-177 9t-142 58q0 4 2 8q4 8 6 14q4 8 10 22q48 -18 106 -25t118 2t116 34t102 71q56 78 71 153t3 145t-42 136t-67 126t-73 116t-56 104q2 48 38 73t83 38t96 19t77 18q-44 36 -100 64 t-110 59t-97 70t-59 93q-8 34 12 80t45 102t47 120t19 133t-43 141t-136 144q2 -2 -31 10t-86 22t-116 10t-121 -24zM232 1968q10 -28 27 -57t41 -47q-10 28 -27 57t-41 47zM312 1830q0 -8 6 -8t6 8t-6 8t-6 -8zM366 1476q22 0 42 10t35 27t24 37t9 40q0 58 -31 103t-73 81 v-8q0 -38 9 -74t9 -76t-12 -69t-12 -71zM422 662q30 -24 59 -79t53 -113t39 -105t19 -57q0 28 -15 85t-39 118t-55 111t-61 66v-26zM578 102q38 2 64 23t42 52t24 66t8 65q0 36 -11 73t-29 72t-43 64t-55 49v-8q68 -152 75 -263t-75 -185v-8z" />
<glyph unicode="~" horiz-adv-x="1006" d="M94 564q-10 158 39 261t138 127t205 -41t238 -243q38 -38 66 -47t47 1t27 34t7 52t-13 54t-34 40l74 -8q40 -62 35 -123t-44 -98t-106 -41t-149 50q-84 90 -149 125t-114 36t-83 -24t-54 -57t-28 -61t-6 -37h-96zM248 822q6 10 19 16t28 7t28 -5t19 -22l-58 76 q-10 -12 -21 -36t-15 -36zM346 883q0 -9 4 -9t4 9t-4 9t-4 -9zM350 848q0 -6 6 -6t14 1t14 1t6 -6q2 -6 16 -18t31 -27t36 -32t35 -33q-10 48 -35 81t-52 48t-49 13t-22 -22z" />
<glyph unicode="&#xa1;" horiz-adv-x="696" d="M60 -42l146 1490l154 12l314 -1360zM124 100q32 0 47 14t25 44q-24 -2 -30 7t-6 25q0 30 7 48t16 35t16 37t7 52h-28l-7 -23t-15 -57t-16 -73t-14 -69q0 -4 -1 -20t-1 -20zM161 1703q-5 35 7 75t37 75t62 58t79 23q54 0 74 -50t9 -110t-54 -109t-117 -47q-46 2 -69 26 t-28 59zM246 58l2 -4v-4q36 10 62 41t42 63q-14 -4 -32 -14t-35 -24t-28 -29t-11 -29zM256 270q0 -6 2 -8l68 138q-28 -20 -49 -54t-21 -68v-8zM256 434q0 -14 2 -18l86 138v18q0 8 -3 27t-6 42t-6 42t-3 27l-16 -18q-2 -2 -9 -26t-15 -57t-16 -67t-12 -56q-2 -2 -2 -15v-19 v-18zM258 1692h8q16 0 28 16t20 38t11 43t3 33q0 4 -1 13t-1 13zM266 222q14 12 31 8t33 -10t29 -8t19 16q-10 -8 -29 -4t-37 10t-32 8t-14 -10v-10zM272 896q0 -14 1 -31t1 -31v-20q16 36 24 71t11 69t3 70v74v29t-1 44t-1 44v29q-12 -54 -20 -94t-12 -76t-5 -73t-1 -85 v-20zM284 1304q0 -6 8 -8t8 9t-8 9q-8 -4 -8 -10zM338 434q0 -8 6 -8t6 8t-6 8t-6 -8zM360 314q18 8 18 26v8q-18 -10 -18 -26v-8zM396 692l16 -16q0 4 1 17t1 17q0 34 -4 57t-14 63v-138zM448 400h38q0 34 -4 69t-18 69l-16 -18v-120zM466 160q0 -24 10 -13t22 35t25 52 t19 40q-46 -20 -61 -47t-15 -67zM476 210h76q0 26 -11 54t-25 50q-26 -18 -33 -47t-7 -57z" />
<glyph unicode="&#xa3;" horiz-adv-x="1380" d="M24 682l62 252l340 -46q-12 88 -9 202t23 233t59 233t100 204t145 145t196 55q108 0 180 -41t112 -105t48 -142t-16 -150t-78 -131t-138 -83q-4 0 -10 7t-12 16t-9 17t-1 10q36 24 63 67t44 92t22 99t-3 86q-16 62 -59 88t-98 10t-116 -76t-111 -171t-82 -277t-32 -392 l244 -24l-10 -114l-264 -4q-20 -234 -45 -360t-47 -160q124 38 233 52t208 1t190 -52t181 -105l-126 -196q-58 24 -116 58t-127 63t-150 50t-186 22t-235 -25t-296 -90l-48 60q104 62 168 136t102 157t58 174t40 187zM110 734q4 0 17 -1t17 -1q48 0 83 9t89 27q-6 4 -26 10 t-26 8q-12 2 -35 -2t-45 -10t-38 -12l-16 -6zM216 118h8q64 0 90 29t40 79q-14 -30 -54 -63t-84 -45zM244 809q0 -9 6 -9q8 0 8 9t-8 9q-6 0 -6 -9zM286 808h120l18 18h-36q-30 0 -50 -3t-52 -15zM372 154q2 -2 4 -2h4q14 6 34 67t40 144t38 172t29 152t13 83t-10 -36z M544 808h18v18h-18v-18zM552 1328q0 -4 1 -21t1 -21l86 310v34q-30 -18 -48 -57t-27 -83t-11 -88t-2 -74zM560 902q16 0 24 14t11 33t3 38v29q0 2 1 30t3 61t3 61t1 32q-4 -12 -12 -52t-15 -88t-13 -93t-6 -65zM614 1243q0 -11 8 -9q10 2 10 8t-10 8q-8 4 -8 -7zM624 186 q2 -4 36 -3t74 5t75 9t37 9t-34 3t-78 -5t-77 -9t-33 -9zM664 808q6 -8 26 -8t26 8q2 4 -6 6t-20 2t-21 -2t-5 -6zM790 154h42q38 0 63 3t67 15q-4 0 -17 1t-17 1q-40 0 -66 -4t-72 -16zM1062 68q6 -4 20 -7t31 -3t31 3t20 7t-11 6t-40 2t-40 -2t-11 -6zM1078 136q4 0 17 -1 t17 -1q10 0 29 1t23 19h-8h-8q-10 -2 -36 -8t-34 -10zM1102 1856q44 -52 66 -122t22 -136q0 -36 -10 -70t-10 -70q0 -6 -10 -17t-21 -24t-17 -23t0 -12q18 16 36 43t33 56t25 57t10 50q0 24 -4 69t-16 90t-35 78t-61 33h-4q-2 0 -4 -2z" />
<glyph unicode="&#xa5;" horiz-adv-x="1336" d="M8 1770l588 200l326 -538l320 550l70 -50l-352 -600l14 -170l190 6l-2 -322l-164 26l10 -120l136 -18l10 -174l-130 -6l46 -554l-662 18l122 516l-178 -8l-12 314l256 -34l30 128l-278 46l4 166l326 8l20 80q-172 130 -291 221t-196 150t-118 92t-60 49t-22 20zM130 1732 q2 -10 10 -18t18 -6q2 0 5 1t5 1l-38 32v-10zM184 1692q14 -18 28 -16h8q-10 18 -26 16h-10zM232 1659q0 -9 6 -9t6 9t-6 9t-6 -9zM258 1644q2 -8 8 -8t8 8t-9 8t-7 -8zM284 1800q2 -4 8 -9t10 -7q24 -16 63 -37t76 -42t64 -35t29 -14h16q-12 18 -34 48t-48 60t-52 52 t-46 22q-22 0 -49 -8t-37 -30zM292 1626q2 -8 8 -7t10 9q2 10 -9 9t-9 -11zM328 1612q2 -8 9 -7t9 9q0 8 -11 7t-7 -9zM356 1596q0 -8 6 -8q8 0 8 8t-8 8q-6 0 -6 -8zM386 1010h14q8 2 31 4t47 3t46 2t32 3q-40 16 -85 20t-85 4v-36zM391 1579q1 -9 9 -7q6 0 5 9t-7 9 q-8 -2 -7 -11zM422 1104q0 -8 4 -8t4 8t-4 8t-4 -8zM434 1564q2 -8 8 -7t10 9q2 8 -9 7t-9 -9zM442 594h102l2 8q-16 6 -32 7t-36 1h-36v-16zM454 692h114l2 4q-16 8 -27 24t-15 38h-74v-66zM460 1104q46 -4 74 -8t47 -9t36 -11t41 -10l8 38h-206zM486 1550q4 -8 10 -8t6 8 q4 8 -8 7t-8 -7zM530 174l2 -54q36 2 68 50t56 109t39 119t19 80q2 4 9 25l13 39l-48 -2q8 24 18 51t19 51t16 39t11 15h16q2 8 3 14t3 14l-62 8l-44 -194h-20zM540 1536q4 -8 17 -8t17 8q2 4 -4 6t-14 2t-13 -2t-3 -6zM554 1898q12 -24 28 -55t36 -62t41 -58t45 -41v16 l-116 202zM562 1639q0 -9 6 -9q6 2 6 11t-6 7q-6 0 -6 -9zM590 1023q0 -9 4 -9t4 9t-4 9t-4 -9zM590 1520q4 -8 11 -8t7 8q2 8 -9 8t-9 -8zM654 474l14 64l20 2q-12 -28 -21 -48t-13 -18zM662 266q32 20 42 60zM714 1655q0 -11 8 -9q10 4 10 10t-10 8q-8 2 -8 -9zM730 788 l54 -8q4 34 10 65t10 59l8 158zM750 202q0 -4 2 -17t2 -17q14 16 15 29t1 31q-2 4 -2 13v13q-18 -4 -18 -23v-29zM818 1062h4v8zM866 278l64 4q4 46 13 105t15 113q-36 -52 -66 -111t-26 -111zM872 1160h34q-8 16 -14 32t-6 20q-18 -18 -14 -52zM908 1062l6 -12q4 4 2 9 t-6 5q-2 0 -2 -2zM932 762l12 -2q-4 20 -4 24l-2 32q-6 -28 -6 -54zM936 706q0 -6 2 -8q4 0 8 8h-10zM936 1056h6l-2 2q-2 0 -4 -2zM940 956l6 6q-2 -2 -6 -2v-4zM978 1102l4 -46h76v66h-74q-2 -8 -6 -20zM990 958h78v16h-34h-24t-20 -2v-14zM1012 692h16t18 2l-34 4v-6z M1014 660l2 -26q26 -10 49 -21t33 -13h12l2 36q-26 0 -50 9t-48 15zM1066 694q0 -8 6 -8q4 0 4 8t-4 8q-6 0 -6 -8z" />
<glyph unicode="&#xa8;" horiz-adv-x="806" d="M53 1223q-1 37 18 74t50 65t70 42t79 4q58 -18 82 -50t23 -68t-23 -71t-54 -62t-71 -41t-73 -6q-54 16 -77 46t-24 67zM118 1202l40 52l-24 44zM254 1358l8 -68q2 -16 6 -30q4 -12 5 -25t3 -23l20 70zM433 1219q-1 37 18 74t50 65t70 42t79 4q58 -18 82 -50t23 -68 t-23 -71t-54 -62t-71 -41t-73 -6q-54 16 -77 46t-24 67zM498 1198l40 52l-24 44zM634 1354l8 -68q2 -16 6 -30q4 -12 5 -25t3 -23l20 70z" />
<glyph unicode="&#xad;" horiz-adv-x="924" d="M76 784l764 -60l4 -202l-758 -98zM172 536h114q-24 12 -41 14t-41 2h-32v-16zM182 636h114q-14 8 -28 24t-18 42h-68v-66zM316 635q0 -9 4 -9t4 9t-4 9t-4 -9zM360 684l24 -40q2 0 31 -2t45 -2q62 0 91 5t52 13t53 15t94 11h-390zM612 602q0 -8 4 -8t4 8t-4 8t-4 -8z M650 602q8 -2 29 -3t44 -2t44 -3t29 -4h12l2 34q-40 0 -81 -4t-79 -18zM768 683q0 -9 6 -9q4 0 4 9t-4 9q-6 0 -6 -9z" />
<glyph unicode="&#xaf;" horiz-adv-x="862" d="M24 1364l768 -18l4 -202l-768 -48zM124 1158h114q-24 12 -41 14t-41 2h-32v-16zM134 1258h114q-14 8 -28 24t-18 42h-68v-66zM268 1257q0 -9 4 -9t4 9t-4 9t-4 -9zM312 1306l24 -40q2 0 31 -2t45 -2q62 0 91 5t52 13t53 15t94 11h-390zM564 1224q0 -8 4 -8t4 8t-4 8 t-4 -8zM602 1224q8 -2 29 -3t44 -2t44 -3t29 -4h12l2 34q-40 0 -81 -4t-79 -18zM720 1305q0 -9 6 -9q4 0 4 9t-4 9q-6 0 -6 -9z" />
<glyph unicode="&#xb4;" horiz-adv-x="660" d="M44 1066l426 418l142 -230zM208 1188h18q4 0 22 14t43 34t56 42t61 40l-182 -112zM292 1174h18l236 102v52q-58 -34 -84 -50t-45 -29t-44 -28t-81 -47z" />
<glyph unicode="&#xb8;" horiz-adv-x="766" d="M134 -379q2 37 18 61t48 32t78 -10q-40 -4 -55 -32t-10 -61t26 -64t51 -43q58 4 96 31t53 64t8 81t-38 82t-87 66t-138 34l10 184h146l-10 -76q134 12 215 -34t114 -118t21 -157t-66 -150t-147 -97t-221 2q-38 22 -64 57t-38 73t-10 75zM376 -90q22 -18 58 -45t72 -27 q2 0 8 1t10 1q-24 28 -62 49t-72 23q-2 0 -7 -1t-7 -1zM482 -460q52 40 62 79t0 103q0 6 -19 20t-21 22q-2 -22 -1 -51t1 -59t-5 -60t-17 -54zM542 -178q6 -14 17 -28t23 -22v4q0 2 1 2t1 2q-2 12 -10 28t-24 16h-4q-2 0 -4 -2z" />
<glyph unicode="&#xbf;" horiz-adv-x="1368" d="M62 456q6 116 43 203t96 152t134 111t156 79t164 58t157 45l210 396h130l80 -638q-76 18 -170 3t-190 -52t-186 -95t-159 -127t-107 -145t-30 -154q4 -48 44 -92t103 -76t141 -51t157 -18t153 24t126 75t77 136t7 206l98 12q22 -162 -19 -270t-125 -172t-199 -86 t-237 -10t-241 54t-212 107t-149 148t-52 177zM130 476q0 -52 14 -101t56 -81q14 28 13 55t-6 54t-10 58t-3 69q0 6 9 32t19 57t19 57t11 32v8v8q-48 -52 -85 -114t-37 -134zM286 232q0 -22 36 -24v8v8q-2 8 -8 35t-10 35q-4 -6 -10 -26t-8 -26v-10zM302 516q0 -16 3 -25 t17 -25q22 14 37 43t15 51q0 16 -12 22t-26 6q-26 0 -30 -25t-4 -47zM408 638q-4 -8 8 -8t8 8q-2 8 -8 8t-8 -8zM417 720q-1 -4 1 -4q-4 -14 3 -17t13 -2t6 6t-16 5v8q0 12 -1 13t-3 -2t-3 -7zM418 802h10q12 0 21 4t21 14h-8q-12 0 -21 -4t-23 -14zM488 682q46 18 69 33 t23 65q-40 0 -60 -33t-32 -65zM556 940q-2 -8 9 -8t9 8t-8 8t-10 -8zM602 957q0 -9 6 -9q8 0 8 9t-8 9q-6 0 -6 -9zM636 975q0 -9 6 -9q8 0 8 9t-8 9q-6 0 -6 -9zM660 786l34 16h-34v-16zM850 924q-6 -4 11 -6t40 -2t41 2t12 6t-21 6t-31 2t-31 -2t-21 -6zM878 1130 q0 -8 6 -8t6 8t-6 8t-6 -8zM894 1165q0 -9 8 -9q6 0 6 9t-6 9q-8 0 -8 -9zM936 1704q-16 62 9 116t83 85t126 9q52 -20 75 -55t25 -74t-14 -78t-47 -67t-72 -40t-89 0q-80 42 -96 104zM970 1148q14 22 25 49t11 53q0 4 -1 10t-1 8l-7 -21t-11 -31t-10 -31t-6 -21v-8v-8z M998 1714q0 -22 13 -40t39 -18q46 0 84 23t56 63q-50 -46 -88 -52t-63 3t-36 20t-5 1zM1004 1078q10 -4 36 -10t34 -6h8h10v16h-88zM1016 1303q0 -9 6 -9t6 9t-6 9t-6 -9zM1032 1354q0 -8 8 -8q6 0 6 8t-6 8q-8 0 -8 -8zM1074 1148h34v120zM1102 1044q0 -8 6 -8q8 0 8 8 t-8 8q-6 0 -6 -8zM1108 958h18v16z" />
<glyph unicode="&#xc0;" horiz-adv-x="2830" d="M60 368q0 114 59 222t152 191t207 133t224 50q80 6 135 -25t83 -79t29 -107t-27 -109t-86 -83t-146 -31q-58 0 -86 25t-32 58t12 68t44 56t66 19t78 -40q0 -14 -11 -26t-31 -12q-28 24 -53 16t-37 -29t-3 -44t51 -27q64 0 105 26t60 64t18 80t-21 76t-58 52t-90 6 q-100 0 -202 -44t-185 -118t-136 -171t-53 -201q0 -84 22 -163t67 -140t112 -98t157 -37q98 8 193 87t180 215t159 323t135 412t104 481t67 532h58q12 -40 31 -114t43 -167t52 -193t56 -191t54 -162t46 -105l706 484l88 -98l-754 -484q16 -58 71 -140t133 -170t169 -171 t178 -143t162 -88t119 -2q54 14 91 41t60 61t33 75t12 81q-6 78 -41 140t-85 103t-109 62t-113 17t-97 -33t-61 -85q0 -26 22 -39t47 -12t47 14t22 39l54 -4q4 -62 -36 -94t-90 -33t-95 29t-49 92q12 78 61 127t118 67t148 4t149 -61t122 -127t66 -194q0 -112 -47 -210 t-126 -173t-182 -118t-213 -43q-96 18 -171 71t-134 129t-106 168t-87 189t-77 191t-77 176l-194 -130q-18 -72 -42 -167t-60 -196t-86 -201t-120 -181t-164 -138t-216 -71q-60 -12 -133 -3t-145 37t-140 76t-119 116t-82 154t-29 190zM604 -130q0 -10 8 -8q6 4 6 9t-6 7 q-8 2 -8 -8zM692 -138h48q30 0 66 14t69 37t55 54t22 65l-2 4v4q-14 -8 -48 -31t-73 -49t-73 -50t-48 -32q-10 -6 -16 -16zM994 202q0 -8 6 -8q4 0 4 8t-4 8q-6 0 -6 -8zM1032 218q6 -4 13 3t3 13q-4 8 -13 -2t-3 -14zM1094 448q0 -2 2 -4q16 10 28 30t19 44t11 47t6 41h-14 l-6 -17t-14 -40t-16 -48t-14 -41q-2 -2 -2 -4v-4v-4zM1128 266q2 0 8 -2t10 -2q14 0 25 14t18 34t12 39t9 31q-42 -18 -57 -46t-25 -68zM1130 2172l142 230l426 -418zM1196 2194l236 -102h18q-58 32 -82 47t-43 28t-45 29t-84 50v-52zM1224 596q0 -12 4 -25t22 -13t29 15 t17 36t8 42t2 35v18q-50 -8 -66 -37t-16 -71zM1274 832q0 -2 8 -2q36 0 55 44t27 101t8 112v75v19t-1 27t-1 27v17zM1334 2236q30 -18 60 -40t56 -42t44 -34t22 -14h18l-18 18zM1356 1624q0 -28 1 -80t4 -121t9 -139l18 32v16t1 31t1 34v27v37t-1 49t-1 43v23q-2 16 -8 40 t-10 24h-14q0 12 0 -16zM1436 946l116 88q0 2 -4 10t-15 36t-31 84t-52 152zM1758 694q0 -16 4 -36t12 -40t21 -36t29 -24h-16l64 32l-114 114v-10zM1888 508l32 34l-16 16zM1930 525q0 -7 6 -7t6 7t-6 7t-6 -7zM1962 492q0 -8 6 -8q8 0 8 8t-8 8q-6 0 -6 -8zM1986 250h6 q18 0 26 16h-8q-18 0 -24 -16zM2034 364q2 -2 4 -2h4h4q2 0 2 2q6 2 25 8t25 8l-50 48zM2048 154l18 -16l32 32h-4q-2 0 -4 2q-10 0 -19 -5t-23 -13zM2146 56q0 -4 7 -10t11 -6q12 0 29 9t33 22t29 26t21 23q-6 -2 -23 -8t-35 -14t-33 -15t-21 -9q-4 -2 -10 -8t-8 -10z M2146 266h8q16 0 37 3t21 23q0 14 -16 24zM2164 1316q10 6 35 20t54 29t54 29t35 20q16 12 16 24l-2 4v4q-52 -22 -106 -52t-86 -78zM2292 202l32 16h-4q-2 0 -4 2q-16 0 -24 -18zM2388 106l130 14l16 18q-4 16 -22 17t-28 1q-58 0 -96 -50z" />
<glyph unicode="&#xc1;" horiz-adv-x="2830" d="M60 368q0 114 59 222t152 191t207 133t224 50q80 6 135 -25t83 -79t29 -107t-27 -109t-86 -83t-146 -31q-58 0 -86 25t-32 58t12 68t44 56t66 19t78 -40q0 -14 -11 -26t-31 -12q-28 24 -53 16t-37 -29t-3 -44t51 -27q64 0 105 26t60 64t18 80t-21 76t-58 52t-90 6 q-100 0 -202 -44t-185 -118t-136 -171t-53 -201q0 -84 22 -163t67 -140t112 -98t157 -37q98 8 193 87t180 215t159 323t135 412t104 481t67 532h58q12 -40 31 -114t43 -167t52 -193t56 -191t54 -162t46 -105l706 484l88 -98l-754 -484q16 -58 71 -140t133 -170t169 -171 t178 -143t162 -88t119 -2q54 14 91 41t60 61t33 75t12 81q-6 78 -41 140t-85 103t-109 62t-113 17t-97 -33t-61 -85q0 -26 22 -39t47 -12t47 14t22 39l54 -4q4 -62 -36 -94t-90 -33t-95 29t-49 92q12 78 61 127t118 67t148 4t149 -61t122 -127t66 -194q0 -112 -47 -210 t-126 -173t-182 -118t-213 -43q-96 18 -171 71t-134 129t-106 168t-87 189t-77 191t-77 176l-194 -130q-18 -72 -42 -167t-60 -196t-86 -201t-120 -181t-164 -138t-216 -71q-60 -12 -133 -3t-145 37t-140 76t-119 116t-82 154t-29 190zM604 -130q0 -10 8 -8q6 4 6 9t-6 7 q-8 2 -8 -8zM692 -138h48q30 0 66 14t69 37t55 54t22 65l-2 4v4q-14 -8 -48 -31t-73 -49t-73 -50t-48 -32q-10 -6 -16 -16zM994 202q0 -8 6 -8q4 0 4 8t-4 8q-6 0 -6 -8zM1032 218q6 -4 13 3t3 13q-4 8 -13 -2t-3 -14zM1094 448q0 -2 2 -4q16 10 28 30t19 44t11 47t6 41h-14 l-6 -17t-14 -40t-16 -48t-14 -41q-2 -2 -2 -4v-4v-4zM1128 266q2 0 8 -2t10 -2q14 0 25 14t18 34t12 39t9 31q-42 -18 -57 -46t-25 -68zM1130 1984l426 418l142 -230zM1224 596q0 -12 4 -25t22 -13t29 15t17 36t8 42t2 35v18q-50 -8 -66 -37t-16 -71zM1274 832q0 -2 8 -2 q36 0 55 44t27 101t8 112v75v19t-1 27t-1 27v17zM1294 2106h18q4 0 22 14t43 34t56 42t61 40l-182 -112zM1356 1624q0 -28 1 -80t4 -121t9 -139l18 32v16t1 31t1 34v27v37t-1 49t-1 43v23q-2 16 -8 40t-10 24h-14q0 12 0 -16zM1378 2092h18l236 102v52q-58 -34 -84 -50 t-45 -29t-44 -28t-81 -47zM1436 946l116 88q0 2 -4 10t-15 36t-31 84t-52 152zM1758 694q0 -16 4 -36t12 -40t21 -36t29 -24h-16l64 32l-114 114v-10zM1888 508l32 34l-16 16zM1930 525q0 -7 6 -7t6 7t-6 7t-6 -7zM1962 492q0 -8 6 -8q8 0 8 8t-8 8q-6 0 -6 -8zM1986 250h6 q18 0 26 16h-8q-18 0 -24 -16zM2034 364q2 -2 4 -2h4h4q2 0 2 2q6 2 25 8t25 8l-50 48zM2048 154l18 -16l32 32h-4q-2 0 -4 2q-10 0 -19 -5t-23 -13zM2146 56q0 -4 7 -10t11 -6q12 0 29 9t33 22t29 26t21 23q-6 -2 -23 -8t-35 -14t-33 -15t-21 -9q-4 -2 -10 -8t-8 -10z M2146 266h8q16 0 37 3t21 23q0 14 -16 24zM2164 1316q10 6 35 20t54 29t54 29t35 20q16 12 16 24l-2 4v4q-52 -22 -106 -52t-86 -78zM2292 202l32 16h-4q-2 0 -4 2q-16 0 -24 -18zM2388 106l130 14l16 18q-4 16 -22 17t-28 1q-58 0 -96 -50z" />
<glyph unicode="&#xc2;" horiz-adv-x="2830" d="M60 368q0 114 59 222t152 191t207 133t224 50q80 6 135 -25t83 -79t29 -107t-27 -109t-86 -83t-146 -31q-58 0 -86 25t-32 58t12 68t44 56t66 19t78 -40q0 -14 -11 -26t-31 -12q-28 24 -53 16t-37 -29t-3 -44t51 -27q64 0 105 26t60 64t18 80t-21 76t-58 52t-90 6 q-100 0 -202 -44t-185 -118t-136 -171t-53 -201q0 -84 22 -163t67 -140t112 -98t157 -37q98 8 193 87t180 215t159 323t135 412t104 481t67 532h58q12 -40 31 -114t43 -167t52 -193t56 -191t54 -162t46 -105l706 484l88 -98l-754 -484q16 -58 71 -140t133 -170t169 -171 t178 -143t162 -88t119 -2q54 14 91 41t60 61t33 75t12 81q-6 78 -41 140t-85 103t-109 62t-113 17t-97 -33t-61 -85q0 -26 22 -39t47 -12t47 14t22 39l54 -4q4 -62 -36 -94t-90 -33t-95 29t-49 92q12 78 61 127t118 67t148 4t149 -61t122 -127t66 -194q0 -112 -47 -210 t-126 -173t-182 -118t-213 -43q-96 18 -171 71t-134 129t-106 168t-87 189t-77 191t-77 176l-194 -130q-18 -72 -42 -167t-60 -196t-86 -201t-120 -181t-164 -138t-216 -71q-60 -12 -133 -3t-145 37t-140 76t-119 116t-82 154t-29 190zM604 -130q0 -10 8 -8q6 4 6 9t-6 7 q-8 2 -8 -8zM692 -138h48q30 0 66 14t69 37t55 54t22 65l-2 4v4q-14 -8 -48 -31t-73 -49t-73 -50t-48 -32q-10 -6 -16 -16zM916 2112l370 446l318 -516l-44 -34l-260 432l-194 -456zM994 202q0 -8 6 -8q4 0 4 8t-4 8q-6 0 -6 -8zM1032 218q6 -4 13 3t3 13q-4 8 -13 -2 t-3 -14zM1060 2096q0 -10 20 -14q0 2 1 5t1 5q0 16 -10 20q-12 -4 -12 -16zM1094 448q0 -2 2 -4q16 10 28 30t19 44t11 47t6 41h-14l-6 -17t-14 -40t-16 -48t-14 -41q-2 -2 -2 -4v-4v-4zM1112 2142q4 -2 8 3t2 9t-8 -3t-2 -9zM1128 266q2 0 8 -2t10 -2q14 0 25 14t18 34 t12 39t9 31q-42 -18 -57 -46t-25 -68zM1142 2194q12 10 25 29t17 23q-10 -10 -24 -23t-18 -29zM1182 2329q0 -5 4 -5t4 5t-4 5t-4 -5zM1224 596q0 -12 4 -25t22 -13t29 15t17 36t8 42t2 35v18q-50 -8 -66 -37t-16 -71zM1274 832q0 -2 8 -2q36 0 55 44t27 101t8 112v75v19 t-1 27t-1 27v17zM1356 1624q0 -28 1 -80t4 -121t9 -139l18 32v16t1 31t1 34v27v37t-1 49t-1 43v23q-2 16 -8 40t-10 24h-14q0 12 0 -16zM1436 946l116 88q0 2 -4 10t-15 36t-31 84t-52 152zM1758 694q0 -16 4 -36t12 -40t21 -36t29 -24h-16l64 32l-114 114v-10zM1888 508 l32 34l-16 16zM1930 525q0 -7 6 -7t6 7t-6 7t-6 -7zM1962 492q0 -8 6 -8q8 0 8 8t-8 8q-6 0 -6 -8zM1986 250h6q18 0 26 16h-8q-18 0 -24 -16zM2034 364q2 -2 4 -2h4h4q2 0 2 2q6 2 25 8t25 8l-50 48zM2048 154l18 -16l32 32h-4q-2 0 -4 2q-10 0 -19 -5t-23 -13zM2146 56 q0 -4 7 -10t11 -6q12 0 29 9t33 22t29 26t21 23q-6 -2 -23 -8t-35 -14t-33 -15t-21 -9q-4 -2 -10 -8t-8 -10zM2146 266h8q16 0 37 3t21 23q0 14 -16 24zM2164 1316q10 6 35 20t54 29t54 29t35 20q16 12 16 24l-2 4v4q-52 -22 -106 -52t-86 -78zM2292 202l32 16h-4q-2 0 -4 2 q-16 0 -24 -18zM2388 106l130 14l16 18q-4 16 -22 17t-28 1q-58 0 -96 -50z" />
<glyph unicode="&#xc3;" horiz-adv-x="2830" d="M60 368q0 114 59 222t152 191t207 133t224 50q80 6 135 -25t83 -79t29 -107t-27 -109t-86 -83t-146 -31q-58 0 -86 25t-32 58t12 68t44 56t66 19t78 -40q0 -14 -11 -26t-31 -12q-28 24 -53 16t-37 -29t-3 -44t51 -27q64 0 105 26t60 64t18 80t-21 76t-58 52t-90 6 q-100 0 -202 -44t-185 -118t-136 -171t-53 -201q0 -84 22 -163t67 -140t112 -98t157 -37q98 8 193 87t180 215t159 323t135 412t104 481t67 532h58q12 -40 31 -114t43 -167t52 -193t56 -191t54 -162t46 -105l706 484l88 -98l-754 -484q16 -58 71 -140t133 -170t169 -171 t178 -143t162 -88t119 -2q54 14 91 41t60 61t33 75t12 81q-6 78 -41 140t-85 103t-109 62t-113 17t-97 -33t-61 -85q0 -26 22 -39t47 -12t47 14t22 39l54 -4q4 -62 -36 -94t-90 -33t-95 29t-49 92q12 78 61 127t118 67t148 4t149 -61t122 -127t66 -194q0 -112 -47 -210 t-126 -173t-182 -118t-213 -43q-96 18 -171 71t-134 129t-106 168t-87 189t-77 191t-77 176l-194 -130q-18 -72 -42 -167t-60 -196t-86 -201t-120 -181t-164 -138t-216 -71q-60 -12 -133 -3t-145 37t-140 76t-119 116t-82 154t-29 190zM604 -130q0 -10 8 -8q6 4 6 9t-6 7 q-8 2 -8 -8zM692 -138h48q30 0 66 14t69 37t55 54t22 65l-2 4v4q-14 -8 -48 -31t-73 -49t-73 -50t-48 -32q-10 -6 -16 -16zM978 2004q-10 158 36 264t128 133t191 -38t225 -247q46 -74 88 -82t66 22t23 84t-37 102h70q40 -62 33 -127t-47 -107t-106 -45t-140 59 q-94 78 -163 110t-118 32t-80 -22t-48 -50t-22 -54t-3 -34h-96zM994 202q0 -8 6 -8q4 0 4 8t-4 8q-6 0 -6 -8zM1032 218q6 -4 13 3t3 13q-4 8 -13 -2t-3 -14zM1094 448q0 -2 2 -4q16 10 28 30t19 44t11 47t6 41h-14l-6 -17t-14 -40t-16 -48t-14 -41q-2 -2 -2 -4v-4v-4z M1128 266q2 0 8 -2t10 -2q14 0 25 14t18 34t12 39t9 31q-42 -18 -57 -46t-25 -68zM1132 2262q6 10 19 16t28 7t28 -5t19 -22l-58 76q-10 -12 -21 -36t-15 -36zM1224 596q0 -12 4 -25t22 -13t29 15t17 36t8 42t2 35v18q-50 -8 -66 -37t-16 -71zM1230 2323q0 -9 4 -9t4 9t-4 9 t-4 -9zM1234 2288q0 -6 6 -6t14 1t14 1t6 -6q2 -6 16 -18t31 -27t36 -32t35 -33q-10 48 -35 81t-52 48t-49 13t-22 -22zM1274 832q0 -2 8 -2q36 0 55 44t27 101t8 112v75v19t-1 27t-1 27v17zM1356 1624q0 -28 1 -80t4 -121t9 -139l18 32v16t1 31t1 34v27v37t-1 49t-1 43v23 q-2 16 -8 40t-10 24h-14q0 12 0 -16zM1436 946l116 88q0 2 -4 10t-15 36t-31 84t-52 152zM1758 694q0 -16 4 -36t12 -40t21 -36t29 -24h-16l64 32l-114 114v-10zM1888 508l32 34l-16 16zM1930 525q0 -7 6 -7t6 7t-6 7t-6 -7zM1962 492q0 -8 6 -8q8 0 8 8t-8 8q-6 0 -6 -8z M1986 250h6q18 0 26 16h-8q-18 0 -24 -16zM2034 364q2 -2 4 -2h4h4q2 0 2 2q6 2 25 8t25 8l-50 48zM2048 154l18 -16l32 32h-4q-2 0 -4 2q-10 0 -19 -5t-23 -13zM2146 56q0 -4 7 -10t11 -6q12 0 29 9t33 22t29 26t21 23q-6 -2 -23 -8t-35 -14t-33 -15t-21 -9q-4 -2 -10 -8 t-8 -10zM2146 266h8q16 0 37 3t21 23q0 14 -16 24zM2164 1316q10 6 35 20t54 29t54 29t35 20q16 12 16 24l-2 4v4q-52 -22 -106 -52t-86 -78zM2292 202l32 16h-4q-2 0 -4 2q-16 0 -24 -18zM2388 106l130 14l16 18q-4 16 -22 17t-28 1q-58 0 -96 -50z" />
<glyph unicode="&#xc4;" horiz-adv-x="2830" d="M60 368q0 114 59 222t152 191t207 133t224 50q80 6 135 -25t83 -79t29 -107t-27 -109t-86 -83t-146 -31q-58 0 -86 25t-32 58t12 68t44 56t66 19t78 -40q0 -14 -11 -26t-31 -12q-28 24 -53 16t-37 -29t-3 -44t51 -27q64 0 105 26t60 64t18 80t-21 76t-58 52t-90 6 q-100 0 -202 -44t-185 -118t-136 -171t-53 -201q0 -84 22 -163t67 -140t112 -98t157 -37q98 8 193 87t180 215t159 323t135 412t104 481t67 532h58q12 -40 31 -114t43 -167t52 -193t56 -191t54 -162t46 -105l706 484l88 -98l-754 -484q16 -58 71 -140t133 -170t169 -171 t178 -143t162 -88t119 -2q54 14 91 41t60 61t33 75t12 81q-6 78 -41 140t-85 103t-109 62t-113 17t-97 -33t-61 -85q0 -26 22 -39t47 -12t47 14t22 39l54 -4q4 -62 -36 -94t-90 -33t-95 29t-49 92q12 78 61 127t118 67t148 4t149 -61t122 -127t66 -194q0 -112 -47 -210 t-126 -173t-182 -118t-213 -43q-96 18 -171 71t-134 129t-106 168t-87 189t-77 191t-77 176l-194 -130q-18 -72 -42 -167t-60 -196t-86 -201t-120 -181t-164 -138t-216 -71q-60 -12 -133 -3t-145 37t-140 76t-119 116t-82 154t-29 190zM604 -130q0 -10 8 -8q6 4 6 9t-6 7 q-8 2 -8 -8zM692 -138h48q30 0 66 14t69 37t55 54t22 65l-2 4v4q-14 -8 -48 -31t-73 -49t-73 -50t-48 -32q-10 -6 -16 -16zM994 202q0 -8 6 -8q4 0 4 8t-4 8q-6 0 -6 -8zM1032 218q6 -4 13 3t3 13q-4 8 -13 -2t-3 -14zM1055 2141q-1 37 18 74t50 65t70 42t79 4 q58 -18 82 -50t23 -68t-23 -71t-54 -62t-71 -41t-73 -6q-54 16 -77 46t-24 67zM1094 448q0 -2 2 -4q16 10 28 30t19 44t11 47t6 41h-14l-6 -17t-14 -40t-16 -48t-14 -41q-2 -2 -2 -4v-4v-4zM1120 2120l40 52l-24 44zM1128 266q2 0 8 -2t10 -2q14 0 25 14t18 34t12 39t9 31 q-42 -18 -57 -46t-25 -68zM1224 596q0 -12 4 -25t22 -13t29 15t17 36t8 42t2 35v18q-50 -8 -66 -37t-16 -71zM1256 2276l8 -68q2 -16 6 -30q4 -12 5 -25t3 -23l20 70zM1274 832q0 -2 8 -2q36 0 55 44t27 101t8 112v75v19t-1 27t-1 27v17zM1356 1624q0 -28 1 -80t4 -121 t9 -139l18 32v16t1 31t1 34v27v37t-1 49t-1 43v23q-2 16 -8 40t-10 24h-14q0 12 0 -16zM1435 2137q-1 37 18 74t50 65t70 42t79 4q58 -18 82 -50t23 -68t-23 -71t-54 -62t-71 -41t-73 -6q-54 16 -77 46t-24 67zM1436 946l116 88q0 2 -4 10t-15 36t-31 84t-52 152zM1500 2116 l40 52l-24 44zM1636 2272l8 -68q2 -16 6 -30q4 -12 5 -25t3 -23l20 70zM1758 694q0 -16 4 -36t12 -40t21 -36t29 -24h-16l64 32l-114 114v-10zM1888 508l32 34l-16 16zM1930 525q0 -7 6 -7t6 7t-6 7t-6 -7zM1962 492q0 -8 6 -8q8 0 8 8t-8 8q-6 0 -6 -8zM1986 250h6 q18 0 26 16h-8q-18 0 -24 -16zM2034 364q2 -2 4 -2h4h4q2 0 2 2q6 2 25 8t25 8l-50 48zM2048 154l18 -16l32 32h-4q-2 0 -4 2q-10 0 -19 -5t-23 -13zM2146 56q0 -4 7 -10t11 -6q12 0 29 9t33 22t29 26t21 23q-6 -2 -23 -8t-35 -14t-33 -15t-21 -9q-4 -2 -10 -8t-8 -10z M2146 266h8q16 0 37 3t21 23q0 14 -16 24zM2164 1316q10 6 35 20t54 29t54 29t35 20q16 12 16 24l-2 4v4q-52 -22 -106 -52t-86 -78zM2292 202l32 16h-4q-2 0 -4 2q-16 0 -24 -18zM2388 106l130 14l16 18q-4 16 -22 17t-28 1q-58 0 -96 -50z" />
<glyph unicode="&#xc5;" horiz-adv-x="2830" d="M60 368q0 114 59 222t152 191t207 133t224 50q80 6 135 -25t83 -79t29 -107t-27 -109t-86 -83t-146 -31q-58 0 -86 25t-32 58t12 68t44 56t66 19t78 -40q0 -14 -11 -26t-31 -12q-28 24 -53 16t-37 -29t-3 -44t51 -27q64 0 105 26t60 64t18 80t-21 76t-58 52t-90 6 q-100 0 -202 -44t-185 -118t-136 -171t-53 -201q0 -84 22 -163t67 -140t112 -98t157 -37q98 8 193 87t180 215t159 323t135 412t104 481t67 532h58q12 -40 31 -114t43 -167t52 -193t56 -191t54 -162t46 -105l706 484l88 -98l-754 -484q16 -58 71 -140t133 -170t169 -171 t178 -143t162 -88t119 -2q54 14 91 41t60 61t33 75t12 81q-6 78 -41 140t-85 103t-109 62t-113 17t-97 -33t-61 -85q0 -26 22 -39t47 -12t47 14t22 39l54 -4q4 -62 -36 -94t-90 -33t-95 29t-49 92q12 78 61 127t118 67t148 4t149 -61t122 -127t66 -194q0 -112 -47 -210 t-126 -173t-182 -118t-213 -43q-96 18 -171 71t-134 129t-106 168t-87 189t-77 191t-77 176l-194 -130q-18 -72 -42 -167t-60 -196t-86 -201t-120 -181t-164 -138t-216 -71q-60 -12 -133 -3t-145 37t-140 76t-119 116t-82 154t-29 190zM604 -130q0 -10 8 -8q6 4 6 9t-6 7 q-8 2 -8 -8zM692 -138h48q30 0 66 14t69 37t55 54t22 65l-2 4v4q-14 -8 -48 -31t-73 -49t-73 -50t-48 -32q-10 -6 -16 -16zM994 202q0 -8 6 -8q4 0 4 8t-4 8q-6 0 -6 -8zM1032 218q6 -4 13 3t3 13q-4 8 -13 -2t-3 -14zM1094 448q0 -2 2 -4q16 10 28 30t19 44t11 47t6 41h-14 l-6 -17t-14 -40t-16 -48t-14 -41q-2 -2 -2 -4v-4v-4zM1128 266q2 0 8 -2t10 -2q14 0 25 14t18 34t12 39t9 31q-42 -18 -57 -46t-25 -68zM1148 2207q2 59 34 117t82 101t113 61t129 -4q86 -52 119 -113t27 -119t-43 -109t-90 -85t-114 -46t-117 8q-78 28 -110 79t-30 110z M1224 596q0 -12 4 -25t22 -13t29 15t17 36t8 42t2 35v18q-50 -8 -66 -37t-16 -71zM1255 2208q7 -36 45 -68q18 -10 61 14t79 66t48 94t-32 100q-18 14 -47 8t-59 -26t-55 -51t-36 -66t-4 -71zM1274 832q0 -2 8 -2q36 0 55 44t27 101t8 112v75v19t-1 27t-1 27v17zM1356 1624 q0 -28 1 -80t4 -121t9 -139l18 32v16t1 31t1 34v27v37t-1 49t-1 43v23q-2 16 -8 40t-10 24h-14q0 12 0 -16zM1436 946l116 88q0 2 -4 10t-15 36t-31 84t-52 152zM1496 2154q34 24 49 56t18 66t0 65t-3 51q-8 -22 -14 -63t-13 -81t-16 -69t-21 -25zM1758 694q0 -16 4 -36 t12 -40t21 -36t29 -24h-16l64 32l-114 114v-10zM1888 508l32 34l-16 16zM1930 525q0 -7 6 -7t6 7t-6 7t-6 -7zM1962 492q0 -8 6 -8q8 0 8 8t-8 8q-6 0 -6 -8zM1986 250h6q18 0 26 16h-8q-18 0 -24 -16zM2034 364q2 -2 4 -2h4h4q2 0 2 2q6 2 25 8t25 8l-50 48zM2048 154 l18 -16l32 32h-4q-2 0 -4 2q-10 0 -19 -5t-23 -13zM2146 56q0 -4 7 -10t11 -6q12 0 29 9t33 22t29 26t21 23q-6 -2 -23 -8t-35 -14t-33 -15t-21 -9q-4 -2 -10 -8t-8 -10zM2146 266h8q16 0 37 3t21 23q0 14 -16 24zM2164 1316q10 6 35 20t54 29t54 29t35 20q16 12 16 24l-2 4 v4q-52 -22 -106 -52t-86 -78zM2292 202l32 16h-4q-2 0 -4 2q-16 0 -24 -18zM2388 106l130 14l16 18q-4 16 -22 17t-28 1q-58 0 -96 -50z" />
<glyph unicode="&#xc6;" horiz-adv-x="2986" d="M60 368q0 114 59 222t152 191t207 133t224 50q80 6 135 -25t83 -79t29 -107t-27 -109t-86 -83t-146 -31q-58 0 -86 25t-32 58t12 68t44 56t66 19t78 -40q0 -14 -11 -26t-31 -12q-28 24 -53 16t-37 -29t-3 -44t51 -27q64 0 105 26t60 64t18 80t-21 76t-58 52t-90 6 q-100 0 -202 -44t-185 -118t-136 -171t-53 -201q0 -84 22 -163t67 -140t112 -98t157 -37q78 6 161 57t168 138t169 208t160 271q-4 -6 -9 -24t-12 -39l-14 -42t-11 -35q-2 -2 -2 -4v-4v-4q0 -2 2 -4q16 10 28 30t19 44t11 47t6 41h-14q70 136 136 300t121 344t95 374t58 390 l1354 18l26 -248q-94 56 -192 80t-195 32t-195 6t-192 2l-88 -840l484 30l-8 -130l-474 -28l-108 -764q230 -10 395 31t277 99t180 119t106 95l-18 -442l-1194 -38l-20 876l-298 -160q-18 -72 -42 -167t-60 -196t-86 -201t-120 -181t-164 -138t-216 -71q-60 -12 -133 -3 t-145 37t-140 76t-119 116t-82 154t-29 190zM604 -130q0 -10 8 -8q6 4 6 9t-6 7q-8 2 -8 -8zM692 -138h48q30 0 66 14t69 37t55 54t22 65l-2 4v4q-14 -8 -48 -31t-73 -49t-73 -50t-48 -32q-10 -6 -16 -16zM994 202q0 -8 6 -8q4 0 4 8t-4 8q-6 0 -6 -8zM1032 218q6 -4 13 3 t3 13q-4 8 -13 -2t-3 -14zM1128 266q2 0 8 -2t10 -2q14 0 25 14t18 34t12 39t9 31q-42 -18 -57 -46t-25 -68zM1142 600q2 2 2 4t2 2q-2 -2 -2 -3t-2 -3zM1224 596q0 -12 4 -25t22 -13t29 15t17 36t8 42t2 35v18q-50 -8 -66 -37t-16 -71zM1274 832q0 -2 8 -2q22 0 37 17 t25 45t16 63t8 69zM1436 946l226 38q-2 34 0 94t3 129t2 139t-1 123t-7 82t-15 17zM1512 1314l4 8zM1513 1475q-3 -59 3 -121l18 32q18 18 26 52t10 71t1 72t-1 55q-2 16 -8 40t-10 24h-14q0 -6 -5 -38t-11 -80t-9 -107zM1752 1696q2 -4 2 -8q0 -8 2 -10q0 -6 4 -14t4 -10 q12 38 15 66t9 54t19 55t41 69h-82l-3 -23t-5 -55t-4 -67t-2 -57zM1753 1267q3 -57 14 -113t17 -80q0 -6 5 -22t5 -20q10 14 8 64t-5 111t1 117t26 82q-2 0 -4 2l-4 4q-40 0 -53 -44t-10 -101zM1775 568q3 -56 9 -108t13 -94t13 -60q2 -4 6 -14t6 -18q4 36 3 94t-2 125 t-2 140t1 143q-22 0 -33 -30t-14 -76t0 -102zM1778 988q2 -10 10 -14q8 0 5 11t-9 11q-8 2 -6 -8zM1876 1686q0 -2 2 -4q0 -2 2 -4q34 46 78 111t64 129l-106 2q10 -38 2 -66t-20 -54t-21 -53t-1 -61zM1895 1544q1 -20 5 -34q2 -4 4 -17t4 -17l46 154h-6q-2 0 -6 2 q-18 0 -28 -14t-15 -34t-4 -40zM1902 674l6 -22q2 16 10 57t16 86t15 86t9 57q4 10 5 35t1 35h-10q-20 0 -28 -24zM1922 274q10 8 14 14t0 18q0 4 -2 7t-2 5zM1932 363q4 -11 10 -13q8 0 6 11t-10 11q-10 2 -6 -9zM1954 1050q10 12 15 32t9 38q-16 -12 -19 -32t-5 -38z M1954 1675q2 -11 8 -11q10 0 7 11t-11 11q-6 0 -4 -11zM1978 1163q4 -11 10 -11q10 0 6 11t-12 11t-4 -11zM1988 1207q2 -11 10 -11q6 0 4 11t-10 11q-6 0 -4 -11zM1995 1252q3 -10 11 -10q10 0 8 10t-12 10t-7 -10zM2081 1740q3 -12 7 -12q10 0 7 12t-9 12q-8 0 -5 -12z M2376 142q4 0 24 -1t24 -1q98 -4 184 18t178 48q10 10 16 28t8 38q-28 -28 -81 -49t-112 -34t-116 -20t-89 -9q-8 0 -21 -7t-15 -11z" />
<glyph unicode="&#xc7;" horiz-adv-x="1308" d="M54 797q24 169 87 323t157 289t201 241t220 179t212 104t177 15t118 -88l-66 -46q-50 58 -124 48t-157 -72t-167 -167t-151 -235t-110 -277t-45 -293q-6 -158 33 -262t106 -158t154 -63t177 25t177 107t153 181l92 -24q-22 -62 -77 -140t-131 -156t-169 -146t-191 -112 t-197 -54t-187 30t-161 138t-121 270q-34 174 -10 343zM148 609q0 -13 8 -13t8 7t-8 11q-8 8 -8 -5zM174 652l112 288v18q-12 -20 -30 -53t-36 -73t-32 -82t-14 -80v-18zM196 384l16 -28q20 8 29 33t9 47v10q-6 -2 -16 -11t-19 -20t-15 -20t-4 -11zM206 502q18 8 38 38 t37 66t29 71t12 55v12q0 8 2 22t5 29t5 29t2 22q-4 -6 -11 -19t-9 -17q-6 -16 -22 -60t-34 -93t-33 -93t-21 -62zM276 190q0 -2 1 -9t1 -9q14 6 25 22t13 36q-2 0 -2 2v4v4q-20 -8 -29 -18t-9 -32zM302 356q0 -4 1 -11t1 -11l142 140l-18 42q-14 -18 -32 -39t-36 -43 t-34 -43t-24 -35zM306 994q2 -2 8 -4t8 -4q16 -4 26 10t16 35t9 42t3 31v10zM406 208l176 130q-6 12 -16 10t-20 2q-4 0 -24 -19t-44 -43t-45 -48t-27 -32zM436 98q2 0 5 -2t5 -2q14 -4 27 9t24 31t19 35t10 23q-24 -16 -48 -42t-42 -52zM476 -351q2 37 18 61t48 32t78 -10 q-40 -4 -55 -32t-10 -61t26 -64t51 -43q58 4 96 31t53 64t8 81t-38 82t-87 66t-138 34l10 184h146l-10 -76q134 12 215 -34t114 -118t21 -157t-66 -150t-147 -97t-221 2q-38 22 -64 57t-38 73t-10 75zM610 130q104 36 198 87t176 129q-36 -12 -72 -38t-74 -53t-76 -46 t-76 -15q-6 -8 -16 -13t-22 -9t-22 -9t-14 -13v-10q0 -2 -1 -5t-1 -5zM718 -62q22 -18 58 -45t72 -27q2 0 8 1t10 1q-24 28 -62 49t-72 23q-2 0 -7 -1t-7 -1zM824 -432q52 40 62 79t0 103q0 6 -19 20t-21 22q-2 -22 -1 -51t1 -59t-5 -60t-17 -54zM884 -150q6 -14 17 -28 t23 -22v4q0 2 1 2t1 2q-2 12 -10 28t-24 16h-4q-2 0 -4 -2z" />
<glyph unicode="&#xc8;" d="M30 1932l1260 24l26 -242q-96 54 -195 78t-198 32t-198 6t-195 2l-90 -816l492 28l-8 -126l-482 -26l-108 -742q156 -6 281 10t225 46t175 69t131 78t95 74t65 57l-18 -430l-1212 -36zM114 1630q2 -4 2 -8q0 -8 2 -10q0 -6 4 -14t4 -10q12 38 15 65t9 52t19 53t43 68h-84 l-3 -22t-5 -54t-4 -65t-2 -55zM115 1214q3 -56 14 -110t17 -78q0 -6 5 -22t5 -20q10 14 8 63t-5 108t1 114t26 79q-2 0 -4 2l-4 4q-40 0 -53 -42t-10 -98zM137 535q3 -55 9 -105t13 -91t13 -59q2 -4 6 -15t6 -17q4 36 3 92t-2 122t-2 137t1 137q-22 0 -33 -29t-14 -73t0 -99 zM140 942q2 -10 10 -14q8 0 5 11t-9 11q-8 2 -6 -8zM240 1620q0 -2 2 -4q0 -2 2 -4q34 46 79 108t65 124l-108 2q10 -36 2 -64t-20 -53t-21 -51t-1 -58zM259 1482q1 -20 5 -34q2 -4 4 -16t4 -16l46 150h-6q-2 0 -6 2q-18 0 -28 -14t-15 -33t-4 -39zM266 636l6 -20 q2 14 10 54t17 84t16 84t9 56q4 10 5 34t1 34h-12q-20 0 -28 -24zM286 248q10 8 14 14t0 18q0 4 -2 7t-2 5zM296 335q4 -11 10 -13q8 0 6 11t-10 11q-10 2 -6 -9zM318 1002q10 12 16 31t10 37q-16 -12 -20 -31t-6 -37zM318 1609q2 -11 10 -11q10 0 7 11t-13 11q-6 0 -4 -11z M344 1112q4 -10 10 -10q10 0 6 10t-12 10t-4 -10zM354 1155q2 -11 10 -11q6 0 4 11t-10 11q-6 0 -4 -11zM360 2218l142 230l426 -418zM361 1198q3 -10 11 -10q10 0 8 10t-12 10t-7 -10zM426 2240l236 -102h18q-58 32 -82 47t-43 28t-45 29t-84 50v-52zM447 1672q3 -12 9 -12 q10 0 7 12t-11 12t-5 -12zM564 2282q30 -18 60 -40t56 -42t44 -34t22 -14h18l-18 18zM748 120q4 0 24 -1t24 -1q100 -4 187 18t181 46q10 10 16 28t8 36q-28 -28 -81 -48t-114 -33t-118 -19t-91 -8q-8 0 -21 -7t-15 -11z" />
<glyph unicode="&#xc9;" d="M30 1932l1260 24l26 -242q-96 54 -195 78t-198 32t-198 6t-195 2l-90 -816l492 28l-8 -126l-482 -26l-108 -742q156 -6 281 10t225 46t175 69t131 78t95 74t65 57l-18 -430l-1212 -36zM114 1630q2 -4 2 -8q0 -8 2 -10q0 -6 4 -14t4 -10q12 38 15 65t9 52t19 53t43 68h-84 l-3 -22t-5 -54t-4 -65t-2 -55zM115 1214q3 -56 14 -110t17 -78q0 -6 5 -22t5 -20q10 14 8 63t-5 108t1 114t26 79q-2 0 -4 2l-4 4q-40 0 -53 -42t-10 -98zM137 535q3 -55 9 -105t13 -91t13 -59q2 -4 6 -15t6 -17q4 36 3 92t-2 122t-2 137t1 137q-22 0 -33 -29t-14 -73t0 -99 zM140 942q2 -10 10 -14q8 0 5 11t-9 11q-8 2 -6 -8zM240 1620q0 -2 2 -4q0 -2 2 -4q34 46 79 108t65 124l-108 2q10 -36 2 -64t-20 -53t-21 -51t-1 -58zM259 1482q1 -20 5 -34q2 -4 4 -16t4 -16l46 150h-6q-2 0 -6 2q-18 0 -28 -14t-15 -33t-4 -39zM266 636l6 -20 q2 14 10 54t17 84t16 84t9 56q4 10 5 34t1 34h-12q-20 0 -28 -24zM286 248q10 8 14 14t0 18q0 4 -2 7t-2 5zM296 335q4 -11 10 -13q8 0 6 11t-10 11q-10 2 -6 -9zM318 1002q10 12 16 31t10 37q-16 -12 -20 -31t-6 -37zM318 1609q2 -11 10 -11q10 0 7 11t-13 11q-6 0 -4 -11z M344 1112q4 -10 10 -10q10 0 6 10t-12 10t-4 -10zM354 1155q2 -11 10 -11q6 0 4 11t-10 11q-6 0 -4 -11zM361 1198q3 -10 11 -10q10 0 8 10t-12 10t-7 -10zM396 1984l426 418l142 -230zM447 1672q3 -12 9 -12q10 0 7 12t-11 12t-5 -12zM560 2106h18q4 0 22 14t43 34t56 42 t61 40l-182 -112zM644 2092h18l236 102v52q-58 -34 -84 -50t-45 -29t-44 -28t-81 -47zM748 120q4 0 24 -1t24 -1q100 -4 187 18t181 46q10 10 16 28t8 36q-28 -28 -81 -48t-114 -33t-118 -19t-91 -8q-8 0 -21 -7t-15 -11z" />
<glyph unicode="&#xca;" d="M30 1932l1260 24l26 -242q-96 54 -195 78t-198 32t-198 6t-195 2l-90 -816l492 28l-8 -126l-482 -26l-108 -742q156 -6 281 10t225 46t175 69t131 78t95 74t65 57l-18 -430l-1212 -36zM114 1630q2 -4 2 -8q0 -8 2 -10q0 -6 4 -14t4 -10q12 38 15 65t9 52t19 53t43 68h-84 l-3 -22t-5 -54t-4 -65t-2 -55zM115 1214q3 -56 14 -110t17 -78q0 -6 5 -22t5 -20q10 14 8 63t-5 108t1 114t26 79q-2 0 -4 2l-4 4q-40 0 -53 -42t-10 -98zM137 535q3 -55 9 -105t13 -91t13 -59q2 -4 6 -15t6 -17q4 36 3 92t-2 122t-2 137t1 137q-22 0 -33 -29t-14 -73t0 -99 zM140 942q2 -10 10 -14q8 0 5 11t-9 11q-8 2 -6 -8zM240 1620q0 -2 2 -4q0 -2 2 -4q34 46 79 108t65 124l-108 2q10 -36 2 -64t-20 -53t-21 -51t-1 -58zM259 1482q1 -20 5 -34q2 -4 4 -16t4 -16l46 150h-6q-2 0 -6 2q-18 0 -28 -14t-15 -33t-4 -39zM266 636l6 -20 q2 14 10 54t17 84t16 84t9 56q4 10 5 34t1 34h-12q-20 0 -28 -24zM286 248q10 8 14 14t0 18q0 4 -2 7t-2 5zM296 335q4 -11 10 -13q8 0 6 11t-10 11q-10 2 -6 -9zM318 1002q10 12 16 31t10 37q-16 -12 -20 -31t-6 -37zM318 1609q2 -11 10 -11q10 0 7 11t-13 11q-6 0 -4 -11z M336 2112l370 446l318 -516l-44 -34l-260 432l-194 -456zM344 1112q4 -10 10 -10q10 0 6 10t-12 10t-4 -10zM354 1155q2 -11 10 -11q6 0 4 11t-10 11q-6 0 -4 -11zM361 1198q3 -10 11 -10q10 0 8 10t-12 10t-7 -10zM447 1672q3 -12 9 -12q10 0 7 12t-11 12t-5 -12zM480 2096 q0 -10 20 -14q0 2 1 5t1 5q0 16 -10 20q-12 -4 -12 -16zM532 2142q4 -2 8 3t2 9t-8 -3t-2 -9zM562 2194q12 10 25 29t17 23q-10 -10 -24 -23t-18 -29zM602 2329q0 -5 4 -5t4 5t-4 5t-4 -5zM748 120q4 0 24 -1t24 -1q100 -4 187 18t181 46q10 10 16 28t8 36q-28 -28 -81 -48 t-114 -33t-118 -19t-91 -8q-8 0 -21 -7t-15 -11z" />
<glyph unicode="&#xcb;" d="M30 1932l1260 24l26 -242q-96 54 -195 78t-198 32t-198 6t-195 2l-90 -816l492 28l-8 -126l-482 -26l-108 -742q156 -6 281 10t225 46t175 69t131 78t95 74t65 57l-18 -430l-1212 -36zM114 1630q2 -4 2 -8q0 -8 2 -10q0 -6 4 -14t4 -10q12 38 15 65t9 52t19 53t43 68h-84 l-3 -22t-5 -54t-4 -65t-2 -55zM115 1214q3 -56 14 -110t17 -78q0 -6 5 -22t5 -20q10 14 8 63t-5 108t1 114t26 79q-2 0 -4 2l-4 4q-40 0 -53 -42t-10 -98zM137 535q3 -55 9 -105t13 -91t13 -59q2 -4 6 -15t6 -17q4 36 3 92t-2 122t-2 137t1 137q-22 0 -33 -29t-14 -73t0 -99 zM140 942q2 -10 10 -14q8 0 5 11t-9 11q-8 2 -6 -8zM240 1620q0 -2 2 -4q0 -2 2 -4q34 46 79 108t65 124l-108 2q10 -36 2 -64t-20 -53t-21 -51t-1 -58zM259 1482q1 -20 5 -34q2 -4 4 -16t4 -16l46 150h-6q-2 0 -6 2q-18 0 -28 -14t-15 -33t-4 -39zM266 636l6 -20 q2 14 10 54t17 84t16 84t9 56q4 10 5 34t1 34h-12q-20 0 -28 -24zM286 248q10 8 14 14t0 18q0 4 -2 7t-2 5zM296 335q4 -11 10 -13q8 0 6 11t-10 11q-10 2 -6 -9zM318 1002q10 12 16 31t10 37q-16 -12 -20 -31t-6 -37zM318 1609q2 -11 10 -11q10 0 7 11t-13 11q-6 0 -4 -11z M321 2141q-1 37 18 74t50 65t70 42t79 4q58 -18 82 -50t23 -68t-23 -71t-54 -62t-71 -41t-73 -6q-54 16 -77 46t-24 67zM344 1112q4 -10 10 -10q10 0 6 10t-12 10t-4 -10zM354 1155q2 -11 10 -11q6 0 4 11t-10 11q-6 0 -4 -11zM361 1198q3 -10 11 -10q10 0 8 10t-12 10 t-7 -10zM386 2120l40 52l-24 44zM447 1672q3 -12 9 -12q10 0 7 12t-11 12t-5 -12zM522 2276l8 -68q2 -16 6 -30q4 -12 5 -25t3 -23l20 70zM701 2137q-1 37 18 74t50 65t70 42t79 4q58 -18 82 -50t23 -68t-23 -71t-54 -62t-71 -41t-73 -6q-54 16 -77 46t-24 67zM748 120 q4 0 24 -1t24 -1q100 -4 187 18t181 46q10 10 16 28t8 36q-28 -28 -81 -48t-114 -33t-118 -19t-91 -8q-8 0 -21 -7t-15 -11zM766 2116l40 52l-24 44zM902 2272l8 -68q2 -16 6 -30q4 -12 5 -25t3 -23l20 70z" />
<glyph unicode="&#xcc;" horiz-adv-x="1032" d="M62 1880l6 82l942 10q0 -4 3 -17t4 -26t0 -25t-7 -14l-230 -12l-234 -1806l428 20l-2 -86l-896 -26l-8 74l310 18l-60 1812q10 2 -12 2q-20 0 -73 -1t-171 -5zM232 2172l142 230l426 -418zM298 2194l236 -102h18q-58 32 -82 47t-43 28t-45 29t-84 50v-52zM432 319 q2 -31 2 -39v-112q14 70 24 148t10 154q-18 0 -26 -27t-10 -60t0 -64zM434 700l16 42h-16v-42zM436 2236q30 -18 60 -40t56 -42t44 -34t22 -14h18l-18 18zM444 1072q0 -10 2 -41t4 -41q12 24 28 60t30 75t23 77t9 66l-2 4v4q-6 -4 -20 -19t-28 -35t-26 -39t-14 -29 q-2 -4 -4 -35t-2 -47zM464 1360q4 2 9 10t7 12q4 10 15 36t23 56t22 56t14 36h-4q-2 0 -4 2q-18 0 -33 -16t-26 -38t-17 -48t-6 -44v-62zM464 1690q2 6 10 34t18 60t20 58t16 26q2 0 8 -20t13 -46t12 -48t9 -24l-46 -80q6 6 21 39t33 71t33 70t21 38q6 8 13 11t12 6t8 9 t3 20h-22t-33 -1t-33 -2t-22 -1l-25 -5l-30 -6t-25 -6t-10 -5zM474 805q0 -11 6 -11q4 0 4 11t-4 11q-6 0 -6 -11zM494 374q28 0 34 25t10 55q6 30 14 74t16 91l16 94t15 86t11 63t4 26v40q-16 -16 -28 -37t-16 -47l-76 -432v-38zM494 844q16 16 23 38t7 46v22l-6 -18 t-9 -25t-9 -24t-6 -17v-10v-12zM518 309q0 -9 1 -16t5 -3q6 4 6 20t-6 20q-4 2 -5 -5t-1 -16zM582 1484q28 14 45 42t17 72v8q-22 -22 -37 -55t-25 -67zM640 1164q12 0 22 26t17 65t12 85t8 87t4 71t1 36q0 4 -1 16t-1 16q-8 -36 -19 -87t-20 -106t-16 -110t-7 -99z" />
<glyph unicode="&#xcd;" horiz-adv-x="1032" d="M62 1880l6 82l942 10q0 -4 3 -17t4 -26t0 -25t-7 -14l-230 -12l-234 -1806l428 20l-2 -86l-896 -26l-8 74l310 18l-60 1812q10 2 -12 2q-20 0 -73 -1t-171 -5zM232 1984l426 418l142 -230zM396 2106h18q4 0 22 14t43 34t56 42t61 40l-182 -112zM432 319q2 -31 2 -39v-112 q14 70 24 148t10 154q-18 0 -26 -27t-10 -60t0 -64zM434 700l16 42h-16v-42zM444 1072q0 -10 2 -41t4 -41q12 24 28 60t30 75t23 77t9 66l-2 4v4q-6 -4 -20 -19t-28 -35t-26 -39t-14 -29q-2 -4 -4 -35t-2 -47zM464 1360q4 2 9 10t7 12q4 10 15 36t23 56t22 56t14 36h-4 q-2 0 -4 2q-18 0 -33 -16t-26 -38t-17 -48t-6 -44v-62zM464 1690q2 6 10 34t18 60t20 58t16 26q2 0 8 -20t13 -46t12 -48t9 -24l-46 -80q6 6 21 39t33 71t33 70t21 38q6 8 13 11t12 6t8 9t3 20h-22t-33 -1t-33 -2t-22 -1l-25 -5l-30 -6t-25 -6t-10 -5zM474 805q0 -11 6 -11 q4 0 4 11t-4 11q-6 0 -6 -11zM480 2092h18l236 102v52q-58 -34 -84 -50t-45 -29t-44 -28t-81 -47zM494 374q28 0 34 25t10 55q6 30 14 74t16 91l16 94t15 86t11 63t4 26v40q-16 -16 -28 -37t-16 -47l-76 -432v-38zM494 844q16 16 23 38t7 46v22l-6 -18t-9 -25t-9 -24t-6 -17 v-10v-12zM518 309q0 -9 1 -16t5 -3q6 4 6 20t-6 20q-4 2 -5 -5t-1 -16zM582 1484q28 14 45 42t17 72v8q-22 -22 -37 -55t-25 -67zM640 1164q12 0 22 26t17 65t12 85t8 87t4 71t1 36q0 4 -1 16t-1 16q-8 -36 -19 -87t-20 -106t-16 -110t-7 -99z" />
<glyph unicode="&#xce;" horiz-adv-x="1032" d="M62 1880l6 82l942 10q0 -4 3 -17t4 -26t0 -25t-7 -14l-230 -12l-234 -1806l428 20l-2 -86l-896 -26l-8 74l310 18l-60 1812q10 2 -12 2q-20 0 -73 -1t-171 -5zM172 2112l370 446l318 -516l-44 -34l-260 432l-194 -456zM316 2096q0 -10 20 -14q0 2 1 5t1 5q0 16 -10 20 q-12 -4 -12 -16zM368 2142q4 -2 8 3t2 9t-8 -3t-2 -9zM398 2194q12 10 25 29t17 23q-10 -10 -24 -23t-18 -29zM432 319q2 -31 2 -39v-112q14 70 24 148t10 154q-18 0 -26 -27t-10 -60t0 -64zM434 700l16 42h-16v-42zM438 2329q0 -5 4 -5t4 5t-4 5t-4 -5zM444 1072 q0 -10 2 -41t4 -41q12 24 28 60t30 75t23 77t9 66l-2 4v4q-6 -4 -20 -19t-28 -35t-26 -39t-14 -29q-2 -4 -4 -35t-2 -47zM464 1360q4 2 9 10t7 12q4 10 15 36t23 56t22 56t14 36h-4q-2 0 -4 2q-18 0 -33 -16t-26 -38t-17 -48t-6 -44v-62zM464 1690q2 6 10 34t18 60t20 58 t16 26q2 0 8 -20t13 -46t12 -48t9 -24l-46 -80q6 6 21 39t33 71t33 70t21 38q6 8 13 11t12 6t8 9t3 20h-22t-33 -1t-33 -2t-22 -1l-25 -5l-30 -6t-25 -6t-10 -5zM474 805q0 -11 6 -11q4 0 4 11t-4 11q-6 0 -6 -11zM494 374q28 0 34 25t10 55q6 30 14 74t16 91l16 94t15 86 t11 63t4 26v40q-16 -16 -28 -37t-16 -47l-76 -432v-38zM494 844q16 16 23 38t7 46v22l-6 -18t-9 -25t-9 -24t-6 -17v-10v-12zM518 309q0 -9 1 -16t5 -3q6 4 6 20t-6 20q-4 2 -5 -5t-1 -16zM582 1484q28 14 45 42t17 72v8q-22 -22 -37 -55t-25 -67zM640 1164q12 0 22 26 t17 65t12 85t8 87t4 71t1 36q0 4 -1 16t-1 16q-8 -36 -19 -87t-20 -106t-16 -110t-7 -99z" />
<glyph unicode="&#xcf;" horiz-adv-x="1032" d="M62 1880l6 82l942 10q0 -4 3 -17t4 -26t0 -25t-7 -14l-230 -12l-234 -1806l428 20l-2 -86l-896 -26l-8 74l310 18l-60 1812q10 2 -12 2q-20 0 -73 -1t-171 -5zM157 2141q-1 37 18 74t50 65t70 42t79 4q58 -18 82 -50t23 -68t-23 -71t-54 -62t-71 -41t-73 -6 q-54 16 -77 46t-24 67zM222 2120l40 52l-24 44zM358 2276l8 -68q2 -16 6 -30q4 -12 5 -25t3 -23l20 70zM432 319q2 -31 2 -39v-112q14 70 24 148t10 154q-18 0 -26 -27t-10 -60t0 -64zM434 700l16 42h-16v-42zM444 1072q0 -10 2 -41t4 -41q12 24 28 60t30 75t23 77t9 66 l-2 4v4q-6 -4 -20 -19t-28 -35t-26 -39t-14 -29q-2 -4 -4 -35t-2 -47zM464 1360q4 2 9 10t7 12q4 10 15 36t23 56t22 56t14 36h-4q-2 0 -4 2q-18 0 -33 -16t-26 -38t-17 -48t-6 -44v-62zM464 1690q2 6 10 34t18 60t20 58t16 26q2 0 8 -20t13 -46t12 -48t9 -24l-46 -80 q6 6 21 39t33 71t33 70t21 38q6 8 13 11t12 6t8 9t3 20h-22t-33 -1t-33 -2t-22 -1l-25 -5l-30 -6t-25 -6t-10 -5zM474 805q0 -11 6 -11q4 0 4 11t-4 11q-6 0 -6 -11zM494 374q28 0 34 25t10 55q6 30 14 74t16 91l16 94t15 86t11 63t4 26v40q-16 -16 -28 -37t-16 -47 l-76 -432v-38zM494 844q16 16 23 38t7 46v22l-6 -18t-9 -25t-9 -24t-6 -17v-10v-12zM518 309q0 -9 1 -16t5 -3q6 4 6 20t-6 20q-4 2 -5 -5t-1 -16zM537 2137q-1 37 18 74t50 65t70 42t79 4q58 -18 82 -50t23 -68t-23 -71t-54 -62t-71 -41t-73 -6q-54 16 -77 46t-24 67z M582 1484q28 14 45 42t17 72v8q-22 -22 -37 -55t-25 -67zM602 2116l40 52l-24 44zM640 1164q12 0 22 26t17 65t12 85t8 87t4 71t1 36q0 4 -1 16t-1 16q-8 -36 -19 -87t-20 -106t-16 -110t-7 -99zM738 2272l8 -68q2 -16 6 -30q4 -12 5 -25t3 -23l20 70z" />
<glyph unicode="&#xd1;" horiz-adv-x="1834" d="M54 0l78 1938l186 8l898 -1474q-72 194 -130 380t-88 353t-26 310t54 250t154 172t274 79q98 6 169 -24t115 -84t62 -124t12 -141t-37 -136t-84 -110t-129 -62t-172 9q-52 16 -74 58t-17 86t36 79t89 37q-32 -24 -49 -54t-18 -57t13 -49t44 -34q58 4 97 42t57 92t16 115 t-24 113t-65 87t-107 35q-142 -32 -218 -110t-103 -188t-12 -245t54 -283t94 -302t109 -300q2 -6 15 -43t30 -87t38 -108t38 -108t30 -86t15 -42l-98 -6l-1044 1782l256 -1772zM134 144q2 -24 6 -48q6 0 18 2t23 4t20 5t9 7l-20 138q-26 -10 -38 -26t-16 -37t-2 -45z M180 426q20 8 31 28t15 45t3 51t-3 46q0 2 -1 8t-1 8l-16 -16zM226 1344q0 -2 2 -8t2 -8q14 30 25 71t7 75l-2 4q-2 2 -2 4q-10 -28 -23 -65t-9 -73zM244 1772l8 -52q16 4 16 22t-2 30h-22zM245 889q1 -9 7 -9q8 0 7 9t-9 9q-6 0 -5 -9zM256 931q2 -11 8 -7q8 2 7 8t-9 8 t-6 -9zM264 992q2 -8 5 -14t7 -4q6 4 5 18t-11 18q-4 2 -6 -4t0 -14zM271 1061q1 -7 4 -13t7 -4q6 4 4 17t-10 17q-4 2 -5 -4t0 -13zM275 1555q1 -9 7 -9t5 9t-7 9t-5 -9zM280 1633q2 -11 10 -9t7 8t-9 10q-10 2 -8 -9zM328 2032q-10 158 36 264t128 133t191 -38t225 -247 q46 -74 88 -82t66 22t23 84t-37 102h70q40 -62 33 -127t-47 -107t-106 -45t-140 59q-94 78 -163 110t-118 32t-80 -22t-48 -50t-22 -54t-3 -34h-96zM350 816q0 -10 6 -35t15 -53t16 -52t9 -34h20l-18 122q-26 42 -37 52t-11 0zM364 246q40 0 53 33t9 67q-2 6 -5 23t-3 21 q-20 -28 -40 -67t-14 -77zM412 144q44 0 38 42q-44 0 -38 -42zM482 2290q6 10 19 16t28 7t28 -5t19 -22l-58 76q-10 -12 -21 -36t-15 -36zM580 2351q0 -9 4 -9t4 9t-4 9t-4 -9zM584 2316q0 -6 6 -6t14 1t14 1t6 -6q2 -6 16 -18t31 -27t36 -32t35 -33q-10 48 -35 81t-52 48 t-49 13t-22 -22zM1494 1944q22 -18 58 -45t72 -27q2 0 8 1t10 1q-24 28 -62 49t-72 23q-2 0 -7 -1t-7 -1zM1630 1460q52 40 62 79t0 103q0 6 -4 29t-6 31q-2 -22 -6 -54t-10 -66t-15 -66t-21 -56zM1660 1856q6 -14 17 -28t23 -22v4q0 2 1 2t1 2q-2 12 -10 28t-24 16h-4 q-2 0 -4 -2z" />
<glyph unicode="&#xd2;" horiz-adv-x="1572" d="M36 770q-12 182 10 356t82 329t165 271t258 181t361 59q194 -38 321 -138t198 -239t91 -305t-2 -336t-81 -330t-144 -289t-191 -214t-224 -101q-52 -20 -122 -26t-147 5t-156 40t-150 81t-128 128t-91 178q-38 168 -50 350zM146 816q20 6 36 20t28 30q-2 2 -10 2t-8 -2 q-6 -4 -24 -24t-22 -26zM163 387q1 -9 9 -9q6 0 5 9t-7 9q-8 0 -7 -9zM177 422q1 -8 7 -8q8 0 7 8t-9 8q-6 0 -5 -8zM198 508q14 14 37 40t21 54q0 2 -1 5t-1 5q-22 -18 -35 -47t-21 -57zM200 284q6 -14 16 -28t26 -24l36 122q-12 -20 -31 -42t-47 -28zM326 724q0 -4 1 -13 t3 -13q20 40 34 66t26 70q4 16 3 49t-3 68t-3 67t3 48zM352 310q0 -2 1 -2t1 -2v-4q14 4 15 14t-1 20q0 2 -1 8t-1 10q-8 -14 -11 -23t-3 -21zM366 132q4 -2 13 -2h13q20 0 27 5t9 14t-1 24t-5 33q-2 0 -2 4v4q-22 -20 -30 -38t-24 -44zM390 628h34l-4 36zM411 467 q-1 -27 3 -63q0 -6 4 -26t4 -26l30 36l-16 138q-24 -32 -25 -59zM489 929q1 -155 23 -301t61 -262t96 -189t129 -83q140 30 240 122t162 222t88 286t21 315t-40 308t-95 265t-145 187t-189 73q-92 -38 -159 -132t-110 -222t-63 -281t-19 -308zM502 2172l142 230l426 -418z M518 266q-6 -34 1 -69t26 -59t48 -33t63 7zM568 2194l236 -102h18q-58 32 -82 47t-43 28t-45 29t-84 50v-52zM706 2236q30 -18 60 -40t56 -42t44 -34t22 -14h18l-18 18zM1112 1782l92 -72l116 -244q22 0 36 -5t18 19q-46 58 -64 103t-37 81t-53 65t-108 53zM1356 1326 q2 -12 9 -21t17 -15l-4 36h-22zM1376 1158q16 12 31 34t11 44v8q-10 -6 -17 -18t-13 -26t-9 -26t-3 -16zM1398 914q0 -2 2 -4q0 -2 2 -4q22 14 35 29t11 39q-2 4 -3 10t-5 8q-14 -14 -30 -35t-12 -43zM1443 1084q1 -8 7 -8t5 8t-7 8t-5 -8z" />
<glyph unicode="&#xd3;" horiz-adv-x="1572" d="M36 770q-12 182 10 356t82 329t165 271t258 181t361 59q194 -38 321 -138t198 -239t91 -305t-2 -336t-81 -330t-144 -289t-191 -214t-224 -101q-52 -20 -122 -26t-147 5t-156 40t-150 81t-128 128t-91 178q-38 168 -50 350zM146 816q20 6 36 20t28 30q-2 2 -10 2t-8 -2 q-6 -4 -24 -24t-22 -26zM163 387q1 -9 9 -9q6 0 5 9t-7 9q-8 0 -7 -9zM177 422q1 -8 7 -8q8 0 7 8t-9 8q-6 0 -5 -8zM198 508q14 14 37 40t21 54q0 2 -1 5t-1 5q-22 -18 -35 -47t-21 -57zM200 284q6 -14 16 -28t26 -24l36 122q-12 -20 -31 -42t-47 -28zM326 724q0 -4 1 -13 t3 -13q20 40 34 66t26 70q4 16 3 49t-3 68t-3 67t3 48zM352 310q0 -2 1 -2t1 -2v-4q14 4 15 14t-1 20q0 2 -1 8t-1 10q-8 -14 -11 -23t-3 -21zM366 132q4 -2 13 -2h13q20 0 27 5t9 14t-1 24t-5 33q-2 0 -2 4v4q-22 -20 -30 -38t-24 -44zM390 628h34l-4 36zM411 467 q-1 -27 3 -63q0 -6 4 -26t4 -26l30 36l-16 138q-24 -32 -25 -59zM489 929q1 -155 23 -301t61 -262t96 -189t129 -83q140 30 240 122t162 222t88 286t21 315t-40 308t-95 265t-145 187t-189 73q-92 -38 -159 -132t-110 -222t-63 -281t-19 -308zM502 1984l426 418l142 -230z M518 266q-6 -34 1 -69t26 -59t48 -33t63 7zM666 2106h18q4 0 22 14t43 34t56 42t61 40l-182 -112zM750 2092h18l236 102v52q-58 -34 -84 -50t-45 -29t-44 -28t-81 -47zM1112 1782l92 -72l116 -244q22 0 36 -5t18 19q-46 58 -64 103t-37 81t-53 65t-108 53zM1356 1326 q2 -12 9 -21t17 -15l-4 36h-22zM1376 1158q16 12 31 34t11 44v8q-10 -6 -17 -18t-13 -26t-9 -26t-3 -16zM1398 914q0 -2 2 -4q0 -2 2 -4q22 14 35 29t11 39q-2 4 -3 10t-5 8q-14 -14 -30 -35t-12 -43zM1443 1084q1 -8 7 -8t5 8t-7 8t-5 -8z" />
<glyph unicode="&#xd4;" horiz-adv-x="1572" d="M36 770q-12 182 10 356t82 329t165 271t258 181t361 59q194 -38 321 -138t198 -239t91 -305t-2 -336t-81 -330t-144 -289t-191 -214t-224 -101q-52 -20 -122 -26t-147 5t-156 40t-150 81t-128 128t-91 178q-38 168 -50 350zM146 816q20 6 36 20t28 30q-2 2 -10 2t-8 -2 q-6 -4 -24 -24t-22 -26zM163 387q1 -9 9 -9q6 0 5 9t-7 9q-8 0 -7 -9zM177 422q1 -8 7 -8q8 0 7 8t-9 8q-6 0 -5 -8zM198 508q14 14 37 40t21 54q0 2 -1 5t-1 5q-22 -18 -35 -47t-21 -57zM200 284q6 -14 16 -28t26 -24l36 122q-12 -20 -31 -42t-47 -28zM326 724q0 -4 1 -13 t3 -13q20 40 34 66t26 70q4 16 3 49t-3 68t-3 67t3 48zM352 310q0 -2 1 -2t1 -2v-4q14 4 15 14t-1 20q0 2 -1 8t-1 10q-8 -14 -11 -23t-3 -21zM366 132q4 -2 13 -2h13q20 0 27 5t9 14t-1 24t-5 33q-2 0 -2 4v4q-22 -20 -30 -38t-24 -44zM390 628h34l-4 36zM411 467 q-1 -27 3 -63q0 -6 4 -26t4 -26l30 36l-16 138q-24 -32 -25 -59zM442 2112l370 446l318 -516l-44 -34l-260 432l-194 -456zM489 929q1 -155 23 -301t61 -262t96 -189t129 -83q140 30 240 122t162 222t88 286t21 315t-40 308t-95 265t-145 187t-189 73q-92 -38 -159 -132 t-110 -222t-63 -281t-19 -308zM518 266q-6 -34 1 -69t26 -59t48 -33t63 7zM586 2096q0 -10 20 -14q0 2 1 5t1 5q0 16 -10 20q-12 -4 -12 -16zM638 2142q4 -2 8 3t2 9t-8 -3t-2 -9zM668 2194q12 10 25 29t17 23q-10 -10 -24 -23t-18 -29zM708 2329q0 -5 4 -5t4 5t-4 5t-4 -5z M1112 1782l92 -72l116 -244q22 0 36 -5t18 19q-46 58 -64 103t-37 81t-53 65t-108 53zM1356 1326q2 -12 9 -21t17 -15l-4 36h-22zM1376 1158q16 12 31 34t11 44v8q-10 -6 -17 -18t-13 -26t-9 -26t-3 -16zM1398 914q0 -2 2 -4q0 -2 2 -4q22 14 35 29t11 39q-2 4 -3 10t-5 8 q-14 -14 -30 -35t-12 -43zM1443 1084q1 -8 7 -8t5 8t-7 8t-5 -8z" />
<glyph unicode="&#xd5;" horiz-adv-x="1572" d="M36 770q-12 182 10 356t82 329t165 271t258 181t361 59q194 -38 321 -138t198 -239t91 -305t-2 -336t-81 -330t-144 -289t-191 -214t-224 -101q-52 -20 -122 -26t-147 5t-156 40t-150 81t-128 128t-91 178q-38 168 -50 350zM146 816q20 6 36 20t28 30q-2 2 -10 2t-8 -2 q-6 -4 -24 -24t-22 -26zM163 387q1 -9 9 -9q6 0 5 9t-7 9q-8 0 -7 -9zM177 422q1 -8 7 -8q8 0 7 8t-9 8q-6 0 -5 -8zM198 508q14 14 37 40t21 54q0 2 -1 5t-1 5q-22 -18 -35 -47t-21 -57zM200 284q6 -14 16 -28t26 -24l36 122q-12 -20 -31 -42t-47 -28zM326 724q0 -4 1 -13 t3 -13q20 40 34 66t26 70q4 16 3 49t-3 68t-3 67t3 48zM350 2004q-10 158 36 264t128 133t191 -38t225 -247q46 -74 88 -82t66 22t23 84t-37 102h70q40 -62 33 -127t-47 -107t-106 -45t-140 59q-94 78 -163 110t-118 32t-80 -22t-48 -50t-22 -54t-3 -34h-96zM352 310 q0 -2 1 -2t1 -2v-4q14 4 15 14t-1 20q0 2 -1 8t-1 10q-8 -14 -11 -23t-3 -21zM366 132q4 -2 13 -2h13q20 0 27 5t9 14t-1 24t-5 33q-2 0 -2 4v4q-22 -20 -30 -38t-24 -44zM390 628h34l-4 36zM411 467q-1 -27 3 -63q0 -6 4 -26t4 -26l30 36l-16 138q-24 -32 -25 -59zM489 929 q1 -155 23 -301t61 -262t96 -189t129 -83q140 30 240 122t162 222t88 286t21 315t-40 308t-95 265t-145 187t-189 73q-92 -38 -159 -132t-110 -222t-63 -281t-19 -308zM504 2262q6 10 19 16t28 7t28 -5t19 -22l-58 76q-10 -12 -21 -36t-15 -36zM518 266q-6 -34 1 -69t26 -59 t48 -33t63 7zM602 2323q0 -9 4 -9t4 9t-4 9t-4 -9zM606 2288q0 -6 6 -6t14 1t14 1t6 -6q2 -6 16 -18t31 -27t36 -32t35 -33q-10 48 -35 81t-52 48t-49 13t-22 -22zM1112 1782l92 -72l116 -244q22 0 36 -5t18 19q-46 58 -64 103t-37 81t-53 65t-108 53zM1356 1326 q2 -12 9 -21t17 -15l-4 36h-22zM1376 1158q16 12 31 34t11 44v8q-10 -6 -17 -18t-13 -26t-9 -26t-3 -16zM1398 914q0 -2 2 -4q0 -2 2 -4q22 14 35 29t11 39q-2 4 -3 10t-5 8q-14 -14 -30 -35t-12 -43zM1443 1084q1 -8 7 -8t5 8t-7 8t-5 -8z" />
<glyph unicode="&#xd6;" horiz-adv-x="1572" d="M36 770q-12 182 10 356t82 329t165 271t258 181t361 59q194 -38 321 -138t198 -239t91 -305t-2 -336t-81 -330t-144 -289t-191 -214t-224 -101q-52 -20 -122 -26t-147 5t-156 40t-150 81t-128 128t-91 178q-38 168 -50 350zM146 816q20 6 36 20t28 30q-2 2 -10 2t-8 -2 q-6 -4 -24 -24t-22 -26zM163 387q1 -9 9 -9q6 0 5 9t-7 9q-8 0 -7 -9zM177 422q1 -8 7 -8q8 0 7 8t-9 8q-6 0 -5 -8zM198 508q14 14 37 40t21 54q0 2 -1 5t-1 5q-22 -18 -35 -47t-21 -57zM200 284q6 -14 16 -28t26 -24l36 122q-12 -20 -31 -42t-47 -28zM326 724q0 -4 1 -13 t3 -13q20 40 34 66t26 70q4 16 3 49t-3 68t-3 67t3 48zM352 310q0 -2 1 -2t1 -2v-4q14 4 15 14t-1 20q0 2 -1 8t-1 10q-8 -14 -11 -23t-3 -21zM366 132q4 -2 13 -2h13q20 0 27 5t9 14t-1 24t-5 33q-2 0 -2 4v4q-22 -20 -30 -38t-24 -44zM390 628h34l-4 36zM411 467 q-1 -27 3 -63q0 -6 4 -26t4 -26l30 36l-16 138q-24 -32 -25 -59zM427 2141q-1 37 18 74t50 65t70 42t79 4q58 -18 82 -50t23 -68t-23 -71t-54 -62t-71 -41t-73 -6q-54 16 -77 46t-24 67zM489 929q1 -155 23 -301t61 -262t96 -189t129 -83q140 30 240 122t162 222t88 286 t21 315t-40 308t-95 265t-145 187t-189 73q-92 -38 -159 -132t-110 -222t-63 -281t-19 -308zM492 2120l40 52l-24 44zM518 266q-6 -34 1 -69t26 -59t48 -33t63 7zM628 2276l8 -68q2 -16 6 -30q4 -12 5 -25t3 -23l20 70zM807 2137q-1 37 18 74t50 65t70 42t79 4 q58 -18 82 -50t23 -68t-23 -71t-54 -62t-71 -41t-73 -6q-54 16 -77 46t-24 67zM872 2116l40 52l-24 44zM1008 2272l8 -68q2 -16 6 -30q4 -12 5 -25t3 -23l20 70zM1112 1782l92 -72l116 -244q22 0 36 -5t18 19q-46 58 -64 103t-37 81t-53 65t-108 53zM1356 1326q2 -12 9 -21 t17 -15l-4 36h-22zM1376 1158q16 12 31 34t11 44v8q-10 -6 -17 -18t-13 -26t-9 -26t-3 -16zM1398 914q0 -2 2 -4q0 -2 2 -4q22 14 35 29t11 39q-2 4 -3 10t-5 8q-14 -14 -30 -35t-12 -43zM1443 1084q1 -8 7 -8t5 8t-7 8t-5 -8z" />
<glyph unicode="&#xd8;" horiz-adv-x="1572" d="M2 50q4 2 12 16t23 42t40 74t65 114q-16 28 -31 59t-25 65q-38 168 -50 350t10 356t82 329t165 271t258 181t361 59q146 -32 248 -92q22 34 44 66t46 66l322 -154q-88 -114 -168 -216q62 -102 93 -224t34 -251t-19 -261t-64 -255t-102 -232t-133 -194t-158 -139t-175 -66 q-56 -22 -131 -27t-158 9t-166 50t-155 96q-70 -94 -92 -126t-22 -34zM122 84q10 -4 29 7t41 27q-2 4 -2 18q0 18 5 34t13 32q-4 8 -8 10q-28 -36 -50 -76t-28 -52zM146 816q20 6 36 20t28 30q-2 2 -10 2t-8 -2q-6 -4 -24 -24t-22 -26zM163 387q1 -9 9 -9q6 0 5 9t-7 9 q-8 0 -7 -9zM177 422q1 -8 7 -8q8 0 7 8t-9 8q-6 0 -5 -8zM198 508q14 14 37 40t21 54q0 2 -1 5t-1 5q-22 -18 -35 -47t-21 -57zM226 242q2 -2 3 -2t3 -2q4 4 6 10t6 10q-6 -4 -18 -16zM326 724q0 -4 1 -13t3 -13q20 40 34 66t26 70q2 14 2 44t-2 63t-3 64t1 51zM366 132 q4 -2 13 -2h13q20 0 27 5t9 14t-1 24t-5 33q-2 0 -2 4v4q-22 -20 -30 -38t-24 -44zM490 862q110 172 255 391t333 499q-52 56 -111 87t-127 33q-98 -40 -167 -141t-111 -241t-60 -303t-12 -325zM518 266q-6 -34 1 -69t26 -59t48 -33t63 7zM530 706q0 -8 6 -8q8 0 8 8t-8 8 q-6 0 -6 -8zM536 498q38 -168 104 -280t158 -124q124 26 216 101t154 183t96 239t42 271t-8 279t-52 263q-242 -316 -416 -543t-294 -389zM536 584q24 20 43 46t35 52t35 50t43 42l488 824q-4 6 -6 11t-6 11q-38 -46 -50 -64zM548 740q0 -8 6 -8t6 8t-6 8t-6 -8zM1220 1676 l2 -8l16 26zM1242 1820q8 -6 15 -12t15 -14q20 16 38 36t32 36q-8 4 -34 10t-36 8h-16q-4 -16 -7 -32t-7 -32zM1254 1602l34 30q-2 6 -6 14l-28 -42v-2zM1302 1502l18 -36q22 0 36 -5t18 19q-28 32 -42 60q-8 -10 -15 -19t-15 -19zM1336 1728q6 -6 12 -13t12 -15l120 114 q-10 22 -37 29t-49 7v-36zM1356 1326q2 -12 9 -21t17 -15l-4 36h-22zM1376 1158q16 12 31 34t11 44v8q-10 -6 -17 -18t-13 -26t-9 -26t-3 -16zM1398 914q0 -2 2 -4q0 -2 2 -4q22 14 35 29t11 39q-2 4 -3 10t-5 8q-14 -14 -30 -35t-12 -43zM1443 1084q1 -8 7 -8t5 8t-7 8 t-5 -8z" />
<glyph unicode="&#xd9;" horiz-adv-x="1792" d="M44 1950l672 -2l-8 -72l-128 -6q-8 -110 -17 -273t-12 -346t3 -370t27 -343t60 -266t103 -140q64 -32 126 -3t119 105t107 191t92 254t74 294t50 312t23 307t-7 278h-140v80l564 6v-86l-96 6q-16 -122 -28 -282t-20 -336t-14 -354t-10 -335t-6 -280t-4 -187l88 12 q16 -26 12 -51t-4 -53l-412 -12v90l208 10l-90 824q-30 -102 -60 -211t-70 -213t-93 -197t-127 -161t-173 -107t-231 -33q-146 22 -233 121t-134 250t-61 340t-14 390t5 401t-1 374l-134 -6zM250 1158q14 16 17 26t3 26q0 2 -1 8t-1 10q-16 -4 -17 -19t-1 -25v-26zM250 1418 q8 2 15 34t13 79t11 101t8 102t5 82t2 42l-24 -62zM266 960q0 -22 1 -42t19 -36q18 34 29 69t11 73q-30 0 -58 -20q0 -4 -1 -21t-1 -23zM300 728q0 -4 1 -10t1 -8q8 -36 16 -86t20 -103t28 -103t40 -88v70q-4 36 -13 92t-17 109t-15 90l-7 37h-54zM352 1453q0 -27 2 -27 t5 27t5 69t4 89t3 89t1 69t-2 27t-5 -27t-5 -69t-4 -89t-3 -89t-1 -69zM414 296q0 -8 3 -13t7 -3q8 4 8 17t-8 17q-4 2 -7 -4t-3 -14zM416 1313q0 -9 8 -9q6 0 6 9t-6 9q-8 0 -8 -9zM422 1004q0 -4 1 -10t1 -8q14 4 16 14t2 20q0 4 -1 10t-1 8q-14 -4 -16 -14t-2 -20z M440 1348q8 4 15 36t13 80t10 103t7 104t5 84t2 41v10q-6 -4 -13 -36t-12 -77t-10 -98t-9 -100t-6 -80t-2 -41v-26zM518 339q0 -11 8 -9q10 4 10 10t-10 8q-8 2 -8 -9zM542 270q0 -34 1 -70t11 -66t32 -49t62 -19v40l-104 208q0 -4 -1 -21t-1 -23zM612 2172l142 230 l426 -418zM678 2194l236 -102h18q-58 32 -82 47t-43 28t-45 29t-84 50v-52zM816 2236q30 -18 60 -40t56 -42t44 -34t22 -14h18l-18 18zM1474 1602q22 48 29 102t7 108v2q-6 -32 -12 -66t-12 -64t-9 -52t-3 -30zM1475 1336q1 -20 1 -32v-8q18 26 26 63t8 67v8q-16 -4 -24 -21 t-10 -37t-1 -40z" />
<glyph unicode="&#xda;" horiz-adv-x="1792" d="M44 1950l672 -2l-8 -72l-128 -6q-8 -110 -17 -273t-12 -346t3 -370t27 -343t60 -266t103 -140q64 -32 126 -3t119 105t107 191t92 254t74 294t50 312t23 307t-7 278h-140v80l564 6v-86l-96 6q-16 -122 -28 -282t-20 -336t-14 -354t-10 -335t-6 -280t-4 -187l88 12 q16 -26 12 -51t-4 -53l-412 -12v90l208 10l-90 824q-30 -102 -60 -211t-70 -213t-93 -197t-127 -161t-173 -107t-231 -33q-146 22 -233 121t-134 250t-61 340t-14 390t5 401t-1 374l-134 -6zM250 1158q14 16 17 26t3 26q0 2 -1 8t-1 10q-16 -4 -17 -19t-1 -25v-26zM250 1418 q8 2 15 34t13 79t11 101t8 102t5 82t2 42l-24 -62zM266 960q0 -22 1 -42t19 -36q18 34 29 69t11 73q-30 0 -58 -20q0 -4 -1 -21t-1 -23zM300 728q0 -4 1 -10t1 -8q8 -36 16 -86t20 -103t28 -103t40 -88v70q-4 36 -13 92t-17 109t-15 90l-7 37h-54zM352 1453q0 -27 2 -27 t5 27t5 69t4 89t3 89t1 69t-2 27t-5 -27t-5 -69t-4 -89t-3 -89t-1 -69zM414 296q0 -8 3 -13t7 -3q8 4 8 17t-8 17q-4 2 -7 -4t-3 -14zM416 1313q0 -9 8 -9q6 0 6 9t-6 9q-8 0 -8 -9zM422 1004q0 -4 1 -10t1 -8q14 4 16 14t2 20q0 4 -1 10t-1 8q-14 -4 -16 -14t-2 -20z M440 1348q8 4 15 36t13 80t10 103t7 104t5 84t2 41v10q-6 -4 -13 -36t-12 -77t-10 -98t-9 -100t-6 -80t-2 -41v-26zM518 339q0 -11 8 -9q10 4 10 10t-10 8q-8 2 -8 -9zM542 270q0 -34 1 -70t11 -66t32 -49t62 -19v40l-104 208q0 -4 -1 -21t-1 -23zM738 2038l426 418 l142 -230zM902 2160h18q4 0 22 14t43 34t56 42t61 40l-182 -112zM986 2146h18l236 102v52q-58 -34 -84 -50t-45 -29t-44 -28t-81 -47zM1474 1602q22 48 29 102t7 108v2q-6 -32 -12 -66t-12 -64t-9 -52t-3 -30zM1475 1336q1 -20 1 -32v-8q18 26 26 63t8 67v8q-16 -4 -24 -21 t-10 -37t-1 -40z" />
<glyph unicode="&#xdb;" horiz-adv-x="1792" d="M44 1950l672 -2l-8 -72l-128 -6q-8 -110 -17 -273t-12 -346t3 -370t27 -343t60 -266t103 -140q64 -32 126 -3t119 105t107 191t92 254t74 294t50 312t23 307t-7 278h-140v80l564 6v-86l-96 6q-16 -122 -28 -282t-20 -336t-14 -354t-10 -335t-6 -280t-4 -187l88 12 q16 -26 12 -51t-4 -53l-412 -12v90l208 10l-90 824q-30 -102 -60 -211t-70 -213t-93 -197t-127 -161t-173 -107t-231 -33q-146 22 -233 121t-134 250t-61 340t-14 390t5 401t-1 374l-134 -6zM250 1158q14 16 17 26t3 26q0 2 -1 8t-1 10q-16 -4 -17 -19t-1 -25v-26zM250 1418 q8 2 15 34t13 79t11 101t8 102t5 82t2 42l-24 -62zM266 960q0 -22 1 -42t19 -36q18 34 29 69t11 73q-30 0 -58 -20q0 -4 -1 -21t-1 -23zM300 728q0 -4 1 -10t1 -8q8 -36 16 -86t20 -103t28 -103t40 -88v70q-4 36 -13 92t-17 109t-15 90l-7 37h-54zM352 1453q0 -27 2 -27 t5 27t5 69t4 89t3 89t1 69t-2 27t-5 -27t-5 -69t-4 -89t-3 -89t-1 -69zM414 296q0 -8 3 -13t7 -3q8 4 8 17t-8 17q-4 2 -7 -4t-3 -14zM416 1313q0 -9 8 -9q6 0 6 9t-6 9q-8 0 -8 -9zM422 1004q0 -4 1 -10t1 -8q14 4 16 14t2 20q0 4 -1 10t-1 8q-14 -4 -16 -14t-2 -20z M440 1348q8 4 15 36t13 80t10 103t7 104t5 84t2 41v10q-6 -4 -13 -36t-12 -77t-10 -98t-9 -100t-6 -80t-2 -41v-26zM518 339q0 -11 8 -9q10 4 10 10t-10 8q-8 2 -8 -9zM542 270q0 -34 1 -70t11 -66t32 -49t62 -19v40l-104 208q0 -4 -1 -21t-1 -23zM552 2112l370 446 l318 -516l-44 -34l-260 432l-194 -456zM696 2096q0 -10 20 -14q0 2 1 5t1 5q0 16 -10 20q-12 -4 -12 -16zM748 2142q4 -2 8 3t2 9t-8 -3t-2 -9zM778 2194q12 10 25 29t17 23q-10 -10 -24 -23t-18 -29zM818 2329q0 -5 4 -5t4 5t-4 5t-4 -5zM1474 1602q22 48 29 102t7 108v2 q-6 -32 -12 -66t-12 -64t-9 -52t-3 -30zM1475 1336q1 -20 1 -32v-8q18 26 26 63t8 67v8q-16 -4 -24 -21t-10 -37t-1 -40z" />
<glyph unicode="&#xdc;" horiz-adv-x="1792" d="M44 1950l672 -2l-8 -72l-128 -6q-8 -110 -17 -273t-12 -346t3 -370t27 -343t60 -266t103 -140q64 -32 126 -3t119 105t107 191t92 254t74 294t50 312t23 307t-7 278h-140v80l564 6v-86l-96 6q-16 -122 -28 -282t-20 -336t-14 -354t-10 -335t-6 -280t-4 -187l88 12 q16 -26 12 -51t-4 -53l-412 -12v90l208 10l-90 824q-30 -102 -60 -211t-70 -213t-93 -197t-127 -161t-173 -107t-231 -33q-146 22 -233 121t-134 250t-61 340t-14 390t5 401t-1 374l-134 -6zM250 1158q14 16 17 26t3 26q0 2 -1 8t-1 10q-16 -4 -17 -19t-1 -25v-26zM250 1418 q8 2 15 34t13 79t11 101t8 102t5 82t2 42l-24 -62zM266 960q0 -22 1 -42t19 -36q18 34 29 69t11 73q-30 0 -58 -20q0 -4 -1 -21t-1 -23zM300 728q0 -4 1 -10t1 -8q8 -36 16 -86t20 -103t28 -103t40 -88v70q-4 36 -13 92t-17 109t-15 90l-7 37h-54zM352 1453q0 -27 2 -27 t5 27t5 69t4 89t3 89t1 69t-2 27t-5 -27t-5 -69t-4 -89t-3 -89t-1 -69zM414 296q0 -8 3 -13t7 -3q8 4 8 17t-8 17q-4 2 -7 -4t-3 -14zM416 1313q0 -9 8 -9q6 0 6 9t-6 9q-8 0 -8 -9zM422 1004q0 -4 1 -10t1 -8q14 4 16 14t2 20q0 4 -1 10t-1 8q-14 -4 -16 -14t-2 -20z M440 1348q8 4 15 36t13 80t10 103t7 104t5 84t2 41v10q-6 -4 -13 -36t-12 -77t-10 -98t-9 -100t-6 -80t-2 -41v-26zM518 339q0 -11 8 -9q10 4 10 10t-10 8q-8 2 -8 -9zM537 2141q-1 37 18 74t50 65t70 42t79 4q58 -18 82 -50t23 -68t-23 -71t-54 -62t-71 -41t-73 -6 q-54 16 -77 46t-24 67zM542 270q0 -34 1 -70t11 -66t32 -49t62 -19v40l-104 208q0 -4 -1 -21t-1 -23zM602 2120l40 52l-24 44zM738 2276l8 -68q2 -16 6 -30q4 -12 5 -25t3 -23l20 70zM917 2137q-1 37 18 74t50 65t70 42t79 4q58 -18 82 -50t23 -68t-23 -71t-54 -62t-71 -41 t-73 -6q-54 16 -77 46t-24 67zM982 2116l40 52l-24 44zM1118 2272l8 -68q2 -16 6 -30q4 -12 5 -25t3 -23l20 70zM1474 1602q22 48 29 102t7 108v2q-6 -32 -12 -66t-12 -64t-9 -52t-3 -30zM1475 1336q1 -20 1 -32v-8q18 26 26 63t8 67v8q-16 -4 -24 -21t-10 -37t-1 -40z" />
<glyph unicode="&#xdd;" horiz-adv-x="1342" d="M4 1770l588 200l326 -538l320 550l70 -50l-352 -600l110 -1332l-662 18l290 1216q-172 130 -291 221t-196 150t-118 92t-60 49t-22 20zM126 1732q2 -10 10 -18t18 -6q2 0 5 1t5 1l-38 32v-10zM180 1692q14 -18 28 -16h8q-10 18 -26 16h-10zM228 1659q0 -9 6 -9t6 9t-6 9 t-6 -9zM254 1644q2 -8 8 -8t8 8t-9 8t-7 -8zM280 1800q2 -4 8 -9t10 -7q24 -16 63 -37t76 -42t64 -35t29 -14h16q-12 18 -34 48t-48 60t-52 52t-46 22q-22 0 -49 -8t-37 -30zM288 1626q2 -8 8 -7t10 9q2 10 -9 9t-9 -11zM324 1612q2 -8 9 -7t9 9q0 8 -11 7t-7 -9zM352 1596 q0 -8 6 -8q8 0 8 8t-8 8q-6 0 -6 -8zM387 1579q1 -9 9 -7q6 0 5 9t-7 9q-8 -2 -7 -11zM430 1564q2 -8 8 -7t10 9q2 8 -9 7t-9 -9zM482 1550q4 -8 10 -8t6 8q4 8 -8 7t-8 -7zM526 174l2 -54q36 2 56 41t29 90t12 100t7 71q2 2 6 15t9 28t10 27t5 16q10 48 24 125t26 152 t21 132t9 63l-2 34zM536 1536q4 -8 17 -8t17 8q2 4 -4 6t-14 2t-13 -2t-3 -6zM550 1898q12 -24 28 -55t36 -62t41 -58t45 -41v16l-116 202zM558 1639q0 -9 6 -9q6 2 6 11t-6 7q-6 0 -6 -9zM586 1520q4 -8 11 -8t7 8q2 8 -9 8t-9 -8zM650 1984l426 418l142 -230zM658 266 q30 18 39 51t7 63v10zM710 1655q0 -11 8 -9q10 4 10 10t-10 8q-8 2 -8 -9zM746 202q0 -4 2 -17t2 -17q14 16 15 29t1 31q-2 4 -2 13v13q-18 -4 -18 -23v-29zM814 2106h18q4 0 22 14t43 34t56 42t61 40l-182 -112zM850 686q0 -6 2 -23t4 -21q8 2 22 11t28 20t23 23t9 18 l-10 174q-42 -60 -62 -102t-16 -100zM853 545q1 -11 7 -7q8 4 8 10t-8 8q-8 0 -7 -11zM856 918q2 -2 2 -8v-10q40 36 55 72t11 88q0 8 -4 34t-4 34q-38 -40 -50 -101t-10 -109zM862 278l64 4q4 64 8 108t0 98q0 4 -2 18t-2 18q-40 -60 -56 -115t-12 -131zM898 2092h18 l236 102v52q-58 -34 -84 -50t-45 -29t-44 -28t-81 -47z" />
<glyph unicode="&#xde;" horiz-adv-x="1226" d="M-30 -776l164 2056l196 42l-36 -528q32 76 109 138t175 98t203 40t192 -34t143 -127t56 -237q-6 -158 -77 -291t-185 -222t-262 -127t-308 -4l54 -790zM78 -581q0 -9 6 -9t6 9t-6 9t-6 -9zM116 -524v-16q12 22 24 53t22 63t17 62t7 54v8q-34 -46 -52 -106t-18 -118z M134 -18q10 0 20 24t19 60t15 78t10 78t3 60t-7 24q-2 0 -8 -24t-14 -60t-16 -78t-13 -78t-8 -60t-1 -24zM160 486l34 34l-14 570q-4 -16 -8 -61t-6 -104t-3 -126t-2 -126t-1 -103v-58v-26zM216 -514q0 18 6 3t15 -36t18 -39t17 -6l2 98q0 -6 -8 -9t-18 -6t-19 -4t-13 -1z M236 -438q0 -2 1 -8t1 -8q32 8 34 36t2 50q0 6 -1 26t-1 26q-18 -26 -27 -58t-9 -64zM338 244q0 -78 24 -122t106 -44q80 0 147 47t118 122t86 168t50 186t9 175t-37 134t-87 64t-140 -34q-24 -12 -70 -42t-92 -104t-80 -205t-34 -345zM888 964l70 -68q0 4 1 17t1 17 q0 22 -5 37t-33 15q-10 0 -20 -1t-14 -17zM970 416q0 -6 8 -8t8 9t-8 9q-8 -4 -8 -10zM1048 780q10 0 16 8t10 19t6 20t2 13q0 10 -13 16t-21 6v-82z" />
<glyph unicode="&#xdf;" horiz-adv-x="1322" d="M76 1484q2 112 26 195t74 149q30 38 91 74t143 63t176 41t188 9t181 -35t155 -90t108 -154t42 -230q0 -90 -34 -173t-83 -150t-102 -116t-89 -71q122 24 187 7t95 -51t36 -72t8 -54q2 -14 2 -53t-16 -94t-55 -123t-116 -141t-199 -148t-302 -145l-18 68q54 18 120 48 t133 71t130 95t110 121t72 148t19 177q-24 48 -51 69t-75 13t-125 -45t-199 -103l-52 86q186 106 286 211t145 191t51 142t6 66q-4 64 -39 129t-89 116t-123 81t-139 26t-137 -49t-119 -147q-48 -92 -74 -222t-36 -280t-9 -314t8 -326t16 -313t13 -277l-4 -22l-120 16 q-46 306 -87 550t-70 437t-45 340t-14 259zM134 1356q-4 -24 9 -17t31 28t38 47t32 38l-88 -72zM162 1560q36 6 45 9t14 14t13 36t40 75q-18 -22 -37 -33t-36 -21t-28 -27t-11 -53zM208 880q-2 -24 4 -19t18 33t28 66t32 82t30 84l-96 -160q-14 -62 -16 -86zM224 1294 q22 4 57 45t68 92t56 100t23 67v16q-32 -16 -51 -57t-19 -71l-21 -30t-46 -66t-46 -66zM260 1594q14 8 50 45t74 83t68 89t30 61h-20zM276 400q6 -76 14 -80t16 36t15 111t12 145t6 138t-1 92l-44 -342zM1078 1746q0 -2 16 -29t35 -57t35 -52t16 -14q6 12 -9 39t-36 54 t-39 46t-18 13zM1140 952q12 -2 22 -31t17 -65t11 -68t6 -40q6 0 8 13t1 29t-3 30t-2 18q0 16 -3 36t-10 37t-17 29t-24 12h-6zM1190 1465q0 -9 8 -9q6 0 6 9t-6 9q-8 0 -8 -9z" />
<glyph unicode="&#xe0;" d="M40 244q-4 94 29 204t93 213t143 189t177 131t194 39t198 -86l40 144l310 -30q-24 -64 -61 -151t-75 -183t-73 -194t-54 -184t-18 -152t35 -100q48 -22 95 -10t87 43t69 76t41 89l50 -76q-14 -52 -51 -95t-85 -75t-100 -50t-96 -18q-60 -2 -91 29t-46 76t-19 97t-10 94 q-96 -126 -249 -198t-339 -66q-98 18 -144 84t-50 160zM132 274q2 -24 8 -53t14 -53t12 -22t1 25t-9 50t-13 50t-11 25t-2 -22zM158 408q0 -14 9 -18t25 -8q10 28 15 45t5 41q0 4 -1 10t-1 8q-18 -14 -35 -35t-17 -43zM198 264q0 -12 15 -44t36 -65t43 -58t38 -25q4 0 16 2 t26 5t27 6t19 5q4 0 9 7t7 9q-44 12 -88 29t-84 41q0 -2 -10 13t-22 31zM278 380q0 -102 55 -154t155 -52q90 0 153 37t121 103q-4 12 0 49t12 86t19 106t20 111t16 100t7 72q-46 82 -109 103t-129 -2t-130 -81t-110 -137t-70 -168t-10 -173zM286 1262l142 230l426 -418z M352 1284l236 -102h18q-58 32 -82 47t-43 28t-45 29t-84 50v-52zM490 1326q30 -18 60 -40t56 -42t44 -34t22 -14h18l-18 18zM866 478l11 36t23 79t23 79t11 34l70 138q-2 0 -8 1t-10 1q-14 0 -28 -24t-27 -62t-25 -83t-21 -85t-14 -72t-5 -42zM928 966q2 0 11 7t18 16t15 17 t4 8q-4 0 -13 -8t-18 -17t-15 -16t-2 -7zM986 914q2 0 5 -1t5 -1q32 12 60 27t42 29t11 22t-31 4z" />
<glyph unicode="&#xe1;" d="M40 244q-4 94 29 204t93 213t143 189t177 131t194 39t198 -86l40 144l310 -30q-24 -64 -61 -151t-75 -183t-73 -194t-54 -184t-18 -152t35 -100q48 -22 95 -10t87 43t69 76t41 89l50 -76q-14 -52 -51 -95t-85 -75t-100 -50t-96 -18q-60 -2 -91 29t-46 76t-19 97t-10 94 q-96 -126 -249 -198t-339 -66q-98 18 -144 84t-50 160zM132 274q2 -24 8 -53t14 -53t12 -22t1 25t-9 50t-13 50t-11 25t-2 -22zM158 408q0 -14 9 -18t25 -8q10 28 15 45t5 41q0 4 -1 10t-1 8q-18 -14 -35 -35t-17 -43zM198 264q0 -12 15 -44t36 -65t43 -58t38 -25q4 0 16 2 t26 5t27 6t19 5q4 0 9 7t7 9q-44 12 -88 29t-84 41q0 -2 -10 13t-22 31zM278 380q0 -102 55 -154t155 -52q90 0 153 37t121 103q-4 12 0 49t12 86t19 106t20 111t16 100t7 72q-46 82 -109 103t-129 -2t-130 -81t-110 -137t-70 -168t-10 -173zM396 1066l426 418l142 -230z M560 1188h18q4 0 22 14t43 34t56 42t61 40l-182 -112zM644 1174h18l236 102v52q-58 -34 -84 -50t-45 -29t-44 -28t-81 -47zM866 478l11 36t23 79t23 79t11 34l70 138q-2 0 -8 1t-10 1q-14 0 -28 -24t-27 -62t-25 -83t-21 -85t-14 -72t-5 -42zM928 966q2 0 11 7t18 16t15 17 t4 8q-4 0 -13 -8t-18 -17t-15 -16t-2 -7zM986 914q2 0 5 -1t5 -1q32 12 60 27t42 29t11 22t-31 4z" />
<glyph unicode="&#xe2;" d="M40 244q-4 94 29 204t93 213t143 189t177 131t194 39t198 -86l40 144l310 -30q-24 -64 -61 -151t-75 -183t-73 -194t-54 -184t-18 -152t35 -100q48 -22 95 -10t87 43t69 76t41 89l50 -76q-14 -52 -51 -95t-85 -75t-100 -50t-96 -18q-60 -2 -91 29t-46 76t-19 97t-10 94 q-96 -126 -249 -198t-339 -66q-98 18 -144 84t-50 160zM132 274q2 -24 8 -53t14 -53t12 -22t1 25t-9 50t-13 50t-11 25t-2 -22zM158 408q0 -14 9 -18t25 -8q10 28 15 45t5 41q0 4 -1 10t-1 8q-18 -14 -35 -35t-17 -43zM198 264q0 -12 15 -44t36 -65t43 -58t38 -25q4 0 16 2 t26 5t27 6t19 5q4 0 9 7t7 9q-44 12 -88 29t-84 41q0 -2 -10 13t-22 31zM278 380q0 -102 55 -154t155 -52q90 0 153 37t121 103q-4 12 0 49t12 86t19 106t20 111t16 100t7 72q-46 82 -109 103t-129 -2t-130 -81t-110 -137t-70 -168t-10 -173zM336 1194l370 446l318 -516 l-44 -34l-260 432l-194 -456zM480 1178q0 -10 20 -14q0 2 1 5t1 5q0 16 -10 20q-12 -4 -12 -16zM532 1224q4 -2 8 3t2 9t-8 -3t-2 -9zM562 1276q12 10 25 29t17 23q-10 -10 -24 -23t-18 -29zM602 1411q0 -5 4 -5t4 5t-4 5t-4 -5zM866 478l11 36t23 79t23 79t11 34l70 138 q-2 0 -8 1t-10 1q-14 0 -28 -24t-27 -62t-25 -83t-21 -85t-14 -72t-5 -42zM928 966q2 0 11 7t18 16t15 17t4 8q-4 0 -13 -8t-18 -17t-15 -16t-2 -7zM986 914q2 0 5 -1t5 -1q32 12 60 27t42 29t11 22t-31 4z" />
<glyph unicode="&#xe3;" d="M40 244q-4 94 29 204t93 213t143 189t177 131t194 39t198 -86l40 144l310 -30q-24 -64 -61 -151t-75 -183t-73 -194t-54 -184t-18 -152t35 -100q48 -22 95 -10t87 43t69 76t41 89l50 -76q-14 -52 -51 -95t-85 -75t-100 -50t-96 -18q-60 -2 -91 29t-46 76t-19 97t-10 94 q-96 -126 -249 -198t-339 -66q-98 18 -144 84t-50 160zM132 274q2 -24 8 -53t14 -53t12 -22t1 25t-9 50t-13 50t-11 25t-2 -22zM158 408q0 -14 9 -18t25 -8q10 28 15 45t5 41q0 4 -1 10t-1 8q-18 -14 -35 -35t-17 -43zM198 264q0 -12 15 -44t36 -65t43 -58t38 -25q4 0 16 2 t26 5t27 6t19 5q4 0 9 7t7 9q-44 12 -88 29t-84 41q0 -2 -10 13t-22 31zM264 1204q-10 158 36 264t128 133t191 -38t225 -247q46 -74 88 -82t66 22t23 84t-37 102h70q40 -62 33 -127t-47 -107t-106 -45t-140 59q-94 78 -163 110t-118 32t-80 -22t-48 -50t-22 -54t-3 -34h-96 zM278 380q0 -102 55 -154t155 -52q90 0 153 37t121 103q-4 12 0 49t12 86t19 106t20 111t16 100t7 72q-46 82 -109 103t-129 -2t-130 -81t-110 -137t-70 -168t-10 -173zM418 1462q6 10 19 16t28 7t28 -5t19 -22l-58 76q-10 -12 -21 -36t-15 -36zM516 1523q0 -9 4 -9t4 9 t-4 9t-4 -9zM520 1488q0 -6 6 -6t14 1t14 1t6 -6q2 -6 16 -18t31 -27t36 -32t35 -33q-10 48 -35 81t-52 48t-49 13t-22 -22zM866 478l11 36t23 79t23 79t11 34l70 138q-2 0 -8 1t-10 1q-14 0 -28 -24t-27 -62t-25 -83t-21 -85t-14 -72t-5 -42zM928 966q2 0 11 7t18 16t15 17 t4 8q-4 0 -13 -8t-18 -17t-15 -16t-2 -7zM986 914q2 0 5 -1t5 -1q32 12 60 27t42 29t11 22t-31 4z" />
<glyph unicode="&#xe4;" d="M40 244q-4 94 29 204t93 213t143 189t177 131t194 39t198 -86l40 144l310 -30q-24 -64 -61 -151t-75 -183t-73 -194t-54 -184t-18 -152t35 -100q48 -22 95 -10t87 43t69 76t41 89l50 -76q-14 -52 -51 -95t-85 -75t-100 -50t-96 -18q-60 -2 -91 29t-46 76t-19 97t-10 94 q-96 -126 -249 -198t-339 -66q-98 18 -144 84t-50 160zM132 274q2 -24 8 -53t14 -53t12 -22t1 25t-9 50t-13 50t-11 25t-2 -22zM158 408q0 -14 9 -18t25 -8q10 28 15 45t5 41q0 4 -1 10t-1 8q-18 -14 -35 -35t-17 -43zM198 264q0 -12 15 -44t36 -65t43 -58t38 -25q4 0 16 2 t26 5t27 6t19 5q4 0 9 7t7 9q-44 12 -88 29t-84 41q0 -2 -10 13t-22 31zM278 380q0 -102 55 -154t155 -52q90 0 153 37t121 103q-4 12 0 49t12 86t19 106t20 111t16 100t7 72q-46 82 -109 103t-129 -2t-130 -81t-110 -137t-70 -168t-10 -173zM321 1223q-1 37 18 74t50 65 t70 42t79 4q58 -18 82 -50t23 -68t-23 -71t-54 -62t-71 -41t-73 -6q-54 16 -77 46t-24 67zM386 1202l40 52l-24 44zM522 1358l8 -68q2 -16 6 -30q4 -12 5 -25t3 -23l20 70zM701 1219q-1 37 18 74t50 65t70 42t79 4q58 -18 82 -50t23 -68t-23 -71t-54 -62t-71 -41t-73 -6 q-54 16 -77 46t-24 67zM766 1198l40 52l-24 44zM866 478l11 36t23 79t23 79t11 34l70 138q-2 0 -8 1t-10 1q-14 0 -28 -24t-27 -62t-25 -83t-21 -85t-14 -72t-5 -42zM902 1354l8 -68q2 -16 6 -30q4 -12 5 -25t3 -23l20 70zM928 966q2 0 11 7t18 16t15 17t4 8q-4 0 -13 -8 t-18 -17t-15 -16t-2 -7zM986 914q2 0 5 -1t5 -1q32 12 60 27t42 29t11 22t-31 4z" />
<glyph unicode="&#xe5;" d="M40 244q-4 94 29 204t93 213t143 189t177 131t194 39t198 -86l40 144l310 -30q-24 -64 -61 -151t-75 -183t-73 -194t-54 -184t-18 -152t35 -100q48 -22 95 -10t87 43t69 76t41 89l50 -76q-14 -52 -51 -95t-85 -75t-100 -50t-96 -18q-60 -2 -91 29t-46 76t-19 97t-10 94 q-96 -126 -249 -198t-339 -66q-98 18 -144 84t-50 160zM132 274q2 -24 8 -53t14 -53t12 -22t1 25t-9 50t-13 50t-11 25t-2 -22zM158 408q0 -14 9 -18t25 -8q10 28 15 45t5 41q0 4 -1 10t-1 8q-18 -14 -35 -35t-17 -43zM198 264q0 -12 15 -44t36 -65t43 -58t38 -25q4 0 16 2 t26 5t27 6t19 5q4 0 9 7t7 9q-44 12 -88 29t-84 41q0 -2 -10 13t-22 31zM278 380q0 -102 55 -154t155 -52q90 0 153 37t121 103q-4 12 0 49t12 86t19 106t20 111t16 100t7 72q-46 82 -109 103t-129 -2t-130 -81t-110 -137t-70 -168t-10 -173zM414 1289q2 59 34 117t82 101 t113 61t129 -4q86 -52 119 -113t27 -119t-43 -109t-90 -85t-114 -46t-117 8q-78 28 -110 79t-30 110zM521 1290q7 -36 45 -68q18 -10 61 14t79 66t48 94t-32 100q-18 14 -47 8t-59 -26t-55 -51t-36 -66t-4 -71zM762 1236q34 24 49 56t18 66t0 65t-3 51q-8 -22 -14 -63 t-13 -81t-16 -69t-21 -25zM866 478l11 36t23 79t23 79t11 34l70 138q-2 0 -8 1t-10 1q-14 0 -28 -24t-27 -62t-25 -83t-21 -85t-14 -72t-5 -42zM928 966q2 0 11 7t18 16t15 17t4 8q-4 0 -13 -8t-18 -17t-15 -16t-2 -7zM986 914q2 0 5 -1t5 -1q32 12 60 27t42 29t11 22t-31 4 z" />
<glyph unicode="&#xe6;" horiz-adv-x="1746" d="M40 244q-4 94 29 204t93 213t143 189t177 131t194 39t198 -86l-2 -20q36 36 68 60q84 52 184 90t194 37t172 -51t120 -174q8 -26 -20 -62t-78 -79t-116 -89t-135 -94t-132 -94t-107 -88q-6 -22 -4 -53t11 -61t26 -53t43 -29q46 -28 104 -34t119 6t117 40t99 68t65 93 t14 115q2 -2 16 2t30 10t28 11t12 3q14 -120 -54 -214t-182 -156t-255 -88t-275 -10q-74 -2 -136 30t-102 90q-94 -70 -212 -107t-252 -33q-98 18 -144 84t-50 160zM132 274q2 -24 8 -53t14 -53t12 -22t1 25t-9 50t-13 50t-11 25t-2 -22zM158 408q0 -14 9 -18t25 -8 q10 28 15 45t5 41q0 4 -1 10t-1 8q-18 -14 -35 -35t-17 -43zM198 262q0 -12 15 -44t36 -64t43 -57t38 -25q4 0 16 2t26 5t27 6t19 5q4 0 9 7t7 9q-44 12 -88 29t-84 41l-9 12t-21 27t-22 29t-12 18zM278 380q0 -102 55 -154t155 -52q96 0 170 46q-22 62 -25 136t19 162 q20 80 65 171t107 169q-48 72 -110 87t-128 -10t-127 -85t-106 -137t-67 -164t-8 -169zM698 486q-2 -4 7 6t21 22l21 21t9 7q4 14 8 42t10 44v4q0 2 1 2t1 2t2 4t2 4q-12 -6 -25 -27t-25 -46t-21 -49t-11 -36zM750 426q0 -16 16 -22q4 18 7 38t7 42q-12 -12 -21 -27t-9 -31z M770 204q2 -6 8 -12v20zM859 416q-1 -22 3 -20t8 24t8 55t7 70t5 70t2 56t-2 27t-6 -18t-8 -56t-8 -75t-6 -76t-3 -57zM952 834q2 -46 6 -85t10 -77t14 -77t18 -85q16 14 69 39t112 58t112 76t69 93q12 52 -5 89t-53 58t-84 27t-98 -5t-95 -39t-75 -72zM960 356q2 -54 4 -98 l4 -100q-4 -12 2 -22t20 -14h10zM1326 958l108 -50q6 0 -1 8t-19 17t-23 18t-9 15zM1404 1036q6 -28 16 -38t30 -14q10 -4 21 -4t21 14q-14 18 -28 25t-34 11q-4 0 -13 2t-13 4z" />
<glyph unicode="&#xe7;" horiz-adv-x="998" d="M50 333q-10 113 22 236t93 227t145 176t178 84q70 8 127 -6t99 -35t69 -41t37 -26l6 40l88 -6l-6 -212l-88 10q-2 16 1 43t5 43q-10 20 -50 44t-90 37t-100 9t-82 -38q-48 -52 -82 -133t-52 -170t-21 -180t10 -164t42 -120t75 -51q56 -10 123 -3t129 37t108 84t58 136 l76 -4q-14 -114 -76 -187t-155 -112t-209 -50t-238 1q-118 38 -175 128t-67 203zM160 185q0 -7 3 -13t7 -4q8 4 8 16t-8 16q-4 2 -7 -3t-3 -12zM180 134q0 -8 3 -14t7 -4q10 4 10 18t-10 18q-4 2 -7 -4t-3 -14zM200 99q0 -9 8 -9t8 9t-8 9t-8 -9zM228 82q4 -14 14 -16t22 -2 h20q-14 10 -25 15t-25 5q-2 0 -2 -1t-2 -1h-2zM258 540h44l8 202q-6 -16 -15 -42t-17 -55t-14 -57t-6 -48zM302 236h24q0 34 -7 68t-17 66v-134zM322 152q6 -12 12 -15t16 -3q8 0 14 -9t10 -19t7 -15t3 1t-5 20t-12 29t-15 26t-14 11q-18 0 -13 -7t-3 -19zM330 -395 q2 37 18 61t48 32t78 -10q-40 -4 -55 -32t-10 -61t26 -64t51 -43q58 4 96 31t53 64t8 81t-38 82t-87 66t-138 34l10 184h146l-10 -76q134 12 215 -34t114 -118t21 -157t-66 -150t-147 -97t-221 2q-38 22 -64 57t-38 73t-10 75zM572 -106q22 -18 58 -45t72 -27q2 0 8 1t10 1 q-24 28 -62 49t-72 23q-2 0 -7 -1t-7 -1zM678 -476q52 40 62 79t0 103q0 6 -19 20t-21 22q-2 -22 -1 -51t1 -59t-5 -60t-17 -54zM738 -194q6 -14 17 -28t23 -22v4q0 2 1 2t1 2q-2 12 -10 28t-24 16h-4q-2 0 -4 -2z" />
<glyph unicode="&#xe8;" horiz-adv-x="1140" d="M43 298q-11 92 17 202q14 56 41 121t65 126t84 116t98 93q84 52 184 90t194 37t172 -51t120 -174q8 -26 -20 -62t-78 -79t-116 -89t-135 -94t-132 -94t-107 -88q-6 -22 -4 -53t11 -61t26 -53t43 -29q46 -26 104 -33t119 5t117 39t99 69t65 94t14 114q2 -2 16 2t30 10 t28 11t12 3q14 -120 -54 -214t-182 -156t-255 -88t-275 -10q-78 -2 -143 35t-106 103t-52 158zM106 468q-2 -4 7 6t21 22l21 21t9 7q4 14 8 42t10 44v4q0 2 1 2t1 2t2 4t2 4q-12 -6 -25 -27t-25 -46t-21 -49t-11 -36zM158 408q0 -14 9 -18t25 -8q10 28 15 45t5 41q0 4 -1 10 t-1 8q-18 -14 -35 -35t-17 -43zM162 259q2 -15 6 -33t9 -33t9 -19l2 128q-22 -6 -26 -22q-2 -6 0 -21zM267 398q-1 -22 3 -20t8 24t8 55t7 70t5 70t2 56t-2 27t-6 -18t-8 -56t-8 -75t-6 -76t-3 -57zM274 274q2 -24 5 -51t6 -48t3 -17t-1 29t-3 52t-4 47t-4 16q-4 -4 -2 -28z M276 1372l142 230l426 -418zM342 1394l236 -102h18q-58 32 -82 47t-43 28t-45 29t-84 50v-52zM360 816q2 -46 6 -85t10 -77t14 -77t18 -85q16 14 69 39t112 58t112 76t69 93q12 52 -5 89t-53 58t-84 27t-98 -5t-95 -39t-75 -72zM368 338q2 -54 4 -98l4 -100q-4 -12 2 -22 t20 -14h10zM480 1436q30 -18 60 -40t56 -42t44 -34t22 -14h18l-18 18zM734 940l108 -50q6 0 -1 8t-19 17t-23 18t-9 15zM812 1018q6 -28 16 -38t30 -14q10 -4 21 -4t21 14q-14 18 -28 25t-34 11q-4 0 -13 2t-13 4z" />
<glyph unicode="&#xe9;" horiz-adv-x="1140" d="M43 298q-11 92 17 202q14 56 41 121t65 126t84 116t98 93q84 52 184 90t194 37t172 -51t120 -174q8 -26 -20 -62t-78 -79t-116 -89t-135 -94t-132 -94t-107 -88q-6 -22 -4 -53t11 -61t26 -53t43 -29q46 -26 104 -33t119 5t117 39t99 69t65 94t14 114q2 -2 16 2t30 10 t28 11t12 3q14 -120 -54 -214t-182 -156t-255 -88t-275 -10q-78 -2 -143 35t-106 103t-52 158zM106 468q-2 -4 7 6t21 22l21 21t9 7q4 14 8 42t10 44v4q0 2 1 2t1 2t2 4t2 4q-12 -6 -25 -27t-25 -46t-21 -49t-11 -36zM158 408q0 -14 9 -18t25 -8q10 28 15 45t5 41q0 4 -1 10 t-1 8q-18 -14 -35 -35t-17 -43zM162 259q2 -15 6 -33t9 -33t9 -19l2 128q-22 -6 -26 -22q-2 -6 0 -21zM267 398q-1 -22 3 -20t8 24t8 55t7 70t5 70t2 56t-2 27t-6 -18t-8 -56t-8 -75t-6 -76t-3 -57zM274 274q2 -24 5 -51t6 -48t3 -17t-1 29t-3 52t-4 47t-4 16q-4 -4 -2 -28z M286 1066l426 418l142 -230zM360 816q2 -46 6 -85t10 -77t14 -77t18 -85q16 14 69 39t112 58t112 76t69 93q12 52 -5 89t-53 58t-84 27t-98 -5t-95 -39t-75 -72zM368 338q2 -54 4 -98l4 -100q-4 -12 2 -22t20 -14h10zM450 1188h18q4 0 22 14t43 34t56 42t61 40l-182 -112z M534 1174h18l236 102v52q-58 -34 -84 -50t-45 -29t-44 -28t-81 -47zM734 940l108 -50q6 0 -1 8t-19 17t-23 18t-9 15zM812 1018q6 -28 16 -38t30 -14q10 -4 21 -4t21 14q-14 18 -28 25t-34 11q-4 0 -13 2t-13 4z" />
<glyph unicode="&#xea;" horiz-adv-x="1140" d="M43 298q-11 92 17 202q14 56 41 121t65 126t84 116t98 93q84 52 184 90t194 37t172 -51t120 -174q8 -26 -20 -62t-78 -79t-116 -89t-135 -94t-132 -94t-107 -88q-6 -22 -4 -53t11 -61t26 -53t43 -29q46 -26 104 -33t119 5t117 39t99 69t65 94t14 114q2 -2 16 2t30 10 t28 11t12 3q14 -120 -54 -214t-182 -156t-255 -88t-275 -10q-78 -2 -143 35t-106 103t-52 158zM106 468q-2 -4 7 6t21 22l21 21t9 7q4 14 8 42t10 44v4q0 2 1 2t1 2t2 4t2 4q-12 -6 -25 -27t-25 -46t-21 -49t-11 -36zM158 408q0 -14 9 -18t25 -8q10 28 15 45t5 41q0 4 -1 10 t-1 8q-18 -14 -35 -35t-17 -43zM162 259q2 -15 6 -33t9 -33t9 -19l2 128q-22 -6 -26 -22q-2 -6 0 -21zM226 1194l370 446l318 -516l-44 -34l-260 432l-194 -456zM267 398q-1 -22 3 -20t8 24t8 55t7 70t5 70t2 56t-2 27t-6 -18t-8 -56t-8 -75t-6 -76t-3 -57zM274 274 q2 -24 5 -51t6 -48t3 -17t-1 29t-3 52t-4 47t-4 16q-4 -4 -2 -28zM360 816q2 -46 6 -85t10 -77t14 -77t18 -85q16 14 69 39t112 58t112 76t69 93q12 52 -5 89t-53 58t-84 27t-98 -5t-95 -39t-75 -72zM368 338q2 -54 4 -98l4 -100q-4 -12 2 -22t20 -14h10zM370 1178 q0 -10 20 -14q0 2 1 5t1 5q0 16 -10 20q-12 -4 -12 -16zM422 1224q4 -2 8 3t2 9t-8 -3t-2 -9zM452 1276q12 10 25 29t17 23q-10 -10 -24 -23t-18 -29zM492 1411q0 -5 4 -5t4 5t-4 5t-4 -5zM734 940l108 -50q6 0 -1 8t-19 17t-23 18t-9 15zM812 1018q6 -28 16 -38t30 -14 q10 -4 21 -4t21 14q-14 18 -28 25t-34 11q-4 0 -13 2t-13 4z" />
<glyph unicode="&#xeb;" horiz-adv-x="1140" d="M43 298q-11 92 17 202q14 56 41 121t65 126t84 116t98 93q84 52 184 90t194 37t172 -51t120 -174q8 -26 -20 -62t-78 -79t-116 -89t-135 -94t-132 -94t-107 -88q-6 -22 -4 -53t11 -61t26 -53t43 -29q46 -26 104 -33t119 5t117 39t99 69t65 94t14 114q2 -2 16 2t30 10 t28 11t12 3q14 -120 -54 -214t-182 -156t-255 -88t-275 -10q-78 -2 -143 35t-106 103t-52 158zM106 468q-2 -4 7 6t21 22l21 21t9 7q4 14 8 42t10 44v4q0 2 1 2t1 2t2 4t2 4q-12 -6 -25 -27t-25 -46t-21 -49t-11 -36zM158 408q0 -14 9 -18t25 -8q10 28 15 45t5 41q0 4 -1 10 t-1 8q-18 -14 -35 -35t-17 -43zM162 259q2 -15 6 -33t9 -33t9 -19l2 128q-22 -6 -26 -22q-2 -6 0 -21zM211 1223q-1 37 18 74t50 65t70 42t79 4q58 -18 82 -50t23 -68t-23 -71t-54 -62t-71 -41t-73 -6q-54 16 -77 46t-24 67zM267 398q-1 -22 3 -20t8 24t8 55t7 70t5 70t2 56 t-2 27t-6 -18t-8 -56t-8 -75t-6 -76t-3 -57zM274 274q2 -24 5 -51t6 -48t3 -17t-1 29t-3 52t-4 47t-4 16q-4 -4 -2 -28zM276 1202l40 52l-24 44zM360 816q2 -46 6 -85t10 -77t14 -77t18 -85q16 14 69 39t112 58t112 76t69 93q12 52 -5 89t-53 58t-84 27t-98 -5t-95 -39 t-75 -72zM368 338q2 -54 4 -98l4 -100q-4 -12 2 -22t20 -14h10zM412 1358l8 -68q2 -16 6 -30q4 -12 5 -25t3 -23l20 70zM591 1219q-1 37 18 74t50 65t70 42t79 4q58 -18 82 -50t23 -68t-23 -71t-54 -62t-71 -41t-73 -6q-54 16 -77 46t-24 67zM656 1198l40 52l-24 44z M734 940l108 -50q6 0 -1 8t-19 17t-23 18t-9 15zM792 1354l8 -68q2 -16 6 -30q4 -12 5 -25t3 -23l20 70zM812 1018q6 -28 16 -38t30 -14q10 -4 21 -4t21 14q-14 18 -28 25t-34 11q-4 0 -13 2t-13 4z" />
<glyph unicode="&#xec;" horiz-adv-x="524" d="M-30 1492l142 230l426 -418zM28 1072q184 4 277 7t130 4l37 1l-164 -1084h-100q-4 40 -17 115t-36 201t-55 311t-72 445zM36 1514l236 -102h18q-58 32 -82 47t-43 28t-45 29t-84 50v-52zM98 1004q0 -6 2 -20t4 -31t4 -31t2 -20l10 -65t13 -76t12 -64l5 -27l20 -14 q2 6 8 19t13 28t13 29t10 20v6q-4 24 -14 38t-21 25t-21 24t-12 35q-4 34 3 67t3 67zM174 1556q30 -18 60 -40t56 -42t44 -34t22 -14h18l-18 18zM180 554l10 -100q10 22 22 52t8 56zM226 444l28 -270q6 70 4 139t-10 137zM296 992h8q10 4 15 8t9 16zM303 468q1 -10 4 -19 t7 -5q6 6 4 26t-10 24q-4 2 -5 -7t0 -19zM315 547q1 -7 7 -7q6 2 5 10t-7 6t-5 -9zM373 851q1 -9 7 -7t5 11t-7 7t-5 -11z" />
<glyph unicode="&#xed;" horiz-adv-x="524" d="M-10 1230l426 418l142 -230zM28 1072q184 4 277 7t130 4l37 1l-164 -1084h-100q-4 40 -17 115t-36 201t-55 311t-72 445zM98 1004q0 -6 2 -20t4 -31t4 -31t2 -20l10 -65t13 -76t12 -64l5 -27l20 -14q2 6 8 19t13 28t13 29t10 20v6q-4 24 -14 38t-21 25t-21 24t-12 35 q-4 34 3 67t3 67zM154 1352h18q4 0 22 14t43 34t56 42t61 40l-182 -112zM180 554l10 -100q10 22 22 52t8 56zM226 444l28 -270q6 70 4 139t-10 137zM238 1338h18l236 102v52q-58 -34 -84 -50t-45 -29t-44 -28t-81 -47zM296 992h8q10 4 15 8t9 16zM303 468q1 -10 4 -19t7 -5 q6 6 4 26t-10 24q-4 2 -5 -7t0 -19zM315 547q1 -7 7 -7q6 2 5 10t-7 6t-5 -9zM373 851q1 -9 7 -7t5 11t-7 7t-5 -11z" />
</font>
</defs>
</svg>
