<?xml version="1.0" standalone="no"?>
<!DOCTYPE svg PUBLIC "-//W3C//DTD SVG 1.1//EN" "http://www.w3.org/Graphics/SVG/1.1/DTD/svg11.dtd" >
<svg xmlns="http://www.w3.org/2000/svg">
<metadata></metadata>
<defs>
<font id="honey_scriptsemibold" horiz-adv-x="448" >
<font-face units-per-em="2048" ascent="1638" descent="-410" />
<missing-glyph horiz-adv-x="389" />
<glyph horiz-adv-x="0" />
<glyph unicode="&#xd;" horiz-adv-x="512" />
<glyph unicode=" "  horiz-adv-x="389" />
<glyph unicode="&#x09;" horiz-adv-x="389" />
<glyph unicode="&#xa0;" horiz-adv-x="389" />
<glyph unicode="!" horiz-adv-x="335" d="M143 53q0 25 25 72q25 49 47 49q37 0 53 -49q13 -25 13 -72q0 -25 -19.5 -53.5t-38.5 -28.5q-31 0 -55.5 23.5t-24.5 58.5zM143 520q0 18 19 373q4 98 13 204.5t20 227.5q14 27 53 27q37 0 78 -60l2 -16q-84 -276 -84 -787q0 -92 3 -156.5t11 -103.5q-29 -18 -37 -18 q-18 0 -31 25v-3q-47 100 -47 287z" />
<glyph unicode="&#x22;" d="M86 956q0 31 94 199q0 4 64 176q59 -37 59 -61v-2q-6 -41 -86 -224q-59 -133 -86 -133q-45 0 -45 45zM180 913q0 23 33 91l61 133q2 27 66 168q59 -41 59 -60v-6q-8 -41 -20 -84t-33 -84q-4 -10 -24 -51l-50 -94q-29 -53 -53 -54q-39 0 -39 41z" />
<glyph unicode="#" horiz-adv-x="888" d="M0 590q0 51 57 72l193 34l18 111l-153 -33q-29 -16 -60 -16q-55 0 -55 55q0 51 57 72l230 49l26 170q8 68 58 67h6q47 0 47 -38q0 -14 -3 -37t-7 -52t-6 -50t-2 -38l129 25l24 182q8 68 53 68h9q2 -2 6 -2q33 -6 32 -66q0 -2 -4 -42l-12 -120l170 31q59 0 59 -37 q0 -57 -57 -69l-182 -39l-19 -129l193 30q57 0 57 -36q0 -18 -18.5 -41t-38.5 -27l-209 -39l-14 -139q0 -33 -2 -39v-4q-33 -63 -86 -64q-35 0 -35 33l26 191l-131 -21l-24 -168q0 -31 -2 -37v-6q-18 -51 -86 -51q-39 0 -45 37l30 198l-112 -24q-29 -16 -62 -16 q-55 0 -55 55zM371 717l131 22l18 125l-129 -28z" />
<glyph unicode="$" horiz-adv-x="503" d="M0 352q20 12 33 13q31 0 108 -97q76 -94 148 -94q37 0 61.5 31t24.5 74q0 84 -74 151v-2q-143 131 -154 152l3 -2q-84 115 -84 290q0 262 151 287q4 102 25 182q68 0 69 -82q-2 -12 -2 -41v-73q88 -53 121 -105q39 -57 39 -153q0 -223 -76 -224q-45 0 -55 121v25 q0 16 -2 39q-2 37 -3 52t-1 11q-18 152 -78 152q-41 0 -61 -82q-8 -33 -12.5 -60.5t-4.5 -54.5q0 -150 70 -219l215 -217q41 -41 41 -141q0 -137 -90 -197q-16 -6 -41 -16.5t-60 -24.5q0 -16 2 -24v-25q0 -76 -12 -139q-6 0 -12 -2h-15q-47 0 -51 71q-2 18 -4 55t-6 91 l-104 71q-55 53 -109 207z" />
<glyph unicode="%" horiz-adv-x="929" d="M0 877q0 133 31 253q53 201 147 201q137 0 158 -260q57 -23 90 -22q133 0 319 174q4 4 35 59q23 37 58 49q18 0 44.5 -21.5t26.5 -39.5q0 -37 -86 -125q-143 -150 -364 -543q-236 -418 -256 -586q-4 -31 -41 -30q-23 0 -40.5 22.5t-17.5 48.5q70 279 488 949 q-4 -2 -7 -4.5t-7 -4.5q-59 -31 -101 -30q-41 0 -75.5 3t-63.5 7q-25 -178 -39 -209v2q-37 -115 -127 -115q-172 0 -172 222zM113 868q0 -127 43 -127q27 0 49 41q20 23 33 78v31q-2 10 -2 37q0 -2 1 28.5t3 94.5q-31 51 -35 139q0 18 -12 24q-80 -166 -80 -346zM506 264 q0 209 80 324q4 4 8 12q8 10 13 18.5t7 12.5h17q18 -2 26.5 -3t6.5 -1q115 0 161 -103q25 -55 25 -192q0 -356 -176 -357q-168 0 -168 289zM612 223q0 -172 56 -172q94 0 94 309q0 176 -74 177q-31 0 -55 -131q-20 -102 -21 -183z" />
<glyph unicode="&#x26;" horiz-adv-x="1173" d="M98 260q0 166 101 281l168 196q-55 174 -56 305q0 109 47 207q59 121 158 121q100 0 174 -82q74 -80 74 -182q0 -100 -105 -229q-14 -18 -41.5 -49t-68.5 -76q-14 -14 -51 -58q16 -43 32.5 -86t32.5 -84l410 2q160 0 182 -43l2 -8q0 -18 -27 -51h-147q-23 0 -102 -105 q-47 -61 -74 -95t-33 -40q16 -14 41 -40.5t59 -67.5q27 -31 89 -58q0 -18 -26 -36.5t-44 -18.5q-35 0 -76 41l-110 117q-188 -141 -322 -141q-123 0 -205 79q-82 80 -82 201zM190 209q0 -55 52 -100l-2 2q57 -45 112 -45q53 0 158 43q113 45 125 88q-10 25 -41 79t-84 140 q-10 0 -68 6q-59 6 -96 6q0 45 6 70q12 2 38 6t65 14q-8 18 -19.5 46t-25.5 65q-219 -152 -220 -420zM418 1008q0 -74 37 -179q37 37 80 86q129 148 129 230q0 25 -10.5 50.5t-26 45t-37 31.5t-41.5 12q-66 0 -103 -110q-29 -90 -28 -166zM623 418q23 -37 47 -71t47 -62 q4 6 16 21.5t33 41.5v-2q10 16 20.5 34.5t20.5 39.5h-133q-10 -2 -21 -2h-24h-6z" />
<glyph unicode="'" horiz-adv-x="0" d="M-113 971q16 37 41 117.5t60 209.5q61 -49 61 -92q0 -47 -59 -190v2q-35 -96 -60 -96q-41 0 -43 49z" />
<glyph unicode="(" horiz-adv-x="393" d="M125 588q0 393 90 616l-2 -2q12 49 43 141q41 121 88 121q8 0 22.5 -8t27 -19.5t21.5 -24.5t9 -21l-49 -60l2 4q-41 -74 -94 -266q-63 -236 -64 -432q0 -96 9.5 -193.5t25.5 -199.5q43 -254 123 -371q12 -17 43 -37q4 -4 9 -8t9 -8l-4 -31q-23 -12 -45 -12 q-129 0 -205 313q-59 250 -59 498z" />
<glyph unicode=")" horiz-adv-x="307" d="M16 1415q0 49 52 49q66 0 84 -59l63 -375q45 -262 45 -512q0 -125 -18 -293q-4 -43 -14.5 -105.5t-24.5 -144.5q-53 -207 -131 -206q-35 0 -54 49q14 14 25.5 26.5t22.5 22.5q100 215 100 651q0 123 -6 227.5t-21 190.5q-12 74 -36.5 173t-59.5 224q-27 51 -27 82z" />
<glyph unicode="*" horiz-adv-x="393" d="M0 1026q0 29 55 47v-2l47 14q-14 27 -32 84q18 25 34 25q12 0 60 -59q4 4 17.5 21.5t39.5 45.5q39 -39 39 -53q0 -6 -22 -41h6q39 0 63 -12l8 -21q-6 -20 -24 -39q-39 0 -66 -6q14 -18 35 -47q10 -16 10 -22q0 -29 -41 -29q-25 0 -67 63q-14 -23 -31.5 -40t-38.5 -31 q-25 27 -24 47l8 28q-49 -6 -37 -6q-39 0 -39 33z" />
<glyph unicode="+" horiz-adv-x="729" d="M82 451q0 78 44 134t114 56q94 0 149 -115q4 14 11.5 41t17.5 68q8 31 55 31q45 0 45 -41q0 -6 -16 -43q-14 -31 -15 -35q-2 -4 -8 -36t-18 -91q-4 -23 -19 -80q49 12 86 25q92 31 119 30q37 0 88 -39l8 -6l-10 -35q-109 -6 -293 -57v-108q0 -47 21 -117q-10 -29 -31 -29 q-37 0 -59.5 32t-22.5 75q0 4 1 16t3 31q0 8 -2 35.5t-2 35.5q-41 -6 -69 -6q-80 0 -140 72q-57 70 -57 156zM160 465q0 -61 45 -103.5t110 -42.5q41 0 41 27q0 72 -32 131q-37 74 -101 74q-25 0 -44 -26.5t-19 -59.5z" />
<glyph unicode="," horiz-adv-x="258" d="M-47 -102q0 20 55 125v-3q6 16 19.5 50t33.5 82q70 -33 70 -74q0 -8 -47 -98q-63 -125 -84 -125q-47 0 -47 43z" />
<glyph unicode="-" horiz-adv-x="548" d="M92 264q0 35 55 45q2 0 12.5 1t33.5 3q10 2 24 3t31 1h10h33q16 0 37 2q39 2 64.5 3.5t39.5 1.5q6 2 14 2h-4q2 0 12.5 1t28.5 3l-4 -2q20 4 23 4q33 0 33 -23q0 -41 -86 -55q-86 0 -222 -6q-12 0 -80 -6h-12q-43 0 -43 22z" />
<glyph unicode="." horiz-adv-x="192" d="M41 45q0 25 19.5 47.5t41.5 22.5q62 -1 62 -54q0 -72 -62 -71q-61 0 -61 55z" />
<glyph unicode="/" horiz-adv-x="759" d="M-4 57q31 158 231 527q82 150 154 268.5t131 208.5l100 147q68 104 103 121l8 2q18 0 43 -21.5t25 -39.5q0 -33 -86 -125q-72 -78 -162 -213t-199 -330q-236 -420 -256 -586q-4 -31 -39 -30q-23 0 -38 22.5t-15 48.5z" />
<glyph unicode="0" horiz-adv-x="872" d="M0 494q0 240 76 485q109 354 293 354q53 0 168 -65l141 -82q49 -20 82 -230q14 -92 21 -155.5t7 -98.5q0 -223 -98 -434q-127 -268 -328 -268q-141 0 -241 92q-59 53 -86 131v-2q-35 98 -35 273zM141 434q0 -129 39 -215q51 -119 164 -119q176 0 264 260q66 197 66 420 q0 166 -51 277q-68 152 -209 151q-115 0 -201 -325q-72 -276 -72 -449z" />
<glyph unicode="1" horiz-adv-x="288" d="M16 84q0 45 7.5 144.5t21.5 252.5q10 123 16.5 200t6.5 112v10q-2 2 -2 10q-37 33 -37 74q0 66 26 166q16 61 24.5 103t10.5 65q31 14 62 14q77 0 77 -70q0 -41 -12 -73h2q-2 -8 -6 -23.5t-10 -40.5q-29 -283 -44.5 -488.5t-15.5 -338.5q0 -66 3.5 -117t7.5 -86 q0 -35 -41 -35q-96 0 -97 121z" />
<glyph unicode="2" horiz-adv-x="782" d="M-29 37q0 23 56 63q76 51 82 62q152 170 262 407q123 260 123 465q0 68 -49.5 111t-122.5 43q-49 0 -72 -53q-16 -39 -45 -174l-25 -119q-2 -37 -12 -78q-31 -133 -94 -133q-68 0 -68 88q0 98 82 325q47 133 64 160q49 84 133 84q139 0 250 -86q121 -92 120 -227 q0 -199 -172 -483q-63 -106 -130.5 -201.5t-143.5 -181.5l248 4q57 0 168 -13q141 -16 141 -47q0 -59 -55 -59v18l-2 -2q0 -10 -109 -10h-127q-76 0 -203 -27t-196 -26q-102 0 -103 90z" />
<glyph unicode="3" horiz-adv-x="790" d="M-43 162q0 94 45 96q39 2 98 -111q39 -74 52 -86q59 -47 145 -47q109 0 188 123v-2q74 113 74 238q0 66 -24 133q-35 70 -82 72l-195 -50q-47 16 -47 64q0 23 10 43t25.5 36.5t36 27t41.5 10.5q31 0 36 -2q4 0 7 -2h8q4 -2 18 -3h6q53 43 84 152q27 86 27 176 q0 164 -127 164q-88 0 -119 -53q-23 -41 -22 -133q0 -350 -115 -351q-39 0 -61 48q-20 35 -21 79q0 117 78 314q39 96 76 133q51 57 143 57q131 0 219 -63q96 -72 96 -199q0 -172 -163 -367q106 -55 153 -110q62 -72 62 -176q0 -195 -101 -320q-109 -135 -297 -135 q-86 0 -219 78q-135 80 -135 166z" />
<glyph unicode="4" horiz-adv-x="915" d="M-18 446q0 35 67 140q45 68 81 127t65 112q92 170 190 312l25 34q4 8 13 22.5t23 35.5q45 70 93 74q39 -4 98 -48q61 -43 61 -84q0 -23 -14 -81q-20 -59 -20 -80q-29 -223 -45.5 -358.5t-18.5 -182.5l201 -4q69 -2 69 -51q0 -63 -118 -64h-25q-14 0 -41 2q-25 2 -41 2 h-24q-23 0 -25 -2q-4 -23 -6 -56.5t-4 -74.5q0 -6 -1 -21.5t-1 -33.5t-1 -36.5t-1 -31.5v-4q0 -37 18 -82q10 -27 10 -37q0 -6 -4 -6l-16 -16h37q0 -35 -72 -35q-92 0 -92 166v47t2 29v-2q0 8 2 36.5t2 36.5v125q-2 2 -18 2q-33 0 -73 -6t-91 -16q-72 -16 -128.5 -25.5 t-95.5 -13.5q-82 113 -81 149zM131 451q0 -8 35 -9q25 0 80 7h-2q51 6 84 6q8 0 27.5 1t54.5 3q20 2 65 6q6 166 25 352q8 76 11 139.5t3 116.5q0 31 -2 37q-23 -29 -80 -111l-121 -180q-41 -59 -71.5 -114.5t-53.5 -104.5q-55 -127 -55 -149z" />
<glyph unicode="5" horiz-adv-x="847" d="M-43 125q0 55 68 55q29 0 125 -74q82 -63 145 -63q147 0 242 113q88 106 88 258q0 98 -45 149v-2q-47 59 -138 60q-78 0 -155 -39q-35 -16 -148 -93q-39 0 -68.5 39t-29.5 78q0 25 3 62t11 84q12 82 13 139v139h-2q2 47 9 83t17 61q10 29 287 57q180 18 239 18 q84 0 103 -32q0 -16 -11.5 -33t-27.5 -31t-35.5 -23.5t-36.5 -11.5q-66 -6 -229 -24q-143 -18 -170 -43q-37 -270 -43 -369q12 4 33.5 11t54.5 18h-2q76 29 106 28q166 0 283 -104h-2q121 -103 121 -275q0 -96 -31 -171.5t-87 -130t-135 -83t-175 -28.5q-92 0 -217 43v-2 q-160 49 -160 137zM92 1030l8 -4l4 4h-12z" />
<glyph unicode="6" horiz-adv-x="821" d="M0 453q0 215 92 520q119 395 285 395q49 0 147 -43q96 -39 125 -78q45 -63 45 -168q0 -80 -39 -178q-94 0 -108 57q-6 25 -6 91q0 111 -13 145q-23 61 -84 61q-55 0 -106 -92v2q-47 -88 -73.5 -142t-37.5 -77q-23 -51 -39 -111.5t-26 -132.5q127 121 250 121 q150 0 245 -123q88 -112 88 -268q0 -176 -88 -295q-98 -137 -264 -137h-4q-195 0 -297 133q-92 119 -92 320zM133 377q0 -281 248 -281q104 0 174 137q59 119 59 230q0 109 -45 174q-51 82 -153 82q-141 0 -217 -105q-66 -90 -66 -237z" />
<glyph unicode="7" horiz-adv-x="659" d="M-39 1204q0 78 90 101q8 4 55.5 10t133.5 16q199 25 354 25q33 0 86 -66l4 -12q0 -35 -31 -74q-23 -31 -39 -54.5t-26 -39.5q-453 -809 -453 -1014q0 -25 25 -63q-147 0 -148 65q0 121 221 625l216 489q-16 4 -58 5q-23 0 -69 -4.5t-115 -12.5q-63 -6 -125 -33h2l-74 -28 q-49 0 -49 65z" />
<glyph unicode="8" horiz-adv-x="972" d="M0 340q0 123 96 260q57 80 166 188q-129 125 -129 244q0 129 88 248q96 127 221 127q88 0 185 -88q43 -39 71.5 -63.5t42.5 -34.5q37 31 54 84v-5q2 14 4 31t4 37q82 0 82 -117q0 -78 -78 -168h2q-115 -135 -252 -239q-16 -12 -76 -58q84 -51 143.5 -95t96.5 -79 q137 -131 137 -276q0 -160 -143 -260q-131 -90 -293 -90q-164 0 -287 92q-135 100 -135 262zM106 319q-2 -90 95 -149q82 -49 180 -49q129 0 229 65q111 76 111 201v2q0 160 -332 324q-281 -250 -283 -394zM262 1020q0 -51 33 -102t70 -52q6 0 151 127v-2q66 59 103.5 96 t48.5 52q-59 94 -84 121q-35 35 -92 34q-84 0 -164 -116v2q-66 -102 -66 -160zM471 795l4 -4v2z" />
<glyph unicode="9" horiz-adv-x="792" d="M0 811q0 156 111 344q129 219 272 219q33 0 215 -114q4 66 39 65q20 0 41 -14q96 -18 96 -60l-10 -16q-12 -8 -23 -74l-63 -465q-14 -106 -21.5 -215.5t-7.5 -226.5v-64q0 -23 2 -32q4 -23 39 -127q-16 -25 -35 -31l-14 35q-23 -8 -43 -29q-72 31 -76 225q0 43 6 134 q6 88 7 133q-31 0 -80 -15q-49 -14 -80 -14q-168 0 -269 86q-106 88 -106 256zM129 735q0 -156 219 -155q20 0 47 3t60 11h-2q61 16 84 39l55 489q-2 8 -60 62q-66 63 -114 63q-100 0 -199 -200q-90 -184 -90 -308v-4zM598 6q2 -4 25 -6q-29 0 -25 6z" />
<glyph unicode=":" horiz-adv-x="227" d="M72 74q0 27 17 49t38 22q59 1 59 -71t-59 -72q-55 0 -55 72zM82 477q0 25 14.5 48.5t30.5 23.5q76 -25 76 -80q0 -70 -58 -70q-25 0 -44 23.5t-19 54.5z" />
<glyph unicode=";" horiz-adv-x="319" d="M2 -117q0 27 37 68q47 47 59 72v-3q8 16 19.5 44t27.5 67q72 -31 72 -78q0 -14 -65 -102q-84 -111 -113 -111q-37 0 -37 43zM104 463q0 43 62 78q35 0 57.5 -25.5t22.5 -62.5q0 -63 -68 -64q-74 0 -74 74z" />
<glyph unicode="&#x3c;" horiz-adv-x="741" d="M0 508v10q0 37 31 55q10 4 26.5 7.5t38.5 7.5q27 4 152 63q14 6 64 37t139 88q168 106 172 107q29 0 34 -31v-12q0 -43 -71 -86q-193 -164 -432 -258q141 -59 344 -78q152 -12 151 -60v-2q0 -41 -86 -41q-131 0 -244 23q-41 8 -96 22.5t-125 36.5q-98 43 -98 111z" />
<glyph unicode="=" horiz-adv-x="733" d="M51 371q0 49 64 63q10 4 35.5 5t64.5 3h21q14 0 36 2l244 7q4 0 6 2h8l43 6h13q39 0 39 -29q0 -55 -93 -76q-10 0 -54 -2t-124 -6q-121 -6 -248 -6h-8q-47 0 -47 31zM51 575q0 45 55 62q16 4 43 5t66 3h21q14 0 36 2q16 2 35 2q20 0 43 2l53 2q41 2 73 3t59 1h-5 q6 2 17 2q10 0 26 3h13q39 0 39 -29q0 -23 -30 -45.5t-63 -28.5q-10 0 -54 -2t-124 -6q-121 -6 -248 -6h-8q-47 0 -47 30z" />
<glyph unicode="&#x3e;" horiz-adv-x="739" d="M51 295v8q0 35 96 70q16 8 48 21.5t79 33.5q70 29 134.5 49.5t128.5 34.5q-119 70 -355 135q-125 33 -125 80v8q10 29 58 29h14q4 -2 16 -2q172 -18 320 -92l151 -76q80 -53 80 -115q0 -16 -2 -20l2 2q-10 -53 -73 -53q-33 0 -39 2q-145 -12 -371 -105q-104 -45 -125 -45 h-2q-35 0 -35 35z" />
<glyph unicode="?" horiz-adv-x="759" d="M-63 750q0 233 243 481q162 162 303 162q106 0 168 -93q51 -77 51 -192q0 -111 -47 -209q-10 -23 -43.5 -68t-89.5 -112q-70 -84 -123 -152.5t-92 -122.5l-35 -127q4 -20 17 -32q6 -16 6 -25q0 -37 -45 -37q-61 0 -62 131q0 121 111 273q4 4 35 47t90 123 q10 14 27.5 37.5t44.5 58.5q102 143 102 274q0 123 -109 123q-119 0 -301 -225q-43 -53 -72.5 -96t-45.5 -72q-49 -90 -50 -176q0 -6 1.5 -18.5t3.5 -30.5q-25 -10 -31 -10q-57 0 -57 88zM174 55q0 37 21.5 68t52.5 31q86 0 86 -70q0 -41 -25.5 -71.5t-60.5 -30.5 q-74 0 -74 73z" />
<glyph unicode="@" horiz-adv-x="1075" d="M43 455v8q0 403 266 676q135 139 322 139h6q184 0 309 -168q113 -152 113 -346q0 -104 -27 -209q-33 -133 -85 -186.5t-144 -55.5q-48 1 -107 54q-10 10 -30 47q-45 -150 -136 -150q-133 0 -133 285v26q0 84 52 265q61 221 116 221q100 0 127 -57l33 -66l80 -27 q-68 -209 -68 -379v-6q0 -18 23 -73v2q23 -41 45 -41q25 0 39 14q51 51 82 156q27 86 26 178q0 152 -80 278q-92 145 -235 146h-4q-121 0 -240 -119q-223 -223 -223 -588v-10q0 -168 88 -281q96 -127 258 -127h6q133 0 266 134q43 43 68 43q43 0 43 -54q0 -4 -3 -17t-7 -40 q-156 -150 -346 -150q-223 0 -363 127q-137 129 -137 351zM500 438q0 -20 11 -50t24 -30q37 29 71 146q35 111 35 164q0 16 3 37.5t7 50.5q6 33 9.5 54t5.5 32l-25 32q-6 78 -29 78q-20 0 -80 -219q-33 -117 -32 -295z" />
<glyph unicode="A" horiz-adv-x="1345" d="M-51 117l12 12q2 2 27 21h2l2 2h4l12 -2q12 -3 31 -3q0 -59 78 -59q145 0 243 107q27 29 62 83t76 134q-4 2 -21 2l-37 -6l-21 -3.5t-16 -1.5q-67 0 -67 49q0 30 223 56q53 92 108.5 212t114.5 273q113 289 113 346v4q-2 2 -2 5q-6 8 -6 20q0 47 82 47q33 0 90 -39 q61 -41 61 -67q0 -14 -4 -47t-4 -48q0 -262 84 -665q35 -164 63.5 -278.5t55.5 -180.5q2 -4 10 -12l23 -23q2 -2 5 -4t7 -6l6 -12q0 -37 -55 -37q-14 0 -34 2t-48 6q-76 94 -156 442q-92 -4 -201.5 -10t-238.5 -16q-25 -43 -66 -109.5t-98 -158.5q-127 -197 -268 -197 q-176 0 -252 162zM686 524l369 8q-6 35 -12.5 70t-12.5 74q-31 190 -47 302t-18 148q-2 10 -2 25q0 14 -2 31v-2q-2 8 -5 8q-16 -35 -47.5 -118t-81.5 -216q-78 -213 -141 -330z" />
<glyph unicode="B" horiz-adv-x="1038" d="M-39 1296v9q0 31 158 55q2 86 55 86q68 0 80 -60q113 16 221.5 25.5t212.5 9.5q150 0 273 -57q167 -76 167 -213q0 -80 -79 -168q-68 -74 -150 -119q-29 -16 -190 -92q272 -74 272 -334q0 -162 -158 -325q-158 -164 -317 -164q-70 0 -199 45q-63 20 -88 39 q-6 -53 -35 -53q-100 2 -100 215v84v34q0 16 2 27v31q0 444 25 764l8 106h-29q-10 -2 -37 -2h-6q-55 0 -86 57zM207 408q0 -33 2 -70l4 -129q0 -61 -2 -72q14 -4 117 -55q86 -41 102 -41q150 0 297 166q133 151 133 282q0 190 -303 191q-262 0 -328 -78q-22 -28 -22 -123v-8 v-63zM227 739q143 16 486 138q78 27 178 127q106 106 106 182q0 125 -295 125q-23 0 -81 -6.5t-150 -16.5q-29 -4 -82 -11t-133 -22q-14 -123 -21.5 -252t-7.5 -264z" />
<glyph unicode="C" horiz-adv-x="835" d="M0 444q0 219 84 494q104 336 262 438h-2q47 29 125 29q119 0 219 -64q76 -49 105 -110q20 -43 20 -156q0 -39 -6 -89t-16 -112q-35 -176 -86 -176q-37 0 -58 45q-18 37 -18 76q0 53 35 189v-2q32 125 32 183q0 56 -75 93q-66 31 -125 31q-135 0 -248 -322 q-109 -309 -109 -598q0 -315 223 -315q213 0 400 149l33 56l18 10q45 -6 45 -43q-2 -4 -6 -20.5t-14 -45.5q-70 -90 -201 -149q-129 -55 -252 -55q-193 0 -295 139q-90 127 -90 325z" />
<glyph unicode="D" horiz-adv-x="1083" d="M-39 979q0 80 180 174q27 14 74 35.5t113 54.5q-4 76 -15 88q0 57 70 58q90 0 106 -72q133 35 195 35q109 0 154 -17v2q59 -14 125 -86q86 -94 102 -125q49 -83 49 -202q0 -156 -70 -377q-66 -213 -147 -357q-136 -235 -292 -235h-1q-45 0 -88 31l-70 47q-10 6 -57 24v-8 q6 -16 6 -24q0 -37 -45 -37q-78 0 -78 86q0 16 -2 46t-6 75q-2 23 -3 55.5t-1 73.5q0 135 6 267t21 267l26 266q-166 -63 -272 -135h2q-4 -4 -4 -16q-2 -33 -10 -55h-11q-2 -2 -10 -3q-14 0 -30.5 20.5t-16.5 43.5zM381 193l86 -74h-2q59 -41 96 -41q178 0 311 368 q107 296 107 521q0 158 -86 223q-76 53 -240 53q-127 0 -178 -43q-47 -154 -94 -1007z" />
<glyph unicode="E" horiz-adv-x="1179" d="M0 379q0 131 96 237q72 80 213 154q-76 29 -108 61q-63 57 -64 162q0 215 318 320q220 73 466 73h7q98 0 133 -14l-2 2q84 -29 84 -112q0 -80 -51 -80q-16 16 -34 30.5t-38 28.5l2 -2q-39 16 -86 16q-207 0 -420 -59q-285 -82 -285 -227q0 -57 91 -88h-3q68 -25 152 -25 q33 0 100 6q35 4 59.5 6t41.5 2h-2q92 6 135 7h24q41 -29 41 -72v-10q0 -51 -57 -72q-47 29 -63 29q-170 0 -379 -84q-276 -115 -277 -297q0 -145 189 -217q139 -51 329 -52q80 0 189 19q125 20 178 47l115 59v68q108 -1 108 -62q0 -117 -260 -198q-201 -59 -338 -60 q-236 0 -397 82q-207 109 -207 322z" />
<glyph unicode="F" horiz-adv-x="882" d="M-25 1225q0 57 88 65q27 2 74 6t117 9q248 23 410.5 34t244.5 11q14 0 37 -1t47.5 -3.5t47 -3.5t36.5 -1h45q95 0 95 -43q0 -35 -43 -36l4 2q-20 -4 -29 -4q-6 0 -44 2t-77 2q-80 0 -192 -13l-265 -28q-84 -324 -86 -521q6 2 58 3q59 0 117.5 -2.5t115.5 -6.5 q6 -25 6 -34q0 -66 -159 -68q-78 -4 -148 -19q-2 -35 -2 -81q0 -47 -2 -107q-2 -27 -2 -55v-58q0 -201 31 -274q-47 -8 -62 -8q-88 0 -88 143v350q0 70 6 113q-43 2 -96 6t-119 14q-6 6 -16 25q0 2 2 2v2q4 16 4 21q58 22 136 22h7q70 0 80 -2l45 518q-39 -4 -110.5 -12 t-177.5 -20q-14 -4 -27 -13q-2 -2 -9 -6t-18 -12q-6 -6 -14 -8q-23 0 -63 59q0 2 -2.5 11t-2.5 20z" />
<glyph unicode="G" horiz-adv-x="1036" d="M0 424q0 387 225 766q53 90 101 131q57 51 157 51q57 0 254 -88q27 -12 52.5 -35.5t44 -54.5t29.5 -64.5t11 -64.5q0 -295 -83 -295q-92 0 -93 164q0 29 7 94q6 63 6 96q0 51 -70 97q-70 45 -123 45q-82 0 -180 -185q-199 -371 -199 -684q0 -305 230 -305q129 0 262 115 v-2q131 117 131 246q0 57 -21 71q-406 0 -555 -55q0 96 80 113q331 69 615 69h8q184 0 184 -51q0 -37 -184 -68q-4 -33 -9.5 -69.5t-13.5 -79.5q-31 -160 -172 -272q-143 -115 -301 -115q-195 0 -299 119v-2q-94 113 -94 313z" />
<glyph unicode="H" horiz-adv-x="1038" d="M-39 510q0 53 68 70q10 2 27.5 4t43.5 6q23 193 34 331t11 230q0 78 -18 156q102 -10 137 -43t35 -117q0 -96 -25 -270q-29 -188 -30 -269q6 -2 75 -2h39t74 2l270 6q0 20 3 25q2 16 4 45t6 72l39 512q-8 31 -9 53q0 65 76 65h2q47 0 85 -30.5t38 -71.5q0 -29 -20 -76 q-2 -4 -4 -13t-7 -21v2q-2 -4 -5 -14.5t-9 -28.5l2 2q-14 -74 -49 -318l-29 -199q51 -4 89 -5t61 -3q27 14 55 15q49 0 49 -41q0 -33 -63 -52q-25 -2 -66 -12q-16 0 -50 -3t-85 -7v-8t-2 -25v-41q0 -18 -2 -39v-22q0 -14 -2 -41q-2 -20 -2 -37v-27q0 -164 76 -258 q-72 -43 -115 -43q-20 0 -61 41t-84 86q-59 59 -213 174q-147 111 -191 127q-4 -47 -6 -90t-2 -82q0 -117 27 -225q-31 -6 -50 -6q-66 0 -79 39l-17 108q-6 39 -6 119q0 55 6 139l4 56h-65q-70 0 -70 55zM225 496q4 -2 19.5 -10.5t66.5 -34.5v2q63 -41 178 -117v2 q6 -3 29 -19q100 -70 182 -169l-2 352q-61 6 -237 6q-135 0 -172 10v-8q-63 -2 -64 -14z" />
<glyph unicode="I" horiz-adv-x="583" d="M-47 10q-2 37 117 51l118 15q0 4 -1 14t-3 31l-6 74q0 49 2 117.5t6 158.5l13 277l14 444q-45 0 -103.5 3t-129.5 7q57 57 116 90q160 16 251 25.5t114 9.5h82l80 -2q31 0 43 -31l-9 -26q-35 -16 -56 -24.5t-32 -10.5l-182 -33q-39 -133 -63 -442q-10 -141 -16.5 -270.5 t-6.5 -251.5q0 -29 1 -65t3 -79l109 4q121 0 121 -55q-29 -37 -183 -55q-57 -8 -106 -12.5t-92 -4.5q-197 0 -201 41z" />
<glyph unicode="J" horiz-adv-x="698" d="M-57 291v6q0 57 59 57q33 0 107 -73q23 -27 47 -52.5t47 -52.5q70 -55 135 -55q113 0 143 170q14 66 15 254v166v102q-2 31 -2 49v29v35l-5 276q0 14 -14 49q-6 20 -6 29q0 68 74 68q127 0 127 -76h-17q2 -10 0 -31q-6 -47 -13 -118.5t-15 -168.5q-8 -98 -12.5 -162.5 t-4.5 -95.5q0 -47 1 -103t3 -124q2 -35 2 -63v-52q0 -156 -16 -217q-39 -137 -158 -137q-117 0 -297 92q-201 102 -200 199z" />
<glyph unicode="K" horiz-adv-x="919" d="M-31 510l17 59q10 6 30.5 16.5t53.5 26.5q0 76 18 252q8 70 11 127.5t3 104.5v28l-8 164q70 111 107 111q70 0 69 -84h-18q0 -39 -4 -89t-12 -114l-27 -203l-23 -233q23 14 61 38.5t91 59.5q469 324 588 565q29 0 53.5 -33.5t26.5 -66.5l-2 -12q-53 -92 -148 -176 q-10 -14 -39 -39t-74 -64l-63 -53q-178 -152 -369 -277q-119 -78 -131 -81q0 -66 285 -220q287 -152 373 -153q16 -4 31.5 -7t29.5 -7q63 -18 66 -37q-4 -4 -16.5 -17.5t-20.5 -21.5l2 2q-29 -41 -60 -41q-20 0 -182 67q-117 49 -244 111.5t-268 138.5v-131t2 -69 q2 -82 29 -111q0 -41 -55 -41q-98 0 -99 186v123v13q0 10 2 20v35v43q-61 43 -86 90z" />
<glyph unicode="L" horiz-adv-x="1337" d="M-20 362q0 25 11 50.5t30.5 46t43 33t48.5 12.5q143 0 329 -66q25 -8 85.5 -34.5t158.5 -71.5q20 117 25 311q-4 0 -22.5 -3t-33.5 -5h2q-29 -4 -49 -7t-33 -3q-104 0 -104 51q0 25 39 63q28 -22 65 -22h3q84 0 143 26l65 363q14 82 37 144.5t51 107.5q51 82 117 82 q104 0 217 -193l-2 2q2 -6 11 -18q8 -10 18 -29.5t27 -46.5v2q20 -39 20 -106q0 -59 -76 -142q-111 -121 -346 -221q-4 -61 -20.5 -169.5t-44.5 -266.5q33 -23 227 -160q254 -180 375 -180h22l15 -29q-23 -43 -93 -43q-94 0 -251 103h2q-86 53 -168 105t-166 104 q-43 -84 -74 -111q-96 -90 -278 -90q-164 0 -295 125t-131 286zM102 360q0 -115 123 -215q125 -102 238 -102q78 0 136 50t63 126q-268 184 -484 184q-76 0 -76 -43zM874 801q263 109 263 293q0 59 -25 125q-27 81 -77 81h-1q-84 0 -160 -499z" />
<glyph unicode="M" horiz-adv-x="1505" d="M-168 33l39 26q59 -14 100 -20t64 -6q55 0 119 57v-2q49 37 92 115q117 207 207 506q98 319 98 534q0 109 80 109q47 0 145 -74q-24 -59 -24 -268v-17q0 -160 9 -299t30 -262q45 -291 110 -291q43 0 170 369q111 324 160 580q0 12 1 45.5t3 87.5q4 80 43 94 q184 0 195 -74q-33 -74 -60 -389q-24 -272 -24 -407v-11q0 -485 141 -524l12 -27q-29 -55 -59 -55q-129 0 -189 311q-37 199 -37 389v58q0 37 3 84q2 47 3 84t1 59v27q-16 -53 -45 -155.5t-74 -256.5q-129 -430 -260 -430q-160 0 -230 436q-2 16 -5 51t-11 88q-4 8 -37 271 q-20 -49 -74 -225q-213 -698 -503 -699q-106 0 -193 111z" />
<glyph unicode="N" horiz-adv-x="1056" d="M-92 37q0 51 45 51q18 0 47 -29q-16 -16 -16 -14q12 -4 30 -4q211 0 320 719q29 201 44 340t15 219q0 33 -2 35q44 67 96 67h2q123 0 123 -92q0 -512 82 -860q76 -332 137 -332q16 0 19 88l12 269q2 41 13.5 172t33.5 354q27 291 119 414q68 -11 68 -54q0 -12 -25 -69 q-12 -23 -12 -25l2 2q-27 -117 -47.5 -260t-36.5 -317q-14 -166 -21.5 -312.5t-7.5 -275.5q2 -8 6 -35v2q2 -16 3 -24.5t1 -10.5q0 -61 -108 -61q-92 0 -143 80v-2q-16 31 -68 186h2q-94 266 -174 764q-6 -29 -21.5 -136.5t-42.5 -297.5q-37 -266 -96 -424 q-84 -209 -256 -209q-143 0 -143 82z" />
<glyph unicode="O" horiz-adv-x="851" d="M0 489q0 528 262 877q51 68 103 68q18 0 43 -13q14 6 28 6q408 -24 408 -567q0 -317 -74 -541q-115 -344 -369 -344q-197 0 -307 164q-94 143 -94 350zM143 494q0 -420 244 -420h1q345 0 345 796q0 174 -45 289q-63 168 -211 168q-137 0 -246 -330q-88 -264 -88 -503z " />
<glyph unicode="P" horiz-adv-x="976" d="M-33 1143q0 55 27 82h-2q16 25 201 78l8 88q30 30 72 30h3h9q80 0 82 -82q104 23 192 34t162 11q158 0 268 -67q133 -80 133 -227q0 -250 -323 -420q-221 -115 -510 -170l-8 -267v-18q0 -155 100 -215q-29 0 -49.5 -1t-30.5 -3q-4 -2 -22 -2q-66 0 -86 39 q-8 14 -13.5 36.5t-9.5 57.5q-4 41 -7 129t-3 223q-18 0 -45 8l14 78l37 10v33q0 137 12 350l12 213q-57 -12 -122 -45q-49 -23 -91 -67q-4 29 -7 49t-3 35zM291 604q143 39 239 74q180 68 265 135q184 150 184 322q0 145 -217 145q-78 0 -277 -35q-14 -4 -39.5 -9 t-66.5 -13q-10 -4 -31 -6q-10 -37 -20.5 -120t-18.5 -214z" />
<glyph unicode="Q" horiz-adv-x="808" d="M0 588q0 268 115 563q59 152 94 188q70 80 176 80h4q117 0 250 -96q137 -96 164 -205q18 -71 18 -274q0 -100 -11 -208t-34 -224q-57 -309 -205 -412q111 -35 197 -35q14 0 53 21l-22 -80q-16 -16 -39 -17q-29 0 -72 4.5t-102 12.5t-102.5 12t-71.5 4q-158 0 -250 -26 q-10 -2 -39 -19h2q-30 -24 -46 -24h-1q-33 0 -33 43q0 51 78 81q16 6 33.5 12.5t40.5 14.5q-197 150 -197 584zM139 506q0 -465 250 -465q164 0 244 295q53 202 53 444q0 319 -55 428q-4 6 -60 35q-10 8 -22 18.5t-29 24.5q-20 14 -55 14q-74 0 -123 -51h2q-39 -43 -86 -151 q-119 -274 -119 -592z" />
<glyph unicode="R" horiz-adv-x="1107" d="M-39 1026q0 74 152 145l147 68q0 4 2 10v62q0 35 6 59q70 -12 94.5 -27.5t36.5 -52.5q350 61 475 62q133 0 248 -66q138 -76 138 -213q0 -68 -115 -188q-94 -98 -172 -140q-143 -76 -256 -126t-199 -74q25 -53 80 -129q72 -98 113 -144q63 -70 151 -122q106 -66 180 -66 q63 18 70 18q31 0 31 -45q-8 -4 -33 -19t-70 -38q-172 0 -346 141h2q-86 70 -272 283q-55 78 -64 78q-10 0 -18 -86q0 -16 -1 -43t-3 -62t-2 -61v-43v-6q0 -45 6 -100.5t16 -120.5q-16 -47 -47 -48q-43 0 -69 56v-2q-18 27 -19 73v56q0 86 2 180t6 201q8 172 11.5 280.5 t3.5 157.5q0 31 6 96q4 33 6 55.5t2 38.5q-27 -6 -129 -53q-98 -47 -98 -59q0 8 18 -19q-29 -29 -47 -28q-43 0 -43 61zM358 618q39 4 92.5 19.5t122.5 38.5q66 23 118 43t91 39q113 55 203 145q111 107 111 211q0 135 -217 135q-182 0 -476 -84q-6 -106 -30 -379 q-8 -74 -11.5 -115.5t-3.5 -52.5z" />
<glyph unicode="S" horiz-adv-x="839" d="M-47 139q0 37 45 51q25 -23 59 -59q6 -6 121 -33q174 -43 311 -43q190 0 191 105q0 59 -43 78l-449 196q-147 63 -147 256q0 182 164 522q82 172 198 172q123 0 226 -98q102 -94 112 -219q4 -76 7.5 -139.5t3.5 -116.5q0 -139 -64 -139q-63 0 -63 86q0 164 -19 315 q-10 63 -49 129q-49 78 -104 78q-86 0 -181 -246q-88 -221 -88 -344q0 -59 34 -112.5t85 -75.5l350 -150q170 -72 170 -207q0 -102 -114 -155q-92 -41 -195 -41q-297 0 -510 114q-51 27 -51 76z" />
<glyph unicode="T" horiz-adv-x="1107" d="M-31 1087q0 102 109 134l256 32q86 10 230.5 20.5t350.5 20.5q154 8 269.5 11.5t193.5 3.5q74 0 74 -49v-7q0 -49 -61 -49q-260 0 -539 -24q-6 -35 -18.5 -128.5t-32.5 -242.5q-61 -483 -62 -635v-22q0 -66 19 -185q-43 4 -94 29q-43 45 -43 164q0 92 7 210.5t21 266.5 q16 168 24.5 284.5t8.5 184.5v31q-2 8 -2 26h-29q-29 0 -67.5 -2t-89.5 -6q-430 -35 -431 -100q0 -43 160 -43q195 0 422 69q-66 -111 -125 -127q-94 -23 -174 -35t-147 -12q-229 0 -230 180z" />
<glyph unicode="U" horiz-adv-x="1071" d="M-68 950q70 -12 91 -12q225 0 415 424q133 -41 133 -90q0 -23 -36 -66l-23 -26q-8 -8 -11 -13.5t-5 -9.5q-145 -356 -146 -690q0 -174 27 -262h-2q47 -139 168 -139q102 0 190 180q31 61 55.5 128.5t45.5 139.5q75 279 75 532v7q0 98 -8 129v-2q-6 18 -6 47q18 37 57 37 q45 0 135 -72l5 -25q-16 -23 -35 -90q-10 -35 -15.5 -60.5t-7.5 -41.5l-63 -623v-198q0 -168 57 -207q-41 -31 -76 -31q-78 0 -94 170q-2 6 -8 180q-29 -57 -50.5 -97t-37.5 -63q-94 -131 -219 -131q-328 0 -328 508q0 174 64 449q-119 -82 -191 -82q-61 0 -156 100z" />
<glyph unicode="V" horiz-adv-x="1085" d="M-37 727q0 150 160 412q146 235 275 235h1q80 0 140 -86q53 -78 53 -162q0 -59 -6 -148t-21 -208q-24 -229 -24 -345v-9q0 -98 34 -228q43 -149 110 -149h1q117 0 215 467q86 408 86 780q0 8 2 19v6q0 4 2 8v6q-2 4 -2 8v-2q0 6 -18 35q39 31 59 31q60 0 60 -109 q0 -479 -93 -887q-109 -471 -292 -471q-170 0 -246 211q-53 154 -53 338q0 63 5 145.5t15 186.5q25 246 25 328q0 118 -42 118h-1q-66 0 -195 -186q-129 -188 -150 -262q-2 -8 -7 -28.5t-15 -55.5q-14 -57 -39 -57q-39 0 -39 59z" />
<glyph unicode="W" horiz-adv-x="1105" d="M0 641q0 84 6 218t21 323q-6 25 -7 49q0 90 66 90q41 0 79 -29.5t38 -64.5q0 -63 -25 -152q-33 -119 -35 -147q-18 -178 -18 -430q0 -66 7 -130.5t22 -129.5q41 -182 110 -183q59 0 119 140q47 109 61 206q39 254 50 676l-1 11q-1 10 -3.5 23t-3.5 27.5t-1 22.5 q57 23 88 23q59 0 109 -60q-82 -82 -82 -665q0 -102 29 -234q37 -159 103 -159h1q106 0 193 397q35 156 52 279.5t19 220.5v61q0 39 -2 92l-4 152q0 2 -12 37q-12 33 -12 55q0 39 41 39q39 0 61 -43v2q33 -58 33 -314q0 -328 -62 -616q-96 -453 -303 -453q-98 0 -162 99 q-29 49 -73 188q-76 -321 -227 -321h-1q-274 0 -274 700z" />
<glyph unicode="X" horiz-adv-x="980" d="M0 733q0 166 86 342q100 203 219 203q147 0 221 -164q16 -35 35 -107.5t41 -183.5q117 162 229.5 288t225.5 220q41 -23 41 -45q0 -37 -58 -96l-71 -78h2q-141 -166 -226.5 -274.5t-113.5 -163.5q80 -344 149 -473q20 -37 40 -77t42 -81l-2 2q51 -61 156 -65 q0 -41 -19 -60q0 4 -10 -6v2q-16 -4 -35 -4q-145 0 -250 162q-41 66 -85 176t-91 270q-276 -424 -278 -497l10 -84q-125 8 -125 90q0 72 178 346q82 127 126 198.5t48 90.5q-53 301 -73 372q-41 135 -84 135q-78 0 -164 -186q-76 -160 -76 -233v-7q10 -37 10 -45 q0 -47 -43 -47q-55 0 -55 80z" />
<glyph unicode="Y" horiz-adv-x="788" d="M-111 -317q0 57 70 57q14 0 135 -92q119 -92 182 -92q324 0 324 559q0 27 -2 81t-6 138q-41 -121 -68 -172q-88 -162 -221 -162q-285 0 -285 416q0 76 5.5 164t15.5 192q24 238 24 344v8q0 2 -1 11.5t-1 21.5t-1 24.5t-1 18.5q0 84 56 84q23 0 114 -80q0 -12 -6 -39 q0 -2 -8 -35q-2 -4 -3 -12t-5 -18l2 4q0 -4 -1 -11.5t-3 -17.5q-29 -168 -43.5 -331.5t-14.5 -323.5q0 -336 140 -336q98 0 188 184q90 188 129 512q12 111 37 531q2 55 68 55h6q88 0 88 -70v-6q-23 -82 -38 -156.5t-26 -142.5q-30 -197 -30 -497v-19q0 -66 2 -129t6 -127 q12 -188 12 -256q0 -172 -100 -328q-113 -174 -281 -174q-86 0 -258 66q-201 78 -201 156z" />
<glyph unicode="Z" horiz-adv-x="917" d="M-39 72q0 72 131 266q45 66 93 128t102 126h-2l301 346q157 181 157 195q0 6 -51 6q-250 0 -502 -72q-47 -16 -47 -29v-20q-84 0 -84 51q0 66 115 102q70 23 211 50q291 55 393 55q76 0 131.5 -49t55.5 -123q0 -43 -84 -84l-11 -6q-57 -29 -510 -531q-29 -33 -66.5 -81 t-84.5 -111q-115 -158 -115 -187q16 -4 56 -4q72 0 217 25q72 14 127 20.5t92 6.5q72 0 162 -13q139 -18 139 -61q0 -51 -68 -51q-12 0 -29.5 2t-37 4t-37 4t-29.5 2q-35 0 -88 -5t-125 -16l-199 -26q-12 0 -88 -21q-4 -2 -16 -6q-63 -20 -104 -20q-51 0 -80 47 q-25 33 -25 80z" />
<glyph unicode="[" horiz-adv-x="536" d="M139 1317q0 57 99 57h215q51 0 51 -47q0 -51 -25 -76v2q-12 -12 -24 -12q-16 0 -39 8q-20 6 -31.5 9.5t-15.5 5.5q-49 0 -99 -17q-8 -51 -12 -96t-4 -84v-489q0 -502 33 -660q6 -4 26 -6q2 -2 13 -2q6 0 19 2t24 2q6 0 19 1t28.5 3t28 3t18.5 1q51 0 51 -41 q0 -66 -61 -65q-10 0 -41 -3t-82 -8q-66 -14 -121 -14q-49 0 -49 41v746q0 86 -3 195.5t-7 246.5z" />
<glyph unicode="\" horiz-adv-x="178" d="M6 33q0 27 29 43h-2q6 0 8 2l12 6q18 0 78 197q14 51 31.5 116.5t38.5 149.5q16 59 43 59q33 0 32 -47q0 -66 -71 -299q-82 -260 -142 -260q-57 0 -57 33z" />
<glyph unicode="]" horiz-adv-x="499" d="M72 1300q0 63 61 64q41 0 121 12q82 12 123 13q47 0 47 -41l2 -752q0 -84 3 -193.5t7 -248.5l10 -291q0 -57 -98 -58h-215q-51 0 -51 48q0 51 24 75v-2q12 12 25 13q14 0 37 -9q18 -6 30.5 -9t18.5 -5q43 0 96 16q10 55 14.5 130t6.5 169h12q-14 45 -14 365 q0 469 -31 664q-10 4 -19.5 6t-19.5 4h-8q-2 -2 -6 -2q-18 -2 -78 -6q-29 -2 -41 -3.5t-6 -1.5q-51 0 -51 43z" />
<glyph unicode="^" horiz-adv-x="591" d="M121 784q0 55 33 152q14 37 28.5 74t28.5 75v-2q31 131 55 170h-2q43 78 133 78h27q37 -39 45 -108q14 -39 35.5 -101.5t52.5 -150.5q20 -55 34.5 -95t24.5 -63q13 -28 13 -53q0 -39 -37 -39q-45 0 -133 192q-59 133 -97 269q-4 0 -16 -39q-2 -2 -8 -27q-23 -45 -43 -106 q-4 -10 -9 -26.5t-14 -41.5l-73 -215q-16 -31 -45 -31q-33 0 -33 88z" />
<glyph unicode="_" horiz-adv-x="985" d="M0 -76h1030v-86h-1030v86z" />
<glyph unicode="`" horiz-adv-x="401" d="M-10 991q0 41 43 53l-2 -2q16 4 18 5q35 0 57 -35v2q88 -88 89 -103q0 -14 -13 -32l-20 -23l-88 51q-23 16 -35 19h2q-51 31 -51 65z" />
<glyph unicode="a" d="M-41 238v26q0 88 43 258q57 217 113 217q98 0 125 -57l30 -64l76 -24q-68 -215 -67 -363v-18q0 -121 36 -121q51 0 158 463q16 59 47 59q35 0 35 -49q0 -66 -72 -299q-81 -266 -157 -266q-70 0 -115 98q-49 -133 -131 -133q-121 0 -121 273zM51 131q0 -72 33 -80 q29 23 66 144q16 53 26 93t14 68l21 170l-21 31q-10 78 -28 78q-14 0 -41 -80l-4 -12q-4 -10 -12.5 -42t-22.5 -83q-31 -115 -31 -287z" />
<glyph unicode="b" horiz-adv-x="462" d="M0 96l4 19v45q0 319 37 631l51 430q2 16 3 31.5t1 27.5q0 25 -2 27q14 36 56 36h2h8q63 0 63 -69q0 -25 -12 -76v2q-8 -35 -14.5 -65.5t-10.5 -53.5q-27 -160 -43 -281.5t-26 -207.5q41 133 116 133q134 0 134 -199q0 -72 -9.5 -150.5t-25.5 -166.5q-51 -254 -148 -254 q-51 0 -88 78q-16 -23 -35 -23q-23 0 -42 28t-19 58zM109 141q27 -33 43 -63q8 -20 22 -21q27 0 55 109q41 163 41 323q0 145 -22 146q-39 0 -90 -217q-47 -195 -49 -277z" />
<glyph unicode="c" horiz-adv-x="309" d="M-14 291q0 129 37 274q49 182 127 183q35 0 71 -48q37 -47 37 -82q0 -67 -50 -67h-1q-31 0 -64 27q-61 -102 -61 -359q0 -131 55 -131q92 0 180 401q4 12 8.5 33l10.5 49h-2q14 43 43 43q35 0 35 -53q0 -14 -9.5 -54t-25.5 -110q-39 -160 -68 -229q-72 -172 -155 -172 q-168 0 -168 295z" />
<glyph unicode="d" horiz-adv-x="479" d="M-33 201q0 174 56 368q70 240 159 240q31 0 72 -35q2 -2 6 -5t10 -9q4 35 11.5 89t17.5 132q6 45 16.5 126t26.5 202v8q-2 2 -2 8q0 51 33 59q20 4 39 5q59 0 59 -62v-10q-2 -4 -2 -10q-6 -49 -25 -142l-47 -245q-4 -10 -24 -197l-21 -176q-16 -141 -24.5 -224t-8.5 -106 q0 -18 1.5 -35.5t3.5 -34.5q6 -53 22 -59q25 14 88 225q23 80 41.5 143.5t28.5 110.5q14 61 45 62q35 0 35 -49q0 -80 -76 -310q-90 -270 -152 -270q-88 0 -118 139q-4 -14 -11.5 -29.5t-17.5 -35.5q-53 -96 -109 -97q-74 0 -106 80q-27 59 -27 144zM70 244q0 -174 22 -174 q27 0 80 135q39 104 61 203v24q8 78 12.5 122t4.5 52q0 70 -39 70q-49 0 -98 -182q-43 -160 -43 -250z" />
<glyph unicode="e" horiz-adv-x="358" d="M-8 252q0 66 5 133.5t15 136.5q37 227 123 228q49 0 88 -36t39 -83q0 -145 -84 -332q-20 -45 -39.5 -81t-36.5 -64q0 -31 29 -60q25 -35 47 -35q72 0 187 430q33 125 53 125q43 0 43 -43q0 -27 -27 -133q-45 -199 -78 -272q-76 -186 -182 -186q-94 0 -143 92 q-39 76 -39 180zM92 285q12 23 23.5 54.5t21.5 70.5q37 130 37 198q0 47 -8 47q-4 -4 -6 -12q-59 -184 -68 -358z" />
<glyph unicode="f" horiz-adv-x="333" d="M-20 -313q0 367 30.5 774t93.5 866q27 25 78 25q41 0 82 -41q-51 -76 -69 -189q-39 -240 -65 -441.5t-36 -369.5q41 -14 70 -67h-2q2 -4 10 -25.5t25 -62.5q39 2 79 116v-2q14 41 36 121t50 203v-2q8 43 37 43q37 0 37 -49q0 -27 -28 -137q-4 -18 -16.5 -67.5 t-33.5 -131.5q-23 -90 -73 -139h2q-29 -25 -66 -39q49 -219 49 -357q0 -283 -65 -403q-14 -27 -64 -27q-162 0 -161 375v27zM72 -317q0 -35 3 -80t11 -99v2q25 -131 45 -131q18 0 41 127q18 106 18 172q0 240 -55 392q-8 4 -19.5 13t-27.5 25q-8 -141 -12 -246.5t-4 -174.5z " />
<glyph unicode="g" horiz-adv-x="454" d="M-297 -453q0 182 367 316q14 4 50 14t95 27q-2 12 -3 34.5t-5 57.5q-2 23 -3 33l-1 10q-47 -84 -99 -84q-78 0 -114 80q-31 61 -31 149q0 137 55 363q66 250 136 250q49 0 122 -90v2q70 -84 136 -105q-109 -201 -109 -487q0 -70 12 -195q100 12 185 12q106 0 106 -71 q0 -56 -63 -56q-25 0 -76 23q-139 0 -146 6q0 -12 1 -34.5t1 -45.5t1.5 -45t1.5 -35q0 -203 -43 -303q-63 -149 -240 -149h-2q-123 0 -232 96v-2q-102 92 -102 229zM-199 -471q0 -82 70 -143q68 -61 149 -62q211 0 211 338q0 18 -2 55t-6 90q-104 0 -162 -24 q-260 -113 -260 -254zM61 147q0 -108 28 -108h1q51 0 109 229q51 197 51 287q0 111 -84 111q-6 -16 -49 -172q-55 -201 -56 -347z" />
<glyph unicode="h" horiz-adv-x="524" d="M10 324q0 162 43 485q23 162 34 283.5t11 203.5q0 10 -1 24.5t-3 33.5q23 47 76 47h6q57 0 57 -55q0 -31 -16 -93v2q-6 -25 -10 -43t-6 -32q-45 -299 -67.5 -512t-22.5 -349h-33q35 0 37 -32q4 -16 6 -58q72 231 125 521q12 69 56 69h1q27 0 105 -65q-53 -291 -54 -480 q0 -141 41 -141q37 0 109 256q12 47 23.5 91t21.5 89q12 59 45 60q37 0 37 -45q0 -21 -66 -273q-20 -76 -33.5 -124t-23.5 -70q-41 -96 -102 -97q-135 0 -144 240q0 27 -1 78t-3 129q-16 -68 -43 -184.5t-65 -282.5q-20 -14 -44 -14q-96 0 -96 338z" />
<glyph unicode="i" horiz-adv-x="241" d="M-6 217q0 74 12 221t12 221q25 27 56 27q66 0 65 -49l-24 -121q-16 -90 -25.5 -165t-9.5 -138q0 -113 35 -113q20 0 49 93l57 196q18 68 43 174q14 63 45 64q35 0 35 -49q0 -53 -65 -281q-47 -158 -62 -197q-41 -98 -104 -98q-119 0 -119 215zM35 1108q0 27 25.5 55.5 t50.5 28.5q79 0 79 -92q0 -94 -63 -94q-37 0 -64.5 31.5t-27.5 70.5z" />
<glyph unicode="j" horiz-adv-x="266" d="M-510 -451q0 57 35 105q10 12 23.5 30.5t33.5 41.5l-2 -2q109 143 424 225l-6 153q-2 33 -2 72q0 76 8 172q8 88 12 148.5t4 95.5v6q-4 16 -4 22l-12 31q70 20 100 21q59 0 60 -52q-37 -90 -55 -280q-8 -72 -11.5 -145.5t-3.5 -149.5v-55q0 -23 2 -33q16 2 27.5 3t15.5 1 l66 6q53 0 92 -20q63 -33 63 -82q0 -20 -26 -53q-29 0 -49 30q-39 39 -107 39q-8 0 -51 -6q-6 0 -12 -2h-11l13 -313v-6q0 -105 -74 -197q-76 -94 -195 -94q-129 0 -235 75q-123 86 -123 213zM-416 -465q0 -80 84 -133q78 -47 160 -47t132 54t50 140v5l-6 299 q-29 -8 -68.5 -23.5t-91.5 -42.5q-260 -135 -260 -252zM35 1108q0 27 25.5 55.5t50.5 28.5q79 0 79 -92q0 -94 -63 -94q-37 0 -64.5 31.5t-27.5 70.5z" />
<glyph unicode="k" horiz-adv-x="499" d="M-4 182q0 92 9 224.5t26 306.5q39 358 43 528q-2 10 -3 20.5t-1 20.5q0 92 59 92q35 0 57.5 -27.5t22.5 -64.5q0 -53 -41 -233l-29 -215q-10 -90 -19 -169t-14 -149q25 61 62 141q59 127 123 127q49 0 83 -35.5t34 -84.5q0 -96 -54 -187q-8 -14 -28.5 -49t-53.5 -90 q-2 -18 -3 -31.5t-1 -21.5q0 -55 15 -111q20 -80 59 -80q59 0 168 416v-2q4 18 7 36.5t7 37.5q16 47 45 47q35 0 35 -43q0 -64 -53 -236q-6 -23 -18.5 -60.5t-28.5 -94.5q-66 -195 -154 -195q-96 0 -139 100q-4 4 -37 138q-8 -6 -24.5 -18.5t-43.5 -29.5q-2 -10 -4 -36.5 t-6 -71.5q12 -37 13 -64q0 -47 -50 -47q-63 0 -63 211zM129 305q47 23 109 148q73 149 73 219q0 22 -11 22h-1q-31 0 -100 -186q-63 -164 -70 -203z" />
<glyph unicode="l" horiz-adv-x="374" d="M0 377q0 489 121 870l-2 -2q10 152 84 152q143 0 143 -219q0 -170 -61 -394q-33 -117 -70 -208t-82 -158v2q-2 -4 -6 -11.5t-8 -15.5q-6 -2 -10 -14q-12 -16 -13 -33q0 -139 58 -215q37 -51 61 -51q55 0 156 377q8 8 8 16l-2 -2l9 45t13 57v-2q12 57 43 58q37 0 37 -49 q0 -74 -78 -318q-96 -287 -190 -287q-113 0 -170 156q-41 113 -41 246zM102 561q23 57 45.5 122t45.5 136q57 192 57 303q0 92 -8 123q-125 -430 -140 -684z" />
<glyph unicode="m" horiz-adv-x="815" d="M18 496q0 118 65 118h1q70 0 70 -94q0 -23 -3.5 -58.5t-11.5 -82.5t-11 -83t-3 -58q0 -31 1 -57.5t3 -49.5q23 49 41 148q27 150 31 155q49 195 127 195t78 -152q-10 -76 -15.5 -140.5t-5.5 -119.5v-74q27 0 88 217q53 195 53 236v8q-2 2 -2 6q6 39 62 39q35 0 100 -41 q-53 -254 -53 -387q0 -127 26 -127q39 0 99 166q8 25 27.5 90.5t48.5 173.5v-4q0 14 12 51q12 39 41 39q37 0 37 -43q0 -100 -121 -413q-61 -154 -144 -154q-102 0 -118 176q-2 10 -2 31v53q-10 -35 -21.5 -69.5t-25.5 -71.5q-45 -119 -109 -119q-88 0 -88 133q0 -10 18 340 q-2 -6 -8 -32.5t-16 -73.5q-12 -53 -26.5 -116t-31.5 -134q-45 -143 -118 -144q-82 0 -82 203v49t2 70t3 69.5t1 49.5l-17 45v20q-2 6 -2 17z" />
<glyph unicode="n" horiz-adv-x="544" d="M20 514q2 53 13 82v-2q14 45 65 45q57 0 58 -55q0 -20 -15 -56q-4 -27 -7 -40t-3 -17v-43t-2 -61q-2 -35 -2 -62v-43q0 -111 10 -121q-4 8 6 37v-2q16 72 43 152l-2 -2q29 86 45.5 159.5t20.5 137.5q6 90 41 114q123 -10 123 -82h-19q3 -12 3 -34q0 -30 -5 -78 q-10 -102 -15 -163t-5 -81q0 -190 35 -190t92 192q23 76 39 135.5t26 100.5q14 75 48 75h1q35 0 35 -47q0 -59 -67 -270q-96 -295 -166 -295q-86 0 -117 154q-4 27 -10 80t-10 133q-18 -66 -35 -130.5t-33 -130.5q-23 -98 -78 -98q-76 0 -92 96l-8 148q-2 37 -3 58.5 t-1 25.5q0 16 1 34.5t3 41.5l6 65z" />
<glyph unicode="o" horiz-adv-x="473" d="M0 293q0 170 31 250l-2 13t-2 36q6 27 14 35q2 8 4 20t6 33l6 22q20 82 84 82q57 0 115 -45q61 -49 76 -100q18 -55 18 -277q14 -12 29 -12q57 0 82 66q14 29 39 149q8 51 41 51q37 1 37 -36q0 -102 -46 -201q-55 -125 -141 -125q-20 0 -51 14q-4 -10 -12 -57q0 -2 -1 -6 t-3 -15q-35 -98 -56 -135h2q-44 -69 -108 -69h-2q-160 0 -160 307zM102 268q0 -190 66 -190q10 0 39 65q43 101 43 148q0 20 -4 50t-13 71q-8 41 -11 72.5t-3 54.5q0 37 2 43q2 23 3 33t1 8q0 49 -41 49q-25 0 -55 -172q-14 -78 -20.5 -136.5t-6.5 -95.5z" />
<glyph unicode="p" horiz-adv-x="487" d="M-49 -379q0 164 43 555q16 168 25.5 293t9.5 207v16q-10 16 -11 29q0 45 50 45q53 0 53 -76q0 -6 -2 -31.5t-2 -33.5v-23q2 4 6 14.5t10 26.5q51 125 90 125q96 0 135 -63q29 -52 29 -152q0 -190 -33 -334q-55 -248 -190 -248q-45 0 -78 45q-2 4 -5 9.5t-9 13.5 q-14 -98 -21.5 -200.5t-7.5 -213.5q0 -160 33 -227q0 -33 -45 -33q-80 0 -80 256zM96 217q37 -23 37 -47q0 -12 -12 -27q0 -10 -4 -10q0 -27 15 -52.5t34 -25.5q49 0 90 152l2 10q33 125 33 209v27q2 6 2 32v64q0 135 -43 135q-14 0 -29 -39q-2 -2 -14 -39q-6 -23 -25 -74 q-82 -229 -86 -315z" />
<glyph unicode="q" horiz-adv-x="421" d="M-31 166q0 156 31 319q51 260 154 260q45 0 92 -77q14 14 28 14q25 0 47.5 -29.5t22.5 -58.5q0 -4 -4 -21l2 9q0 -39 -6 -119q-2 -39 -3 -67.5t-1 -49.5q0 -111 7 -237.5t21 -272.5q10 35 33 97.5t58 154.5q8 20 18 41t35 21h8l16 -29q-47 -109 -104 -322 q-43 -154 -43 -168q0 -10 35 -133v-35q0 -36 -61 -36h-3q-69 0 -69 59q0 10 4 27l-2 -5q-4 86 -10.5 179.5t-16.5 197.5q-2 25 -7 92.5t-13 178.5q-16 -55 -37 -101q-37 -80 -101 -80q-131 0 -131 191zM63 205q0 -141 29 -142q35 1 88 216q23 98 36 165.5t15 108.5 q-18 14 -47 70q-6 12 -22 12q-31 0 -58 -107q-41 -164 -41 -323z" />
<glyph unicode="r" horiz-adv-x="425" d="M-8 381q0 43 22 139q10 47 16.5 82t6.5 57q0 14 -17 64q-14 43 -14 72q0 116 65 116h1q59 0 59 -80v-14q0 -35 -2 -41v-6l-4 -61q0 -4 72 -45q90 -53 90 -119q0 -33 -3 -81t-12 -114q-8 -63 -11 -110t-3 -80q0 -74 35 -74q20 0 86 203q31 98 49 163.5t23 104.5 q8 61 47 61q33 0 32 -47q0 -78 -75 -305q-89 -266 -150 -266q-72 0 -117 74q-18 31 -20 129q-2 23 -2 43v37v39q0 27 2 65l4 156q0 25 -57 63q-16 -86 -45 -182v4q-4 -4 -13 -35q-4 -4 -14 -31z" />
<glyph unicode="s" horiz-adv-x="294" d="M-45 266q74 315 74 451q0 71 61 71h2q70 0 70 -57q0 -18 -8.5 -52t-8.5 -50q0 -72 41 -223q45 -160 45 -226q0 -207 -133 -207q-25 0 -49 10.5t-42.5 29t-31 41t-12.5 46.5q0 53 29 60q29 0 28 -49q20 -55 50 -56q63 0 63 131q0 57 -35 201q-2 16 -18 64 q-43 -188 -88 -189q4 0 -5.5 1t-31.5 3z" />
<glyph unicode="t" horiz-adv-x="286" d="M-246 975q0 33 43 33q55 0 121 2t143 6v2q0 -10 1 20.5t4 102.5l-9 39q12 34 41 34h2q27 0 99 -47v-55q-2 -14 -7.5 -38.5t-13.5 -59.5h39h70t53 -2q12 -2 86 -3t209 -5v-33l-4 -13q-18 -18 -111 -32q-84 -14 -114 -15h-91q-43 0 -82 2l-77 2q-23 -156 -34 -272.5 t-11 -193.5q0 -86 1 -140.5t3 -81.5q10 -102 37 -102q63 0 151 395q25 106 53 107q39 0 39 -52q0 -76 -69 -284q-88 -272 -181 -273q-84 0 -120 150q-20 80 -21 188q0 35 12.5 174.5t34.5 384.5q-14 2 -53 3q-41 0 -111 2l-57 -19q-20 23 -43 33q-33 12 -33 41z" />
<glyph unicode="u" horiz-adv-x="530" d="M14 166q0 418 29 465q18 29 51 28q27 0 48.5 -22.5t21.5 -50.5q0 -31 -8 -49v2q-2 -8 -6.5 -19.5t-8.5 -27.5l2 2q-14 -78 -20 -168t-6 -191q0 -65 17 -65h1q12 0 37 39v-3q39 76 61 181l37 184q20 100 21 176q0 4 -2 11.5t-2 11.5q0 65 55 65h2q76 0 76 -51 q0 -10 -25 -74q0 -23 -18 -147v2q-8 -59 -12.5 -104.5t-4.5 -73.5q0 -164 37 -164q35 0 95 201q16 61 33.5 122.5t33.5 124.5q14 43 43 43q35 0 35 -43q0 -66 -66 -278q-86 -272 -180 -273q-51 0 -90 76v-2l-20 51q-12 -27 -24.5 -53t-25.5 -53q-35 -53 -96 -53t-94 61 q-27 51 -27 119z" />
<glyph unicode="v" horiz-adv-x="415" d="M25 377v39q0 25 2 57q2 33 2 55v41q-4 20 -4 25q0 37 34 37h7q73 -4 73 -80q0 -18 -2 -43t-6 -59q-4 -33 -6 -57.5t-2 -41.5q0 -221 37 -221q10 0 53 147q47 160 47 252v138q-6 33 -12 55l22 4h-22q0 33 31 33q65 -1 65 -183q0 -102 -47 -309q-57 -248 -145 -248 q-127 0 -127 359z" />
<glyph unicode="w" horiz-adv-x="618" d="M0 231q0 133 12 263q15 178 23 192q14 31 53 31q29 0 78 -49q-76 -195 -76 -430q0 -131 37 -144q74 113 74 268q0 18 2 46t6 63t6 62.5t2 46.5q0 4 -1 9l-3 15l-8 35q31 33 69 33q63 0 64 -56q0 2 -5 -22.5t-16 -71.5q-8 -86 -11 -136t-3 -67q0 -27 6 -71.5t21 -108.5h-2 q6 -16 24 -16t54 164q10 47 15 81.5t5 57.5q0 16 -3 38.5t-7 51.5t-7 51.5t-3 38.5q0 102 2 105v-2q8 61 53 84q55 -29 59 -80l8 -283q2 -14 31 -14q49 0 72 84q2 8 4 22.5t6 34.5q16 59 49 59q35 0 35 -41q0 -57 -35 -149q-43 -111 -102 -111q-41 0 -84 19l-33 -195 q-31 -108 -113 -108h-2q-68 0 -116 108q-47 -139 -117 -139q-123 0 -123 231z" />
<glyph unicode="x" horiz-adv-x="436" d="M27 -63q0 33 67 208q-20 104 -29.5 193.5t-9.5 163.5v24l-24 33q2 12 4 37t6 61q8 74 57 74q68 0 68 -115q0 -16 -1 -38.5t-3 -53.5t-2 -53v-39q0 -35 1 -62.5t3 -45.5q18 47 49 117.5t74 168.5q2 2 8 23v-2q10 23 28.5 57.5t43.5 81.5q59 -37 59 -63q0 -23 -80 -183 q-51 -104 -89 -192t-62 -166q4 -23 23.5 -43.5t37.5 -20.5q88 0 190 394v-2q2 25 13 61v-2q16 65 42 65h1q39 0 39 -47q0 -78 -74 -288q-96 -274 -221 -275q-45 0 -103 49l-2 -14q-4 -20 -12 -59t-18 -97q-84 10 -84 50z" />
<glyph unicode="y" horiz-adv-x="466" d="M-182 35q0 31 45 51q20 0 86 190q27 78 44 145.5t27 125.5q0 153 73 153h1q47 0 47 -43v-6l-20 -205q-8 -82 -12.5 -141t-4.5 -98q0 -141 33 -141t107 286v-4q6 51 17 141.5t28 221.5q8 69 67 69h2h9q45 0 45 -45q0 -43 -41 -203q-16 -66 -17 -301v-98v1l6 -175l2 -63 l20 6q19 6 34 6q63 18 92 18q106 0 106 -65q0 -14 -10 -31l-20 -8q-70 14 -111 14q-20 0 -98 -22q0 -12 1 -31t2 -39t2 -38.5t1 -31.5q0 -477 -307 -477q-96 0 -164 72q-70 70 -70 178q0 154 180 291q129 100 256 131q-2 72 -5 133t-11 111q-29 -66 -43 -86q-35 -41 -80 -41 q-111 0 -135 147q-2 8 -2 47q-63 -180 -119 -180q-63 0 -63 35zM-26.5 -675.5q34.5 -45.5 83.5 -45.5q117 0 179 141q47 111 47 242v119q-131 -39 -230 -129q-114 -103 -114 -223q0 -59 34.5 -104.5z" />
<glyph unicode="z" horiz-adv-x="530" d="M-119 -500q0 244 404 432q-20 74 -92 115q-51 -39 -82 -39q-88 0 -88 70q0 69 103 69h3q94 111 129 195q47 123 47 287q0 119 -67 119q-47 0 -88 -60q-35 -53 -44 -104q-12 -78 -36 -78q-43 0 -43 51q0 59 41 158q57 137 143 137q92 0 143.5 -63.5t51.5 -163.5 q0 -276 -166 -512q80 -45 139 -154q74 12 137 12q88 0 88 -57q0 -27 -29 -43l-12 -2q-43 14 -96 14q-18 0 -34.5 -1t-31.5 -3q8 -70 12.5 -109.5t4.5 -50.5q0 -160 -62 -297q-78 -172 -221 -172q-100 0 -176 74v-2q-78 74 -78 178zM-4 -524q0 -57 30.5 -95t84.5 -38 q111 0 172 145q45 109 45 242q0 63 -13 123q-125 -35 -219 -142q-100 -113 -100 -235z" />
<glyph unicode="{" horiz-adv-x="587" d="M61 526q0 49 39 76q23 14 47.5 27.5t47.5 27.5q41 141 41 435v67q0 29 -3 43q0 4 -2 10v11q0 139 187 139q33 0 39 2q23 2 34 3t9 1q53 0 53 -47v-6q0 -45 -49 -47l-2 16q-6 -12 -74 -12q-59 0 -68 -27q-8 -31 -13 -107.5t-9 -201.5q-4 -68 -19 -197q-27 -119 -98 -161 q-29 -18 -43 -37q-12 -10 -12 -17q2 -2 6 -5t12 -11l23 -23q4 -4 22 -16q2 -2 5.5 -6t9.5 -10l-2 6q8 -10 19 -25.5t26 -38.5q20 -33 28 -110q14 -121 21.5 -229.5t7.5 -207.5q0 -63 84 -63h70q39 -8 39 -51q0 -27 -31 -33q-6 0 -17.5 1t-23.5 2t-23.5 2t-15.5 1 q-178 0 -178 88q0 31 -4 83t-13 124q-4 51 -7 101.5t-7 101.5q-12 127 -41 190v-2q-18 39 -74 66q-41 23 -41 67z" />
<glyph unicode="|" horiz-adv-x="444" d="M199 80q0 168 8 367.5t24 433.5q37 528 101 528q35 0 35 -55q0 -88 -27 -240q-4 -33 -10 -107.5t-13 -195.5q-8 -168 -12 -306t-4 -249q0 -100 3 -188t7 -164q2 -25 19 -84q18 -59 18 -84q0 -29 -18 -66l2 4v2q-8 -20 -21 -32h-4q-51 0 -61 28v-2q-47 145 -47 410z" />
<glyph unicode="}" horiz-adv-x="587" d="M55 -244q0 43 49 47v-14q6 10 76 10q57 0 66 27q14 43 22 303q10 238 66 317q6 12 49 41q31 16 45 37q12 12 12 19q-12 10 -27.5 23.5t-33.5 29.5q-4 4 -8 9t-9 9l3 -6q-61 74 -74 174q-14 117 -21.5 226.5t-7.5 214.5q0 29 -24.5 47t-57.5 18h-69q-41 10 -41 49 q0 29 30 35q2 0 12.5 -1t30.5 -3q6 -2 39 -2q90 0 131 -25q51 -31 54 -112q2 -27 3 -66t5 -90q4 -41 8 -94t8 -119q2 -111 41 -190v2q8 -18 32.5 -41t41.5 -27q41 -10 41 -63q0 -55 -39 -76q-39 -20 -63.5 -34.5t-34.5 -22.5q-39 -137 -39 -428q0 -23 1 -49.5t3 -59.5 q0 -4 2 -10v-13q0 -137 -189 -137q2 0 -8 -1l-30 -3q-6 -2 -41 -2q-53 0 -54 45v6z" />
<glyph unicode="~" horiz-adv-x="985" d="M92 313q0 88 94 158q94 74 183 74q88 0 176 -88l71 -72q33 -27 70 -27h12q119 14 133 125q0 43 50 43h6q57 0 57 -53q0 -90 -76 -154q-78 -61 -168 -61h-10q-74 0 -131 39q-16 6 -98 88q-55 55 -86 55q-72 0 -111 -51q-31 -31 -80 -104q-16 -12 -37 -13q-55 0 -55 41z " />
<glyph unicode="&#xa1;" horiz-adv-x="335" d="M145 43q82 266 82 786q0 188 -12 261q33 18 37 18q18 0 29 -25v2q33 -61 43 -141q2 -18 3 -55t1 -92q0 -125 -12.5 -321.5t-34.5 -471.5q-12 -33 -56 -33q-45 0 -78 56zM190 1266q0 25 20.5 55.5t39.5 30.5q31 0 54.5 -24.5t23.5 -61.5q0 -25 -25 -70h2q-25 -53 -47 -53 q-35 0 -53 51q-15 27 -15 72z" />
<glyph unicode="&#xa2;" horiz-adv-x="450" d="M0 698q0 295 119 389v62q8 74 37 74q41 0 41 -31v-88q16 -8 33.5 -17.5t37.5 -19.5q72 -59 72 -123q0 -47 -47 -47q-39 0 -86 53q-35 39 -33 41q-35 -4 -61 -147q-10 -59 -16.5 -103.5t-6.5 -76.5q0 -74 14 -117q18 -61 62 -62q78 0 131 136q70 -15 70 -58 q0 -29 -28 -67.5t-60 -61.5q-35 -23 -97 -31l2 -2v-36q0 -92 -43 -93q-31 0 -35 84v13q0 8 -2 22v27q-68 57 -86 123v-2q-18 51 -18 159z" />
<glyph unicode="&#xa3;" horiz-adv-x="946" d="M-51 33q0 51 71 98q127 76 193 178q10 14 40 74.5t83 167.5q-33 -4 -58.5 -7t-46.5 -3q-90 0 -90 71q0 31 23.5 54.5t50.5 23.5q4 0 14.5 -1t22.5 -2t22.5 -2t16.5 -1q61 0 112 14q137 297 244 404q106 106 260 106h8q106 0 107 -80q0 -61 -61 -61q-23 0 -27 2 q-14 2 -22 3l-7 1q-182 0 -330 -332q109 29 162 29q119 0 119 -86q0 -68 -59 -68q-4 0 -11.5 1t-21.5 4l-53 6q-23 -2 -48.5 -6.5t-54.5 -10.5h2q-10 -4 -25.5 -8t-37.5 -8l-37 -8q-53 -129 -103.5 -224.5t-97.5 -158.5q184 53 299 53q113 0 113 -76q0 -53 -47 -69 q-18 -6 -99 -7q-168 0 -462 -106h2q-59 -27 -97 -27q-70 0 -69 62z" />
<glyph unicode="&#xa4;" horiz-adv-x="1183" d="M66 182l192 195q-80 111 -80 256q0 154 80 258l-192 194l104 107l190 -199q115 84 254 84t248 -84l191 199l104 -107l-190 -196q80 -121 80 -256q0 -143 -80 -256l190 -195l-104 -106l-191 196q-115 -80 -248 -79q-147 0 -254 79l-190 -196zM315 633q0 -129 86 -217 q86 -86 213 -86t209 88q84 90 84 215t-86 217q-84 92 -207 92q-125 0 -213 -92q-86 -92 -86 -217z" />
<glyph unicode="&#xa5;" horiz-adv-x="860" d="M-14 295q0 25 21.5 46t45.5 21q35 0 41 -2h19q6 -2 16 -2q78 0 125 11l61 14l11 14q-70 -14 -136 -14q-31 0 -34 2q-61 8 -62 61q0 27 23.5 48.5t50.5 21.5q4 0 14.5 -1t22.5 -2t22.5 -2t16.5 -1q31 0 76 7t104 22l18 43q-4 410 -69 510q-8 10 -8 24q0 43 69 51 q49 0 72 -41q51 -98 78 -381q301 387 415 457q39 23 66 23q63 0 63 -70q0 -37 -88 -117v2q-2 -2 -26 -20q-68 -68 -135.5 -142.5t-135.5 -160.5q-10 -12 -27.5 -35t-41.5 -55q-8 -10 -18.5 -22.5t-20.5 -26.5q37 6 57 6q119 0 119 -76q0 -59 -59 -59l-10 1q-9 1 -25 3 t-27.5 3t-19.5 1q-16 0 -51 -6.5t-93 -16.5l-10 -10q39 6 62 6q119 0 118 -76q0 -59 -59 -59h-14q-8 0 -21 2q-2 0 -22.5 2t-24.5 2q-63 0 -147 -20q-61 -88 -109.5 -163t-83.5 -138q-37 -70 -76 -70h-12q-53 0 -66 55v6q0 53 158 273q-84 -14 -151 -15q-6 0 -13 2h-12 q-57 6 -57 64z" />
<glyph unicode="&#xa6;" horiz-adv-x="321" d="M125 -344v723h98v-723h-98zM125 662v729h98v-729h-98z" />
<glyph unicode="&#xa7;" horiz-adv-x="958" d="M55 -225q0 59 95 135q82 68 116 67q55 0 56 -57q0 -51 -80 -108q74 -74 172 -74q141 0 141 123q0 90 -117 174q-53 35 -106 71.5t-107 71.5q-117 88 -116 187q0 63 42 113t152 114l25 14q-74 76 -74 152q0 80 68 151q16 16 55 45t100 70q84 57 107 63q51 27 123 27 q94 0 157.5 -50t63.5 -126q0 -55 -39 -94q-111 -111 -178 -111q-57 0 -58 58q0 39 82 102q-57 88 -164 88q-133 0 -133 -141q0 -59 21 -86q45 -61 182 -138q238 -133 238 -268q0 -68 -48.5 -122t-171.5 -120q78 -72 78 -149q0 -25 -9 -52.5t-24.5 -54t-36 -50t-44.5 -38.5 l-72 -43q-10 -10 -10 -8q-152 -111 -262 -110q-98 0 -161 49t-63 125zM295 418q0 -27 11 -51.5t37 -50t69 -54.5t108 -65q20 -10 42 -23.5t46 -30.5q84 68 84 144q0 68 -78 133q-41 35 -137 86q-41 20 -98 61q-84 -72 -84 -149z" />
<glyph unicode="&#xa8;" horiz-adv-x="372" d="M37 1110q0 27 25.5 55.5t50.5 28.5q80 0 80 -92q0 -94 -64 -94q-37 0 -64.5 31.5t-27.5 70.5zM211 1108q0 27 25.5 55.5t50.5 28.5q80 0 80 -92q0 -94 -64 -94q-37 0 -64.5 31.5t-27.5 70.5z" />
<glyph unicode="&#xa9;" horiz-adv-x="1531" d="M0 471q0 334 240 633q264 328 624 328q270 0 477 -201q205 -199 205 -471q0 -377 -260 -656q-264 -285 -637 -284q-283 0 -467 184q-182 186 -182 467zM104 469q0 -240 152 -391q152 -152 391 -152q326 0 563 256q230 248 230 582q0 231 -172 397q-168 168 -402 168 q-313 0 -542 -278q-219 -266 -220 -582zM270 444q0 236 215 439q229 217 549 217q76 0 101 -66q12 -35 12 -125q0 -88 -72 -88q-18 0 -37.5 22.5t-19.5 43.5q0 16 -1 32.5t-3 30.5l2 -4q-4 12 -23 12q-229 0 -405 -139q-184 -147 -185 -375q0 -213 211 -213q84 0 224 91 q164 109 252 266v-2q18 35 53 35h6q68 0 68 -68q-1 -19 -11 -35q-119 -199 -309 -315v2q-166 -104 -283 -105q-344 0 -344 344z" />
<glyph unicode="&#xaa;" horiz-adv-x="602" d="M90 385v86h524v-86h-524zM94 608q0 109 129 262q131 156 238 156q63 0 63 -100q0 -27 -6 -58l41 13q-43 -164 -43 -224q0 -80 49 -79q14 0 37 12l33 -35q-109 -68 -162 -68q-90 1 -92 138q2 2 2 8q-125 -106 -209 -107q-80 0 -80 82zM229 666q0 -37 27 -37q68 0 176 178 v12q0 98 -51 99h-4l-21 -5q-127 -133 -127 -247z" />
<glyph unicode="&#xab;" horiz-adv-x="827" d="M82 444v27q98 80 179 153.5t147 143.5h28l43 -47q-57 -70 -217 -197l-10 -8q121 -154 180 -319l-139 -78h-45q-47 178 -166 325zM432 438v35q190 145 326 299h26l37 -47q-45 -51 -98 -100.5t-115 -98.5q102 -127 185 -321l-146 -86h-33q-68 193 -182 319z" />
<glyph unicode="&#xac;" horiz-adv-x="1181" d="M104 631v135h1012v-559h-133v424h-879z" />
<glyph unicode="&#xad;" horiz-adv-x="548" d="M92 264q0 35 55 45q2 0 12.5 1t33.5 3q10 2 24 3t31 1h10h33q16 0 37 2q39 2 64.5 3.5t39.5 1.5q6 2 14 2h-4q2 0 12.5 1t28.5 3l-4 -2q20 4 23 4q33 0 33 -23q0 -41 -86 -55q-86 0 -222 -6q-12 0 -80 -6h-12q-43 0 -43 22z" />
<glyph unicode="&#xae;" horiz-adv-x="1531" d="M10 473q0 330 242 633q260 328 625 328q270 0 477 -201q205 -199 205 -471q0 -377 -261 -656q-266 -285 -639 -284q-283 0 -466 184q-182 186 -183 467zM117 471q0 -236 151 -391q152 -152 389 -152q328 0 566 256q229 248 229 582q0 227 -174 395q-174 170 -399 170 q-313 0 -543 -278q-219 -266 -219 -582zM250 868q0 53 127 119q29 14 54.5 25.5t47.5 21.5l8 4q0 4 2 9v6q2 16 4.5 39.5t4.5 52.5q70 -8 80 -17q14 -12 32 -41q141 23 231.5 34.5t135.5 11.5q115 0 205 -54q104 -66 104 -172q0 -63 -86 -151q-68 -72 -141 -113 q-207 -115 -350 -154q41 -98 127 -192q27 -35 86 -92q51 -45 94 -45q18 0 37 8q4 2 8 2t8 2q33 0 33 -43q-6 -6 -86 -51q-59 0 -113 35h2q-63 41 -136 113.5t-159 176.5q-10 10 -30 48v-2q-4 4 -2 4q-8 0 -9 -45v-91q0 -6 -1 -18t-1 -29q0 -14 -1 -27.5t-1 -19.5 q0 -35 4 -81t13 -101q-14 -39 -45 -39q-39 0 -60 39q-18 33 -18 72v45q0 59 2 133t6 164q12 266 12 344q0 16 6 88l4 49q-23 -8 -44 -16.5t-42 -18.5q-33 -16 -52 -26.5t-25 -14.5l20 -16q-41 -29 -55 -29q-41 0 -41 53zM582 559q170 33 321 109q86 43 156 112q86 86 86 158 q0 100 -164 100q-133 0 -365 -65q-2 -23 -6 -75t-10 -136q-18 -225 -18 -203z" />
<glyph unicode="&#xaf;" horiz-adv-x="210" d="M-66 666q0 10 9 24q6 6 10 19v2q0 10 10 20l8 6l11 4h104q2 -2 6 -3t8 -5q12 12 43 12l2 -4l5 4q25 0 38 -8q27 10 37 11h23q4 -2 24 -3l7 -6q6 2 8 9q20 0 37 -13v-20l-48 -41v-21h-69l-6 9l-2 -3h-6q-2 -2 -7 -2q-20 -4 -28 -4l-11 9h-2q-12 -4 -22 -5h-27l-6 5l-6 -5 q-66 -2 -100 -3l-33 -1l12 23z" />
<glyph unicode="&#xb0;" horiz-adv-x="765" d="M170 1032q0 127 86 217t215 90q123 0 213 -92q88 -88 88 -215q0 -129 -88 -217q-86 -90 -213 -90q-129 0 -215 88t-86 219zM279 1032q0 -82 54 -138t136 -56t139.5 56t57.5 138q0 86 -55.5 142.5t-141.5 56.5q-41 0 -75 -15.5t-60.5 -43t-40.5 -63.5t-14 -77z" />
<glyph unicode="&#xb1;" horiz-adv-x="1314" d="M141 -6h1071v-135h-1071v135zM141 643v135h469v477h133v-477h469v-135h-469v-473h-133v473h-469z" />
<glyph unicode="&#xb2;" horiz-adv-x="575" d="M82 584q86 86 188 170q180 147 191 225v-2q-4 59 -78 59q-76 0 -147 -59q-16 -12 -31 -12h-27q0 51 86 122q100 86 213 87q68 0 111 -34t43 -85q0 -98 -209 -248q-55 -41 -117 -92q80 12 129 12q35 0 74 -3t86 -11l24 -29l-122 -109q-82 14 -139.5 21.5t-92.5 7.5 q-72 0 -149 -53z" />
<glyph unicode="&#xb3;" horiz-adv-x="567" d="M117 561q2 2 25.5 19.5t70.5 50.5q35 -35 66 -35q47 0 96 43q49 45 49 92q0 82 -119 82q-16 0 -40.5 -4t-59.5 -12l-27 26q57 41 86 82h21q57 0 104 25q53 29 53 84q0 33 -24.5 54.5t-59.5 21.5q-39 0 -114 -56l-27 29q106 123 221 123q61 0 102.5 -34t41.5 -83 q0 -76 -127 -160q113 -6 112 -106q0 -139 -198 -228q-63 -76 -166 -75h-23q-57 0 -63 61z" />
<glyph unicode="&#xb4;" horiz-adv-x="401" d="M207 911q0 16 49 64q4 4 13.5 12t23.5 23q20 37 61 37q2 0 19 -5l-2 2q47 -10 47 -53q0 -27 -58 -65q-4 0 -12 -8l-4 -4q-4 -3 -12 -7l-94 -53l-17 29v-2q-14 14 -14 30z" />
<glyph unicode="&#xb5;" horiz-adv-x="571" d="M-57 -469q0 252 96 641q33 131 127 295h-2q100 172 172 172q45 0 45 -41q0 -14 -19 -39q-20 -27 -56 -80t-89 -135h2q-49 -102 -49 -158q0 -27 20 -26q41 0 117 125q33 53 53.5 94t30.5 74q53 164 119 163q45 0 45 -49q0 -33 -57 -147q-56 -115 -56 -176q0 -94 64 -133 q43 -29 43 -60q0 -51 -62 -51q-78 0 -116 86v-2q-16 20 -19 61l-4 33q-2 2 -2 15q-8 -8 -29 -39q-82 -119 -153 -119q-16 0 -41 18q-20 -70 -34.5 -138.5t-25.5 -137.5q-4 -35 -10 -88.5t-16 -128.5q-12 -90 -49 -90q-45 0 -45 53v8z" />
<glyph unicode="&#xb6;" horiz-adv-x="1079" d="M125 922q0 211 149 329q137 113 353 113h489l-8 -84h-131l-234 -1708h-100l236 1708h-150l-233 -1708h-103l142 1018q-117 10 -175 26h2q-238 66 -237 306z" />
<glyph unicode="&#xb7;" horiz-adv-x="380" d="M143 385v51q0 39 7 68q31 10 30 10l13 -4v2q20 0 38 -12q16 -4 39 -17l-10 -82l10 -10q1 -6 -22 -35q-29 0 -31 2h-2l-39 4l-8 9q-4 0 -25 14zM152 420l2 -2z" />
<glyph unicode="&#xb8;" horiz-adv-x="268" d="M35 -199q0 14 8 29q4 2 13.5 3t23.5 5q4 2 10 4l12 4q27 8 27 25q-4 16 -41 18h-4t-14 2q-10 8 -19 31v4q0 8 47 86q2 6 47 74l97 -6q-35 -39 -54.5 -64.5t-27.5 -38.5q63 -43 63 -110q0 -51 -59 -80l-82 -39q-4 -10 -19 -10q-20 0 -26 41q-2 2 -2 22z" />
<glyph unicode="&#xb9;" horiz-adv-x="548" d="M174 961l43 32q35 25 97.5 72t156.5 117l33 -33q-37 -154 -61.5 -287t-39.5 -248l-12 -14q-90 -47 -125 -84l-33 19l109 475l-135 -97z" />
<glyph unicode="&#xba;" horiz-adv-x="600" d="M121 645q0 84 69 178l-2 35q156 98 256 98q123 0 123 -131q0 -109 -108 -207t-217 -98q-121 0 -121 125zM131 383v76h416v-76h-416zM238 707q0 -43 26.5 -72t65.5 -29q20 0 39 6q78 90 77 158q0 107 -104 107q-18 0 -23 -3q-82 -88 -81 -167z" />
<glyph unicode="&#xbb;" horiz-adv-x="829" d="M70 166q59 59 108 105t90 77l17 14q-29 35 -71 106t-99 179l-19 35l154 88h31q39 -102 84 -181t98 -136v-35q-92 -70 -173 -143.5t-153 -155.5h-26zM420 176q6 6 52 47t134 119l35 31l-25 35q-94 135 -153 286l141 74h43q47 -168 170 -322v-30q-141 -102 -330 -291h-28z " />
<glyph unicode="&#xbc;" horiz-adv-x="956" d="M78 25l809 921l57 -47l-811 -919zM211 811q66 35 126 71t118 74l34 -18q-29 -102 -50 -194.5t-38 -178.5l-12 -12q-63 -31 -145 -88l92 348l-105 -57zM420 139q43 63 305 279l33 26l33 -12l-48 -237h154l-111 -86h-61l-16 -86q-25 -8 -134 -66l41 152h-184zM551 190h86 l22 103q-78 -68 -108 -103z" />
<glyph unicode="&#xbd;" horiz-adv-x="958" d="M76 25l815 917l55 -49l-817 -913zM195 799l90 51q80 45 174 106l30 -20q-20 -72 -40.5 -166t-42.5 -211l-123 -80h-31l76 328l-105 -57zM412 25l47 34q6 4 29.5 21.5t64.5 46.5q172 123 172 156q0 31 -68 30q-57 0 -122 -34l-31 30q129 111 215 111q59 0 98 -26.5 t39 -69.5q0 -61 -172 -179v-2q-16 -10 -29.5 -18t-27.5 -19q35 4 60.5 7.5t41.5 3.5h12q-8 0 14.5 -1t73.5 -3l15 -33l-78 -80q-33 8 -67.5 11t-71.5 3q-35 0 -82 -5t-107 -15z" />
<glyph unicode="&#xbe;" horiz-adv-x="958" d="M68 25l819 923l57 -47l-819 -921zM147 557q43 43 82 55q43 -18 74 -18q61 0 62 43q0 47 -80 51q2 0 -15.5 -3t-52.5 -7l-16 37l67 55q123 12 123 61q0 25 -37 25q-43 0 -118 -31l-29 39l104 78q49 12 84 12q123 1 123 -77q0 -53 -115 -119q76 -25 76 -78q0 -63 -86 -115 v2q-76 -51 -166 -51q-51 0 -80 41zM397 121q10 10 23.5 24.5t30.5 34.5q127 115 299 250l36 -18l-55 -238h164l-125 -86h-59l-13 -84q-68 -23 -100 -47l-27 14l29 115h-192zM530 172h91l22 96q-20 -16 -48 -39.5t-65 -56.5z" />
<glyph unicode="&#xbf;" horiz-adv-x="759" d="M-63 260q0 113 49 211q33 72 123 180q139 168 219 281l-2 -6l34 123q-4 14 -14 30t-10 29q0 39 45 39q61 0 61 -131q0 -119 -110 -273q-16 -23 -47 -65.5t-76 -104.5q-23 -29 -74 -98q-100 -137 -100 -274q0 -121 106 -121q119 0 301 225q41 49 70 90t49 76q51 88 51 178 q0 6 -1 18.5t-3 30.5q27 10 35 11q59 0 59 -91q0 -121 -81 -260q-35 -59 -77 -113.5t-93 -105.5q-164 -158 -304 -157q-106 0 -161 90q-49 75 -49 188zM297 1286q0 43 25.5 75t62.5 32q72 0 72 -80q0 -35 -21.5 -65.5t-50.5 -30.5q-88 -1 -88 69z" />
<glyph unicode="&#xc0;" horiz-adv-x="1345" d="M-51 119l12 12q4 4 27 19h2l2 2h4l12 -2q12 -3 31 -3q0 -59 78 -59q139 0 243 109q47 51 138 217q-4 2 -21 2l-37 -6q-8 -2 -37 -2q-68 0 -67 47q0 31 223 55q47 80 103.5 202t119.5 287q113 289 113 347v4q-2 2 -2 4q-6 12 -6 22q0 45 82 45q35 0 92 -39q59 -37 59 -67 q0 -6 -1 -19.5t-3 -29t-3 -27.5t-1 -16q0 -262 84 -670q72 -342 119 -463q2 -4 10 -12l23 -23q2 -2 5 -4t7 -6l6 -12q0 -37 -55 -37q-14 0 -34 2t-48 6q-74 92 -156 445q-92 -4 -201.5 -10.5t-238.5 -16.5q-27 -47 -67 -113.5t-97 -156.5q-127 -197 -268 -197 q-174 0 -252 164zM686 526l369 9q-4 29 -10.5 64.5t-14.5 80.5q-31 197 -47 309.5t-18 143.5q-2 10 -2 24t-2 31v-2q-2 8 -5 8q-27 -59 -56.5 -136t-63.5 -175q-45 -123 -82 -211t-68 -146zM754 1698q0 51 57 63l-2 -2q16 4 20 4q43 0 66 -41v2q10 -10 22.5 -21t26.5 -26 q55 -53 55 -75q0 -12 -14 -39l-27 -27l-100 61q-8 4 -17.5 10.5t-23.5 12.5l2 -2q-66 41 -65 80z" />
<glyph unicode="&#xc1;" horiz-adv-x="1345" d="M-51 119l12 12q4 4 27 19h2l2 2h4l12 -2q12 -3 31 -3q0 -59 78 -59q139 0 243 109q47 51 138 217q-4 2 -21 2l-37 -6q-8 -2 -37 -2q-68 0 -67 47q0 31 223 55q47 80 103.5 202t119.5 287q113 289 113 347v4q-2 2 -2 4q-6 12 -6 22q0 45 82 45q35 0 92 -39q59 -37 59 -67 q0 -6 -1 -19.5t-3 -29t-3 -27.5t-1 -16q0 -262 84 -670q72 -342 119 -463q2 -4 10 -12l23 -23q2 -2 5 -4t7 -6l6 -12q0 -37 -55 -37q-14 0 -34 2t-48 6q-74 92 -156 445q-92 -4 -201.5 -10.5t-238.5 -16.5q-27 -47 -67 -113.5t-97 -156.5q-127 -197 -268 -197 q-174 0 -252 164zM686 526l369 9q-4 29 -10.5 64.5t-14.5 80.5q-31 197 -47 309.5t-18 143.5q-2 10 -2 24t-2 31v-2q-2 8 -5 8q-27 -59 -56.5 -136t-63.5 -175q-45 -123 -82 -211t-68 -146zM967 1602q0 18 57 75q8 12 43 43q25 43 70 43q2 0 22 -4l-2 2q55 -10 55 -63 q0 -37 -67 -80q-2 0 -35 -21l-106 -63l-21 35v-2q-16 23 -16 35z" />
<glyph unicode="&#xc2;" horiz-adv-x="1345" d="M-51 119l12 12q10 10 27 19h2l2 2h4l12 -2q12 -3 31 -3q0 -59 78 -59q139 0 243 109q47 51 138 217q-4 2 -21 2q-8 -8 -74 -8q-68 0 -67 47q0 31 223 55q47 80 103.5 202t119.5 287q113 289 113 347v4q-2 2 -2 4q-6 12 -6 22q0 45 82 45q33 0 90 -39q61 -37 61 -65 q0 -6 -1 -18.5t-3 -28t-3 -28.5t-1 -19q0 -262 84 -670q72 -342 119 -463q2 -4 10 -12l23 -23q2 -2 5 -4t7 -6l6 -12q0 -37 -55 -37q-14 0 -34 2t-48 6q-74 92 -156 445q-92 -4 -201.5 -10.5t-238.5 -16.5q-27 -47 -67 -113.5t-97 -156.5q-127 -197 -268 -197 q-174 0 -252 164zM686 526l369 9q-4 29 -10.5 64.5t-14.5 80.5q-31 197 -47 309.5t-18 143.5q-2 10 -2 24t-2 31v-2q-2 8 -5 8q-20 -47 -49.5 -124t-70.5 -187q-45 -123 -82 -211t-68 -146zM872 1616v12q10 35 70 92q63 61 94 62h2q23 0 78 -86q57 -82 58 -113v-6 q0 -20 -17 -31l-12 -4q-23 0 -47 39l-6 12q-16 16 -31 52l2 -3q-16 23 -33 23q-18 0 -45 -27l-4 -4q-53 -53 -76 -53h-8q-25 12 -25 35z" />
<glyph unicode="&#xc3;" horiz-adv-x="1345" d="M-51 119l12 12q10 10 27 19h2l2 2h4l12 -2q12 -3 31 -3q0 -59 78 -59q139 0 243 109q47 51 138 217q-4 2 -21 2q-12 -4 -37 -6h-20q-6 -2 -17 -2q-68 0 -67 47q0 31 223 55q47 80 103.5 202t119.5 287q113 289 113 347v4q-2 2 -2 4q-6 12 -6 22q0 45 82 45q33 0 90 -39 q61 -37 61 -65q0 -6 -1 -18.5t-3 -28t-3 -28.5t-1 -19q0 -262 84 -670q72 -342 119 -463q2 -4 10 -12l23 -23q2 -2 5 -4t7 -6l6 -12q0 -37 -55 -37q-14 0 -34 2t-48 6q-74 92 -156 445q-92 -4 -201.5 -10.5t-238.5 -16.5q-27 -47 -67 -113.5t-97 -156.5q-127 -197 -268 -197 q-174 0 -252 164zM686 526l369 9q-4 29 -10.5 64.5t-14.5 80.5q-31 197 -47 309.5t-18 143.5q-2 10 -2 24t-2 31v-2q-2 8 -5 8q-20 -47 -49.5 -124t-70.5 -187q-45 -123 -82 -211t-68 -146zM852 1663q0 94 68 111q4 0 8 2h6q39 0 104 -60q16 -23 70 -61q2 -2 8 -2 q10 0 51 65q2 4 6.5 11.5t10.5 19.5q37 -25 37 -61q0 -29 -9.5 -55.5t-23.5 -48t-32.5 -34t-37.5 -12.5q-14 0 -20 6l-2 2q-23 14 -46.5 35t-52.5 49q-35 47 -59 47q-10 0 -18 -26q-14 -45 -37 -45q-31 0 -31 57z" />
<glyph unicode="&#xc4;" horiz-adv-x="1345" d="M-51 119l12 12q4 4 27 19h2l2 2h4l12 -2q12 -3 31 -3q0 -59 78 -59q139 0 243 109q47 51 138 217q-4 2 -21 2l-37 -6q-12 -2 -21 -3t-16 -1q-68 0 -67 49q0 29 223 55q47 80 103.5 202t119.5 287q113 289 113 347v4q-2 2 -2 4q-6 12 -6 22q0 45 82 45q33 0 90 -39 q61 -41 61 -67q0 -14 -4 -47t-4 -47q0 -260 84 -668q72 -342 119 -463q2 -4 10 -12l23 -23q2 -2 5 -4t7 -6l6 -12q0 -37 -55 -37q-14 0 -34 2t-48 6q-74 92 -156 445q-92 -4 -201.5 -10.5t-238.5 -16.5q-27 -47 -67 -113.5t-97 -156.5q-127 -197 -268 -197q-174 0 -252 164z M686 526l369 9q-4 16 -9.5 53t-15.5 90q-31 193 -47 305.5t-18 146.5q-2 14 -2 29q0 14 -2 29v-2q-2 8 -5 8q-14 -29 -43.5 -106.5t-76.5 -204.5q-45 -119 -82 -208t-68 -149zM831 1649q0 27 26 55.5t50 28.5q80 -1 80 -93q0 -94 -63 -94q-37 0 -65 32t-28 71zM1006 1647 q0 27 25.5 55.5t49.5 28.5q80 -1 80 -93q0 -94 -63 -94q-37 0 -64.5 32t-27.5 71z" />
<glyph unicode="&#xc5;" horiz-adv-x="1345" d="M-51 119l12 12q10 10 27 19h2l2 2h4l12 -2q12 -3 31 -3q0 -59 78 -59q141 0 243 109q55 57 138 219q-4 2 -21 2l-37 -6q-12 -2 -21 -3t-16 -1q-68 0 -67 47q0 31 223 57q47 80 103.5 202t119.5 287q113 289 113 347v4q-2 2 -2 4q-6 12 -6 22q0 45 82 45q35 0 92 -39 q59 -37 59 -67q0 -6 -1 -18.5t-3 -28t-3 -28.5t-1 -19q0 -262 84 -670q16 -72 29.5 -131.5t23.5 -106.5q43 -176 68 -231q10 -16 31 -29l12 -8l6 -14q0 -37 -55 -37q-14 0 -34 2t-48 6q-74 92 -156 445q-145 -6 -440 -25q-23 -41 -64 -107.5t-100 -164.5 q-127 -197 -268 -197q-174 0 -252 164zM686 528l369 7q-6 33 -12.5 68.5t-12.5 76.5q-31 195 -47 307.5t-18 145.5q-2 14 -2 28t-2 29v-2q-2 8 -5 8q-14 -29 -43.5 -106.5t-76.5 -204.5q-45 -119 -82 -208t-68 -149zM942 1661q0 66 45 131q61 92 133 92q84 0 103 -90 q0 -4 2 -10v-12q0 -55 -54 -140q-57 -88 -129 -88q-100 0 -100 117zM1034 1663q2 -18 15 -18q31 0 53 41h-2q27 39 26 65v10q-6 19 -22 19q-23 0 -49 -43h2q-23 -41 -23 -66v-8z" />
<glyph unicode="&#xc6;" horiz-adv-x="2306" d="M-53 117l12 12l7 5t22 16h2l2 2h4l12 -2q12 -3 33 -3q0 -59 78 -59q147 0 246 107q23 27 57.5 80t81.5 137q-4 2 -21 2q-47 -4 -65.5 -7.5t-7.5 -3.5q-70 0 -70 50q0 27 225 55q51 86 107.5 206t118.5 279q115 297 114 346v4q-2 2 -2 5q-6 8 -6 20q0 47 84 47 q33 0 90 -39q61 -41 62 -67q0 -16 -3.5 -47t-3.5 -48q0 -279 70 -608q76 82 231 166q-176 72 -176 223q0 217 324 322q229 74 479 74q92 0 137 -17l-2 2q84 -29 84 -110q0 -80 -53 -80q-27 25 -72 59l2 -2q-39 16 -86 17q-213 0 -428 -60q-289 -84 -288 -227q0 -55 90 -90 h-2q70 -25 155 -25q35 0 103 6q35 4 59.5 6t40.5 2h-2q92 6 137 7h27q39 -27 39 -72v-10q0 -51 -56 -72q-49 31 -67 31q-176 0 -363 -74q-225 -86 -282 -215l63 -254q145 -109 443 -109q76 0 192 19q70 10 114 22.5t66 22.5q43 20 117 61v68q111 0 111 -61q0 -115 -262 -199 q-203 -59 -345 -60q-199 0 -346 56q-6 -37 -55 -37q-14 0 -33.5 2t-48.5 6q-55 72 -104 236l2 -2q-20 37 -27 98q-4 16 -11 43t-18 67q-90 -4 -199.5 -10t-244.5 -16q-41 -70 -83 -136.5t-83 -131.5q-127 -197 -272 -197q-174 0 -256 162zM694 524l373 8q-6 35 -12.5 70 t-12.5 74q-31 190 -47 302t-18 148q-2 10 -2 25q0 14 -2 31v-2q-2 8 -4 8q-35 -70 -123 -309q-41 -111 -79 -198t-73 -157z" />
<glyph unicode="&#xc7;" horiz-adv-x="835" d="M0 446q0 219 84 496q104 338 262 440h-2q43 31 125 31q96 0 186 -45q104 -51 138 -131q20 -49 20 -156q0 -41 -6 -91t-16 -111q-35 -176 -86 -177q-37 0 -58 46q-18 37 -18 75q0 53 35 189v-2q33 129 32 188q0 57 -75 90q-66 31 -125 31q-135 0 -248 -322 q-109 -309 -109 -602q0 -317 223 -317q207 0 400 149l37 70q59 -6 59 -47q-2 -8 -7 -23.5t-13 -40.5q-66 -86 -189 -145q-118 -55 -241 -61q-14 -16 -24.5 -31t-16.5 -25q66 -41 73 -106q0 -4 2 -8v-7q0 -45 -61 -82q-27 -10 -51.5 -22t-50.5 -25q-4 -10 -23 -10 q-25 0 -31 43q-2 4 -2 27q0 4 10 30q6 2 16.5 4.5t24.5 6.5q18 6 38 12t20 20v3q-8 12 -49 20h-11q-4 2 -10 2q-14 14 -20 33v6q0 12 8 27q4 6 18.5 27.5t40.5 60.5q-150 23 -229.5 147.5t-79.5 312.5z" />
<glyph unicode="&#xc8;" horiz-adv-x="1179" d="M0 381q0 133 96 240q74 76 213 153q-172 68 -172 225q0 217 318 322q223 74 473 74q98 0 133 -15l-2 2q84 -29 84 -112q0 -80 -51 -80q-23 23 -72 59l2 -2q-39 16 -86 17q-207 0 -420 -60q-285 -82 -285 -229q0 -55 91 -90h-3q68 -25 152 -25q33 0 100 6q35 4 59.5 6 t41.5 2h-2q92 6 135 7h24q41 -29 41 -72v-10q0 -51 -57 -72q-47 31 -63 31q-174 0 -379 -86q-276 -115 -277 -299q0 -147 189 -219q139 -51 329 -52q35 0 82 5.5t107 15.5q70 10 113.5 22.5t64.5 22.5q104 57 115 59v70q108 -1 108 -64q0 -117 -260 -198q-201 -59 -338 -60 q-236 0 -391 80q-213 111 -213 326zM516 1698q0 49 55 61v-2q16 4 21 4q39 0 65 -39v2q4 -4 15.5 -16t32.5 -31q55 -53 55 -75q0 -12 -12 -39l-27 -27l-100 61q-8 4 -17.5 10.5t-23.5 12.5l2 -2q-66 41 -66 80z" />
<glyph unicode="&#xc9;" horiz-adv-x="1179" d="M0 381q0 133 96 240q74 76 213 153q-172 68 -172 225q0 217 318 322q223 74 473 74q98 0 133 -15l-2 2q84 -29 84 -112q0 -80 -51 -80q-23 23 -72 59l2 -2q-39 16 -86 17q-207 0 -420 -60q-285 -82 -285 -229q0 -55 91 -90h-3q68 -25 152 -25q29 0 100 6q23 2 46.5 4 t52.5 4q100 6 135 7h24q41 -29 41 -72v-10q0 -51 -57 -72q-47 31 -63 31q-174 0 -379 -86q-276 -115 -277 -299q0 -147 189 -219q139 -51 329 -52q35 0 82 5.5t107 15.5q70 10 113.5 22.5t64.5 22.5q104 57 115 59v70q108 -1 108 -64q0 -117 -260 -198q-201 -59 -338 -60 q-236 0 -391 80q-213 111 -213 326zM694 1602q0 18 58 75q8 12 43 43q25 41 69 41l21 -4l-2 2q55 -10 55 -61q0 -39 -66 -80q-2 0 -34 -21l-107 -63l-20 33q-16 16 -17 35z" />
<glyph unicode="&#xca;" horiz-adv-x="1179" d="M0 381q0 133 96 240q74 76 213 153q-172 68 -172 225q0 217 318 322q227 76 473 76q88 0 133 -17l-2 2q84 -29 84 -112q0 -80 -51 -80q-23 23 -72 59l2 -2q-39 16 -86 17q-207 0 -420 -60q-285 -82 -285 -229q0 -55 91 -90h-3q68 -25 152 -25q29 0 100 6q23 2 46.5 4 t52.5 4q100 6 135 7h24q41 -29 41 -72v-10q0 -51 -57 -72q-47 31 -63 31q-174 0 -379 -86q-276 -115 -277 -299q0 -147 189 -219q139 -51 329 -52q35 0 82 5.5t107 15.5q70 10 113.5 22.5t64.5 22.5q104 57 115 59v70q108 -1 108 -64q0 -117 -260 -198q-201 -59 -338 -60 q-236 0 -391 80q-213 111 -213 326zM645 1616v12q8 33 70 94q59 57 96 58q25 0 78 -80q57 -84 57 -117v-6q0 -18 -16 -31l-12 -4q-27 0 -48 39l-6 10q-4 8 -12 20.5t-18 33.5l2 -3q-16 23 -31 23q-20 0 -47 -27l-4 -4q-53 -53 -74 -53h-8q-27 8 -27 35z" />
<glyph unicode="&#xcb;" horiz-adv-x="1179" d="M0 381q0 133 96 240q74 76 213 153q-94 41 -129 82q-43 51 -43 143q0 217 318 322q223 74 473 74q88 0 133 -17l-2 2q84 -29 84 -110q0 -82 -51 -82q-14 14 -32 29.5t-40 31.5l2 -2q-39 16 -86 17q-209 0 -420 -62q-285 -82 -285 -227q0 -55 91 -90h-3q68 -25 152 -25 q29 0 100 6q23 2 46.5 4t52.5 4q100 6 135 7h24q41 -29 41 -72v-10q0 -51 -57 -72q-47 29 -63 29q-174 0 -379 -86q-276 -115 -277 -297q0 -147 189 -219q139 -51 329 -52q35 0 82 5.5t107 15.5q66 10 110.5 22.5t67.5 22.5q6 4 34.5 18.5t80.5 40.5v70q108 -1 108 -64 q0 -117 -260 -198q-201 -59 -338 -60q-236 0 -391 80q-213 111 -213 326zM621 1649q0 27 25.5 55.5t49.5 28.5q80 -1 80 -93q0 -94 -63 -94q-37 0 -64.5 32t-27.5 71zM795 1647q0 27 25.5 55.5t49.5 28.5q80 -1 80 -93q0 -94 -63 -94q-37 0 -64.5 32t-27.5 71z" />
<glyph unicode="&#xcc;" horiz-adv-x="583" d="M-47 10q-2 37 117 51l118 15q0 14 -6 61q-2 23 -3 38t-1 22q0 51 2 119.5t6 158.5l13 279l14 448q-45 0 -103.5 3t-129.5 7q61 57 116 91l365 34q14 0 36.5 -1t45.5 -1t44 -1t36 -1q31 0 43 -30l-9 -25q-61 -35 -88 -37l-182 -31q-86 -324 -86 -974q0 -25 1 -61t3 -83 l109 4q121 0 121 -53q-14 -23 -111 -45q-125 -29 -270 -29q-197 0 -201 41zM43 1698q0 49 53 61l-2 -2q20 4 23 4q39 0 63 -39v2l47 -47q53 -53 54 -75q0 -12 -13 -39l-26 -27l-99 61q-8 2 -17 10.5t-22 12.5l2 -2q-63 39 -63 80z" />
<glyph unicode="&#xcd;" horiz-adv-x="583" d="M-47 10q-2 37 117 51l118 15q0 14 -6 61q-2 23 -3 38t-1 22q0 51 2 119.5t6 158.5l13 279l14 448q-45 0 -103.5 3t-129.5 7q61 57 116 91l365 34q14 0 36.5 -1t45.5 -1t44 -1t36 -1q31 0 43 -30l-9 -25q-61 -35 -88 -37l-182 -31q-86 -324 -86 -974q0 -25 1 -61t3 -83 l109 4q121 0 121 -53q-14 -23 -111 -45q-125 -29 -270 -29q-197 0 -201 41zM324 1602q0 23 53 75l43 43q23 41 67 41q2 0 23 -4l-2 2q53 -10 53 -61q0 -37 -65 -80q-2 0 -10.5 -6t-22.5 -15l-105 -63l-18 35v-2q-16 16 -16 35z" />
<glyph unicode="&#xce;" horiz-adv-x="583" d="M-47 10q-2 37 117 51l118 15q0 14 -6 61q-2 23 -3 38t-1 22q0 51 2 119.5t6 158.5l13 279l14 448q-45 0 -103.5 3t-129.5 7q61 57 116 91l365 34q14 0 36.5 -1t45.5 -1t44 -1t36 -1q31 0 43 -28l-9 -27q-61 -35 -88 -37l-182 -31q-86 -324 -86 -974q0 -25 1 -61t3 -83 l109 4q121 0 121 -53q-14 -23 -111 -45q-125 -29 -270 -29q-197 0 -201 41zM197 1616v12q8 33 67 92t92 60h2q25 0 78 -84t53 -113v-6q0 -20 -16 -31l-12 -4q-20 0 -47 39l-4 10q-4 8 -12.5 21.5t-18.5 32.5l2 -3q-10 23 -31 23q-18 0 -45 -27l-2 -4q-53 -53 -74 -53h-8 q-25 8 -24 35z" />
<glyph unicode="&#xcf;" horiz-adv-x="583" d="M-47 10q-2 37 117 51l118 15q0 14 -6 61q-2 23 -3 38t-1 22q0 49 2 117.5t6 158.5l13 279l14 448q-45 0 -103.5 3t-129.5 7q57 57 116 90q328 37 365 37q14 0 36.5 -1t45.5 -1t44 -1t36 -1q31 0 43 -30l-9 -25q-61 -35 -88 -37l-182 -33q-86 -311 -86 -972q0 -25 1 -61 t3 -83l109 4q121 0 121 -53q-14 -23 -111 -45q-125 -29 -270 -29q-197 0 -201 41zM174 1649q0 27 25.5 55.5t50.5 28.5q80 -1 80 -93q0 -94 -64 -94q-37 0 -64.5 32t-27.5 71zM348 1647q0 27 25.5 55.5t50.5 28.5q80 -1 80 -93q0 -94 -64 -94q-37 0 -64.5 32t-27.5 71z" />
<glyph unicode="&#xd0;" horiz-adv-x="376" d="M-6 82q0 33 6 131l39 465q10 125 29.5 240.5t48.5 226.5q66 252 172 250q55 0 91 -52.5t36 -121.5v-19q0 -196 -152 -452q-37 -61 -37 -103q0 -43 52 -137q8 6 43 12q10 2 19 3t15 1q4 -2 12.5 -4t22.5 -6q23 -10 31 -39v-8q0 -27 -90 -43l-4 -8q72 -133 71 -240 q0 -33 -10 -67h2q-41 -133 -125 -134q-39 0 -74.5 40t-48.5 96l2 -2q-8 25 -8 67q0 121 84 266l-49 93q-35 66 -35 120q-41 -330 -49 -551q-4 -104 -43 -104q-37 0 -47 47l2 -2q-6 12 -6 35zM139 682q12 57 70 152q115 188 115 356q0 4 -1 14t-4 25l3 -2q-10 29 -31 28 q-25 0 -60 -96q-24 -72 -36 -125q-37 -182 -56 -352zM215 190q0 -4 1 -11t3 -17q23 -102 51 -103q41 0 41 119q0 33 -6 58q-8 35 -41 110q-49 -68 -49 -156zM334 432q10 10 18 14h-10q-6 -6 -8 -14z" />
<glyph unicode="&#xd1;" horiz-adv-x="1056" d="M-92 37q0 51 45 51q18 0 47 -29q-4 -4 -10 -9l-6 -5q6 -2 30 -2q213 0 320 721q29 203 44 342t15 219q0 33 -2 35q45 68 98 67q123 0 123 -92q0 -129 12.5 -291.5t39.5 -365.5q68 -541 167 -541q14 0 19 90l12 271q2 41 13.5 173t33.5 355q27 291 119 414q68 -10 68 -51 q0 -4 -37 -97l2 2q-53 -236 -84 -579q-14 -166 -21.5 -313.5t-7.5 -276.5q0 -6 6 -37v2q2 -16 3 -24.5t1 -10.5q0 -61 -108 -61q-92 0 -143 80v-2q-16 31 -68 186h2q-47 137 -90 329.5t-84 440.5q-6 -29 -21.5 -138.5t-42.5 -299.5q-37 -268 -96 -426q-84 -209 -256 -209 q-143 0 -143 82zM586 1663q0 94 67 111q4 0 9 2h6q39 0 104 -60q4 -6 17.5 -20.5t52.5 -40.5q2 -2 8 -2q8 0 49 65q6 6 19 31q35 -29 34 -61q0 -29 -9 -55.5t-24.5 -47t-33 -34t-33.5 -13.5q-14 0 -23 6l-2 2q-37 25 -96 84q-35 47 -59 47q-10 0 -19 -26q-14 -45 -37 -45 q-31 0 -30 57z" />
<glyph unicode="&#xd2;" horiz-adv-x="851" d="M0 492q0 104 11.5 206.5t33.5 202.5q51 231 152 379q35 49 52 73.5t19 26.5q49 61 97 62q23 0 43 -15q16 10 28 9q408 -27 408 -572q0 -322 -74 -545q-115 -344 -369 -344q-197 0 -307 164q-94 139 -94 353zM143 496q0 -422 244 -422q346 -1 346 800q0 176 -45 291 q-63 168 -211 168q-137 0 -246 -329q-88 -264 -88 -508zM209 1698q0 49 55 61l-2 -2q20 4 21 4q39 0 65 -39v2l47 -47q53 -53 54 -75q0 -12 -13 -39l-26 -27l-99 61l-9 7q-9 6 -30 16l2 -2q-66 41 -65 80z" />
<glyph unicode="&#xd3;" horiz-adv-x="851" d="M0 492q0 104 11.5 206.5t33.5 202.5q51 231 152 379q35 49 52 73.5t19 26.5q49 61 97 62q23 0 43 -15q16 10 28 9q408 -27 408 -572q0 -322 -74 -545q-115 -344 -369 -344q-197 0 -307 164q-94 139 -94 353zM143 496q0 -422 244 -422q346 -1 346 800q0 176 -45 291 q-63 168 -211 168q-137 0 -246 -329q-88 -264 -88 -508zM518 1602q0 23 53 75l43 43q25 41 70 41q4 0 21 -4l-3 2q56 -10 56 -61q0 -39 -66 -80q-4 -2 -12 -7t-23 -14l-104 -63l-21 33q-14 14 -14 35z" />
<glyph unicode="&#xd4;" horiz-adv-x="851" d="M0 494q0 104 11.5 205.5t33.5 201.5q51 231 152 379q33 47 49 71.5t20 28.5q51 61 99 62q23 0 43 -15q16 10 28 9q408 -27 408 -572q0 -322 -74 -545q-115 -344 -369 -344q-197 0 -307 166q-94 143 -94 353zM143 498q0 -424 244 -424q346 -1 346 800q0 176 -45 291 q-63 168 -211 168q-137 0 -246 -329q-88 -264 -88 -506zM395 1616v12q8 35 68 94q57 57 94 58h2q23 0 76 -80q57 -88 57 -117v-6q0 -18 -18 -31l-12 -4q-20 0 -48 39l-4 10q-4 8 -12 21.5t-18 32.5l2 -3q-16 23 -31 23q-18 0 -45 -27l-4 -4q-53 -53 -74 -53h-8q-25 8 -25 35 z" />
<glyph unicode="&#xd5;" horiz-adv-x="851" d="M0 494q0 535 262 880q51 68 103 68q23 0 43 -15q16 10 28 9q408 -27 408 -572q0 -322 -74 -545q-115 -344 -369 -344q-197 0 -307 166q-94 143 -94 353zM143 496q0 -422 244 -422q346 -1 346 800q0 176 -45 291q-63 168 -211 168q-137 0 -246 -329q-88 -264 -88 -508z M338 1663q0 92 65 109q4 0 9 2h6q41 0 104 -58q4 -6 15.5 -20.5t52.5 -40.5q2 -2 8 -2q8 0 49 65q6 6 17 31q35 -25 34 -63q0 -29 -9 -54.5t-23.5 -47t-32 -34t-33.5 -12.5q-14 0 -22 6l-3 2q-51 35 -94 84q-33 45 -59 45q-10 0 -19 -24q-12 -45 -36 -45q-29 0 -29 57z" />
<glyph unicode="&#xd6;" horiz-adv-x="851" d="M0 492q0 104 11.5 206.5t33.5 202.5q53 236 152 377q10 14 26.5 36.5t40.5 57.5q49 70 101 70q23 0 43 -15q16 10 28 9q408 -27 408 -572q0 -322 -74 -545q-115 -344 -369 -344q-197 0 -307 164q-94 139 -94 353zM143 496q0 -422 244 -422q346 -1 346 800q0 176 -45 291 q-63 168 -211 168q-137 0 -246 -329q-88 -264 -88 -508zM403 1649q0 27 26 55.5t50 28.5q80 -1 80 -93q0 -94 -63 -94q-37 0 -65 32t-28 71zM578 1647q0 27 25.5 55.5t49.5 28.5q80 -1 80 -93q0 -94 -63 -94q-37 0 -64.5 32t-27.5 71z" />
<glyph unicode="&#xd7;" horiz-adv-x="1175" d="M139 133l375 383l-375 383l94 96l373 -385l377 385l94 -96l-377 -383l377 -383l-94 -96l-377 385l-373 -385z" />
<glyph unicode="&#xd8;" horiz-adv-x="1007" d="M-39 358l141 111v23q0 530 267 876q51 68 104 68q14 0 43 -13q14 6 29 7q319 -18 393 -353l131 99l53 -72l-172 -125q6 -55 6 -117q0 -324 -73 -540q-117 -344 -375 -345q-164 0 -270 113q-98 111 -125 272l-107 -77zM248 463q13 -387 246 -387q350 0 350 796v27z M250 573l586 431q-10 117 -68 217h2q-72 109 -184 108q-133 0 -248 -330q-76 -221 -88 -426z" />
<glyph unicode="&#xd9;" horiz-adv-x="1071" d="M-68 956q70 -12 91 -12q225 0 415 426q133 -43 133 -90q0 -16 -30 -59q-10 -14 -22.5 -28.5t-22.5 -29.5q-145 -356 -146 -694q0 -174 27 -262h-2q45 -141 168 -141q104 0 192 180q57 113 99 270q76 285 75 545q0 96 -8 127v-2q-6 20 -6 49q18 35 57 35q47 0 135 -70 l5 -26q-45 -82 -58 -195l-63 -625v-200q0 -168 57 -207q-41 -31 -76 -31q-78 0 -94 170q-2 6 -8 182q-61 -127 -88 -162q-92 -131 -219 -131q-328 0 -328 512q0 86 15.5 198t48.5 253q-113 -82 -191 -82q-63 0 -156 100zM516 1700q0 49 55 61l-2 -2q20 4 23 4q41 0 63 -41v2 q2 -2 14.5 -13t35.5 -32q55 -53 55 -75q0 -14 -15 -41l-26 -27l-101 63q-4 0 -17 9.5t-21 11.5h2q-66 35 -66 80z" />
<glyph unicode="&#xda;" horiz-adv-x="1071" d="M-68 956q70 -12 91 -12q225 0 415 426q133 -43 133 -90q0 -16 -30 -59q-10 -14 -22.5 -28.5t-22.5 -29.5q-145 -356 -146 -694q0 -174 27 -262h-2q45 -141 168 -141q104 0 192 180q57 113 99 270q76 285 75 545q0 96 -8 127v-2q-6 20 -6 49q18 35 57 35q47 0 135 -70 l5 -26q-45 -82 -58 -195l-63 -625v-200q0 -168 57 -207q-41 -31 -76 -31q-78 0 -94 170q-2 6 -8 182q-61 -127 -88 -162q-92 -131 -219 -131q-328 0 -328 512q0 86 15.5 198t48.5 253q-113 -82 -191 -82q-63 0 -156 100zM809 1604q0 23 55 75q6 12 43 41q25 43 70 43 q4 0 20 -4l-2 2q56 -10 56 -61q0 -39 -66 -80q-4 -2 -12 -7t-23 -14l-106 -65l-21 35v-2q-14 20 -14 37z" />
<glyph unicode="&#xdb;" horiz-adv-x="1071" d="M-68 956q70 -12 91 -12q225 0 415 426q133 -41 133 -90q0 -18 -30 -57q-12 -14 -45 -58q-145 -362 -146 -696q0 -174 27 -262h-2q45 -141 168 -141q104 0 192 180q57 113 99 270q76 285 75 545q0 100 -8 127v-2q-6 20 -6 49q18 35 57 35q47 0 135 -70l5 -26 q-16 -23 -37 -93q-8 -31 -13.5 -55.5t-7.5 -44.5l-63 -627v-200q0 -168 57 -207q-41 -31 -76 -31q-78 0 -94 170q-2 6 -8 182q-61 -127 -88 -162q-92 -131 -219 -131q-328 0 -328 512q0 86 15.5 198t48.5 253q-119 -82 -191 -82q-61 0 -156 100zM645 1618v12q6 27 68 92 q72 59 96 60h2q23 0 76 -80q57 -84 57 -119v-6q0 -18 -16 -31l-13 -2q-29 0 -47 37l-6 12q-4 8 -12 20.5t-19 31.5l3 -3q-16 23 -31 23q-20 0 -45 -27l-4 -2q-55 -55 -76 -55h-8q-25 12 -25 37z" />
<glyph unicode="&#xdc;" horiz-adv-x="1071" d="M-68 954q39 -4 60.5 -7t30.5 -3q225 0 415 426q133 -43 133 -90q0 -20 -32 -59q-41 -47 -43 -58q-145 -352 -146 -694q0 -174 27 -262h-2q45 -141 168 -141q104 0 192 180q57 113 99 270q76 285 75 543q0 98 -8 129v-2q-6 20 -6 47q18 37 57 37q47 0 135 -70l5 -26 q-45 -82 -58 -195l-63 -625v-200q0 -168 57 -207q-41 -31 -76 -31q-78 0 -94 170q-2 6 -8 182q-61 -127 -88 -162q-92 -131 -219 -131q-328 0 -328 512q0 86 15.5 198t48.5 253q-113 -82 -191 -82q-61 0 -156 98zM621 1649q0 27 25.5 55.5t49.5 28.5q80 -1 80 -93 q0 -94 -63 -94q-37 0 -64.5 32t-27.5 71zM795 1647q0 27 25.5 55.5t49.5 28.5q80 -1 80 -93q0 -94 -63 -94q-37 0 -64.5 32t-27.5 71z" />
<glyph unicode="&#xdd;" horiz-adv-x="788" d="M-111 -317q0 55 70 55q18 0 133 -92q113 -92 184 -92q324 0 324 561q0 27 -2 81t-6 138q-10 -29 -27.5 -72t-40.5 -98q-92 -164 -221 -164q-285 0 -285 416q0 59 6.5 148t16.5 208t16 208t6 148q-2 29 -3 48.5t-1 29.5q0 82 56 82q18 0 114 -78q0 2 -24 -120v-11 q-57 -223 -58 -659q0 -336 140 -336q115 0 211 238q70 166 88 335q35 297 55 660q4 53 68 53h6q88 0 88 -67v-7q-23 -88 -38 -162.5t-26 -140.5q-31 -195 -30 -516q0 -66 2 -130t6 -128q12 -188 12 -256q0 -180 -100 -332q-115 -172 -281 -172q-86 0 -258 66 q-201 78 -201 158zM422 1610q0 20 55 76q8 12 43 43q20 43 68 43q2 0 22 -5l-2 2q56 -10 56 -63q0 -37 -68 -80q-4 -4 -12.5 -8t-20.5 -12l-106 -64l-21 33v-2q-14 20 -14 37z" />
<glyph unicode="&#xde;" horiz-adv-x="301" d="M-96 -6q0 6 22 80q12 39 19.5 61.5t9.5 30.5q51 236 74 467v14q0 16 3 43t7 66q12 33 55 32q74 0 74 -57q0 10 -6 -45q-12 -47 -12 -57q0 -82 45 -226q45 -143 45 -223q0 -207 -138 -207q-59 0 -92 31l-4 6l-14 15q-4 -4 -12 -19q-25 -43 -50 -43q-27 0 -26 31zM12 133 q0 -10 7.5 -23.5t17.5 -25.5t20.5 -20.5t16.5 -8.5q65 0 65 131q0 78 -37 205q-2 16 -16 55q-23 -96 -74 -313z" />
<glyph unicode="&#xdf;" horiz-adv-x="376" d="M-86 -711l41 449q-2 2 4 57t6 62q2 10 6 43.5t11 91.5l16 139v31q0 23 2 51l39 465q10 125 29.5 240.5t48.5 226.5q66 252 172 250q55 0 91 -52.5t36 -121.5v-19q0 -196 -152 -452q-37 -61 -37 -103q0 -43 52 -137q8 6 43 12q10 2 19 3t15 1q4 -2 12.5 -4t22.5 -6 q23 -10 31 -39v-8q0 -27 -90 -43l-4 -8q72 -133 71 -240q0 -33 -10 -67h2q-41 -133 -125 -134q-39 0 -74.5 40t-48.5 96l2 -2q-8 25 -8 67q0 121 84 266l-49 93q-35 66 -35 120q-41 -324 -49 -551q-2 -27 -12 -136t-33 -302q-43 -385 -49 -385q-8 0 -31.5 -5t-30.5 -5 q-14 0 -18 16zM139 682q12 57 70 152q115 188 115 356q0 4 -1 14t-4 25l3 -2q-10 29 -31 28q-25 0 -60 -96q-24 -72 -36 -125q-37 -182 -56 -352zM215 190q0 -4 1 -11t3 -17q23 -102 51 -103q41 0 41 119q0 33 -6 58q-8 35 -41 110q-49 -68 -49 -156zM334 432q10 10 18 14 h-10q-6 -6 -8 -14z" />
<glyph unicode="&#xe0;" d="M-41 242v28q0 92 43 262q57 221 113 222q98 0 125 -58l30 -65l76 -25q-68 -219 -67 -370v-17q0 -16 2 -33.5t6 -38.5q10 -53 28 -53q49 0 158 471q14 61 47 62q35 0 35 -49q0 -66 -72 -306q-81 -272 -157 -272q-70 0 -115 100q-49 -135 -131 -135q-121 0 -121 277z M-10 1176q0 49 47 61l-2 -2q16 4 20 4q41 0 64 -41v2q4 -4 19.5 -18.5t27.5 -26.5q53 -53 53 -76q0 -18 -14 -39l-25 -26l-98 61q4 0 -37 23v-2q-55 33 -55 80zM51 133q0 -23 8 -47q8 -31 25 -35q30 22 63 139q37 125 43 172l21 177l-21 28q-10 80 -28 80q-23 0 -80 -221 q-31 -115 -31 -293z" />
<glyph unicode="&#xe1;" d="M-41 242v28q0 92 43 262q57 221 113 222q98 0 125 -58l30 -65l76 -25q-68 -219 -67 -370v-17q0 -16 2 -33.5t6 -38.5q10 -53 28 -53q49 0 158 471q14 61 47 62q35 0 35 -49q0 -66 -72 -306q-81 -272 -157 -272q-70 0 -115 100q-49 -135 -131 -135q-121 0 -121 277z M51 133q0 -23 8 -47q8 -31 25 -35q30 22 63 139q37 125 43 172l21 177l-21 28q-10 80 -28 80q-23 0 -80 -221q-31 -115 -31 -293zM231 1079q0 20 56 76l41 41q25 43 67 43q4 0 21 -4l-2 2q53 -10 53 -61q0 -41 -64 -80q-4 -4 -12 -8.5t-20 -12.5l-105 -63l-18 35v-3 q-16 16 -17 35z" />
<glyph unicode="&#xe2;" d="M-41 242v28q0 92 43 262q57 221 113 222q98 0 125 -58l30 -65l76 -25q-68 -219 -67 -370v-17q0 -16 2 -33.5t6 -38.5q10 -53 28 -53q49 0 158 471q14 61 47 62q35 0 35 -49q0 -66 -72 -306q-81 -272 -157 -272q-70 0 -115 100q-49 -135 -131 -135q-121 0 -121 277z M51 133q0 -23 8 -47q8 -31 25 -35q30 22 63 139q37 125 43 172l21 177l-21 28q-10 80 -28 80q-23 0 -80 -221q-31 -115 -31 -293zM131 1094v12q4 25 66 92q66 59 92 59h2q23 0 76 -83q55 -84 55 -113v-6q0 -18 -16 -31l-13 -4q-20 0 -47 39l-4 12q-14 18 -29 51l2 -2 q-12 20 -30 21q-20 0 -45 -25l-4 -4q-53 -53 -72 -53h-8q-25 12 -25 35z" />
<glyph unicode="&#xe3;" d="M-41 242v28q0 92 43 262q57 221 113 222q98 0 125 -58l30 -65l76 -25q-68 -219 -67 -370v-17q0 -16 2 -33.5t6 -38.5q10 -53 28 -53q49 0 158 471q14 61 47 62q35 0 35 -49q0 -66 -72 -306q-81 -272 -157 -272q-70 0 -115 100q-49 -135 -131 -135q-121 0 -121 277z M51 133q0 -23 8 -47q8 -31 25 -35q30 22 63 139q37 125 43 172l21 177l-21 28q-10 80 -28 80q-23 0 -80 -221q-31 -115 -31 -293zM82 1139q0 94 65 110q4 0 9 2h6q37 0 100 -57q6 -10 16.5 -20.5t51.5 -43.5q2 -2 8 -2q10 0 47 66q6 6 18 31q33 -25 33 -62q0 -29 -9 -54.5 t-22.5 -47t-31 -33.5t-33.5 -12q-14 0 -23 6l-2 2q-16 8 -79 74q-59 55 -70 55q-10 0 -19 -25q-14 -45 -36 -45q-29 0 -29 56z" />
<glyph unicode="&#xe4;" d="M-41 242v28q0 92 43 262q57 221 113 222q98 0 125 -58l30 -65l76 -27q-68 -215 -67 -368v-17q0 -16 2 -33.5t6 -38.5q10 -53 28 -53q49 0 158 471q14 61 47 62q35 0 35 -49q0 -66 -72 -306q-81 -272 -157 -272q-70 0 -115 100q-49 -135 -131 -135q-121 0 -121 277z M51 133q0 -80 33 -82q30 22 63 139q39 131 43 172l21 175l-21 30q-10 80 -28 80t-80 -221q-31 -111 -31 -293zM94 1110q0 27 25.5 55.5t50.5 28.5q80 0 80 -92q0 -94 -64 -94q-37 0 -64.5 31.5t-27.5 70.5zM268 1108q0 27 25.5 55.5t50.5 28.5q80 0 80 -92q0 -94 -64 -94 q-37 0 -64.5 31.5t-27.5 70.5z" />
<glyph unicode="&#xe5;" d="M-41 244v26q0 90 43 262q57 223 113 224q98 0 125 -58l30 -65l76 -27q-68 -215 -67 -368v-19q0 -16 2 -33.5t6 -38.5q10 -53 28 -53q49 0 158 473q14 61 47 62q35 0 35 -49q0 -68 -72 -308q-82 -272 -157 -272q-68 0 -115 102q-49 -137 -131 -137q-121 0 -121 279z M51 133q0 -23 8 -47q8 -31 25 -35q27 20 68 148q16 49 25 90t13 76l21 174l-21 30q-10 80 -28 80q-16 0 -41 -82q-70 -236 -70 -434zM205 1139q0 66 53 143q53 78 119 78q84 0 98 -88q0 -6 2 -12v-13q0 -66 -53 -143q-55 -82 -121 -82q-98 0 -98 117zM295 1141q2 -18 14 -19 q27 0 51 39h-2q25 43 25 66v10q-7 18 -21 18q-25 0 -45 -43q-23 -41 -22 -63v-8z" />
<glyph unicode="&#xe6;" horiz-adv-x="909" d="M-43 238v26q0 80 45 258q57 217 117 217q98 0 127 -55l30 -66l80 -24q-53 -168 -71 -363v-16q0 -123 39 -123t161 465v-2l2 8q45 190 123 191q49 0 90 -36t41 -83q0 -154 -86 -332q-20 -41 -39.5 -77t-40.5 -68q0 -31 29 -60q29 -35 51 -35q80 0 193 433q33 123 57 122 q45 0 45 -43q0 -12 -28 -133q-74 -297 -152 -399q-47 -59 -121 -59q-141 0 -186 190q-68 -174 -129 -174q-72 0 -117 98q-53 -133 -135 -133q-125 0 -125 273zM53 131q0 -72 33 -80q27 20 68 142q16 53 26 94t15 69l22 172l-22 29q-10 78 -29 78q-16 0 -41 -80 q-72 -231 -72 -424zM565 289q29 61 47 127q37 128 37 198q0 45 -8 45q-4 -4 -6 -10q-59 -184 -70 -360z" />
<glyph unicode="&#xe7;" horiz-adv-x="309" d="M-14 297q0 123 30 256q53 207 134 207q37 0 71 -47q37 -47 37 -84q0 -68 -51 -68q-27 0 -64 25q-61 -98 -61 -363q0 -135 55 -135q90 0 180 410q4 14 8.5 33.5t10.5 48.5h-2q14 45 43 45q35 0 35 -54q0 -23 -35 -168q-18 -76 -34.5 -131t-31.5 -94q-63 -166 -139 -180 q-51 -63 -53 -74q59 -33 69 -104q0 -4 2 -6v-7q0 -39 -57 -77q-55 -43 -92 -43q-4 0 -4 4q0 -23 -23 -23q-18 0 -24 43q-2 4 -2 27q0 12 6 29q33 6 61 20q31 8 31 25q-4 12 -47 20h-10q-4 2 -11 2q-10 10 -18 33q0 12 6 31l78 114q-98 57 -98 285z" />
<glyph unicode="&#xe8;" horiz-adv-x="360" d="M-61 1174q0 51 53 61v-2q12 4 16 4q39 0 60 -39v2q6 -4 47 -45q53 -53 53 -76q0 -18 -14 -39l-25 -26l-96 61q-2 2 -6 4t-13 6q-2 2 -5 4.5t-9 6.5q-61 37 -61 78zM-8 256q0 70 5 138.5t15 137.5q41 231 125 232q49 0 88 -37t39 -84q0 -145 -84 -338q-20 -45 -38.5 -82 t-39.5 -65q0 -14 8.5 -31.5t19.5 -32t24.5 -24t25.5 -9.5q80 0 187 439q31 127 55 127q43 0 43 -43q0 -31 -27 -138q-74 -305 -147 -407q-47 -61 -117 -62q-94 0 -143 97q-39 78 -39 182zM92 289q14 29 25.5 61.5t21.5 67.5q35 129 35 203q0 47 -6 47q-4 -4 -6 -11 q-59 -186 -70 -368z" />
<glyph unicode="&#xe9;" horiz-adv-x="358" d="M-8 256q0 70 5 138.5t15 137.5q41 231 123 232q49 0 88 -36t39 -85q0 -145 -84 -338q-18 -41 -36.5 -78t-39.5 -69q0 -31 27 -64t49 -33q80 0 187 439q31 127 53 127q43 0 43 -43q0 -29 -27 -138q-72 -305 -145 -407q-47 -61 -115 -62q-94 0 -143 97q-39 78 -39 182z M92 289q12 29 23.5 61.5t21.5 67.5q37 131 37 203q0 47 -8 47q-4 -4 -6 -11q-59 -188 -68 -368zM227 1079q0 23 54 76l41 41q23 41 67 41l21 -4l-2 2q53 -10 53 -61q0 -35 -66 -78l-30 -21l-103 -63l-18 32v-2q-16 23 -17 37z" />
<glyph unicode="&#xea;" horiz-adv-x="358" d="M-8 256q0 70 5 138.5t15 137.5q41 231 123 232q49 0 88 -36t39 -85q0 -145 -84 -338q-18 -41 -36.5 -78t-39.5 -69q0 -33 29 -62q25 -35 47 -35q80 0 187 439q31 127 53 127q43 0 43 -43q0 -29 -27 -138q-72 -305 -145 -407q-47 -61 -115 -62q-94 0 -143 97 q-39 78 -39 182zM92 289q12 29 23.5 61.5t21.5 67.5q37 131 37 203q0 49 -8 49q-4 -4 -6 -13q-59 -190 -68 -368zM104 1094v12q6 31 66 90q59 59 90 59h2q25 0 74 -77q55 -90 55 -119v-4q0 -18 -18 -31l-11 -4q-25 0 -45 39l-6 10q-20 35 -28 53l2 -2q-14 20 -31 21 q-18 0 -43 -25l-4 -4q-53 -53 -72 -53h-6q-25 8 -25 35z" />
<glyph unicode="&#xeb;" horiz-adv-x="358" d="M-8 256q0 68 5 136.5t15 137.5q39 233 123 234q49 0 88 -36t39 -85q0 -147 -84 -338q-16 -41 -35.5 -78t-40.5 -71q0 -27 27 -60q29 -35 49 -35q80 0 187 439q31 127 53 127q43 0 43 -43q0 -29 -27 -138q-72 -305 -145 -407q-47 -61 -115 -62q-94 0 -143 97 q-39 78 -39 182zM63 1110q0 27 26 55.5t50 28.5q80 0 80 -92q0 -94 -63 -94q-37 0 -65 31.5t-28 70.5zM92 289q12 29 23.5 61.5t21.5 67.5q37 131 37 203q0 47 -8 47q-4 -4 -6 -13q-57 -186 -68 -366zM238 1108q0 27 25.5 55.5t49.5 28.5q80 0 80 -92q0 -94 -63 -94 q-37 0 -64.5 31.5t-27.5 70.5z" />
<glyph unicode="&#xec;" horiz-adv-x="247" d="M-115 1174q0 49 54 61l-2 -2q16 4 20 4q35 0 57 -37l45 -47q51 -51 52 -74q0 -16 -13 -41l-24 -24l-90 61l-6 3q-5 3 -15 7q-10 2 -18 11l2 -2q-61 39 -62 80zM-8 217q0 68 12 219q8 76 11 132.5t3 90.5q25 27 58 27q68 0 67 -47q-2 -8 -5 -21.5t-7 -35.5q-2 -8 -6 -24.5 t-8 -39.5q-35 -170 -35 -303q0 -115 37 -115q20 0 49 93q6 23 20.5 71.5t36.5 124.5q10 37 22.5 80t22.5 94q14 63 47 64q35 0 35 -47q0 -57 -65 -283q-23 -76 -38.5 -125t-25.5 -72q-41 -98 -108 -98q-66 0 -101 78q-23 61 -22 137z" />
<glyph unicode="&#xed;" horiz-adv-x="243" d="M-6 217q0 74 12 221t12 221q25 27 56 27q68 0 67 -47q-2 -4 -26 -121q-35 -170 -35 -303q0 -115 37 -115q18 0 47 93q6 23 20.5 71.5t36.5 124.5q16 51 26.5 94t18.5 80q12 63 45 64q35 0 35 -47q0 -49 -65 -283q-16 -59 -27.5 -94t-15.5 -49q-55 -152 -125 -152 q-119 0 -119 215zM139 1079q0 23 51 74q10 10 15 16l26 27q23 41 64 41q4 0 20 -4l-2 2q54 -10 54 -61q0 -41 -64 -80l-31 -19l-100 -63l-18 32v-2q-14 14 -15 37z" />
<glyph unicode="&#xee;" horiz-adv-x="241" d="M-6 219q0 74 12 219q12 147 12 221q25 27 56 27q66 0 65 -47l-10 -50t-14 -71q-35 -180 -35 -303q0 -115 35 -115q20 0 49 93l57 196q18 68 43 174q14 63 45 64q35 0 35 -47q0 -55 -65 -283q-47 -158 -62 -197q-41 -98 -104 -98q-119 0 -119 217zM4 1094v10q10 35 64 92 q55 59 88 59h2q25 0 73 -84q51 -82 52 -112v-6q0 -16 -17 -29l-10 -4q-20 0 -45 37l-6 12q-6 18 -27 51l2 -2q-16 23 -28 23q-16 0 -43 -27l-5 -4q-53 -53 -69 -53h-8q-23 12 -23 37z" />
<glyph unicode="&#xef;" horiz-adv-x="247" d="M-55 1110q0 27 25.5 55.5t45.5 28.5q80 0 80 -92q0 -94 -63 -94q-33 0 -60.5 31.5t-27.5 70.5zM-6 217q0 74 12 221t12 221q25 27 56 27q68 0 67 -49q-2 -6 -9 -37t-17 -84q-16 -86 -25.5 -160.5t-9.5 -142.5q0 -113 37 -113q20 0 49 93l57 196q18 68 43 174q14 63 45 64 q35 0 35 -49q0 -72 -63 -281q-23 -74 -38.5 -123t-25.5 -74q-41 -98 -106 -98q-119 0 -119 215zM115 1108q0 27 25.5 55.5t49.5 28.5q80 0 80 -92q0 -94 -63 -94q-37 0 -64.5 31.5t-27.5 70.5z" />
<glyph unicode="&#xf0;" horiz-adv-x="376" d="M-20 106q0 14 43 93q-8 45 -12.5 85t-4.5 76q0 514 115 887l-2 -2q10 152 84 152q141 0 141 -193q0 -510 -176 -915q-4 -25 -43 -99q4 -29 33 -69q35 -41 57 -41q57 0 158 377q8 8 8 16l-2 -2l9 45t13 57v-2q12 57 43 58q37 0 37 -49q0 -74 -78 -318q-96 -287 -190 -287 q-76 0 -158 125q-33 -27 -45 -26q-31 0 -30 32zM102 428q0 -16 1 -32.5t3 -35.5q144 344 144 762q0 88 -10 129q-137 -463 -138 -823z" />
<glyph unicode="&#xf1;" horiz-adv-x="544" d="M20 526q2 53 13 82v-2q16 47 65 47q57 0 58 -57q0 -16 -13 -59q-12 -43 -12 -56v-45q0 -27 -2 -61q-2 -35 -2 -64v-43q0 -113 10 -123q-4 6 6 37v-2q8 29 18.5 69t24.5 87l-2 -2q2 4 13.5 58t33.5 165q37 180 60 197q123 -10 123 -84h-19q6 -29 -2 -115 q-10 -104 -15 -165.5t-5 -84.5q0 -195 35 -194q33 0 92 196q27 86 42 145.5t23 98.5q14 76 49 76t35 -49q0 -61 -67 -277q-96 -301 -166 -301q-86 0 -117 156q-4 29 -10 83t-10 136q-16 -57 -34 -124t-34 -142q-20 -100 -78 -101q-78 0 -92 98l-8 152q-2 39 -3 60.5t-1 25.5 q0 16 1 34.5t3 41.5l6 67zM82 1139q0 92 65 108q4 0 9 2h6q39 0 102 -57q2 -6 13.5 -18.5t52.5 -43.5q2 -2 8 -2q12 0 49 66q6 6 16 29q35 -23 35 -62q0 -55 -32 -100q-33 -45 -66 -45q-12 0 -21 6l-2 2q-29 14 -94 82q-31 47 -57 47q-10 0 -19 -27q-12 -43 -36 -43 q-29 0 -29 56z" />
<glyph unicode="&#xf2;" horiz-adv-x="475" d="M-61 1174q0 49 53 61l-2 -2q20 4 18 4q35 0 62 -39v2l45 -45q55 -55 55 -76q0 -14 -14 -41l-25 -24l-98 61l-17 10q-78 41 -77 89zM0 297q0 172 31 256l-2 13q-2 14 -2 36q8 18 24 90l6 25q20 82 86 82q51 0 115 -47q61 -43 78 -101q16 -55 16 -282q18 -12 29 -13 q55 0 84 66q12 27 37 153q8 51 43 52q37 0 37 -37q0 -104 -45 -203q-59 -129 -142 -129q-8 0 -53 16q-2 -8 -12 -59q0 -2 -1 -6t-3 -14q-35 -100 -56 -140h2q-45 -70 -112 -69q-160 0 -160 311zM104 274q0 -195 66 -194q10 0 39 67q43 101 43 148q0 23 -4 53.5t-12 71.5 t-11.5 72.5t-3.5 54.5v16t2 29q2 16 3 27.5t1 15.5q0 49 -43 49q-23 0 -51 -170q-14 -80 -21.5 -139.5t-7.5 -100.5z" />
<glyph unicode="&#xf3;" horiz-adv-x="473" d="M0 297q0 172 31 256l-2 13q-2 14 -2 36q6 29 14 37q2 12 4 25.5t6 27.5l6 25q20 82 84 82q55 0 115 -47q59 -47 76 -101q18 -59 18 -282q14 -12 29 -13q57 0 82 66q10 18 39 153q8 51 41 52q37 0 37 -37q0 -104 -46 -203q-59 -129 -141 -129q-12 0 -51 16q-2 -8 -5 -22 t-7 -37q0 -2 -1 -6t-3 -14q-35 -100 -56 -140h2q-45 -70 -110 -69q-160 0 -160 311zM102 274q0 -195 66 -194q10 0 39 67q43 105 43 148q0 37 -17 125q-8 41 -11 72.5t-3 54.5v16t2 29q2 16 3 27.5t1 15.5q0 49 -41 49q-25 0 -55 -174q-14 -78 -20.5 -137.5t-6.5 -98.5z M231 1079q0 23 54 76q10 10 21 20.5t22 20.5q23 41 65 41q2 0 23 -4l-2 2q53 -10 53 -61q0 -35 -66 -78q-2 0 -10 -6.5t-22 -14.5l-103 -63l-20 32v-2q-14 20 -15 37z" />
<glyph unicode="&#xf4;" horiz-adv-x="473" d="M0 297q0 172 31 256q0 -2 -2 12.5t-2 38.5q6 27 14 35q2 14 4 26.5t6 26.5l6 25q20 82 84 82q55 0 115 -47q59 -47 76 -101q18 -59 18 -282q14 -12 29 -13q57 0 82 66q10 18 39 153q8 51 41 52q37 0 37 -37q0 -104 -46 -203q-59 -129 -141 -129q-12 0 -51 16 q-2 -8 -5 -22t-7 -37q0 -2 -1 -6t-3 -14q-35 -100 -56 -140h2q-45 -70 -110 -69q-160 0 -160 311zM102 274q0 -195 66 -194q10 0 39 67q43 105 43 148q0 37 -17 125q-8 41 -11 72.5t-3 54.5v16t2 29q2 16 3 27.5t1 15.5q0 49 -41 49q-25 0 -55 -174q-14 -78 -20.5 -137.5 t-6.5 -98.5zM129 1094v12q12 39 70 92q57 57 90 57h2q20 0 74 -77q55 -86 55 -119v-6q0 -18 -17 -29l-12 -4q-20 0 -45 37l-6 12q-6 8 -29 51l2 -2q-16 23 -30 23q-18 0 -43 -25l-4 -4q-55 -55 -74 -55h-6q-27 12 -27 37z" />
<glyph unicode="&#xf5;" horiz-adv-x="473" d="M0 297q0 172 31 256l-2 13q-2 14 -2 36q6 29 14 37q2 14 4 26.5t6 26.5l6 25q20 82 84 82q55 0 115 -47q59 -47 76 -101q18 -59 18 -282q14 -12 29 -13q57 0 82 66q10 18 39 153q8 51 41 52q37 0 37 -37q0 -104 -46 -203q-59 -129 -141 -129q-12 0 -51 16q-2 -8 -5 -22 t-7 -37q0 -2 -1 -6t-3 -14q-35 -100 -56 -140h2q-45 -70 -110 -69q-160 0 -160 311zM82 1139q0 92 65 108q6 0 13 2q39 0 102 -57q10 -8 14 -18q8 -8 20.5 -18.5t33.5 -25.5q2 -2 6 -2q8 0 49 66q2 4 6 11t10 20q35 -29 35 -62q0 -29 -9 -54.5t-23.5 -47t-32 -33.5 t-33.5 -12q-12 0 -21 6l-2 2q-51 35 -94 84q-33 45 -57 45q-8 0 -17 -27q-16 -43 -36 -43q-29 0 -29 56zM102 274q0 -195 66 -194q10 0 39 67q43 105 43 148q0 37 -17 125q-8 41 -11 72.5t-3 54.5v16t2 29q2 16 3 27.5t1 15.5q0 49 -41 49q-25 0 -55 -174 q-14 -78 -20.5 -137.5t-6.5 -98.5z" />
<glyph unicode="&#xf6;" horiz-adv-x="473" d="M0 297q0 172 31 256l-2 13q-2 14 -2 36q6 29 14 37q0 12 10 53l6 23q23 84 84 84q49 0 115 -49q61 -43 78 -101q16 -55 16 -280q14 -12 29 -13q57 0 82 66q10 18 39 153q8 51 41 52q37 0 37 -39q0 -104 -46 -203q-55 -127 -141 -127q-12 0 -51 16q-2 -8 -5 -22t-7 -37 q0 -2 -1 -6t-3 -14q-35 -100 -56 -140h2q-45 -70 -110 -69q-160 0 -160 311zM63 1110q0 27 26 55.5t50 28.5q80 0 80 -92q0 -94 -63 -94q-37 0 -65 31.5t-28 70.5zM102 274q0 -195 66 -194q10 0 39 67q43 105 43 148q0 37 -17 125q-8 41 -11 72.5t-3 54.5q0 14 3 44t3 44 q0 49 -41 49q-23 0 -53 -172q-29 -168 -29 -238zM238 1108q0 27 25.5 55.5t49.5 28.5q80 0 80 -92q0 -94 -63 -94q-37 0 -64.5 31.5t-27.5 70.5z" />
<glyph unicode="&#xf7;" horiz-adv-x="1181" d="M104 453v133h1012v-133h-1012zM481 102q0 55 39 93t90 38t89 -39.5t38 -91.5q0 -49 -38 -87t-87 -38q-55 0 -93 37t-38 88zM481 936q0 53 39 91t90 38t89 -39t38 -90q0 -49 -38 -90t-87 -41q-53 0 -92 40t-39 91z" />
<glyph unicode="&#xf8;" horiz-adv-x="559" d="M-37 227l115 88q2 162 31 228l-3 13q-2 13 -2 36q6 27 15 35q2 8 4 20t6 33l6 22q20 82 86 82q51 0 117 -47q57 -47 80 -98h-2q6 -14 10 -66l70 50l51 -72l-117 -86q2 -10 2 -37v-66q14 -12 29 -12q57 0 82 66q14 29 39 149q8 51 43 51q37 0 37 -36q0 -82 -54 -211 q-49 -115 -135 -115q-20 0 -51 14q-2 -8 -6 -21.5t-8 -35.5q0 -2 -1 -6t-4 -15q-37 -109 -55 -135h2q-45 -70 -112 -69q-137 0 -158 223l-70 -53zM182 268q0 -190 66 -190q10 0 39 65q43 95 43 148t-6 94l-142 -100v-17zM193 401l110 82q-2 16 -3 30.5t-1 25.5q0 37 2 43 q2 23 3 33t1 8q0 49 -43 49q-24 0 -51 -168q-6 -45 -18 -103z" />
<glyph unicode="&#xf9;" horiz-adv-x="534" d="M-61 1174q0 49 53 61l-2 -2q20 4 18 4q37 0 62 -39v2q10 -10 21 -21.5t26 -23.5q53 -49 53 -76q0 -8 -12 -41l-27 -24l-98 61l-17 10q-78 41 -77 89zM14 166q0 418 29 465q18 29 51 28q27 0 48.5 -22.5t21.5 -50.5q0 -31 -8 -49v2q-2 -8 -6.5 -19.5t-8.5 -27.5l2 2 q-14 -78 -20 -168t-6 -191q0 -66 18 -65q12 0 37 39v-3q39 76 61 181l37 184q20 100 21 176q0 4 -2 11.5t-2 11.5q0 66 57 65q76 0 76 -51q0 -10 -25 -74q0 -23 -18 -147v2q-8 -59 -12.5 -104.5t-4.5 -73.5q0 -164 37 -164q35 0 95 201q16 61 33.5 122.5t33.5 124.5 q14 43 43 43q35 0 35 -43q0 -66 -66 -278q-86 -272 -180 -273q-51 0 -90 76v-2l-20 51q-12 -27 -24.5 -53t-25.5 -53q-35 -53 -96 -53t-94 61q-27 51 -27 119z" />
<glyph unicode="&#xfa;" horiz-adv-x="530" d="M14 166q0 418 29 465q18 29 51 28q27 0 48.5 -22.5t21.5 -50.5q0 -31 -8 -49v2q-2 -8 -6.5 -19.5t-8.5 -27.5l2 2q-14 -78 -20 -168t-6 -191q0 -66 18 -65q12 0 37 39v-3q39 76 61 181l37 184q20 100 21 176q0 4 -2 11.5t-2 11.5q0 66 57 65q76 0 76 -51q0 -10 -25 -74 q0 -23 -18 -147v2q-8 -59 -12.5 -104.5t-4.5 -73.5q0 -164 37 -164q35 0 95 201q16 61 33.5 122.5t33.5 124.5q14 43 43 43q35 0 35 -43q0 -66 -66 -278q-86 -272 -180 -273q-51 0 -90 76v-2l-20 51q-12 -27 -24.5 -53t-25.5 -53q-35 -53 -96 -53t-94 61q-27 51 -27 119z M233 1079q0 23 54 76l41 41q23 41 67 41q2 0 23 -4l-2 2q53 -10 53 -61q0 -41 -66 -78q-2 -2 -14 -9q-4 -4 -18 -12l-105 -63l-18 32v-2q-14 14 -15 37z" />
<glyph unicode="&#xfb;" horiz-adv-x="530" d="M14 166q0 418 29 465q18 29 51 28q27 0 48.5 -22.5t21.5 -50.5q0 -31 -8 -49v2q-2 -8 -6.5 -19.5t-8.5 -27.5l2 2q-14 -78 -20 -168t-6 -191q0 -66 18 -65q12 0 37 39v-3q39 76 61 181l37 184q20 100 21 176q0 4 -2 11.5t-2 11.5q0 66 57 65q76 0 76 -51q0 -10 -25 -74 q0 -23 -18 -147v2q-8 -59 -12.5 -104.5t-4.5 -73.5q0 -164 37 -164q35 0 95 201q16 61 33.5 122.5t33.5 124.5q14 43 43 43q35 0 35 -43q0 -66 -66 -278q-86 -272 -180 -273q-51 0 -90 76v-2l-20 51q-12 -27 -24.5 -53t-25.5 -53q-35 -53 -96 -53t-94 61q-27 51 -27 119z M111 1094v12q12 35 69 92t90 57h2q27 0 78 -81q53 -84 53 -115v-6q0 -16 -16 -29l-12 -4q-20 0 -47 37l-4 12q-10 16 -17.5 28.5t-11.5 22.5v-2q-10 23 -31 23q-18 0 -43 -25l-4 -4q-55 -55 -74 -55h-6q-27 12 -26 37z" />
<glyph unicode="&#xfc;" horiz-adv-x="530" d="M14 166q0 418 29 465q18 29 51 28q27 0 48.5 -22.5t21.5 -50.5q0 -31 -8 -49v2q-2 -8 -6.5 -19.5t-8.5 -27.5l2 2q-14 -78 -20 -168t-6 -191q0 -66 18 -65q12 0 37 39v-3q39 76 61 181l37 184q20 100 21 176q0 4 -2 11.5t-2 11.5q0 66 57 65q76 0 76 -51q0 -10 -25 -74 q0 -23 -18 -147v2q-8 -59 -12.5 -104.5t-4.5 -73.5q0 -164 37 -164q35 0 95 201q16 61 33.5 122.5t33.5 124.5q14 43 43 43q35 0 35 -43q0 -66 -66 -278q-86 -272 -180 -273q-51 0 -90 76v-2l-20 51q-12 -27 -24.5 -53t-25.5 -53q-35 -53 -96 -53t-94 61q-27 51 -27 119z M63 1110q0 27 26 55.5t50 28.5q80 0 80 -92q0 -94 -63 -94q-37 0 -65 31.5t-28 70.5zM238 1108q0 27 25.5 55.5t49.5 28.5q80 0 80 -92q0 -94 -63 -94q-37 0 -64.5 31.5t-27.5 70.5z" />
<glyph unicode="&#xfd;" horiz-adv-x="466" d="M-182 35q0 31 45 51q20 0 86 190q25 72 43 140.5t28 134.5q0 154 74 154q47 0 47 -43v-7l-20 -204q-8 -82 -12.5 -142.5t-4.5 -99.5q0 -143 33 -143t107 288v-4q6 51 17 142.5t28 222.5q8 70 69 69h9q45 0 45 -45q0 -43 -41 -202q-16 -66 -17 -304v-98q2 -29 6 -178 l2 -61l20 6q19 6 34 6q63 18 92 18q106 0 106 -67q0 -12 -10 -29l-20 -8q-70 14 -111 14q-20 0 -98 -22q0 -25 3 -71t3 -71q0 -479 -307 -479q-96 0 -164 72q-70 70 -70 178q0 158 180 295q131 100 256 129q-2 76 -5 137.5t-11 108.5q-29 -66 -43 -86q-35 -41 -80 -41 q-127 0 -137 194q-63 -180 -119 -180q-63 0 -63 35zM-61 -575q0 -61 34.5 -105.5t83.5 -44.5q119 0 179 141q47 113 47 244v119q-131 -39 -230 -129q-115 -104 -114 -225zM236 1092q0 23 55 77q10 10 16 15l27 26l4 4l-4 -4q20 43 67 43q4 0 21 -4l-2 2q55 -10 55 -63 q0 -39 -65 -80q-4 -4 -12.5 -8t-20.5 -13l-107 -63l-18 35v-2q-16 23 -16 35z" />
<glyph unicode="&#xfe;" horiz-adv-x="684" d="M43 -2q0 6 4 17.5t9 24.5t10.5 24.5t5.5 17.5q47 221 80 586q-31 82 -31 129q0 117 67 116q59 0 60 -96q0 -18 -3 -54t-3 -54q0 -2 80 -54q82 -51 81 -108q0 -57 -12 -170q-12 -111 -12 -166v-23l-6 -18q0 -84 35 -84q18 0 67 147h-2q76 248 76 320q0 68 43 68 q37 0 37 -41q4 -1 4 -7q0 18 -12 -51q-86 -522 -209 -522q-55 0 -95 55q-35 53 -34 109l4 397q-10 12 -25.5 24.5t-34.5 26.5l-6 -12h-2q4 -20 4 -45q0 -18 -26 -170q-16 -92 -36 -198.5t-46 -231.5h-23q-49 0 -49 43z" />
<glyph unicode="&#xff;" horiz-adv-x="466" d="M-182 35q0 31 45 51q20 0 86 190q25 72 43 140.5t28 134.5q0 37 3 45q23 109 71 109q47 0 47 -43v-7l-20 -204q-8 -82 -12.5 -142.5t-4.5 -99.5q0 -143 33 -143t107 288v-4q6 51 17 142.5t28 222.5q8 70 69 69h9q45 0 45 -45q0 -43 -41 -202q-16 -66 -17 -304v-98 q2 -29 6 -178l2 -61l20 6q19 6 34 6q63 18 92 18q106 0 106 -67q0 -12 -10 -29l-20 -8q-70 14 -111 14q-20 0 -98 -22q0 -25 3 -71t3 -71q0 -479 -307 -479q-96 0 -164 72q-70 70 -70 178q0 164 180 295q139 102 256 129q-2 76 -5 137.5t-11 108.5q-29 -66 -43 -86 q-35 -41 -80 -41q-127 0 -137 194q-63 -180 -119 -180q-63 0 -63 35zM-61 -575q0 -61 34.5 -105.5t83.5 -44.5q119 0 179 141q47 113 47 244v119q-131 -39 -230 -129q-115 -104 -114 -225zM63 1110q0 27 26 55.5t50 28.5q80 0 80 -92q0 -94 -63 -94q-37 0 -65 31.5t-28 70.5 zM238 1108q0 27 25.5 55.5t49.5 28.5q80 0 80 -92q0 -94 -63 -94q-37 0 -64.5 31.5t-27.5 70.5z" />
<glyph unicode="&#x152;" horiz-adv-x="1904" d="M0 489q0 535 268 877q51 68 107 68q16 0 45 -13q14 6 26 6q346 -23 406 -393q29 188 322 283q227 74 477 74q90 0 135 -17l-2 2q86 -29 86 -110q0 -80 -53 -80q-23 23 -72 59l2 -2q-39 16 -86 17q-211 0 -426 -60q-289 -84 -289 -227q0 -55 90 -90h-2q70 -25 156 -25 q35 0 102 6q35 4 59.5 6t41.5 2h-2q92 6 135 7h26q39 -27 39 -72v-10q0 -51 -55 -72q-49 31 -66 31q-172 0 -358 -74q-215 -84 -278 -205q-10 -55 -25 -108q4 -150 190 -213q141 -51 332 -52q74 0 191 19q72 10 116.5 22.5t65.5 22.5q20 10 49 25.5t66 35.5v68 q110 0 110 -61q0 -115 -262 -199q-203 -59 -344 -60q-428 0 -573 244q-123 -246 -338 -246q-201 0 -314 162q-98 141 -98 352zM145 494q0 -420 252 -420q355 -1 355 796q0 174 -47 291q-66 166 -216 166q-139 0 -249 -330q-94 -276 -95 -503zM858 664q35 27 76 53t92 55 q-72 25 -111 64q-31 29 -51 71q2 -6 2 -47q0 -61 -2 -110.5t-6 -85.5z" />
<glyph unicode="&#x153;" horiz-adv-x="935" d="M0 293q0 168 31 252q-2 2 -3 9t-1 38q6 27 14 35q4 20 12 53l6 25q20 82 86 81q29 0 58.5 -12t57.5 -31.5t48.5 -46t30.5 -53.5q20 -49 20 -281q14 -12 29 -12q59 0 84 66q14 16 39 149v-2q0 16 8 25l2 6h-2q45 160 115 160q51 0 91 -35t40 -84q0 -158 -86 -332 q-49 -96 -80 -145q0 -31 29 -60q29 -35 51 -35q80 0 192 433q33 125 58 125q45 0 45 -43q0 -14 -29 -136q-74 -297 -151 -399q-47 -59 -121 -59q-94 0 -150 92q-45 76 -45 180v25q-33 -27 -76 -27q-23 0 -53 14q-2 -8 -6 -21.5t-8 -35.5q0 -2 -1 -6t-3 -15q-31 -98 -58 -135 h2q-45 -70 -112 -69q-164 0 -164 307zM106 268q0 -190 66 -190q12 0 41 65q45 99 45 148q0 35 -16 123t-17 125v14q0 12 2 29q2 16 3 27.5t1 15.5q0 47 -43 47q-25 0 -55 -172q-14 -78 -20.5 -136.5t-6.5 -95.5zM590 289q12 23 24.5 54.5t22.5 72.5q37 130 37 198 q0 47 -8 48q-4 -4 -7 -13q-59 -186 -69 -360z" />
<glyph unicode="&#x178;" horiz-adv-x="788" d="M-111 -317q0 55 70 55q18 0 133 -92q113 -92 184 -92q324 0 324 561q0 27 -2 81t-6 138q-10 -29 -27.5 -72t-40.5 -98q-92 -164 -221 -164q-285 0 -285 416q0 59 6.5 148t16.5 208t16 208t6 148q0 2 -1 11.5t-1 21.5t-1 24.5t-1 18.5q0 84 56 84q23 0 114 -80 q0 -20 -12 -69q-10 -51 -10 -54v2q0 -4 -2 -8q-57 -223 -58 -659q0 -336 140 -336q115 0 211 238q70 168 88 335q33 297 55 658q2 55 68 55h6q88 0 88 -67v-7q-23 -88 -38 -162.5t-26 -140.5q-31 -195 -30 -516q0 -66 2 -130t6 -128q12 -188 12 -256q0 -180 -100 -332 q-115 -172 -281 -172q-86 0 -258 66q-201 78 -201 158zM293 1649q0 27 25.5 55.5t50.5 28.5q80 -1 80 -93q0 -94 -64 -94q-37 0 -64.5 32t-27.5 71zM467 1647q0 27 25.5 55.5t50.5 28.5q80 -1 80 -93q0 -94 -64 -94q-37 0 -64.5 32t-27.5 71z" />
<glyph unicode="&#x2c6;" horiz-adv-x="337" d="M98 940v10q6 29 62 78q57 51 86 51h2q27 0 71 -69q45 -72 50 -99v-6q0 -18 -17 -24l-10 -4q-18 0 -43 32l-4 11q-8 10 -27 45v-2q-10 18 -28 18t-41 -23l-2 -2q-47 -47 -68 -47h-8q-23 10 -23 31z" />
<glyph unicode="&#x2dc;" horiz-adv-x="428" d="M78 977q0 94 76 94q35 0 96 -49l14 -14q27 -33 49 -39h9q10 0 45 55q6 2 16 25q33 -18 33 -52q0 -25 -8.5 -47t-21.5 -39.5t-29.5 -29t-32.5 -11.5q-12 0 -21 7l-2 2q-18 10 -40.5 27.5t-49.5 41.5q-29 41 -53 41q-6 0 -17 -22q-14 -39 -35 -39q-29 0 -28 49z" />
<glyph unicode="&#x2000;" horiz-adv-x="942" />
<glyph unicode="&#x2001;" horiz-adv-x="1884" />
<glyph unicode="&#x2002;" horiz-adv-x="942" />
<glyph unicode="&#x2003;" horiz-adv-x="1884" />
<glyph unicode="&#x2004;" horiz-adv-x="628" />
<glyph unicode="&#x2005;" horiz-adv-x="471" />
<glyph unicode="&#x2006;" horiz-adv-x="314" />
<glyph unicode="&#x2007;" horiz-adv-x="314" />
<glyph unicode="&#x2008;" horiz-adv-x="235" />
<glyph unicode="&#x2009;" horiz-adv-x="376" />
<glyph unicode="&#x200a;" horiz-adv-x="104" />
<glyph unicode="&#x2010;" horiz-adv-x="548" d="M92 264q0 35 55 45q2 0 12.5 1t33.5 3q10 2 24 3t31 1h10h33q16 0 37 2q39 2 64.5 3.5t39.5 1.5q6 2 14 2h-4q2 0 12.5 1t28.5 3l-4 -2q20 4 23 4q33 0 33 -23q0 -41 -86 -55q-86 0 -222 -6q-12 0 -80 -6h-12q-43 0 -43 22z" />
<glyph unicode="&#x2011;" horiz-adv-x="548" d="M92 264q0 35 55 45q2 0 12.5 1t33.5 3q10 2 24 3t31 1h10h33q16 0 37 2q39 2 64.5 3.5t39.5 1.5q6 2 14 2h-4q2 0 12.5 1t28.5 3l-4 -2q20 4 23 4q33 0 33 -23q0 -41 -86 -55q-86 0 -222 -6q-12 0 -80 -6h-12q-43 0 -43 22z" />
<glyph unicode="&#x2012;" horiz-adv-x="548" d="M92 264q0 35 55 45q2 0 12.5 1t33.5 3q10 2 24 3t31 1h10h33q16 0 37 2q39 2 64.5 3.5t39.5 1.5q6 2 14 2h-4q2 0 12.5 1t28.5 3l-4 -2q20 4 23 4q33 0 33 -23q0 -41 -86 -55q-86 0 -222 -6q-12 0 -80 -6h-12q-43 0 -43 22z" />
<glyph unicode="&#x2013;" horiz-adv-x="575" d="M8 264q0 37 58 45h-3q25 8 105 8h63l265 7q6 0 53 6l-2 -2q16 4 22 4q33 0 33 -23q0 -41 -88 -55q-195 0 -369 -6h-6t-20 -2q-27 -2 -40 -3l-13 -1h-15q-43 0 -43 22z" />
<glyph unicode="&#x2014;" horiz-adv-x="1185" d="M51 264q0 35 60 45h-2q14 2 40.5 4t67.5 4h41t84 -2q47 -2 131 -2h211h92q117 0 207 4.5t160 12.5l-2 -2q20 4 24 4q33 0 33 -23q0 -39 -90 -55h-168l-745 -6h-9q-6 0 -20 -2q-29 -2 -43 -3t-12 -1h-15q-45 0 -45 22z" />
<glyph unicode="&#x2018;" horiz-adv-x="208" d="M23 1239v23h24q55 0 64 -39q20 -84 86 -314v-10q0 -35 -43 -35q-41 0 -43 33q-10 41 -24.5 91t-31.5 108q-33 104 -32 143z" />
<glyph unicode="&#x2019;" horiz-adv-x="206" d="M66 971q18 43 42.5 124t57.5 201q67 -47 67 -90q0 -47 -65 -190v2q-31 -96 -59 -96q-41 0 -43 49z" />
<glyph unicode="&#x201a;" horiz-adv-x="206" d="M66 -37q25 51 100 320q67 -47 67 -90q0 -47 -65 -191v4q-31 -92 -59 -92q-41 0 -43 49z" />
<glyph unicode="&#x201c;" horiz-adv-x="442" d="M92 1251v25q84 0 96 -39q12 -41 35 -119t58 -196v-7q0 -41 -50 -41q-39 0 -45 33q-4 23 -18 71t-39 126q-37 117 -37 147zM178 1333q66 0 80 -14q14 -12 31 -80v2q20 -70 39.5 -140.5t38.5 -146.5l-17 -24h-24q-6 0 -17 -2q-33 2 -39 41v-2q-27 98 -49 189t-43 177z" />
<glyph unicode="&#x201d;" d="M86 956q0 31 94 199q0 4 64 176q59 -37 59 -61v-2q-6 -41 -86 -224q-59 -133 -86 -133q-45 0 -45 45zM180 913q0 23 33 91l61 133q2 27 66 168q59 -41 59 -60v-6q-8 -41 -20 -84t-33 -84q-4 -10 -24 -51l-50 -94q-29 -53 -53 -54q-39 0 -39 41z" />
<glyph unicode="&#x201e;" d="M86 -70q0 37 94 193q0 4 64 176q59 -37 59 -61v-5q-6 -43 -86 -221q-59 -127 -86 -127q-45 0 -45 45zM180 -113q0 23 33 90l61 127q2 27 66 168q59 -41 59 -59v-6q-18 -94 -53 -168q-23 -41 -74 -141q-25 -51 -53 -52q-39 0 -39 41z" />
<glyph unicode="&#x2022;" horiz-adv-x="759" d="M96 594q0 379 353 379q152 0 208 -101q37 -65 37 -206q0 -154 -104 -260q-102 -109 -252 -109q-109 0 -180 96q-61 82 -62 201z" />
<glyph unicode="&#x2026;" horiz-adv-x="1177" d="M137 45q0 25 24.5 47.5t53.5 22.5q80 -1 80 -54q0 -72 -80 -71q-78 0 -78 55zM530 45q0 25 25 47.5t53 22.5q78 -1 78 -54q0 -72 -78 -71q-78 0 -78 55zM922 45q0 25 25.5 47.5t53.5 22.5q78 -1 78 -54q0 -72 -78 -71q-80 0 -79 55z" />
<glyph unicode="&#x202f;" horiz-adv-x="376" />
<glyph unicode="&#x2039;" horiz-adv-x="442" d="M66 440v35l59 49q59 47 121.5 109.5t132.5 140.5h22l35 -43q-70 -94 -192 -192l-11 -9q51 -66 95.5 -145.5t81.5 -177.5l-146 -88h-22q-78 213 -176 321z" />
<glyph unicode="&#x203a;" horiz-adv-x="442" d="M61 164q27 35 77 85t124 118q-76 100 -160 274l-20 43l147 90h25q76 -219 178 -321v-33q-184 -145 -313 -301h-23z" />
<glyph unicode="&#x205f;" horiz-adv-x="471" />
<glyph unicode="&#x2122;" horiz-adv-x="1892" d="M14 1298q0 78 88 103q10 2 55.5 8t127.5 16q57 8 158.5 14.5t250.5 12.5q131 4 213 7t115 3q63 0 63 -45v-4q-6 -45 -55 -45q-88 0 -179 -3t-189 -11q-39 -211 -57.5 -383t-18.5 -307v-17q0 -16 3 -54t11 -97q-14 4 -35.5 11t-50.5 17q-37 39 -37 129q0 47 5 129t16 201 q10 102 14 177t6 124q-57 -80 -98 -90h2q-109 -31 -229 -31q-178 0 -179 135zM109 1274q0 -17 100 -17q147 0 309 52v28q-35 -4 -117 -6q-293 -16 -292 -57zM621 573l47 23q53 -10 82.5 -16.5t35.5 -6.5q137 0 283 471q70 221 70 359q0 86 67 86q37 0 115 -55 q-20 -49 -21 -215q0 -143 19 -312q27 -254 78 -254q25 0 108 250q35 111 62.5 208t48.5 189q2 2 2 39v45q0 66 37 82q27 -2 47 -3t35 -5q66 -12 71 -55q-20 -43 -41 -270q-18 -195 -18 -289q0 -66 3 -118t7 -91v2q23 -133 88 -148l15 -28q-29 -53 -60 -53q-96 0 -141 227 q-27 127 -27 274v127q-8 -29 -22.5 -79t-36.5 -121q-96 -305 -191 -306q-119 0 -165 287q-4 33 -14.5 101.5t-26.5 175.5q-4 -16 -19.5 -60.5t-38.5 -115.5q-33 -100 -60.5 -171t-53.5 -112q-102 -164 -224 -164q-84 0 -161 102z" />
<glyph unicode="&#x25fc;" horiz-adv-x="768" d="M0 0v768h768v-768h-768z" />
<glyph unicode="&#xfb01;" horiz-adv-x="344" d="M-20 -313q0 758 129 1640q27 25 79 25q37 0 84 -41q-53 -86 -71 -189q-80 -471 -105 -811q43 -14 72 -67h-2q8 -16 17.5 -38t19.5 -50q37 4 76 100q14 33 71 246v-4q12 135 12 172q27 25 60 24q70 0 70 -47q-6 -31 -13.5 -58.5t-15.5 -64.5q-37 -182 -37 -307 q0 -115 39 -115q23 0 51 93q6 23 21.5 71.5t37.5 126.5q10 33 21.5 77t26.5 99q16 66 47 66q37 0 37 -49q0 -63 -68 -285q-23 -78 -38 -122t-19 -58q-51 -119 -121 -119q-72 0 -107 84q-14 31 -20 74q-20 -35 -41 -49h2q-29 -25 -66 -39q49 -219 50 -357q0 -291 -68 -403 q-14 -27 -66 -27q-166 0 -165 375v27zM74 -317q0 -35 4 -79t12 -100v2q20 -131 45 -131q18 0 41 129q10 57 15.5 99t5.5 71q0 244 -58 392q-29 18 -47 38q-18 -250 -18 -421zM367 246l2 2v2q0 -2 -2 -4zM383 1141q0 27 26.5 55.5t51.5 28.5q86 -1 86 -95t-68 -94 q-39 0 -67.5 32t-28.5 73z" />
<glyph unicode="&#xfb02;" horiz-adv-x="346" d="M-20 -313q0 760 129 1642q29 23 81 23q39 0 84 -39q-55 -86 -73 -191q-41 -242 -66.5 -443.5t-36.5 -367.5q45 -16 72 -67h-2q4 -10 12 -30.5t23 -53.5q84 0 153 69q-2 18 -3 52t-1 84q0 199 31 450q16 137 37.5 248t50.5 197l-2 -5q8 156 86 156q147 0 147 -194 q0 -117 -10 -236t-30 -244q-49 -291 -138 -452q-23 -43 -45 -66q2 -27 35 -84q33 -55 55 -55q57 0 162 381q8 10 8 18l-2 -2q6 37 25 103v-2q8 57 43 57q39 0 39 -49q0 -74 -82 -320q-95 -291 -197 -291q-113 0 -182 162q-74 -57 -152 -71q51 -199 52 -351q0 -289 -70 -403 q-14 -27 -66 -27q-168 0 -167 375v27zM74 -317q0 -35 4 -79t12 -100v2q25 -131 47 -131q18 0 41 127q19 104 19 172q0 240 -56 392q-20 10 -49 38q-18 -250 -18 -421zM453 432q0 4 1 -14.5t3 -61.5q147 322 147 777q0 43 -3 75.5t-7 55.5q-61 -195 -105 -467 q-37 -231 -36 -365z" />
</font>
</defs>
</svg>
