<?xml version="1.0" standalone="no"?>
<!DOCTYPE svg PUBLIC "-//W3C//DTD SVG 1.1//EN" "http://www.w3.org/Graphics/SVG/1.1/DTD/svg11.dtd" >
<svg xmlns="http://www.w3.org/2000/svg">
<metadata></metadata>
<defs>
<font id="honey_scriptlight" horiz-adv-x="479" >
<font-face units-per-em="2048" ascent="1638" descent="-410" />
<missing-glyph horiz-adv-x="430" />
<glyph horiz-adv-x="0" />
<glyph unicode="&#xd;" horiz-adv-x="512" />
<glyph unicode=" "  horiz-adv-x="430" />
<glyph unicode="&#x09;" horiz-adv-x="430" />
<glyph unicode="&#xa0;" horiz-adv-x="430" />
<glyph unicode="!" horiz-adv-x="411" d="M176 35q0 18 25 61q27 43 41 43q33 0 47 -39q14 -28 14 -65q0 -18 -16.5 -43t-34.5 -25q-29 0 -52.5 19.5t-23.5 48.5zM176 516q0 43 5 138.5t16 242.5q23 315 36 434q8 20 50 21q36 -1 77 -54q-102 -283 -102 -815q0 -90 3 -153.5t11 -104.5q-29 -16 -41 4 q-39 70 -49 138q-6 45 -6 149z" />
<glyph unicode="&#x22;" horiz-adv-x="507" d="M98 1024q0 29 107 209q8 29 22.5 69.5t36.5 98.5q39 -25 37 -37q-6 -51 -94 -236q-61 -133 -80 -133q-29 0 -29 29zM203 977q0 12 37 90l69 147q8 29 24.5 68t39.5 90q39 -29 37 -37q-16 -88 -58 -176q-23 -41 -43 -81t-41 -81q-20 -45 -41 -45q-25 0 -24 25z" />
<glyph unicode="#" horiz-adv-x="929" d="M0 596q0 39 41 55l219 41l27 158l-193 -41q-29 -16 -57 -16q-37 0 -37 36q0 39 41 56l258 55l29 193q8 53 45 51q31 -4 30 -21q0 -10 -6 -62t-16 -147l176 35l29 205q8 61 43 51q20 -6 20 -49q0 -20 -18 -192l205 34q36 0 36 -18q0 -43 -43 -51l-206 -43l-23 -178l227 36 q37 0 37 -18q0 -14 -14 -31.5t-29 -19.5l-233 -41l-19 -156q2 -8 1 -21.5t-3 -29.5q-25 -49 -69 -49q-14 0 -15 12l31 227l-180 -30l-27 -183q2 -8 1 -21t-3 -30q-16 -37 -69 -37q-23 0 -27 17l37 237l-152 -35q-29 -16 -57 -16q-37 0 -37 37zM344 705l180 30l27 174 l-180 -37z" />
<glyph unicode="$" horiz-adv-x="544" d="M4 332q37 14 111 -84q86 -111 178 -111q51 0 82 39t31 90q0 92 -87 170q-154 135 -161 150q-86 111 -86 286q0 260 164 277q0 104 22 184q35 0 37 -63q-2 -33 -2 -66v-65q94 -49 129 -99q45 -57 45 -153q0 -209 -61 -209q-31 0 -39 104q-2 33 -4.5 66t-4.5 65 q-20 174 -104 174q-53 0 -82 -90q-23 -68 -22 -131q0 -164 81 -239l232 -224q39 -37 39 -131q0 -131 -84 -184q-33 -10 -63.5 -22.5t-61.5 -24.5q6 -31 6 -68q0 -53 -12 -123q-43 -10 -45 54l-3 40t-8 122l-108 69q-68 57 -119 197z" />
<glyph unicode="%" horiz-adv-x="970" d="M0 883q0 125 33 258q49 190 133 190q125 0 145 -260q72 -33 113 -33q147 0 348 187q12 10 35 55q16 35 51 51q12 0 31.5 -15.5t19.5 -27.5q0 -25 -84 -114q-76 -78 -172 -221.5t-215 -352.5q-244 -430 -268 -600q-4 -18 -20 -18t-28.5 17t-12.5 36q37 158 249 536 q82 147 156 268.5t139 221.5q-18 -2 -80 -35q-59 -31 -94 -31q-47 0 -88 3t-76 12q-14 -96 -23 -153.5t-18 -78.5q-35 -102 -114 -102q-82 0 -125 65q-35 57 -35 142zM76 874q0 -152 65 -151q41 0 72 51q25 39 35 90q-2 39 -2 88q0 52 4 115q-33 61 -35 141q-4 47 -45 47 q-94 -180 -94 -381zM528 252q0 211 80 321q8 10 14.5 18.5t10.5 16.5q6 0 20.5 -2t20.5 -2q109 0 149 -92q25 -59 25 -190q0 -350 -164 -351q-156 0 -156 281zM598 209q0 -197 80 -197q70 0 100 144q19 88 19 194q0 203 -99 203q-49 0 -77 -152q-10 -55 -16.5 -103t-6.5 -89 z" />
<glyph unicode="&#x26;" horiz-adv-x="1218" d="M102 248q0 135 93 264l190 221q-61 186 -61 320q0 106 45 198q55 117 147 117q94 0 166 -78q70 -76 70 -172q0 -94 -105 -225q-6 -8 -49 -55t-125 -140q6 -20 25.5 -69t54.5 -131l436 2q160 -4 172 -31q0 -12 -18 -33h-142q-39 0 -120 -112q-94 -129 -125 -152 q39 -41 116 -129q27 -31 86 -57q0 -10 -19 -19.5t-32 -9.5q-29 0 -65 41l-127 135q-195 -158 -336 -158q-115 0 -197 78q-80 76 -80 195zM158 195q0 -63 59 -117q59 -51 129 -51q102 0 215 69q101 61 101 90q-8 29 -142 242q-29 0 -80 6q-59 6 -80 6q0 10 1 17.5t4 15.5 q35 2 118 25q-18 27 -67 159q-258 -170 -258 -462zM393 1016q0 -88 51 -217q25 18 105 108q141 156 141 250q0 29 -11 57.5t-30.5 52t-45 39t-54.5 15.5q-76 0 -123 -121q-33 -86 -33 -184zM590 430q23 -39 55.5 -84t73.5 -98q18 0 72 78q51 78 51 106h-119h-45 q-23 0 -45 -2h-43z" />
<glyph unicode="'" horiz-adv-x="0" d="M-145 1057q41 88 116 334q49 -35 49 -70q0 -43 -77 -205q-35 -92 -56 -92q-31 0 -32 33z" />
<glyph unicode="(" horiz-adv-x="444" d="M141 582q0 397 99 622q10 37 22 74t25 72q41 109 80 108q8 0 20 -5t23.5 -12t19.5 -15.5t8 -14.5l-49 -53q-53 -84 -110 -277q-72 -246 -72 -448q0 -98 18 -260q23 -180 45 -252q78 -240 119 -289q12 -16 36 -29.5t36 -25.5q-25 -10 -43 -10q-125 0 -209 311 q-68 254 -68 504z" />
<glyph unicode=")" horiz-adv-x="358" d="M18 1430q0 29 41 28q61 0 78 -41l74 -387q51 -254 51 -520q0 -201 -20 -295q-10 -131 -45 -258q-55 -199 -134 -199q-29 0 -36 25q10 8 21 19.5t26 25.5q121 231 121 682q0 375 -45 528q-84 291 -101 318q-31 55 -31 74z" />
<glyph unicode="*" horiz-adv-x="444" d="M0 1165q0 16 49 33l74 25q-14 25 -43 102q8 12 18 12q8 0 68 -84q29 49 63 86q25 -25 25 -32q0 -6 -25 -37q-12 -16 -18 -24.5t-8 -10.5q14 2 27.5 3t23.5 1q38 0 61 -12q-6 -20 -14 -29q-35 0 -98 -14q2 -10 33 -54q29 -41 28 -40q0 -14 -24 -15q-20 0 -78 94 q-35 -68 -74 -94q-12 14 -12 25q0 4 10 29.5t12 35.5q-8 -2 -37.5 -10t-37.5 -8q-23 0 -23 18z" />
<glyph unicode="+" horiz-adv-x="774" d="M86 459q0 70 39 121q43 59 108 59q109 0 168 -166q14 74 43 174q6 18 37 19q29 0 29 -23q0 -6 -5 -16.5t-11.5 -22.5t-11.5 -23.5t-5 -17.5q-2 -12 -9 -46t-19 -87q-25 -102 -25 -115q37 4 123 33q88 31 119 31q33 0 82 -37l8 -6q-61 -4 -143.5 -20.5t-186.5 -45.5v-131 q0 -53 23 -127q-2 -8 -13 -8q-31 0 -51 33q-16 29 -16 59q0 23 6 47q0 18 -3 52t-3 53q-29 -4 -51.5 -7t-43.5 -3q-78 0 -135 73q-53 70 -53 148zM129 473q0 -76 54.5 -125t129.5 -49q66 0 66 47q0 66 -35 141q-47 98 -127 99q-39 0 -63.5 -36t-24.5 -77z" />
<glyph unicode="," horiz-adv-x="315" d="M-63 -141q0 8 71 135q10 23 23.5 55.5t34.5 75.5q53 -24 53 -57q0 -12 -56 -107q-70 -131 -90 -131q-37 0 -36 29z" />
<glyph unicode="-" horiz-adv-x="600" d="M100 365q0 37 45 45l107 10q27 2 76 4t123 6q10 2 24 3t35 5q33 6 33 -8q0 -20 -27 -37.5t-51 -21.5q-59 -2 -118.5 -4t-119.5 -7q-14 -2 -36.5 -3t-51.5 -5q-39 -2 -39 13z" />
<glyph unicode="." horiz-adv-x="258" d="M55 39q0 25 19.5 48.5t42.5 23.5q61 -1 61 -52q0 -78 -61 -77q-61 0 -62 57z" />
<glyph unicode="/" horiz-adv-x="798" d="M-8 35q37 162 246 536q84 150 157.5 272t139.5 218l104 151q80 111 100 119q12 0 32 -15.5t20 -27.5q0 -25 -84 -114q-76 -78 -172.5 -221.5t-215.5 -352.5q-244 -430 -268 -600q-4 -18 -20 -18t-27.5 17t-11.5 36z" />
<glyph unicode="0" horiz-adv-x="917" d="M0 487q0 233 80 496q106 350 287 350q49 0 168 -65l149 -84q39 -14 74 -223q30 -176 30 -256q0 -219 -102 -441q-127 -264 -326 -264q-102 0 -198 59q-92 59 -127 156q-35 92 -35 272zM109 428q0 -137 47 -238q61 -129 186 -129q193 0 295 283q72 209 72 440 q0 176 -60 301q-78 160 -235 160q-137 0 -232 -350q-74 -276 -73 -467z" />
<glyph unicode="1" horiz-adv-x="344" d="M20 66q0 59 8.5 160.5t24.5 248.5q31 274 25 354q-43 33 -43 66q0 55 33 160q16 59 26 101t12 69q25 8 54 8q73 0 73 -51q0 -29 -14 -70q-16 -49 -18 -70q-35 -283 -53.5 -495.5t-18.5 -360.5q0 -66 3 -121t11 -96q0 -12 -28 -12q-94 0 -95 109z" />
<glyph unicode="2" horiz-adv-x="823" d="M-35 18q0 14 53 50q35 20 57.5 36.5t33.5 26.5q84 94 152.5 200.5t125.5 225.5q131 268 131 487q0 82 -57.5 131.5t-143.5 49.5q-68 0 -93 -58.5t-50 -193.5q-18 -96 -27.5 -146.5t-11.5 -54.5q-29 -123 -78 -123q-51 0 -51 72q0 35 23 131q10 41 25.5 91t35.5 108 q47 133 84 186q33 49 105 49q137 0 245 -82q123 -90 123 -221q0 -193 -178 -487q-72 -119 -150.5 -224.5t-166.5 -201.5q160 6 307 6q25 0 68.5 -3t107.5 -12q129 -16 129 -26q0 -45 -37 -45q20 0 18 1t-19 2t-48 3t-68 2q-41 2 -73 2h-60q-41 0 -97 -7t-128 -22 q-141 -31 -195 -30q-92 0 -92 77z" />
<glyph unicode="3" horiz-adv-x="833" d="M-49 145q0 78 33 80q14 0 22 -8q10 -10 25.5 -33.5t36.5 -62.5q39 -76 59 -92q61 -55 166 -56q123 0 215 136q82 125 82 253q0 78 -29 146q-41 86 -108 86l-199 -47q-31 8 -31 43q0 37 31 67.5t68 30.5q10 0 21 -1t28 -3q27 -2 41 0q61 49 96 164q29 98 29 192 q0 188 -154 189q-100 0 -139 -58q-31 -47 -31 -153q0 -340 -100 -340q-31 0 -50 41q-16 37 -16 67q0 115 80 316q37 92 76 131q53 53 137 53q125 0 213 -59q98 -68 98 -191q0 -184 -184 -383q115 -53 170 -108q70 -72 70 -183q0 -186 -105 -315q-115 -135 -295 -135 q-127 0 -252 100q-104 88 -104 133z" />
<glyph unicode="4" horiz-adv-x="956" d="M-25 438q0 25 72 133q51 76 89 138.5t65 109.5q70 129 198 318q16 23 31.5 47t32.5 49q45 63 80 67q37 -4 92 -43q55 -41 55 -71q0 -16 -16 -78q-10 -33 -14.5 -54.5t-6.5 -31.5q-68 -502 -67 -578l231 -6q51 -1 51 -32q0 -45 -102 -46h-31q-18 0 -51 2q-61 2 -98 0 q-6 -35 -9.5 -73.5t-5.5 -81.5q-2 -53 -2 -84q0 -29 -2 -39q-4 -37 21 -100q27 -66 26 -58q0 -14 -55 -14q-76 0 -76 154q0 20 1 47.5t3 66.5t3.5 67.5t1.5 49.5q0 20 -1.5 37.5t-3.5 32.5q-94 6 -213 -21q-86 -18 -141 -28.5t-78 -12.5q-80 100 -80 133zM96 442 q0 -29 58 -28q29 0 84 6q29 4 49 6t35 2q14 0 36.5 1t51.5 3q57 6 88 6q6 162 24 381q10 127 12 214t-2 134q-29 -16 -116 -147q-55 -82 -87 -128t-40 -56q-66 -84 -133 -230q-59 -131 -60 -164z" />
<glyph unicode="5" horiz-adv-x="890" d="M-49 109q0 37 55 36q23 0 119 -71q94 -70 164 -70q164 0 268 121q98 113 98 281q0 109 -51 167q-59 68 -160 68q-86 0 -172 -43q-20 -10 -58 -32.5t-95 -61.5q-23 0 -49 37q-27 39 -27 63q0 25 3 61.5t11 86.5q8 49 11.5 85.5t3.5 61.5v133q0 37 -2 10q2 92 24 140 q8 18 285 47q193 18 250 18q76 0 88 -18q0 -20 -39 -47q-37 -25 -60 -29q-180 -16 -241 -25q-162 -23 -195 -55q-23 -166 -35 -269.5t-12 -148.5q12 4 42 13.5t77 25.5q72 27 104 27q164 0 283 -103q119 -100 119 -266q0 -186 -121 -301q-121 -111 -309 -110q-96 0 -221 43 q-158 49 -158 125z" />
<glyph unicode="6" horiz-adv-x="866" d="M0 446q0 211 98 529q119 393 279 393q49 0 147 -41t123 -76q45 -63 45 -159q0 -66 -35 -164q-63 0 -77 37q-10 25 -11 94q0 115 -14 155q-29 78 -106 78q-70 0 -132 -104q-14 -29 -36.5 -70t-53.5 -96q-76 -129 -106 -375q156 160 293 160q150 0 243 -119 q88 -108 88 -264q0 -168 -90 -293q-102 -135 -266 -131q-195 0 -295 131q-94 119 -94 315zM100 367q0 -309 281 -310q121 0 199 146q67 123 67 254q0 117 -55 196q-61 88 -174 88q-160 0 -242 -112q-76 -100 -76 -262z" />
<glyph unicode="7" horiz-adv-x="696" d="M-45 1221q0 61 84 84q16 4 65.5 10t131.5 16q119 14 212 20.5t158 6.5q23 -1 76 -62q0 -29 -29 -63q-49 -59 -71 -98q-479 -821 -480 -1057q0 -29 9 -43q-98 0 -99 45q0 127 232 637l231 510q0 27 -82 26q-29 0 -78 -4t-118 -12q-31 -4 -65 -12t-73 -23l-71 -28 q-33 0 -33 47z" />
<glyph unicode="8" horiz-adv-x="1017" d="M0 330q0 121 96 254q29 41 76 92t113 115q-145 133 -146 249q0 127 88 242q94 125 215 125q78 0 179 -88q113 -96 137 -107q57 43 73 103q2 12 3.5 24.5t3.5 26.5q47 0 47 -98q0 -76 -76 -160q-66 -76 -130.5 -136.5t-127.5 -107.5q-90 -68 -90 -76q0 -6 2 -8 q180 -113 256 -184q137 -131 137 -270q0 -152 -145 -254q-131 -90 -289 -90q-160 0 -285 92q-137 100 -137 256zM70 307q0 -106 106 -170q90 -53 203 -53q143 0 252 74q123 82 123 219q4 188 -371 360q-311 -268 -313 -430zM233 1028q0 -51 39 -110q39 -68 88 -68 q20 0 175 135q153 137 165 166q-78 119 -96 139q-41 41 -110 41q-102 0 -189 -127q-72 -109 -72 -176z" />
<glyph unicode="9" horiz-adv-x="835" d="M0 815q0 150 115 344q129 215 268 215q35 0 246 -133q0 82 20 82q12 0 35 -12q90 -16 90 -43q-25 -16 -35 -90l-65 -480q-20 -166 -26.5 -303t-2.5 -252q0 -18 39 -129q-8 -12 -18 -16q4 2 -25 2q-88 0 -90 217q0 47 6 143q6 94 6 142q0 10 -20 10q-29 0 -84 -14t-84 -15 q-168 0 -266 80q-109 90 -109 252zM94 741q-2 -186 252 -186q47 0 117 16q80 23 102 52l58 510q0 18 -68 79q-78 72 -135 72q-117 0 -227 -217q-98 -195 -99 -326z" />
<glyph unicode=":" horiz-adv-x="299" d="M94 59q0 20 15.5 38t35.5 18q58 -1 58 -56q0 -57 -58 -57q-51 0 -51 57zM109 492q0 16 9 36.5t23 20.5q84 -23 84 -66q0 -53 -55 -53q-25 0 -43 18.5t-18 43.5z" />
<glyph unicode=";" horiz-adv-x="372" d="M2 -147q0 31 39 57q43 31 72 84q10 25 22 49.5t25 48.5q53 -22 53 -55q0 -12 -74 -100q-90 -111 -114 -111q-23 0 -23 27zM123 469q0 37 55 61q29 0 48.5 -21t19.5 -50q0 -47 -58 -47q-66 0 -65 57z" />
<glyph unicode="&#x3c;" horiz-adv-x="786" d="M-2 532q2 33 29 46q12 4 59 12q39 6 166 69q170 82 276 168q23 18 49.5 37t55.5 39q18 9 24 -14q10 -39 -69 -84q-221 -193 -494 -293q154 -84 412 -104q141 -12 143 -46q2 -25 -71 -24q-131 0 -254 24q-33 8 -93.5 23.5t-148.5 42.5q-90 41 -84 104z" />
<glyph unicode="=" horiz-adv-x="786" d="M55 397q0 37 47 49q20 4 47 6.5t62 4.5q49 2 129 4t192 6q10 2 25.5 3t38.5 5q33 2 33 -12q0 -23 -29 -41.5t-53 -22.5q-78 -2 -190.5 -5t-262.5 -11q-39 -2 -39 14zM55 627q0 37 47 49q20 4 47 6t62 4q49 2 129 4t192 6q10 2 25.5 3t38.5 6q33 1 33 -13q0 -23 -29 -41 t-53 -22q-78 -2 -190.5 -5t-262.5 -12q-39 -2 -39 15z" />
<glyph unicode="&#x3e;" horiz-adv-x="786" d="M55 305q4 29 90 57q51 27 136 62q176 72 323 98q-133 94 -424 178q-129 35 -119 70q2 18 70 12q174 -18 334 -96l164 -84q81 -55 69 -121q-6 -33 -36 -39q-10 -4 -60 0q-152 -8 -403 -114q-119 -49 -127 -47q-20 0 -17 24z" />
<glyph unicode="?" horiz-adv-x="800" d="M-72 752q0 111 84 260q76 125 172 219q164 162 305 162q102 0 160 -88q49 -79 49 -185q0 -115 -47 -205q-16 -33 -51 -78.5t-86 -105.5q-72 -86 -130 -157.5t-101 -131.5l-37 -129q0 -20 12 -39.5t12 -25.5q0 -18 -26 -19q-45 0 -45 115q0 117 112 268q35 45 86.5 114 t120.5 161q113 156 113 295q0 145 -135 145q-137 0 -334 -240q-47 -57 -79 -100t-48 -74q-53 -96 -53 -192v-21q0 -8 2 -18q-55 -12 -56 70zM184 37q0 27 15.5 53.5t40.5 26.5q71 0 71 -51q0 -33 -20.5 -61t-50.5 -28q-55 0 -56 60z" />
<glyph unicode="@" horiz-adv-x="1118" d="M45 449q-2 412 270 690q135 135 320 139q184 4 311 -166q115 -156 115 -344q0 -90 -29 -209q-18 -68 -38.5 -113t-47 -72.5t-58.5 -38.5t-73 -11q-47 0 -94 47q-35 41 -53 94q-51 -193 -138 -193q-123 0 -116 301q2 39 14 104.5t39 162.5q59 213 100 213q90 0 115 -47 l37 -74l72 -25q-59 -182 -66 -379q-2 -35 27 -90q31 -53 65 -53q33 0 55 23q57 57 91 167q29 102 28 191q0 164 -94 303q-106 156 -260 154q-135 -2 -262 -129q-238 -238 -240 -621q-2 -184 96 -311q106 -135 285 -139q152 -2 297 143q39 39 57 39q25 0 25 -35q0 -23 -8 -47 q-152 -150 -342 -150q-233 0 -383 148q-115 115 -117 328zM479 432q0 -35 15 -65q18 -39 47 -39q43 27 86 157q41 123 41 183q0 33 12 94q12 63 12 94l-24 33q-8 94 -52 94q-35 0 -61 -98q-8 -23 -18.5 -60t-24.5 -84q-33 -125 -33 -309z" />
<glyph unicode="A" horiz-adv-x="1384" d="M-53 96q10 14 16 17q6 4 17 0q8 -2 20 -2q0 -61 100 -62q154 0 265 117q63 70 159 256q-16 2 -29.5 3t-25.5 1q-14 0 -37.5 -5t-36.5 -5q-49 0 -49 28q0 14 221 39q102 168 236 510q119 301 119 363q0 6 -4.5 15t-4.5 15q0 27 64 27q20 0 78 -35q57 -33 57 -53 q0 -16 -4 -48t-4 -48q0 -281 86 -688q35 -162 65.5 -281t59.5 -194q8 -25 26.5 -36.5t22.5 -17.5q0 -20 -37 -20q-25 0 -72 10q-74 96 -155 461q-86 -12 -242 -19q-86 -4 -145.5 -7t-94.5 -7q-29 -47 -70.5 -118.5t-101.5 -166.5q-128 -196 -259 -196h-1q-170 0 -239 147z M651 498l436 10q1 12 -26 170q-59 356 -68 461q-2 29 -3 43l-1 14q-10 37 -24 49q-18 -35 -54.5 -123t-89.5 -233q-53 -141 -95 -237.5t-75 -153.5z" />
<glyph unicode="B" horiz-adv-x="1075" d="M-45 1317q-1 1 -1 2q0 19 169 39q0 86 37 86q63 0 63 -66q217 41 469 41q145 0 273 -57q161 -74 161 -201q0 -57 -57 -133q-49 -70 -106 -104q-33 -20 -111 -59.5t-203 -98.5q326 -59 326 -336q0 -152 -160 -319q-160 -168 -311 -168q-72 0 -201 45q-116 41 -116 45h1 q0 -57 -18 -58q-84 4 -84 205v86q2 59 2 82q0 25 0 12q0 211 6 404.5t21 378.5l10 131q-2 2 -24.5 2t-65.5 -2h-8q-47 0 -72 43zM174 406q0 -33 2 -78t3 -78t1 -55v-45q0 -23 -2 -44q16 -4 50 -18t81 -41q84 -45 115 -45q164 0 321 176q146 164 146 305q0 215 -336 215 q-285 0 -354 -88q-27 -33 -27 -147v-57zM195 717q141 8 528 145q92 33 195 137q114 115 114 199q0 147 -325 148q-29 0 -89.5 -6.5t-152.5 -16.5q-84 -10 -143.5 -18.5t-96.5 -16.5q-30 -242 -30 -551v-20z" />
<glyph unicode="C" horiz-adv-x="874" d="M0 436q0 225 88 502q106 338 264 440q39 27 119 27q113 0 219 -64q68 -39 90 -81q31 -55 31 -175q0 -72 -25 -202q-31 -164 -69 -164q-27 0 -43 41q-14 31 -15 61q0 55 35 189q35 135 35 196q0 68 -86 109q-70 35 -143 35q-154 0 -279 -344q-117 -317 -117 -623 q0 -344 254 -344q227 0 439 162l32 59q29 -4 29 -24q0 -10 -18 -56q-70 -90 -203 -149q-133 -55 -254 -56q-190 0 -293 140q-90 127 -90 321z" />
<glyph unicode="D" horiz-adv-x="1122" d="M-45 987q0 68 180 160l51 25q50 24 154 73q0 106 -16 117q0 24 49 24h4q90 0 90 -81q143 45 221 45q111 0 152 -15q59 -18 123 -84q39 -41 64.5 -71.5t35.5 -51.5q49 -83 49 -198q0 -129 -65 -361q-74 -254 -179 -419q-127 -201 -264 -201q-39 0 -78 28l-73 54 q-27 14 -91 37v-41q6 -12 7 -23q0 -20 -27 -20q-59 0 -59 71q0 23 -2 54.5t-7 72.5q-6 86 -6 129q0 145 7.5 281.5t21.5 267.5l27 268q0 27 -2 37q-182 -68 -310 -151q-12 -10 -12 -31q-2 -29 -6 -39q-14 -6 -26.5 10.5t-12.5 32.5zM354 168l95 -82q66 -47 112 -47 q166 0 313 326q140 313 140 608q0 176 -94 246q-84 59 -265 59q-143 0 -202 -51q-53 -166 -99 -1059z" />
<glyph unicode="E" horiz-adv-x="1220" d="M0 369q0 143 113 249q78 74 237 156q-100 35 -149 78q-59 55 -60 149q0 207 316 312q220 73 474 73h7q94 0 131 -14q72 -23 72 -94q0 -61 -25 -61q-25 23 -69 57q-35 18 -99 18q-223 0 -440 -61q-309 -88 -309 -254q0 -72 104 -111q71 -26 158 -26h6q27 0 190 12 q72 4 116 7t61 1q24 -16 24 -53v-8q-4 -43 -33 -54q-47 29 -71 29q-178 0 -400 -90q-297 -123 -297 -324q0 -166 209 -241q150 -55 346 -56q78 0 199 21q137 20 190 49q135 70 136 86q0 4 -7 4v39q72 0 72 -43q0 -104 -254 -184q-203 -63 -344 -64q-225 0 -393 84 q-211 106 -211 314z" />
<glyph unicode="F" horiz-adv-x="911" d="M-29 1241q0 39 76 47q33 2 82 6t115 9q193 20 360.5 31.5t315.5 15.5q63 -4 113 -8q32 -2 58 -2q15 0 29 1t26 1q71 0 71 -25q0 -14 -27 -17q-8 -2 -25 -2t-43 2q-29 2 -49 3h-31q-33 0 -83 -3.5t-119 -11.5l-287 -28q-92 -348 -92 -580q10 2 30.5 3t49.5 1q39 0 95 -2 t130 -6q2 -6 2 -14q0 -45 -145 -50q-158 -2 -168 -12q0 23 -1 23t-5 -127q-2 -92 -3.5 -149.5t-1.5 -84.5q0 -207 25 -268q-23 -6 -37 -6q-70 0 -70 131v360q0 12 1.5 30.5t2.5 38t2 38t1 30.5q-47 2 -105.5 6.5t-130.5 14.5q-4 2 -2 8l4 8q43 16 127 17h43q23 0 39 -2h23 q14 197 49 577q-76 -8 -156 -17t-168 -20q-20 -4 -39 -16q-14 -10 -22 -15.5t-11 -7.5q-10 0 -45 48q-4 20 -4 24z" />
<glyph unicode="G" horiz-adv-x="1075" d="M0 416q0 393 231 778q57 94 99 129q57 49 151 49q53 0 256 -88q39 -16 78 -67q51 -63 51 -142q0 -283 -65 -282q-76 0 -76 147q0 33 6 98q6 63 6 99q0 63 -80 116q-72 49 -139 50q-100 0 -207 -199q-207 -379 -207 -715t258 -336q145 0 287 123q141 125 142 268 q0 72 -35 95q-412 0 -563 -52q0 51 67 68q358 72 643 72q170 0 170 -31q0 -20 -188 -51q-4 -33 -10.5 -75t-16.5 -95q-29 -152 -172 -269q-144 -116 -296 -116h-3q-193 0 -293 119q-94 109 -94 307z" />
<glyph unicode="H" horiz-adv-x="1077" d="M-45 504q0 39 57 51q14 4 36 7t54 7q49 424 50 594q0 90 -13 137q78 -8 103.5 -35.5t25.5 -105.5q0 -47 -7 -117.5t-21 -167.5q-14 -96 -21.5 -167.5t-7.5 -118.5q27 -4 80 -4q55 0 137 2l301 8q2 20 5 61t7 101l39 530q0 8 -4 25.5t-4 27.5q0 45 62 45q37 0 71.5 -23.5 t34.5 -60.5q0 -20 -18 -71q-10 -31 -17.5 -50.5t-9.5 -27.5q-10 -53 -22.5 -134t-28.5 -194l-31 -225q70 -4 115 -7t67 -3q29 14 52 14q30 1 30 -22q0 -16 -51 -31q-20 -6 -36.5 -9t-26.5 -5q-45 -4 -84 -6.5t-74 -4.5q0 -45 -6 -133q-2 -45 -3 -77.5t-1 -55.5 q0 -172 71 -262q-51 -33 -90 -33q-16 0 -49 37q-31 35 -52.5 57.5t-35.5 34.5q-45 41 -101.5 86t-121.5 96q-182 139 -228 140q-4 -74 -7 -124t-3 -79q0 -63 6 -117.5t17 -101.5q-15 -2 -28 -2q-49 0 -62 30q-2 4 -15 109q-6 51 -6 119q0 63 6 141l6 78h-88q-59 4 -59 37z M193 489q0 -14 30 -28q27 -10 43.5 -19.5t26.5 -15.5q35 -23 88 -56.5t125 -78.5q137 -90 219 -221l-2 444q-25 4 -90.5 6t-175.5 2h-162q-43 0 -16 2q-86 -4 -86 -35z" />
<glyph unicode="I" horiz-adv-x="616" d="M-53 -8q0 18 108 31l146 16q0 12 -2 30.5t-4 39t-4.5 40t-2.5 31.5q0 20 6.5 160.5t16.5 409.5q13 341 13 440q0 33 -1 39q-125 0 -217 6q16 14 36.5 27.5t47.5 27.5q346 37 377 37h35q20 0 49 -2t49 -2h37q19 0 29 -18q-37 -16 -58.5 -24.5t-29.5 -10.5l-205 -35 q-45 -143 -72 -473q-25 -295 -25 -541q0 -139 11 -170q-12 0 7 1t73 3q28 1 51 1q107 0 106 -23q-18 -20 -100 -39q-119 -29 -283 -29q-193 0 -194 27z" />
<glyph unicode="J" horiz-adv-x="737" d="M-66 281v6q0 37 48 37q29 0 88 -62q94 -104 112 -117q76 -61 154 -61q119 0 160 135q28 95 28 307v15q0 90 -1 187t-3 206l-4 285q0 14 -10 40.5t-10 38.5q0 49 57 50q113 -1 113 -58q0 47 -4.5 39t-12.5 -69q-16 -111 -31 -295q-8 -98 -12 -164t-4 -105v-73 q0 -43 2 -103q2 -59 3 -103t1 -73q0 -154 -18 -217q-35 -127 -146 -127q-104 0 -297 90q-207 102 -213 191z" />
<glyph unicode="K" horiz-adv-x="956" d="M-35 504l15 47q16 6 38.5 18.5t53.5 28.5q0 31 5 97.5t15 170.5q10 94 14 162q2 37 1 65q0 25 -1 44l-8 163q63 98 90 99q51 0 52 -66q0 53 -6.5 40t-16.5 -93q-10 -68 -20.5 -158t-20.5 -204q-10 -115 -16 -183.5t-6 -95.5q59 39 106 68.5t82 52.5q186 125 313 239 q233 209 299 338q18 0 33 -30.5t17 -53.5q-47 -84 -148 -178q-16 -16 -62 -55t-120 -102q-92 -78 -187.5 -149t-193.5 -136q-147 -96 -148 -101q0 -78 306 -241q289 -152 397 -164q16 -2 31 -2h32q45 -2 50 -23l-7 -8l-24 -24q-27 -33 -45 -33q-23 0 -183 65 q-113 47 -252 115t-309 160v-162q0 -59 2 -80q4 -90 31 -121q0 -18 -37 -18q-78 0 -82 176v125q2 47 2 78v49q-66 37 -92 80z" />
<glyph unicode="L" horiz-adv-x="1374" d="M-25 352q0 20 11.5 43t28 40.5t38 28.5t43.5 11q145 0 332 -65q43 -16 110.5 -45t159.5 -74q33 129 33 371q-12 0 -34.5 -3.5t-45 -7.5t-45 -7t-35.5 -3q-88 0 -88 31q0 16 23 39q23 -16 67 -17q98 0 168 35q55 332 68 381q82 326 190 326q94 0 205 -187q51 -86 53 -92 q20 -43 21 -100q0 -53 -72 -131q-49 -55 -116 -101q-41 -27 -102.5 -58.5t-143.5 -66.5q-4 -53 -20.5 -170.5t-49.5 -302.5q72 -45 145.5 -94t149.5 -104q68 -49 115 -80t73 -45q79 -40 159 -40q11 0 22 1q-20 -33 -80 -33q-94 0 -246 100q-156 102 -246 160t-116 72 q-23 -47 -44.5 -79t-37.5 -48q-96 -92 -271 -92q-152 0 -288 127q-133 129 -134 280zM63 348q0 -92 111 -209q125 -135 281 -135q45 0 86 16.5t71.5 44t49 66.5t18.5 84q-287 199 -518 199q-98 0 -99 -66zM854 772q147 53 217 115q98 82 98 215q0 68 -30 141q-41 90 -97 90 q-106 0 -188 -561z" />
<glyph unicode="M" horiz-adv-x="1542" d="M-168 8l14 10q72 -14 115 -20t53 -6q66 0 138 63q57 51 98 123q117 207 213 524q100 332 100 553q0 92 62 93q41 0 125 -62q-20 -49 -21 -287q0 -166 9.5 -309t29.5 -270q49 -315 135 -316q59 0 193 394q59 176 100 324.5t64 271.5q2 14 2 49t2 92q2 68 26 76 q170 0 176 -54q-29 -63 -59 -399q-14 -150 -20.5 -257t-6.5 -173q0 -520 160 -563q-23 -43 -43 -43q-117 0 -172 307q-37 199 -37 395q0 123 6 293q2 59 3 101v27q0 25 -1 44q-8 -18 -26 -78q-23 -82 -57.5 -201.5t-82.5 -281.5q-135 -428 -245 -428q-145 0 -213 432 q-10 82 -25.5 203t-38.5 283q-23 -23 -108 -295q-98 -309 -187 -465q-137 -242 -309 -242q-102 0 -172 92z" />
<glyph unicode="N" horiz-adv-x="1093" d="M-100 16q0 33 26 33q12 0 21 -8q-8 -8 -8 -14q0 -25 55 -25q240 0 352 756q61 406 62 577q0 27 -2 33q33 51 79 51q106 0 107 -73q0 -506 86 -889q80 -356 162 -357q35 0 39 111l12 276q8 92 20.5 225.5t28.5 313.5q35 303 111 404q41 -6 41 -31q0 -6 -4.5 -18.5 t-10.5 -27t-12 -27.5t-8 -19q-23 -92 -43.5 -235.5t-38.5 -340.5q-16 -188 -25.5 -344t-9.5 -283q0 -12 5 -34.5t5 -32.5q0 -47 -92 -47q-84 0 -129 76q-16 20 -67 184q-53 160 -101.5 382t-93.5 515q-14 -53 -34.5 -182t-49.5 -334q-45 -328 -104 -475q-84 -207 -246 -207 q-133 0 -133 67z" />
<glyph unicode="O" horiz-adv-x="892" d="M0 483q0 201 47 412q55 242 156 381q16 25 33.5 49.5t33.5 46.5q49 61 92 62q10 0 48 -17q16 10 26 10q408 -26 408 -563q0 -324 -76 -551q-115 -342 -369 -342q-195 0 -303 164q-96 145 -96 348zM109 487q0 -452 275 -452h1h1q382 0 382 839q0 184 -53 314 q-74 176 -236 176q-158 0 -274 -352q-96 -293 -96 -525z" />
<glyph unicode="P" horiz-adv-x="1011" d="M-35 1110q-5 25 -5 46q0 45 24 69q23 25 106 47q47 14 75 21t34 10l8 98q20 20 57 20h10q63 -2 64 -65q0 -16 -2 -25q238 51 389 51q156 0 262 -63q133 -78 133 -219q0 -244 -323 -414q-215 -113 -537 -174l-10 -293q0 -186 57 -223q-6 0 -19.5 -3t-19.5 -3q-51 0 -71 33 q-12 20 -21 90q-4 41 -7 136t-3 245q-18 -2 -43 4l8 47l41 10v36q0 133 12 372l15 247q-39 -8 -78 -20t-80 -33q-57 -29 -76 -47zM260 573q98 29 166 49.5t109 34.5q188 68 280 142q199 162 199 348q0 170 -246 170q-86 0 -291 -37q-16 -4 -54 -11t-97 -20q-27 -74 -47 -360 q-18 -238 -19 -316z" />
<glyph unicode="Q" horiz-adv-x="849" d="M0 582q0 276 119 571q55 139 96 186q63 74 168 76h9q106 0 247 -92q129 -82 164 -203q18 -65 18 -274q0 -199 -47 -440q-68 -336 -242 -435q147 -53 254 -53q16 0 21 2l-10 -33q-4 -4 -21 -4q-31 0 -77 4t-105 13q-59 8 -105.5 12t-76.5 4q-162 0 -267 -27 q-12 -2 -47 -24q-29 -20 -37 -21q-14 0 -14 25q0 39 70 65q98 39 110 48q-227 135 -227 600zM104 498q0 -188 52 -316q70 -180 231 -180q190 0 277 315q57 205 57 463q0 334 -62 449q-10 14 -67 43q-27 20 -40 31.5t-15 13.5q-31 18 -70 18q-88 0 -143 -59q-41 -47 -93 -162 q-127 -295 -127 -616z" />
<glyph unicode="R" horiz-adv-x="1142" d="M-45 1034q0 61 149 131l160 74q8 14 6 61q-2 25 -1 40.5t3 23.5q55 -10 70 -18q27 -16 35 -62q365 66 504 66q131 0 245 -66q131 -76 131 -201q0 -68 -110 -180q-94 -98 -174 -139q-299 -160 -486 -209q12 -47 93 -160q74 -104 118 -149q37 -37 78 -70t86 -61 q113 -70 193 -70q12 0 36.5 9t34.5 9q12 0 13 -14q-29 -20 -90 -49q-80 0 -179 45q-92 39 -159 96q-104 88 -279 285q-61 90 -80 90q-31 0 -41 -108v-70t-2 -70q-2 -41 -3 -60.5t-1 -21.5q0 -102 25 -233q-8 -27 -29 -27q-33 0 -53 45q-18 33 -19 70q-1 31 -1 68q0 55 2 121 q3 112 10 259q8 156 11 267.5t3 183.5q0 14 2 43t6 74t6 70.5t2 33.5q-33 0 -157 -59q-121 -59 -121 -82q0 -6 12 -19q-10 -10 -20 -10q-29 0 -29 43zM330 594q86 10 235 57q72 23 129.5 45.5t100.5 44.5q119 57 217 156q118 118 118 227q0 160 -245 160q-213 0 -508 -90 q-6 -100 -14.5 -199.5t-18.5 -203.5q-8 -70 -11 -119t-3 -78z" />
<glyph unicode="S" horiz-adv-x="878" d="M-53 123q0 20 22 31q6 -4 19.5 -17.5l36.5 -36.5q10 -10 137 -41q174 -43 330 -43q221 0 221 127q0 74 -58 99l-471 202q-141 61 -141 246q0 184 170 529q83 163 187 163h1q121 0 222 -94q104 -94 112 -213q4 -70 7 -134t3 -128q0 -123 -45 -123q-47 0 -47 70 q0 147 -18 325q-10 78 -57 148q-55 84 -125 84q-100 0 -207 -266q-94 -231 -94 -361q0 -68 37.5 -128t99.5 -85l366 -153q166 -72 166 -195q0 -96 -108 -145q-88 -41 -195 -41q-293 0 -524 120q-47 25 -47 60z" />
<glyph unicode="T" horiz-adv-x="1138" d="M-35 1100q0 90 105 119l254 32q88 10 236.5 20.5t359.5 20.5q170 8 288.5 11.5t188.5 3.5q55 0 55 -31q0 -35 -43 -35q-276 0 -571 -24q-14 -74 -56 -402q-27 -207 -42 -368.5t-21 -284.5q-1 -15 -1 -31q0 -72 15 -166q-10 2 -24.5 7t-30.5 14q-41 47 -41 157 q0 164 31 490q16 164 24 284.5t8 202.5q0 23 -1 41.5t-3 34.5q-18 2 -48 2q-59 0 -163 -8q-460 -35 -460 -123q0 -66 184 -66q205 0 387 56q-37 -61 -86 -74q-193 -47 -326 -47q-104 0 -155 29q-63 39 -64 135z" />
<glyph unicode="U" horiz-adv-x="1110" d="M-35 926q10 -2 19 -2h18q248 0 442 430q106 -33 107 -66q0 -14 -35 -55q-35 -43 -41 -55q-153 -365 -153 -714q0 -183 28 -280q53 -157 191 -157h2q115 0 213 188q33 59 59.5 130t48.5 157q78 295 78 561q0 96 -8 135q-6 20 -6 37q12 23 39 22h1q37 0 126 -67 q-8 -12 -18.5 -37t-20.5 -61q-20 -74 -25 -109l-65 -639v-207q6 -186 45 -217q-14 -10 -43 -10q-66 0 -78 160l-3 66q-3 65 -9 196q-47 -98 -78 -154.5t-45 -77.5q-92 -129 -211 -129q-319 0 -320 506q0 188 80 512q-150 -115 -231 -115q-55 0 -107 52z" />
<glyph unicode="V" horiz-adv-x="1124" d="M-43 727q0 147 166 412q150 233 270 233q74 0 129 -84q49 -74 49 -151q0 -59 -6 -149.5t-20 -213.5q-25 -244 -25 -366q0 -111 35 -240q49 -168 135 -168q139 0 244 496q45 211 66.5 412.5t21.5 394.5q0 4 1 9l3 15q2 14 0 25q-2 10 -12 26q23 16 33 17q40 0 40 -90 q0 -506 -94 -910q-109 -471 -284 -471q-162 0 -236 207q-53 150 -53 342q0 57 6 141t16 197q25 227 25 340q0 141 -66 141q-78 0 -215 -196q-123 -176 -159 -277q-6 -14 -25 -90q-10 -43 -20 -43q-25 0 -25 41z" />
<glyph unicode="W" horiz-adv-x="1146" d="M0 639q0 92 7 231.5t22 327.5q-8 18 -9 47q0 72 50 72q31 0 65.5 -22.5t34.5 -53.5q0 -51 -27 -149q-33 -119 -34 -156q-10 -92 -15.5 -202.5t-5.5 -241.5q0 -135 31 -273q45 -203 135 -203q74 0 141 156q47 111 66 217q20 119 33.5 292t17.5 406q0 12 -4 37t-4 37 q35 14 69 15q55 0 86 -39q-77 -77 -77 -671v-15q0 -63 7 -124t21 -120q43 -180 129 -180q113 0 201 340q53 201 82 428q10 92 12 174v67q0 41 -2 90l-4 156q0 23 -12 47.5t-12 48.5q0 18 20 19q29 0 45 -31q33 -57 33 -313q0 -408 -90 -725q-102 -356 -269 -357 q-145 0 -217 262q-25 92 -32 91q-76 -389 -230 -390q-264 0 -264 705z" />
<glyph unicode="X" horiz-adv-x="1017" d="M0 733q0 168 88 344q94 197 209 197q111 0 168 -82q10 -14 21.5 -40t25.5 -67q23 -68 44.5 -144.5t37.5 -164.5q244 348 485 549q18 -10 19 -22q0 -20 -54 -84l-73 -80q-143 -166 -233.5 -280.5t-125.5 -182.5q86 -369 158 -498q14 -29 35.5 -69.5t50.5 -94.5 q51 -76 156 -80q0 -25 -13 -26q-2 -2 -32 -2q-139 0 -240 160q-45 72 -93 195.5t-99 301.5q-317 -483 -318 -563l8 -66q-88 6 -88 74q0 66 182 346q184 279 185 312q-31 168 -49.5 264t-26.5 123q-43 151 -108 151h-1q-94 0 -188 -203q-82 -178 -80 -253q10 -31 10 -48 q0 -29 -24 -28q-37 0 -37 61z" />
<glyph unicode="Y" horiz-adv-x="823" d="M-121 -348q0 37 53 37q18 0 138 -95q119 -94 198 -94q358 0 359 596q0 53 -3 134t-12 192q-70 -205 -104 -266q-90 -160 -211 -160q-154 0 -223 135q-55 106 -56 272q0 59 6.5 149.5t16.5 213.5q25 242 25 362q0 12 -2.5 39t-2.5 39q0 63 37 64q16 0 101 -70l-17 -72 q-4 -14 -6 -25l-4 -22q-29 -180 -44 -347t-15 -326q0 -362 166 -363q113 0 215 203q90 178 118 399q16 141 31.5 307t26.5 363q2 37 52 37h5q68 -2 70 -51q-25 -100 -41.5 -177t-24.5 -131q-16 -111 -24.5 -241.5t-8.5 -288.5q0 -45 3.5 -110.5t7.5 -153.5q12 -176 12 -262 q0 -172 -100 -324q-115 -170 -277 -170q-82 0 -262 66q-203 76 -203 141z" />
<glyph unicode="Z" horiz-adv-x="954" d="M-45 53q0 55 121 238q55 82 109.5 153.5t107.5 130.5l313 357q168 193 168 215q0 27 -74 27q-264 0 -528 -74q-66 -18 -63 -51q-47 0 -48 32q0 51 105 86q61 18 219 50q154 29 255 43t148 14q70 0 122.5 -43t52.5 -113q0 -33 -74 -69l-12 -7q-57 -29 -537 -550 q-51 -55 -160 -201q-123 -170 -123 -203q0 -25 78 -25q66 0 219 25q78 14 136.5 20.5t99.5 6.5q76 0 166 -13q127 -16 127 -43q0 -32 -49 -32h-3q-12 0 -30.5 2t-38 5t-37.5 5t-31 2q-41 0 -97 -6t-128 -17l-207 -30q-16 -2 -42.5 -9.5t-65.5 -17.5q-75 -22 -104 -22h-3 q-43 0 -67 38q-25 31 -25 76z" />
<glyph unicode="[" horiz-adv-x="595" d="M154 1329q-4 37 90 39h237q37 0 37 -27q0 -43 -22 -61q-6 -6 -13 -6q-6 0 -17 3t-25.5 8t-29 8t-22.5 3q-68 0 -129 -22q-10 -55 -16 -136t-6 -192q2 229 2 135v-510q0 -506 39 -694q20 -8 45 -12q14 -2 32 0q10 2 19 2h14q18 0 52 4t53 4q34 1 34 -22q0 -45 -47 -46 q-47 0 -139 -12q-45 -8 -78 -11t-53 -3q-33 0 -33 22l-2 768q0 270 -6 459t-16 299z" />
<glyph unicode="\" horiz-adv-x="204" d="M6 14q0 16 13.5 23.5t21.5 11.5q37 0 104 207q45 135 86 303q12 47 29 47q16 0 16 -31q0 -70 -79 -311q-90 -268 -144 -268q-47 0 -47 18z" />
<glyph unicode="]" horiz-adv-x="552" d="M80 1313q0 45 47 45t137 12q47 8 80 11t53 3q33 0 33 -22l2 -770q0 -270 6.5 -457.5t16.5 -298.5q4 -37 -90 -39h-238q-37 0 -37 27q0 43 23 61q6 6 12 6t17.5 -3t25.5 -8t27.5 -8t23.5 -3q66 0 127 22q20 106 25 326q-2 -41 -2 51v324q0 500 -37 696q-29 10 -45 12 q-14 2 -35 0q-10 -2 -21 -2h-12q-18 0 -52 -4t-52 -4q-35 0 -35 23z" />
<glyph unicode="^" horiz-adv-x="638" d="M131 815q0 61 37 154q27 63 41 103t18 56q35 141 56 175q45 82 147 73q25 -25 35 -98q27 -68 98 -270q20 -57 35.5 -99.5t28.5 -70.5q12 -30 12 -50t-21 -20q-37 0 -124 193q-35 74 -61.5 150.5t-47.5 158.5q-18 -10 -27.5 -17.5t-11.5 -9.5q-8 -8 -12 -47 q-2 -4 -15.5 -37t-37.5 -96q-16 -49 -41 -122t-60 -171q-16 -29 -35 -29q-14 0 -14 74z" />
<glyph unicode="_" horiz-adv-x="1024" d="M-4 -160h1034v-86h-1034v86z" />
<glyph unicode="`" d="M-16 1192q0 35 39 43q45 8 69 -31q4 -4 16.5 -16t32.5 -31q51 -49 52 -63q0 -8 -11 -29l-12 -12l-94 55q-4 2 -13.5 7t-23.5 13q-55 33 -55 64z" />
<glyph unicode="a" d="M-49 258q4 80 51 266q59 213 100 213q90 0 115 -47l37 -74l72 -24q-51 -150 -70 -367q-1 -12 -1 -24q0 -36 9 -74q16 -72 51 -72q70 0 191 504q12 47 29 47q16 0 16 -31q0 -76 -76 -309q-86 -266 -147 -266q-76 0 -125 150q-53 -190 -137 -191q-115 0 -115 271v28z M14 117q0 -35 15 -66q18 -39 47 -39q39 23 82 158q16 53 28.5 99t16.5 83l24 189l-24 32q-8 94 -51 95q-35 0 -62 -99q-8 -23 -18.5 -59.5t-24.5 -83.5q-33 -125 -33 -309z" />
<glyph unicode="b" horiz-adv-x="514" d="M0 78q0 8 4 20v50q0 133 8 278q10 172 33 365q10 74 24.5 184t32.5 260q5 39 5 62q0 17 -3 26q10 19 40 19q7 0 14 -1q49 0 49 -51q0 -20 -14 -71q-8 -31 -15.5 -62t-11.5 -59q-45 -256 -67.5 -427t-22.5 -263q20 49 41 131q43 166 123 166q127 -1 127 -183 q0 -150 -39 -323q-53 -250 -144 -250q-51 0 -90 92h-18q-10 -31 -29 -31q-18 0 -32.5 23.5t-14.5 44.5zM80 117q18 -16 49 -68q18 -31 45 -31q49 0 82 125q45 156 45 340q0 170 -47 170q-57 0 -119 -237q-55 -207 -55 -299z" />
<glyph unicode="c" horiz-adv-x="337" d="M-20 287q0 109 38 262q51 199 125 199q29 0 64 -43q35 -45 35 -74q0 -49 -35 -49q-27 0 -74 34q-84 -102 -84 -405q0 -47 17 -96q20 -63 63 -64q117 0 219 441q16 76 19 83q8 31 26 31q16 0 17 -35q0 -33 -37 -168q-47 -170 -74 -239q-72 -172 -152 -172q-96 0 -139 106 q-28 77 -28 182v7z" />
<glyph unicode="d" horiz-adv-x="509" d="M-39 186q0 164 64 373q72 231 149 232q27 0 64 -31q39 -29 41 -29q4 0 8 6q12 96 31.5 241.5t46.5 344.5q-1 11 -1 20q0 36 19 43q8 2 35 3q42 0 42 -46q0 -7 -1 -16q-12 -63 -30.5 -162.5t-45.5 -234.5q-2 -14 -14.5 -109.5t-34.5 -275.5q-16 -135 -25.5 -221t-9.5 -121 q4 -146 47 -154q37 0 105 207q45 135 86 303q12 47 28 47t17 -31q0 -70 -80 -311q-90 -268 -144 -268q-96 0 -114 203q-23 -57 -38.5 -90t-21.5 -43q-49 -92 -98 -93q-63 0 -98 78q-27 55 -27 135zM33 229q0 -198 45 -198t104 151q23 57 39.5 110.5t26.5 102.5q2 12 4 38 t6 67q4 33 6 58.5t2 45.5q0 92 -61 92q-68 0 -125 -202q-47 -170 -47 -265z" />
<glyph unicode="e" horiz-adv-x="389" d="M-12 244q0 63 6 132.5t20 147.5q39 223 113 224q43 0 80 -31t37 -74q0 -152 -88 -340q-35 -78 -86 -158q0 -35 34 -79q33 -43 70 -43q98 0 221 466q31 117 39 117q27 1 27 -24q0 -14 -31 -138q-78 -307 -154 -411q-47 -59 -108 -60q-86 0 -139 97q-41 82 -41 174zM59 221 q47 29 91 185q38 135 38 215q0 69 -27 69h-1q-16 0 -25 -26q-76 -227 -76 -443z" />
<glyph unicode="f" horiz-adv-x="362" d="M-27 -344q12 831 142 1667q16 14 63 14q33 0 62 -24q-51 -76 -70 -185q-43 -252 -70.5 -461.5t-38.5 -383.5q43 -6 78 -66q8 -12 41 -96q6 -1 11 -1q57 0 108 130q16 41 39.5 123t56.5 207q6 27 19 26q20 1 20 -28q0 -25 -31 -136q-23 -78 -36 -129t-19 -75 q-23 -88 -72 -129q-25 -23 -79 -43q57 -236 57 -381q0 -283 -70 -402q-10 -16 -51 -16q-160 0 -160 362v27zM37 -348q0 -41 4 -87t12 -97q27 -150 70 -150q39 0 63 145q10 55 15.5 100.5t5.5 80.5q0 258 -64 417q-53 27 -82 84q-24 -287 -24 -478v-15z" />
<glyph unicode="g" horiz-adv-x="475" d="M-315 -489q0 174 362 301q74 14 178 49q0 18 -2 45.5t-6 66.5q-6 74 -6 111q-8 -2 -47 -70q-36 -65 -75 -65h-1q-72 0 -106 78q-29 63 -29 141q0 135 61 367q63 241 121 241q41 0 113 -84q78 -90 127 -104q-51 -94 -80 -262q-10 -66 -16.5 -122.5t-6.5 -105.5 q0 -23 3.5 -78t11.5 -147q76 8 129 11t82 3q90 0 90 -53q0 -35 -45 -35q-29 0 -74 23q-178 0 -178 -15q0 -12 1 -34.5t1 -46.5q0 -25 1 -47.5t1 -34.5q0 -201 -41 -299q-61 -145 -236 -146q-131 0 -231 92q-102 90 -102 220zM-254 -508q0 -96 80 -164q75 -67 171 -67h3 q242 0 242 368q0 4 -2.5 46t-6.5 124q-125 0 -198 -28q-106 -45 -182 -107q-106 -86 -107 -172zM23 131q0 -131 51 -131q57 0 125 213q63 197 63 336q0 133 -108 133q-20 0 -72 -190q-59 -215 -59 -361z" />
<glyph unicode="h" horiz-adv-x="559" d="M10 313q0 84 12.5 208t34.5 292q23 168 35 292t12 208q0 18 -1 32.5t-3 24.5q13 31 62 31h6q41 -4 41 -37q0 -27 -19 -88q-4 -20 -8 -39.5t-8 -38.5q-47 -299 -71.5 -520t-24.5 -369q0 4 5 -42t15 -142q51 143 92 298t72 325q8 55 41 55q23 0 88 -55q-55 -293 -55 -486 q0 -166 65 -166q57 0 136 277q14 47 26 94t23 94q8 45 26 45t19 -26q0 -29 -70 -275q-23 -82 -37 -131t-22 -65q-37 -88 -90 -89q-121 0 -133 230l-1 81q-2 81 -4 247q-35 -53 -153 -588q-14 -8 -29 -8q-82 0 -82 331z" />
<glyph unicode="i" horiz-adv-x="270" d="M-12 205q0 37 4 92t12 131t12 132t4 93q14 14 41 15q53 0 54 -29l-11.5 -46t-17.5 -75q-39 -186 -39 -317q0 -137 62 -138q29 0 69 103q2 2 68 209q10 33 22.5 78t26.5 104q12 49 29 49q18 1 18 -28q0 -51 -72 -285q-53 -168 -67 -201q-41 -90 -99 -90q-63 0 -94 74 q-22 58 -22 123v6zM41 1143q0 20 21.5 42.5t41.5 22.5h2q68 0 68 -75q0 -76 -51 -76q-33 0 -57.5 26.5t-24.5 59.5z" />
<glyph unicode="j" horiz-adv-x="278" d="M-539 -485q0 55 33 96q10 10 23.5 28.5t33.5 41.5q115 141 453 225l-10 180q0 53 3 129t11 174q12 163 12 196v7q-4 14 -6 24l-4 13q55 14 78 14q43 0 43 -29q-35 -78 -57 -288q-8 -82 -12.5 -158t-4.5 -145q0 -33 1 -61t3 -52q23 0 67 5t67 5q45 0 88 -20q53 -29 53 -64 q0 -12 -17 -35q-8 0 -27.5 22.5t-33.5 31.5q-35 18 -96 18q-16 0 -48 -5t-46 -5l14 -330v-6q0 -111 -74 -197q-76 -88 -192 -88q-125 0 -234 72q-121 84 -121 201zM-385 -649q88 -53 180 -53q98 0 157 61q58 59 58 154v6l-6 329q-92 -14 -203 -71q-282 -144 -282 -276 q0 -91 96 -150zM68 1161q0 8 6 21.5t14 26t18.5 21.5t18.5 9q65 0 65 -53q0 -76 -57 -76q-18 0 -41.5 16.5t-23.5 34.5z" />
<glyph unicode="k" horiz-adv-x="532" d="M-8 168q0 94 10 229t31 316q23 186 33 322t12 225q-5 19 -5 39q0 15 3 30q8 45 41 45q29 0 47 -23.5t18 -52.5q0 -51 -43 -235q-6 -41 -30 -223q-16 -119 -27.5 -226.5t-18.5 -205.5q4 4 33 63t82 176q55 119 113 119q43 0 72.5 -30.5t29.5 -73.5q0 -92 -51 -181l-22 -35 q-23 -36 -68 -108q-6 -25 -6 -66q0 -74 18 -131q27 -86 80 -86q49 0 98 117q20 51 46 132t57 194q2 18 12 63q8 45 31 45q16 0 16 -24q0 -46 -18 -107q-14 -47 -37 -118.5t-51 -170.5q-66 -190 -146 -190q-90 0 -129 94q-8 18 -43 164q-20 -8 -106 -68q-4 -47 -13 -123 q14 -43 15 -65q0 -31 -33 -31q-29 0 -43 88q-4 20 -6 49t-2 64zM94 266q72 0 158 168q80 154 80 238q0 43 -33 43t-66 -64q-16 -29 -61 -141q-78 -193 -78 -244z" />
<glyph unicode="l" horiz-adv-x="407" d="M0 367q0 180 37 450q39 283 92 440q10 139 70 140q135 0 135 -205q0 -166 -66 -399q-68 -240 -159 -371q-2 -4 -9.5 -14.5t-19.5 -26.5q-16 -23 -17 -45q0 -143 66 -234q45 -61 84 -61q76 0 193 405q4 20 11 49t17 68q8 43 27 43q18 0 18 -31q0 -80 -82 -319 q-94 -285 -188 -285q-106 0 -166 152q-43 113 -43 244zM68 475q78 121 141 342q61 205 61 318v9q0 145 -32 177q-170 -559 -170 -846z" />
<glyph unicode="m" horiz-adv-x="851" d="M20 469q-1 21 -1 38q0 103 49 103q51 0 51 -80q0 -27 -3 -63.5t-12 -85.5q-8 -49 -11 -86t-3 -64q0 -47 3 -91t11 -83q45 72 58 142q16 94 28.5 153.5t18.5 81.5q51 190 113 191q61 0 61 -138q-10 -88 -15.5 -157.5t-5.5 -120.5q0 -98 21 -98q43 0 111 245q57 198 57 254 q0 9 -2 15q4 22 40 22h3q27 0 80 -33q-51 -231 -51 -399q0 -156 49 -156q55 0 121 191q10 23 79 278q4 10 8.5 25.5t8.5 36.5q6 16 20 16q17 1 17 -24q0 -113 -123 -432q-59 -154 -131 -154q-90 0 -105 172l-2 56l-6 165q-29 -109 -50.5 -177.5t-31.5 -96.5 q-47 -115 -96 -115q-72 0 -72 121q0 33 3 79t7 109t7.5 109.5t3.5 79.5q0 18 -15 18q-23 0 -53 -143q-23 -111 -38 -176.5t-21 -87.5q-47 -141 -105 -142q-63 0 -63 199v53q0 33 2 74q2 43 3 74.5t1 54.5z" />
<glyph unicode="n" horiz-adv-x="579" d="M23 526q2 55 10 74q12 33 51 33q41 0 41 -37q0 -12 -14 -53q-12 -41 -13 -66v-47q0 -27 -2 -63q-2 -37 -2 -66v-45q0 -147 33 -147q10 0 27 53q29 119 43 155q29 92 47 170t22 148q6 86 29 102q104 -6 104 -65q0 45 -6 16t-16 -133q-10 -102 -15.5 -166.5t-5.5 -93.5 q0 -221 58 -221q49 0 118 217q20 63 38 125.5t32 126.5q14 63 33 63q16 0 16 -31q0 -57 -71 -278q-98 -297 -158 -297q-76 0 -105 145q-8 41 -14 128t-12 225q-10 -37 -38 -136.5t-69 -265.5q-20 -88 -63 -88q-63 0 -78 86l-8 154q-3 45 -3 86t3 78l6 75z" />
<glyph unicode="o" horiz-adv-x="505" d="M0 287q0 195 33 262q0 -6 0 -4q0 4 -2 18t-2 23v14q2 18 12 29q4 10 8 30.5t12 55.5q14 69 68 69h2q53 0 111 -45q59 -45 75 -92q16 -49 17 -297q29 -23 51 -22q72 0 107 80q16 31 43 161q8 37 24 37q19 0 19 -18q0 -90 -54 -213q-47 -109 -125 -109q-10 0 -71 25 q-4 -23 -10.5 -51.5t-14.5 -63.5q-16 -47 -29.5 -80t-23.5 -49q-40 -65 -98 -65h-2q-150 0 -150 305zM70 262q0 -221 90 -221q23 0 59 82q49 107 49 162q0 23 -4 55.5t-12 75.5t-12 74.5t-4 54.5q0 14 3 45t3 45q0 72 -66 72q-43 0 -76 -193q-30 -161 -30 -247v-5z" />
<glyph unicode="p" horiz-adv-x="532" d="M-57 -414q0 98 12 240.5t35 333.5q23 193 33 327q8 112 8 185v28q-10 10 -11 21q0 27 33 27q39 0 39 -58q0 -12 -3 -34.5t-3 -32.5v-21q2 -10 2 -18v-17v-80q20 61 55 146q51 117 80 117q94 0 131 -56q29 -45 29 -145q0 -184 -37 -340q-57 -242 -188 -242q-39 0 -68 41 q-33 51 -45 55q-20 -102 -29.5 -219.5t-9.5 -253.5q0 -104 8 -151q6 -39 27 -88q0 -8 -29 -8q-69 0 -69 236v7zM63 190q41 -23 41 -36q0 -6 -9 -15.5t-9 -17.5q0 -37 18 -68q20 -37 58 -37q72 0 119 170q36 128 36 227v5v24q2 10 2 19v18v66q1 160 -67 160q-27 0 -47 -50 l-45 -118q-97 -254 -97 -342v-5z" />
<glyph unicode="q" horiz-adv-x="452" d="M-37 152q0 141 37 323q55 252 143 252q57 0 107 -115q2 49 24 50q20 0 37 -25t17 -45q0 -4 -4 -17q-4 -59 -6.5 -118.5t-2.5 -120.5q0 -299 43 -633q20 72 51 162t72 196q14 37 21.5 45.5t25.5 6.5q-29 -70 -57.5 -154t-56.5 -184q-45 -156 -45 -181t37 -143v-29 q0 -18 -48 -18q-55 0 -55 43q0 14 2 21q-2 37 -8 134t-21 257q-25 276 -25 373q0 17 1 28q-53 -164 -76 -213q-39 -76 -88 -76q-125 0 -125 181zM27 190q0 -41 1 -68.5t3 -39.5q8 -57 47 -57q53 0 115 235q55 209 55 297q-20 20 -53 74q-15 24 -39 24h-2q-49 0 -82 -125 q-45 -166 -45 -340z" />
<glyph unicode="r" horiz-adv-x="458" d="M-12 393q0 33 24 129q27 92 27 146q0 20 -16 69t-17 72q0 102 51 102q41 0 43 -63q2 -12 1 -27.5t-3 -36.5q-2 -25 -3 -41t-1 -24q0 -20 86 -66q88 -45 88 -104q0 -35 -4 -85t-12 -118q-8 -66 -12 -116t-4 -85q0 -96 59 -96q35 0 108 215q70 199 82 295q6 47 29 47 q16 0 16 -31q0 -70 -79 -311q-91 -268 -144 -268q-63 0 -106 72q-18 31 -21 125q-2 35 -2 82.5t2 107.5l4 164q0 49 -100 100q0 -51 -49 -219q0 -2 -10.5 -21.5t-10.5 -21.5z" />
<glyph unicode="s" horiz-adv-x="337" d="M-51 279q84 317 84 452q0 55 53 55q59 0 59 -38q0 -6 -3 -20.5t-7 -31t-7 -32t-3 -25.5q0 -78 49 -240q51 -155 51 -231q0 -70 -28 -131q-37 -70 -105 -70q-61 0 -106 51q-33 33 -33 66q0 39 16 43q14 0 15 -33q35 -78 75 -78q94 0 95 160q0 70 -41 215q-23 74 -43 129 q-8 -29 -21.5 -73t-30.5 -103q-20 -70 -53 -70q-4 0 -16 5z" />
<glyph unicode="t" horiz-adv-x="301" d="M-262 987q0 14 24 14q39 0 113 3.5t186 7.5q2 23 4.5 60.5t6.5 90.5l-11 37q6 14 23 14q27 0 82 -36v-43q-4 -27 -10 -57.5t-15 -67.5q16 0 64.5 -1t130.5 -3q41 -2 111.5 -3.5t175.5 -5.5v-14q-8 -10 -103 -27q-78 -14 -117 -14h-86t-94 2l-98 2q-49 -344 -49 -504 q0 -92 1 -149t3 -80q8 -125 57 -125q80 0 180 426q20 92 35 92q20 0 21 -31q0 -68 -72 -288q-90 -268 -170 -269q-70 0 -104 140q-23 96 -23 190q0 47 13.5 195.5t39.5 400.5q-35 4 -207 6l-47 -14q-14 16 -43 29q-23 10 -22 22z" />
<glyph unicode="u" horiz-adv-x="565" d="M14 154q0 43 2 105.5t7 146.5q8 209 22 231q10 16 35 16q20 0 36.5 -17.5t16.5 -37.5t-8 -47q-4 -20 -7 -31.5t-5 -15.5q-14 -80 -21.5 -175.5t-7.5 -205.5q0 -90 39 -90q31 0 57 51q10 20 18.5 39.5t16.5 40.5q45 106 68 266q2 4 5 26.5t9 61.5q4 29 7 50.5t3 37.5v66 q0 20 -2 12q6 49 36 49h5q59 0 60 -33q0 -10 -11.5 -33.5t-13.5 -41.5q0 -8 -5 -46t-16 -108q-8 -57 -12 -104.5t-4 -83.5q0 -195 59 -195q55 0 119 217q25 88 74 270q8 31 25 31q16 0 16 -24q0 -72 -70 -287q-86 -272 -170 -272q-45 0 -78 67q-8 12 -36 107 q-14 -35 -30.5 -73t-33.5 -79q-37 -63 -96 -63q-53 0 -84 61q-25 51 -25 111z" />
<glyph unicode="v" horiz-adv-x="468" d="M29 377v41q0 27 2 61q2 35 2 62v43q-4 16 -4 22t4 12.5t20 6.5q63 -2 64 -66q0 -16 -3 -44t-8 -62q-4 -35 -6 -61.5t-2 -43.5q0 -254 62 -254q31 0 84 189q49 174 49 254v149q-14 66 -14 59q0 12 14 13q55 0 55 -170q0 -115 -53 -322q-63 -248 -143 -248q-74 0 -105 152 q-18 92 -18 207z" />
<glyph unicode="w" horiz-adv-x="653" d="M-4 283q0 16 4 68t12 145q8 92 13.5 139t7.5 51q12 27 39 27q25 0 59 -35q-76 -195 -76 -449q0 -174 68 -174q88 125 88 305q0 20 2 48t6 67t7 66.5t3 48.5q0 18 -4 31l-6 24q18 20 51 21q45 0 45 -39q0 -8 -3 -21.5t-6 -28t-7 -27.5t-4 -20q-8 -86 -12 -139t-4 -76 q0 -39 28 -194q12 -33 45 -33q35 0 76 188q10 55 16.5 93.5t6.5 58.5q0 27 -13 92q-4 33 -7 56.5t-3 39.5v72t2 35q6 55 35 68q39 -23 43 -62l10 -297q2 -37 51 -37q70 1 97 107q4 14 6 28.5t6 30.5q12 45 31 45q16 0 16 -22q0 -59 -35 -148q-41 -104 -90 -104 q-45 0 -102 30l-41 -227q-31 -102 -101 -102q-76 0 -125 168q-45 -205 -122 -205q-113 0 -113 287z" />
<glyph unicode="x" horiz-adv-x="471" d="M29 -92q0 29 75 223q-16 76 -30 205q-14 115 -14 173q0 16 1 28l-28 34q2 31 12 93q8 61 41 61q51 0 51 -100q0 -10 -1 -40t-3 -79q-1 -39 -1 -72q0 -139 20 -182q45 113 153 356q14 27 33.5 64t44.5 86q37 -23 37 -39q0 -14 -86 -180q-113 -215 -164 -379q0 -14 8 -30.5 t20.5 -31t28 -23.5t29.5 -9q115 0 225 426q4 16 7.5 31.5t7.5 31.5q12 51 26 51q21 1 21 -28q0 -82 -78 -297q-98 -272 -219 -273q-41 0 -119 66q-6 -14 -45 -195q-53 6 -53 29z" />
<glyph unicode="y" horiz-adv-x="491" d="M-197 14q0 16 12.5 23.5t22.5 11.5q37 0 105 207q23 66 43 141.5t41 161.5q12 47 28 47t17 -31q0 -63 -80 -311q-90 -268 -142 -268q-47 0 -47 18zM-172 -592q0 150 184 283q145 102 279 131q0 219 -31 342q-8 -20 -21.5 -49t-31.5 -68q-34 -65 -83 -65h-1q-66 0 -98 67 q-27 53 -27 125q0 100 18 291q2 29 4.5 59.5t4.5 61.5q14 92 53 92q35 0 31 -29l-23 -209q-8 -82 -12 -143t-4 -104q0 -166 53 -166t133 307q6 51 18.5 143t28.5 230q6 51 55 53h4q29 0 29 -27q0 -47 -43 -201q-10 -39 -14 -141q-3 -68 -3 -167q0 -50 1 -107q0 -59 6 -185 l4 -90q10 2 30.5 7.5t49.5 13.5q66 16 92 16q90 0 90 -47q0 -10 -6 -18q-47 8 -76.5 11t-44.5 3q-33 0 -125 -31q0 -12 1 -33.5t2 -44t2 -44t1 -33.5q0 -469 -301 -469q-49 0 -91 18t-72.5 50t-48 75t-17.5 92zM-111 -612q0 -33 11.5 -64t32 -55.5t48 -38.5t58.5 -14 q133 0 203 149q55 119 55 264v148q-180 -49 -301 -170q-106 -104 -107 -219z" />
<glyph unicode="z" horiz-adv-x="561" d="M-129 -537q0 242 434 431q-25 106 -125 161q-53 -47 -84 -47q-72 0 -71 51q0 52 100 52h4q102 117 141 211q51 121 52 303q0 141 -91 141q-57 0 -108 -68q-41 -57 -51 -118t-19 -62q-25 0 -24 33q0 55 41 154q55 129 133 129q86 0 135 -60.5t49 -152.5q0 -297 -184 -533 q74 -41 102 -72q31 -35 64 -108q88 18 155 18q74 0 74 -39q0 -18 -18 -26q-55 16 -107 16q-47 0 -92 -12q10 -82 15 -126t5 -52q0 -158 -61 -289q-78 -170 -217 -170q-100 0 -176 70q-76 68 -76 165zM-49 -563q0 -68 39 -112t106 -44q129 0 197 154q53 123 53 264 q0 41 -4 78t-12 71q-137 -31 -256 -149q-123 -127 -123 -262z" />
<glyph unicode="{" horiz-adv-x="636" d="M66 518q0 41 28 57q82 41 113 64q29 80 41 244q8 106 9 188t-5 141q-16 141 180 142q14 0 44 3t44 3q39 0 37 -31q-4 -29 -35 -31q35 2 15.5 3.5t-95.5 1.5q-80 0 -92 -41q-14 -55 -24 -324q-6 -227 -68 -311q-6 -8 -19.5 -17.5t-28.5 -19.5t-28.5 -19.5t-19.5 -17.5 q-23 -18 -23 -37q0 -12 27 -33l22.5 -18t26.5 -21q23 -27 38 -43t19 -26q18 -35 29 -107q31 -219 31 -448q0 -39 34.5 -62.5t75.5 -23.5h72q27 -6 27 -31q0 -10 -17 -14q-14 0 -41.5 3t-42.5 3q-172 0 -172 69q0 66 -18 211q-8 72 -12.5 126.5t-4.5 88.5q-4 117 -45 203 q-10 20 -40.5 47t-53.5 33q-29 10 -28 45z" />
<glyph unicode="|" horiz-adv-x="552" d="M248 61q0 182 10 385t31 433q45 522 104 522q23 0 23 -37q0 -82 -33 -240q-6 -29 -13.5 -106.5t-15.5 -206.5q-10 -154 -15 -295t-5 -274q0 -205 12 -367q2 -14 7 -35.5t16 -50.5q23 -61 22 -84q0 -31 -18 -55q-2 -2 -3 -11.5t-5 -7.5q-16 2 -50 7q-10 0 -12 8 q-55 131 -55 415z" />
<glyph unicode="}" horiz-adv-x="636" d="M59 -276q4 29 35 30q-35 -2 -15.5 -3t95.5 -1q80 0 92 41q16 55 25 322q6 227 67 311q6 8 19.5 17.5t29 19.5t29 19t19.5 18q23 18 22 37q0 12 -23.5 30.5t-52.5 40.5q-23 27 -38 43.5t-19 26.5q-18 35 -29 106q-31 217 -30 451q0 39 -35 62.5t-76 23.5h-72q-27 6 -26 31 q0 10 16 14q14 0 42 -3t42 -3q172 0 172 -66q0 -37 4 -90t13 -125q18 -147 18 -217q4 -117 45 -203q6 -10 17.5 -22t24.5 -24.5t27.5 -21.5t24.5 -11q29 -7 29 -46q0 -41 -29 -57q-82 -41 -112 -63q-29 -80 -41 -244q-8 -104 -9.5 -186t5.5 -142q14 -141 -181 -141 q-14 0 -43.5 -3t-44.5 -3q-41 0 -37 31z" />
<glyph unicode="~" horiz-adv-x="1032" d="M96 338q0 84 92 164t179 80q88 0 168 -93q33 -39 52 -59t23 -24q47 -43 103 -37q141 14 157 159q2 37 39 33q39 0 39 -41q0 -92 -71 -158q-72 -66 -164 -67q-78 -4 -135 39q-4 4 -30 28.5t-71 71.5q-63 70 -104 70q-84 0 -133 -68q-14 -20 -34 -48t-46 -66 q-10 -10 -27 -11q-37 0 -37 27z" />
<glyph unicode="&#xa1;" horiz-adv-x="411" d="M176 18q102 283 103 816q0 90 -3.5 153.5t-11.5 104.5q29 16 41 -5q39 -70 49 -137q6 -47 6 -149q0 -43 -5 -138.5t-15 -242.5q-20 -311 -37 -432q-8 -20 -49 -21q-39 0 -78 51zM233 1282q0 18 16.5 44t35.5 26q29 0 52 -20.5t23 -49.5q0 -20 -26 -61q-25 -43 -39 -43 q-33 0 -47 39q-15 28 -15 65z" />
<glyph unicode="&#xa2;" horiz-adv-x="501" d="M0 709q0 301 131 395q-2 12 -1 30.5t3 41.5q6 59 19 59q27 0 26 -12v-105q16 -6 39 -18.5t53 -28.5q68 -53 68 -106q0 -29 -33 -29q-37 0 -82 49q-47 49 -49 49q-45 0 -82 -139q-33 -119 -33 -223q0 -72 19 -127q27 -80 86 -80q102 0 158 137q45 -8 45 -35q0 -23 -31 -61 q-29 -37 -55 -53q-43 -23 -119 -35v-10q0 -4 2 -15v-33q0 -76 -27 -75q-14 0 -18 65v15q0 10 -2 24v37q-78 61 -99 123q-18 49 -18 160z" />
<glyph unicode="&#xa3;" horiz-adv-x="983" d="M-57 14q0 41 67 82q137 82 207 193q23 35 58.5 106.5t86.5 179.5q-51 -8 -86.5 -12t-56.5 -4q-72 0 -72 53q0 23 17.5 41.5t38.5 18.5q14 0 39.5 -3t38.5 -3q57 0 133 16q139 311 252 422q98 98 256 102q98 2 98 -61q0 -43 -43 -43q-8 0 -27.5 3t-29.5 3 q-211 0 -377 -393q141 39 202 39q102 0 103 -68q0 -49 -41 -49q-10 0 -38 5t-46 5q-45 0 -117 -16q-29 -8 -56.5 -14.5t-55.5 -14.5q-129 -309 -248 -452q217 74 364 73q96 0 97 -57q0 -41 -35 -51q-23 -6 -94 -6q-174 0 -488 -117q-68 -27 -92 -27q-55 0 -55 49z" />
<glyph unicode="&#xa4;" horiz-adv-x="1228" d="M76 168l200 203q-92 113 -92 266q0 158 92 266l-200 203l80 82l196 -205q119 94 264 94q147 0 261 -94l196 205l80 -82l-197 -203q88 -119 88 -266q0 -158 -88 -266l197 -203l-80 -82l-196 205q-109 -90 -261 -90q-156 0 -264 90l-196 -205zM287 637q0 -135 96 -238 q94 -98 233 -98q133 0 230 98q96 102 96 238q0 135 -96 237q-97 103 -230 103q-137 0 -233 -103q-96 -102 -96 -237z" />
<glyph unicode="&#xa5;" horiz-adv-x="890" d="M-18 283q0 16 16 32.5t37 16.5q14 0 39.5 -2t38.5 -2q78 0 133 12l73 16l46 62l-52 -8q-117 -18 -168 -13q-47 6 -47 43q0 18 17.5 35t38.5 17q14 0 39.5 -3.5t37.5 -3.5q68 0 201 31l27 62q-2 432 -78 540q-4 8 -4 12q0 27 55 33q37 0 53 -30q27 -57 47.5 -167 t34.5 -272q72 94 145.5 181.5t149.5 166.5q129 139 162 158q55 33 78 17q27 -18 26 -46q0 -29 -37.5 -61.5t-74.5 -65.5q-139 -133 -283 -313q-35 -47 -71.5 -92t-71.5 -92q35 8 62.5 11t43.5 3q102 0 103 -57q0 -41 -41 -41q-10 0 -38 4t-46 4q-41 0 -160 -22l-47 -62 q72 14 111 14q102 0 102 -57q0 -41 -41 -41q-10 0 -38 4t-46 4q-57 0 -164 -24q-63 -90 -114.5 -170t-92.5 -152q-31 -59 -63 -61q-49 -6 -58 39q-10 47 189 317q-174 -29 -225 -22q-45 6 -45 45z" />
<glyph unicode="&#xa6;" horiz-adv-x="454" d="M178 346h98v-702h-98v702zM178 678v704h98v-704h-98z" />
<glyph unicode="&#xa7;" horiz-adv-x="1003" d="M57 -256q0 51 90 123q82 66 111 65q37 0 37 -38q0 -47 -92 -111q86 -96 209 -96q170 0 170 145q0 135 -244 274q-223 129 -223 248q0 29 9 53.5t31.5 49t59.5 52.5t92 60l51 29q-92 82 -92 160t64 141q20 20 60 48t99 67q82 51 109 63q53 27 121 27q92 0 151.5 -46 t59.5 -116q0 -51 -35 -82q-39 -39 -92 -72q-57 -35 -80 -34q-39 0 -39 37q0 29 53 69q8 6 18.5 15.5t20.5 19.5q-68 113 -198 113q-160 0 -160 -166q0 -61 26 -101q49 -68 197 -147q238 -129 238 -256q0 -66 -53.5 -120t-194.5 -126q100 -74 100 -162q0 -45 -32.5 -98 t-77.5 -82l-74 -45q-2 -2 -6 -4t-9 -6q-145 -109 -262 -109q-92 0 -152.5 45t-60.5 113zM268 408q0 -31 12.5 -58.5t41 -55.5t75.5 -59.5t117 -70.5q29 -16 54.5 -30.5t47.5 -31.5q109 78 109 172q0 66 -51 117q-25 27 -71 57.5t-114 69.5q-31 16 -59.5 33.5t-54.5 34.5 q-106 -80 -107 -178z" />
<glyph unicode="&#xa8;" horiz-adv-x="311" d="M41 1143q0 20 21.5 42.5t41.5 22.5q70 1 70 -75t-51 -76q-33 0 -57.5 26.5t-24.5 59.5zM199 1145q0 20 21.5 42.5t41.5 22.5q70 1 70 -75t-51 -76q-33 0 -57.5 26.5t-24.5 59.5z" />
<glyph unicode="&#xa9;" horiz-adv-x="1572" d="M0 463q0 338 242 637q266 328 624 327q268 0 475 -200q205 -199 205 -469q0 -399 -291 -682q-274 -264 -610 -264q-279 0 -463 186q-182 188 -182 465zM66 461q0 -246 163 -416q166 -166 414 -166q344 0 592 273q244 266 244 610q0 242 -185 420q-180 180 -426 180 q-330 0 -575 -305q-227 -283 -227 -596zM279 434q0 236 213 436q229 217 548 217q63 0 86 -53q10 -31 11 -123q0 -70 -54 -69q-12 0 -25.5 16t-13.5 31q0 29 -1 45t-3 24q-10 25 -41 25q-240 0 -428 -152q-199 -162 -198 -397q0 -238 237 -237q96 0 242 96q166 111 264 278 q14 27 43 25q49 0 49 -49q0 -13 -8 -27q-117 -195 -309 -313q-166 -104 -281 -105q-332 0 -331 332z" />
<glyph unicode="&#xaa;" horiz-adv-x="649" d="M96 410v51h525v-51h-525zM102 627q0 125 148 278q139 145 225 146q49 0 49 -86q0 -41 -18 -93l47 15q-39 -154 -39 -207q0 -106 74 -107q18 0 35 9l8 -9q-96 -55 -142 -55q-76 0 -79 121q2 10 2 25q0 16 2 38l-31 -26q-135 -117 -215 -117q-66 0 -66 68zM207 688 q0 -59 49 -59q88 0 209 202q6 145 -76 146q-2 0 -10.5 -1t-24.5 -3q-31 -33 -58.5 -71t-47 -77t-30.5 -74.5t-11 -62.5z" />
<glyph unicode="&#xab;" horiz-adv-x="874" d="M86 459v10q88 74 171 150.5t161 154.5h12l27 -31q-47 -55 -213 -190l-27 -23q135 -168 195 -331l-129 -72h-25q-47 168 -172 332zM457 453v18q190 154 331 309h9l22 -30q-67 -84 -227 -209q123 -141 201 -334l-136 -80h-16q-78 205 -184 326z" />
<glyph unicode="&#xac;" horiz-adv-x="1228" d="M109 678v102h1011v-559h-98v457h-913z" />
<glyph unicode="&#xad;" horiz-adv-x="600" d="M100 365q0 37 45 45l107 10q27 2 76 4t123 6q10 2 24 3t35 5q33 6 33 -8q0 -20 -27 -37.5t-51 -21.5q-59 -2 -118.5 -4t-119.5 -7q-14 -2 -36.5 -3t-51.5 -5q-39 -2 -39 13z" />
<glyph unicode="&#xae;" horiz-adv-x="1572" d="M10 465q0 334 244 637q264 328 625 328q268 0 475 -201q205 -199 205 -469q0 -397 -291 -682q-274 -264 -611 -264q-279 0 -462 186q-184 186 -185 465zM78 463q0 -246 164 -416q166 -166 413 -166q344 0 592 273q244 266 244 610q0 242 -184 420q-180 180 -426 180 q-330 0 -576 -305q-227 -283 -227 -596zM256 870q0 45 119 103q41 20 71.5 34.5t53.5 24.5q2 18 3 43t5 55q43 -6 55 -12q18 -10 29 -47q295 49 391 49q104 0 193 -51q104 -62 104 -160q0 -55 -86 -143q-74 -74 -137 -109q-227 -125 -375 -161q8 -37 59 -117q47 -74 82 -109 q23 -23 44.5 -47t43.5 -47q59 -53 111 -53q10 0 28.5 6t26.5 6q12 0 13 -12q-20 -16 -72 -43q-53 0 -98 31q-123 82 -297 295q-14 16 -33 47q-10 12 -19 12q-27 0 -28 -68v-92v-14t-2 -19q-4 -53 -1 -115.5t17 -131.5q-10 -23 -27 -23q-27 0 -45 35q-14 27 -14 57 q-2 63 1 150.5t7 201.5q12 242 13 353q0 20 6 88t6 82q-29 -6 -119 -47q-94 -45 -94 -62q2 -2 5 -6t7 -8q-14 -10 -24 -10q-23 0 -23 34zM557 530q23 4 64 14.5t100 26.5q129 41 194 74q90 45 166 121q95 94 95 176q0 123 -189 123q-166 0 -393 -72q-4 -70 -11.5 -147.5 t-15.5 -163.5q-4 -51 -7 -89t-3 -63z" />
<glyph unicode="&#xaf;" horiz-adv-x="233" d="M-80 938l2 -2q-2 6 8.5 25.5t12.5 33.5q-4 8 6 19l6 6l4 2h111l10 -5t20 -5q10 16 25 16l12 -22l19 22q20 0 32 -14q16 16 39 16h21q10 -2 22 -2q6 -8 17 -8q12 0 18 10q6 0 10 -4v-10l-51 -60v-20h-20q-12 2 -19 2h-6l-2 4q-8 12 -22 4q-6 -2 -15.5 -3t-19.5 -5l-2 2 q-10 23 -29 6q-4 -4 -14 -4q-12 0 -21 2l-16 12l-17 -14q-23 0 -58.5 -1t-82.5 -3z" />
<glyph unicode="&#xb0;" horiz-adv-x="817" d="M182 1081q0 129 88 217q90 90 213 91q123 0 213 -91q88 -88 88 -217t-88 -217q-90 -90 -213 -90t-213 90q-88 88 -88 217zM256 1081q0 -94 66 -163q66 -66 159 -66q98 0 164 65.5t66 163.5q0 96 -68 164t-162 68q-92 0 -159 -68q-66 -70 -66 -164z" />
<glyph unicode="&#xb1;" horiz-adv-x="1366" d="M147 -51h1072v-99h-1072v99zM147 662v98h486v491h98v-491h488v-98h-488v-488h-98v488h-486z" />
<glyph unicode="&#xb2;" horiz-adv-x="618" d="M96 602q39 39 86 79t101 85q203 164 213 256q-4 84 -105 84q-88 0 -170 -68q-14 -10 -20 -10h-8q0 23 83 94q102 88 218 88q63 0 103 -30.5t40 -75.5q0 -94 -215 -248q-41 -29 -86 -65.5t-98 -83.5q143 29 208 28q23 0 63 -3t99 -11l8 -10l-110 -95q-84 14 -143.5 21.5 t-98.5 7.5q-88 0 -160 -51z" />
<glyph unicode="&#xb3;" horiz-adv-x="618" d="M129 563q43 37 78 60q33 -33 76 -33q57 0 116 53q61 55 62 111q0 49 -42 78.5t-108 29.5q-37 0 -102 -16l-4 4q45 37 71 68q109 -4 164 49q41 37 41 88q0 43 -31.5 71.5t-78.5 28.5t-123 -53l-4 4q100 111 213 111q57 0 96 -31t39 -74q0 -88 -205 -194q68 6 70 6 q119 0 118 -95q0 -127 -206 -223q-63 -70 -168 -76h-25q-45 0 -47 33z" />
<glyph unicode="&#xb4;" d="M248 1094q0 14 51 63l18.5 18.5t30.5 28.5q25 39 70 31q25 -4 33 -18.5t8 -24.5q0 -31 -58 -64q-4 -4 -13 -8t-23 -12l-95 -55l-10 16q-12 14 -12 25z" />
<glyph unicode="&#xb5;" horiz-adv-x="610" d="M-66 -512q16 186 43 352t64 314q41 156 131 299q104 168 166 168q27 0 27 -23q0 -10 -15 -27q-29 -35 -66.5 -91t-88.5 -134q-55 -109 -56 -174q0 -47 43 -47q51 0 137 131q74 111 99 186q51 156 106 156q27 0 27 -31q0 -36 -59 -145q-61 -117 -62 -191q0 -113 78 -155 q37 -23 37 -43q0 -33 -45 -33q-70 0 -107 76q-12 20 -18 57q-2 10 -4 36t-6 69q-12 -16 -27.5 -38t-36.5 -48q-84 -115 -147 -115q-18 0 -54 35q-47 -152 -73 -320q-2 -2 -29 -231q-10 -74 -35 -74q-33 0 -29 41z" />
<glyph unicode="&#xb6;" horiz-adv-x="1124" d="M131 922q0 14 1 27.5t3 27.5q25 180 156 278.5t342 98.5h487l-6 -45h-133l-246 -1751h-61l246 1751h-197l-246 -1751h-63l147 1046q-66 4 -116 10.5t-85 16.5q-117 29 -167 92q-61 80 -62 199z" />
<glyph unicode="&#xb7;" horiz-adv-x="503" d="M188 471v33q12 0 13 8q0 4 -5.5 8t-7.5 8q0 14 2.5 32t6.5 38q23 10 28 4q4 -4 8 -4t9 4q14 0 37 -16q14 0 36 -13l-12 -90q0 -8 8 -16q-4 -8 -7 -13t-5 -8q-25 0 -29 5l-49 4l-8 8q-2 2 -11 3t-14 5z" />
<glyph unicode="&#xb8;" horiz-adv-x="327" d="M45 -233q16 4 32.5 9t33.5 9q51 14 47 49q-4 27 -31 32t-55 9q-6 6 -9 12q-2 8 3 21q10 14 35.5 51t66.5 96l63 -4q-78 -88 -77 -108q0 -9 6 -11q61 -33 69 -94q8 -51 -59 -82q-106 -49 -109 -51q0 -2 -4 -2q-8 0 -12 29q-2 27 0 35z" />
<glyph unicode="&#xb9;" horiz-adv-x="618" d="M205 995l33 23q45 29 112.5 77t159.5 113l14 -14q-79 -307 -110 -559q-51 -23 -86 -43.5t-52 -38.5l-8 4l129 543l-180 -121z" />
<glyph unicode="&#xba;" horiz-adv-x="655" d="M131 670q0 86 76 186l-2 31q158 96 260 96q113 0 113 -119q0 -106 -111 -207q-108 -100 -223 -100q-113 0 -113 113zM143 410v41h412v-41h-412zM219 737q0 -55 34 -92t87 -37q23 0 53 10q94 100 94 187q0 53 -32 92q-44 53 -136 41q-100 -109 -100 -201z" />
<glyph unicode="&#xbb;" horiz-adv-x="874" d="M82 156q111 117 192 178l37 28q-86 98 -192 314l-10 20l141 82h14q76 -209 185 -325v-19q-190 -139 -334 -307h-9zM449 164q68 72 182 164l53 45l-37 51q-98 137 -153 283l129 69h24q43 -168 174 -330v-14q-152 -115 -336 -299h-12z" />
<glyph unicode="&#xbc;" horiz-adv-x="1003" d="M90 6l821 930l29 -23l-823 -929zM225 815q68 35 126.5 69t105.5 68l10 -6q-29 -106 -50.5 -198.5t-37.5 -174.5q-35 -16 -61.5 -30.5t-47.5 -28.5l97 356l-136 -73zM442 123q45 66 310 276l26 21l6 -2l-51 -256h127l-63 -49h-74l-18 -97q-37 -14 -89 -43l35 140h-205z M526 172l15 -14h125l36 180q-76 -63 -118.5 -104t-57.5 -62z" />
<glyph unicode="&#xbd;" horiz-adv-x="1003" d="M88 6l827 926l27 -25l-829 -923zM213 803l76 45q25 14 67.5 39.5t102.5 64.5l8 -6q-29 -111 -49.5 -203t-32.5 -170l-113 -73h-2l86 362l-135 -74zM440 0l33 25q39 29 78 57.5t80 56.5q129 98 129 135q0 51 -92 52q-63 0 -125 -31l-4 4q113 98 194 98q53 0 88 -22.5 t35 -57.5q0 -59 -170 -170q-20 -12 -57 -36.5t-90 -63.5q117 33 204 33q4 0 27 -1t66 -3l4 -8l-64 -68q-35 8 -69.5 11t-69.5 3q-78 0 -191 -22z" />
<glyph unicode="&#xbe;" horiz-adv-x="1003" d="M82 8l827 930l29 -25l-827 -929zM160 557q29 29 57 39q45 -18 80 -18q86 0 86 65q0 70 -104 74q-10 -2 -24.5 -3t-35.5 -5l-4 8l53 43q141 14 142 86q0 45 -60 45q-49 0 -117 -27l-8 10l88 66q51 12 80 12q109 0 109 -59q0 -49 -158 -133q117 -18 117 -72q0 -53 -80 -102 q-78 -49 -164 -49q-43 0 -57 20zM418 100q10 14 22.5 26.5t26.5 27.5q51 47 126 109.5t175 139.5l10 -6l-59 -258h131l-70 -47h-71l-17 -94q-23 -8 -43 -19.5t-43 -25.5l-4 2l33 135h-213zM506 158l8 -21h133l41 176q-8 -6 -18.5 -15.5t-26.5 -21.5q-51 -41 -86 -70.5 t-51 -47.5z" />
<glyph unicode="&#xbf;" horiz-adv-x="800" d="M-72 248q0 115 47 205q33 63 136 184q72 86 130 157.5t101 131.5l37 129q0 20 -12.5 39.5t-12.5 25.5q0 18 27 19q45 0 45 -115q0 -117 -113 -268q-35 -45 -86 -114t-121 -161q-111 -158 -110 -295q0 -145 133 -145q137 0 334 240q47 57 78.5 100t48.5 74q55 94 55 192 v19q0 10 -2 20q55 12 55 -70q0 -113 -86 -260q-76 -125 -172 -219q-166 -160 -305 -160q-102 0 -158 86q-49 76 -49 185zM313 1303q0 33 20.5 61.5t51.5 28.5q55 0 55 -62q0 -27 -15 -53.5t-40 -26.5q-72 1 -72 52z" />
<glyph unicode="&#xc0;" horiz-adv-x="1384" d="M-53 96q10 14 16 17q6 4 17 0q10 -2 20 -2q0 -61 100 -62q154 0 265 117q63 70 159 256q-16 2 -29.5 3t-25.5 1q-14 0 -37.5 -5t-36.5 -5q-49 0 -49 28q0 14 221 39q102 168 236 510q119 301 119 363q0 6 -4.5 15t-4.5 15q0 27 64 27q20 0 78 -35q57 -33 57 -53 q0 -16 -4 -48t-4 -48q0 -281 86 -688q35 -162 65.5 -281t59.5 -194q8 -25 26.5 -36.5t22.5 -17.5q0 -20 -37 -20q-25 0 -72 10q-74 96 -155 461q-86 -12 -242 -19q-86 -4 -145.5 -7t-94.5 -7q-29 -47 -70.5 -118.5t-101.5 -166.5q-129 -197 -260 -196q-170 0 -239 147z M651 498l436 10q1 12 -26 170q-59 356 -68 461q-2 29 -3 43l-1 14q-10 37 -24 49q-18 -35 -54.5 -123t-89.5 -233q-53 -141 -95 -237.5t-75 -153.5zM776 1716q0 33 41 43q45 8 70 -30q4 -4 16 -16.5t33 -31.5q51 -49 51 -63q0 -8 -10 -29l-12 -12l-95 55q-4 2 -13 7.5 t-23 13.5q-57 33 -58 63z" />
<glyph unicode="&#xc1;" horiz-adv-x="1384" d="M-53 96q10 14 16 17q6 4 17 0q10 -2 20 -2q0 -61 100 -62q154 0 265 117q63 70 159 256q-16 2 -29.5 3t-25.5 1q-14 0 -37.5 -5t-36.5 -5q-49 0 -49 28q0 14 221 39q102 168 236 510q119 301 119 363q0 6 -4.5 15t-4.5 15q0 27 64 27q20 0 78 -35q57 -33 57 -53 q0 -16 -4 -48t-4 -48q0 -281 86 -688q35 -162 65.5 -281t59.5 -194q8 -25 26.5 -36.5t22.5 -17.5q0 -20 -37 -20q-25 0 -72 10q-74 96 -155 461q-86 -12 -242 -19q-86 -4 -145.5 -7t-94.5 -7q-29 -47 -70.5 -118.5t-101.5 -166.5q-129 -197 -260 -196q-170 0 -239 147z M651 498l436 10q1 12 -26 170q-59 356 -68 461q-2 29 -3 43l-1 14q-10 37 -24 49q-18 -35 -54.5 -123t-89.5 -233q-53 -141 -95 -237.5t-75 -153.5zM995 1618q0 14 52 63q6 6 18 18.5t31 29.5q25 39 69 30q25 -4 33 -18.5t8 -24.5q0 -31 -57 -63q-4 -4 -13.5 -8.5 t-23.5 -12.5l-94 -55l-10 16q-12 14 -13 25z" />
<glyph unicode="&#xc2;" horiz-adv-x="1384" d="M-53 96q10 14 16 17q6 4 17 0q10 -2 20 -2q0 -61 100 -62q154 0 265 117q63 70 159 256q-16 2 -29.5 3t-25.5 1q-14 0 -37.5 -5t-36.5 -5q-49 0 -49 28q0 14 221 39q102 168 236 510q119 301 119 363q0 6 -4.5 15t-4.5 15q0 27 64 27q20 0 78 -35q57 -33 57 -53 q0 -16 -4 -48t-4 -48q0 -281 86 -688q35 -162 65.5 -281t59.5 -194q8 -25 26.5 -36.5t22.5 -17.5q0 -20 -37 -20q-25 0 -72 10q-74 96 -155 461q-86 -12 -242 -19q-86 -4 -145.5 -7t-94.5 -7q-29 -47 -70.5 -118.5t-101.5 -166.5q-129 -197 -260 -196q-170 0 -239 147z M651 498l436 10q1 12 -26 170q-59 356 -68 461q-2 29 -3 43l-1 14q-10 37 -24 49q-18 -35 -54.5 -123t-89.5 -233q-53 -141 -95 -237.5t-75 -153.5zM897 1640q6 29 66 84q57 55 84 56q14 2 65 -74q51 -78 55 -111q2 -8 -10 -18q-12 0 -33 31q-6 10 -15 25.5t-19 35.5 q-20 33 -50 33q-29 0 -61 -33l-16.5 -16.5t-20.5 -19.5t-19.5 -14t-15.5 -3q-14 6 -10 24z" />
<glyph unicode="&#xc3;" horiz-adv-x="1384" d="M-53 96q10 14 16 17q6 4 17 0q10 -2 20 -2q0 -61 100 -62q154 0 265 117q63 70 159 256q-16 2 -29.5 3t-25.5 1q-14 0 -37.5 -5t-36.5 -5q-49 0 -49 28q0 14 221 39q102 168 236 510q119 301 119 363q0 6 -4.5 15t-4.5 15q0 27 64 27q20 0 78 -35q57 -33 57 -53 q0 -16 -4 -48t-4 -48q0 -281 86 -688q35 -162 65.5 -281t59.5 -194q8 -25 26.5 -36.5t22.5 -17.5q0 -20 -37 -20q-25 0 -72 10q-74 96 -155 461q-86 -12 -242 -19q-86 -4 -145.5 -7t-94.5 -7q-29 -47 -70.5 -118.5t-101.5 -166.5q-129 -197 -260 -196q-170 0 -239 147z M651 498l436 10q1 12 -26 170q-59 356 -68 461q-2 29 -3 43l-1 14q-10 37 -24 49q-18 -35 -54.5 -123t-89.5 -233q-53 -141 -95 -237.5t-75 -153.5zM877 1679q0 80 53 93q35 8 106 -54q16 -18 36 -39.5t44 -27.5q4 -2 12 -2q23 0 70 77q4 4 6 8l2 3q8 -6 8 -33 q0 -53 -28.5 -92t-55.5 -39q-6 0 -14 4q-16 10 -40.5 30.5t-53.5 51.5q-41 55 -78 55q-27 0 -39 -41q-10 -31 -18 -31q-10 0 -10 37z" />
<glyph unicode="&#xc4;" horiz-adv-x="1384" d="M-53 96q10 14 16 17q6 4 17 0q10 -2 20 -2q0 -61 100 -62q154 0 265 117q63 70 159 256q-16 2 -29.5 3t-25.5 1q-14 0 -37.5 -5t-36.5 -5q-49 0 -49 28q0 14 221 39q102 168 236 510q119 301 119 363q0 6 -4.5 15t-4.5 15q0 27 64 27q20 0 78 -35q57 -33 57 -53 q0 -16 -4 -48t-4 -48q0 -281 86 -688q35 -162 65.5 -281t59.5 -194q8 -25 26.5 -36.5t22.5 -17.5q0 -20 -37 -20q-25 0 -72 10q-74 96 -155 461q-86 -12 -242 -19q-86 -4 -145.5 -7t-94.5 -7q-29 -47 -70.5 -118.5t-101.5 -166.5q-129 -197 -260 -196q-170 0 -239 147z M651 498l436 10q1 12 -26 170q-59 356 -68 461q-2 29 -3 43l-1 14q-10 37 -24 49q-18 -35 -54.5 -123t-89.5 -233q-53 -141 -95 -237.5t-75 -153.5zM870 1661q0 20 21.5 42.5t42.5 22.5q70 1 70 -75t-52 -76q-33 0 -57.5 26.5t-24.5 59.5zM1028 1663q0 20 21.5 43t42.5 23 q69 0 69 -76t-51 -76q-33 0 -57.5 26.5t-24.5 59.5z" />
<glyph unicode="&#xc5;" horiz-adv-x="1384" d="M-53 96q10 14 16 17q6 4 17 0q10 -2 20 -2q0 -61 100 -62q154 0 265 117q63 70 159 256q-16 2 -29.5 3t-25.5 1q-14 0 -37.5 -5t-36.5 -5q-49 0 -49 28q0 14 221 39q102 168 236 510q119 301 119 363q0 6 -4.5 15t-4.5 15q0 27 64 27q20 0 78 -35q57 -33 57 -53 q0 -16 -4 -48t-4 -48q0 -281 86 -688q35 -162 65.5 -281t59.5 -194q8 -25 26.5 -36.5t22.5 -17.5q0 -20 -37 -20q-25 0 -72 10q-74 96 -155 461q-86 -12 -242 -19q-86 -4 -145.5 -7t-94.5 -7q-29 -47 -70.5 -118.5t-101.5 -166.5q-129 -197 -260 -196q-170 0 -239 147z M651 498l436 10q1 12 -26 170q-59 356 -68 461q-2 29 -3 43l-1 14q-10 37 -24 49q-18 -35 -54.5 -123t-89.5 -233q-53 -141 -95 -237.5t-75 -153.5zM971 1651q-12 66 41 149q55 82 121 82q68 0 84 -74q10 -70 -48 -149q-55 -82 -116 -82q-70 0 -82 74zM1024 1673 q6 -35 35 -35q39 0 71 52q35 53 29 90t-43 37q-33 0 -67 -54q-31 -53 -25 -90z" />
<glyph unicode="&#xc6;" horiz-adv-x="2344" d="M-53 96q10 14 16 17q6 4 17 0q10 -2 20 -2q0 -61 100 -62q154 0 265 117q63 70 159 256q-16 2 -29.5 3t-25.5 1q-14 0 -37.5 -5t-36.5 -5q-49 0 -49 28q0 14 221 39q102 168 236 510q119 301 119 363q0 6 -4.5 15t-4.5 15q0 27 64 27q20 0 78 -35q57 -33 57 -53 q0 -16 -4 -48t-4 -48q0 -276 82 -672q76 106 295 219q-100 35 -150 78q-59 55 -59 150q0 207 315 311q223 74 481 74q94 0 132 -15q72 -23 71 -94q0 -61 -24 -61q-25 23 -70 57q-35 18 -98 18q-223 0 -441 -61q-309 -88 -309 -254q0 -72 105 -111q74 -27 163 -26 q27 0 191 12q72 4 116 7t60 1q27 -18 25 -61q-4 -43 -33 -53q-47 29 -72 28q-180 0 -383 -82q-238 -96 -295 -233q18 -80 34.5 -147.5t33.5 -125.5q150 -123 469 -122q78 0 199 20q137 20 190 49q135 70 135 86q0 4 -6 4v39q72 0 72 -43q0 -104 -254 -184q-203 -63 -344 -64 q-254 0 -422 101l2 -8q8 -25 26.5 -36.5t22.5 -17.5q0 -20 -37 -20q-25 0 -72 10q-45 61 -96 229q-20 43 -26 97q-8 31 -16.5 64.5t-16.5 70.5q-86 -12 -242 -19q-86 -4 -145.5 -7t-94.5 -7q-29 -47 -70.5 -118.5t-101.5 -166.5q-129 -197 -260 -196q-170 0 -239 147z M651 498l436 10q1 12 -26 170q-59 356 -68 461q-2 29 -3 43l-1 14q-10 37 -24 49q-18 -35 -54.5 -123t-89.5 -233q-53 -141 -95 -237.5t-75 -153.5z" />
<glyph unicode="&#xc7;" horiz-adv-x="874" d="M0 436q0 225 88 502q106 338 264 440q39 27 119 27q113 0 219 -64q68 -39 90 -81q31 -55 31 -175q0 -72 -25 -202q-31 -164 -69 -164q-27 0 -43 41q-14 31 -15 61q0 55 35 189q35 135 35 196q0 68 -86 109q-70 35 -143 35q-154 0 -279 -344q-117 -317 -117 -623 q0 -344 254 -344q227 0 439 162l32 59q29 -4 29 -24q0 -10 -18 -56q-72 -90 -197 -145q-129 -57 -244 -60q-55 -61 -55 -84q0 -8 6 -10q61 -33 70 -94q8 -51 -60 -82q-106 -49 -108 -51q0 -2 -4 -2q-8 0 -12 29q-2 27 0 34q16 4 32.5 9.5t32.5 9.5q51 14 47 49 q-4 27 -30.5 32t-55.5 9q-6 6 -8 12q-2 8 2 21q23 29 84 120q-174 16 -262 154q-78 125 -78 305z" />
<glyph unicode="&#xc8;" horiz-adv-x="1220" d="M0 369q0 143 113 249q78 74 237 156q-100 35 -149 78q-59 55 -60 149q0 207 316 312q223 74 481 73q94 0 131 -14q72 -23 72 -94q0 -61 -25 -61q-25 23 -69 57q-35 18 -99 18q-223 0 -440 -61q-309 -88 -309 -254q0 -72 104 -111q74 -27 164 -26q27 0 190 12q72 4 116 7 t61 1q27 -18 24 -61q-4 -43 -33 -54q-47 29 -71 29q-178 0 -400 -90q-297 -123 -297 -324q0 -166 209 -241q150 -55 346 -56q78 0 199 21q137 20 190 49q135 70 136 86q0 4 -7 4v39q72 0 72 -43q0 -104 -254 -184q-203 -63 -344 -64q-225 0 -393 84q-211 106 -211 314z M535 1716q0 33 40 43q45 8 70 -30l16.5 -16.5t32.5 -31.5q51 -49 51 -63q0 -8 -10 -29l-12 -12l-94 55q-4 2 -13.5 7.5t-23.5 13.5q-57 33 -57 63z" />
<glyph unicode="&#xc9;" horiz-adv-x="1220" d="M0 369q0 143 113 249q78 74 237 156q-100 35 -149 78q-59 55 -60 149q0 207 316 312q223 74 481 73q94 0 131 -14q72 -23 72 -94q0 -61 -25 -61q-25 23 -69 57q-35 18 -99 18q-223 0 -440 -61q-309 -88 -309 -254q0 -72 104 -111q74 -27 164 -26q27 0 190 12q72 4 116 7 t61 1q27 -18 24 -61q-4 -43 -33 -54q-47 29 -71 29q-178 0 -400 -90q-297 -123 -297 -324q0 -166 209 -241q150 -55 346 -56q78 0 199 21q137 20 190 49q135 70 136 86q0 4 -7 4v39q72 0 72 -43q0 -104 -254 -184q-203 -63 -344 -64q-225 0 -393 84q-211 106 -211 314z M719 1618q0 14 51 63l18.5 18.5t30.5 29.5q25 39 70 30q25 -4 33 -18.5t8 -24.5q0 -31 -58 -63q-4 -4 -13 -8.5t-23 -12.5l-95 -55l-10 16q-12 14 -12 25z" />
<glyph unicode="&#xca;" horiz-adv-x="1220" d="M0 369q0 143 113 249q78 74 237 156q-100 35 -149 78q-59 55 -60 149q0 207 316 312q223 74 481 73q94 0 131 -14q72 -23 72 -94q0 -61 -25 -61q-25 23 -69 57q-35 18 -99 18q-223 0 -440 -61q-309 -88 -309 -254q0 -72 104 -111q74 -27 164 -26q27 0 190 12q72 4 116 7 t61 1q27 -18 24 -61q-4 -43 -33 -54q-47 29 -71 29q-178 0 -400 -90q-297 -123 -297 -324q0 -166 209 -241q150 -55 346 -56q78 0 199 21q137 20 190 49q135 70 136 86q0 4 -7 4v39q72 0 72 -43q0 -104 -254 -184q-203 -63 -344 -64q-225 0 -393 84q-211 106 -211 314z M668 1640q6 29 65 84q57 55 84 56q14 2 66 -74q51 -78 55 -111q2 -8 -10 -18q-12 0 -33 31q-6 10 -15.5 25.5t-19.5 35.5q-20 33 -49 33t-61 -33l-16.5 -16.5t-21 -19.5t-19.5 -14t-15 -3q-14 6 -10 24z" />
<glyph unicode="&#xcb;" horiz-adv-x="1220" d="M0 369q0 143 113 249q78 74 237 156q-100 35 -149 78q-59 55 -60 149q0 207 316 312q223 74 481 73q94 0 131 -14q72 -23 72 -94q0 -61 -25 -61q-25 23 -69 57q-35 18 -99 18q-223 0 -440 -61q-309 -88 -309 -254q0 -72 104 -111q74 -27 164 -26q27 0 190 12q72 4 116 7 t61 1q27 -18 24 -61q-4 -43 -33 -54q-47 29 -71 29q-178 0 -400 -90q-297 -123 -297 -324q0 -166 209 -241q150 -55 346 -56q78 0 199 21q137 20 190 49q135 70 136 86q0 4 -7 4v39q72 0 72 -43q0 -104 -254 -184q-203 -63 -344 -64q-225 0 -393 84q-211 106 -211 314z M602 1661q0 20 21.5 42.5t42.5 22.5q69 1 69 -75t-51 -76q-33 0 -57.5 26.5t-24.5 59.5zM760 1663q0 20 21.5 43t41.5 23q70 0 70 -76t-51 -76q-33 0 -57.5 26.5t-24.5 59.5z" />
<glyph unicode="&#xcc;" horiz-adv-x="616" d="M-53 -8q0 18 108 31l146 16q0 12 -2 30.5t-4 39t-4.5 40t-2.5 31.5q0 20 6.5 160.5t16.5 409.5q18 455 12 479q-125 0 -217 6q16 14 36.5 27.5t47.5 27.5q346 37 377 37h35q20 0 49 -2t49 -2h37q19 0 29 -18q-37 -16 -58.5 -24.5t-29.5 -10.5l-205 -35q-45 -143 -72 -473 q-25 -295 -25 -541q0 -139 11 -170q-12 0 7 1t73 3q158 6 157 -22q-18 -20 -100 -39q-119 -29 -283 -29q-193 0 -194 27zM45 1716q0 33 41 43q45 8 70 -30q4 -4 16 -16.5t33 -31.5q51 -49 51 -63q0 -8 -10 -29l-13 -12l-94 55q-4 2 -13 7.5t-24 13.5q-57 33 -57 63z" />
<glyph unicode="&#xcd;" horiz-adv-x="616" d="M-53 -8q0 18 108 31l146 16q0 12 -2 30.5t-4 39t-4.5 40t-2.5 31.5q0 20 6.5 160.5t16.5 409.5q18 455 12 479q-125 0 -217 6q16 14 36.5 27.5t47.5 27.5q346 37 377 37h35q20 0 49 -2t49 -2h37q19 0 29 -18q-37 -16 -58.5 -24.5t-29.5 -10.5l-205 -35q-45 -143 -72 -473 q-25 -295 -25 -541q0 -139 11 -170q-12 0 7 1t73 3q158 6 157 -22q-18 -20 -100 -39q-119 -29 -283 -29q-193 0 -194 27zM342 1618q0 14 51 63l18.5 18.5t30.5 29.5q25 39 70 30q25 -4 33 -18.5t8 -24.5q0 -31 -57 -63q-4 -4 -13.5 -8.5t-23.5 -12.5l-94 -55l-11 16 q-12 14 -12 25z" />
<glyph unicode="&#xce;" horiz-adv-x="616" d="M-53 -8q0 18 108 31l146 16q0 12 -2 30.5t-4 39t-4.5 40t-2.5 31.5q0 20 6.5 160.5t16.5 409.5q18 455 12 479q-125 0 -217 6q16 14 36.5 27.5t47.5 27.5q346 37 377 37h35q20 0 49 -2t49 -2h37q19 0 29 -18q-37 -16 -58.5 -24.5t-29.5 -10.5l-205 -35q-45 -143 -72 -473 q-25 -295 -25 -541q0 -139 11 -170q-12 0 7 1t73 3q158 6 157 -22q-18 -20 -100 -39q-119 -29 -283 -29q-193 0 -194 27zM207 1640q6 29 65 84q57 55 84 56q14 2 66 -74q51 -78 55 -111q2 -8 -10 -18q-12 0 -33 31q-6 10 -15 25.5t-20 35.5q-20 33 -49 33t-61 -33 l-16.5 -16.5t-20.5 -19.5t-19.5 -14t-15.5 -3q-14 6 -10 24z" />
<glyph unicode="&#xcf;" horiz-adv-x="616" d="M-53 -8q0 18 108 31l146 16q0 12 -2 30.5t-4 39t-4.5 40t-2.5 31.5q0 20 6.5 160.5t16.5 409.5q18 455 12 479q-125 0 -217 6q16 14 36.5 27.5t47.5 27.5q346 37 377 37h35q20 0 49 -2t49 -2h37q19 0 29 -18q-37 -16 -58.5 -24.5t-29.5 -10.5l-205 -35q-45 -143 -72 -473 q-25 -295 -25 -541q0 -139 11 -170q-12 0 7 1t73 3q158 6 157 -22q-18 -20 -100 -39q-119 -29 -283 -29q-193 0 -194 27zM186 1661q0 20 21.5 42.5t42.5 22.5q69 1 69 -75t-51 -76q-33 0 -57.5 26.5t-24.5 59.5zM344 1663q0 20 21.5 43t42.5 23q69 0 69 -76t-51 -76 q-33 0 -57.5 26.5t-24.5 59.5z" />
<glyph unicode="&#xd0;" horiz-adv-x="411" d="M-6 35q-6 20 0 78q4 37 6 84l43 479q16 141 36.5 259t47.5 216q68 244 168 244q31 0 54.5 -17.5t38.5 -43t21.5 -56.5t4.5 -61q0 -195 -162 -455q-45 -70 -45 -117q0 -10 4 -27q8 -41 65 -141q20 12 60 19q39 8 55 0q23 -10 29 -31q2 -4 -14 -8q2 2 -35 2q-18 2 -27 -2 q-12 -10 -15 -17.5t-14 -29.5q51 -84 68 -154q23 -94 4 -156q-12 -43 -43 -84q-37 -43 -74 -43t-69.5 40t-42.5 87q-8 25 -8 62q0 129 96 274q-29 55 -60 107q-37 70 -36 112q0 53 75 172q129 203 129 377q0 23 -4 43q-14 45 -51 45t-80 -100q-16 -41 -28.5 -76t-18.5 -67 q-90 -459 -117 -959q-2 -88 -26 -88q-29 0 -35 33zM195 176q0 -14 4 -35q29 -121 75 -121q66 0 66 142q0 35 -6 63q-9 44 -60 148q-80 -84 -79 -197z" />
<glyph unicode="&#xd1;" horiz-adv-x="1093" d="M-100 16q0 33 26 33q12 0 21 -8q-8 -8 -8 -14q0 -25 55 -25q240 0 352 756q61 406 62 577q0 27 -2 33q33 51 79 51q106 0 107 -73q0 -506 86 -889q80 -356 162 -357q35 0 39 111l12 276q8 92 20.5 225.5t28.5 313.5q35 303 111 404q41 -6 41 -31q0 -6 -4.5 -18.5 t-10.5 -27t-12 -27.5t-8 -19q-23 -92 -43.5 -235.5t-38.5 -340.5q-16 -188 -25.5 -344t-9.5 -283q0 -12 5 -34.5t5 -32.5q0 -47 -92 -47q-84 0 -129 76q-16 20 -67 184q-53 160 -101.5 382t-93.5 515q-14 -53 -34.5 -182t-49.5 -334q-45 -328 -104 -475q-84 -207 -246 -207 q-133 0 -133 67zM606 1679q0 80 53 93q35 8 107 -54q16 -18 35.5 -39.5t44.5 -27.5q4 -2 12 -2q23 0 70 77q4 4 6 8l2 3q8 -6 8 -33q0 -53 -28.5 -92t-55.5 -39q-6 0 -14 4q-16 10 -41 30.5t-53 51.5q-41 55 -78 55q-27 0 -39 -41q-10 -31 -19 -31q-10 0 -10 37z" />
<glyph unicode="&#xd2;" horiz-adv-x="892" d="M0 483q0 201 47 412q55 242 156 381q16 25 33.5 49.5t33.5 46.5q49 61 92 62q10 0 48 -17q16 10 26 10q408 -26 408 -563q0 -324 -76 -551q-115 -342 -369 -342q-195 0 -303 164q-96 145 -96 348zM109 487q0 -453 276 -452q383 -1 383 839q0 184 -53 314 q-74 176 -236 176q-158 0 -274 -352q-96 -293 -96 -525zM219 1716q0 33 41 43q45 8 70 -30q4 -4 16 -16.5t33 -31.5q51 -49 51 -63q0 -8 -10 -29l-12 -12l-95 55q-4 2 -13 7.5t-24 13.5q-57 33 -57 63z" />
<glyph unicode="&#xd3;" horiz-adv-x="892" d="M0 483q0 201 47 412q55 242 156 381q16 25 33.5 49.5t33.5 46.5q49 61 92 62q10 0 48 -17q16 10 26 10q408 -26 408 -563q0 -324 -76 -551q-115 -342 -369 -342q-195 0 -303 164q-96 145 -96 348zM109 487q0 -453 276 -452q383 -1 383 839q0 184 -53 314 q-74 176 -236 176q-158 0 -274 -352q-96 -293 -96 -525zM543 1618q0 14 51 63l18.5 18.5t30.5 29.5q25 39 70 30q25 -4 33 -18.5t8 -24.5q0 -31 -58 -63q-4 -4 -13 -8.5t-24 -12.5l-94 -55l-10 16q-12 14 -12 25z" />
<glyph unicode="&#xd4;" horiz-adv-x="892" d="M0 483q0 201 47 412q55 242 156 381q16 25 33.5 49.5t33.5 46.5q49 61 92 62q10 0 48 -17q16 10 26 10q408 -26 408 -563q0 -324 -76 -551q-115 -342 -369 -342q-195 0 -303 164q-96 145 -96 348zM109 487q0 -453 276 -452q383 -1 383 839q0 184 -53 314 q-74 176 -236 176q-158 0 -274 -352q-96 -293 -96 -525zM414 1640q6 29 65 84q57 55 84 56q14 2 66 -74q51 -78 55 -111q2 -8 -10 -18q-12 0 -33 31q-6 10 -15.5 25.5t-19.5 35.5q-20 33 -49 33t-61 -33l-16.5 -16.5t-20.5 -19.5t-19.5 -14t-15.5 -3q-14 6 -10 24z" />
<glyph unicode="&#xd5;" horiz-adv-x="892" d="M0 483q0 201 47 412q55 242 156 381q16 25 33.5 49.5t33.5 46.5q49 61 92 62q10 0 48 -17q16 10 26 10q408 -26 408 -563q0 -324 -76 -551q-115 -342 -369 -342q-195 0 -303 164q-96 145 -96 348zM109 487q0 -453 276 -452q383 -1 383 839q0 184 -53 314 q-74 176 -236 176q-158 0 -274 -352q-96 -293 -96 -525zM354 1679q0 80 54 93q35 8 106 -54q16 -18 35.5 -39.5t44.5 -27.5q4 -2 12 -2q23 0 70 77q4 4 6 8l2 3q8 -6 8 -33q0 -53 -28.5 -92t-55.5 -39q-6 0 -14 4q-16 10 -41 30.5t-53 51.5q-41 55 -78 55q-27 0 -39 -41 q-10 -31 -18 -31q-10 0 -11 37z" />
<glyph unicode="&#xd6;" horiz-adv-x="892" d="M0 483q0 201 47 412q55 242 156 381q16 25 33.5 49.5t33.5 46.5q49 61 92 62q10 0 48 -17q16 10 26 10q408 -26 408 -563q0 -324 -76 -551q-115 -342 -369 -342q-195 0 -303 164q-96 145 -96 348zM109 487q0 -453 276 -452q383 -1 383 839q0 184 -53 314 q-74 176 -236 176q-158 0 -274 -352q-96 -293 -96 -525zM412 1661q0 20 21.5 42.5t41.5 22.5q70 1 70 -75t-51 -76q-33 0 -57.5 26.5t-24.5 59.5zM569 1663q0 20 21.5 43t42.5 23q69 0 69 -76t-51 -76q-33 0 -57.5 26.5t-24.5 59.5z" />
<glyph unicode="&#xd7;" horiz-adv-x="1228" d="M154 119l391 399l-391 400l69 71l389 -401l394 401l69 -71l-393 -400l393 -399l-69 -72l-394 402l-389 -402z" />
<glyph unicode="&#xd8;" horiz-adv-x="1042" d="M-37 344l143 107v34q0 201 48 412q55 242 155 381q16 25 33.5 49.5t34.5 46.5q49 61 92 62q10 0 47 -17q16 10 27 11q330 -23 393 -377l147 106l31 -41l-170 -123q6 -61 6 -129q0 -324 -76 -551q-115 -342 -368 -342q-168 0 -277 127q-96 113 -116 289l-121 -88zM215 465 q10 -428 277 -428q383 0 382 840v32t-2 33zM215 528l653 476q-8 74 -27.5 134t-47.5 107q-78 121 -207 121q-158 0 -275 -352q-45 -133 -68.5 -254t-27.5 -232z" />
<glyph unicode="&#xd9;" horiz-adv-x="1110" d="M-35 926q10 -2 19 -2h18q248 0 442 430q106 -33 107 -66q0 -14 -35 -55q-35 -43 -41 -55q-154 -367 -153 -719q0 -178 28 -275q53 -158 193 -157q115 0 213 188q33 59 59.5 130t48.5 157q78 295 78 561q0 96 -8 135q-6 20 -6 37q12 23 39 22q37 1 127 -67 q-8 -12 -18.5 -37t-20.5 -61q-20 -74 -25 -109l-65 -639v-207q6 -186 45 -217q-14 -10 -43 -10q-66 0 -78 160l-3 66q-3 65 -9 196q-47 -98 -78 -154.5t-45 -77.5q-92 -129 -211 -129q-319 0 -320 506q0 188 80 512q-150 -115 -231 -115q-55 0 -107 52zM535 1716q0 33 40 43 q45 8 70 -30l16.5 -16.5t32.5 -31.5q51 -49 51 -63q0 -8 -10 -29l-12 -12l-94 55q-4 2 -13.5 7.5t-23.5 13.5q-57 33 -57 63z" />
<glyph unicode="&#xda;" horiz-adv-x="1110" d="M-35 926q10 -2 19 -2h18q248 0 442 430q106 -33 107 -66q0 -14 -35 -55q-35 -43 -41 -55q-154 -367 -153 -719q0 -178 28 -275q53 -158 193 -157q115 0 213 188q33 59 59.5 130t48.5 157q78 295 78 561q0 96 -8 135q-6 20 -6 37q12 23 39 22q37 1 127 -67 q-8 -12 -18.5 -37t-20.5 -61q-20 -74 -25 -109l-65 -639v-207q6 -186 45 -217q-14 -10 -43 -10q-66 0 -78 160l-3 66q-3 65 -9 196q-47 -98 -78 -154.5t-45 -77.5q-92 -129 -211 -129q-319 0 -320 506q0 188 80 512q-150 -115 -231 -115q-55 0 -107 52zM838 1618q0 14 51 63 l18.5 18.5t30.5 29.5q25 39 70 30q25 -4 33 -18.5t8 -24.5q0 -31 -58 -63q-4 -4 -13 -8.5t-24 -12.5l-94 -55l-10 16q-12 14 -12 25z" />
<glyph unicode="&#xdb;" horiz-adv-x="1110" d="M-35 926q10 -2 19 -2h18q248 0 442 430q106 -33 107 -66q0 -14 -35 -55q-35 -43 -41 -55q-154 -367 -153 -719q0 -178 28 -275q53 -158 193 -157q115 0 213 188q33 59 59.5 130t48.5 157q78 295 78 561q0 96 -8 135q-6 20 -6 37q12 23 39 22q37 1 127 -67 q-8 -12 -18.5 -37t-20.5 -61q-20 -74 -25 -109l-65 -639v-207q6 -186 45 -217q-14 -10 -43 -10q-66 0 -78 160l-3 66q-3 65 -9 196q-47 -98 -78 -154.5t-45 -77.5q-92 -129 -211 -129q-319 0 -320 506q0 188 80 512q-150 -115 -231 -115q-55 0 -107 52zM668 1640q6 29 65 84 q57 55 84 56q14 2 66 -74q51 -78 55 -111q2 -8 -10 -18q-12 0 -33 31q-6 10 -15.5 25.5t-19.5 35.5q-20 33 -49 33t-61 -33l-16.5 -16.5t-21 -19.5t-19.5 -14t-15 -3q-14 6 -10 24z" />
<glyph unicode="&#xdc;" horiz-adv-x="1110" d="M-35 926q10 -2 19 -2h18q248 0 442 430q106 -33 107 -66q0 -14 -35 -55q-35 -43 -41 -55q-154 -367 -153 -719q0 -178 28 -275q53 -158 193 -157q115 0 213 188q33 59 59.5 130t48.5 157q78 295 78 561q0 96 -8 135q-6 20 -6 37q12 23 39 22q37 1 127 -67 q-8 -12 -18.5 -37t-20.5 -61q-20 -74 -25 -109l-65 -639v-207q6 -186 45 -217q-14 -10 -43 -10q-66 0 -78 160l-3 66q-3 65 -9 196q-47 -98 -78 -154.5t-45 -77.5q-92 -129 -211 -129q-319 0 -320 506q0 188 80 512q-150 -115 -231 -115q-55 0 -107 52zM662 1661 q0 20 21.5 42.5t41.5 22.5q70 1 70 -75t-52 -76q-33 0 -57 26.5t-24 59.5zM819 1663q0 20 21.5 43t42.5 23q69 0 69 -76t-51 -76q-33 0 -57.5 26.5t-24.5 59.5z" />
<glyph unicode="&#xdd;" horiz-adv-x="823" d="M-121 -348q0 37 53 37q18 0 138 -95q119 -94 198 -94q358 0 359 596q0 53 -3 134t-12 192q-70 -205 -104 -266q-90 -160 -211 -160q-154 0 -223 135q-55 106 -56 272q0 59 6.5 149.5t16.5 213.5q25 242 25 362q0 12 -2.5 39t-2.5 39q0 63 37 64q16 0 101 -70 q0 -12 -11 -57q-8 -25 -11 -40.5t-5 -21.5q-29 -180 -44 -347t-15 -326q0 -362 166 -363q113 0 215 203q90 178 118 399q16 141 31.5 307t26.5 363q2 39 57 37q68 -2 70 -51q-25 -100 -41.5 -177t-24.5 -131q-16 -111 -24.5 -241.5t-8.5 -288.5q0 -45 3.5 -110.5t7.5 -153.5 q12 -176 12 -262q0 -172 -100 -324q-115 -170 -277 -170q-82 0 -262 66q-203 76 -203 141zM440 1618q0 14 52 63q6 6 18 18.5t31 29.5q25 39 69 30q25 -4 33 -18.5t8 -24.5q0 -31 -57 -63q-4 -4 -13.5 -8.5t-23.5 -12.5l-94 -55l-10 16q-12 14 -13 25z" />
<glyph unicode="&#xde;" horiz-adv-x="337" d="M-113 -31q0 14 21 64q25 63 37 117q35 139 56.5 260.5t31.5 230.5q-2 27 1 57.5t9 69.5q8 18 43 18q61 0 61 -38q0 -6 -3 -20.5t-7 -31t-7 -32t-3 -25.5q0 -78 49 -238q51 -155 51 -233q0 -70 -28 -131q-37 -70 -105 -70q-51 0 -90 33q-41 35 -43 35q-6 0 -27 -39 q-20 -39 -36 -39q-10 0 -11 12zM-27 125q0 -29 31 -68q31 -41 57 -41q95 0 95 160q0 66 -41 219q-25 84 -43 125q-18 -82 -43 -180t-56 -215z" />
<glyph unicode="&#xdf;" horiz-adv-x="411" d="M-76 -731q0 -2 17.5 208t52.5 636q4 37 6 84l43 479q16 141 36.5 259t47.5 216q68 244 168 244q31 0 54.5 -17.5t38.5 -43t21.5 -56.5t4.5 -61q0 -195 -162 -455q-45 -70 -45 -117q0 -10 4 -27q8 -41 65 -141q20 12 60 19q39 8 55 0q23 -10 29 -31q2 -4 -14 -8q2 2 -35 2 q-18 2 -27 -2q-12 -10 -15 -17.5t-14 -29.5q51 -84 68 -154q23 -94 4 -156q-12 -43 -43 -84q-37 -43 -74 -43t-69.5 40t-42.5 87q-8 25 -8 62q0 129 96 274q-29 55 -60 107q-37 70 -36 112q0 53 75 172q129 203 129 377q0 23 -4 43q-14 45 -51 45t-80 -100 q-16 -41 -28.5 -76t-18.5 -67q-90 -459 -117 -959q0 -10 -1 -24.5t-3 -34.5q-10 -98 -18 -196.5t-17 -199.5q-35 -381 -39 -380q-51 0 -53 14zM195 176q0 -14 4 -35q29 -121 75 -121q66 0 66 142q0 35 -6 63q-9 44 -60 148q-80 -84 -79 -197z" />
<glyph unicode="&#xe0;" d="M-49 258q4 80 51 266q59 213 100 213q92 0 115 -47l37 -74l72 -24q-51 -150 -70 -367q-4 -47 8 -98q16 -72 51 -72q70 0 191 504q12 47 29 47q16 0 16 -31q0 -76 -76 -309q-86 -266 -147 -266q-76 0 -125 150q-53 -190 -137 -191q-121 0 -115 299zM-16 1192q0 35 39 43 q45 8 69 -31q4 -4 16.5 -16t32.5 -31q51 -49 52 -63q0 -8 -11 -29l-12 -12l-94 55q-4 2 -13.5 7t-23.5 13q-55 33 -55 64zM14 117q0 -35 15 -66q18 -39 47 -39q39 23 82 158q16 53 28.5 99t16.5 83l24 189l-24 32q-8 94 -51 95q-35 0 -62 -99q-8 -23 -18.5 -59.5 t-24.5 -83.5q-33 -125 -33 -309z" />
<glyph unicode="&#xe1;" d="M-49 258q4 80 51 266q59 213 100 213q92 0 115 -47l37 -74l72 -24q-51 -150 -70 -367q-4 -47 8 -98q16 -72 51 -72q70 0 191 504q12 47 29 47q16 0 16 -31q0 -76 -76 -309q-86 -266 -147 -266q-76 0 -125 150q-53 -190 -137 -191q-121 0 -115 299zM14 117q0 -35 15 -66 q18 -39 47 -39q39 23 82 158q16 53 28.5 99t16.5 83l24 189l-24 32q-8 94 -51 95q-35 0 -62 -99q-8 -23 -18.5 -59.5t-24.5 -83.5q-33 -125 -33 -309zM248 1094q0 14 51 63l18.5 18.5t30.5 28.5q25 39 70 31q25 -4 33 -18.5t8 -24.5q0 -31 -58 -64q-4 -4 -13 -8t-23 -12 l-95 -55l-10 16q-12 14 -12 25z" />
<glyph unicode="&#xe2;" d="M-49 258q4 80 51 266q59 213 100 213q92 0 115 -47l37 -74l72 -24q-51 -150 -70 -367q-4 -47 8 -98q16 -72 51 -72q70 0 191 504q12 47 29 47q16 0 16 -31q0 -76 -76 -309q-86 -266 -147 -266q-76 0 -125 150q-53 -190 -137 -191q-121 0 -115 299zM14 117q0 -35 15 -66 q18 -39 47 -39q39 23 82 158q16 53 28.5 99t16.5 83l24 189l-24 32q-8 94 -51 95q-35 0 -62 -99q-8 -23 -18.5 -59.5t-24.5 -83.5q-33 -125 -33 -309zM139 1116q6 29 66 84q57 55 84 55q14 2 65 -73q51 -78 56 -111q1 -8 -11 -18q-12 0 -32 30q-6 10 -15.5 25.5t-19.5 36.5 q-20 33 -49 33t-62 -33q-6 -6 -16 -16.5t-20.5 -19.5t-19.5 -14t-15 -3q-14 6 -11 24z" />
<glyph unicode="&#xe3;" d="M-49 258q4 80 51 266q59 213 100 213q92 0 115 -47l37 -74l72 -24q-51 -150 -70 -367q-4 -47 8 -98q16 -72 51 -72q70 0 191 504q12 47 29 47q16 0 16 -31q0 -76 -76 -309q-86 -266 -147 -266q-76 0 -125 150q-53 -190 -137 -191q-121 0 -115 299zM14 117q0 -35 15 -66 q18 -39 47 -39q39 23 82 158q16 53 28.5 99t16.5 83l24 189l-24 32q-8 94 -51 95q-35 0 -62 -99q-8 -23 -18.5 -59.5t-24.5 -83.5q-33 -125 -33 -309zM88 1155q0 80 53 92q35 8 107 -53q16 -18 35.5 -39.5t44.5 -28.5q4 -2 12 -2q23 0 70 78q4 4 6 7l2 3q8 -6 8 -32 q0 -53 -28.5 -92t-55.5 -39q-6 0 -14 4q-16 10 -41 30.5t-54 51.5q-41 55 -77 55q-27 0 -39 -41q-10 -31 -19 -31q-10 0 -10 37z" />
<glyph unicode="&#xe4;" d="M-49 258q4 80 51 266q59 213 100 213q92 0 115 -47l37 -74l72 -24q-51 -150 -70 -367q-4 -47 8 -98q16 -72 51 -72q70 0 191 504q12 47 29 47q16 0 16 -31q0 -76 -76 -309q-86 -266 -147 -266q-76 0 -125 150q-53 -190 -137 -191q-121 0 -115 299zM14 117q0 -35 15 -66 q18 -39 47 -39q39 23 82 158q16 53 28.5 99t16.5 83l24 189l-24 32q-8 94 -51 95q-35 0 -62 -99q-8 -23 -18.5 -59.5t-24.5 -83.5q-33 -125 -33 -309zM41 1143q0 20 21.5 42.5t41.5 22.5q70 1 70 -75t-51 -76q-33 0 -57.5 26.5t-24.5 59.5zM199 1145q0 20 21.5 42.5 t41.5 22.5q70 1 70 -75t-51 -76q-33 0 -57.5 26.5t-24.5 59.5z" />
<glyph unicode="&#xe5;" d="M-49 258q4 80 51 266q59 213 100 213q92 0 115 -47l37 -74l72 -24q-51 -150 -70 -367q-4 -47 8 -98q16 -72 51 -72q70 0 191 504q12 47 29 47q16 0 16 -31q0 -76 -76 -309q-86 -266 -147 -266q-76 0 -125 150q-53 -190 -137 -191q-121 0 -115 299zM14 117q0 -35 15 -66 q18 -39 47 -39q39 23 82 158q16 53 28.5 99t16.5 83l24 189l-24 32q-8 94 -51 95q-35 0 -62 -99q-8 -23 -18.5 -59.5t-24.5 -83.5q-33 -125 -33 -309zM221 1126q-12 66 41 150q55 82 121 82q68 0 84 -74q10 -70 -47 -149q-56 -82 -117 -82q-68 0 -82 73zM274 1149 q6 -35 35 -35q39 0 72 51q35 53 29 90t-43 37q-33 0 -68 -53q-31 -53 -25 -90z" />
<glyph unicode="&#xe6;" horiz-adv-x="946" d="M-49 258q4 80 51 266q59 213 100 213q92 0 115 -47l37 -74l72 -24q-51 -150 -70 -367q-4 -47 8 -98q16 -72 51 -72q57 0 191 504l2 8q49 184 106 185q43 0 80 -31t37 -74q0 -152 -88 -340q-35 -78 -86 -157q0 -35 35 -80q33 -43 70 -43q98 0 221 467q31 117 39 116 q26 1 26 -24q0 -14 -30 -137q-78 -307 -154 -412q-47 -59 -109 -60q-86 0 -139 97q-43 80 -43 174v12q-82 -260 -145 -260q-76 0 -125 150q-53 -190 -137 -191q-121 0 -115 299zM14 117q0 -35 15 -66q18 -39 47 -39q39 23 82 158q16 53 28.5 99t16.5 83l24 189l-24 32 q-8 94 -51 95q-35 0 -62 -99q-8 -23 -18.5 -59.5t-24.5 -83.5q-33 -125 -33 -309zM547 225q47 29 90 185q39 135 39 215q0 70 -29 69q-16 0 -24 -26q-76 -227 -76 -443z" />
<glyph unicode="&#xe7;" horiz-adv-x="337" d="M-20 287q0 109 38 262q51 199 125 199q29 0 64 -43q35 -45 35 -74q0 -49 -35 -49q-27 0 -74 34q-84 -102 -84 -405q0 -47 17 -96q20 -63 63 -64q117 0 219 441q16 76 19 83q8 31 26 31q16 0 17 -35q0 -33 -37 -168q-23 -82 -40.5 -139t-31.5 -92q-68 -172 -141 -180 q-70 -76 -70 -101q0 -8 6 -10q61 -33 70 -94q8 -51 -60 -82q-106 -49 -106 -51t-4 -2q-8 0 -12 29q-2 27 0 34q16 4 31.5 9.5t31.5 9.5q51 14 47 49q-4 27 -30.5 32t-55.5 9q-6 6 -8 12q0 14 2 21q10 14 34.5 49t63.5 94q-121 43 -120 287z" />
<glyph unicode="&#xe8;" horiz-adv-x="389" d="M-70 1192q0 33 41 43q43 8 68 -31q4 -4 16.5 -16t32.5 -31q51 -49 51 -63q0 -8 -10 -29l-12 -12l-94 55q-4 2 -12.5 7t-22.5 13q-57 33 -58 64zM-12 244q0 63 6 132.5t20 147.5q39 223 113 224q43 0 80 -31t37 -74q0 -152 -88 -340q-35 -78 -86 -158q0 -35 34 -79 q33 -43 70 -43q98 0 221 466q31 117 39 117q27 1 27 -24q0 -14 -31 -138q-78 -307 -154 -411q-47 -59 -108 -60q-86 0 -139 97q-41 82 -41 174zM59 221q47 29 91 185q38 135 38 215q0 70 -28 69q-16 0 -25 -26q-76 -227 -76 -443z" />
<glyph unicode="&#xe9;" horiz-adv-x="389" d="M-12 244q0 63 6 132.5t20 147.5q39 223 113 224q43 0 80 -31t37 -74q0 -152 -88 -340q-35 -78 -86 -158q0 -35 34 -79q33 -43 70 -43q98 0 221 466q31 117 39 117q27 1 27 -24q0 -14 -31 -138q-78 -307 -154 -411q-47 -59 -108 -60q-86 0 -139 97q-41 82 -41 174zM59 221 q47 29 91 185q38 135 38 215q0 70 -28 69q-16 0 -25 -26q-76 -227 -76 -443zM248 1094q0 14 51 63l18.5 18.5t30.5 28.5q25 39 70 31q25 -4 33 -18.5t8 -24.5q0 -31 -58 -64q-4 -4 -13 -8t-23 -12l-95 -55l-10 16q-12 14 -12 25z" />
<glyph unicode="&#xea;" horiz-adv-x="389" d="M-12 244q0 63 6 132.5t20 147.5q39 223 113 224q43 0 80 -31t37 -74q0 -152 -88 -340q-35 -78 -86 -158q0 -35 34 -79q33 -43 70 -43q98 0 221 466q31 117 39 117q27 1 27 -24q0 -14 -31 -138q-78 -307 -154 -411q-47 -59 -108 -60q-86 0 -139 97q-41 82 -41 174zM59 221 q47 29 91 185q38 135 38 215q0 70 -28 69q-16 0 -25 -26q-76 -227 -76 -443zM113 1116q6 29 65 84q57 55 84 55q14 2 66 -73q51 -78 55 -111q2 -8 -10 -18q-12 0 -33 30q-6 10 -15.5 25.5t-19.5 36.5q-20 33 -49 33t-61 -33l-16.5 -16.5t-21 -19.5t-19.5 -14t-15 -3 q-14 6 -10 24z" />
<glyph unicode="&#xeb;" horiz-adv-x="389" d="M-12 244q0 63 6 132.5t20 147.5q39 223 113 224q43 0 80 -31t37 -74q0 -152 -88 -340q-35 -78 -86 -158q0 -35 34 -79q33 -43 70 -43q98 0 221 466q31 117 39 117q27 1 27 -24q0 -14 -31 -138q-78 -307 -154 -411q-47 -59 -108 -60q-86 0 -139 97q-41 82 -41 174z M41 1143q0 20 21.5 42.5t41.5 22.5q70 1 70 -75t-51 -76q-33 0 -57.5 26.5t-24.5 59.5zM59 221q47 29 91 185q38 135 38 215q0 70 -28 69q-16 0 -25 -26q-76 -227 -76 -443zM199 1145q0 20 21.5 42.5t41.5 22.5q70 1 70 -75t-51 -76q-33 0 -57.5 26.5t-24.5 59.5z" />
<glyph unicode="&#xec;" horiz-adv-x="270" d="M-129 1192q0 33 41 43q45 8 70 -31l47 -47q51 -49 51 -63q0 -8 -10 -29l-13 -12l-92 55q-4 2 -13 7t-24 13q-57 33 -57 64zM-12 205q0 37 4 92t12 131t12 132t4 93q14 14 41 15q53 0 54 -29l-11.5 -46t-17.5 -75q-39 -186 -39 -317q0 -137 62 -138q29 0 69 103 q2 2 68 209q10 33 22.5 78t26.5 104q12 49 29 49q18 1 18 -28q0 -51 -72 -285q-53 -168 -67 -201q-41 -90 -99 -90q-63 0 -94 74q-23 61 -22 129z" />
<glyph unicode="&#xed;" horiz-adv-x="270" d="M-12 205q0 37 4 92t12 131t12 132t4 93q14 14 41 15q53 0 54 -29l-11.5 -46t-17.5 -75q-39 -186 -39 -317q0 -137 62 -138q29 0 69 103q2 2 68 209q10 33 22.5 78t26.5 104q12 49 29 49q18 1 18 -28q0 -51 -72 -285q-53 -168 -67 -201q-41 -90 -99 -90q-63 0 -94 74 q-23 61 -22 129zM154 1094q0 14 51 63l18.5 18.5t30.5 28.5q25 39 70 31q25 -4 33 -18.5t8 -24.5q0 -31 -58 -64q-4 -4 -13 -8t-24 -12l-94 -55l-10 16q-12 14 -12 25z" />
<glyph unicode="&#xee;" horiz-adv-x="270" d="M-12 205q0 37 4 92t12 131t12 132t4 93q14 14 41 15q53 0 54 -29l-11.5 -46t-17.5 -75q-39 -186 -39 -317q0 -137 62 -138q29 0 69 103q2 2 68 209q10 33 22.5 78t26.5 104q12 49 29 49q18 1 18 -28q0 -51 -72 -285q-53 -168 -67 -201q-41 -90 -99 -90q-63 0 -94 74 q-23 61 -22 129zM4 1116q6 29 66 84q57 55 84 55q14 2 65 -73q51 -78 55 -111q2 -8 -10 -18q-12 0 -33 30q-6 10 -15 25.5t-19 36.5q-20 33 -50 33q-29 0 -61 -33l-16.5 -16.5t-20.5 -19.5t-19.5 -14t-15.5 -3q-14 6 -10 24z" />
<glyph unicode="&#xef;" horiz-adv-x="270" d="M-47 1137q0 20 21.5 42.5t39.5 22.5q70 0 70 -76t-51 -75q-33 0 -56.5 26.5t-23.5 59.5zM-12 205q0 37 4 92t12 131t12 132t4 93q14 14 41 15q53 0 54 -29l-11.5 -46t-17.5 -75q-39 -186 -39 -317q0 -137 62 -138q29 0 69 103q2 2 68 209q10 33 22.5 78t26.5 104 q12 49 29 49q18 1 18 -28q0 -51 -72 -285q-53 -168 -67 -201q-41 -90 -99 -90q-63 0 -94 74q-23 61 -22 129zM109 1139q0 20 21.5 42.5t41.5 22.5q70 0 70 -76t-52 -75q-33 0 -57 26.5t-24 59.5z" />
<glyph unicode="&#xf0;" horiz-adv-x="407" d="M-27 88q0 20 27 53q12 16 18.5 26.5t8.5 14.5q-20 80 -21 168q0 98 8.5 211t24.5 248q37 291 90 448q10 139 70 140q133 0 133 -178q0 -311 -74 -609q-23 -90 -51.5 -171t-63.5 -154q-6 -20 -49 -103q0 -37 41 -90q43 -51 78 -51q76 0 193 405q4 20 11 49t17 68 q8 43 27 43q18 0 18 -31q0 -80 -82 -319q-94 -285 -188 -285q-76 0 -166 140q-45 -35 -53 -35q-16 0 -17 12zM70 420q0 -25 3 -59.5t11 -79.5q88 172 141 415q45 217 45 439q1 153 -32 186q-84 -238 -129 -526q-39 -231 -39 -375z" />
<glyph unicode="&#xf1;" horiz-adv-x="579" d="M23 526q2 55 10 74q12 33 51 33q41 0 41 -37q0 -12 -14 -53q-12 -41 -13 -66v-47q0 -27 -2 -63q-2 -37 -2 -66v-45q0 -147 33 -147q10 0 27 53q29 119 43 155q29 92 47 170t22 148q6 86 29 102q104 -6 104 -65q0 45 -6 16t-16 -133q-10 -102 -15.5 -166.5t-5.5 -93.5 q0 -221 58 -221q49 0 118 217q20 63 38 125.5t32 126.5q14 63 33 63q16 0 16 -31q0 -57 -71 -278q-98 -297 -158 -297q-76 0 -105 145q-8 41 -14 128t-12 225q-10 -37 -38 -136.5t-69 -265.5q-20 -88 -63 -88q-63 0 -78 86l-8 154q-6 90 0 164l6 75zM88 1155q0 80 53 92 q35 8 107 -53q16 -18 35.5 -39.5t44.5 -28.5q4 -2 12 -2q23 0 70 78q4 4 6 7l2 3q8 -6 8 -32q0 -53 -28.5 -92t-55.5 -39q-6 0 -14 4q-16 10 -41 30.5t-54 51.5q-41 55 -77 55q-27 0 -39 -41q-10 -31 -19 -31q-10 0 -10 37z" />
<glyph unicode="&#xf2;" horiz-adv-x="505" d="M-70 1192q0 33 41 43q43 8 68 -31q4 -4 16.5 -16t32.5 -31q51 -49 51 -63q0 -8 -10 -29l-12 -12l-94 55q-4 2 -12.5 7t-22.5 13q-57 33 -58 64zM0 287q0 195 33 262q0 -6 0 -4q0 4 -2 18t-2 23v14q2 18 12 29q4 10 8 30.5t12 55.5q14 70 70 69q53 0 111 -45 q59 -45 75 -92q16 -49 17 -297q29 -23 51 -22q72 0 107 80q16 31 43 161q8 37 24 37q19 0 19 -18q0 -90 -54 -213q-47 -109 -125 -109q-10 0 -71 25q-4 -23 -10.5 -51.5t-14.5 -63.5q-16 -47 -29.5 -80t-23.5 -49q-41 -66 -100 -65q-150 0 -150 305zM70 262q0 -221 90 -221 q23 0 59 82q49 107 49 162q0 23 -4 55.5t-12 75.5t-12 74.5t-4 54.5q0 14 3 45t3 45q0 72 -66 72q-43 0 -76 -193q-31 -166 -30 -252z" />
<glyph unicode="&#xf3;" horiz-adv-x="505" d="M0 287q0 195 33 262q0 -6 0 -4q0 4 -2 18t-2 23v14q2 18 12 29q4 10 8 30.5t12 55.5q14 70 70 69q53 0 111 -45q59 -45 75 -92q16 -49 17 -297q29 -23 51 -22q72 0 107 80q16 31 43 161q8 37 24 37q19 0 19 -18q0 -90 -54 -213q-47 -109 -125 -109q-10 0 -71 25 q-4 -23 -10.5 -51.5t-14.5 -63.5q-16 -47 -29.5 -80t-23.5 -49q-41 -66 -100 -65q-150 0 -150 305zM70 262q0 -221 90 -221q23 0 59 82q49 107 49 162q0 23 -4 55.5t-12 75.5t-12 74.5t-4 54.5q0 14 3 45t3 45q0 72 -66 72q-43 0 -76 -193q-31 -166 -30 -252zM248 1094 q0 14 51 63l18.5 18.5t30.5 28.5q25 39 70 31q25 -4 33 -18.5t8 -24.5q0 -31 -58 -64q-4 -4 -13 -8t-23 -12l-95 -55l-10 16q-12 14 -12 25z" />
<glyph unicode="&#xf4;" horiz-adv-x="505" d="M0 287q0 195 33 262q0 -6 0 -4q0 4 -2 18t-2 23v14q2 18 12 29q4 10 8 30.5t12 55.5q14 70 70 69q53 0 111 -45q59 -45 75 -92q16 -49 17 -297q29 -23 51 -22q72 0 107 80q16 31 43 161q8 37 24 37q19 0 19 -18q0 -90 -54 -213q-47 -109 -125 -109q-10 0 -71 25 q-4 -23 -10.5 -51.5t-14.5 -63.5q-16 -47 -29.5 -80t-23.5 -49q-41 -66 -100 -65q-150 0 -150 305zM70 262q0 -221 90 -221q23 0 59 82q49 107 49 162q0 23 -4 55.5t-12 75.5t-12 74.5t-4 54.5q0 14 3 45t3 45q0 72 -66 72q-43 0 -76 -193q-31 -166 -30 -252zM139 1116 q6 29 66 84q57 55 84 55q14 2 65 -73q51 -78 56 -111q1 -8 -11 -18q-12 0 -32 30q-6 10 -15.5 25.5t-19.5 36.5q-20 33 -49 33t-62 -33q-6 -6 -16 -16.5t-20.5 -19.5t-19.5 -14t-15 -3q-14 6 -11 24z" />
<glyph unicode="&#xf5;" horiz-adv-x="505" d="M0 287q0 195 33 262q0 -6 0 -4q0 4 -2 18t-2 23v14q2 18 12 29q4 10 8 30.5t12 55.5q14 70 70 69q53 0 111 -45q59 -45 75 -92q16 -49 17 -297q29 -23 51 -22q72 0 107 80q16 31 43 161q8 37 24 37q19 0 19 -18q0 -90 -54 -213q-47 -109 -125 -109q-10 0 -71 25 q-4 -23 -10.5 -51.5t-14.5 -63.5q-16 -47 -29.5 -80t-23.5 -49q-41 -66 -100 -65q-150 0 -150 305zM70 262q0 -221 90 -221q23 0 59 82q49 107 49 162q0 23 -4 55.5t-12 75.5t-12 74.5t-4 54.5q0 14 3 45t3 45q0 72 -66 72q-43 0 -76 -193q-31 -166 -30 -252zM88 1155 q0 80 53 92q35 8 107 -53q16 -18 35.5 -39.5t44.5 -28.5q4 -2 12 -2q23 0 70 78q4 4 6 7l2 3q8 -6 8 -32q0 -53 -28.5 -92t-55.5 -39q-6 0 -14 4q-16 10 -41 30.5t-54 51.5q-41 55 -77 55q-27 0 -39 -41q-10 -31 -19 -31q-10 0 -10 37z" />
<glyph unicode="&#xf6;" horiz-adv-x="505" d="M0 287q0 195 33 262q0 -6 0 -4q0 4 -2 18t-2 23v14q2 18 12 29q4 10 8 30.5t12 55.5q14 70 70 69q53 0 111 -45q59 -45 75 -92q16 -49 17 -297q29 -23 51 -22q72 0 107 80q16 31 43 161q8 37 24 37q19 0 19 -18q0 -90 -54 -213q-47 -109 -125 -109q-10 0 -71 25 q-4 -23 -10.5 -51.5t-14.5 -63.5q-16 -47 -29.5 -80t-23.5 -49q-41 -66 -100 -65q-150 0 -150 305zM41 1143q0 20 21.5 42.5t41.5 22.5q70 1 70 -75t-51 -76q-33 0 -57.5 26.5t-24.5 59.5zM70 262q0 -221 90 -221q23 0 59 82q49 107 49 162q0 23 -4 55.5t-12 75.5t-12 74.5 t-4 54.5q0 14 3 45t3 45q0 72 -66 72q-43 0 -76 -193q-31 -166 -30 -252zM199 1145q0 20 21.5 42.5t41.5 22.5q70 1 70 -75t-51 -76q-33 0 -57.5 26.5t-24.5 59.5z" />
<glyph unicode="&#xf7;" horiz-adv-x="1228" d="M109 469v98h1011v-98h-1011zM502 86q0 47 33.5 81t78.5 34t79 -35t34 -80q0 -43 -34 -78t-77 -35q-47 0 -80.5 34t-33.5 79zM502 950q0 47 33.5 81t78.5 34t79 -35t34 -80q0 -43 -34 -78.5t-77 -35.5q-47 0 -80.5 34.5t-33.5 79.5z" />
<glyph unicode="&#xf8;" horiz-adv-x="591" d="M-35 215l117 86q4 182 33 248q0 -6 0 -4q0 4 -2 18t-2 23v14q2 18 12 29q4 10 8 30.5t12 55.5q14 70 70 69q53 0 111 -45q63 -47 77 -94q4 -10 6.5 -35.5t4.5 -66.5l88 63l30 -43l-116 -84q2 -29 2 -61v-68q29 -23 51 -22q72 0 106 80q16 31 43 161q8 37 25 37 q18 0 18 -18q0 -90 -53 -213q-47 -109 -125 -109q-10 0 -71 25q-4 -23 -10.5 -51.5t-14.5 -63.5q-16 -47 -29.5 -80t-23.5 -49q-41 -66 -101 -65q-137 0 -149 256l-88 -66zM152 262q0 -221 90 -221q23 0 59 82q49 106 49 162q0 27 -3 61.5t-11 75.5l-184 -133v-27zM158 356 l168 123q-4 25 -6.5 41.5t-2.5 24.5q0 14 3.5 45t3.5 45q0 72 -66 72q-43 0 -76 -193q-8 -47 -14 -86t-10 -72z" />
<glyph unicode="&#xf9;" horiz-adv-x="565" d="M-70 1192q0 33 41 43q43 8 68 -31q4 -4 16.5 -16t32.5 -31q51 -49 51 -63q0 -8 -10 -29l-12 -12l-94 55q-4 2 -12.5 7t-22.5 13q-57 33 -58 64zM14 154q0 43 2 105.5t7 146.5q8 209 22 231q10 16 35 16q20 0 36.5 -17.5t16.5 -37.5t-8 -47q-4 -20 -7 -31.5t-5 -15.5 q-14 -80 -21.5 -175.5t-7.5 -205.5q0 -90 39 -90q31 0 57 51q10 20 18.5 39.5t16.5 40.5q45 106 68 266q2 4 5 26.5t9 61.5q4 29 7 50.5t3 37.5v66q0 20 -2 12q6 53 41 49q59 0 60 -33q0 -10 -11.5 -33.5t-13.5 -41.5q0 -8 -5 -46t-16 -108q-8 -57 -12 -104.5t-4 -83.5 q0 -195 59 -195q55 0 119 217q25 88 74 270q8 31 25 31q16 0 16 -24q0 -72 -70 -287q-86 -272 -170 -272q-45 0 -78 67q-8 12 -36 107q-14 -35 -30.5 -73t-33.5 -79q-37 -63 -96 -63q-53 0 -84 61q-25 51 -25 111z" />
<glyph unicode="&#xfa;" horiz-adv-x="565" d="M14 154q0 43 2 105.5t7 146.5q8 209 22 231q10 16 35 16q20 0 36.5 -17.5t16.5 -37.5t-8 -47q-4 -20 -7 -31.5t-5 -15.5q-14 -80 -21.5 -175.5t-7.5 -205.5q0 -90 39 -90q31 0 57 51q10 20 18.5 39.5t16.5 40.5q45 106 68 266q2 4 5 26.5t9 61.5q4 29 7 50.5t3 37.5v66 q0 20 -2 12q6 53 41 49q59 0 60 -33q0 -10 -11.5 -33.5t-13.5 -41.5q0 -8 -5 -46t-16 -108q-8 -57 -12 -104.5t-4 -83.5q0 -195 59 -195q55 0 119 217q25 88 74 270q8 31 25 31q16 0 16 -24q0 -72 -70 -287q-86 -272 -170 -272q-45 0 -78 67q-8 12 -36 107 q-14 -35 -30.5 -73t-33.5 -79q-37 -63 -96 -63q-53 0 -84 61q-25 51 -25 111zM248 1094q0 14 51 63l18.5 18.5t30.5 28.5q25 39 70 31q25 -4 33 -18.5t8 -24.5q0 -31 -58 -64q-4 -4 -13 -8t-23 -12l-95 -55l-10 16q-12 14 -12 25z" />
<glyph unicode="&#xfb;" horiz-adv-x="565" d="M14 154q0 43 2 105.5t7 146.5q8 209 22 231q10 16 35 16q20 0 36.5 -17.5t16.5 -37.5t-8 -47q-4 -20 -7 -31.5t-5 -15.5q-14 -80 -21.5 -175.5t-7.5 -205.5q0 -90 39 -90q31 0 57 51q10 20 18.5 39.5t16.5 40.5q45 106 68 266q2 4 5 26.5t9 61.5q4 29 7 50.5t3 37.5v66 q0 20 -2 12q6 53 41 49q59 0 60 -33q0 -10 -11.5 -33.5t-13.5 -41.5q0 -8 -5 -46t-16 -108q-8 -57 -12 -104.5t-4 -83.5q0 -195 59 -195q55 0 119 217q25 88 74 270q8 31 25 31q16 0 16 -24q0 -72 -70 -287q-86 -272 -170 -272q-45 0 -78 67q-8 12 -36 107 q-14 -35 -30.5 -73t-33.5 -79q-37 -63 -96 -63q-53 0 -84 61q-25 51 -25 111zM119 1116q6 29 65 84q57 55 84 55q14 2 66 -73q51 -78 55 -111q2 -8 -10 -18q-12 0 -33 30q-6 10 -15 25.5t-20 36.5q-20 33 -49 33t-61 -33l-16.5 -16.5t-20.5 -19.5t-19.5 -14t-15.5 -3 q-14 6 -10 24z" />
<glyph unicode="&#xfc;" horiz-adv-x="565" d="M14 154q0 43 2 105.5t7 146.5q8 209 22 231q10 16 35 16q20 0 36.5 -17.5t16.5 -37.5t-8 -47q-4 -20 -7 -31.5t-5 -15.5q-14 -80 -21.5 -175.5t-7.5 -205.5q0 -90 39 -90q31 0 57 51q10 20 18.5 39.5t16.5 40.5q45 106 68 266q2 4 5 26.5t9 61.5q4 29 7 50.5t3 37.5v66 q0 20 -2 12q6 53 41 49q59 0 60 -33q0 -10 -11.5 -33.5t-13.5 -41.5q0 -8 -5 -46t-16 -108q-8 -57 -12 -104.5t-4 -83.5q0 -195 59 -195q55 0 119 217q25 88 74 270q8 31 25 31q16 0 16 -24q0 -72 -70 -287q-86 -272 -170 -272q-45 0 -78 67q-8 12 -36 107 q-14 -35 -30.5 -73t-33.5 -79q-37 -63 -96 -63q-53 0 -84 61q-25 51 -25 111zM41 1143q0 20 21.5 42.5t41.5 22.5q70 1 70 -75t-51 -76q-33 0 -57.5 26.5t-24.5 59.5zM199 1145q0 20 21.5 42.5t41.5 22.5q70 1 70 -75t-51 -76q-33 0 -57.5 26.5t-24.5 59.5z" />
<glyph unicode="&#xfd;" horiz-adv-x="491" d="M-197 14q0 16 12.5 23.5t22.5 11.5q37 0 105 207q23 66 43 141.5t41 161.5q12 47 28 47t17 -31q0 -63 -80 -311q-90 -268 -142 -268q-47 0 -47 18zM-172 -592q0 150 184 283q145 102 279 131q0 219 -31 342q-8 -20 -21.5 -49t-31.5 -68q-35 -66 -84 -65q-66 0 -98 67 q-27 53 -27 125q0 100 18 291q2 29 4.5 59.5t4.5 61.5q14 92 53 92q35 0 31 -29l-23 -209q-8 -82 -12 -143t-4 -104q0 -166 53 -166t133 307q6 51 18.5 143t28.5 230q6 51 55 53q33 2 33 -27q0 -47 -43 -201q-10 -39 -14 -141t-2 -274q0 -59 6 -185l4 -90q10 2 30.5 7.5 t49.5 13.5q66 16 92 16q90 0 90 -47q0 -10 -6 -18q-47 8 -76.5 11t-44.5 3q-33 0 -125 -31q0 -12 1 -33.5t2 -44t2 -44t1 -33.5q0 -469 -301 -469q-49 0 -91 18t-72.5 50t-48 75t-17.5 92zM-111 -612q0 -33 11.5 -64t32 -55.5t48 -38.5t58.5 -14q133 0 203 149 q55 119 55 264v148q-180 -49 -301 -170q-106 -104 -107 -219zM248 1094q0 14 51 63l18.5 18.5t30.5 28.5q25 39 70 31q25 -4 33 -18.5t8 -24.5q0 -31 -58 -64q-4 -4 -13 -8t-23 -12l-95 -55l-10 16q-12 14 -12 25z" />
<glyph unicode="&#xfe;" horiz-adv-x="731" d="M47 -27q0 16 13.5 47t15.5 41q45 217 86 619q-33 80 -33 129q0 102 51 102q43 0 43 -80q0 -18 -3 -56t-3 -56q0 -23 86 -68q88 -45 88 -102q0 -29 -3 -75t-11 -112q-16 -121 -12 -186l-7 -18q0 -109 58 -109q33 0 90 168q35 104 55.5 179t28.5 124q-10 86 22 86 q20 0 21 -22q0 10 -3 -4.5t-7 -53.5q-14 -100 -33 -187t-45 -163q-61 -180 -125 -180q-45 0 -82 51q-35 53 -35 103l4 423q-66 66 -84 66q-25 0 -26 -31q2 6 2 -49q-20 -133 -49 -284.5t-64 -325.5q-39 -2 -39 24z" />
<glyph unicode="&#xff;" horiz-adv-x="491" d="M-197 14q0 16 12.5 23.5t22.5 11.5q37 0 105 207q23 66 43 141.5t41 161.5q12 47 28 47t17 -31q0 -63 -80 -311q-90 -268 -142 -268q-47 0 -47 18zM-172 -592q0 150 184 283q145 102 279 131q0 219 -31 342q-8 -20 -21.5 -49t-31.5 -68q-35 -66 -84 -65q-66 0 -98 67 q-27 53 -27 125q0 100 18 291q2 29 4.5 59.5t4.5 61.5q14 92 53 92q35 0 31 -29l-23 -209q-8 -82 -12 -143t-4 -104q0 -166 53 -166t133 307q6 51 18.5 143t28.5 230q6 51 55 53q33 2 33 -27q0 -47 -43 -201q-10 -39 -14 -141t-2 -274q0 -59 6 -185l4 -90q10 2 30.5 7.5 t49.5 13.5q66 16 92 16q90 0 90 -47q0 -10 -6 -18q-47 8 -76.5 11t-44.5 3q-33 0 -125 -31q0 -12 1 -33.5t2 -44t2 -44t1 -33.5q0 -469 -301 -469q-49 0 -91 18t-72.5 50t-48 75t-17.5 92zM-111 -612q0 -33 11.5 -64t32 -55.5t48 -38.5t58.5 -14q133 0 203 149 q55 119 55 264v148q-180 -49 -301 -170q-106 -104 -107 -219zM41 1143q0 20 21.5 42.5t41.5 22.5q70 1 70 -75t-51 -76q-33 0 -57.5 26.5t-24.5 59.5zM199 1145q0 20 21.5 42.5t41.5 22.5q70 1 70 -75t-51 -76q-33 0 -57.5 26.5t-24.5 59.5z" />
<glyph unicode="&#x152;" horiz-adv-x="1945" d="M0 483q0 201 47 412q55 242 156 381q16 25 33.5 49.5t33.5 46.5q49 61 92 62q10 0 48 -17q16 10 26 10q408 -27 408 -563q0 -135 -13 -252q82 80 246 164q-100 35 -149 78q-59 55 -60 150q0 207 316 311q223 74 481 74q94 0 131 -15q72 -23 72 -94q0 -61 -25 -61 q-25 23 -69 57q-35 18 -99 18q-223 0 -440 -61q-309 -88 -309 -254q0 -72 104 -111q74 -27 164 -26q27 0 190 12q72 4 116 7t61 1q27 -18 24 -61q-4 -43 -33 -53q-47 29 -71 28q-170 0 -373 -78q-231 -90 -297 -223q-2 -4 -8 -32.5t-19 -80.5q0 -166 209 -241 q150 -55 346 -55q78 0 199 20q137 20 191 49q135 70 135 86q0 4 -6 4v39q71 0 71 -43q0 -104 -254 -184q-203 -63 -344 -64q-256 0 -424 101q-123 76 -162 182q-119 -285 -346 -285q-195 0 -303 164q-96 145 -96 348zM109 487q0 -453 276 -452q383 -1 383 839q0 184 -53 314 q-74 176 -236 176q-158 0 -274 -352q-96 -293 -96 -525z" />
<glyph unicode="&#x153;" horiz-adv-x="974" d="M0 287q0 195 33 262q0 -6 0 -4q0 4 -2 18t-2 23v14q2 18 12 29q4 10 8 30.5t12 55.5q14 70 70 69q53 0 111 -45q59 -45 75 -92q16 -49 17 -297q29 -23 51 -22q72 0 107 80q16 31 43 161q2 4 2 9q0 4 2 8l4 12q43 154 98 154q43 0 80 -31t37 -74q0 -152 -88 -340 q-35 -78 -86 -157q0 -35 34 -80q33 -43 70 -43q98 0 221 467q31 117 39 116q27 1 27 -24q0 -14 -31 -137q-78 -307 -153 -412q-47 -59 -109 -60q-86 0 -139 97q-43 80 -43 174v43t2 41q-43 -66 -103 -66q-10 0 -71 25q-4 -23 -10.5 -51.5t-14.5 -63.5q-16 -47 -29.5 -80 t-23.5 -49q-41 -66 -100 -65q-150 0 -150 305zM70 262q0 -221 90 -221q23 0 59 82q49 107 49 162q0 23 -4 55.5t-12 75.5t-12 74.5t-4 54.5q0 14 3 45t3 45q0 72 -66 72q-43 0 -76 -193q-31 -166 -30 -252zM573 225q47 29 91 185q38 135 38 215q0 70 -28 69q-16 0 -25 -26 q-76 -227 -76 -443z" />
<glyph unicode="&#x178;" horiz-adv-x="823" d="M-121 -348q0 37 53 37q18 0 138 -95q119 -94 198 -94q358 0 359 596q0 53 -3 134t-12 192q-70 -205 -104 -266q-90 -160 -211 -160q-154 0 -223 135q-55 106 -56 272q0 59 6.5 149.5t16.5 213.5q25 242 25 362q0 12 -2.5 39t-2.5 39q0 63 37 64q16 0 101 -70 q0 -12 -11 -57q-8 -25 -11 -40.5t-5 -21.5q-29 -180 -44 -347t-15 -326q0 -362 166 -363q113 0 215 203q90 178 118 399q16 141 31.5 307t26.5 363q2 39 57 37q68 -2 70 -51q-25 -100 -41.5 -177t-24.5 -131q-16 -111 -24.5 -241.5t-8.5 -288.5q0 -45 3.5 -110.5t7.5 -153.5 q12 -176 12 -262q0 -172 -100 -324q-115 -170 -277 -170q-82 0 -262 66q-203 76 -203 141zM315 1661q0 20 21.5 42.5t42.5 22.5q70 1 70 -75t-52 -76q-33 0 -57.5 26.5t-24.5 59.5zM473 1663q0 20 21.5 43t42.5 23q69 0 69 -76t-51 -76q-33 0 -57.5 26.5t-24.5 59.5z" />
<glyph unicode="&#x2c6;" horiz-adv-x="389" d="M113 1116q6 29 65 84q57 55 84 55q14 2 66 -73q51 -78 55 -111q2 -8 -10 -18q-12 0 -33 30q-6 10 -15.5 25.5t-19.5 36.5q-20 33 -49 33t-61 -33l-16.5 -16.5t-21 -19.5t-19.5 -14t-15 -3q-14 6 -10 24z" />
<glyph unicode="&#x2dc;" d="M88 1155q0 80 53 92q35 8 107 -53q16 -18 35.5 -39.5t44.5 -28.5q4 -2 12 -2q23 0 70 78q4 4 6 7l2 3q8 -6 8 -32q0 -53 -28.5 -92t-55.5 -39q-6 0 -14 4q-16 10 -41 30.5t-54 51.5q-41 55 -77 55q-27 0 -39 -41q-10 -31 -19 -31q-10 0 -10 37z" />
<glyph unicode="&#x2000;" horiz-adv-x="941" />
<glyph unicode="&#x2001;" horiz-adv-x="1882" />
<glyph unicode="&#x2002;" horiz-adv-x="941" />
<glyph unicode="&#x2003;" horiz-adv-x="1882" />
<glyph unicode="&#x2004;" horiz-adv-x="627" />
<glyph unicode="&#x2005;" horiz-adv-x="470" />
<glyph unicode="&#x2006;" horiz-adv-x="313" />
<glyph unicode="&#x2007;" horiz-adv-x="313" />
<glyph unicode="&#x2008;" horiz-adv-x="235" />
<glyph unicode="&#x2009;" horiz-adv-x="376" />
<glyph unicode="&#x200a;" horiz-adv-x="104" />
<glyph unicode="&#x2010;" horiz-adv-x="600" d="M100 365q0 37 45 45l107 10q27 2 76 4t123 6q10 2 24 3t35 5q33 6 33 -8q0 -20 -27 -37.5t-51 -21.5q-59 -2 -118.5 -4t-119.5 -7q-14 -2 -36.5 -3t-51.5 -5q-39 -2 -39 13z" />
<glyph unicode="&#x2011;" horiz-adv-x="600" d="M100 365q0 37 45 45l107 10q27 2 76 4t123 6q10 2 24 3t35 5q33 6 33 -8q0 -20 -27 -37.5t-51 -21.5q-59 -2 -118.5 -4t-119.5 -7q-14 -2 -36.5 -3t-51.5 -5q-39 -2 -39 13z" />
<glyph unicode="&#x2012;" horiz-adv-x="600" d="M100 365q0 37 45 45l107 10q27 2 76 4t123 6q10 2 24 3t35 5q33 6 33 -8q0 -20 -27 -37.5t-51 -21.5q-59 -2 -118.5 -4t-119.5 -7q-14 -2 -36.5 -3t-51.5 -5q-39 -2 -39 13z" />
<glyph unicode="&#x2013;" horiz-adv-x="614" d="M8 365q0 37 45 45q23 8 107 10q53 2 140 4t210 6q10 2 24.5 3t34.5 5q33 6 33 -8q0 -20 -26.5 -37.5t-51.5 -21.5q-113 -2 -209 -4t-180 -7q-14 -2 -36.5 -3t-51.5 -5q-39 -2 -39 13z" />
<glyph unicode="&#x2014;" horiz-adv-x="1228" d="M53 365q0 37 45 45q12 4 39 6t68 4q16 0 483 -6q297 -6 479 24q33 6 33 -8q0 -20 -26.5 -37.5t-51.5 -21.5q-152 -2 -385 -4t-557 -7q-14 -2 -36.5 -3t-51.5 -5q-39 -2 -39 13z" />
<glyph unicode="&#x2018;" horiz-adv-x="258" d="M27 1350q61 2 71 -29q14 -51 40 -136t63 -208q6 -23 -33 -23q-31 0 -33 19q-4 23 -22.5 78t-46.5 143q-43 127 -39 156z" />
<glyph unicode="&#x2019;" horiz-adv-x="258" d="M82 1057q41 88 117 334q51 -33 51 -70q0 -45 -80 -205q-35 -92 -55 -92q-31 0 -33 33z" />
<glyph unicode="&#x201a;" horiz-adv-x="258" d="M82 -68q39 82 117 332q51 -32 51 -69q0 -47 -80 -203q-35 -92 -55 -92q-31 0 -33 32z" />
<glyph unicode="&#x201c;" horiz-adv-x="507" d="M106 1350q61 0 72 -29q16 -57 42 -142t61 -202q0 -25 -35 -25q-29 0 -31 21q-4 20 -21.5 73.5t-48.5 141.5q-43 123 -39 162zM211 1411q25 0 38 -3t21.5 -12.5t11.5 -26.5t9 -44q18 -59 40.5 -137t49.5 -174q-18 -2 -29.5 -3t-15.5 -1q-20 2 -27 28q-27 92 -51.5 185.5 t-46.5 187.5z" />
<glyph unicode="&#x201d;" horiz-adv-x="507" d="M98 1024q0 29 107 209q8 29 22.5 69.5t36.5 98.5q39 -25 37 -37q-6 -51 -94 -236q-61 -133 -80 -133q-29 0 -29 29zM203 977q0 12 37 90l69 147q8 29 24.5 68t39.5 90q39 -29 37 -37q-16 -88 -58 -176q-23 -41 -43 -81t-41 -81q-20 -45 -41 -45q-25 0 -24 25z" />
<glyph unicode="&#x201e;" horiz-adv-x="507" d="M98 -100q0 31 107 206q8 29 22.5 70t36.5 98q39 -24 37 -36q-6 -51 -94 -236q-61 -131 -80 -131q-29 0 -29 29zM203 -147q0 12 37 90l69 145q8 29 24.5 68t39.5 90q39 -29 37 -37q-16 -88 -58 -176q-23 -41 -43 -81t-41 -81q-23 -43 -41 -43q-25 0 -24 25z" />
<glyph unicode="&#x2022;" horiz-adv-x="811" d="M102 610q0 381 357 381q150 0 205 -96q36 -66 36 -209q0 -152 -104 -262q-104 -109 -256 -109q-109 0 -176 97q-61 82 -62 198z" />
<glyph unicode="&#x2026;" horiz-adv-x="1228" d="M143 39q0 25 19.5 48.5t42.5 23.5q61 -1 61 -52q0 -78 -61 -77q-61 0 -62 57zM553 39q0 25 19.5 48.5t41.5 23.5q62 -1 62 -52q0 -78 -62 -77q-61 0 -61 57zM963 39q0 25 19 48.5t42 23.5q61 -1 61 -52q0 -78 -61 -77q-61 0 -61 57z" />
<glyph unicode="&#x202f;" horiz-adv-x="376" />
<glyph unicode="&#x2039;" horiz-adv-x="491" d="M74 455v18l57 47q78 61 146.5 127t132.5 135h6l22 -26q-72 -92 -200 -189l-29 -20q125 -143 201 -338l-142 -82h-8q-78 211 -186 328z" />
<glyph unicode="&#x203a;" horiz-adv-x="491" d="M74 154q61 74 227 213q-35 39 -82 113.5t-106 191.5l-15 26l142 84h8q84 -225 192 -329v-17q-102 -76 -186 -153.5t-152 -155.5h-6z" />
<glyph unicode="&#x205f;" horiz-adv-x="470" />
<glyph unicode="&#x2122;" horiz-adv-x="1933" d="M14 1327q0 63 78 86q23 2 180 25q59 8 163 15t255 13q123 4 206 7.5t128 3.5q49 0 45 -29t-37 -29q-104 0 -201.5 -4t-191.5 -12q-31 -174 -51.5 -356.5t-30.5 -376.5q-2 -41 10 -148q-23 6 -49 19q-31 31 -31 116q0 57 5.5 142.5t15.5 197.5q10 115 16 199t6 141v29 q0 12 -2 23q-55 0 -141 -7q-317 -23 -317 -79q0 -39 123 -39q141 0 288 45q-41 -61 -75 -70q-117 -33 -230 -33q-162 0 -162 121zM645 567l19 8q100 -20 120 -20q158 0 310 502q70 229 69 379q0 70 49 69q29 0 93 -47q-16 -43 -17 -213q0 -113 6 -211t21 -184 q35 -213 92 -213q41 0 131 274q41 123 68.5 225.5t44.5 188.5q2 4 2 27q0 25 2 65q2 55 20 64q53 -4 76 -8q53 -10 57 -35q-23 -47 -43 -281q-18 -207 -18 -301q0 -78 3 -132t7 -87q25 -152 107 -170q-23 -43 -41 -43q-84 0 -125 219q-14 72 -20.5 141.5t-6.5 139.5v61 q0 37 2 84q2 49 3 86t1 62q-2 -4 -3 -9.5t-5 -15.5q-16 -57 -40.5 -141t-59.5 -199q-96 -301 -174 -301q-100 0 -150 280l-12 87q-12 88 -37 266q-31 -47 -92 -246q-63 -203 -115 -289q-96 -160 -211 -160q-78 0 -133 78z" />
<glyph unicode="&#x25fc;" horiz-adv-x="757" d="M0 0v758h758v-758h-758z" />
<glyph unicode="&#xfb01;" horiz-adv-x="362" d="M-27 -344q12 831 142 1667q16 14 63 14q33 0 62 -24q-51 -76 -70 -185q-43 -252 -70.5 -461.5t-38.5 -383.5q43 -6 78 -66q8 -12 41 -96q59 -16 113 110q14 33 32.5 96.5t45.5 157.5q12 137 12 168q14 14 41 15q53 0 53 -29q-4 -16 -11 -46t-17 -75q-39 -186 -39 -317 q0 -137 61 -138q29 0 70 103q2 2 67 209q10 33 22.5 78t26.5 104q12 49 29 49q18 0 19 -28q0 -51 -72 -285q-53 -168 -68 -201q-41 -90 -98 -90q-63 0 -94 74q-25 57 -25 129q0 27 2 37q-2 -2 -2 -4q-23 -88 -72 -129q-25 -23 -79 -43q57 -236 57 -381q0 -283 -70 -402 q-10 -16 -51 -16q-166 0 -160 389zM37 -348q0 -41 4 -87t12 -97q27 -150 70 -150q39 0 63 145q10 55 15.5 100.5t5.5 80.5q0 258 -64 417q-53 27 -82 84q-25 -299 -24 -493zM403 1143q0 20 21.5 42.5t42.5 22.5q70 1 70 -75t-52 -76q-33 0 -57.5 26.5t-24.5 59.5z" />
<glyph unicode="&#xfb02;" horiz-adv-x="362" d="M-27 -344q12 831 142 1667q16 14 63 14q33 0 62 -24q-51 -76 -70 -185q-43 -252 -70.5 -461.5t-38.5 -383.5q43 -6 78 -66q8 -12 41 -96q102 -6 195 86q-6 39 -6 143q0 98 8 211t24 248q37 291 91 448q10 139 69 140q133 0 133 -178q0 -229 -43 -482q-51 -293 -141 -456 q-29 -53 -49 -68q0 -39 39 -102q39 -70 75 -70q76 0 193 405q4 20 11 49t18 68q8 43 26 43t19 -31q0 -80 -82 -319q-94 -285 -189 -285q-110 1 -182 183q-86 -80 -192 -88q57 -236 57 -381q0 -283 -70 -402q-10 -16 -51 -16q-166 0 -160 389zM37 -348q0 -41 4 -87t12 -97 q27 -150 70 -150q39 0 63 145q10 55 15.5 100.5t5.5 80.5q0 258 -64 417q-53 27 -82 84q-25 -299 -24 -493zM432 420q0 -23 4 -58.5t13 -87.5q184 346 184 861q0 153 -33 186q-84 -238 -129 -526q-39 -231 -39 -375z" />
</font>
</defs>
</svg>
