<?xml version="1.0" standalone="no"?>
<!DOCTYPE svg PUBLIC "-//W3C//DTD SVG 1.1//EN" "http://www.w3.org/Graphics/SVG/1.1/DTD/svg11.dtd" >
<svg xmlns="http://www.w3.org/2000/svg">
<metadata></metadata>
<defs>
<font id="feathergraphy_cleanregular" horiz-adv-x="782" >
<font-face units-per-em="2048" ascent="1536" descent="-512" />
<missing-glyph horiz-adv-x="1024" />
<glyph horiz-adv-x="0" />
<glyph unicode="&#xd;" horiz-adv-x="1024" />
<glyph unicode=" "  horiz-adv-x="1024" />
<glyph unicode="&#x09;" horiz-adv-x="1024" />
<glyph unicode="&#xa0;" horiz-adv-x="1024" />
<glyph unicode="!" horiz-adv-x="485" d="M-123 1489q29 -68 70 -89.5t90 -10t101 47.5t102 85q117 113 247 301l144 -94q-137 -287 -228 -555q-39 -115 -70.5 -237t-47 -237.5t-9 -221t40.5 -185.5q-41 78 -74.5 126t-56.5 77q-27 33 -49 51q10 143 35 305q23 139 65 315t113 363q-61 -51 -134 -100.5t-141.5 -69 t-122.5 6.5t-75 122zM-8 55q29 12 62.5 49t64.5 78q37 48 74 103q8 -55 20 -105q10 -41 27.5 -82t42.5 -59q-35 -10 -71 -49t-65 -84q-35 -53 -67 -115q-6 55 -17 107q-10 43 -26.5 88t-44.5 69z" />
<glyph unicode="&#x22;" horiz-adv-x="593" d="M92 827q33 90 47 174q12 72 10 151t-36 134q20 10 48.5 44t55.5 69q31 41 62 92q0 -55 4 -102q4 -41 10 -81t22 -59q-16 -68 -52 -142.5t-75 -135.5q-45 -74 -96 -144zM319 827q33 90 48 174q12 72 10 151t-37 134q20 10 49 44t55 69q31 41 62 92q0 -55 4 -102 q4 -41 10 -81t23 -59q-16 -68 -52 -142.5t-75 -135.5q-45 -74 -97 -144z" />
<glyph unicode="#" horiz-adv-x="831" d="M18 266l109 187q16 -18 54 -30.5t105.5 -14.5t169 6t249.5 26q-8 -29 -19.5 -52t-21.5 -42q-12 -23 -29 -41zM59 532l109 187q16 -18 54 -30.5t105.5 -14.5t169 6t248.5 27q-8 -29 -19 -52.5t-21 -42.5q-12 -23 -29 -41zM154 279q18 16 30.5 54t14.5 105.5t-6.5 169 t-26.5 248.5q27 -8 51.5 -19.5t42.5 -21.5q23 -12 41 -29l39 -616zM420 238q18 16 30.5 54t14.5 105.5t-6 169t-27 248.5q27 -8 51.5 -19.5t42.5 -21.5q23 -12 41 -29l39 -616z" />
<glyph unicode="$" horiz-adv-x="948" d="M-201 289q53 -86 115.5 -164t134.5 -128t153 -62.5t171 34.5t189.5 165t207.5 327q33 61 22.5 104t-47 72t-94 45t-121 24.5t-125 10.5t-106.5 2q-35 0 -88 6t-106.5 22.5t-95.5 45t-54 71.5t16.5 104.5t118.5 143.5t250 187.5t412 236.5q33 -115 74.5 -171t80.5 -79 q45 -27 92 -22q-51 -53 -97 -79t-88 -30t-79 8.5t-67 34.5q-72 52 -129 152q-190 -100 -287 -183q-41 -35 -64.5 -70.5t-15.5 -65.5t57.5 -53.5t153.5 -33.5q209 -23 344 -48.5t193.5 -80.5t38 -153.5t-120.5 -264.5q-131 -219 -268.5 -355t-270.5 -164t-260 67.5 t-240 343.5zM-135 -211q-4 12 4 16.5t12 -2.5q16 -23 34.5 -32t37.5 -19q18 -10 39.5 -19t44.5 -1q63 25 111.5 93.5t78.5 149.5q16 41 27.5 84t24.5 88l49 177l4 20t6 21v6q49 184 98 365.5t101 365.5l49 182q12 45 26.5 91t32.5 87q37 88 94 154q29 31 64 51.5t69 24.5 q37 27 76 8q25 -12 38.5 -41t21.5 -60q4 -10 -4.5 -15t-12.5 1q-16 23 -34.5 32t-36.5 21q-18 10 -40 19.5t-44 -0.5q-63 -25 -111.5 -93.5t-79.5 -150.5q-16 -41 -27.5 -84t-23.5 -88l-47 -176q-4 -10 -6 -19.5t-6 -19.5v-8q-49 -184 -98.5 -365.5t-100.5 -363.5l-49 -183 q-12 -47 -26.5 -92t-33.5 -88q-18 -43 -41.5 -82t-52.5 -71q-29 -31 -63.5 -51.5t-69.5 -24.5q-37 -27 -76 -8q-23 14 -37 41.5t-22 58.5z" />
<glyph unicode="%" horiz-adv-x="964" d="M-176 -498q-4 12 4 16.5t12 -1.5q16 -23 35 -32t37 -20q18 -10 39.5 -19t44.5 -1q63 25 111.5 93.5t78.5 150.5q16 41 27.5 84t24.5 88l49 176q2 10 4 20.5t6 20.5v6q49 184 98 365.5t101 365.5l49 182q12 45 26.5 91.5t32.5 87.5q37 88 94 153q29 31 64 51.5t69 24.5 q37 27 76 8q25 -12 38.5 -40.5t21.5 -59.5q4 -10 -4.5 -15.5t-12.5 0.5q-16 23 -34.5 32t-36.5 22q-18 10 -40 19t-44 -1q-63 -25 -111.5 -93.5t-79.5 -150.5q-16 -41 -27.5 -84t-23.5 -88l-47 -176q-4 -10 -6 -19t-6 -20v-8q-49 -184 -98.5 -365.5t-100.5 -363.5l-49 -182 q-12 -47 -26.5 -92t-33.5 -88q-18 -43 -41.5 -82t-52.5 -72q-29 -31 -63.5 -51.5t-69.5 -24.5q-37 -27 -76 -8q-23 14 -37 42t-22 58zM-45 1063q16 57 62 92t95.5 52.5t88.5 20.5t39 -3t18 -22.5t36.5 -45.5t26 -73t-17.5 -105t-59.5 -96t-67.5 -52q-37 -20 -80 -24 q-49 31 -86 70q-31 35 -51 81t-4 105zM84 1042q0 -41 11 -68.5t28 -45.5q16 -23 39 -35q31 20 55 43q23 20 40 47t17 59q0 66 -22.5 94.5t-26.5 24.5q-4 -2 -25.5 -6t-48 -15.5t-47 -35t-20.5 -62.5zM549 39q16 57 62 92t95.5 52.5t88.5 20.5t39 -3t18 -22.5t36.5 -45.5 t26 -73t-17.5 -105t-59.5 -96t-67.5 -52q-37 -20 -80 -24q-49 31 -86 70q-31 35 -51.5 81t-3.5 105zM678 18q0 -41 11 -68.5t28 -45.5q16 -23 39 -35q31 20 55 43q23 20 40 47t17 59q0 66 -22.5 94.5t-26.5 24.5q-4 -2 -25.5 -6t-48 -15.5t-47 -35t-20.5 -62.5z" />
<glyph unicode="&#x26;" horiz-adv-x="1196" d="M-30 204q-5 54 7 107q25 104 79.5 174t107.5 113q63 49 135 78q-45 10 -74 49q-25 35 -37 101.5t13 187.5q12 59 49 115.5t90 107.5t117.5 96t130.5 84q154 90 338 166q51 -49 88 -115q31 -55 48 -133t-3 -176q-23 -98 -76 -123.5t-111 -17.5q-68 8 -143 53 q82 -33 137.5 -32t87 26t43 63.5t4 81.5t-31 83t-58.5 65q-152 -55 -248 -115.5t-151 -121t-75.5 -118t-18.5 -108.5q4 -121 108 -238q-113 -43 -180 -99t-102 -118.5t-41 -128t4 -127.5q23 -145 129 -303q33 -8 86 17q45 23 116.5 81t178.5 187q-78 -145 -157 -235.5 t-142 -141.5q-74 -59 -142 -86q-102 96 -176 199q-31 43 -59.5 93t-47 102.5t-23.5 106.5zM410 602l61 80q131 -6 180 -6h45q6 16 16.5 45t21.5 58.5t20.5 54t13.5 32.5l225 99q-12 -20 -30.5 -64.5t-36 -90.5t-30.5 -84t-15 -44l184 -16q-14 -4 -23 -9q-20 -8 -16 -6 q-29 0 -56.5 -13t-54 -31.5t-48 -40l-38.5 -38.5q-6 -18 -17 -64t-25.5 -109.5t-30 -141.5t-27.5 -160q-2 -23 -12 -69q0 -6 -1 -12.5t-1 -10.5q-10 -86 16.5 -194.5t73.5 -211t107.5 -184.5t121 -115.5t113.5 -6t84 146.5q-33 -121 -80 -171t-103.5 -43t-122 65.5 t-136 152.5t-145.5 217t-148 262q25 27 49 103q20 63 48 188t56 334q10 66 -26.5 90t-83.5 27q-55 2 -129 -19z" />
<glyph unicode="'" horiz-adv-x="161" d="M92 827q33 90 47 174q12 72 10 151t-36 134q20 10 48.5 44t55.5 69q31 41 62 92q0 -55 4 -102q4 -41 10 -81t22 -59q-16 -68 -52 -142.5t-75 -135.5q-45 -74 -96 -144z" />
<glyph unicode="(" horiz-adv-x="542" d="M72 532q0 104 29.5 200.5t74.5 179.5t97.5 152t96.5 117t73.5 73.5t27.5 23.5q-63 -94 -100 -180t-57.5 -174t-29 -182.5t-14.5 -204.5q-6 -111 0 -205t27.5 -182.5t59.5 -173.5t98 -175q-80 29 -149.5 88.5t-122 150.5t-82 214t-29.5 278z" />
<glyph unicode=")" horiz-adv-x="542" d="M74 1278q-2 2 27.5 -23.5t73.5 -73.5t96.5 -117t97.5 -152t74.5 -179t29.5 -201q0 -156 -29.5 -278.5t-82 -213.5t-122 -150.5t-149.5 -88.5q59 90 97 175t59.5 173.5t28 182.5t-0.5 205q-6 111 -14 205t-28.5 182t-57.5 174t-100 180z" />
<glyph unicode="*" d="M39 942l108 186q16 -18 54.5 -30.5t106 -14.5t169 6.5t248.5 26.5q-8 -29 -19.5 -52.5t-21.5 -41.5q-12 -23 -29 -41zM139 1294q27 6 53.5 8.5t49.5 2.5q25 0 49 -5l338 -518l-215 4q8 25 0 63t-40 97.5t-89.5 144.5t-145.5 203zM166 899q25 4 54.5 28.5t68.5 80 t88 145.5t112 223q18 -20 32 -42.5t24 -43.5q10 -23 20 -45l-303 -538z" />
<glyph unicode="+" d="M18 471l109 186q16 -18 54 -30.5t105.5 -14.5t169 6.5t249.5 26.5q-8 -29 -19.5 -52.5t-21.5 -41.5q-12 -23 -29 -41zM268 905l187 -108q-18 -16 -30.5 -54t-14.5 -106t6 -169t26 -249q-29 6 -52 18.5t-42 22.5q-23 12 -41 29z" />
<glyph unicode="," horiz-adv-x="327" d="M-16 207q29 12 62.5 49t64.5 78q36 47 73 102q8 -55 21 -104q10 -41 27.5 -82t41.5 -60q-12 -72 -52 -151.5t-83 -149.5q-51 -82 -112 -159q29 94 36 184q6 76 -8 158t-71 135z" />
<glyph unicode="-" d="M18 471l109 186q16 -18 54 -30.5t105.5 -14.5t169 6.5t249.5 26.5q-8 -29 -19.5 -52.5t-21.5 -41.5q-12 -23 -29 -41z" />
<glyph unicode="." horiz-adv-x="327" d="M-16 207q29 12 62.5 49t64.5 78q36 47 73 102q8 -55 21 -104q10 -41 27.5 -82t41.5 -60q-35 -10 -70.5 -49t-64.5 -84q-35 -53 -67 -114q-6 55 -17 106q-10 43 -26.5 88t-44.5 70z" />
<glyph unicode="/" horiz-adv-x="897" d="M-135 -211q-4 12 4 16.5t12 -2.5q16 -23 34.5 -32t37.5 -19q18 -10 39.5 -19t44.5 -1q63 25 111.5 93.5t78.5 149.5q16 41 27.5 84t24.5 88l49 177l4 20t6 21v6q49 184 98 365.5t101 365.5l49 182q12 45 26.5 91t32.5 87q37 88 94 154q29 31 64 51.5t69 24.5q37 27 76 8 q25 -12 38.5 -41t21.5 -60q4 -10 -4.5 -15t-12.5 1q-16 23 -34.5 32t-36.5 21q-18 10 -40 19.5t-44 -0.5q-63 -25 -111.5 -93.5t-79.5 -150.5q-16 -41 -27.5 -84t-23.5 -88l-47 -176q-4 -10 -6 -19.5t-6 -19.5v-8q-49 -184 -98.5 -365.5t-100.5 -363.5l-49 -183 q-12 -47 -26.5 -92t-33.5 -88q-18 -43 -41.5 -82t-52.5 -71q-29 -31 -63.5 -51.5t-69.5 -24.5q-37 -27 -76 -8q-23 14 -37 41.5t-22 58.5z" />
<glyph unicode="0" horiz-adv-x="927" d="M8.5 349q-26.5 126 3.5 286q20 111 59.5 192.5t89.5 140t106.5 96.5t111.5 60q129 53 283 47q72 -86 122 -184q43 -86 72 -195.5t6 -232.5q-23 -121 -62.5 -210t-90 -153.5t-106.5 -106.5t-111 -69q-131 -61 -283 -61q-76 76 -129 178q-45 86 -71.5 212zM188 415.5 q7 -116.5 37 -192.5q37 -88 101 -145q94 2 180 47q37 18 74.5 49t73.5 77t67.5 108.5t56.5 146.5q35 127 25 221t-39 160q-33 76 -86 131q-94 2 -178 -29q-37 -14 -74 -36.5t-73 -56.5t-66.5 -83t-50.5 -115q-55 -166 -48 -282.5zM858 -53l6 -4q-2 0 -6 4zM907 995 q4 -2 7.5 -4t7.5 -4q-6 2 -11 6q-2 2 -4 2z" />
<glyph unicode="1" horiz-adv-x="684" d="M-78 -57q41 -27 78 3.5t70.5 98.5t63.5 163t54 200q57 244 105 571q-27 -37 -70 -51q-37 -12 -96 -5t-147 64q18 -12 58 -25.5t93 -3t114.5 56.5t121.5 152l200 -102l-266 -1143q-6 -51 8 -110q12 -51 47 -118t109 -140z" />
<glyph unicode="2" horiz-adv-x="851" d="M-59 0q162 82 274.5 172t184 179t109.5 176t52 165q35 182 -31 361q-78 -10 -149 -39q-61 -25 -126 -72t-108 -127q-23 -41 -23.5 -66.5t11.5 -42t35 -23.5t51 -7q66 -4 162 20q-106 -39 -180 -41q-33 0 -61.5 7.5t-47 27t-23.5 55t9 91.5q8 39 39 72.5t72.5 64.5 t93 57.5t104.5 48.5q123 51 273 92q39 -41 69 -94q27 -47 48.5 -116.5t21.5 -165.5q0 -115 -30 -216.5t-78 -187.5t-110.5 -157.5t-125.5 -129.5q-151 -135 -344 -227q162 -172 352 -242q82 -31 177 -42t202.5 10.5t224.5 84t240 181.5q-115 -141 -235 -216t-236.5 -100.5 t-227 -12t-209.5 49.5q-231 84 -444 287z" />
<glyph unicode="3" horiz-adv-x="854" d="M-55 209q23 -127 51.5 -199.5t54.5 -107.5q31 -43 64 -54q170 119 268 234q41 49 69.5 102.5t31.5 106.5t-25.5 103t-102.5 93q25 23 63 37.5t73.5 34t62.5 51t27 86t-32 140.5t-114 215q-49 -2 -96 -19q-41 -14 -86 -44t-80 -83q-29 -41 -36 -70.5t0 -49t25.5 -31 t43.5 -15.5q53 -12 143 2q-129 -31 -209 -22q-35 2 -60.5 12t-35.5 32.5t1 59.5t54 90q66 84 155 134.5t169 76.5q94 31 192 43q109 -154 158 -286q20 -57 29.5 -116.5t-1.5 -113t-49 -98.5t-110 -74q66 -43 81 -106.5t-9.5 -139t-82 -157.5t-135 -162t-169.5 -151.5 t-187 -127.5q-27 57 -64.5 106.5t-71.5 110t-53.5 144.5t-6.5 213z" />
<glyph unicode="4" horiz-adv-x="878" d="M-125 -702q113 33 208 144.5t173 267t138.5 338.5t107.5 362l-512 -121q88 367 207 639q51 117 113.5 223t136 181t157.5 109t180 3q-59 8 -113.5 -32t-102.5 -113.5t-89 -170t-73 -198.5q-80 -240 -140 -551l246 67q35 141 61.5 267.5t42.5 222.5q20 113 33 209 l189 -152q-76 -444 -205 -805q-55 -154 -129 -304t-168 -273t-209 -208t-252 -105z" />
<glyph unicode="5" horiz-adv-x="819" d="M-485 -537q178 6 348 70q72 27 147.5 69t149 103.5t140.5 145t120 194.5q57 121 70.5 204t-4 136t-59.5 81t-95 39t-112.5 8t-110.5 -11l-144 -33q39 170 92 313q23 59 49.5 119t57.5 110t64.5 84.5t70.5 47.5q25 2 57.5 -18.5t74.5 -46t92 -48t111.5 -27t134.5 19.5 t157 89q-78 -90 -149.5 -122t-131 -32t-103 19t-61.5 31q-59 -31 -102 -90.5t-74 -126t-48 -129t-26 -99.5q86 6 169 2t152 -22.5t119 -55t72.5 -95t12 -142.5t-61.5 -197q-55 -121 -136 -210t-174 -153.5t-193.5 -106.5t-196.5 -66q-227 -59 -479 -54z" />
<glyph unicode="6" horiz-adv-x="733" d="M-4 597q10 97 47 206.5t113 228.5q74 119 157.5 197t169.5 126t170 68.5t162 24.5q181 9 361 -59q-195 45 -371 -9q-76 -23 -155 -69.5t-153.5 -127.5t-140 -202t-112.5 -291q27 49 48 86t53 64.5t83 47t139 34.5q25 -12 54.5 -69.5t46 -141.5t11.5 -186.5t-53 -205 t-146.5 -197.5t-266.5 -163q-123 133 -178 299q-25 70 -37 156t-2 183zM215 397q6 -53 31.5 -127.5t89.5 -163.5q27 18 54.5 36t53 48.5t52 82t55.5 139.5q37 117 33 200.5t-23 139.5q-22 65 -61 108q-47 -6 -97 -43q-41 -33 -91 -103.5t-93 -201.5q-12 -51 -4 -115z" />
<glyph unicode="7" horiz-adv-x="735" d="M-541 -670q156 31 288 133.5t239.5 246t191.5 312t146 334.5q-55 -29 -118 -49t-109 -13t-64.5 52t16.5 152q-2 -10 -7 -34t-3 -48.5t15.5 -44t47 -20.5t92 21.5t150.5 82.5q6 4 11 7t10 7q41 117 69.5 218t48.5 179q23 90 39 164q-162 -66 -289 -90q-55 -10 -107 -13 t-95 7t-72 35.5t-33 74.5q31 -61 115 -77q35 -6 86 -4t119.5 20t158.5 55.5t203 98.5q0 -2 25.5 -12.5t56.5 -22.5q37 -14 84 -33q-129 -492 -317 -874q-80 -164 -182.5 -321t-226.5 -277.5t-271.5 -194.5t-317.5 -72z" />
<glyph unicode="8" horiz-adv-x="864" d="M-5 271.5q-1 78.5 24.5 143t85 108.5t163.5 55q-76 47 -99.5 100t-8 107.5t61.5 107.5t111.5 98t141.5 78t150 49q2 0 29.5 -34.5t61.5 -88t63.5 -120t36.5 -129t-18.5 -115.5t-103.5 -80q70 -27 87.5 -92.5t-7 -150.5t-84 -181t-140.5 -184t-179.5 -159t-198.5 -103 q-121 240 -160 430q-16 82 -17 160.5zM215 336q0 -98 17.5 -189.5t39.5 -162.5q25 -84 60 -160q49 25 102 72q47 41 105.5 109t117.5 179q35 63 47.5 112.5t7.5 84.5t-24.5 58.5t-44.5 39.5q-59 35 -158 37q-76 16 -135 6q-25 -4 -49.5 -16t-43.5 -33.5t-30.5 -54.5 t-11.5 -82zM362 752.5q0 -25.5 12.5 -47t31.5 -39.5q43 -41 126 -70q27 -12 58 -10q27 0 60.5 13t74.5 50q39 37 32 91.5t-34 107.5q-31 61 -82 127q-27 -2 -59 -12q-29 -10 -67 -31t-81 -60q-39 -35 -55.5 -64.5t-16.5 -55z" />
<glyph unicode="9" horiz-adv-x="724" d="M-549 -508q217 2 412 94q82 39 169 101.5t167 156t149.5 221.5t116.5 297q-29 -49 -55.5 -84.5t-65.5 -63.5t-96.5 -47.5t-145.5 -33.5q-25 12 -54.5 69.5t-45.5 142.5t-11 187.5t53 205t146.5 196.5t266.5 164q123 -133 178 -301q25 -72 36 -157t2 -183.5t-47 -207 t-112 -226.5q-76 -119 -161 -205t-174 -145.5t-178 -95.5t-169 -56q-188 -47 -381 -29zM85 441q3 -85 21 -140q23 -66 64 -106q47 6 96 43q41 33 90.5 102.5t94.5 202.5q12 51 4 114q-6 53 -33 128t-88 163q-29 -18 -55.5 -35.5t-52 -48t-53.5 -82t-54 -139.5 q-37 -117 -34 -202z" />
<glyph unicode=":" horiz-adv-x="327" d="M-16 207q29 12 62.5 49t64.5 78q36 47 73 102q8 -55 21 -104q10 -41 27.5 -82t41.5 -60q-35 -10 -70.5 -49t-64.5 -84q-35 -53 -67 -114q-6 55 -17 106q-10 43 -26.5 88t-44.5 70zM129 864q29 12 62.5 49t64.5 78q37 48 74 103q8 -55 20 -105q10 -41 27.5 -82t42.5 -59 q-35 -10 -71 -49t-64 -84q-35 -53 -68 -115q-6 55 -16 107q-10 43 -26.5 88t-45.5 69z" />
<glyph unicode=";" horiz-adv-x="327" d="M-16 207q29 12 62.5 49t64.5 78q36 47 73 102q8 -55 21 -104q10 -41 27.5 -82t41.5 -60q-12 -72 -52 -151.5t-83 -149.5q-51 -82 -112 -159q29 94 36 184q6 76 -8 158t-71 135zM129 864q29 12 62.5 49t64.5 78q37 48 74 103q8 -55 20 -105q10 -41 27.5 -82t42.5 -59 q-35 -10 -71 -49t-64 -84q-35 -53 -68 -115q-6 55 -16 107q-10 43 -26.5 88t-45.5 69z" />
<glyph unicode="&#x3c;" horiz-adv-x="628" d="M-8 469q137 41 266 96.5t234.5 117.5t180.5 125.5t105 119.5q4 -10 7 -21.5t6 -21.5q2 -12 4 -23q-106 -86 -207 -160q-43 -31 -89 -62.5t-92.5 -59t-88.5 -48t-76 -30.5q39 -10 94 -47t116.5 -108t123 -179.5t112.5 -261.5q0 -16 -9 -20.5t-20.5 -3.5t-20.5 2t-9 -3 t-21.5 35t-61.5 99.5t-97.5 134t-128 140t-153.5 116t-175 63.5z" />
<glyph unicode="=" horiz-adv-x="827" d="M18 266l109 187q16 -18 54 -30.5t105.5 -14.5t169 6t249.5 26q-8 -29 -19.5 -52t-21.5 -42q-12 -23 -29 -41zM59 532l109 187q16 -18 54 -30.5t105.5 -14.5t169 6t248.5 27q-8 -29 -19 -52.5t-21 -42.5q-12 -23 -29 -41z" />
<glyph unicode="&#x3e;" horiz-adv-x="628" d="M-8 -72q106 86 207 160q43 31 89 62.5t92 59.5t88 48.5t77 30.5q-39 10 -94.5 47t-117 107.5t-122.5 179t-113 262.5q0 16 9.5 20t20.5 3t20.5 -2t9.5 3q0 2 21.5 -35.5t61.5 -98t97 -134.5t128 -140.5t153.5 -115.5t175.5 -63q-139 -41 -267.5 -96.5t-234 -118 t-180 -126t-105.5 -118.5q-8 18 -12 41z" />
<glyph unicode="?" horiz-adv-x="954" d="M-25 45q29 -25 45.5 -70t26.5 -88q10 -51 16 -106q33 61 68 115q29 45 64.5 83.5t70.5 49.5q-25 18 -42 59t-27 82q-13 49 -21 104q-37 -55 -74 -102q-31 -41 -64.5 -78t-62.5 -49zM52 1165q1 35 13.5 79t40.5 99q57 111 149.5 173.5t180.5 93.5q102 37 215 45 q12 -6 48 -49t79 -109.5t83 -149.5t58.5 -170t5 -172t-75 -154t-182 -116t-319.5 -59q-10 -29 -19.5 -72t-12.5 -92t3.5 -98t26.5 -92q-47 31 -84 71.5t-63 75.5q-31 41 -54 86l78 256q129 2 228 33q43 12 82.5 32.5t70.5 49t47.5 67.5t14.5 92q-6 104 -37 186.5 t-62.5 139.5t-56.5 89t-21 36q4 2 -28.5 -1t-81.5 -26.5t-105.5 -76t-95.5 -146.5q-41 -96 -46 -152.5t5 -84.5q10 -35 39 -48q-59 16 -92 60q-14 18 -23.5 43.5t-8.5 60.5z" />
<glyph unicode="@" horiz-adv-x="993" d="M28 301q-1 115 28.5 232.5t88 225t144.5 175.5q129 102 246.5 107.5t209 -60.5t148.5 -191.5t65 -285.5q4 -106 -17 -183t-58 -128.5t-83 -82t-91 -47t-82.5 -21.5t-55.5 -5t-3.5 2t48 14.5t77.5 37t84 67.5t67.5 107.5t27.5 156.5q0 139 -48 259t-127 192.5t-178 87 t-204 -59.5q-70 -49 -122 -140t-81.5 -198.5t-34.5 -218.5t21.5 -198t86 -137t157.5 -38q-106 -33 -175 6t-103.5 124t-35.5 200zM227 147q45 268 105 426q25 68 55.5 118t66 64.5t75.5 -17t85 -128.5l-6 -28q-27 51 -53.5 71.5t-55 -13.5t-60 -134t-70.5 -289l190 346v-2 q0 4 2 9t2 12l119 -84q-14 -31 -35.5 -87.5t-37 -118t-21.5 -117.5t11 -85t61.5 -19.5t127.5 76.5q-84 -78 -152.5 -106.5t-108.5 -0.5t-47 117t34 251l-170 -340l-2 8q0 -2 -1 -3t-1 -3z" />
<glyph unicode="A" horiz-adv-x="1064" d="M-348 522q-3 32 -3 61q0 119 45 201q56 104 147 138q45 18 94 18q51 0 105 -18q108 -36 196 -158q98 154 208.5 293t206.5 246q113 125 221 233l254 -51q-147 -666 -178 -1153q-9 -125 -9 -245v-25q1 -132 17.5 -245.5t49 -201.5t87 -140.5t132.5 -61.5q13 -2 27 -1 q69 0 157 37q-131 -72 -225 -74h-7q-89 -1 -151 51q-64 54 -100 154q-38 101 -54 231q-15 116 -14 248v33q2 150 16 305q-46 -21 -114 -39q-64 -18 -137 -17h-7q-76 1 -156.5 31.5t-150.5 108.5q-75 -155 -99 -279q-23 -114 -22 -202v-14q2 -92 17.5 -155.5t21.5 -98.5 q-135 70 -190 174q-50 95 -50 207v21q5 124 58 262.5t135 277.5q-70 94 -156 145q-71 43 -138 43q-13 0 -26 -2q-79 -10 -137.5 -91t-70.5 -247zM352 567q66 -87 142 -117q65 -25 129 -26q11 0 22 1q74 5 137.5 31.5t102.5 49.5q14 145 35.5 284.5t43 258t40 209t28.5 139.5 q-262 -246 -425 -452t-255 -378z" />
<glyph unicode="B" horiz-adv-x="1042" d="M-901 -11q4 48 41 120q54 106 148 140q67 24 144 24q30 1 62 -3q112 -14 231 -63t230 -107q25 143 63.5 326.5t94 378t129 387t170.5 356.5l188 -123q-41 -86 -88 -192q-41 -92 -90 -213t-100 -262q66 115 148.5 241.5t175.5 239.5t193.5 196t202.5 111 q31 -14 56.5 -43.5t44.5 -60.5q23 -37 39 -76q-14 -154 -54 -297q-16 -61 -41.5 -126.5t-59.5 -129t-79 -122t-100 -103.5q49 -10 86 -62.5t55.5 -126t18.5 -155.5t-23 -152q-49 -150 -136 -246t-193 -139q-89 -36 -186 -36q-19 -1 -39 1q-118 8 -228 70q-27 14 -54.5 30.5 t-56.5 34.5q-3 -47 -3 -91q0 -61 6 -118q11 -98 44 -176q-23 41 -61.5 98.5t-77.5 110.5q-45 61 -94 123q0 20 4 43q4 20 7 49t9 68q-109 70 -224 136q-114 64 -215 98q-80 26 -146 27q-18 0 -35 -2q-80 -9 -119 -91q-27 -55 -27 -94t17.5 -64.5t50.5 -40t70 -20.5 q41 -8 92 -7q57 0 127 9q-116 -24 -203 -24q-32 0 -59 3q-45 4 -82 19.5t-57 46.5q-17 26 -18 64q0 7 1 15zM115 12q29 -16 53.5 -31.5t46.5 -27.5q100 -59 211 -89q78 -21 150 -21q30 -1 59 3q98 12 170.5 72.5t101.5 177.5q14 66 14 126q0 24 -2 47q-8 81 -51 137 q-43 58 -126 84q-54 17 -126 17q-38 0 -81 -5q41 59 101 134t119.5 179.5t107.5 243.5t67 327q-31 -2 -87.5 -54t-125 -137t-145 -195.5t-150.5 -230.5t-138.5 -241.5t-107.5 -230.5q-18 -72 -33.5 -143.5t-27.5 -141.5z" />
<glyph unicode="C" horiz-adv-x="954" d="M-23 282.5q0 104.5 20.5 229.5t70.5 270q47 143 110.5 255t136 197t148.5 143.5t147 99.5q171 93 353 116q70 -70 116 -161q41 -78 61 -188q8 -42 8 -90q0 -75 -20 -161q-16 -70 -38.5 -107.5t-48 -53t-53 -12.5t-52.5 18q-59 33 -125 120q53 -61 100 -81q20 -8 41 -8.5 t40.5 13t37 45t29.5 85.5q12 64 12 119q0 25 -2 47q-8 74 -25 131q-20 63 -53 114q-154 -49 -291 -137q-59 -37 -119.5 -87t-115.5 -114.5t-101.5 -143.5t-76.5 -175q-37 -121 -55.5 -227.5t-21.5 -198.5q-1 -23 -1 -45q0 -66 7 -125q9 -78 24 -139q35 -145 102 -252 q57 4 127 39q59 29 142 92t184 180q-33 -76 -77 -134t-93.5 -102t-100.5 -75t-100 -51q-115 -49 -240 -60q-100 109 -153 269q-23 68 -38.5 154.5t-15.5 191z" />
<glyph unicode="D" horiz-adv-x="1130" d="M-43 0q31 256 92 524q27 113 62.5 241t83 261t106.5 267t133 261l189 -122q-66 -115 -131 -248q-55 -115 -119 -262.5t-117 -311.5q39 76 92 168t115.5 188.5t133.5 190.5t146.5 173t154.5 136t159 80q31 -14 56.5 -43.5t43.5 -60.5q23 -37 39 -76q-109 -700 -264 -1157 q-45 -129 -96.5 -245t-110.5 -204t-127 -141t-142 -58h-13q-68 0 -142 46q-82 51 -172 172q-29 35 -59.5 73.5t-55.5 71.5q-29 37 -57 76zM140 -24q2 -94 22 -177q70 -68 138 -68q10 -1 20 1q78 12 153.5 96t144 234.5t129 352t110.5 448.5t87 523q-35 -2 -97.5 -64 t-139 -162.5t-161.5 -228.5t-162 -262t-139.5 -265.5t-94.5 -235.5q-10 -84 -10 -165v-27z" />
<glyph unicode="E" horiz-adv-x="1042" d="M-24 156q-2 16 -1 33q0 38 9 75q25 104 79 174t107 113q63 49 135 78q-45 10 -74 49q-25 36 -37 102q-4 22 -4 48q0 57 17 139q12 59 49 115.5t90 107.5t117.5 96t130.5 84q154 90 338 166q51 -49 88 -115q31 -55 48 -133q8 -36 7 -76q0 -47 -10 -100q-23 -98 -76 -124 q-40 -19 -83 -19q-13 0 -27 2q-68 8 -144 53q80 -32 134 -32h3q56 1 88 26q30 24 42 63q7 24 7 49q-1 16 -3 33q-8 43 -31 83t-57 65q-152 -55 -248.5 -115.5t-151.5 -121.5q-56 -60 -76 -118q-19 -52 -18 -99v-9q4 -121 108 -238q-131 -47 -206.5 -106.5t-109.5 -123.5 q-33 -63 -33 -129q0 -68 22 -134q49 -150 196 -307h11q64 0 143 43q74 39 175 135t226 284q-47 -100 -100 -179t-109.5 -141.5t-112.5 -108.5t-108 -79q-121 -78 -243 -108q-102 96 -177 199q-31 43 -59.5 93t-46.5 102t-24 106z" />
<glyph unicode="F" horiz-adv-x="886" d="M-551 -848q2 0 26.5 -2t62.5 11.5t85 48t93 107.5t89 190.5t74 295.5q29 172 86.5 299t127 216.5t143 145.5t137 88t108.5 44t58 14q-13 -2 -61 -4h-8q-44 0 -96 20q-56 22 -107.5 78t-67.5 168q-3 16 -3 32q0 44 20 88q28 61 78 118t117.5 111.5t139.5 101.5 q168 111 389 213q59 -43 96 -104q32 -53 50 -132q6 -29 6 -61q0 -57 -19 -127q-16 -55 -38.5 -87t-48 -48t-54.5 -19.5t-55 3.5q-63 12 -134 63q70 -29 116 -32q8 -1 15 0q36 0 59 12q28 14 40 41.5t14 60.5v14q0 75 -39 183q-119 -31 -217 -84q-43 -23 -84 -52.5 t-75.5 -66.5t-60.5 -81t-34 -97q-6 -29 -6 -55q0 -21 4 -39q8 -42 27.5 -73.5t47.5 -55t58 -37.5q70 -37 168 -48q-150 -16 -280 -104q-55 -39 -112.5 -96.5t-110 -141.5t-94.5 -196.5t-66 -259.5q-33 -195 -94.5 -320t-134 -198.5t-148.5 -105.5t-138 -41q-40 -6 -72 -6 q-18 0 -33 2q-42 5 -44 5z" />
<glyph unicode="G" horiz-adv-x="1107" d="M-834 -915q207 -111 382 -121q26 -2 52 -2q145 0 268 52q144 60 260 179t208 267.5t159.5 314.5t116.5 321q-74 -66 -151.5 -103.5t-143.5 -55.5q-76 -23 -147 -27q-100 37 -154 139q-23 43 -38 106.5t-15 150.5t20.5 201t69.5 259q47 143 110.5 255t136.5 197t148.5 143 t147.5 99q170 94 352 117q70 -70 117 -162q41 -78 61 -189q8 -42 8 -88q0 -75 -20 -161q-16 -70 -38.5 -108t-48.5 -53t-53.5 -12t-51.5 17q-59 33 -125 121q53 -61 100 -82q20 -8 40.5 -8t40 13.5t37 45t29.5 84.5q13 65 13 121q0 24 -3 46q-7 75 -24 130q-20 63 -53 115 q-154 -49 -291 -137q-59 -37 -119.5 -87t-116 -114.5t-101.5 -143.5t-77 -175q-37 -121 -55 -216.5t-21 -169.5q-1 -18 -1 -35q0 -52 7 -93q9 -54 23 -93q35 -90 103 -123q35 2 84 21q41 16 98 49t129 96q31 106 51.5 198.5t34.5 160.5q16 80 27 145l239 -69 q-156 -655 -409 -1086q-72 -123 -159 -233.5t-188.5 -195.5t-218 -139t-250.5 -63q-24 -2 -49 -2q-112 0 -233 34q-150 42 -318 149z" />
<glyph unicode="H" horiz-adv-x="1198" d="M-78 -240q39 322 107 643q29 137 67.5 287t87.5 299.5t109.5 293.5t134.5 271l188 -122q-70 -145 -137 -308q-59 -141 -125.5 -319t-124.5 -373q55 45 116 75t122 57.5t124.5 56t124 72.5t118 106.5t108.5 156.5q35 115 70 216.5t69 187.5l226 -96q-264 -770 -326 -1334 q-18 -160 -18 -311t25.5 -282.5t79.5 -232.5t147.5 -160.5t227.5 -69.5q22 -2 45 -2q119 0 273 45q-219 -80 -383 -83h-16q-154 0 -266 54q-118 57 -191.5 166.5t-112 255t-46.5 319.5q-3 59 -2 120q0 117 10 241q14 186 49 376.5t80 370.5q-68 -70 -140.5 -114.5 t-143.5 -79.5t-138.5 -67t-126 -75t-104.5 -106.5t-76 -161.5q-42 -205 -48 -389q0 -16 -1 -31q0 -164 53 -284q-23 41 -62 98t-78 111q-45 61 -96 122z" />
<glyph unicode="I" horiz-adv-x="464" d="M-360 1118q37 -88 90 -116q35 -18 74 -18q20 0 42 6q64 14 131.5 61t133.5 110q154 147 325 393l189 -122q-195 -412 -322 -791q-55 -162 -100 -332q-45 -169 -69 -329q-20 -136 -20 -261q0 -21 1 -41q4 -142 51 -249q-23 41 -61.5 98t-77.5 111q-45 61 -97 122 q25 223 70 463q18 102 44 218t57.5 238t70.5 247t86 245q-53 -45 -114.5 -89t-123.5 -78q-64 -34 -124 -52q-41 -12 -77 -12q-18 0 -34 3q-51 9 -89 50t-56 125z" />
<glyph unicode="J" horiz-adv-x="509" d="M-1935 -946q233 -231 439 -335.5t384 -108.5h14q170 0 316 82q153 85 282 233.5t235.5 345.5t191.5 418t151.5 451.5t117 445.5t83 400t53.5 317q-35 -35 -99.5 -92.5t-141.5 -115t-159 -101.5t-154 -52q-13 -1 -25 -1q-58 0 -103 31q-56 38 -80 146q37 -88 90 -116 q35 -18 74 -18q21 0 42 6q64 14 131.5 61t133.5 110q154 147 326 393v-20l192 -133q-176 -1186 -508 -1921q-94 -209 -209.5 -391.5t-254 -312.5t-301.5 -196q-122 -50 -258 -50q-46 0 -94 6q-189 22 -406.5 145t-462.5 373z" />
<glyph unicode="K" horiz-adv-x="864" d="M-59 -240q39 322 106 643q29 137 68 287t88 299.5t109.5 293.5t133.5 271l189 -122q-59 -123 -121 -267q-53 -123 -114.5 -281.5t-116.5 -336.5q70 76 185.5 192.5t264 250.5t320.5 270.5t354 251t367.5 192.5t359.5 93q36 3 71 3q135 0 257 -46q154 -58 278 -218 q-137 147 -306 188q-89 22 -184 22q-84 0 -172 -18q-188 -36 -383.5 -136.5t-386 -234.5t-366.5 -288t-321 -297q4 -20 19 -88t44 -164t70 -213t96 -235.5t124.5 -229t156 -196.5t187.5 -138q97 -50 212 -49h9q120 2 257 64.5t293 206.5q-193 -209 -361 -299 q-168 -91 -314 -93h-10q-140 0 -259 70q-123 72 -224.5 185.5t-181.5 256t-139 282.5t-99 262t-61 196q-68 -72 -121 -130.5t-92 -101.5q-37 -131 -63 -262q-25 -132 -34 -252q-4 -60 -4 -116t4 -110q9 -106 46 -189q-23 41 -61.5 98t-77.5 111q-45 61 -96 122z" />
<glyph unicode="L" horiz-adv-x="538" d="M-992 26v12q0 34 16 66q18 36 63 66.5t125 46.5q50 10 108 10q24 0 50 -2q86 -6 184 -25.5t203.5 -49t213.5 -66.5q25 143 64 327.5t95 382t131 395t171 365.5l189 -122q-109 -225 -203 -465q-41 -102 -82 -217t-79 -236t-68.5 -245t-51.5 -242q158 -55 311.5 -109.5 t291.5 -93.5q138 -40 254 -54q44 -6 84 -5q63 1 113 15q81 24 119 94q28 52 29 137q0 31 -4 67q35 -130 35 -222q0 -20 -2 -40q-10 -102 -60 -158t-134 -70q-43 -8 -92 -7q-44 1 -94 7q-102 14 -218.5 49t-231 81t-222 97.5t-195.5 94.5q-11 -94 -11 -180q0 -43 3 -84 q8 -123 49 -217q-23 41 -62 98t-77 111q-45 61 -97 122q2 27 8 62q4 29 9.5 72t13.5 96l-17.5 7t-13.5 7q-47 20 -124.5 45t-168 46.5t-185.5 35.5q-89 13 -165 13h-11q-81 -1 -141.5 -21.5t-82.5 -68.5q-11 -23 -11 -54q1 -33 13 -75q24 -81 114 -199q-100 117 -137 215 q-16 43 -19 85z" />
<glyph unicode="M" horiz-adv-x="1230" d="M-1049 -217q100 -160 196.5 -234.5t188.5 -80.5q10 -1 19 -2q81 0 157 48q85 54 163.5 151t151.5 227.5t136 279.5q223 522 410 1348l2 -2q0 6 2 10l176 -123q-72 -369 -109 -660q-16 -123 -25 -241q-7 -97 -7 -177v-35q2 -93 18 -149.5t53 -56.5q31 0 75 45t96.5 121 t110.5 176t116.5 211t115 225.5t107.5 220.5q37 123 84 243t106 237l66 -37h8l-2 -4l123 -70q-186 -375 -289 -723q-43 -150 -72.5 -307.5t-31.5 -307.5v-17q0 -141 32 -270q34 -136 117 -243q-14 12 -36.5 36t-48 53.5t-55.5 64.5t-56 70q-66 82 -140 176q4 98 17 215 q10 100 29.5 235t54.5 291q-68 -137 -139.5 -266t-142.5 -228.5t-135.5 -160t-117.5 -60.5q-104 0 -164.5 47t-86.5 132q-25 79 -25 186v16q2 117 20 256q-47 -152 -102.5 -308.5t-121 -301.5t-138 -270t-153.5 -212t-169 -129q-60 -29 -123 -29q-29 1 -59 7 q-94 20 -194.5 109.5t-207.5 267.5z" />
<glyph unicode="N" horiz-adv-x="1181" d="M-977 -217q94 -154 183 -223.5t173 -72.5h9q79 0 153 52q78 55 148.5 152.5t134 228.5t121.5 281q199 520 356 1339l197 -78l-17 -82q-12 -76 -29.5 -207t-30.5 -283t-17 -310q-1 -35 -1 -70q-1 -117 11 -216q16 -128 57 -209t117 -81q72 0 130 65.5t104 172t81 243 t62 277.5q59 334 90 758l164 -115q-20 -414 -95 -737q-31 -139 -78 -271.5t-113.5 -236t-153.5 -167t-199 -63.5q-88 0 -140 79t-74 213q-20 118 -19 273v41q3 180 22 384q-41 -154 -95.5 -328t-120 -345t-141 -327t-162.5 -274q-88 -116 -183 -184q-87 -62 -182 -62h-17 q-104 6 -215 95t-230 288z" />
<glyph unicode="O" horiz-adv-x="923" d="M2 329v27q0 80 10 174q12 110 41 240q31 129 78 232.5t103.5 182.5t118 137t120.5 99q141 96 299 131q66 -123 105 -270q16 -63 29.5 -138t18.5 -160q2 -42 2.5 -87t-2.5 -93q-5 -95 -26 -196q-33 -160 -81 -277.5t-104.5 -202.5t-119 -141.5t-121.5 -90.5 q-138 -80 -291 -80h-8q-78 84 -123 217q-18 57 -32.5 131t-16.5 165zM207 400v-30q0 -66 7 -120q9 -68 26 -121q37 -125 104 -207q92 10 180 80q37 31 77 76t79 112.5t74.5 158.5t66.5 212q23 96 33 182t10 161t-7 138.5t-17 116.5q-25 123 -74 215q-94 -25 -184 -92 q-78 -59 -161 -174t-145 -311q-37 -115 -52 -214.5t-17 -182.5z" />
<glyph unicode="P" horiz-adv-x="1077" d="M-70 -240q39 322 107 643q29 137 67.5 287t88 299.5t109.5 293.5t134 271l189 -122q-31 -63 -68 -146q-31 -70 -71 -164t-83 -207q92 100 194.5 213t189.5 210.5t144.5 163t61.5 71.5q31 -10 67 -38t66 -56q37 -35 72 -74q-74 -430 -201 -705q-55 -117 -127 -211 t-164 -135q-57 -25 -120 -25q-40 0 -84 10q-112 26 -248 148q-45 -147 -80 -295.5t-50 -286.5q-10 -90 -10 -173q0 -44 3 -87q8 -122 49 -216q-23 41 -61.5 98t-77.5 111q-45 61 -97 122zM270 537q96 -81 181 -81q12 0 24 2q96 13 179 126.5t156 324.5t136 510 q-109 -106 -217 -221q-92 -98 -197.5 -219t-193.5 -242q-35 -91 -68 -200z" />
<glyph unicode="Q" horiz-adv-x="897" d="M-291 -319l160 227q119 35 244 39q13 1 27 1q95 0 205 -25q126 -28 243 -120q57 -47 108.5 -70.5t95.5 -32.5q30 -6 57 -6q12 0 23 1q37 4 68 16q70 27 121 92q-59 -84 -141 -127q-35 -18 -80 -30q-34 -8 -74 -8h-24q-54 4 -117.5 25.5t-135.5 66.5q-74 45 -145.5 66.5 t-139.5 26.5q-25 2 -51 2q-40 0 -79 -5q-64 -8 -119 -25q-129 -37 -246 -114zM-22 455q-1 15 -1 30q0 69 9 150q12 98 43 215t78 209t103 162.5t117.5 123t121.5 89.5q141 86 299 118q66 -109 104 -241q16 -57 29.5 -125t18.5 -144q2 -39 2 -79.5t-2 -82.5q-5 -85 -26 -175 q-33 -141 -81 -248t-104 -183.5t-118.5 -127t-121.5 -80.5q-137 -72 -291 -72h-8q-78 74 -123 194q-18 51 -32.5 118t-16.5 149zM182 520v-25q0 -60 8 -110q9 -61 25 -109q37 -113 104 -186q92 8 181 72q37 27 76.5 67.5t78.5 101t75 142.5t67 191q23 86 33 162.5t10 144 t-7.5 125t-17.5 104.5q-25 111 -74 193q-94 -20 -184 -82q-78 -53 -161 -157t-144 -280q-37 -102 -52.5 -191t-17.5 -163z" />
<glyph unicode="R" horiz-adv-x="1026" d="M-76 -240q39 322 107 643q29 137 67.5 287t88 299.5t109.5 293.5t134 271l188 -122q-31 -63 -67 -146q-31 -70 -71 -164t-83 -207q92 100 194.5 213t189.5 210.5t144.5 163t61.5 71.5q31 -10 67 -38t66 -56q37 -35 72 -74q-53 -332 -148 -580q-41 -106 -93 -204.5 t-118.5 -169t-147.5 -104.5q-48 -20 -102 -20q-36 0 -75 9q14 -49 44 -139.5t77 -198t112.5 -220t151.5 -207.5t191 -159q106 -66 234 -76q20 -2 41 -1q111 1 237 47q150 56 325 200q-199 -215 -372 -304q-167 -86 -312 -86h-9q-148 3 -272.5 81t-226.5 199.5t-181 270 t-136.5 290t-94 259.5t-53.5 181q-4 4 -8 7t-8 7q-45 -147 -80 -295q-34 -149 -50 -287q-10 -89 -11 -172q-1 -45 3 -88q8 -122 50 -216q-23 41 -62 98t-78 111q-45 61 -96 122zM264 537q96 -81 181 -80q12 0 24 1q96 13 179 126.5t156 324.5t136 510q-109 -106 -217 -221 q-92 -98 -197.5 -219t-193.5 -242q-35 -92 -68 -200z" />
<glyph unicode="S" horiz-adv-x="948" d="M-201 289q53 -86 115.5 -164t134.5 -128q72 -51 153 -63q17 -3 34 -2q65 0 137 37q90 47 189.5 165t207.5 327q25 46 25 82q-1 11 -3 22q-10 43 -46.5 72t-94 45t-121 24.5t-125 10.5t-106.5 2q-35 0 -88 6t-106.5 22.5t-95.5 45t-54 71.5q-4 13 -4 27q1 33 21 77 q28 62 118 144t250 187.5t412 236.5q33 -115 74.5 -171t80.5 -79q38 -23 77 -23q7 0 15 1q-51 -53 -97 -79t-88 -30q-10 -1 -20 -1q-31 0 -59 10q-37 12 -67 34q-72 52 -129 152q-190 -100 -287 -183q-40 -35 -64 -71q-18 -26 -18 -49q0 -8 2 -16q8 -30 57.5 -53.5 t153.5 -33.5q209 -23 344 -48.5t193 -80.5q43 -41 44 -105q0 -22 -6 -48q-20 -98 -120 -265q-131 -219 -268.5 -355t-270.5 -164q-30 -6 -60 -6q-102 0 -200 74q-127 96 -240 343z" />
<glyph unicode="T" horiz-adv-x="821" d="M-440 1331l385 217q121 25 250 31q28 1 57 1q88 0 191 -9q137 -12 272 -62q90 -33 200.5 -81t222.5 -91t214 -71q85 -24 149 -25q14 0 27 2q74 6 109 56q21 30 21 83q0 35 -9 80q41 -89 41 -152q0 -12 -2 -24q-10 -70 -64 -106q-56 -38 -150 -46q-33 -3 -69 -3 q-67 1 -143 11q-118 16 -257 53.5t-282 90.5q-39 -78 -103.5 -214t-134 -298t-132 -337t-100.5 -331.5t-38 -281.5q-1 -124 57 -186q45 -48 133 -49q23 -1 49 3q124 16 337 140q-201 -134 -343 -184q-104 -37 -182 -36q-28 0 -52 4q-91 18 -136 99.5t-48 211.5v21 q0 123 32 280q34 171 99.5 368.5t160 417t210.5 444.5q-188 57 -363 61q-29 1 -57 1q-140 0 -253 -17q-158 -23 -299 -72z" />
<glyph unicode="U" horiz-adv-x="1103" d="M-39 378.5q0 194.5 92 482.5t250 667l207 -103q-195 -385 -285 -688q-39 -129 -57 -252q-10 -65 -10 -123q0 -51 8 -97q16 -97 77.5 -155.5t184.5 -58.5q72 0 130 50.5t100 118t70 135t38 100.5q18 119 46 255t69 279.5t94 289.5t125 286l194 -111q-186 -375 -288 -723 q-43 -150 -73 -307.5t-32 -307.5v-17q0 -141 32 -270q34 -136 118 -243q-14 12 -37 36t-48.5 53.5t-55 64.5t-56.5 70q-66 82 -139 176q0 25 2 57q2 29 5 68t9 88q-27 -41 -58.5 -80t-71.5 -69t-88 -47t-103 -17q-238 0 -343.5 99t-105.5 293.5z" />
<glyph unicode="V" horiz-adv-x="872" d="M-11 859v21q0 128 11 248q12 129 42 238t81 180l180 -125q-35 -260 -51 -510q-6 -106 -9 -222q-2 -58 -1.5 -115.5t1.5 -115.5q3 -114 15 -221.5t35 -197.5l831 1460l29 -108l-926 -1643l-143 152q-61 360 -84 682q-10 137 -11 277z" />
<glyph unicode="W" horiz-adv-x="1308" d="M-31 -100q-3 109 -3 215q0 243 16 467q10 137 28.5 277t48 269t73.5 238t106 180l163 -125q-68 -195 -116 -397q-20 -86 -39 -181t-31 -193q-12 -100 -14 -198v-32q0 -81 8 -156l450 942q29 104 69 192.5t91 147.5l2 -2l2 4l2 -6l158 -121q-61 -184 -104 -377 q-18 -82 -35 -174t-26 -187t-10 -191v-18q0 -87 9 -169q369 688 766 1116q113 121 237 227.5t255 182.5t268 115q104 30 209 30q34 0 68 -4q140 -12 279.5 -82.5t278.5 -214.5q-154 139 -307 195q-134 49 -266 50q-19 0 -37 -1q-150 -8 -297 -74.5t-286.5 -174t-269.5 -247 t-249 -295.5q-416 -547 -794 -1380l-121 150q-5 114 -5 236q0 41 1 83q2 143 12 320.5t37 357.5l-506 -1147z" />
<glyph unicode="X" horiz-adv-x="743" d="M-360 -127q29 20 108 109q33 37 81 93t113.5 137t150.5 187.5t194 245.5q-31 127 -52.5 251t-34 238.5t-18.5 215t-6 178.5l197 -115q2 -76 10 -168q6 -78 18.5 -182.5t34.5 -224.5q111 143 240 314t282 376l66 -49q-39 -61 -100.5 -144.5t-136 -178.5t-160.5 -200.5 t-174 -214.5q33 -164 84 -336t126.5 -327.5t179 -280.5t241.5 -193q132 -65 295 -65q7 0 15 1q173 3 388 104q-216 -123 -396 -153q-75 -13 -144 -13q-98 0 -184 25q-148 42 -266 144.5t-210.5 246t-160 315.5t-114.5 352q-117 -143 -220 -278.5t-178 -246t-111 -188.5 q-23 -50 -23 -81q0 -18 8 -29z" />
<glyph unicode="Y" horiz-adv-x="1026" d="M-1122 -428q76 127 180 206t224 121t251 53q69 6 137 6q62 0 123 -5q129 -10 252 -36t225.5 -54.5t181 -58t119.5 -46.5l-2 2q6 59 17 134q10 63 22.5 149t32.5 190q-66 -72 -157 -117.5t-214 -45.5q-139 0 -213.5 50t-94.5 142q-9 36 -9 78q0 65 19 144q32 130 105 292 t184.5 349.5t252.5 394.5l154 -95q-231 -360 -359 -641q-53 -121 -89 -236q-37 -117 -37 -208q0 -87 43 -142q44 -55 151 -55q94 0 166.5 65.5t126.5 162.5q29 139 67.5 292.5t89 308t111.5 303t137 279.5l189 -122q-195 -412 -322 -791q-55 -162 -100 -332t-68 -329 q-21 -137 -21 -261q0 -21 1 -41q4 -143 51 -249q-16 31 -47 77q-33 16 -113 52t-191.5 79.5t-247.5 87.5t-282.5 73.5t-295.5 40.5q-50 4 -97 4q-98 0 -191 -15q-137 -23 -256.5 -83t-205.5 -173z" />
<glyph unicode="Z" horiz-adv-x="784" d="M-726 1344q-1 11 -1 23q0 108 61 267q-30 -119 -30 -207q0 -63 16 -111q37 -114 131 -160q80 -39 192 -40q21 0 41 2q138 8 289 49q354 94 844 353l213 -103q-111 -322 -254 -600q-61 -119 -136 -238.5t-161 -225t-184.5 -189.5t-204.5 -129q33 -37 93.5 -96.5t140 -126 t176 -133t200.5 -115.5q106 -48 216 -72q64 -14 127 -14q47 0 93 7q110 17 214 82.5t196 199.5q-90 -145 -198 -222t-224 -100q-58 -12 -117 -11.5t-120 11.5q-121 23 -239 73t-227.5 119.5t-201.5 142.5t-164.5 139.5t-115.5 109.5q-6 2 -25.5 16t-42.5 31q-25 20 -53 43 q137 35 293 180q66 61 142.5 154.5t160.5 224.5t173 306t179 400q-86 -45 -208 -97t-260 -98t-281.5 -80t-273.5 -43q-38 -3 -75 -3q-86 -1 -160 15q-106 22 -166.5 87t-67.5 179z" />
<glyph unicode="[" horiz-adv-x="503" d="M88 -164q4 354 8 635q2 119 3 234.5t3 205.5t3 146.5t4 60.5q2 6 43 -4t90 -23.5t90 -24.5t43 -9t-17.5 -4t-44.5 -17q-29 -10 -67 -26l-6 -1016l120 -55z" />
<glyph unicode="\" horiz-adv-x="897" d="M-135 1599q8 31 21.5 60t37.5 41q39 18 76 -8q35 -4 69.5 -24.5t63.5 -51.5q57 -66 94 -154q18 -41 32.5 -87t27.5 -91l49 -182q51 -184 100 -365.5t99 -365.5v-6q4 -10 6 -20.5t4 -20.5l49 -177q12 -45 23.5 -88t27.5 -84q31 -82 79 -150.5t112 -92.5q23 -8 44 1t40 19 q18 10 36.5 19.5t34.5 31.5q4 6 12.5 2t4.5 -16q-8 -31 -22.5 -58.5t-37.5 -41.5q-39 -18 -76 8q-35 4 -69.5 24.5t-63.5 51.5q-29 33 -52 71.5t-42 81.5q-18 43 -32.5 88t-26.5 92l-49 183q-51 182 -100.5 363.5t-98.5 365.5v8q-4 10 -6 19.5t-6 19.5l-47 176 q-12 45 -23.5 88t-28.5 84q-31 82 -79 150.5t-111 93.5q-23 10 -44.5 1t-39.5 -20q-18 -12 -36.5 -21t-35.5 -32q-4 -6 -12 -1t-4 15z" />
<glyph unicode="]" horiz-adv-x="503" d="M90 1057q2 -2 43 9t90 24.5t90 23.5t43 4q0 -4 2 -60.5t3 -146.5t3.5 -205.5t4.5 -234.5q4 -281 8 -635l-273 103l121 55l-6 1016q-39 16 -67 26q-25 10 -45.5 16.5t-16.5 4.5z" />
<glyph unicode="^" horiz-adv-x="729" d="M29 1161q10 -8 40.5 11.5t70.5 53.5t83 73.5t79 74.5t59.5 57.5t23.5 20.5q0 -4 13.5 -29.5t36 -59.5t53 -71t65.5 -63.5t71.5 -36.5t73.5 10q0 -6 -14 -23.5t-40 -34t-61.5 -23.5t-79.5 7.5t-95.5 56.5t-106.5 128q-23 -29 -58.5 -60.5t-70.5 -58.5q-41 -31 -86 -61 q-18 8 -31 16q-10 6 -20 10t-6 2z" />
<glyph unicode="_" horiz-adv-x="12" d="M-1475 -827q8 35 28 64.5t42 53.5q47 49 105.5 86t117.5 66q18 10 36 18.5t38 16.5q-86 -16 -142.5 -32.5t-90.5 -33.5q-39 -18 -64 -37q74 92 252 154q76 27 183.5 48.5t252 32.5t329.5 8t419 -26q465 -47 795.5 -30.5t541.5 55.5q248 45 406 119q-121 -59 -283 -113 q-139 -45 -337 -89t-454 -66q178 -2 355.5 14t324.5 63q-113 -49 -271.5 -73.5t-335.5 -31.5t-356 -1t-333 16t-267.5 22.5t-156.5 18.5q-217 12 -372.5 10t-272.5 -14q-115 -33 -223 -92q-59 -31 -114.5 -71t-94.5 -93q-18 -27 -27.5 -57.5t-5.5 -63.5q12 -63 64 -108 q49 -43 116.5 -56.5t132.5 -9.5q68 4 134.5 16.5t132.5 30.5q57 43 122 66q39 16 79 25.5t75 31.5q12 8 20.5 0t-1.5 -18q-33 -37 -76 -67t-92 -46t-98.5 -21.5t-98.5 -15.5q-66 -16 -132.5 -23t-133.5 -3q-72 4 -133 30q-33 14 -60.5 37t-46.5 51q-18 29 -27.5 66t-1.5 72z M-1098 -745q72 72 211 112q59 18 138 30.5t181.5 14.5t230.5 -9t284 -40q182 -35 352 -43t307 -2t232.5 18.5t130.5 18.5q-27 -6 -91.5 -17.5t-153.5 -24.5t-195.5 -25.5t-217 -18.5t-218 -2t-195.5 22q-137 29 -252 42.5t-210 16.5t-172 -3.5t-136 -16.5q-140 -24 -226 -73 zM969 -645q4 0 6 1t6 1t6 2q-2 -2 -6 -2t-6 -1t-6 -1z" />
<glyph unicode="`" horiz-adv-x="602" d="M43 1386q33 10 70 19q33 8 75.5 14t96.5 8q12 -37 60 -75.5t107.5 -73.5t117 -62.5l92 -44t32.5 -18.5t-61 16q-92 27 -195.5 64t-191.5 72q-102 39 -203 81z" />
<glyph unicode="a" horiz-adv-x="688" d="M-23 57q72 422 166 672q39 106 89 186q49 81 104 103q17 7 35 6q39 0 83 -34q64 -50 136 -204l-8 -45q-29 55 -56.5 89t-56.5 37h-5q-28 1 -54 -31q-30 -34 -62.5 -116.5t-68 -217.5t-76.5 -334l299 545v-2q2 8 4 15t4 15l188 -131q-16 -37 -40.5 -97t-47 -131 t-40 -144.5t-21.5 -137.5q-1 -17 -1 -32q0 -43 8 -76q11 -46 47 -58q12 -4 26 -4q29 0 73 18q64 26 164 107q-138 -139 -246 -190q-57 -27 -101 -27q-41 0 -71 22q-64 46 -72 196q-1 18 -1 38q0 144 57 375l-268 -539l-4 13q0 -4 -1 -5t-1 -4z" />
<glyph unicode="b" horiz-adv-x="765" d="M6 143q20 150 62 334q35 158 93 370t148 460q45 123 92.5 199.5t94.5 118.5q47 43 92 55q30 8 59 8q14 0 27 -2q96 -14 186 -115q-53 41 -108 41q-13 0 -25 -2q-29 -6 -61.5 -25.5t-67.5 -59.5t-70.5 -105.5t-68.5 -164.5q-88 -264 -142.5 -466.5t-87.5 -358.5 q51 156 110.5 267.5t113.5 185.5q61 84 122 143l7 -12q0 2 1 4t1 6l180 -125q-45 -406 -123 -651q-33 -104 -76 -183t-97 -103q-19 -9 -39 -9q-39 0 -81 30q-66 46 -143 191q-8 -29 -15.5 -60.5t-15.5 -64.5q-2 -41 -2 -74q0 -25 1 -45q3 -47 7 -75q6 -35 15 -52zM223 238 q27 -51 55 -89q28 -39 54 -45q4 -1 8 -1q22 0 46 28q28 33 56.5 123t59 244.5t63.5 390.5q-31 -29 -71.5 -81t-87 -131t-93.5 -187.5t-90 -251.5z" />
<glyph unicode="c" horiz-adv-x="632" d="M2 340q6 78 25 154q41 176 141 374l342 166l14 10v-4l11 4q-4 -2 -6.5 -4t-6.5 -4q-6 -13 -6 -47v-19q2 -50 24 -100q21 -48 66 -78q26 -17 63 -18q28 0 62 10q-59 -74 -115 -104q-41 -21 -77 -21q-14 -1 -27 3q-47 12 -83 62t-56 136q-63 -102 -109 -220t-64 -228 q-11 -68 -11 -129q1 -38 5 -73q12 -91 58 -138q31 -33 60.5 -39t55 4t48 34.5t41.5 55.5q43 70 78 182q-37 -135 -91 -229q-23 -41 -50 -75t-61 -54.5t-75 -21.5h-3q-40 0 -83 26q-72 41 -110 101q-38 62 -52 134q-10 51 -10 105q0 22 2 45z" />
<glyph unicode="d" horiz-adv-x="761" d="M-4 88q45 406 121 649q33 104 75 183t96 104q20 9 40 9q38 0 80 -28q66 -44 143 -186q35 123 78 265t98 298q45 123 92 200t94.5 119t92.5 54q30 8 58 8q14 0 28 -2q96 -14 188 -114q-53 41 -108 41q-13 0 -25 -2q-29 -6 -61.5 -26t-67.5 -59.5t-71 -105t-68 -164.5 q-76 -227 -127.5 -409.5t-84 -326.5t-49 -253t-22.5 -188q-4 -57 -4 -105q0 -109 22 -170l-190 340q0 12 4 31q4 16 7 37.5t9 50.5q-47 -98 -93 -169t-83 -118q-43 -53 -84 -90l-6 12q0 -4 -1 -5t-1 -5zM195 96q29 29 67.5 77t81.5 120t88 169t86 226q4 16 8 31.5t9 32.5 q-27 51 -54.5 88t-54.5 42q-3 1 -7 1q-23 0 -47 -30q-26 -34 -54.5 -124t-59 -245t-63.5 -388z" />
<glyph unicode="e" horiz-adv-x="622" d="M-1 206q-4 35 -4 70q0 40 5 80q10 78 33 154q51 176 162 375l348 164l16 12l-2 -2v-4l10 6l-10 -10q-5 -23 -15 -83q-9 -53 -9 -112q1 -8 1 -16q2 -68 20.5 -124.5t72.5 -68.5q8 -2 22 -2h10q11 -2 11 -5q0 -2 -7 -4q-16 -5 -56 -14.5t-95 -23.5t-113.5 -34.5t-112 -49.5 t-87.5 -68q-21 -93 -21 -172q0 -20 1 -40q7 -95 54 -146q31 -33 60 -40t55.5 4t50 35t43.5 54q47 70 88 183q-45 -135 -102 -230q-25 -41 -55.5 -74.5t-65.5 -53t-75 -20.5h-2q-38 0 -83 25q-70 41 -104.5 101.5t-43.5 133.5zM211 494q35 29 91 65.5t142 77.5q-47 31 -63 88 t-19 104q-53 -78 -91 -163.5t-60 -171.5z" />
<glyph unicode="f" horiz-adv-x="364" d="M-84 -307q49 289 113 581q27 125 58.5 262.5t67 276.5t75.5 276.5t83 262.5q51 152 105.5 237.5t107.5 123.5q49 36 96 36h5q49 -2 92 -29q102 -61 199 -239q-74 113 -152 143q-25 9 -52 9q-9 0 -18 -1q-37 -4 -75.5 -37.5t-77.5 -101.5t-76 -182q31 41 63 65 q27 21 54 21q6 0 11 -1q32 -5 61.5 -44t54.5 -125q-25 49 -63 58q-11 3 -22 3q-28 0 -58 -16q-42 -23 -86 -75t-83 -128q-74 -291 -126 -518t-85.5 -402.5t-54 -302.5t-29.5 -215q-12 -103 -12 -173t12 -105z" />
<glyph unicode="g" horiz-adv-x="731" d="M-512 -825v13q0 99 59 226q-20 -86 -20 -158q0 -24 2 -47q4 -39 16.5 -75.5t37 -65.5t63.5 -46t98 -17q74 0 148.5 64.5t147.5 177t141.5 266t129 333t109.5 377t84 395.5l-311 -626l-5 12q-2 -4 -2 -8l-180 123q72 422 166 672q39 106 88 186t104 103q18 6 35 6 q41 0 85 -34q63 -51 132 -204l-8 -45q-29 55 -56.5 89t-55.5 37h-4q-25 0 -54 -32q-30 -35 -62 -117t-68 -217t-77 -334l297 545l232 -76q-113 -494 -256 -880q-61 -166 -134 -324t-157 -281.5t-178 -199.5t-197 -76q-102 0 -169.5 20.5t-106.5 54.5t-55.5 76t-18.5 87z" />
<glyph unicode="h" horiz-adv-x="778" d="M-2 141q20 150 61 334q35 158 93.5 370t148.5 460q45 123 92 199.5t95 118.5q47 43 92 55q29 8 56 7q15 0 30 -2q96 -14 186 -114q-51 41 -105 41q-13 0 -26 -2q-29 -6 -61.5 -25.5t-67.5 -59.5t-71 -105.5t-70 -164.5q-90 -270 -145.5 -476t-86.5 -363q53 160 121 276.5 t127 194.5q70 90 141 151l189 -133q-25 -33 -54.5 -104.5t-59.5 -164.5t-53.5 -198.5t-34.5 -203.5q-8 -72 -8 -137q0 -23 1 -45q4 -83 32 -131t82 -53h9q53 0 133 52q-147 -116 -249 -116h-13q-106 8 -147 132q-26 76 -26 193q1 75 11 167q26 236 133 574 q-35 -37 -89 -109.5t-110.5 -177t-107.5 -238.5t-78 -296q-3 -48 -3 -85q0 -18 1 -34q2 -47 6 -75q6 -33 14 -52z" />
<glyph unicode="i" horiz-adv-x="479" d="M-49 721q66 23 122 69t99 91q51 53 94 110l217 -123q-88 -186 -131 -362t-59 -316q-15 -126 -15 -241q0 -34 1 -68l-205 209q10 117 28 242q16 106 42 236t67 253q-20 -14 -43 -28.5t-52.5 -27.5t-69.5 -24.5t-95 -19.5zM307 1331q29 12 62.5 49t64.5 78q37 48 74 103 q8 -55 20 -105q10 -41 27.5 -82t42.5 -59q-35 -10 -70.5 -49t-64.5 -84q-35 -53 -68 -115q-6 55 -16 107q-10 43 -26.5 88t-45.5 69z" />
<glyph unicode="j" horiz-adv-x="462" d="M-813 -846v13q0 99 59 227q-20 -86 -20 -158q0 -24 2 -47q4 -39 16.5 -76t37 -65.5t63.5 -46t98 -17.5q72 0 148.5 79t153.5 213t150.5 314.5t138 384t119 417.5t91.5 419q-31 -12 -71 -30.5t-84 -35t-90 -26.5q-33 -7 -64 -7q-13 0 -25 1q92 12 159.5 58t112.5 97 q53 59 90 129l203 -108q-119 -553 -264 -987q-61 -184 -136 -361.5t-161 -315.5t-180 -223t-197 -85q-102 0 -169.5 20.5t-106.5 54t-55.5 75.5t-18.5 87zM287 1331q27 12 61.5 49t65.5 78q36 48 71 103q8 -55 21 -105q10 -41 28.5 -82t43.5 -59q-35 -10 -71 -49t-65 -84 q-35 -53 -67 -115q-6 55 -17 107q-10 43 -27.5 88t-43.5 69z" />
<glyph unicode="k" horiz-adv-x="636" d="M-25 168q23 168 62 367q35 170 92 391t147 469q45 123 92.5 199.5t94.5 118.5q47 43 92 55q30 8 59 8q14 0 27 -2q96 -14 188 -115q-53 41 -108 41q-13 0 -25 -2q-29 -6 -61.5 -25.5t-67.5 -59.5t-70.5 -105.5t-68.5 -164.5q-113 -336 -172 -580.5t-86 -418.5 q102 215 205.5 359.5t203 235.5t192.5 136t175 60q49 9 97 9q139 0 270 -75q-85 41 -184 41q-30 0 -60 -4q-57 -6 -123.5 -28.5t-142.5 -68.5t-159 -119.5t-171 -182.5q2 -25 10.5 -96.5t24.5 -167t40.5 -201t61.5 -198.5t85 -162q47 -70 111 -92q25 -9 52 -9q43 -1 91 21 q79 36 175 155q-106 -152 -195 -219.5t-164 -72.5h-14q-67 0 -121 42q-60 47 -107.5 123t-83.5 171t-61.5 188.5t-40.5 172t-24 123.5q-55 -100 -99 -223t-73 -276q2 -86 13 -123q4 -23 10 -35z" />
<glyph unicode="l" horiz-adv-x="337" d="M14 178q20 152 62 336q35 158 93 369t148 458q45 123 92.5 200t94.5 119t92 54q30 8 58 8q14 0 28 -2q96 -14 186 -114q-53 41 -108 41q-13 0 -25 -2q-29 -6 -61.5 -26t-67.5 -59.5t-70.5 -105t-68.5 -164.5q-102 -299 -164.5 -514t-94.5 -364.5t-41 -245.5 q-6 -62 -6 -109q0 -27 2 -49q5 -62 17.5 -99.5t22.5 -70.5z" />
<glyph unicode="m" horiz-adv-x="1140" d="M-14 74q6 168 39 338q14 72 34.5 151.5t50 159.5t69.5 159t91 150l181 -125q-59 -96 -113 -209q-45 -98 -89 -225t-61 -270l392 655q23 43 46 85t52 83l182 -125q-59 -92 -110 -201q-45 -92 -87 -215t-63 -264l393 764q6 23 15 41l188 -131q-25 -33 -55.5 -101.5 t-60 -157.5t-55.5 -187.5t-39 -190.5q-11 -80 -11 -147v-21q2 -76 28.5 -119t80.5 -45h4q54 0 139 56q-139 -110 -235 -124q-15 -2 -30 -2q-75 0 -115 64q-44 70 -44 217v25q4 166 67 418l-282 -562v-6l-51 -96l-142 152q0 59 8 129q6 59 18.5 140t35.5 173l-328 -586z" />
<glyph unicode="n" horiz-adv-x="841" d="M10 72q6 168 39 338q14 72 34.5 151.5t50.5 159.5t70 158.5t91 150.5l180 -125q-59 -94 -113 -207q-45 -96 -88 -224t-61 -271l483 823l189 -131q-25 -33 -55.5 -101.5t-60.5 -156.5t-55.5 -187.5t-38.5 -190.5q-11 -79 -12 -147q0 -11 1 -21q2 -77 28.5 -120t80.5 -45h4 q53 0 138 56q-150 -116 -250 -124q-7 -1 -14 -1q-89 -1 -129 91q-30 68 -30 186q0 53 6 116q20 203 110 508l-454 -836z" />
<glyph unicode="o" horiz-adv-x="692" d="M-32 252q9 72 34 165t63.5 195.5t88 191.5t105.5 150q55 62 115 74q12 2 24 2l96 -39q60 -49 116 -184q21 -29 41 -74q8 -19 8 -59q0 -16 -1 -36q-5 -68 -25.5 -158.5t-53 -190t-75.5 -186.5t-96.5 -150.5t-112.5 -80.5q-18 -5 -37 -5q-42 1 -87 27q-65 38 -132 157 q-16 12 -32.5 37t-35.5 66q-7 15 -7 45q0 22 4 53zM92 33q22 -33 48 -45q11 -5 23 -6q17 0 35 10q32 18 67.5 71.5t76.5 153.5t87 254t99 373q-35 42 -77 42h-6q-46 -3 -101 -87t-118.5 -267.5t-133.5 -498.5z" />
<glyph unicode="p" horiz-adv-x="788" d="M-45 -170q2 131 18.5 279.5t53 303t98 313.5t154.5 312l192 -112q-70 -129 -123 -257t-94 -257l371 592q0 4 1 7t1 7l180 -125q-55 -422 -139 -672q-37 -106 -83 -186t-103 -101q-17 -7 -35 -7q-43 0 -91 37q-69 52 -149 208l-23 -39q-37 -188 -46 -363q-3 -62 -3 -122 q0 -108 11 -206q16 -153 54 -278t95 -213l-293 281q-48 254 -48 520q0 39 1 78zM233 219q29 -53 57.5 -91t58.5 -45q5 -1 11 -1q24 0 50 26q30 33 62 122t64.5 242t67.5 386z" />
<glyph unicode="q" horiz-adv-x="831" d="M2 55q68 399 156 647q37 106 83 189.5t99 114.5q26 16 54.5 16t59.5 -16q60 -31 128 -154q23 45 45 90t51 90l192 -112q-160 -295 -239.5 -591t-94.5 -559q-3 -67 -3 -130q0 -188 32 -348q43 -214 129 -347l-295 281q-33 166 -41 356q-4 73 -4 155q0 104 6 222 q13 213 68 449l-238 -480l-6 13q0 -4 -1 -5.5t-1 -3.5zM227 166l283 514q12 33 24.5 65.5t28.5 65.5q-37 51 -73 54h-4q-35 0 -74 -65q-41 -69 -86 -221.5t-99 -412.5z" />
<glyph unicode="r" horiz-adv-x="823" d="M-12 72q6 168 39 338q14 72 34.5 151.5t50 159.5t69.5 158.5t91 150.5l181 -125q-59 -78 -111 -176q-43 -84 -84 -196.5t-55 -243.5q74 170 146.5 297t134 215t106.5 140t67 75q4 12 7 20l8 -6l180 -125q-20 -31 -40 -82t-32 -102q-10 -43 -10 -77v-11q2 -37 28 -38h1 q27 0 77 48q52 49 142 170q-114 -201 -216 -288q-92 -78 -155 -78q-7 1 -13 1q-66 10 -86 105q-5 24 -4 52q0 86 42 212q-47 -57 -107.5 -143t-122 -192.5t-117 -230.5t-92.5 -259l-16 -70z" />
<glyph unicode="s" horiz-adv-x="514" d="M-152 190q18 76 71.5 150t126.5 137.5t134 100.5q-16 35 -29.5 63.5t-20.5 57t-9 60.5v11q0 28 8 61q14 59 44 96.5t58 59.5q35 25 74 39l127 -63q-41 -29 -74 -64q-29 -29 -50 -67q-18 -32 -17 -65v-13q2 -23 10 -43.5t25 -53.5q53 29 133 68t157 74q91 39 189 82 q-100 -49 -191 -97q-78 -41 -156.5 -81.5t-121.5 -67.5q23 -43 46.5 -94.5t37.5 -109.5q13 -54 13 -115v-8q-1 -66 -27 -136q-41 -102 -112 -156q-72 -53 -148 -64q-23 -3 -45 -3q-53 -1 -104 17q-73 26 -118 81q-36 49 -36 103q0 20 5 40zM-102 188q-4 -19 -5 -35 q0 -41 25 -71q33 -40 87 -56q24 -7 48 -7q31 1 59 11q52 20 92 78t44 164q1 15 1 29q1 67 -15 126q-18 71 -39 120q-68 -41 -131.5 -102.5t-107.5 -127t-58 -129.5z" />
<glyph unicode="t" horiz-adv-x="415" d="M6 -8q10 109 35 246q23 117 60.5 280.5t99.5 366.5q10 39 -10.5 58.5t-49.5 29.5q-35 10 -84 10l37 41h24q52 0 78 7q34 9 49 23.5t19 32t15 33.5q6 16 23 61.5t38.5 95.5t40 95t25.5 62q6 20 13 38.5t15 34.5l225 99q-31 -49 -55 -106.5t-45.5 -119t-41 -123 t-42.5 -116.5h2q-7 -21 -7 -38q0 -25 16 -41q26 -26 67 -34q29 -6 67 -6q23 0 48 2q-14 -12 -23 -20q-8 -8 -14 -15.5t-2 -5.5q-29 0 -61.5 -5t-64.5 -15.5t-59.5 -23.5t-42.5 -30q-31 -102 -61.5 -205.5t-58 -208t-48 -211t-28.5 -212.5q-3 -23 -3 -47q0 -67 20 -147 q28 -108 78 -210t114 -184t126 -116q34 -19 66 -18q26 0 50 12q54 28 85 146q-25 -123 -64.5 -176t-87.5 -56h-7q-46 0 -96 35q-54 38 -106 95t-100.5 124t-84.5 122l-43 76q-25 43 -38.5 68.5t-15.5 27.5z" />
<glyph unicode="u" horiz-adv-x="813" d="M-33 70q6 168 39 338q14 72 34.5 151.5t50.5 159.5t70 158.5t91 150.5l180 -125q-68 -104 -123 -229q-47 -106 -91 -245.5t-54 -293.5q35 33 84 88.5t103.5 134t110.5 183t107 235.5q18 59 39 123t43 129l189 -131q-25 -33 -55.5 -101.5t-60.5 -157.5t-54 -188 q-24 -98 -38 -190q-11 -78 -12 -144v-24q2 -76 29 -119t81 -45h4q53 0 138 56q-131 -102 -224 -121q-22 -4 -42 -4q-63 1 -101 47q-49 62 -55 204q-1 15 -1 30q0 135 43 331q-63 -127 -131 -228.5t-123 -172.5q-66 -84 -127 -150z" />
<glyph unicode="v" horiz-adv-x="561" d="M-11 586v13q0 78 11 156q12 85 42 165.5t81 152.5l180 -125q-51 -109 -80 -237q-25 -113 -30 -265v-28q0 -140 43 -305l399 913l29 -108l-437 -1010l-143 151q-61 182 -84 365q-10 78 -11 162z" />
<glyph unicode="w" horiz-adv-x="1026" d="M6 82q6 168 39 338q14 72 34.5 151.5t50.5 160.5t70 159t91 149l180 -122q-61 -98 -115 -211q-45 -98 -88 -227.5t-59 -274.5l414 663q20 43 43.5 84t52.5 82l168 -116q-45 -88 -82 -193q-33 -90 -65 -210t-48 -255q37 74 92.5 181.5t124 226t146.5 236.5t156.5 212 t157.5 153.5t149 62.5h6q66 0 122 -62q58 -64 97 -219q-53 153 -128 185q-29 13 -61 12q-49 0 -102 -30q-88 -50 -181 -165t-184 -258q-211 -336 -444 -863l-143 150q-4 54 -4 115v41q2 72 10 165t31 197l-387 -668z" />
<glyph unicode="x" horiz-adv-x="686" d="M-55 61q49 123 130 245t167 233q-11 118 -11 225q0 30 1 60q4 134 26 231l164 -150q-2 -20 -4 -45q-2 -23 -2 -53.5v-67.5q63 68 119.5 124.5l97.5 97.5q49 47 90 83l86 -143q-55 -53 -119 -117q-53 -55 -122.5 -128.5t-143.5 -159.5q6 -100 23.5 -210t48 -214.5 t79 -196.5t118 -156.5t162.5 -95.5q58 -19 127 -19q42 0 89 7q-81 -21 -153 -21q-29 0 -56 4q-96 12 -177 54.5t-145.5 113t-114.5 159.5t-86 191.5t-60 209.5q-78 -100 -142.5 -202t-99.5 -196z" />
<glyph unicode="y" horiz-adv-x="768" d="M-485 -825v12q0 100 61 227q-20 -88 -20 -160q0 -24 2 -47q4 -39 16 -75.5t36.5 -65.5t63.5 -46t99 -17q63 0 131.5 62.5t138.5 173t136.5 260t128 323.5t115.5 362.5t97 378.5q-55 -129 -123.5 -244.5t-128.5 -205.5q-70 -104 -139 -195l-143 152q6 168 39 340 q14 72 34.5 151.5t50 161.5t69.5 161t91 150l183 -125q-68 -106 -123 -229q-47 -104 -91 -242.5t-55 -292.5q39 43 92.5 117t111.5 179.5t115.5 245.5t100.5 319q2 6 2 11t2 11l203 -108q-119 -557 -266 -994q-63 -186 -138 -364t-161 -317.5t-181.5 -224.5t-197.5 -85 t-170 20.5t-108 54.5t-56 77t-18 88z" />
<glyph unicode="z" horiz-adv-x="686" d="M-602 -674q229 47 422 129q82 35 165 80t153.5 101.5t124.5 126t81 153.5q23 70 23 121q-1 9 -1 17q-4 56 -27.5 89t-63 48.5t-85.5 19.5q-16 1 -33 1q-96 0 -225 -38l80 72q27 31 85.5 99.5t126 164.5t135 213t114.5 244q-53 -31 -125 -67t-142 -56q-51 -14 -96 -14 q-18 0 -34 2q-58 8 -82 63l92 70q-1 -7 -1 -14q0 -29 29 -37q16 -5 36 -6q26 0 60 8q60 14 137 48.5t155 86.5l207 -103q-53 -102 -121 -211q-57 -92 -136.5 -200.5t-175.5 -206.5q63 -2 126 -20q62 -19 96 -68q28 -41 28 -107q0 -13 -1 -29q-7 -88 -81 -225 q-47 -88 -117.5 -158.5t-153.5 -126t-172 -96.5t-175 -71q-203 -70 -428 -103z" />
<glyph unicode="{" horiz-adv-x="602" d="M10 492q61 18 109 71q39 45 69.5 129t22.5 223q-6 92 16.5 155t59.5 100.5t81 56t80.5 27t61 9.5t20.5 3q-6 2 -28.5 -13.5t-46 -54.5t-41 -104.5t-11.5 -163.5q4 -98 -25.5 -169t-68.5 -118q-45 -53 -104 -92q55 -27 100 -76q39 -41 72 -113.5t39 -183.5 q4 -113 33.5 -176t64.5 -98q39 -39 88 -54q-90 -6 -166 21q-33 12 -64.5 31.5t-58 52.5t-47 78t-28.5 108q-16 125 -54.5 196t-77.5 105q-45 39 -96 50z" />
<glyph unicode="|" horiz-adv-x="897" d="M-135 -211q-4 12 4 16.5t12 -2.5q16 -23 34.5 -32t37.5 -19q18 -10 39.5 -19t44.5 -1q63 25 111.5 93.5t78.5 149.5q16 41 27.5 84t24.5 88l49 177l4 20t6 21v6q49 184 98 365.5t101 365.5l49 182q12 45 26.5 91t32.5 87q37 88 94 154q29 31 64 51.5t69 24.5q37 27 76 8 q25 -12 38.5 -41t21.5 -60q4 -10 -4.5 -15t-12.5 1q-16 23 -34.5 32t-36.5 21q-18 10 -40 19.5t-44 -0.5q-63 -25 -111.5 -93.5t-79.5 -150.5q-16 -41 -27.5 -84t-23.5 -88l-47 -176q-4 -10 -6 -19.5t-6 -19.5v-8q-49 -184 -98.5 -365.5t-100.5 -363.5l-49 -183 q-12 -47 -26.5 -92t-33.5 -88q-18 -43 -41.5 -82t-52.5 -71q-29 -31 -63.5 -51.5t-69.5 -24.5q-37 -27 -76 -8q-23 14 -37 41.5t-22 58.5z" />
<glyph unicode="}" horiz-adv-x="602" d="M10 -150q49 14 88 54q35 35 63.5 98.5t35.5 175.5q4 111 37.5 183.5t72.5 113.5q45 49 101 76q-59 39 -105 92q-39 47 -69.5 117.5t-24.5 169.5q6 98 -11.5 163.5t-41 104.5t-46 54.5t-28.5 13.5q-4 -2 20.5 -3t61.5 -9.5t81 -27t80.5 -56t59.5 -100t16 -155.5 q-4 -70 2.5 -125t19.5 -98t31.5 -74.5t39.5 -54.5q47 -53 108 -71q-51 -10 -96 -50q-39 -35 -77 -105.5t-54 -195.5q-8 -63 -28.5 -108t-47.5 -78t-58.5 -52.5t-64.5 -31.5q-76 -27 -166 -21z" />
<glyph unicode="~" horiz-adv-x="880" d="M57 522q25 90 72 144q20 23 47 41t62.5 24t78.5 -2t97 -39q106 -59 180 -72.5t121 -3.5q53 10 88 45q-55 -80 -123 -127q-29 -20 -64.5 -34.5t-76.5 -16.5t-88.5 10.5t-98.5 45.5q-68 43 -113.5 60t-76.5 17t-49.5 -12t-28.5 -27.5t-15.5 -31t-11.5 -21.5z" />
<glyph unicode="&#xa1;" horiz-adv-x="485" d="M-94 -655q137 287 227 555q39 115 69.5 235.5t46 237t10.5 221t-40 186.5q41 -78 75 -127t56 -78q27 -35 49 -49q-10 -143 -34 -305q-23 -139 -65 -315t-114 -363q61 51 134 100.5t141.5 69t122 -6t75.5 -122.5q-29 68 -69.5 88.5t-89.5 10t-101.5 -46t-101.5 -85.5 q-117 -113 -248 -301zM254 1034q33 8 69.5 48t65.5 85q35 53 68 115q6 -57 16 -108q10 -43 26.5 -87.5t45.5 -68.5q-29 -12 -64 -49t-65 -78q-37 -48 -72 -103q-8 55 -20 105q-10 41 -29 82t-41 59z" />
<glyph unicode="&#xa2;" horiz-adv-x="632" d="M-236 -467q-4 12 4.5 16.5t12.5 -2.5q16 -23 34.5 -32t37.5 -19q18 -10 39.5 -19t44.5 -1q63 25 111 93.5t79 149.5q16 41 27.5 84t23.5 88l49 177l4 20t7 21v6q49 184 98 365.5t100 365.5l49 182q12 45 26.5 91t33.5 87q37 88 94 154q29 31 63.5 51.5t69.5 24.5 q37 27 76 8q25 -12 38 -41t21 -60q4 -10 -4 -15t-12 1q-16 23 -34.5 32t-37.5 21q-18 10 -39.5 19.5t-44.5 -0.5q-63 -25 -111.5 -93.5t-78.5 -150.5q-16 -41 -27.5 -84t-23.5 -88l-48 -176q-4 -10 -6 -19.5t-6 -19.5v-8q-49 -184 -98 -365.5t-100 -363.5l-50 -183 q-12 -47 -26.5 -92t-32.5 -88t-42 -82t-52 -71q-29 -31 -64 -51.5t-69 -24.5q-37 -27 -76 -8q-23 14 -37 41.5t-23 58.5zM2 340q6 78 25 154q41 176 141 374l342 166l14 10v-4l11 4q-4 -2 -6.5 -4t-6.5 -4q-8 -16 -6 -66t23.5 -99.5t66.5 -79t125 -7.5 q-59 -74 -115.5 -103.5t-103.5 -18t-83 61.5t-56 136q-63 -102 -108.5 -220t-64 -228.5t-7 -201.5t58.5 -138q31 -33 60.5 -39t55 4t48 34.5t41.5 55.5q43 70 78 182q-37 -135 -91 -229q-23 -41 -50 -75t-61 -54.5t-75 -21.5t-86 26q-72 41 -109.5 101.5t-52 133t-8.5 150.5 z" />
<glyph unicode="&#xa3;" horiz-adv-x="538" d="M-988 24q-3 42 15.5 78.5t63.5 66.5t125 46q72 14 158.5 8t184 -25.5t203 -49t213.5 -66.5q25 143 64 327.5t95 383t131 395t171 364.5q57 -8 123 -6q55 2 127 11.5t145 37.5q-66 -27 -134 -108.5t-135.5 -203.5t-132 -274.5t-119 -318.5t-98.5 -337t-71 -328 q158 -55 311.5 -109.5t292 -93.5t254 -53.5t196.5 9t119.5 94.5t24.5 204q43 -160 32 -260.5t-61 -153.5t-134 -65.5t-187.5 2t-219.5 51.5t-230.5 82t-221 92t-192.5 84q-16 -141 -8 -263t49 -218q-23 41 -61.5 98t-77.5 110q-45 61 -97 123q2 27 9 62q4 29 9 71.5t13 96.5 q-10 4 -17 7t-14 7q-47 20 -124.5 45t-168 46.5t-185.5 35.5t-176 13t-141.5 -21.5t-83 -68.5t2 -129t115.5 -199q-100 117 -138 215q-16 43 -19 85zM-207 381q33 90 94 143q27 23 62 41.5t81 24.5t103 -2t127 -39q139 -59 234.5 -72.5t156.5 -3.5q70 10 117 45 q-70 -80 -160 -127q-39 -20 -85 -34.5t-100 -16.5t-115.5 10t-129.5 45q-88 43 -148.5 60.5t-100.5 17.5t-63.5 -12t-37.5 -27.5t-21.5 -31t-13.5 -21.5zM440 1297.5q0 5.5 4 9.5q59 72 125 139t150 117q41 23 87 37t95 16q96 0 182 -51q43 -25 72 -66q31 -47 33 -94 q4 -49 -11.5 -96t-37.5 -88q-49 -82 -120 -146.5t-159 -103.5q-37 -41 -90 -47q-33 -6 -63.5 4t-59.5 20q-10 4 -8 14.5t12 10.5q35 4 63.5 11t59.5 11q29 2 61.5 4t61.5 19q76 43 137.5 107.5t98.5 144.5q18 39 25 81t-3 83t-39 72.5t-69 47.5q-39 18 -81 27.5t-85 5.5 t-84 -18.5t-78 -36.5q-76 -47 -137.5 -110.5t-118.5 -133.5q-4 -4 -9 -4t-10 4q-4 4 -4 9.5z" />
<glyph unicode="&#xa4;" horiz-adv-x="6838" d="M-662 -250q31 -10 107 -26.5t196.5 -27.5t287.5 -10t381 29.5t475.5 89t572.5 168.5q260 90 473 139.5t383 69t300 14t226 -23.5q225 -45 338 -164q-33 23 -86 39q-45 14 -116.5 25.5t-174.5 13.5q27 -8 49.5 -16.5t45.5 -18.5q82 -27 158.5 -65.5t148.5 -98.5 q35 -29 64.5 -66.5t49.5 -86.5q18 -51 19.5 -105.5t-10.5 -101.5q-10 -47 -36 -86t-61 -68q-29 -29 -66.5 -48t-74.5 -30q-78 -23 -156.5 -27.5t-160.5 1.5q-59 4 -116.5 0t-117.5 8q-61 10 -119.5 42t-107.5 79q-12 10 -6 25.5t22 5.5q45 -23 94.5 -26t98.5 -21 q45 -8 84 -24.5t75 -39.5q82 -10 163 -11t159 9q78 12 150.5 47t115.5 107q20 39 32.5 83t8.5 91q-12 96 -74 163q-61 72 -137 116t-153 73q-72 31 -142.5 50.5t-142.5 29.5q-137 -10 -316.5 -46t-424.5 -106q-37 -14 -118 -44t-194.5 -66.5t-252 -78.5t-289 -79t-306 -66.5 t-305 -43t-284 -8.5t-242.5 38q184 -33 393 -13.5t410 66.5q-262 -25 -480.5 -14.5t-384 36t-275.5 55.5t-151 44zM332 -598h26h-26zM358 -598q41 -2 154 3t272.5 29.5t351 78t390.5 147.5q170 80 313 127t262 68.5t213 22.5t168 -9q173 -25 277 -111q-115 51 -281 54 q-72 0 -161 -10.5t-198.5 -38t-237.5 -75.5t-275 -122q-96 -49 -218 -80t-250 -50.5t-255 -27.5t-232.5 -10t-183.5 0t-109 4zM510 496v8q63 6 70 49q2 18 6 53t10 94l12 140v53q0 41 -14 53t-59 19v8h100l203 -406l198 406h111v-8q-49 -2 -64.5 -20.5t-7.5 -72.5l2 -272 q0 -29 2 -47t10.5 -28.5t23.5 -14.5t42 -6v-8h-188v8q25 2 40 6t22 14.5t8 28.5t-1 47l-2 322h-4l-205 -418h-8l-186 391h-2l-8 -205q-4 -27 -4.5 -47t-0.5 -37q-2 -53 11.5 -74.5t66.5 -27.5v-8h-184zM1047 1307v6q18 4 28 12t21 37l94 217l4 4l29 -82q16 -41 28.5 -79 t26.5 -68q8 -23 15 -30t30 -11v-6h-94v6q31 8 31 14q0 10 -9.5 33.5t-19.5 54.5h-98q-4 -10 -15.5 -39.5t-11.5 -42.5q0 -10 9 -13t26 -7v-6h-94zM1139 1425h90l-41 117h-4q-12 -31 -23.5 -59.5t-21.5 -57.5zM1194 496v8q37 6 54.5 21.5t35.5 66.5l168 391l8 2l51 -141 q27 -72 51.5 -141.5t49.5 -122.5q14 -41 28.5 -55.5t51.5 -20.5v-8h-174v8q61 12 59 28q0 18 -15.5 59.5t-35.5 94.5h-176q-4 -8 -12.5 -27.5t-15.5 -41t-12 -42t-5 -32.5q0 -18 14 -25.5t49 -13.5v-8h-174zM1358 707h160l-72 206h-4q-23 -53 -44.5 -104t-39.5 -102z M1407 1049q0 20 12.5 33.5t32.5 13.5q18 0 31.5 -13.5t13.5 -33.5t-13.5 -31.5t-31.5 -11.5q-45 0 -45 43zM1720 965v8h97l356 -402h2v217q2 53 0 87t-11.5 53.5t-28.5 28t-52 8.5v8h188v-8q-33 -2 -48 -13.5t-21 -27.5t-7.5 -49t-1.5 -87v-299h-6l-356 404h-2v-207 q2 -59 2 -91t6 -48q6 -18 24.5 -28.5t57.5 -14.5v-8h-188v8q59 6 71 41q2 16 5 49t3 92v168q0 47 -5 59.5t-15 22.5q-8 10 -21.5 16t-48.5 13zM1989 1307v6q25 0 32 8t7 33v174q0 23 -7.5 32t-31.5 9v4h182q0 -16 1 -32.5t1 -33.5h-8q-4 33 -18.5 45.5t-49.5 12.5h-35 q-14 0 -14 -15v-104h53q29 0 37 6t12 29h7v-84h-7q-4 27 -12 34t-37 7h-53v-84q0 -25 8 -33t41 -8v-6h-108zM2327 629h8q4 -18 13 -39t25.5 -40.5t40 -33.5t58.5 -18q90 0 96 102q-4 59 -37.5 85t-66.5 42q-10 0 -66 33q-51 33 -53 100q0 51 36 87t105 36q16 2 37 -2t53 -12 q0 -18 3.5 -43t5.5 -66h-9q-10 37 -31.5 71t-76.5 38q-41 -4 -62.5 -27.5t-21.5 -60.5q4 -47 31.5 -73t68.5 -44q14 -6 35 -16.5t40 -26.5t33.5 -41t14.5 -59q0 -61 -40 -99.5t-116 -38.5q-25 0 -42 3t-33 6q-16 8 -23.5 10t-11.5 6l-7 49t-7 72zM2472 1438q0 57 37.5 98 t109.5 43q57 0 98.5 -36t41.5 -99t-42 -103.5t-106 -40.5q-59 0 -99 37t-40 101zM2501 1448q0 -63 33.5 -100t86.5 -37q45 0 77 28.5t34 85.5q-2 72 -37 109t-88 37q-43 0 -74.5 -29t-31.5 -94zM2836 727q2 63 26 111.5t64 81t92 48t109 15.5q49 0 90 -6t60 -12q0 -16 3 -47 t9 -68h-12q-18 70 -60.5 94.5t-101.5 24.5q-111 -4 -168 -63.5t-57 -166.5q0 -43 13 -85t41 -75.5t72 -55t105 -25.5q29 0 53.5 4t42.5 10q35 6 35 53v66q0 35 -15 48t-79 19v9h180v-9q-33 -6 -41 -16t-8 -37v-67q0 -20 1 -38t7 -28q-37 -10 -83 -19.5t-93 -9.5 q-129 0 -207 66.5t-78 177.5zM3047 1571v2h56l198 -223h2v123q2 59 -6 77.5t-45 20.5v2h103v-2q-16 -2 -24.5 -8.5t-12.5 -14.5q-4 -10 -5 -28.5t-1 -46.5v-168h-2l-197 225h-4v-115q4 -35 3 -52t3 -28q4 -23 43 -22v-6h-104v6q18 0 27 6t14 16q4 10 5 27.5t1 52.5v92 q0 27 -2 33t-11 12q-4 8 -12 11.5t-29 7.5zM3247 -371.5q1 54.5 22 105.5q20 49 49.5 87t62.5 66q72 59 150 98.5t157 65.5q25 10 47.5 18.5t49.5 16.5q-104 -2 -175 -13.5t-116 -25.5q-53 -16 -86 -39q113 119 338 164q96 18 226 23.5t299 -14t381 -69t474 -139.5 q311 -109 573.5 -169t476.5 -88.5t381 -29.5t287.5 10t196.5 27.5t107 26.5q-41 -14 -151 -44t-275.5 -55.5t-385 -35.5t-479.5 14q201 -47 410 -66.5t393 13.5q-109 -33 -244 -38t-283.5 8.5t-305 43t-307 66.5t-289 79t-251 78.5t-193.5 66.5t-118 44q-246 70 -426 106 t-317 46q-72 -10 -141.5 -29.5t-141.5 -50.5q-78 -29 -153.5 -73t-136.5 -116q-31 -33 -49.5 -74.5t-26.5 -88.5q-2 -47 9 -91.5t32 -82.5q43 -72 116.5 -107t149.5 -47q78 -10 160 -9t162 11q37 23 76.5 39t82.5 25q51 18 99.5 21t95.5 26q16 10 22 -5.5t-8 -25.5 q-47 -47 -106.5 -79t-118.5 -42q-61 -12 -118.5 -8t-117.5 0q-80 -6 -159.5 -1t-155.5 27q-37 10 -76 30t-67 48q-35 29 -59.5 68t-35.5 86q-14 47 -13 101.5zM3385 496v8q49 4 61.5 19.5t12.5 58.5v305q0 47 -12.5 59t-59.5 17v8h183q29 0 57.5 -4t51 -18.5t35.5 -37 t13 -59.5q0 -51 -23.5 -81t-70.5 -50q10 -16 31.5 -47t38.5 -58q29 -37 64.5 -73.5t64.5 -46.5v-7q-25 -2 -49.5 2.5t-46.5 20.5q-45 33 -127 168q-16 20 -39 25.5t-72 5.5v-129q0 -43 12.5 -58.5t63.5 -19.5v-8h-189zM3498 721h49q33 0 55.5 7t40.5 17q16 16 27.5 39 t11.5 56q-2 61 -37.5 89.5t-97.5 28.5q-16 -2 -26.5 -2h-14.5q-8 0 -8 -18v-217zM3637 1509q2 20 2 38t4 38h4q4 -6 11 -12h184q10 0 13 3t8 9h8v-35.5t4 -36.5l-8 -4q-10 35 -24.5 45.5t-37.5 10.5h-41v-211q0 -23 8.5 -32t40.5 -9v-6h-116v6q35 0 41 9t6 32v211h-27 q-39 0 -53 -11.5t-21 -44.5h-6zM3727 -242q104 86 277 111q74 10 168 9t212 -22.5t261 -68.5t313 -127q199 -94 391.5 -147.5t351 -78t271.5 -29.5t154 -3q-31 -2 -108 -4t-183.5 0t-232.5 10t-255 27.5t-249.5 50.5t-217.5 80q-147 74 -276 122t-237.5 75.5t-198.5 38 t-160 10.5q-168 -3 -281 -54zM3863 496v8q51 2 64 17.5t13 58.5v301q0 51 -12 66.5t-57 15.5v8h331q0 -16 3.5 -48t3.5 -65l-13 -4q-10 59 -32.5 80.5t-90.5 21.5h-71q-16 0 -19.5 -4t-3.5 -18v-180h92q43 0 60.5 11t25.5 50h11v-143h-11q-8 45 -26.5 54t-59.5 9h-92v-149 q0 -55 24.5 -65.5t69.5 -10.5q39 0 70 4t47 29q10 8 22.5 27.5t20.5 45.5h15q-6 -23 -14.5 -61.5t-14.5 -58.5h-356zM4297 496v8q51 0 63 16.5t12 61.5v305q0 43 -11 57t-58 19v8h182q82 0 117 -25.5t33 -77.5q-4 -49 -37 -74.5t-60 -31.5q53 -10 92 -40t39 -85 q0 -80 -73 -115q-59 -33 -148 -26h-151zM4411 578q0 -39 14.5 -53.5t57.5 -14.5q59 0 96 26.5t41 90.5q-4 63 -44 93t-109 30h-56v-172zM4411 764h58q63 0 92 26.5t29 69.5q2 14 -2.5 31.5t-17.5 32t-38.5 24.5t-68.5 10q-16 0 -26.5 -1t-14.5 -1q-10 0 -11 -18v-174z M4538 1307v6q29 0 36 8t7 35v172q0 23 -7 32t-34 9v4h105q86 0 82 -57q-4 -29 -21.5 -42.5t-31.5 -15.5q29 -8 51 -23.5t22 -45.5q0 -45 -41 -68q-31 -14 -84 -14h-84zM4602 1354q0 -23 8 -31t33 -8q33 0 54.5 15.5t21.5 49.5q0 37 -24 52.5t-60 15.5h-33v-94zM4602 1458h33 q70 0 69 55q0 16 -13 34t-60 22q-8 0 -14.5 -2t-8.5 -2q-6 0 -6 -9v-98zM4712 496v8q37 6 54.5 21.5t36.5 66.5l167 391l9 2l51 -141q27 -72 51.5 -141.5t48.5 -122.5q14 -41 28.5 -55.5t51.5 -20.5v-8h-174v8q35 6 48 12t11 16q0 18 -15 59.5t-34 94.5h-178 q-4 -8 -11 -27.5t-15.5 -41t-13.5 -42t-5 -32.5q0 -18 14.5 -25.5t49.5 -13.5v-8h-175zM4876 707h160l-72 206h-2q-47 -100 -86 -206zM4889 1038q0 12 8 21.5t20 9.5q14 0 23.5 -9t9.5 -22q0 -31 -33 -30q-28 -1 -28 30zM5014 1038q0 12 8 21.5t20 9.5q14 0 23.5 -9t9.5 -22 q0 -31 -33 -30q-28 -1 -28 30zM5030 1571v2h94v-2q-33 -10 -33 -15q4 -4 4 -7t2 -7q16 -25 32 -51.5t32 -52.5q4 10 14.5 25.5t20.5 37.5q14 20 18 32.5t8 18.5q0 10 -34 19v2h96v-2q-20 -4 -31.5 -14.5t-23.5 -28.5q-10 -16 -23.5 -38t-30.5 -50q-10 -12 -10 -21v-65 q0 -25 7 -33t42 -8v-6h-117v6q31 0 39.5 8t8.5 33v63q0 2 -1 7.5t-12 19.5q-10 16 -22.5 38.5t-32.5 51.5q-12 18 -20.5 26.5t-26.5 10.5zM5259 727q0 117 84 186.5t217 69.5q55 0 92 -7t54 -11q4 -29 6 -57.5t8 -61.5l-14 -2q-16 68 -56.5 96.5t-117.5 28.5 q-113 -4 -166 -67.5t-53 -156.5q2 -115 61 -179t164 -68q78 4 119 42t67 97l14 -6q-10 -33 -20 -70t-20 -59q-20 -4 -63.5 -11.5t-90.5 -7.5q-76 2 -130 22.5t-89 54.5t-50.5 77t-15.5 90zM5782 965v8h188v-8q-51 -2 -63.5 -19.5t-12.5 -64.5v-136q10 2 26.5 9.5t26.5 15.5 q23 20 48.5 44t50.5 52q55 57 57 78q0 8 -51 21v8h184v-8q-37 -6 -63.5 -18.5t-55.5 -39.5q-20 -16 -65 -59t-90 -88q23 -27 49.5 -55.5t54.5 -59.5l84 -84q35 -29 53.5 -41t46.5 -16v-8h-94l-107 107t-102 112q-25 20 -39 20q-2 -2 -14 -2v-145q0 -47 12.5 -63.5 t65.5 -20.5v-8h-184v8q43 4 56 20.5t13 63.5v293q0 47 -12 64.5t-63 19.5zM6126 -598h26h-26z" />
<glyph unicode="&#xa5;" horiz-adv-x="1026" d="M-1122 -428q76 127 180 206t224 121t251 53t260 1t252 -36t225.5 -54.5t181 -58t119.5 -46.5l-2 2q6 59 17 134q10 63 22.5 149t32.5 190q-66 -72 -157 -117.5t-214 -45.5q-139 0 -213.5 50t-95 142t11 222t104.5 292t184.5 349.5t252.5 394.5l154 -95 q-231 -360 -359 -641q-53 -121 -89 -235.5t-37 -204.5t43 -145.5t151 -55.5q94 0 166.5 65.5t126.5 162.5q29 139 67.5 292.5t89 308t111.5 303t137 279.5l189 -122q-195 -412 -322 -791q-55 -162 -100 -332t-68.5 -329.5t-19.5 -302t51 -248.5q-27 35 -103.5 84t-188.5 100 t-251 99t-289.5 81t-305 44t-299 -11.5t-270.5 -82.5t-220 -171zM258 -152q33 90 94 144q27 23 62 41t81 24t103 -2t127 -39q139 -59 234.5 -72.5t156.5 -2.5q70 10 117 45q-70 -80 -160 -127q-39 -20 -85 -34.5t-100 -17t-115.5 10t-129.5 45.5q-88 43 -148.5 60.5 t-100.5 17.5t-63.5 -12.5t-37.5 -28t-21.5 -31t-13.5 -21.5z" />
<glyph unicode="&#xa6;" horiz-adv-x="6838" d="M-662 -250q31 -10 107 -26.5t196.5 -27.5t287.5 -10t381 29.5t475.5 89t572.5 168.5q260 90 473 139.5t383 69t300 14t226 -23.5q225 -45 338 -164q-33 23 -86 39q-45 14 -116.5 25.5t-174.5 13.5q27 -8 49.5 -16.5t45.5 -18.5q82 -27 158.5 -65.5t148.5 -98.5 q35 -29 64.5 -66.5t49.5 -86.5q18 -51 19.5 -105.5t-10.5 -101.5q-10 -47 -36 -86t-61 -68q-29 -29 -66.5 -48t-74.5 -30q-78 -23 -156.5 -27.5t-160.5 1.5q-59 4 -116.5 0t-117.5 8q-61 10 -119.5 42t-107.5 79q-12 10 -6 25.5t22 5.5q45 -23 94.5 -26t98.5 -21 q45 -8 84 -24.5t75 -39.5q82 -10 163 -11t159 9q78 12 150.5 47t115.5 107q20 39 32.5 83t8.5 91q-12 96 -74 163q-61 72 -137 116t-153 73q-72 31 -142.5 50.5t-142.5 29.5q-137 -10 -316.5 -46t-424.5 -106q-37 -14 -118 -44t-194.5 -66.5t-252 -78.5t-289 -79t-306 -66.5 t-305 -43t-284 -8.5t-242.5 38q184 -33 393 -13.5t410 66.5q-262 -25 -480.5 -14.5t-384 36t-275.5 55.5t-151 44zM332 -598h26h-26zM358 -598q41 -2 154 3t272.5 29.5t351 78t390.5 147.5q170 80 313 127t262 68.5t213 22.5t168 -9q173 -25 277 -111q-115 51 -281 54 q-72 0 -161 -10.5t-198.5 -38t-237.5 -75.5t-275 -122q-96 -49 -218 -80t-250 -50.5t-255 -27.5t-232.5 -10t-183.5 0t-109 4zM510 496v8q63 6 70 49q2 18 6 53t10 94l12 140v53q0 41 -14 53t-59 19v8h100l203 -406l198 406h111v-8q-49 -2 -64.5 -20.5t-7.5 -72.5l2 -272 q0 -29 2 -47t10.5 -28.5t23.5 -14.5t42 -6v-8h-188v8q25 2 40 6t22 14.5t8 28.5t-1 47l-2 322h-4l-205 -418h-8l-186 391h-2l-8 -205q-4 -27 -4.5 -47t-0.5 -37q-2 -53 11.5 -74.5t66.5 -27.5v-8h-184zM1047 1307v6q18 4 28 12t21 37l94 217l4 4l29 -82q16 -41 28.5 -79 t26.5 -68q8 -23 15 -30t30 -11v-6h-94v6q31 8 31 14q0 10 -9.5 33.5t-19.5 54.5h-98q-4 -10 -15.5 -39.5t-11.5 -42.5q0 -10 9 -13t26 -7v-6h-94zM1139 1425h90l-41 117h-4q-12 -31 -23.5 -59.5t-21.5 -57.5zM1194 496v8q37 6 54.5 21.5t35.5 66.5l168 391l8 2l51 -141 q27 -72 51.5 -141.5t49.5 -122.5q14 -41 28.5 -55.5t51.5 -20.5v-8h-174v8q61 12 59 28q0 18 -15.5 59.5t-35.5 94.5h-176q-4 -8 -12.5 -27.5t-15.5 -41t-12 -42t-5 -32.5q0 -18 14 -25.5t49 -13.5v-8h-174zM1358 707h160l-72 206h-4q-23 -53 -44.5 -104t-39.5 -102z M1407 1049q0 20 12.5 33.5t32.5 13.5q18 0 31.5 -13.5t13.5 -33.5t-13.5 -31.5t-31.5 -11.5q-45 0 -45 43zM1720 965v8h97l356 -402h2v217q2 53 0 87t-11.5 53.5t-28.5 28t-52 8.5v8h188v-8q-33 -2 -48 -13.5t-21 -27.5t-7.5 -49t-1.5 -87v-299h-6l-356 404h-2v-207 q2 -59 2 -91t6 -48q6 -18 24.5 -28.5t57.5 -14.5v-8h-188v8q59 6 71 41q2 16 5 49t3 92v168q0 47 -5 59.5t-15 22.5q-8 10 -21.5 16t-48.5 13zM1989 1307v6q25 0 32 8t7 33v174q0 23 -7.5 32t-31.5 9v4h182q0 -16 1 -32.5t1 -33.5h-8q-4 33 -18.5 45.5t-49.5 12.5h-35 q-14 0 -14 -15v-104h53q29 0 37 6t12 29h7v-84h-7q-4 27 -12 34t-37 7h-53v-84q0 -25 8 -33t41 -8v-6h-108zM2327 629h8q4 -18 13 -39t25.5 -40.5t40 -33.5t58.5 -18q90 0 96 102q-4 59 -37.5 85t-66.5 42q-10 0 -66 33q-51 33 -53 100q0 51 36 87t105 36q16 2 37 -2t53 -12 q0 -18 3.5 -43t5.5 -66h-9q-10 37 -31.5 71t-76.5 38q-41 -4 -62.5 -27.5t-21.5 -60.5q4 -47 31.5 -73t68.5 -44q14 -6 35 -16.5t40 -26.5t33.5 -41t14.5 -59q0 -61 -40 -99.5t-116 -38.5q-25 0 -42 3t-33 6q-16 8 -23.5 10t-11.5 6l-7 49t-7 72zM2472 1438q0 57 37.5 98 t109.5 43q57 0 98.5 -36t41.5 -99t-42 -103.5t-106 -40.5q-59 0 -99 37t-40 101zM2501 1448q0 -63 33.5 -100t86.5 -37q45 0 77 28.5t34 85.5q-2 72 -37 109t-88 37q-43 0 -74.5 -29t-31.5 -94zM2836 727q2 63 26 111.5t64 81t92 48t109 15.5q49 0 90 -6t60 -12q0 -16 3 -47 t9 -68h-12q-18 70 -60.5 94.5t-101.5 24.5q-111 -4 -168 -63.5t-57 -166.5q0 -43 13 -85t41 -75.5t72 -55t105 -25.5q29 0 53.5 4t42.5 10q35 6 35 53v66q0 35 -15 48t-79 19v9h180v-9q-33 -6 -41 -16t-8 -37v-67q0 -20 1 -38t7 -28q-37 -10 -83 -19.5t-93 -9.5 q-129 0 -207 66.5t-78 177.5zM3047 1571v2h56l198 -223h2v123q2 59 -6 77.5t-45 20.5v2h103v-2q-16 -2 -24.5 -8.5t-12.5 -14.5q-4 -10 -5 -28.5t-1 -46.5v-168h-2l-197 225h-4v-115q4 -35 3 -52t3 -28q4 -23 43 -22v-6h-104v6q18 0 27 6t14 16q4 10 5 27.5t1 52.5v92 q0 27 -2 33t-11 12q-4 8 -12 11.5t-29 7.5zM3247 -371.5q1 54.5 22 105.5q20 49 49.5 87t62.5 66q72 59 150 98.5t157 65.5q25 10 47.5 18.5t49.5 16.5q-104 -2 -175 -13.5t-116 -25.5q-53 -16 -86 -39q113 119 338 164q96 18 226 23.5t299 -14t381 -69t474 -139.5 q311 -109 573.5 -169t476.5 -88.5t381 -29.5t287.5 10t196.5 27.5t107 26.5q-41 -14 -151 -44t-275.5 -55.5t-385 -35.5t-479.5 14q201 -47 410 -66.5t393 13.5q-109 -33 -244 -38t-283.5 8.5t-305 43t-307 66.5t-289 79t-251 78.5t-193.5 66.5t-118 44q-246 70 -426 106 t-317 46q-72 -10 -141.5 -29.5t-141.5 -50.5q-78 -29 -153.5 -73t-136.5 -116q-31 -33 -49.5 -74.5t-26.5 -88.5q-2 -47 9 -91.5t32 -82.5q43 -72 116.5 -107t149.5 -47q78 -10 160 -9t162 11q37 23 76.5 39t82.5 25q51 18 99.5 21t95.5 26q16 10 22 -5.5t-8 -25.5 q-47 -47 -106.5 -79t-118.5 -42q-61 -12 -118.5 -8t-117.5 0q-80 -6 -159.5 -1t-155.5 27q-37 10 -76 30t-67 48q-35 29 -59.5 68t-35.5 86q-14 47 -13 101.5zM3385 496v8q49 4 61.5 19.5t12.5 58.5v305q0 47 -12.5 59t-59.5 17v8h183q29 0 57.5 -4t51 -18.5t35.5 -37 t13 -59.5q0 -51 -23.5 -81t-70.5 -50q10 -16 31.5 -47t38.5 -58q29 -37 64.5 -73.5t64.5 -46.5v-7q-25 -2 -49.5 2.5t-46.5 20.5q-45 33 -127 168q-16 20 -39 25.5t-72 5.5v-129q0 -43 12.5 -58.5t63.5 -19.5v-8h-189zM3498 721h49q33 0 55.5 7t40.5 17q16 16 27.5 39 t11.5 56q-2 61 -37.5 89.5t-97.5 28.5q-16 -2 -26.5 -2h-14.5q-8 0 -8 -18v-217zM3637 1509q2 20 2 38t4 38h4q4 -6 11 -12h184q10 0 13 3t8 9h8v-35.5t4 -36.5l-8 -4q-10 35 -24.5 45.5t-37.5 10.5h-41v-211q0 -23 8.5 -32t40.5 -9v-6h-116v6q35 0 41 9t6 32v211h-27 q-39 0 -53 -11.5t-21 -44.5h-6zM3727 -242q104 86 277 111q74 10 168 9t212 -22.5t261 -68.5t313 -127q199 -94 391.5 -147.5t351 -78t271.5 -29.5t154 -3q-31 -2 -108 -4t-183.5 0t-232.5 10t-255 27.5t-249.5 50.5t-217.5 80q-147 74 -276 122t-237.5 75.5t-198.5 38 t-160 10.5q-168 -3 -281 -54zM3863 496v8q51 2 64 17.5t13 58.5v301q0 51 -12 66.5t-57 15.5v8h331q0 -16 3.5 -48t3.5 -65l-13 -4q-10 59 -32.5 80.5t-90.5 21.5h-71q-16 0 -19.5 -4t-3.5 -18v-180h92q43 0 60.5 11t25.5 50h11v-143h-11q-8 45 -26.5 54t-59.5 9h-92v-149 q0 -55 24.5 -65.5t69.5 -10.5q39 0 70 4t47 29q10 8 22.5 27.5t20.5 45.5h15q-6 -23 -14.5 -61.5t-14.5 -58.5h-356zM4297 496v8q51 0 63 16.5t12 61.5v305q0 43 -11 57t-58 19v8h182q82 0 117 -25.5t33 -77.5q-4 -49 -37 -74.5t-60 -31.5q53 -10 92 -40t39 -85 q0 -80 -73 -115q-59 -33 -148 -26h-151zM4411 578q0 -39 14.5 -53.5t57.5 -14.5q59 0 96 26.5t41 90.5q-4 63 -44 93t-109 30h-56v-172zM4411 764h58q63 0 92 26.5t29 69.5q2 14 -2.5 31.5t-17.5 32t-38.5 24.5t-68.5 10q-16 0 -26.5 -1t-14.5 -1q-10 0 -11 -18v-174z M4538 1307v6q29 0 36 8t7 35v172q0 23 -7 32t-34 9v4h105q86 0 82 -57q-4 -29 -21.5 -42.5t-31.5 -15.5q29 -8 51 -23.5t22 -45.5q0 -45 -41 -68q-31 -14 -84 -14h-84zM4602 1354q0 -23 8 -31t33 -8q33 0 54.5 15.5t21.5 49.5q0 37 -24 52.5t-60 15.5h-33v-94zM4602 1458h33 q70 0 69 55q0 16 -13 34t-60 22q-8 0 -14.5 -2t-8.5 -2q-6 0 -6 -9v-98zM4712 496v8q37 6 54.5 21.5t36.5 66.5l167 391l9 2l51 -141q27 -72 51.5 -141.5t48.5 -122.5q14 -41 28.5 -55.5t51.5 -20.5v-8h-174v8q35 6 48 12t11 16q0 18 -15 59.5t-34 94.5h-178 q-4 -8 -11 -27.5t-15.5 -41t-13.5 -42t-5 -32.5q0 -18 14.5 -25.5t49.5 -13.5v-8h-175zM4876 707h160l-72 206h-2q-47 -100 -86 -206zM4889 1038q0 12 8 21.5t20 9.5q14 0 23.5 -9t9.5 -22q0 -31 -33 -30q-28 -1 -28 30zM5014 1038q0 12 8 21.5t20 9.5q14 0 23.5 -9t9.5 -22 q0 -31 -33 -30q-28 -1 -28 30zM5030 1571v2h94v-2q-33 -10 -33 -15q4 -4 4 -7t2 -7q16 -25 32 -51.5t32 -52.5q4 10 14.5 25.5t20.5 37.5q14 20 18 32.5t8 18.5q0 10 -34 19v2h96v-2q-20 -4 -31.5 -14.5t-23.5 -28.5q-10 -16 -23.5 -38t-30.5 -50q-10 -12 -10 -21v-65 q0 -25 7 -33t42 -8v-6h-117v6q31 0 39.5 8t8.5 33v63q0 2 -1 7.5t-12 19.5q-10 16 -22.5 38.5t-32.5 51.5q-12 18 -20.5 26.5t-26.5 10.5zM5259 727q0 117 84 186.5t217 69.5q55 0 92 -7t54 -11q4 -29 6 -57.5t8 -61.5l-14 -2q-16 68 -56.5 96.5t-117.5 28.5 q-113 -4 -166 -67.5t-53 -156.5q2 -115 61 -179t164 -68q78 4 119 42t67 97l14 -6q-10 -33 -20 -70t-20 -59q-20 -4 -63.5 -11.5t-90.5 -7.5q-76 2 -130 22.5t-89 54.5t-50.5 77t-15.5 90zM5782 965v8h188v-8q-51 -2 -63.5 -19.5t-12.5 -64.5v-136q10 2 26.5 9.5t26.5 15.5 q23 20 48.5 44t50.5 52q55 57 57 78q0 8 -51 21v8h184v-8q-37 -6 -63.5 -18.5t-55.5 -39.5q-20 -16 -65 -59t-90 -88q23 -27 49.5 -55.5t54.5 -59.5l84 -84q35 -29 53.5 -41t46.5 -16v-8h-94l-107 107t-102 112q-25 20 -39 20q-2 -2 -14 -2v-145q0 -47 12.5 -63.5 t65.5 -20.5v-8h-184v8q43 4 56 20.5t13 63.5v293q0 47 -12 64.5t-63 19.5zM6126 -598h26h-26z" />
<glyph unicode="&#xa7;" horiz-adv-x="6838" d="M-662 -250q31 -10 107 -26.5t196.5 -27.5t287.5 -10t381 29.5t475.5 89t572.5 168.5q260 90 473 139.5t383 69t300 14t226 -23.5q225 -45 338 -164q-33 23 -86 39q-45 14 -116.5 25.5t-174.5 13.5q27 -8 49.5 -16.5t45.5 -18.5q82 -27 158.5 -65.5t148.5 -98.5 q35 -29 64.5 -66.5t49.5 -86.5q18 -51 19.5 -105.5t-10.5 -101.5q-10 -47 -36 -86t-61 -68q-29 -29 -66.5 -48t-74.5 -30q-78 -23 -156.5 -27.5t-160.5 1.5q-59 4 -116.5 0t-117.5 8q-61 10 -119.5 42t-107.5 79q-12 10 -6 25.5t22 5.5q45 -23 94.5 -26t98.5 -21 q45 -8 84 -24.5t75 -39.5q82 -10 163 -11t159 9q78 12 150.5 47t115.5 107q20 39 32.5 83t8.5 91q-12 96 -74 163q-61 72 -137 116t-153 73q-72 31 -142.5 50.5t-142.5 29.5q-137 -10 -316.5 -46t-424.5 -106q-37 -14 -118 -44t-194.5 -66.5t-252 -78.5t-289 -79t-306 -66.5 t-305 -43t-284 -8.5t-242.5 38q184 -33 393 -13.5t410 66.5q-262 -25 -480.5 -14.5t-384 36t-275.5 55.5t-151 44zM332 -598h26h-26zM358 -598q41 -2 154 3t272.5 29.5t351 78t390.5 147.5q170 80 313 127t262 68.5t213 22.5t168 -9q173 -25 277 -111q-115 51 -281 54 q-72 0 -161 -10.5t-198.5 -38t-237.5 -75.5t-275 -122q-96 -49 -218 -80t-250 -50.5t-255 -27.5t-232.5 -10t-183.5 0t-109 4zM510 496v8q63 6 70 49q2 18 6 53t10 94l12 140v53q0 41 -14 53t-59 19v8h100l203 -406l198 406h111v-8q-49 -2 -64.5 -20.5t-7.5 -72.5l2 -272 q0 -29 2 -47t10.5 -28.5t23.5 -14.5t42 -6v-8h-188v8q25 2 40 6t22 14.5t8 28.5t-1 47l-2 322h-4l-205 -418h-8l-186 391h-2l-8 -205q-4 -27 -4.5 -47t-0.5 -37q-2 -53 11.5 -74.5t66.5 -27.5v-8h-184zM1047 1307v6q18 4 28 12t21 37l94 217l4 4l29 -82q16 -41 28.5 -79 t26.5 -68q8 -23 15 -30t30 -11v-6h-94v6q31 8 31 14q0 10 -9.5 33.5t-19.5 54.5h-98q-4 -10 -15.5 -39.5t-11.5 -42.5q0 -10 9 -13t26 -7v-6h-94zM1139 1425h90l-41 117h-4q-12 -31 -23.5 -59.5t-21.5 -57.5zM1194 496v8q37 6 54.5 21.5t35.5 66.5l168 391l8 2l51 -141 q27 -72 51.5 -141.5t49.5 -122.5q14 -41 28.5 -55.5t51.5 -20.5v-8h-174v8q61 12 59 28q0 18 -15.5 59.5t-35.5 94.5h-176q-4 -8 -12.5 -27.5t-15.5 -41t-12 -42t-5 -32.5q0 -18 14 -25.5t49 -13.5v-8h-174zM1358 707h160l-72 206h-4q-23 -53 -44.5 -104t-39.5 -102z M1407 1049q0 20 12.5 33.5t32.5 13.5q18 0 31.5 -13.5t13.5 -33.5t-13.5 -31.5t-31.5 -11.5q-45 0 -45 43zM1720 965v8h97l356 -402h2v217q2 53 0 87t-11.5 53.5t-28.5 28t-52 8.5v8h188v-8q-33 -2 -48 -13.5t-21 -27.5t-7.5 -49t-1.5 -87v-299h-6l-356 404h-2v-207 q2 -59 2 -91t6 -48q6 -18 24.5 -28.5t57.5 -14.5v-8h-188v8q59 6 71 41q2 16 5 49t3 92v168q0 47 -5 59.5t-15 22.5q-8 10 -21.5 16t-48.5 13zM1989 1307v6q25 0 32 8t7 33v174q0 23 -7.5 32t-31.5 9v4h182q0 -16 1 -32.5t1 -33.5h-8q-4 33 -18.5 45.5t-49.5 12.5h-35 q-14 0 -14 -15v-104h53q29 0 37 6t12 29h7v-84h-7q-4 27 -12 34t-37 7h-53v-84q0 -25 8 -33t41 -8v-6h-108zM2327 629h8q4 -18 13 -39t25.5 -40.5t40 -33.5t58.5 -18q90 0 96 102q-4 59 -37.5 85t-66.5 42q-10 0 -66 33q-51 33 -53 100q0 51 36 87t105 36q16 2 37 -2t53 -12 q0 -18 3.5 -43t5.5 -66h-9q-10 37 -31.5 71t-76.5 38q-41 -4 -62.5 -27.5t-21.5 -60.5q4 -47 31.5 -73t68.5 -44q14 -6 35 -16.5t40 -26.5t33.5 -41t14.5 -59q0 -61 -40 -99.5t-116 -38.5q-25 0 -42 3t-33 6q-16 8 -23.5 10t-11.5 6l-7 49t-7 72zM2472 1438q0 57 37.5 98 t109.5 43q57 0 98.5 -36t41.5 -99t-42 -103.5t-106 -40.5q-59 0 -99 37t-40 101zM2501 1448q0 -63 33.5 -100t86.5 -37q45 0 77 28.5t34 85.5q-2 72 -37 109t-88 37q-43 0 -74.5 -29t-31.5 -94zM2836 727q2 63 26 111.5t64 81t92 48t109 15.5q49 0 90 -6t60 -12q0 -16 3 -47 t9 -68h-12q-18 70 -60.5 94.5t-101.5 24.5q-111 -4 -168 -63.5t-57 -166.5q0 -43 13 -85t41 -75.5t72 -55t105 -25.5q29 0 53.5 4t42.5 10q35 6 35 53v66q0 35 -15 48t-79 19v9h180v-9q-33 -6 -41 -16t-8 -37v-67q0 -20 1 -38t7 -28q-37 -10 -83 -19.5t-93 -9.5 q-129 0 -207 66.5t-78 177.5zM3047 1571v2h56l198 -223h2v123q2 59 -6 77.5t-45 20.5v2h103v-2q-16 -2 -24.5 -8.5t-12.5 -14.5q-4 -10 -5 -28.5t-1 -46.5v-168h-2l-197 225h-4v-115q4 -35 3 -52t3 -28q4 -23 43 -22v-6h-104v6q18 0 27 6t14 16q4 10 5 27.5t1 52.5v92 q0 27 -2 33t-11 12q-4 8 -12 11.5t-29 7.5zM3247 -371.5q1 54.5 22 105.5q20 49 49.5 87t62.5 66q72 59 150 98.5t157 65.5q25 10 47.5 18.5t49.5 16.5q-104 -2 -175 -13.5t-116 -25.5q-53 -16 -86 -39q113 119 338 164q96 18 226 23.5t299 -14t381 -69t474 -139.5 q311 -109 573.5 -169t476.5 -88.5t381 -29.5t287.5 10t196.5 27.5t107 26.5q-41 -14 -151 -44t-275.5 -55.5t-385 -35.5t-479.5 14q201 -47 410 -66.5t393 13.5q-109 -33 -244 -38t-283.5 8.5t-305 43t-307 66.5t-289 79t-251 78.5t-193.5 66.5t-118 44q-246 70 -426 106 t-317 46q-72 -10 -141.5 -29.5t-141.5 -50.5q-78 -29 -153.5 -73t-136.5 -116q-31 -33 -49.5 -74.5t-26.5 -88.5q-2 -47 9 -91.5t32 -82.5q43 -72 116.5 -107t149.5 -47q78 -10 160 -9t162 11q37 23 76.5 39t82.5 25q51 18 99.5 21t95.5 26q16 10 22 -5.5t-8 -25.5 q-47 -47 -106.5 -79t-118.5 -42q-61 -12 -118.5 -8t-117.5 0q-80 -6 -159.5 -1t-155.5 27q-37 10 -76 30t-67 48q-35 29 -59.5 68t-35.5 86q-14 47 -13 101.5zM3385 496v8q49 4 61.5 19.5t12.5 58.5v305q0 47 -12.5 59t-59.5 17v8h183q29 0 57.5 -4t51 -18.5t35.5 -37 t13 -59.5q0 -51 -23.5 -81t-70.5 -50q10 -16 31.5 -47t38.5 -58q29 -37 64.5 -73.5t64.5 -46.5v-7q-25 -2 -49.5 2.5t-46.5 20.5q-45 33 -127 168q-16 20 -39 25.5t-72 5.5v-129q0 -43 12.5 -58.5t63.5 -19.5v-8h-189zM3498 721h49q33 0 55.5 7t40.5 17q16 16 27.5 39 t11.5 56q-2 61 -37.5 89.5t-97.5 28.5q-16 -2 -26.5 -2h-14.5q-8 0 -8 -18v-217zM3637 1509q2 20 2 38t4 38h4q4 -6 11 -12h184q10 0 13 3t8 9h8v-35.5t4 -36.5l-8 -4q-10 35 -24.5 45.5t-37.5 10.5h-41v-211q0 -23 8.5 -32t40.5 -9v-6h-116v6q35 0 41 9t6 32v211h-27 q-39 0 -53 -11.5t-21 -44.5h-6zM3727 -242q104 86 277 111q74 10 168 9t212 -22.5t261 -68.5t313 -127q199 -94 391.5 -147.5t351 -78t271.5 -29.5t154 -3q-31 -2 -108 -4t-183.5 0t-232.5 10t-255 27.5t-249.5 50.5t-217.5 80q-147 74 -276 122t-237.5 75.5t-198.5 38 t-160 10.5q-168 -3 -281 -54zM3863 496v8q51 2 64 17.5t13 58.5v301q0 51 -12 66.5t-57 15.5v8h331q0 -16 3.5 -48t3.5 -65l-13 -4q-10 59 -32.5 80.5t-90.5 21.5h-71q-16 0 -19.5 -4t-3.5 -18v-180h92q43 0 60.5 11t25.5 50h11v-143h-11q-8 45 -26.5 54t-59.5 9h-92v-149 q0 -55 24.5 -65.5t69.5 -10.5q39 0 70 4t47 29q10 8 22.5 27.5t20.5 45.5h15q-6 -23 -14.5 -61.5t-14.5 -58.5h-356zM4297 496v8q51 0 63 16.5t12 61.5v305q0 43 -11 57t-58 19v8h182q82 0 117 -25.5t33 -77.5q-4 -49 -37 -74.5t-60 -31.5q53 -10 92 -40t39 -85 q0 -80 -73 -115q-59 -33 -148 -26h-151zM4411 578q0 -39 14.5 -53.5t57.5 -14.5q59 0 96 26.5t41 90.5q-4 63 -44 93t-109 30h-56v-172zM4411 764h58q63 0 92 26.5t29 69.5q2 14 -2.5 31.5t-17.5 32t-38.5 24.5t-68.5 10q-16 0 -26.5 -1t-14.5 -1q-10 0 -11 -18v-174z M4538 1307v6q29 0 36 8t7 35v172q0 23 -7 32t-34 9v4h105q86 0 82 -57q-4 -29 -21.5 -42.5t-31.5 -15.5q29 -8 51 -23.5t22 -45.5q0 -45 -41 -68q-31 -14 -84 -14h-84zM4602 1354q0 -23 8 -31t33 -8q33 0 54.5 15.5t21.5 49.5q0 37 -24 52.5t-60 15.5h-33v-94zM4602 1458h33 q70 0 69 55q0 16 -13 34t-60 22q-8 0 -14.5 -2t-8.5 -2q-6 0 -6 -9v-98zM4712 496v8q37 6 54.5 21.5t36.5 66.5l167 391l9 2l51 -141q27 -72 51.5 -141.5t48.5 -122.5q14 -41 28.5 -55.5t51.5 -20.5v-8h-174v8q35 6 48 12t11 16q0 18 -15 59.5t-34 94.5h-178 q-4 -8 -11 -27.5t-15.5 -41t-13.5 -42t-5 -32.5q0 -18 14.5 -25.5t49.5 -13.5v-8h-175zM4876 707h160l-72 206h-2q-47 -100 -86 -206zM4889 1038q0 12 8 21.5t20 9.5q14 0 23.5 -9t9.5 -22q0 -31 -33 -30q-28 -1 -28 30zM5014 1038q0 12 8 21.5t20 9.5q14 0 23.5 -9t9.5 -22 q0 -31 -33 -30q-28 -1 -28 30zM5030 1571v2h94v-2q-33 -10 -33 -15q4 -4 4 -7t2 -7q16 -25 32 -51.5t32 -52.5q4 10 14.5 25.5t20.5 37.5q14 20 18 32.5t8 18.5q0 10 -34 19v2h96v-2q-20 -4 -31.5 -14.5t-23.5 -28.5q-10 -16 -23.5 -38t-30.5 -50q-10 -12 -10 -21v-65 q0 -25 7 -33t42 -8v-6h-117v6q31 0 39.5 8t8.5 33v63q0 2 -1 7.5t-12 19.5q-10 16 -22.5 38.5t-32.5 51.5q-12 18 -20.5 26.5t-26.5 10.5zM5259 727q0 117 84 186.5t217 69.5q55 0 92 -7t54 -11q4 -29 6 -57.5t8 -61.5l-14 -2q-16 68 -56.5 96.5t-117.5 28.5 q-113 -4 -166 -67.5t-53 -156.5q2 -115 61 -179t164 -68q78 4 119 42t67 97l14 -6q-10 -33 -20 -70t-20 -59q-20 -4 -63.5 -11.5t-90.5 -7.5q-76 2 -130 22.5t-89 54.5t-50.5 77t-15.5 90zM5782 965v8h188v-8q-51 -2 -63.5 -19.5t-12.5 -64.5v-136q10 2 26.5 9.5t26.5 15.5 q23 20 48.5 44t50.5 52q55 57 57 78q0 8 -51 21v8h184v-8q-37 -6 -63.5 -18.5t-55.5 -39.5q-20 -16 -65 -59t-90 -88q23 -27 49.5 -55.5t54.5 -59.5l84 -84q35 -29 53.5 -41t46.5 -16v-8h-94l-107 107t-102 112q-25 20 -39 20q-2 -2 -14 -2v-145q0 -47 12.5 -63.5 t65.5 -20.5v-8h-184v8q43 4 56 20.5t13 63.5v293q0 47 -12 64.5t-63 19.5zM6126 -598h26h-26z" />
<glyph unicode="&#xa8;" horiz-adv-x="309" d="M383 1331q29 12 62.5 49t64.5 78q37 48 74 103q8 -53 20 -99q10 -41 27.5 -78.5t42.5 -56.5q-35 -10 -71 -37.5t-64 -58.5q-35 -37 -68 -80q-6 33 -16 66q-10 29 -26.5 59.5t-45.5 54.5zM711 1323q29 12 62.5 51t64.5 80q36 50 73 107q8 -55 21 -105q10 -41 27.5 -82 t41.5 -59q-35 -10 -70.5 -36t-64.5 -54q-35 -35 -67 -74q-6 31 -17 61q-10 27 -26.5 56.5t-44.5 54.5z" />
<glyph unicode="&#xa9;" horiz-adv-x="1093" d="M36 331q-13 118 10.5 244.5t86.5 245.5q61 117 147.5 197t180.5 115.5t190.5 25.5t177.5 -72q82 -63 130.5 -162.5t61.5 -218t-10.5 -245.5t-86.5 -246q-61 -117 -147.5 -196.5t-180.5 -115.5t-189.5 -26t-177.5 74q-82 63 -131 162.5t-62 217.5zM73.5 340 q12.5 -109 56.5 -200t120 -148q74 -57 162 -66.5t174 24.5t164.5 106.5t134.5 179.5q57 106 79.5 222.5t10.5 225.5t-57.5 200t-120.5 148q-74 57 -161 66.5t-173 -24.5t-165 -107t-136 -179q-57 -109 -79 -224t-9.5 -224zM303 348q2 45 8 84q4 61 22.5 120.5t37.5 106.5 q23 55 47 107l221 108l10 7v-2l6 2q-4 -4 -8 -7q-4 -10 -3 -41.5t14.5 -64.5t43 -52.5t82.5 -4.5q-78 -96 -142 -79t-91 128q-41 -66 -70.5 -142.5t-42 -148.5t-5.5 -131t38 -90q41 -41 75 -23.5t58 58.5q29 45 51 118q-23 -88 -57 -149q-29 -53 -74 -84t-104 4 q-31 16 -51.5 40t-34.5 50q8 -41 26.5 -72.5t59.5 -50.5q-47 14 -72.5 48t-36 75t-8.5 86zM334 524q6 6 0 6v-6z" />
<glyph unicode="&#xaa;" horiz-adv-x="688" d="M39 1059q49 297 117 471q27 74 61.5 130t73.5 71.5t84 -20.5t94 -142l-2 -4l-35 14q-41 49 -70.5 39t-56 -70.5t-51.5 -166t-57 -246.5l211 383q0 4 2 9t4 11l131 -92q-16 -33 -39 -96.5t-41.5 -132t-24.5 -130t12.5 -93t67.5 -22.5t144 85q-96 -96 -173 -132t-121 -4.5 t-50.5 137t38.5 290.5l-188 -379l-2 8q0 -2 -2 -4zM41 1059l1 35q1 36 8 94.5t20.5 131.5t33 146.5t49 140t68.5 113.5q-49 -78 -76.5 -183t-44.5 -202q-18 -113 -22 -229l-17 -25q-14 -22 -20 -22zM307 1105.5q6 65.5 17.5 122t22.5 94.5t13 38v-23q0 -10 -1 -22t-1 -25 q-2 -31 -4 -67q-25 -92 -26 -166q0 -31 3 -61.5t14 -55.5t30.5 -41t50.5 -18q-55 -10 -83 21.5t-35 84.5t-1 118.5z" />
<glyph unicode="&#xab;" horiz-adv-x="628" d="M-8 469q137 41 266 96.5t234.5 117.5t180.5 125.5t105 119.5q4 -10 7 -21.5t6 -21.5q2 -12 4 -23q-106 -86 -207 -160q-43 -31 -89 -62.5t-92.5 -59t-88.5 -48t-76 -30.5q39 -10 94 -47t116.5 -108t123 -179.5t112.5 -261.5q0 -16 -9 -20.5t-20.5 -3.5t-20.5 2t-9 -3 t-21.5 35t-61.5 99.5t-97.5 134t-128 140t-153.5 116t-175 63.5z" />
<glyph unicode="&#xac;" horiz-adv-x="12" d="M-1475 -827q8 35 28 64.5t42 53.5q47 49 105.5 86t117.5 66q18 10 36 18.5t38 16.5q-86 -16 -142.5 -32.5t-90.5 -33.5q-39 -18 -64 -37q74 92 252 154q76 27 183.5 48.5t252 32.5t329.5 8t419 -26q465 -47 795.5 -30.5t541.5 55.5q248 45 406 119q-121 -59 -283 -113 q-139 -45 -337 -89t-454 -66q178 -2 355.5 14t324.5 63q-113 -49 -271.5 -73.5t-335.5 -31.5t-356 -1t-333 16t-267.5 22.5t-156.5 18.5q-217 12 -372.5 10t-272.5 -14q-115 -33 -223 -92q-59 -31 -114.5 -71t-94.5 -93q-18 -27 -27.5 -57.5t-5.5 -63.5q12 -63 64 -108 q49 -43 116.5 -56.5t132.5 -9.5q68 4 134.5 16.5t132.5 30.5q57 43 122 66q39 16 79 25.5t75 31.5q12 8 20.5 0t-1.5 -18q-33 -37 -76 -67t-92 -46t-98.5 -21.5t-98.5 -15.5q-66 -16 -132.5 -23t-133.5 -3q-72 4 -133 30q-33 14 -60.5 37t-46.5 51q-18 29 -27.5 66t-1.5 72z M-1098 -745q72 72 211 112q59 18 138 30.5t181.5 14.5t230.5 -9t284 -40q182 -35 352 -43t307 -2t232.5 18.5t130.5 18.5q-27 -6 -91.5 -17.5t-153.5 -24.5t-195.5 -25.5t-217 -18.5t-218 -2t-195.5 22q-137 29 -252 42.5t-210 16.5t-172 -3.5t-136 -16.5q-140 -24 -226 -73 zM969 -645q4 0 6 1t6 1t6 2q-2 -2 -6 -2t-6 -1t-6 -1z" />
<glyph unicode="&#xad;" horiz-adv-x="784" d="M68 594q-10 2 4 25.5t37 52.5q25 33 59 73l569 -14l-143 -137q-141 -2 -254 -2h-96h-85h-62.5t-28.5 2z" />
<glyph unicode="&#xae;" horiz-adv-x="1093" d="M36 331q-13 118 10.5 244.5t86.5 245.5q61 117 147.5 197t180.5 115.5t190.5 25.5t177.5 -72q82 -63 130.5 -162.5t61.5 -218t-10.5 -245.5t-86.5 -246q-61 -117 -147.5 -196.5t-180.5 -115.5t-189.5 -26t-177.5 74q-82 63 -131 162.5t-62 217.5zM73.5 340 q12.5 -109 56.5 -200t120 -148q74 -57 162 -66.5t174 24.5t164.5 106.5t134.5 179.5q57 106 79.5 222.5t10.5 225.5t-57.5 200t-120.5 148q-74 57 -161 66.5t-173 -24.5t-165 -107t-136 -179q-57 -109 -79 -224t-9.5 -224zM225 203q16 143 47 286q27 123 71 262.5t110 254.5 l84 -54q-14 -29 -31 -65q-14 -31 -31.5 -74t-38.5 -92q41 45 87 95t86 93t65.5 73t27.5 32q14 -4 30 -16.5t30 -24.5q16 -14 31 -33q-25 -147 -66 -260q-18 -47 -41.5 -91t-53.5 -76t-66 -47t-79 -5q8 -29 29 -89.5t56.5 -127t86 -127t119 -88t153.5 -11t189 104.5 q-119 -129 -217 -160t-177 1t-139.5 110t-103.5 165t-69.5 166.5t-36.5 116.5l-6 6q-41 -133 -58.5 -261t17.5 -214q-10 18 -27.5 45t-34.5 49q-20 27 -43 56zM377 551q25 -25 49 -31q12 0 33.5 11.5t47 42t55.5 87t61 148.5q-29 -139 -67 -203.5t-71 -87.5q59 20 106.5 129 t88.5 299q-47 -47 -96 -98q-41 -45 -89.5 -99.5t-86.5 -107.5q-8 -23 -15.5 -45.5t-15.5 -44.5zM412 522q0 2 2 -2z" />
<glyph unicode="&#xaf;" d="M182 1262l109 165q16 -18 54 -30.5t105.5 -14.5t169 6.5t248.5 26.5q-8 -29 -19 -48t-22 -36q-12 -18 -28 -31z" />
<glyph unicode="&#xb0;" horiz-adv-x="503" d="M344 1350q16 57 62.5 92t95.5 52t88 20t39 -3t18.5 -22t36.5 -45t25.5 -73t-17.5 -105t-59.5 -96t-67.5 -52q-37 -20 -80 -24q-49 31 -86 69q-31 35 -51 81t-4 106zM473 1329q0 -41 11.5 -68.5t27.5 -46.5q16 -23 39 -34q31 20 55 43q23 20 40.5 46.5t17.5 59.5 q0 66 -23 94.5t-27 24.5q-4 -2 -25.5 -6t-48 -15.5t-47 -35t-20.5 -62.5z" />
<glyph unicode="&#xb1;" horiz-adv-x="12" d="M-1475 -827q8 35 28 64.5t42 53.5q47 49 105.5 86t117.5 66q18 10 36 18.5t38 16.5q-86 -16 -142.5 -32.5t-90.5 -33.5q-39 -18 -64 -37q74 92 252 154q76 27 183.5 48.5t252 32.5t329.5 8t419 -26q465 -47 795.5 -30.5t541.5 55.5q248 45 406 119q-121 -59 -283 -113 q-139 -45 -337 -89t-454 -66q178 -2 355.5 14t324.5 63q-113 -49 -271.5 -73.5t-335.5 -31.5t-356 -1t-333 16t-267.5 22.5t-156.5 18.5q-217 12 -372.5 10t-272.5 -14q-115 -33 -223 -92q-59 -31 -114.5 -71t-94.5 -93q-18 -27 -27.5 -57.5t-5.5 -63.5q12 -63 64 -108 q49 -43 116.5 -56.5t132.5 -9.5q68 4 134.5 16.5t132.5 30.5q57 43 122 66q39 16 79 25.5t75 31.5q12 8 20.5 0t-1.5 -18q-33 -37 -76 -67t-92 -46t-98.5 -21.5t-98.5 -15.5q-66 -16 -132.5 -23t-133.5 -3q-72 4 -133 30q-33 14 -60.5 37t-46.5 51q-18 29 -27.5 66t-1.5 72z M-1098 -745q72 72 211 112q59 18 138 30.5t181.5 14.5t230.5 -9t284 -40q182 -35 352 -43t307 -2t232.5 18.5t130.5 18.5q-27 -6 -91.5 -17.5t-153.5 -24.5t-195.5 -25.5t-217 -18.5t-218 -2t-195.5 22q-137 29 -252 42.5t-210 16.5t-172 -3.5t-136 -16.5q-140 -24 -226 -73 zM969 -645q4 0 6 1t6 1t6 2q-2 -2 -6 -2t-6 -1t-6 -1z" />
<glyph unicode="&#xb2;" horiz-adv-x="851" d="M-59 911q162 82 274.5 172.5t184 179.5t109.5 176t52 165q35 182 -31 360q0 -6 -53 -18.5t-121.5 -37t-132 -64.5t-84.5 -103q-20 -59 -16 -94t23.5 -52.5t50 -20.5t63.5 0t64.5 10t54.5 11q-98 -37 -170 -36q-31 0 -58.5 8t-47 29.5t-26.5 58.5t3 92q8 53 39 96t72.5 77 t93 58.5t104.5 42.5q123 41 273 62q39 -41 69 -94q27 -47 48.5 -117t21.5 -166q0 -115 -30 -216t-78 -187t-110.5 -158t-125.5 -129q-151 -136 -344 -228q162 -172 352 -241q82 -31 177 -42t202.5 10.5t224.5 84t240 180.5q-115 -141 -235 -216t-236.5 -100.5t-227 -12 t-209.5 50.5q-231 84 -444 286z" />
<glyph unicode="&#xb3;" horiz-adv-x="854" d="M-55 1188q23 -127 51.5 -200t54.5 -107q31 -43 64 -54q170 119 268 234q41 49 69.5 102.5t31.5 106.5t-25.5 103t-102.5 93q18 4 53 10.5t72 27t64.5 56t31 97t-27.5 153t-113 220.5q-55 -12 -108 -37q-45 -23 -94.5 -59t-83.5 -89q-39 -59 -46.5 -103t-1.5 -73 q8 -35 29 -59q-39 20 -55 59q-14 33 -7 89.5t66 139.5q59 88 142 138.5t159 74.5q88 29 180 35q109 -154 158 -286q20 -57 29.5 -117t-1.5 -113t-49 -98t-110 -74q66 -43 81 -106.5t-9.5 -139t-82 -157.5t-135 -162t-169.5 -151.5t-187 -127.5q2 -2 -32.5 39t-74.5 117 t-71 182.5t-18 235.5z" />
<glyph unicode="&#xb4;" horiz-adv-x="602" d="M218.5 1151q-1.5 2 32.5 18.5t92 45t117.5 63.5t106.5 74t62 75q53 -2 97 -8t77 -14q37 -8 69 -19q-102 -43 -204 -81q-88 -35 -191.5 -73t-195.5 -65q-61 -18 -62.5 -16z" />
<glyph unicode="&#xb6;" horiz-adv-x="12" d="M-1475 -827q8 35 28 64.5t42 53.5q47 49 105.5 86t117.5 66q18 10 36 18.5t38 16.5q-86 -16 -142.5 -32.5t-90.5 -33.5q-39 -18 -64 -37q74 92 252 154q76 27 183.5 48.5t252 32.5t329.5 8t419 -26q465 -47 795.5 -30.5t541.5 55.5q248 45 406 119q-121 -59 -283 -113 q-139 -45 -337 -89t-454 -66q178 -2 355.5 14t324.5 63q-113 -49 -271.5 -73.5t-335.5 -31.5t-356 -1t-333 16t-267.5 22.5t-156.5 18.5q-217 12 -372.5 10t-272.5 -14q-115 -33 -223 -92q-59 -31 -114.5 -71t-94.5 -93q-18 -27 -27.5 -57.5t-5.5 -63.5q12 -63 64 -108 q49 -43 116.5 -56.5t132.5 -9.5q68 4 134.5 16.5t132.5 30.5q57 43 122 66q39 16 79 25.5t75 31.5q12 8 20.5 0t-1.5 -18q-33 -37 -76 -67t-92 -46t-98.5 -21.5t-98.5 -15.5q-66 -16 -132.5 -23t-133.5 -3q-72 4 -133 30q-33 14 -60.5 37t-46.5 51q-18 29 -27.5 66t-1.5 72z M-1098 -745q72 72 211 112q59 18 138 30.5t181.5 14.5t230.5 -9t284 -40q182 -35 352 -43t307 -2t232.5 18.5t130.5 18.5q-27 -6 -91.5 -17.5t-153.5 -24.5t-195.5 -25.5t-217 -18.5t-218 -2t-195.5 22q-137 29 -252 42.5t-210 16.5t-172 -3.5t-136 -16.5q-140 -24 -226 -73 zM969 -645q4 0 6 1t6 1t6 2q-2 -2 -6 -2t-6 -1t-6 -1z" />
<glyph unicode="&#xb7;" horiz-adv-x="327" d="M57 659q29 12 63 49t64 78q37 48 74 103q8 -55 21 -105q10 -41 27.5 -81.5t41.5 -59.5q-35 -10 -70.5 -49t-64.5 -84q-35 -53 -68 -115q-6 55 -16 107q-10 43 -26.5 88t-45.5 69z" />
<glyph unicode="&#xb8;" horiz-adv-x="915" d="M43 -416.5q6 54.5 55 127.5q-18 -39 -15 -68.5t16.5 -56t32 -54.5t32.5 -62q61 39 96 74.5t52.5 69.5t18.5 63.5t-7 54.5q-20 59 -84 110l77 207h72q-4 -16 -8 -37q-4 -16 -9 -38.5t-12 -47.5q88 -57 123 -118.5t31 -125t-37 -123t-80 -111.5t-100 -93t-94 -64 q-45 51 -85 96.5t-60.5 93.5t-14.5 102.5z" />
<glyph unicode="&#xb9;" horiz-adv-x="684" d="M-78 1040q41 -27 78 4t70.5 98.5t63.5 163t54 199.5q57 244 105 572q-27 -37 -70 -52q-37 -12 -96 -4.5t-147 64.5q18 -12 58 -25.5t93 -3.5t114.5 56.5t121.5 152.5l200 -102l-266 -1143q-6 -51 8 -111q12 -51 47 -117.5t109 -140.5z" />
<glyph unicode="&#xba;" horiz-adv-x="692" d="M-35 1167.5q4 49.5 19 114.5q6 61 19 146t42 179.5t75 189.5t116 175q-66 -96 -103 -196.5t-57 -192.5q49 121 112.5 223.5t134 145.5t144.5 3t143 -204q21 -29 41 -74q12 -27 7 -95.5t-25.5 -158.5t-53 -189t-75.5 -186t-96.5 -150.5t-112.5 -81t-124 21.5t-132 157 q-16 12 -32.5 37t-35.5 66q-10 20 -6 69.5zM92 977q18 -27 40 -40t46.5 -7t53 35.5t61.5 91.5q-33 -39 -71 -59.5t-79 -8.5q41 8 81 49t77 100.5t68.5 130t56.5 138.5q25 80 49.5 174t52.5 207q-37 45 -83 42t-101 -87t-118.5 -267.5t-133.5 -498.5z" />
<glyph unicode="&#xbb;" horiz-adv-x="628" d="M-8 -72q106 86 207 160q43 31 89 62.5t92 59.5t88 48.5t77 30.5q-39 10 -94.5 47t-117 107.5t-122.5 179t-113 262.5q0 16 9.5 20t20.5 3t20.5 -2t9.5 3q0 2 21.5 -35.5t61.5 -98t97 -134.5t128 -140.5t153.5 -115.5t175.5 -63q-139 -41 -267.5 -96.5t-234 -118 t-180 -126t-105.5 -118.5q-8 18 -12 41z" />
<glyph unicode="&#xbc;" horiz-adv-x="1101" d="M-72 -211q-4 12 4.5 16.5t12.5 -2.5q16 -23 34.5 -32t36.5 -19t40 -19t44 -1q63 25 111.5 93.5t79.5 149.5q16 41 27.5 84t23.5 88l49 177l4 20t6 21v6q49 184 98.5 365.5t100.5 365.5l49 182q12 45 26.5 91t33.5 87q37 88 94 154q29 31 63.5 51.5t69.5 24.5q37 27 76 8 q25 -12 38 -41t21 -60q4 -10 -4 -15t-12 1q-16 23 -35 32t-37 21q-18 10 -39.5 19.5t-44.5 -0.5q-63 -25 -111.5 -93.5t-78.5 -150.5q-16 -41 -27.5 -84t-24.5 -88l-47 -176q-4 -10 -6 -19.5t-6 -19.5v-8q-49 -184 -98 -365.5t-101 -363.5l-49 -183q-12 -47 -26.5 -92 t-32.5 -88t-42 -82t-52 -71q-29 -31 -64 -51.5t-70 -24.5q-37 -27 -75 -8q-23 14 -37 41.5t-23 58.5zM-18 858q27 -18 51 2.5t45.5 64.5t41 106.5t36.5 129.5q37 158 67 373q-16 -27 -45 -35q-25 -8 -63.5 -2t-96.5 43q12 -8 39 -16t62 -2t74.5 36.5t78.5 100.5l131 -68 l-174 -747q-2 -35 7 -72q8 -35 30.5 -78t69.5 -90zM330 -702q80 25 146.5 102.5t121.5 188t99 240.5t77 257l-364 -86q63 260 147 453q37 82 81 157.5t96 129t111.5 76t127.5 1.5q-43 6 -81 -22.5t-72 -80.5t-62.5 -121t-52.5 -140q-55 -170 -99 -390l174 48 q25 100 43.5 190t30.5 158q14 80 25 147l133 -106q-53 -315 -146 -572q-39 -109 -91 -215t-118.5 -193t-147.5 -147.5t-179 -74.5z" />
<glyph unicode="&#xbd;" horiz-adv-x="1181" d="M-20 -211q-4 12 4 16.5t12 -2.5q16 -23 34.5 -32t37.5 -19q18 -10 39.5 -19t44.5 -1q63 25 111 93.5t79 149.5q16 41 27.5 84t23.5 88l49 177q2 10 4.5 20t6.5 21v6q49 184 98 365.5t100 365.5l49 182q12 45 26.5 91t33.5 87q37 88 94 154q29 31 63.5 51.5t69.5 24.5 q37 27 76 8q25 -12 38 -41t21 -60q4 -10 -4 -15t-12 1q-16 23 -34.5 32t-37.5 21q-18 10 -39.5 19.5t-44.5 -0.5q-63 -25 -111 -93.5t-79 -150.5q-16 -41 -27.5 -84t-23.5 -88l-47 -176q-4 -10 -6.5 -19.5t-6.5 -19.5v-8q-49 -184 -98 -365.5t-100 -363.5l-50 -183 q-12 -47 -26.5 -92t-32.5 -88t-42 -82t-52 -71q-29 -31 -63.5 -51.5t-69.5 -24.5q-37 -27 -76 -8q-23 14 -37 41.5t-22 58.5zM45 741q29 -18 55.5 3.5t50 68.5t44 114.5t38.5 141.5q41 172 74 404q-18 -27 -49 -37q-27 -10 -69 -5t-103 46q12 -8 41 -17.5t65.5 -2.5t79.5 40 t86 107l142 -72l-189 -805q-4 -37 6 -78q10 -35 34 -82t77 -100zM502 -6q109 55 183.5 114.5t121.5 119t72.5 116.5t35.5 111q23 121 -20 239q0 -4 -36 -11t-82 -23.5t-88 -43t-56 -69.5q-18 -59 -4 -83t42.5 -28t63.5 3t58 12q-66 -25 -113 -25q-20 0 -38.5 5t-31 19.5 t-17.5 39t1 61.5q12 70 74.5 114t132.5 68q82 29 180 41q25 -25 45 -61q16 -31 31.5 -78t15.5 -111q0 -78 -19.5 -144.5t-52 -123.5t-73.5 -105.5t-84 -87.5q-101 -90 -228 -151q109 -113 236 -160q55 -20 118.5 -28.5t134.5 6t148.5 55.5t159.5 121q-78 -94 -156.5 -144.5 t-156.5 -67t-152 -7t-139 33.5q-154 55 -297 191z" />
<glyph unicode="&#xbe;" horiz-adv-x="1112" d="M-31 -211q-4 12 4.5 16.5t12.5 -2.5q16 -23 34.5 -32t36.5 -19t40 -19t44 -1q63 25 111.5 93.5t79.5 149.5q16 41 27.5 84t23.5 88l49 177l4 20t6 21v6q49 184 98.5 365.5t100.5 365.5l49 182q12 45 26.5 91t33.5 87q37 88 94 154q29 31 63.5 51.5t69.5 24.5q37 27 76 8 q25 -12 38 -41t21 -60q4 -10 -4 -15t-12 1q-16 23 -35 32t-37 21q-18 10 -39.5 19.5t-44.5 -0.5q-63 -25 -111.5 -93.5t-78.5 -150.5q-16 -41 -27.5 -84t-24.5 -88l-47 -176q-4 -10 -6 -19.5t-6 -19.5v-8q-49 -184 -98 -365.5t-101 -363.5l-49 -183q-12 -47 -26.5 -92 t-32.5 -88t-42 -82t-52 -71q-29 -31 -64 -51.5t-70 -24.5q-37 -27 -75 -8q-23 14 -37.5 41.5t-22.5 58.5zM25 1044q14 -84 34.5 -132t36.5 -70q20 -29 41 -35q113 78 176 154q27 33 45.5 67.5t20.5 69.5t-16.5 67.5t-67.5 61.5q12 2 35.5 7t47 17.5t42 36t20.5 64.5 t-18.5 100t-73.5 145q-37 -8 -72 -24q-29 -14 -61.5 -39t-54.5 -59q-25 -39 -30 -67t-1 -48q4 -23 18 -39q-27 14 -36 39q-10 23 -5 58.5t44 92.5t93 90t103 50q58 18 119 22q72 -100 104 -188q14 -37 20.5 -76t-1.5 -75t-33 -64.5t-72 -46.5q66 -43 57.5 -115t-63.5 -151.5 t-143 -156.5t-180 -132q2 0 -20.5 26.5t-49.5 76.5t-47.5 120t-11.5 153zM416 -557q78 25 143.5 101.5t118.5 184t96 233.5t74 249l-352 -84q59 254 141 442q35 80 78 154t93 126t109.5 74.5t124.5 2.5q-41 6 -78.5 -23t-70.5 -79t-61.5 -117.5t-51.5 -137.5 q-53 -166 -94 -379l168 48q25 98 42 185t30 152q14 78 24 144l129 -105q-51 -307 -141 -555q-39 -106 -89 -209.5t-114.5 -189.5t-144.5 -144.5t-174 -72.5z" />
<glyph unicode="&#xbf;" horiz-adv-x="954" d="M15.5 56q13.5 85 75 154t182 116t319.5 59q10 29 19.5 72t12.5 92t-3.5 98t-26.5 92q47 -33 84 -72.5t63 -74.5q31 -41 54 -86l-78 -256q-129 -2 -228 -33q-43 -12 -82.5 -32.5t-70.5 -50.5t-48.5 -68.5t-13.5 -90.5q6 -104 36 -186t63 -139.5t57.5 -90t20.5 -34.5 q-4 -4 28.5 0t81.5 27.5t104.5 76t96.5 146.5t46 151.5t-5 85.5q-10 35 -39 47q59 -18 92 -61q14 -18 22.5 -44t8.5 -59.5t-12.5 -77.5t-40.5 -100q-57 -113 -149.5 -174t-180.5 -92q-102 -37 -215 -45q-12 6 -48 49t-79 109.5t-83 149.5t-58.5 170t-5 172zM674 1032 q33 8 69.5 48t65.5 85q35 53 68 115q6 -57 16 -109q10 -43 26.5 -87t45.5 -68q-29 -12 -64 -49t-65 -78q-37 -48 -72 -103q-8 55 -21 105q-10 41 -28.5 82t-40.5 59z" />
<glyph unicode="&#xc0;" horiz-adv-x="1064" d="M-348 522q-14 158 42 261.5t147 139t198.5 -1t196.5 -157.5q98 154 208.5 293t206.5 246q113 125 221 233l254 -51q-147 -666 -178 -1153q-10 -137 -9 -269.5t17.5 -246t49 -201.5t87 -140.5t132.5 -61.5t184 36q-131 -72 -225 -74t-158.5 51.5t-100.5 154t-52.5 230.5 t-14.5 280.5t16 305.5q-47 -20 -114.5 -38.5t-144 -17.5t-156.5 31.5t-150 108.5q-74 -156 -98.5 -279.5t-22.5 -215.5t17.5 -155.5t21.5 -98.5q-135 70 -190 174t-50 228t58 262.5t135 277.5q-70 94 -155.5 145t-164.5 41t-137.5 -91t-70.5 -247zM352 567 q66 -88 142.5 -117.5t150.5 -24.5t137.5 31.5t102.5 49.5q14 145 35.5 284.5t43 258t40 209t28.5 139.5q-262 -246 -425 -452t-255 -378zM410 1830q33 10 70 19q33 8 75.5 14t96.5 8q12 -37 60 -75.5t107.5 -73.5t117 -62.5l92 -44t32.5 -18.5t-61 16q-92 27 -195.5 64 t-191.5 72q-102 39 -203 81z" />
<glyph unicode="&#xc1;" horiz-adv-x="1064" d="M-348 522q-14 158 42 261.5t147 139t198.5 -1t196.5 -157.5q98 154 208.5 293t206.5 246q113 125 221 233l254 -51q-147 -666 -178 -1153q-10 -137 -9 -269.5t17.5 -246t49 -201.5t87 -140.5t132.5 -61.5t184 36q-131 -72 -225 -74t-158.5 51.5t-100.5 154t-52.5 230.5 t-14.5 280.5t16 305.5q-47 -20 -114.5 -38.5t-144 -17.5t-156.5 31.5t-150 108.5q-74 -156 -98.5 -279.5t-22.5 -215.5t17.5 -155.5t21.5 -98.5q-135 70 -190 174t-50 228t58 262.5t135 277.5q-70 94 -155.5 145t-164.5 41t-137.5 -91t-70.5 -247zM352 567 q66 -88 142.5 -117.5t150.5 -24.5t137.5 31.5t102.5 49.5q14 145 35.5 284.5t43 258t40 209t28.5 139.5q-262 -246 -425 -452t-255 -378zM621.5 1595q-1.5 2 32.5 18.5t92 45t117.5 63.5t106.5 74t62 75q53 -2 97 -8t77 -14q37 -8 69 -19q-102 -43 -204 -81 q-88 -35 -191.5 -73t-195.5 -65q-61 -18 -62.5 -16z" />
<glyph unicode="&#xc2;" horiz-adv-x="1064" d="M-348 522q-14 158 42 261.5t147 139t198.5 -1t196.5 -157.5q98 154 208.5 293t206.5 246q113 125 221 233l254 -51q-147 -666 -178 -1153q-10 -137 -9 -269.5t17.5 -246t49 -201.5t87 -140.5t132.5 -61.5t184 36q-131 -72 -225 -74t-158.5 51.5t-100.5 154t-52.5 230.5 t-14.5 280.5t16 305.5q-47 -20 -114.5 -38.5t-144 -17.5t-156.5 31.5t-150 108.5q-74 -156 -98.5 -279.5t-22.5 -215.5t17.5 -155.5t21.5 -98.5q-135 70 -190 174t-50 228t58 262.5t135 277.5q-70 94 -155.5 145t-164.5 41t-137.5 -91t-70.5 -247zM352 567 q66 -88 142.5 -117.5t150.5 -24.5t137.5 31.5t102.5 49.5q14 145 35.5 284.5t43 258t40 209t28.5 139.5q-262 -246 -425 -452t-255 -378zM623 1650q10 -8 40.5 11.5t70.5 53.5t83 73.5t79 74.5t59.5 57.5t23.5 20.5q0 -4 13.5 -29.5t36 -59.5t53 -71t65.5 -63.5t71.5 -36.5 t73.5 10q0 -6 -14 -23.5t-40 -34t-61.5 -23.5t-79.5 7.5t-95.5 56.5t-106.5 128q-23 -29 -58.5 -60.5t-70.5 -58.5q-41 -31 -86 -61q-18 8 -31 16q-10 6 -20 10t-6 2z" />
<glyph unicode="&#xc3;" horiz-adv-x="1064" d="M-348 522q-14 158 42 261.5t147 139t198.5 -1t196.5 -157.5q98 154 208.5 293t206.5 246q113 125 221 233l254 -51q-147 -666 -178 -1153q-10 -137 -9 -269.5t17.5 -246t49 -201.5t87 -140.5t132.5 -61.5t184 36q-131 -72 -225 -74t-158.5 51.5t-100.5 154t-52.5 230.5 t-14.5 280.5t16 305.5q-47 -20 -114.5 -38.5t-144 -17.5t-156.5 31.5t-150 108.5q-74 -156 -98.5 -279.5t-22.5 -215.5t17.5 -155.5t21.5 -98.5q-135 70 -190 174t-50 228t58 262.5t135 277.5q-70 94 -155.5 145t-164.5 41t-137.5 -91t-70.5 -247zM352 567 q66 -88 142.5 -117.5t150.5 -24.5t137.5 31.5t102.5 49.5q14 145 35.5 284.5t43 258t40 209t28.5 139.5q-262 -246 -425 -452t-255 -378zM656 1716q25 90 72 143q20 23 46.5 41.5t62.5 24.5t79 -2t96 -39q106 -59 180 -72.5t121 -3.5q53 10 88 45q-55 -80 -123 -127 q-29 -20 -64.5 -34.5t-76.5 -16.5t-88 10.5t-98 44.5q-68 43 -114 60.5t-76.5 17.5t-49 -12t-29 -27.5t-15.5 -31t-11 -21.5z" />
<glyph unicode="&#xc4;" horiz-adv-x="1064" d="M-348 522q-14 158 42 261.5t147 139t198.5 -1t196.5 -157.5q98 154 208.5 293t206.5 246q113 125 221 233l254 -51q-147 -666 -178 -1153q-10 -137 -9 -269.5t17.5 -246t49 -201.5t87 -140.5t132.5 -61.5t184 36q-131 -72 -225 -74t-158.5 51.5t-100.5 154t-52.5 230.5 t-14.5 280.5t16 305.5q-47 -20 -114.5 -38.5t-144 -17.5t-156.5 31.5t-150 108.5q-74 -156 -98.5 -279.5t-22.5 -215.5t17.5 -155.5t21.5 -98.5q-135 70 -190 174t-50 228t58 262.5t135 277.5q-70 94 -155.5 145t-164.5 41t-137.5 -91t-70.5 -247zM352 567 q66 -88 142.5 -117.5t150.5 -24.5t137.5 31.5t102.5 49.5q14 145 35.5 284.5t43 258t40 209t28.5 139.5q-262 -246 -425 -452t-255 -378zM741 1788q29 12 62.5 49t64.5 78q37 48 74 103q8 -53 20 -99q10 -41 27.5 -78.5t42.5 -56.5q-35 -10 -71 -37.5t-64 -58.5 q-35 -37 -68 -80q-6 33 -16 66q-10 29 -26.5 59.5t-45.5 54.5zM1069 1780q29 12 62.5 51t64.5 80q36 50 73 107q8 -55 21 -105q10 -41 27.5 -82t41.5 -59q-35 -10 -70.5 -36t-64.5 -54q-35 -35 -67 -74q-6 31 -17 61q-10 27 -26.5 56.5t-44.5 54.5z" />
<glyph unicode="&#xc5;" horiz-adv-x="1064" d="M-348 522q-14 158 42 261.5t147 139t198.5 -1t196.5 -157.5q98 154 208.5 293t206.5 246q113 125 221 233l254 -51q-147 -666 -178 -1153q-10 -137 -9 -269.5t17.5 -246t49 -201.5t87 -140.5t132.5 -61.5t184 36q-131 -72 -225 -74t-158.5 51.5t-100.5 154t-52.5 230.5 t-14.5 280.5t16 305.5q-47 -20 -114.5 -38.5t-144 -17.5t-156.5 31.5t-150 108.5q-74 -156 -98.5 -279.5t-22.5 -215.5t17.5 -155.5t21.5 -98.5q-135 70 -190 174t-50 228t58 262.5t135 277.5q-70 94 -155.5 145t-164.5 41t-137.5 -91t-70.5 -247zM352 567 q66 -88 142.5 -117.5t150.5 -24.5t137.5 31.5t102.5 49.5q14 145 35.5 284.5t43 258t40 209t28.5 139.5q-262 -246 -425 -452t-255 -378zM897 1864q16 57 62.5 92t95.5 52t88 20t39 -3t18.5 -22t36.5 -45t25.5 -73t-17.5 -105t-59.5 -96t-67.5 -52q-37 -20 -80 -24 q-49 31 -86 69q-31 35 -51 81t-4 106zM1026 1843q0 -41 11.5 -68.5t27.5 -46.5q16 -23 39 -34q31 20 55 43q23 20 40.5 46.5t17.5 59.5q0 66 -23 94.5t-27 24.5q-4 -2 -25.5 -6t-48 -15.5t-47 -35t-20.5 -62.5z" />
<glyph unicode="&#xc6;" horiz-adv-x="2107" d="M-348 522q-14 158 42 261.5t147 139t198.5 -1t196.5 -157.5q98 154 208.5 293t206.5 246q113 125 221 233l254 -51q-31 -125 -57 -268q-25 -123 -50.5 -281t-45.5 -332q-27 -10 -39 -45q-4 -35 -9 -62.5t-26 -58.5q-29 -20 -55.5 -35.5t-48.5 -35.5q-49 -16 -109.5 -24.5 t-125 0.5t-129 41t-122.5 97q-74 -156 -98.5 -279.5t-22.5 -215.5t17.5 -155.5t21.5 -98.5q-135 70 -190 174t-50 228t58 262.5t135 277.5q-70 94 -155.5 145t-164.5 41t-137.5 -91t-70.5 -247zM352 567q66 -88 142.5 -117.5t150.5 -24.5t137.5 31.5t102.5 49.5 q14 145 35.5 284.5t43 258t40 209t28.5 139.5q-262 -246 -425 -452t-255 -378zM634 156.5q-5 54.5 7 107.5q25 104 79 174t107 113q63 49 136 78q-45 10 -74 49q-25 35 -37 101.5t12 187.5q12 59 49 115.5t90.5 107.5t118 96t129.5 84q154 90 338 166q51 -49 88 -115 q31 -55 48.5 -133t-3.5 -176q-23 -98 -76 -123.5t-110 -17.5q-68 8 -143 53q82 -33 137 -32t87 25.5t43 63.5t4 82t-30.5 83t-58.5 65q-152 -55 -248 -115.5t-151.5 -121t-76 -118t-18.5 -108.5q4 -121 109 -238q-131 -47 -207 -106.5t-109.5 -124t-32.5 -132t21 -130.5 q49 -150 197 -307q68 -4 153 43q74 39 175.5 135t226.5 284q-47 -100 -100.5 -179t-109.5 -141.5t-112.5 -108.5t-107.5 -79q-121 -78 -244 -108q-102 96 -176 199q-31 43 -59.5 93t-47 102t-23.5 106.5z" />
<glyph unicode="&#xc7;" horiz-adv-x="954" d="M-90 -731.5q6 54.5 55 127.5q-18 -39 -15 -68.5t16.5 -56t32 -54.5t32.5 -62q61 39 96 74.5t52.5 69.5t18.5 63.5t-7 54.5q-20 59 -84 110l77 207h72q-4 -16 -8 -37q-4 -16 -9 -38.5t-12 -47.5q88 -57 123 -118.5t31 -125t-37 -123t-80 -111.5t-100 -93t-94 -64 q-45 51 -85 96.5t-60.5 93.5t-14.5 102.5zM-23 282.5q0 104.5 20.5 229.5t70.5 270q47 143 110.5 255t136 197t148.5 143.5t147 99.5q171 93 353 116q70 -70 116 -161q41 -78 61.5 -188.5t-12.5 -250.5q-16 -70 -38.5 -107.5t-48 -53t-53 -12.5t-52.5 18q-59 33 -125 120 q53 -61 100 -81q20 -8 41 -8.5t40.5 13t37 45t29.5 85.5q18 92 10 166.5t-25 130.5q-20 63 -53 114q-154 -49 -291 -137q-59 -37 -119.5 -87t-115.5 -114.5t-101.5 -143.5t-76.5 -175q-37 -121 -55.5 -227.5t-21.5 -198.5t6 -170t24 -139q35 -145 102 -252q57 4 127 39 q59 29 142 92t184 180q-33 -76 -77 -134t-93.5 -102t-100.5 -75t-100 -51q-115 -49 -240 -60q-100 109 -153 269q-23 68 -38.5 154.5t-15.5 191z" />
<glyph unicode="&#xc8;" horiz-adv-x="1042" d="M-23.5 156.5q-5.5 54.5 7.5 107.5q25 104 79 174t107 113q63 49 135 78q-45 10 -74 49q-25 35 -37 101.5t13 187.5q12 59 49 115.5t90 107.5t117.5 96t130.5 84q154 90 338 166q51 -49 88 -115q31 -55 48 -133t-3 -176q-23 -98 -76 -123.5t-110 -17.5q-68 8 -144 53 q82 -33 137.5 -32t87 25.5t43 63.5t4 82t-31 83t-57.5 65q-152 -55 -248.5 -115.5t-151.5 -121t-75.5 -118t-18.5 -108.5q4 -121 108 -238q-131 -47 -206.5 -106.5t-109.5 -124t-33 -132t22 -130.5q49 -150 196 -307q68 -4 154 43q74 39 175 135t226 284q-47 -100 -100 -179 t-109.5 -141.5t-112.5 -108.5t-108 -79q-121 -78 -243 -108q-102 96 -177 199q-31 43 -59.5 93t-46.5 102t-23.5 106.5zM383 1824q33 10 70 19q33 8 75.5 14t96.5 8q12 -37 60 -75.5t107.5 -73.5t117 -62.5l92 -44t32.5 -18.5t-61 16q-92 27 -195.5 64t-191.5 72 q-102 39 -203 81z" />
<glyph unicode="&#xc9;" horiz-adv-x="1042" d="M-23.5 156.5q-5.5 54.5 7.5 107.5q25 104 79 174t107 113q63 49 135 78q-45 10 -74 49q-25 35 -37 101.5t13 187.5q12 59 49 115.5t90 107.5t117.5 96t130.5 84q154 90 338 166q51 -49 88 -115q31 -55 48 -133t-3 -176q-23 -98 -76 -123.5t-110 -17.5q-68 8 -144 53 q82 -33 137.5 -32t87 25.5t43 63.5t4 82t-31 83t-57.5 65q-152 -55 -248.5 -115.5t-151.5 -121t-75.5 -118t-18.5 -108.5q4 -121 108 -238q-131 -47 -206.5 -106.5t-109.5 -124t-33 -132t22 -130.5q49 -150 196 -307q68 -4 154 43q74 39 175 135t226 284q-47 -100 -100 -179 t-109.5 -141.5t-112.5 -108.5t-108 -79q-121 -78 -243 -108q-102 96 -177 199q-31 43 -59.5 93t-46.5 102t-23.5 106.5zM535.5 1569q-1.5 2 32.5 18.5t92 45t117.5 63.5t106.5 74t62 75q53 -2 97 -8t77 -14q37 -8 69 -19q-102 -43 -204 -81q-88 -35 -191.5 -73t-195.5 -65 q-61 -18 -62.5 -16z" />
<glyph unicode="&#xca;" horiz-adv-x="1042" d="M-23.5 156.5q-5.5 54.5 7.5 107.5q25 104 79 174t107 113q63 49 135 78q-45 10 -74 49q-25 35 -37 101.5t13 187.5q12 59 49 115.5t90 107.5t117.5 96t130.5 84q154 90 338 166q51 -49 88 -115q31 -55 48 -133t-3 -176q-23 -98 -76 -123.5t-110 -17.5q-68 8 -144 53 q82 -33 137.5 -32t87 25.5t43 63.5t4 82t-31 83t-57.5 65q-152 -55 -248.5 -115.5t-151.5 -121t-75.5 -118t-18.5 -108.5q4 -121 108 -238q-131 -47 -206.5 -106.5t-109.5 -124t-33 -132t22 -130.5q49 -150 196 -307q68 -4 154 43q74 39 175 135t226 284q-47 -100 -100 -179 t-109.5 -141.5t-112.5 -108.5t-108 -79q-121 -78 -243 -108q-102 96 -177 199q-31 43 -59.5 93t-46.5 102t-23.5 106.5zM574 1665q10 -8 40.5 11.5t70.5 53.5t83 73.5t79 74.5t59.5 57.5t23.5 20.5q0 -4 13.5 -29.5t36 -59.5t53 -71t65.5 -63.5t71.5 -36.5t73.5 10 q0 -6 -14 -23.5t-40 -34t-61.5 -23.5t-79.5 7.5t-95.5 56.5t-106.5 128q-23 -29 -58.5 -60.5t-70.5 -58.5q-41 -31 -86 -61q-18 8 -31 16q-10 6 -20 10t-6 2z" />
<glyph unicode="&#xcb;" horiz-adv-x="1042" d="M-23.5 156.5q-5.5 54.5 7.5 107.5q25 104 79 174t107 113q63 49 135 78q-45 10 -74 49q-25 35 -37 101.5t13 187.5q12 59 49 115.5t90 107.5t117.5 96t130.5 84q154 90 338 166q51 -49 88 -115q31 -55 48 -133t-3 -176q-23 -98 -76 -123.5t-110 -17.5q-68 8 -144 53 q82 -33 137.5 -32t87 25.5t43 63.5t4 82t-31 83t-57.5 65q-152 -55 -248.5 -115.5t-151.5 -121t-75.5 -118t-18.5 -108.5q4 -121 108 -238q-131 -47 -206.5 -106.5t-109.5 -124t-33 -132t22 -130.5q49 -150 196 -307q68 -4 154 43q74 39 175 135t226 284q-47 -100 -100 -179 t-109.5 -141.5t-112.5 -108.5t-108 -79q-121 -78 -243 -108q-102 96 -177 199q-31 43 -59.5 93t-46.5 102t-23.5 106.5zM635 1732q29 12 62.5 49t64.5 78q37 48 74 103q8 -53 20 -99q10 -41 27.5 -78.5t42.5 -56.5q-35 -10 -71 -37.5t-64 -58.5q-35 -37 -68 -80 q-6 33 -16 66q-10 29 -26.5 59.5t-45.5 54.5zM963 1724q29 12 62.5 51t64.5 80q36 50 73 107q8 -55 21 -105q10 -41 27.5 -82t41.5 -59q-35 -10 -70.5 -36t-64.5 -54q-35 -35 -67 -74q-6 31 -17 61q-10 27 -26.5 56.5t-44.5 54.5z" />
<glyph unicode="&#xcc;" horiz-adv-x="464" d="M-360 1118q37 -88 90 -115.5t116.5 -13t131 61.5t133.5 110q154 147 325 393l189 -122q-195 -412 -322 -791q-55 -162 -100 -332t-68.5 -329.5t-19.5 -302t51 -248.5q-23 41 -61.5 98t-77.5 111q-45 61 -97 122q25 223 70 463q18 102 44 218t57.5 238t70.5 247t86 245 q-53 -45 -114.5 -89t-124 -77.5t-123 -52t-111.5 -9.5t-89 50t-56 125zM37 1796q33 10 70 19q33 8 75.5 14t96.5 8q12 -37 60 -75.5t107.5 -73.5t117 -62.5l92 -44t32.5 -18.5t-61 16q-92 27 -195.5 64t-191.5 72q-102 39 -203 81z" />
<glyph unicode="&#xcd;" horiz-adv-x="464" d="M-360 1118q37 -88 90 -115.5t116.5 -13t131 61.5t133.5 110q154 147 325 393l189 -122q-195 -412 -322 -791q-55 -162 -100 -332t-68.5 -329.5t-19.5 -302t51 -248.5q-23 41 -61.5 98t-77.5 111q-45 61 -97 122q25 223 70 463q18 102 44 218t57.5 238t70.5 247t86 245 q-53 -45 -114.5 -89t-124 -77.5t-123 -52t-111.5 -9.5t-89 50t-56 125zM273.5 1630q-1.5 2 32.5 18.5t92 45t117.5 63.5t106.5 74t62 75q53 -2 97 -8t77 -14q37 -8 69 -19q-102 -43 -204 -81q-88 -35 -191.5 -73t-195.5 -65q-61 -18 -62.5 -16z" />
<glyph unicode="&#xce;" horiz-adv-x="464" d="M-360 1118q37 -88 90 -115.5t116.5 -13t131 61.5t133.5 110q154 147 325 393l189 -122q-195 -412 -322 -791q-55 -162 -100 -332t-68.5 -329.5t-19.5 -302t51 -248.5q-23 41 -61.5 98t-77.5 111q-45 61 -97 122q25 223 70 463q18 102 44 218t57.5 238t70.5 247t86 245 q-53 -45 -114.5 -89t-124 -77.5t-123 -52t-111.5 -9.5t-89 50t-56 125zM172 1591q10 -8 40.5 11.5t70.5 53.5t83 73.5t79 74.5t59.5 57.5t23.5 20.5q0 -4 13.5 -29.5t36 -59.5t53 -71t65.5 -63.5t71.5 -36.5t73.5 10q0 -6 -14 -23.5t-40 -34t-61.5 -23.5t-79.5 7.5 t-95.5 56.5t-106.5 128q-23 -29 -58.5 -60.5t-70.5 -58.5q-41 -31 -86 -61q-18 8 -31 16q-10 6 -20 10t-6 2z" />
<glyph unicode="&#xcf;" horiz-adv-x="464" d="M-360 1118q37 -88 90 -115.5t116.5 -13t131 61.5t133.5 110q154 147 325 393l189 -122q-195 -412 -322 -791q-55 -162 -100 -332t-68.5 -329.5t-19.5 -302t51 -248.5q-23 41 -61.5 98t-77.5 111q-45 61 -97 122q25 223 70 463q18 102 44 218t57.5 238t70.5 247t86 245 q-53 -45 -114.5 -89t-124 -77.5t-123 -52t-111.5 -9.5t-89 50t-56 125zM209 1741q29 12 62.5 49t64.5 78q37 48 74 103q8 -53 20 -99q10 -41 27.5 -78.5t42.5 -56.5q-35 -10 -71 -37.5t-64 -58.5q-35 -37 -68 -80q-6 33 -16 66q-10 29 -26.5 59.5t-45.5 54.5zM537 1733 q29 12 62.5 51t64.5 80q36 50 73 107q8 -55 21 -105q10 -41 27.5 -82t41.5 -59q-35 -10 -70.5 -36t-64.5 -54q-35 -35 -67 -74q-6 31 -17 61q-10 27 -26.5 56.5t-44.5 54.5z" />
<glyph unicode="&#xd0;" horiz-adv-x="1130" d="M-78 449l109 186q16 -18 54 -30.5t105.5 -14.5t169 6t248.5 27q-8 -29 -19 -52.5t-22 -42.5q-12 -23 -28 -41zM-43 0q31 256 92 524q27 113 62.5 241t83 261t106.5 267t133 261l189 -122q-66 -115 -131 -248q-55 -115 -119 -262.5t-117 -311.5q39 76 92 168t115.5 188.5 t133.5 190.5t146.5 173t154.5 136t159 80q31 -14 56.5 -43.5t43.5 -60.5q23 -37 39 -76q-109 -700 -264 -1157q-45 -129 -96.5 -245t-110.5 -204t-127 -141t-141.5 -58t-155.5 46t-172 172q-29 35 -59.5 73.5t-55.5 71.5q-29 37 -57 76zM140 -23.5q2 -93.5 22 -177.5 q80 -78 158.5 -66.5t153.5 95.5t143.5 234.5t129 352t110.5 448.5t87 523q-35 -2 -97.5 -64t-139 -162.5t-161.5 -228.5t-162 -262t-139.5 -265.5t-94.5 -235.5q-12 -98 -10 -191.5z" />
<glyph unicode="&#xd1;" horiz-adv-x="1181" d="M-977 -217q94 -154 183 -223.5t173 -72.5t162 52t148.5 152.5t134 228.5t121.5 281q199 520 356 1339l197 -78l-17 -82q-12 -76 -29.5 -207t-30.5 -283.5t-17.5 -310t11 -285.5t56.5 -209t117 -81q72 0 130 65.5t104 172t81 243t62 277.5q59 334 90 758l164 -115 q-20 -414 -95 -737q-31 -139 -78 -271.5t-113.5 -236t-153.5 -167t-199 -63.5q-88 0 -139.5 79t-74 213t-19.5 314.5t22 383.5q-41 -154 -95.5 -328t-120 -345t-141 -327t-163 -273.5t-182.5 -185t-198.5 -61.5t-215 95t-230.5 288zM342 1645q25 90 72 143q20 23 46.5 41.5 t62.5 24.5t79 -2t96 -39q106 -59 180 -72.5t121 -3.5q53 10 88 45q-55 -80 -123 -127q-29 -20 -64.5 -34.5t-76.5 -16.5t-88 10.5t-98 44.5q-68 43 -114 60.5t-76.5 17.5t-49 -12t-29 -27.5t-15.5 -31t-11 -21.5z" />
<glyph unicode="&#xd2;" horiz-adv-x="923" d="M2 329q-2 91 9.5 201.5t41.5 239.5q31 129 78 232.5t103.5 182.5t118 137t120.5 99q141 96 299 131q66 -123 105 -270q16 -63 29.5 -138t18.5 -160t0 -180t-26 -196q-33 -160 -81 -277.5t-104.5 -202.5t-119 -141.5t-121.5 -90.5q-141 -82 -299 -80q-78 84 -123 217 q-18 57 -32.5 131t-16.5 165zM207 400q-2 -83 7 -150.5t26 -120.5q37 -125 104 -207q92 10 180 80q37 31 77 76t79 112.5t74.5 158.5t66.5 212q23 96 33 182t10 161t-7 138.5t-17 116.5q-25 123 -74 215q-94 -25 -184 -92q-78 -59 -161 -174t-145 -311q-37 -115 -52 -214.5 t-17 -182.5zM334 1824q33 10 70 19q33 8 75.5 14t96.5 8q12 -37 60 -75.5t107.5 -73.5t117 -62.5l92 -44t32.5 -18.5t-61 16q-92 27 -195.5 64t-191.5 72q-102 39 -203 81z" />
<glyph unicode="&#xd3;" horiz-adv-x="923" d="M2 329q-2 91 9.5 201.5t41.5 239.5q31 129 78 232.5t103.5 182.5t118 137t120.5 99q141 96 299 131q66 -123 105 -270q16 -63 29.5 -138t18.5 -160t0 -180t-26 -196q-33 -160 -81 -277.5t-104.5 -202.5t-119 -141.5t-121.5 -90.5q-141 -82 -299 -80q-78 84 -123 217 q-18 57 -32.5 131t-16.5 165zM207 400q-2 -83 7 -150.5t26 -120.5q37 -125 104 -207q92 10 180 80q37 31 77 76t79 112.5t74.5 158.5t66.5 212q23 96 33 182t10 161t-7 138.5t-17 116.5q-25 123 -74 215q-94 -25 -184 -92q-78 -59 -161 -174t-145 -311q-37 -115 -52 -214.5 t-17 -182.5zM419.5 1587q-1.5 2 32.5 18.5t92 45t117.5 63.5t106.5 74t62 75q53 -2 97 -8t77 -14q37 -8 69 -19q-102 -43 -204 -81q-88 -35 -191.5 -73t-195.5 -65q-61 -18 -62.5 -16z" />
<glyph unicode="&#xd4;" horiz-adv-x="923" d="M2 329q-2 91 9.5 201.5t41.5 239.5q31 129 78 232.5t103.5 182.5t118 137t120.5 99q141 96 299 131q66 -123 105 -270q16 -63 29.5 -138t18.5 -160t0 -180t-26 -196q-33 -160 -81 -277.5t-104.5 -202.5t-119 -141.5t-121.5 -90.5q-141 -82 -299 -80q-78 84 -123 217 q-18 57 -32.5 131t-16.5 165zM207 400q-2 -83 7 -150.5t26 -120.5q37 -125 104 -207q92 10 180 80q37 31 77 76t79 112.5t74.5 158.5t66.5 212q23 96 33 182t10 161t-7 138.5t-17 116.5q-25 123 -74 215q-94 -25 -184 -92q-78 -59 -161 -174t-145 -311q-37 -115 -52 -214.5 t-17 -182.5zM420 1618q10 -8 40.5 11.5t70.5 53.5t83 73.5t79 74.5t59.5 57.5t23.5 20.5q0 -4 13.5 -29.5t36 -59.5t53 -71t65.5 -63.5t71.5 -36.5t73.5 10q0 -6 -14 -23.5t-40 -34t-61.5 -23.5t-79.5 7.5t-95.5 56.5t-106.5 128q-23 -29 -58.5 -60.5t-70.5 -58.5 q-41 -31 -86 -61q-18 8 -31 16q-10 6 -20 10t-6 2z" />
<glyph unicode="&#xd5;" horiz-adv-x="923" d="M2 329q-2 91 9.5 201.5t41.5 239.5q31 129 78 232.5t103.5 182.5t118 137t120.5 99q141 96 299 131q66 -123 105 -270q16 -63 29.5 -138t18.5 -160t0 -180t-26 -196q-33 -160 -81 -277.5t-104.5 -202.5t-119 -141.5t-121.5 -90.5q-141 -82 -299 -80q-78 84 -123 217 q-18 57 -32.5 131t-16.5 165zM207 400q-2 -83 7 -150.5t26 -120.5q37 -125 104 -207q92 10 180 80q37 31 77 76t79 112.5t74.5 158.5t66.5 212q23 96 33 182t10 161t-7 138.5t-17 116.5q-25 123 -74 215q-94 -25 -184 -92q-78 -59 -161 -174t-145 -311q-37 -115 -52 -214.5 t-17 -182.5zM414 1655q25 90 72 143q20 23 46.5 41.5t62.5 24.5t79 -2t96 -39q106 -59 180 -72.5t121 -3.5q53 10 88 45q-55 -80 -123 -127q-29 -20 -64.5 -34.5t-76.5 -16.5t-88 10.5t-98 44.5q-68 43 -114 60.5t-76.5 17.5t-49 -12t-29 -27.5t-15.5 -31t-11 -21.5z" />
<glyph unicode="&#xd6;" horiz-adv-x="923" d="M2 329q-2 91 9.5 201.5t41.5 239.5q31 129 78 232.5t103.5 182.5t118 137t120.5 99q141 96 299 131q66 -123 105 -270q16 -63 29.5 -138t18.5 -160t0 -180t-26 -196q-33 -160 -81 -277.5t-104.5 -202.5t-119 -141.5t-121.5 -90.5q-141 -82 -299 -80q-78 84 -123 217 q-18 57 -32.5 131t-16.5 165zM207 400q-2 -83 7 -150.5t26 -120.5q37 -125 104 -207q92 10 180 80q37 31 77 76t79 112.5t74.5 158.5t66.5 212q23 96 33 182t10 161t-7 138.5t-17 116.5q-25 123 -74 215q-94 -25 -184 -92q-78 -59 -161 -174t-145 -311q-37 -115 -52 -214.5 t-17 -182.5zM518 1749q29 12 62.5 49t64.5 78q37 48 74 103q8 -53 20 -99q10 -41 27.5 -78.5t42.5 -56.5q-35 -10 -71 -37.5t-64 -58.5q-35 -37 -68 -80q-6 33 -16 66q-10 29 -26.5 59.5t-45.5 54.5zM846 1741q29 12 62.5 51t64.5 80q36 50 73 107q8 -55 21 -105 q10 -41 27.5 -82t41.5 -59q-35 -10 -70.5 -36t-64.5 -54q-35 -35 -67 -74q-6 31 -17 61q-10 27 -26.5 56.5t-44.5 54.5z" />
<glyph unicode="&#xd7;" d="M63 758l211 43q-4 -25 12.5 -60.5t59.5 -88t117 -124t186 -168.5q-25 -14 -50.5 -21t-47.5 -11q-25 -6 -49 -6zM123 479q25 -4 60.5 12.5t88 59.5t123 116.5t168.5 184.5q12 -25 19.5 -50.5t11.5 -47.5q4 -25 6 -49l-436 -439z" />
<glyph unicode="&#xd8;" horiz-adv-x="923" d="M-22 -252q-4 12 4 16.5t12 -2.5q16 -23 34.5 -32t37.5 -19q18 -10 39.5 -19t44.5 -1q63 25 111.5 93.5t78.5 149.5q16 41 27.5 84t24.5 88l49 177l4 20t6 21v6q49 184 98 365.5t101 365.5l49 182q12 45 26.5 91t32.5 87q37 88 94 154q29 31 64 51.5t69 24.5q37 27 76 8 q25 -12 38.5 -41t21.5 -60q4 -10 -4.5 -15t-12.5 1q-16 23 -34.5 32t-36.5 21q-18 10 -40 19.5t-44 -0.5q-63 -25 -111.5 -93.5t-79.5 -150.5q-16 -41 -27.5 -84t-23.5 -88l-47 -176q-4 -10 -6 -19.5t-6 -19.5v-8q-49 -184 -98.5 -365.5t-100.5 -363.5l-49 -183 q-12 -47 -26.5 -92t-33.5 -88q-18 -43 -41.5 -82t-52.5 -71q-29 -31 -63.5 -51.5t-69.5 -24.5q-37 -27 -76 -8q-23 14 -37 41.5t-22 58.5zM2 329q-2 91 9.5 201.5t41.5 239.5q31 129 78 232.5t103.5 182.5t118 137t120.5 99q141 96 299 131q66 -123 105 -270 q16 -63 29.5 -138t18.5 -160t0 -180t-26 -196q-33 -160 -81 -277.5t-104.5 -202.5t-119 -141.5t-121.5 -90.5q-141 -82 -299 -80q-78 84 -123 217q-18 57 -32.5 131t-16.5 165zM207 400q-2 -83 7 -150.5t26 -120.5q37 -125 104 -207q92 10 180 80q37 31 77 76t79 112.5 t74.5 158.5t66.5 212q23 96 33 182t10 161t-7 138.5t-17 116.5q-25 123 -74 215q-94 -25 -184 -92q-78 -59 -161 -174t-145 -311q-37 -115 -52 -214.5t-17 -182.5z" />
<glyph unicode="&#xd9;" horiz-adv-x="1103" d="M-39 378.5q0 194.5 92 482.5t250 667l207 -103q-195 -385 -285 -688q-39 -129 -57 -252t-2 -220t77.5 -155.5t184.5 -58.5q72 0 130 50.5t100 118t70 135t38 100.5q18 119 46 255t69 279.5t94 289.5t125 286l194 -111q-186 -375 -288 -723q-43 -150 -73 -307.5t-32 -308 t32 -286.5t118 -243q-14 12 -37 36t-48.5 53.5t-55 64.5t-56.5 70q-66 82 -139 176q0 25 2 57q2 29 5 68t9 88q-27 -41 -58.5 -80t-71.5 -69t-88 -47t-103 -17q-238 0 -343.5 99t-105.5 293.5zM377 1843q33 10 70 19q33 8 75.5 14t96.5 8q12 -37 60 -75.5t107.5 -73.5 t117 -62.5l92 -44t32.5 -18.5t-61 16q-92 27 -195.5 64t-191.5 72q-102 39 -203 81z" />
<glyph unicode="&#xda;" horiz-adv-x="1103" d="M-39 378.5q0 194.5 92 482.5t250 667l207 -103q-195 -385 -285 -688q-39 -129 -57 -252t-2 -220t77.5 -155.5t184.5 -58.5q72 0 130 50.5t100 118t70 135t38 100.5q18 119 46 255t69 279.5t94 289.5t125 286l194 -111q-186 -375 -288 -723q-43 -150 -73 -307.5t-32 -308 t32 -286.5t118 -243q-14 12 -37 36t-48.5 53.5t-55 64.5t-56.5 70q-66 82 -139 176q0 25 2 57q2 29 5 68t9 88q-27 -41 -58.5 -80t-71.5 -69t-88 -47t-103 -17q-238 0 -343.5 99t-105.5 293.5zM564.5 1561q-1.5 2 32.5 18.5t92 45t117.5 63.5t106.5 74t62 75q53 -2 97 -8 t77 -14q37 -8 69 -19q-102 -43 -204 -81q-88 -35 -191.5 -73t-195.5 -65q-61 -18 -62.5 -16z" />
<glyph unicode="&#xdb;" horiz-adv-x="1103" d="M-39 378.5q0 194.5 92 482.5t250 667l207 -103q-195 -385 -285 -688q-39 -129 -57 -252t-2 -220t77.5 -155.5t184.5 -58.5q72 0 130 50.5t100 118t70 135t38 100.5q18 119 46 255t69 279.5t94 289.5t125 286l194 -111q-186 -375 -288 -723q-43 -150 -73 -307.5t-32 -308 t32 -286.5t118 -243q-14 12 -37 36t-48.5 53.5t-55 64.5t-56.5 70q-66 82 -139 176q0 25 2 57q2 29 5 68t9 88q-27 -41 -58.5 -80t-71.5 -69t-88 -47t-103 -17q-238 0 -343.5 99t-105.5 293.5zM539 1646q10 -8 40.5 11.5t70.5 53.5t83 73.5t79 74.5t59.5 57.5t23.5 20.5 q0 -4 13.5 -29.5t36 -59.5t53 -71t65.5 -63.5t71.5 -36.5t73.5 10q0 -6 -14 -23.5t-40 -34t-61.5 -23.5t-79.5 7.5t-95.5 56.5t-106.5 128q-23 -29 -58.5 -60.5t-70.5 -58.5q-41 -31 -86 -61q-18 8 -31 16q-10 6 -20 10t-6 2z" />
<glyph unicode="&#xdc;" horiz-adv-x="1103" d="M-39 378.5q0 194.5 92 482.5t250 667l207 -103q-195 -385 -285 -688q-39 -129 -57 -252t-2 -220t77.5 -155.5t184.5 -58.5q72 0 130 50.5t100 118t70 135t38 100.5q18 119 46 255t69 279.5t94 289.5t125 286l194 -111q-186 -375 -288 -723q-43 -150 -73 -307.5t-32 -308 t32 -286.5t118 -243q-14 12 -37 36t-48.5 53.5t-55 64.5t-56.5 70q-66 82 -139 176q0 25 2 57q2 29 5 68t9 88q-27 -41 -58.5 -80t-71.5 -69t-88 -47t-103 -17q-238 0 -343.5 99t-105.5 293.5zM518 1761q29 12 62.5 49t64.5 78q37 48 74 103q8 -53 20 -99q10 -41 27.5 -78.5 t42.5 -56.5q-35 -10 -71 -37.5t-64 -58.5q-35 -37 -68 -80q-6 33 -16 66q-10 29 -26.5 59.5t-45.5 54.5zM846 1753q29 12 62.5 51t64.5 80q36 50 73 107q8 -55 21 -105q10 -41 27.5 -82t41.5 -59q-35 -10 -70.5 -36t-64.5 -54q-35 -35 -67 -74q-6 31 -17 61 q-10 27 -26.5 56.5t-44.5 54.5z" />
<glyph unicode="&#xdd;" horiz-adv-x="1026" d="M-1122 -428q76 127 180 206t224 121t251 53t260 1t252 -36t225.5 -54.5t181 -58t119.5 -46.5l-2 2q6 59 17 134q10 63 22.5 149t32.5 190q-66 -72 -157 -117.5t-214 -45.5q-139 0 -213.5 50t-95 142t11 222t104.5 292t184.5 349.5t252.5 394.5l154 -95 q-231 -360 -359 -641q-53 -121 -89 -235.5t-37 -204.5t43 -145.5t151 -55.5q94 0 166.5 65.5t126.5 162.5q29 139 67.5 292.5t89 308t111.5 303t137 279.5l189 -122q-195 -412 -322 -791q-55 -162 -100 -332t-68.5 -329.5t-19.5 -302t51 -248.5q-16 31 -47 77 q-33 16 -113 52t-191.5 79.5t-247.5 87.5t-282.5 73.5t-296 40.5t-287 -11.5t-257 -82.5t-205.5 -173zM652.5 1571q-1.5 2 32.5 18.5t92 45t117.5 63.5t106.5 74t62 75q53 -2 97 -8t77 -14q37 -8 69 -19q-102 -43 -204 -81q-88 -35 -191.5 -73t-195.5 -65q-61 -18 -62.5 -16 z" />
<glyph unicode="&#xde;" horiz-adv-x="1077" d="M-70 -240q2 12 4 29q2 14 4.5 34.5t6.5 47.5l78 473q29 139 67.5 296t89.5 314.5t114.5 311t141.5 288.5l189 -122q-45 -152 -90 -299q-20 -63 -42 -132t-44.5 -137.5t-46 -134t-44.5 -121.5q92 100 194.5 213t189.5 210t144.5 163t61.5 72q31 -10 67 -38t66 -57 q37 -35 72 -73q-74 -430 -201 -705q-55 -117 -126.5 -211t-164 -135t-205 -15.5t-247.5 148.5q-33 -106 -56.5 -187t-37 -147.5t-16.5 -122t7 -110.5l4.5 -9t4.5 -10l12 -100q-29 43 -63.5 90t-63.5 86zM225 229q104 -88 195.5 -79.5t172.5 107.5t151.5 286.5t132.5 457.5 l14 93q-43 -41 -117 -116t-158 -165t-170 -190.5t-153 -192.5q-35 -92 -68 -201zM877 1001q0 2 1 2.5t1 2.5q0 -2 -1 -2t-1 -3z" />
<glyph unicode="&#xdf;" horiz-adv-x="1042" d="M-88 -252l172 950q57 219 137 440.5t191 409.5l188 -123q-41 -86 -88 -192q-41 -92 -90 -213t-100 -262q66 115 148.5 241.5t175.5 239.5t193.5 196t202.5 111q31 -14 56.5 -43.5t44.5 -60.5q23 -37 39 -76q-14 -154 -54 -297q-16 -61 -41.5 -126.5t-59.5 -129t-79 -122 t-100 -103.5q49 -10 86 -62.5t55.5 -126t18.5 -155.5t-23 -152q-37 -113 -112.5 -214t-168 -176t-191.5 -117t-185 -36q2 25 1 21t-2 -13.5t-1 -13.5t0 21q80 -18 167 30t163.5 129.5t135 182t78.5 186.5q20 92 18.5 173t-38.5 138.5t-114 85t-201 13.5q41 59 101 134 t119.5 179.5t107.5 243.5t67 327q-84 -90 -189.5 -204.5t-211 -252.5t-199.5 -300t-156.5 -343.5t-82 -382t25.5 -419.5q-59 59 -104.5 126.5t-100.5 137.5z" />
<glyph unicode="&#xe0;" horiz-adv-x="688" d="M-23 57q72 422 166 672q39 106 88.5 186t104.5 102.5t118.5 -27.5t135.5 -204l-8 -45q-29 55 -56.5 89t-56.5 37t-58.5 -31.5t-62.5 -116.5t-68.5 -217t-76.5 -334l299 545v-2q2 8 4 15t4 15l188 -131q-16 -37 -40.5 -97t-47 -131t-40 -144.5t-21.5 -137t7 -108.5 t47 -57.5t99.5 14t163.5 106.5q-137 -139 -245.5 -190t-172 -5t-72.5 195.5t56 413.5l-268 -539l-4 13q0 -4 -1 -5t-1 -4zM117 1392q33 10 70 19q33 8 75.5 14t96.5 8q12 -37 60 -75.5t107.5 -73.5t117 -62.5l92 -44t32.5 -18.5t-61 16q-92 27 -195.5 64t-191.5 72 q-102 39 -203 81z" />
<glyph unicode="&#xe1;" horiz-adv-x="688" d="M-23 57q72 422 166 672q39 106 88.5 186t104.5 102.5t118.5 -27.5t135.5 -204l-8 -45q-29 55 -56.5 89t-56.5 37t-58.5 -31.5t-62.5 -116.5t-68.5 -217t-76.5 -334l299 545v-2q2 8 4 15t4 15l188 -131q-16 -37 -40.5 -97t-47 -131t-40 -144.5t-21.5 -137t7 -108.5 t47 -57.5t99.5 14t163.5 106.5q-137 -139 -245.5 -190t-172 -5t-72.5 195.5t56 413.5l-268 -539l-4 13q0 -4 -1 -5t-1 -4zM296.5 1165q-1.5 2 32.5 18.5t92 45t117.5 63.5t106.5 74t62 75q53 -2 97 -8t77 -14q37 -8 69 -19q-102 -43 -204 -81q-88 -35 -191.5 -73t-195.5 -65 q-61 -18 -62.5 -16z" />
<glyph unicode="&#xe2;" horiz-adv-x="688" d="M-23 57q72 422 166 672q39 106 88.5 186t104.5 102.5t118.5 -27.5t135.5 -204l-8 -45q-29 55 -56.5 89t-56.5 37t-58.5 -31.5t-62.5 -116.5t-68.5 -217t-76.5 -334l299 545v-2q2 8 4 15t4 15l188 -131q-16 -37 -40.5 -97t-47 -131t-40 -144.5t-21.5 -137t7 -108.5 t47 -57.5t99.5 14t163.5 106.5q-137 -139 -245.5 -190t-172 -5t-72.5 195.5t56 413.5l-268 -539l-4 13q0 -4 -1 -5t-1 -4zM187 1175q10 -8 40.5 11.5t70.5 53.5t83 73.5t79 74.5t59.5 57.5t23.5 20.5q0 -4 13.5 -29.5t36 -59.5t53 -71t65.5 -63.5t71.5 -36.5t73.5 10 q0 -6 -14 -23.5t-40 -34t-61.5 -23.5t-79.5 7.5t-95.5 56.5t-106.5 128q-23 -29 -58.5 -60.5t-70.5 -58.5q-41 -31 -86 -61q-18 8 -31 16q-10 6 -20 10t-6 2z" />
<glyph unicode="&#xe3;" horiz-adv-x="688" d="M-23 57q72 422 166 672q39 106 88.5 186t104.5 102.5t118.5 -27.5t135.5 -204l-8 -45q-29 55 -56.5 89t-56.5 37t-58.5 -31.5t-62.5 -116.5t-68.5 -217t-76.5 -334l299 545v-2q2 8 4 15t4 15l188 -131q-16 -37 -40.5 -97t-47 -131t-40 -144.5t-21.5 -137t7 -108.5 t47 -57.5t99.5 14t163.5 106.5q-137 -139 -245.5 -190t-172 -5t-72.5 195.5t56 413.5l-268 -539l-4 13q0 -4 -1 -5t-1 -4zM154 1243q25 90 72 143q20 23 46.5 41.5t62.5 24.5t79 -2t96 -39q106 -59 180 -72.5t121 -3.5q53 10 88 45q-55 -80 -123 -127q-29 -20 -64.5 -34.5 t-76.5 -16.5t-88 10.5t-98 44.5q-68 43 -114 60.5t-76.5 17.5t-49 -12t-29 -27.5t-15.5 -31t-11 -21.5z" />
<glyph unicode="&#xe4;" horiz-adv-x="688" d="M-23 57q72 422 166 672q39 106 88.5 186t104.5 102.5t118.5 -27.5t135.5 -204l-8 -45q-29 55 -56.5 89t-56.5 37t-58.5 -31.5t-62.5 -116.5t-68.5 -217t-76.5 -334l299 545v-2q2 8 4 15t4 15l188 -131q-16 -37 -40.5 -97t-47 -131t-40 -144.5t-21.5 -137t7 -108.5 t47 -57.5t99.5 14t163.5 106.5q-137 -139 -245.5 -190t-172 -5t-72.5 195.5t56 413.5l-268 -539l-4 13q0 -4 -1 -5t-1 -4zM225 1339q29 12 62.5 49t64.5 78q37 48 74 103q8 -53 20 -99q10 -41 27.5 -78.5t42.5 -56.5q-35 -10 -71 -37.5t-64 -58.5q-35 -37 -68 -80 q-6 33 -16 66q-10 29 -26.5 59.5t-45.5 54.5zM553 1331q29 12 62.5 51t64.5 80q36 50 73 107q8 -55 21 -105q10 -41 27.5 -82t41.5 -59q-35 -10 -70.5 -36t-64.5 -54q-35 -35 -67 -74q-6 31 -17 61q-10 27 -26.5 56.5t-44.5 54.5z" />
<glyph unicode="&#xe5;" horiz-adv-x="688" d="M-23 57q72 422 166 672q39 106 88.5 186t104.5 102.5t118.5 -27.5t135.5 -204l-8 -45q-29 55 -56.5 89t-56.5 37t-58.5 -31.5t-62.5 -116.5t-68.5 -217t-76.5 -334l299 545v-2q2 8 4 15t4 15l188 -131q-16 -37 -40.5 -97t-47 -131t-40 -144.5t-21.5 -137t7 -108.5 t47 -57.5t99.5 14t163.5 106.5q-137 -139 -245.5 -190t-172 -5t-72.5 195.5t56 413.5l-268 -539l-4 13q0 -4 -1 -5t-1 -4zM328 1358q16 57 62.5 92t95.5 52t88 20t39 -3t18.5 -22t36.5 -45t25.5 -73t-17.5 -105t-59.5 -96t-67.5 -52q-37 -20 -80 -24q-49 31 -86 69 q-31 35 -51 81t-4 106zM457 1337q0 -41 11.5 -68.5t27.5 -46.5q16 -23 39 -34q31 20 55 43q23 20 40.5 46.5t17.5 59.5q0 66 -23 94.5t-27 24.5q-4 -2 -25.5 -6t-48 -15.5t-47 -35t-20.5 -62.5z" />
<glyph unicode="&#xe6;" horiz-adv-x="946" d="M-23 57q72 422 166 672q39 106 88.5 186t104.5 102.5t118.5 -27.5t135.5 -204l-8 -45q-29 55 -56.5 89t-56.5 37t-58.5 -31.5t-62.5 -116.5t-68.5 -217t-76.5 -334l299 545v-2q2 8 4 15t4 15l80 -88l-33 -75q-25 12 -34 -19t-13 -75t-5 -87t-7 -59t-20.5 9.5t-45.5 121.5 l-268 -539l-4 13q0 -4 -1 -5t-1 -4zM384 206q-9 73 1 150.5t33 153.5q51 176 162 375l348 164l16 12l-2 -2v-4l10 6l-10 -10q-4 -23 -14 -83.5t-9 -128t20 -124t73 -68.5q8 -2 22 -2h10q20 -4 4 -9t-56 -14.5t-95 -23.5t-113.5 -34.5t-112 -49.5t-87.5 -68 q-27 -117 -20 -212t54 -146q31 -33 60 -40t55.5 4t50 35t43.5 54q47 70 88 183q-45 -135 -102 -230q-25 -41 -55.5 -74.5t-65.5 -53t-74.5 -20.5t-85.5 25q-70 41 -104.5 101.5t-43.5 133.5zM596 494q35 29 91 65.5t142 77.5q-47 31 -63 88t-18 104q-53 -78 -91.5 -163.5 t-60.5 -171.5z" />
<glyph unicode="&#xe7;" horiz-adv-x="632" d="M-66 -500.5q6 54.5 55 127.5q-18 -39 -15 -68.5t16.5 -56t32 -54.5t32.5 -62q61 39 96 74.5t52.5 69.5t18.5 63.5t-7 54.5q-20 59 -84 110l77 207h72q-4 -16 -8 -37q-4 -16 -9 -38.5t-12 -47.5q88 -57 123 -118.5t31 -125t-37 -123t-80 -111.5t-100 -93t-94 -64 q-45 51 -85 96.5t-60.5 93.5t-14.5 102.5zM2 340q6 78 25 154q41 176 141 374l342 166l14 10v-4l11 4q-4 -2 -6.5 -4t-6.5 -4q-8 -16 -6 -66t23.5 -99.5t66.5 -79t125 -7.5q-59 -74 -115.5 -103.5t-103.5 -18t-83 61.5t-56 136q-63 -102 -108.5 -220t-64 -228.5t-7 -201.5 t58.5 -138q31 -33 60.5 -39t55 4t48 34.5t41.5 55.5q43 70 78 182q-37 -135 -91 -229q-23 -41 -50 -75t-61 -54.5t-75 -21.5t-86 26q-72 41 -109.5 101.5t-52 133t-8.5 150.5z" />
<glyph unicode="&#xe8;" horiz-adv-x="622" d="M-1 206q-9 73 1 150.5t33 153.5q51 176 162 375l348 164l16 12l-2 -2v-4l10 6l-10 -10q-4 -23 -14.5 -83.5t-9 -128t20.5 -124t73 -68.5q8 -2 22 -2h10q20 -4 4 -9t-56 -14.5t-95 -23.5t-113.5 -34.5t-112 -49.5t-87.5 -68q-27 -117 -20 -212t54 -146q31 -33 60 -40 t55.5 4t50 35t43.5 54q47 70 88 183q-45 -135 -102 -230q-25 -41 -55.5 -74.5t-65.5 -53t-74.5 -20.5t-85.5 25q-70 41 -104.5 101.5t-43.5 133.5zM76 1376q33 10 70 19q33 8 75.5 14t96.5 8q12 -37 60 -75.5t107.5 -73.5t117 -62.5l92 -44t32.5 -18.5t-61 16 q-92 27 -195.5 64t-191.5 72q-102 39 -203 81zM211 494q35 29 91 65.5t142 77.5q-47 31 -63 88t-19 104q-53 -78 -91 -163.5t-60 -171.5z" />
<glyph unicode="&#xe9;" horiz-adv-x="622" d="M-1 206q-9 73 1 150.5t33 153.5q51 176 162 375l348 164l16 12l-2 -2v-4l10 6l-10 -10q-4 -23 -14.5 -83.5t-9 -128t20.5 -124t73 -68.5q8 -2 22 -2h10q20 -4 4 -9t-56 -14.5t-95 -23.5t-113.5 -34.5t-112 -49.5t-87.5 -68q-27 -117 -20 -212t54 -146q31 -33 60 -40 t55.5 4t50 35t43.5 54q47 70 88 183q-45 -135 -102 -230q-25 -41 -55.5 -74.5t-65.5 -53t-74.5 -20.5t-85.5 25q-70 41 -104.5 101.5t-43.5 133.5zM211 494q35 29 91 65.5t142 77.5q-47 31 -63 88t-19 104q-53 -78 -91 -163.5t-60 -171.5zM243.5 1145q-1.5 2 32.5 18.5 t92 45t117.5 63.5t106.5 74t62 75q53 -2 97 -8t77 -14q37 -8 69 -19q-102 -43 -204 -81q-88 -35 -191.5 -73t-195.5 -65q-61 -18 -62.5 -16z" />
<glyph unicode="&#xea;" horiz-adv-x="622" d="M-1 206q-9 73 1 150.5t33 153.5q51 176 162 375l348 164l16 12l-2 -2v-4l10 6l-10 -10q-4 -23 -14.5 -83.5t-9 -128t20.5 -124t73 -68.5q8 -2 22 -2h10q20 -4 4 -9t-56 -14.5t-95 -23.5t-113.5 -34.5t-112 -49.5t-87.5 -68q-27 -117 -20 -212t54 -146q31 -33 60 -40 t55.5 4t50 35t43.5 54q47 70 88 183q-45 -135 -102 -230q-25 -41 -55.5 -74.5t-65.5 -53t-74.5 -20.5t-85.5 25q-70 41 -104.5 101.5t-43.5 133.5zM174 1188q10 -8 40.5 11.5t70.5 53.5t83 73.5t79 74.5t59.5 57.5t23.5 20.5q0 -4 13.5 -29.5t36 -59.5t53 -71t65.5 -63.5 t71.5 -36.5t73.5 10q0 -6 -14 -23.5t-40 -34t-61.5 -23.5t-79.5 7.5t-95.5 56.5t-106.5 128q-23 -29 -58.5 -60.5t-70.5 -58.5q-41 -31 -86 -61q-18 8 -31 16q-10 6 -20 10t-6 2zM211 494q35 29 91 65.5t142 77.5q-47 31 -63 88t-19 104q-53 -78 -91 -163.5t-60 -171.5z" />
<glyph unicode="&#xeb;" horiz-adv-x="622" d="M-1 206q-9 73 1 150.5t33 153.5q51 176 162 375l348 164l16 12l-2 -2v-4l10 6l-10 -10q-4 -23 -14.5 -83.5t-9 -128t20.5 -124t73 -68.5q8 -2 22 -2h10q20 -4 4 -9t-56 -14.5t-95 -23.5t-113.5 -34.5t-112 -49.5t-87.5 -68q-27 -117 -20 -212t54 -146q31 -33 60 -40 t55.5 4t50 35t43.5 54q47 70 88 183q-45 -135 -102 -230q-25 -41 -55.5 -74.5t-65.5 -53t-74.5 -20.5t-85.5 25q-70 41 -104.5 101.5t-43.5 133.5zM190 1345q29 12 62.5 49t64.5 78q37 48 74 103q8 -53 20 -99q10 -41 27.5 -78.5t42.5 -56.5q-35 -10 -71 -37.5t-64 -58.5 q-35 -37 -68 -80q-6 33 -16 66q-10 29 -26.5 59.5t-45.5 54.5zM211 494q35 29 91 65.5t142 77.5q-47 31 -63 88t-19 104q-53 -78 -91 -163.5t-60 -171.5zM518 1337q29 12 62.5 51t64.5 80q36 50 73 107q8 -55 21 -105q10 -41 27.5 -82t41.5 -59q-35 -10 -70.5 -36t-64.5 -54 q-35 -35 -67 -74q-6 31 -17 61q-10 27 -26.5 56.5t-44.5 54.5z" />
<glyph unicode="&#xec;" horiz-adv-x="479" d="M-49 721q66 23 122 69t99 91q51 53 94 110l217 -123q-88 -186 -131 -362t-59 -316q-20 -164 -14 -309l-205 209q10 117 28 242q16 106 42 236t67 253q-20 -14 -43 -28.5t-52.5 -27.5t-69.5 -24.5t-95 -19.5zM41 1358q33 10 70 18q33 8 75.5 14.5t96.5 8.5q14 -37 61 -76 t106.5 -74t117 -62.5l92 -44t32.5 -18t-61 16.5q-92 27 -195.5 63.5t-191.5 71.5q-102 39 -203 82z" />
<glyph unicode="&#xed;" horiz-adv-x="479" d="M-49 721q55 8 95 19.5t69.5 24.5t52 27.5t43.5 28.5q-41 -123 -66.5 -253t-42.5 -236q-18 -125 -28 -242l205 -209q-6 145 14 309q16 139 59 315.5t131 362.5l-217 123q-43 -57 -94 -110q-43 -45 -99.5 -91.5t-121.5 -68.5zM185.5 1137q-1.5 2 32.5 18t92.5 45 t117.5 63.5t107.5 73.5t60.5 76q53 -2 97 -8t77 -14q37 -8 70 -19q-102 -43 -205 -82q-88 -35 -191.5 -72.5t-195.5 -64.5q-61 -18 -62.5 -16z" />
<glyph unicode="&#xee;" horiz-adv-x="479" d="M-49 721q55 8 95 19.5t69.5 24.5t52 27.5t43.5 28.5q-41 -123 -66.5 -253t-42.5 -236q-18 -125 -28 -242l205 -209q-6 145 14 309q16 139 59 315.5t131 362.5l-217 123q-43 -57 -94 -110q-43 -45 -99.5 -91.5t-121.5 -68.5zM88 1139q10 -8 41 11t71 53t83 74t78.5 74.5 t59 57.5t23.5 21q0 -4 13.5 -30t36 -59.5t53.5 -70.5t65.5 -63.5t71.5 -36.5t74 10q0 -6 -14.5 -23.5t-40 -34t-61.5 -23.5t-80 7t-95 56t-107 128q-23 -29 -58.5 -60.5t-70.5 -58.5q-41 -31 -86 -61q-18 8 -30 16q-10 6 -20.5 10.5t-6.5 2.5z" />
<glyph unicode="&#xef;" horiz-adv-x="479" d="M-49 721q66 23 122 69t99 91q51 53 94 110l217 -123q-88 -186 -131 -362t-59 -316q-20 -164 -14 -309l-205 209q10 117 28 242q16 106 42 236t67 253q-20 -14 -43 -28.5t-52.5 -27.5t-69.5 -24.5t-95 -19.5zM113 1337q29 12 62.5 49t64.5 78q36 48 73 103q8 -53 21 -99 q10 -41 27.5 -78.5t41.5 -56.5q-35 -10 -70.5 -37.5t-64.5 -58.5q-35 -37 -67 -80q-6 33 -17 66q-10 29 -26.5 59.5t-44.5 54.5zM440 1329q29 12 63 51t64 80q37 50 74 107q8 -55 21 -105q10 -41 27.5 -82t41.5 -59q-35 -10 -70.5 -35.5t-64.5 -54.5q-35 -35 -68 -74 q-6 31 -16 62q-10 27 -26.5 56.5t-45.5 53.5z" />
<glyph unicode="&#xf0;" horiz-adv-x="724" d="M-27 1546q201 18 369 -28q72 -20 142.5 -56.5t132 -96.5t106.5 -145t65 -204q18 -119 5 -228.5t-48.5 -207t-87 -182.5t-108.5 -156q-134 -168 -318 -301q-135 68 -189 163t-54 197t41 204.5t97 187.5t112.5 142.5t87.5 69.5q80 -14 128 -33.5t74.5 -47t36.5 -63.5 t17 -85q31 170 22.5 298t-45.5 221t-94 155.5t-123 101.5q-154 92 -369 94zM96 256q2 -51 14.5 -82t31 -48t36.5 -36q104 88 163.5 163t92.5 128q37 64 49 115q16 131 0 201.5t-43 103.5q-31 37 -75 43q-59 -43 -113 -109q-45 -55 -87 -139t-59 -201q-12 -88 -10 -139z M367 1057q0 -2 26.5 23.5t66.5 65.5t86 87t86 87l67.5 67.5t29.5 27.5t29.5 -10t60.5 -21q37 -14 86 -30q-152 -80 -270 -146q-51 -29 -99.5 -54.5t-86 -47t-60 -34.5t-22.5 -15z" />
<glyph unicode="&#xf1;" horiz-adv-x="841" d="M10 72q6 168 39 338q14 72 34.5 151.5t50.5 159.5t70 158.5t91 150.5l180 -125q-59 -94 -113 -207q-45 -96 -88 -224t-61 -271l483 823l189 -131q-25 -33 -55.5 -101.5t-60.5 -156.5t-55.5 -187.5t-38.5 -190.5t-11 -168t28.5 -120t80.5 -45t142 56 q-150 -117 -250 -124.5t-143 91t-23.5 301.5t109.5 508l-454 -836zM283 1258q25 90 72 143q20 23 46.5 41.5t62.5 24.5t79 -2t96 -39q106 -59 180 -72.5t121 -3.5q53 10 88 45q-55 -80 -123 -127q-29 -20 -64.5 -34.5t-76.5 -16.5t-88 10.5t-98 44.5q-68 43 -114 60.5 t-76.5 17.5t-49 -12t-29 -27.5t-15.5 -31t-11 -21.5z" />
<glyph unicode="&#xf2;" horiz-adv-x="692" d="M-32 252.5q9 71.5 34 164.5t63.5 195.5t88 191.5t105.5 150.5t115.5 73.5t119 -37t116.5 -184q21 -29 41 -74q12 -27 7 -95.5t-25.5 -158.5t-53 -189.5t-75.5 -186.5t-96.5 -150.5t-112.5 -80.5t-124 21.5t-132 157.5q-16 12 -32.5 37t-35.5 66q-12 27 -3 98.5zM92 33 q23 -33 48.5 -45.5t57 5t67.5 71t77 153.5t87 254t99 373q-37 45 -83 42t-101 -87t-118.5 -267.5t-133.5 -498.5zM135 1370q33 10 70 19q33 8 75.5 14t96.5 8q12 -37 60 -75.5t107.5 -73.5t117 -62.5l92 -44t32.5 -18.5t-61 16q-92 27 -195.5 64t-191.5 72q-102 39 -203 81z " />
<glyph unicode="&#xf3;" horiz-adv-x="692" d="M-32 252.5q9 71.5 34 164.5t63.5 195.5t88 191.5t105.5 150.5t115.5 73.5t119 -37t116.5 -184q21 -29 41 -74q12 -27 7 -95.5t-25.5 -158.5t-53 -189.5t-75.5 -186.5t-96.5 -150.5t-112.5 -80.5t-124 21.5t-132 157.5q-16 12 -32.5 37t-35.5 66q-12 27 -3 98.5zM92 33 q23 -33 48.5 -45.5t57 5t67.5 71t77 153.5t87 254t99 373q-37 45 -83 42t-101 -87t-118.5 -267.5t-133.5 -498.5zM288.5 1141q-1.5 2 32.5 18.5t92 45t117.5 63.5t106.5 74t62 75q53 -2 97 -8t77 -14q37 -8 69 -19q-102 -43 -204 -81q-88 -35 -191.5 -73t-195.5 -65 q-61 -18 -62.5 -16z" />
<glyph unicode="&#xf4;" horiz-adv-x="692" d="M-32 252.5q9 71.5 34 164.5t63.5 195.5t88 191.5t105.5 150.5t115.5 73.5t119 -37t116.5 -184q21 -29 41 -74q12 -27 7 -95.5t-25.5 -158.5t-53 -189.5t-75.5 -186.5t-96.5 -150.5t-112.5 -80.5t-124 21.5t-132 157.5q-16 12 -32.5 37t-35.5 66q-12 27 -3 98.5zM92 33 q23 -33 48.5 -45.5t57 5t67.5 71t77 153.5t87 254t99 373q-37 45 -83 42t-101 -87t-118.5 -267.5t-133.5 -498.5zM176 1120q10 -8 40.5 11.5t70.5 53.5t83 73.5t79 74.5t59.5 57.5t23.5 20.5q0 -4 13.5 -29.5t36 -59.5t53 -71t65.5 -63.5t71.5 -36.5t73.5 10q0 -6 -14 -23.5 t-40 -34t-61.5 -23.5t-79.5 7.5t-95.5 56.5t-106.5 128q-23 -29 -58.5 -60.5t-70.5 -58.5q-41 -31 -86 -61q-18 8 -31 16q-10 6 -20 10t-6 2z" />
<glyph unicode="&#xf5;" horiz-adv-x="692" d="M-32 252.5q9 71.5 34 164.5t63.5 195.5t88 191.5t105.5 150.5t115.5 73.5t119 -37t116.5 -184q21 -29 41 -74q12 -27 7 -95.5t-25.5 -158.5t-53 -189.5t-75.5 -186.5t-96.5 -150.5t-112.5 -80.5t-124 21.5t-132 157.5q-16 12 -32.5 37t-35.5 66q-12 27 -3 98.5zM92 33 q23 -33 48.5 -45.5t57 5t67.5 71t77 153.5t87 254t99 373q-37 45 -83 42t-101 -87t-118.5 -267.5t-133.5 -498.5zM178 1178q25 90 72 143q20 23 46.5 41.5t62.5 24.5t79 -2t96 -39q106 -59 180 -72.5t121 -3.5q53 10 88 45q-55 -80 -123 -127q-29 -20 -64.5 -34.5 t-76.5 -16.5t-88 10.5t-98 44.5q-68 43 -114 60.5t-76.5 17.5t-49 -12t-29 -27.5t-15.5 -31t-11 -21.5z" />
<glyph unicode="&#xf6;" horiz-adv-x="692" d="M-32 252.5q9 71.5 34 164.5t63.5 195.5t88 191.5t105.5 150.5t115.5 73.5t119 -37t116.5 -184q21 -29 41 -74q12 -27 7 -95.5t-25.5 -158.5t-53 -189.5t-75.5 -186.5t-96.5 -150.5t-112.5 -80.5t-124 21.5t-132 157.5q-16 12 -32.5 37t-35.5 66q-12 27 -3 98.5zM92 33 q23 -33 48.5 -45.5t57 5t67.5 71t77 153.5t87 254t99 373q-37 45 -83 42t-101 -87t-118.5 -267.5t-133.5 -498.5zM205 1308q29 12 62.5 49t64.5 78q37 48 74 103q8 -53 20 -99q10 -41 27.5 -78.5t42.5 -56.5q-35 -10 -71 -37.5t-64 -58.5q-35 -37 -68 -80q-6 33 -16 66 q-10 29 -26.5 59.5t-45.5 54.5zM533 1300q29 12 62.5 51t64.5 80q36 50 73 107q8 -55 21 -105q10 -41 27.5 -82t41.5 -59q-35 -10 -70.5 -36t-64.5 -54q-35 -35 -67 -74q-6 31 -17 61q-10 27 -26.5 56.5t-44.5 54.5z" />
<glyph unicode="&#xf7;" horiz-adv-x="327" d="M-177 471l109 186q16 -18 54 -30.5t105.5 -14.5t169 6.5t249.5 26.5q-8 -29 -19.5 -52.5t-21.5 -41.5q-12 -23 -29 -41zM-166 473l116 41q43 -12 107 -22q53 -10 131 -20.5t180 -18.5q-104 -10 -201.5 -8.5t-171.5 8.5q-85 8 -161 20zM-16 207q29 12 62.5 49t64.5 78 q36 47 73 102q8 -55 21 -104q10 -41 27.5 -82t41.5 -60q-35 -10 -70.5 -49t-64.5 -84q-35 -53 -67 -114q-6 55 -17 106q-10 43 -26.5 88t-44.5 70zM129 864q29 12 62.5 49t64.5 78q37 48 74 103q8 -55 20 -105q10 -41 27.5 -82t42.5 -59q-35 -10 -71 -49t-64 -84 q-35 -53 -68 -115q-6 55 -16 107q-10 43 -26.5 88t-45.5 69z" />
<glyph unicode="&#xf8;" horiz-adv-x="692" d="M-167 -248q-4 9 4 12.5t12 -1.5q15 -19 33 -26t36 -15q17 -8 37.5 -15.5t43.5 -0.5q60 20 106.5 75t75.5 120q15 33 26.5 67.5l23.5 70.5l47 142l4 16t6 17v5q47 148 94 293.5t97 293.5l47 146q12 36 25.5 73t31.5 70q35 70 90 123q28 25 61.5 41.5t66.5 19.5q35 22 73 7 q24 -10 37 -33t21 -48q3 -8 -5 -12t-12 0q-15 19 -33 26t-35 17q-17 8 -38.5 15.5t-42.5 -0.5q-60 -20 -106.5 -75t-76.5 -121q-16 -33 -27 -67.5t-22 -70.5l-45 -141q-4 -8 -6 -15.5t-6 -15.5v-7q-47 -147 -94.5 -293t-96.5 -292l-47 -147q-12 -38 -26 -74t-32 -70 q-17 -35 -39.5 -66.5t-50.5 -56.5t-61 -41.5t-67 -19.5q-36 -22 -73 -7q-22 12 -35.5 34t-21.5 47zM-32 252.5q9 71.5 34 164.5t63.5 195.5t88 191.5t105.5 150.5t115.5 73.5t119 -37t116.5 -184q21 -29 41 -74q12 -27 7 -95.5t-25.5 -158.5t-53 -189.5t-75.5 -186.5 t-96.5 -150.5t-112.5 -80.5t-124 21.5t-132 157.5q-16 12 -32.5 37t-35.5 66q-12 27 -3 98.5zM92 33q23 -33 48.5 -45.5t57 5t67.5 71t77 153.5t87 254t99 373q-37 45 -83 42t-101 -87t-118.5 -267.5t-133.5 -498.5z" />
<glyph unicode="&#xf9;" horiz-adv-x="813" d="M-33 70q6 168 39 338q14 72 34.5 151.5t50.5 159.5t70 158.5t91 150.5l180 -125q-68 -104 -123 -229q-47 -106 -91 -245.5t-54 -293.5q35 33 84 88.5t103.5 134t110.5 183t107 235.5q18 59 39 123t43 129l189 -131q-25 -33 -55.5 -101.5t-60.5 -157.5t-54.5 -187.5 t-38 -190.5t-11 -168t29 -119t80.5 -45t142 56q-131 -102 -224 -121t-143 42.5t-55.5 204t42.5 361.5q-63 -127 -131 -228.5t-123 -172.5q-66 -84 -127 -150zM193 1343q33 10 70 19q33 8 75.5 14t96.5 8q12 -37 60 -75.5t107.5 -73.5t117 -62.5l92 -44t32.5 -18.5t-61 16 q-92 27 -195.5 64t-191.5 72q-102 39 -203 81z" />
<glyph unicode="&#xfa;" horiz-adv-x="813" d="M-33 70q6 168 39 338q14 72 34.5 151.5t50.5 159.5t70 158.5t91 150.5l180 -125q-68 -104 -123 -229q-47 -106 -91 -245.5t-54 -293.5q35 33 84 88.5t103.5 134t110.5 183t107 235.5q18 59 39 123t43 129l189 -131q-25 -33 -55.5 -101.5t-60.5 -157.5t-54.5 -187.5 t-38 -190.5t-11 -168t29 -119t80.5 -45t142 56q-131 -102 -224 -121t-143 42.5t-55.5 204t42.5 361.5q-63 -127 -131 -228.5t-123 -172.5q-66 -84 -127 -150zM339.5 1114q-1.5 2 32.5 18.5t92 45t117.5 63.5t106.5 74t62 75q53 -2 97 -8t77 -14q37 -8 69 -19 q-102 -43 -204 -81q-88 -35 -191.5 -73t-195.5 -65q-61 -18 -62.5 -16z" />
<glyph unicode="&#xfb;" horiz-adv-x="813" d="M-33 70q6 168 39 338q14 72 34.5 151.5t50.5 159.5t70 158.5t91 150.5l180 -125q-68 -104 -123 -229q-47 -106 -91 -245.5t-54 -293.5q35 33 84 88.5t103.5 134t110.5 183t107 235.5q18 59 39 123t43 129l189 -131q-25 -33 -55.5 -101.5t-60.5 -157.5t-54.5 -187.5 t-38 -190.5t-11 -168t29 -119t80.5 -45t142 56q-131 -102 -224 -121t-143 42.5t-55.5 204t42.5 361.5q-63 -127 -131 -228.5t-123 -172.5q-66 -84 -127 -150zM301 1161q10 -8 40.5 11.5t70.5 53.5t83 73.5t79 74.5t59.5 57.5t23.5 20.5q0 -4 13.5 -29.5t36 -59.5t53 -71 t65.5 -63.5t71.5 -36.5t73.5 10q0 -6 -14 -23.5t-40 -34t-61.5 -23.5t-79.5 7.5t-95.5 56.5t-106.5 128q-23 -29 -58.5 -60.5t-70.5 -58.5q-41 -31 -86 -61q-18 8 -31 16q-10 6 -20 10t-6 2z" />
<glyph unicode="&#xfc;" horiz-adv-x="813" d="M-33 70q6 168 39 338q14 72 34.5 151.5t50.5 159.5t70 158.5t91 150.5l180 -125q-68 -104 -123 -229q-47 -106 -91 -245.5t-54 -293.5q35 33 84 88.5t103.5 134t110.5 183t107 235.5q18 59 39 123t43 129l189 -131q-25 -33 -55.5 -101.5t-60.5 -157.5t-54.5 -187.5 t-38 -190.5t-11 -168t29 -119t80.5 -45t142 56q-131 -102 -224 -121t-143 42.5t-55.5 204t42.5 361.5q-63 -127 -131 -228.5t-123 -172.5q-66 -84 -127 -150zM367 1329q29 12 62.5 49t64.5 78q37 48 74 103q8 -53 20 -99q10 -41 27.5 -78.5t42.5 -56.5q-35 -10 -71 -37.5 t-64 -58.5q-35 -37 -68 -80q-6 33 -16 66q-10 29 -26.5 59.5t-45.5 54.5zM695 1321q29 12 62.5 51t64.5 80q36 50 73 107q8 -55 21 -105q10 -41 27.5 -82t41.5 -59q-35 -10 -70.5 -36t-64.5 -54q-35 -35 -67 -74q-6 31 -17 61q-10 27 -26.5 56.5t-44.5 54.5z" />
<glyph unicode="&#xfd;" horiz-adv-x="768" d="M-485 -825q-4 104 61 239q-27 -117 -18 -207q4 -39 16 -75.5t36.5 -65.5t63.5 -46t99 -17q63 0 131.5 62.5t138.5 173t136.5 260t128 323.5t115.5 362.5t97 378.5q-55 -129 -123.5 -244.5t-128.5 -205.5q-70 -104 -139 -195l-143 152q6 168 39 340q14 72 34.5 151.5 t50 161.5t69.5 161t91 150l183 -125q-68 -106 -123 -229q-47 -104 -91 -242.5t-55 -292.5q39 43 92.5 117t111.5 179.5t115.5 245.5t100.5 319q2 6 2 11t2 11l203 -108q-119 -557 -266 -994q-63 -186 -138 -364t-161 -317.5t-181.5 -224.5t-197.5 -85t-170 20.5t-108 54.5 t-56 77t-18 88zM368.5 1131q-1.5 2 32.5 18.5t92 45t117.5 63.5t106.5 74t62 75q53 -2 97 -8t77 -14q37 -8 69 -19q-102 -43 -204 -81q-88 -35 -191.5 -73t-195.5 -65q-61 -18 -62.5 -16z" />
<glyph unicode="&#xfe;" horiz-adv-x="765" d="M-14 -448.5q2 65.5 12 178t29.5 263t45 321.5t59.5 350.5t75 349.5q12 49 39.5 122.5t68.5 154.5t94.5 157t118 128t137 68.5t154.5 -22.5q23 -12 35 -29.5t23 -40.5q14 -27 16 -56.5t-6 -55.5q-16 -55 -64 -94q-78 -53 -168 -58.5t-176 25.5q-4 -14 -10 -27.5t-10 -30.5 q-88 -264 -142.5 -466.5t-87.5 -358.5q51 156 110.5 267.5t113.5 185.5q61 84 122 143l7 -12q0 2 1 4t1 6l180 -125q-4 -31 -21 -119q-14 -76 -44.5 -220t-82.5 -388q-33 -86 -74.5 -146.5t-93 -70.5t-112 39t-131.5 180q-2 -10 -6 -68.5t-8.5 -141.5t-9.5 -178t-9 -178 t-8 -142.5t-6 -69.5q-4 -72 -1 -119t7 -76q6 -35 14 -51l-188 340q-6 -4 -4 61.5zM223 238q27 -51 54.5 -89t54 -44.5t54.5 26.5t56.5 123t59 244.5t63.5 390.5q-31 -29 -71.5 -81t-87 -131t-93.5 -187.5t-90 -251.5zM489 1337q37 -14 74 -21t76 -3q49 2 97 16t83 49 q35 31 44 80t-13 90q-27 44 -78 62q-27 4 -59.5 -3.5t-69.5 -37t-76 -84.5t-78 -148zM754 834l4 20q2 0 -4 -20z" />
<glyph unicode="&#xff;" horiz-adv-x="768" d="M-485 -825q-4 104 61 239q-27 -117 -18 -207q4 -39 16 -75.5t36.5 -65.5t63.5 -46t99 -17q63 0 131.5 62.5t138.5 173t136.5 260t128 323.5t115.5 362.5t97 378.5q-55 -129 -123.5 -244.5t-128.5 -205.5q-70 -104 -139 -195l-143 152q6 168 39 340q14 72 34.5 151.5 t50 161.5t69.5 161t91 150l183 -125q-68 -106 -123 -229q-47 -104 -91 -242.5t-55 -292.5q39 43 92.5 117t111.5 179.5t115.5 245.5t100.5 319q2 6 2 11t2 11l203 -108q-119 -557 -266 -994q-63 -186 -138 -364t-161 -317.5t-181.5 -224.5t-197.5 -85t-170 20.5t-108 54.5 t-56 77t-18 88zM340 1337q29 12 62.5 49t64.5 78q37 48 74 103q8 -53 20 -99q10 -41 27.5 -78.5t42.5 -56.5q-35 -10 -71 -37.5t-64 -58.5q-35 -37 -68 -80q-6 33 -16 66q-10 29 -26.5 59.5t-45.5 54.5zM668 1329q29 12 62.5 51t64.5 80q36 50 73 107q8 -55 21 -105 q10 -41 27.5 -82t41.5 -59q-35 -10 -70.5 -36t-64.5 -54q-35 -35 -67 -74q-6 31 -17 61q-10 27 -26.5 56.5t-44.5 54.5z" />
<glyph unicode="&#x152;" horiz-adv-x="1351" d="M-40 581.5q11 163.5 71.5 301t144.5 247t181.5 191.5t183.5 134t149.5 76.5t81.5 20.5q27 -47 51 -106q23 -51 44.5 -124t37.5 -165l-61 -18q-10 57 -23.5 100t-25.5 74q-14 35 -29 61q-201 -119 -335 -278.5t-192.5 -347t-35 -396.5t140.5 -430q29 2 64 15 q29 10 67.5 32.5t83.5 65.5l33 -51q-78 -72 -151.5 -107t-133.5 -49q-70 -16 -133 -12q-131 217 -178 409.5t-36 356zM456 156.5q-5 54.5 7 107.5q25 104 79 174t107 113q63 49 135 78q-45 10 -73 49q-25 35 -37 101.5t12 187.5q12 59 49 115.5t90.5 107.5t118 96t129.5 84 q154 90 338 166q51 -49 88 -115q31 -55 48.5 -133t-3.5 -176q-23 -98 -76 -123.5t-110 -17.5q-68 8 -144 53q82 -33 137.5 -32t87 25.5t43 63.5t4.5 82t-30.5 83t-58.5 65q-152 -55 -248 -115.5t-151.5 -121t-76 -118t-18.5 -108.5q4 -121 109 -238q-131 -47 -207 -106.5 t-109.5 -124t-32.5 -132t21 -130.5q49 -150 197 -307q68 -4 153 43q74 39 175.5 135t226.5 284q-47 -100 -100.5 -179t-110 -141.5t-112.5 -108.5t-107 -79q-121 -78 -244 -108q-102 96 -176 199q-31 43 -59.5 93t-47 102t-23.5 106.5z" />
<glyph unicode="&#x153;" horiz-adv-x="1314" d="M-35 223q4 49 19 115l92 301q49 121 112.5 223.5t134 145.5t144.5 3t143 -204q21 -29 41 -74q12 -27 7 -95.5t-25.5 -158.5t-53 -189.5t-75.5 -186.5t-96.5 -150.5t-112.5 -80.5t-124 21.5t-132 157.5q-16 12 -32.5 37t-35.5 66q-10 20 -6 69zM92 33q18 -27 40 -40 t46.5 -7t53 35.5t61.5 91.5l188 352q12 39 16.5 83t6.5 91t6 98t18 107q-37 45 -83 42t-101 -87t-118.5 -267.5t-133.5 -498.5zM427 206q-9 73 1 150.5t33 153.5q51 176 162 375l348 164l16 12l-2 -2v-4l10 6l-10 -10q-4 -23 -14 -83.5t-9 -128t20 -124t73 -68.5q8 -2 22 -2 h10q20 -4 4 -9t-56 -14.5t-95 -23.5t-113.5 -34.5t-111.5 -49.5t-88 -68q-27 -117 -20 -212t55 -146q31 -33 59.5 -40t55 4t50 35t43.5 54q47 70 88 183q-45 -135 -102 -230q-25 -41 -55.5 -74.5t-65.5 -53t-74.5 -20.5t-85.5 25q-70 41 -104.5 101.5t-43.5 133.5zM639 494 q35 29 91 65.5t142 77.5q-47 31 -63 88t-18 104q-53 -78 -91 -163.5t-61 -171.5z" />
<glyph unicode="&#x178;" horiz-adv-x="1026" d="M-1122 -428q76 127 180 206t224 121t251 53t260 1t252 -36t225.5 -54.5t181 -58t119.5 -46.5l-2 2q6 59 17 134q10 63 22.5 149t32.5 190q-66 -72 -157 -117.5t-214 -45.5q-139 0 -213.5 50t-95 142t11 222t104.5 292t184.5 349.5t252.5 394.5l154 -95 q-231 -360 -359 -641q-53 -121 -89 -235.5t-37 -204.5t43 -145.5t151 -55.5q94 0 166.5 65.5t126.5 162.5q29 139 67.5 292.5t89 308t111.5 303t137 279.5l189 -122q-195 -412 -322 -791q-55 -162 -100 -332t-68.5 -329.5t-19.5 -302t51 -248.5q-27 35 -103.5 84t-188.5 100 t-251 99t-289.5 81t-305 44t-299 -11.5t-270.5 -82.5t-220 -171zM639 1843q29 12 62.5 49t64.5 78q37 48 74 103q8 -53 20 -99q10 -41 27.5 -78.5t42.5 -56.5q-35 -10 -71 -37.5t-64 -58.5q-35 -37 -68 -80q-6 33 -16 66q-10 29 -26.5 59.5t-45.5 54.5zM967 1835 q29 12 62.5 51t64.5 80q36 50 73 107q8 -55 21 -105q10 -41 27.5 -82t41.5 -59q-35 -10 -70.5 -36t-64.5 -54q-35 -35 -67 -74q-6 31 -17 61q-10 27 -26.5 56.5t-44.5 54.5z" />
<glyph unicode="&#x2c6;" horiz-adv-x="458" d="M29 1161q10 -8 40.5 11.5t70.5 53.5t83 73.5t79 74.5t59.5 57.5t23.5 20.5q0 -4 13.5 -29.5t36 -59.5t53 -71t65.5 -63.5t71.5 -36.5t73.5 10q0 -6 -14 -23.5t-40 -34t-61.5 -23.5t-79.5 7.5t-95.5 56.5t-106.5 128q-23 -29 -58.5 -60.5t-70.5 -58.5q-41 -31 -86 -61 q-18 8 -31 16q-10 6 -20 10t-6 2z" />
<glyph unicode="&#x2dc;" horiz-adv-x="677" d="M207 1235q25 90 72 143q20 23 46.5 41.5t62.5 24.5t79 -2t96 -39q106 -59 180 -72.5t121 -3.5q53 10 88 45q-55 -80 -123 -127q-29 -20 -64.5 -34.5t-76.5 -16.5t-88 10.5t-98 44.5q-68 43 -114 60.5t-76.5 17.5t-49 -12t-29 -27.5t-15.5 -31t-11 -21.5z" />
<glyph unicode="&#x2000;" horiz-adv-x="1132" />
<glyph unicode="&#x2001;" horiz-adv-x="2265" />
<glyph unicode="&#x2002;" horiz-adv-x="1132" />
<glyph unicode="&#x2003;" horiz-adv-x="2265" />
<glyph unicode="&#x2004;" horiz-adv-x="755" />
<glyph unicode="&#x2005;" horiz-adv-x="566" />
<glyph unicode="&#x2006;" horiz-adv-x="377" />
<glyph unicode="&#x2007;" horiz-adv-x="377" />
<glyph unicode="&#x2008;" horiz-adv-x="283" />
<glyph unicode="&#x2009;" horiz-adv-x="453" />
<glyph unicode="&#x200a;" horiz-adv-x="125" />
<glyph unicode="&#x2010;" d="M18 471l109 186q16 -18 54 -30.5t105.5 -14.5t169 6.5t249.5 26.5q-8 -29 -19.5 -52.5t-21.5 -41.5q-12 -23 -29 -41z" />
<glyph unicode="&#x2011;" d="M18 471l109 186q16 -18 54 -30.5t105.5 -14.5t169 6.5t249.5 26.5q-8 -29 -19.5 -52.5t-21.5 -41.5q-12 -23 -29 -41z" />
<glyph unicode="&#x2012;" d="M18 471l109 186q16 -18 54 -30.5t105.5 -14.5t169 6.5t249.5 26.5q-8 -29 -19.5 -52.5t-21.5 -41.5q-12 -23 -29 -41z" />
<glyph unicode="&#x2013;" d="M18 471l109 186q16 -18 54 -30.5t105.5 -14.5t169 6.5t249.5 26.5q-8 -29 -19.5 -52.5t-21.5 -41.5q-12 -23 -29 -41zM29 473l116 41q43 -12 107 -22q53 -10 131 -20.5t180 -18.5q-104 -10 -201.5 -8.5t-171.5 8.5q-85 8 -161 20z" />
<glyph unicode="&#x2014;" d="M18 471l109 186q16 -18 54 -30.5t105.5 -14.5t169 6.5t249.5 26.5q-8 -29 -19.5 -52.5t-21.5 -41.5q-12 -23 -29 -41zM29 473l116 41q43 -12 107 -22q53 -10 131 -20.5t180 -18.5q-104 -10 -201.5 -8.5t-171.5 8.5q-85 8 -161 20z" />
<glyph unicode="&#x2018;" horiz-adv-x="268" d="M10 1069q16 68 52 141.5t75 137.5q45 72 96 143q-33 -90 -47 -174q-12 -72 -11 -151t38 -134q-23 -10 -50.5 -44t-53.5 -68q-31 -42 -62 -93q0 55 -4 103q-4 41 -11 80t-22 59z" />
<glyph unicode="&#x2019;" horiz-adv-x="262" d="M92 827q33 90 47 174q12 72 10 151t-36 134q20 10 48.5 44t55.5 69q31 41 62 92q0 -55 4 -102q4 -41 10 -81t22 -59q-16 -68 -52 -142.5t-75 -135.5q-45 -74 -96 -144z" />
<glyph unicode="&#x201a;" horiz-adv-x="231" d="M-18 -293q33 90 47 174q12 72 10 151t-37 134q20 10 49 44t55 69q31 41 62 92q0 -55 4 -103q4 -41 10 -81t23 -58q-16 -68 -52 -142.5t-75 -136.5q-45 -74 -96 -143z" />
<glyph unicode="&#x201c;" horiz-adv-x="593" d="M92 1069q16 68 52 141.5t75 137.5q45 72 96 143q-33 -90 -47 -174q-12 -72 -11 -151t38 -134q-23 -10 -50.5 -44t-54.5 -68q-30 -42 -61 -93q0 55 -4 103q-4 41 -11.5 80t-21.5 59zM319 1069q16 68 52.5 141.5t74.5 137.5q45 72 97 143q-33 -90 -47 -174 q-12 -72 -11.5 -151t37.5 -134q-23 -10 -50.5 -44t-53.5 -68q-31 -42 -62 -93q0 55 -4 103q-4 41 -11 80t-22 59z" />
<glyph unicode="&#x201d;" horiz-adv-x="593" d="M92 827q33 90 47 174q12 72 10 151t-36 134q20 10 48.5 44t55.5 69q31 41 62 92q0 -55 4 -102q4 -41 10 -81t22 -59q-16 -68 -52 -142.5t-75 -135.5q-45 -74 -96 -144zM319 827q33 90 48 174q12 72 10 151t-37 134q20 10 49 44t55 69q31 41 62 92q0 -55 4 -102 q4 -41 10 -81t23 -59q-16 -68 -52 -142.5t-75 -135.5q-45 -74 -97 -144z" />
<glyph unicode="&#x201e;" horiz-adv-x="208" d="M-18 -293q33 90 47 174q12 72 10 151t-37 134q20 10 49 44t55 69q31 41 62 92q0 -55 4 -103q4 -41 10 -81t23 -58q-16 -68 -52 -142.5t-75 -136.5q-45 -74 -96 -143z" />
<glyph unicode="&#x2022;" horiz-adv-x="6838" d="M-662 -250q31 -10 107 -26.5t196.5 -27.5t287.5 -10t381 29.5t475.5 89t572.5 168.5q260 90 473 139.5t383 69t300 14t226 -23.5q225 -45 338 -164q-33 23 -86 39q-45 14 -116.5 25.5t-174.5 13.5q27 -8 49.5 -16.5t45.5 -18.5q82 -27 158.5 -65.5t148.5 -98.5 q35 -29 64.5 -66.5t49.5 -86.5q18 -51 19.5 -105.5t-10.5 -101.5q-10 -47 -36 -86t-61 -68q-29 -29 -66.5 -48t-74.5 -30q-78 -23 -156.5 -27.5t-160.5 1.5q-59 4 -116.5 0t-117.5 8q-61 10 -119.5 42t-107.5 79q-12 10 -6 25.5t22 5.5q45 -23 94.5 -26t98.5 -21 q45 -8 84 -24.5t75 -39.5q82 -10 163 -11t159 9q78 12 150.5 47t115.5 107q20 39 32.5 83t8.5 91q-12 96 -74 163q-61 72 -137 116t-153 73q-72 31 -142.5 50.5t-142.5 29.5q-137 -10 -316.5 -46t-424.5 -106q-37 -14 -118 -44t-194.5 -66.5t-252 -78.5t-289 -79t-306 -66.5 t-305 -43t-284 -8.5t-242.5 38q184 -33 393 -13.5t410 66.5q-262 -25 -480.5 -14.5t-384 36t-275.5 55.5t-151 44zM332 -598h26h-26zM358 -598q41 -2 154 3t272.5 29.5t351 78t390.5 147.5q170 80 313 127t262 68.5t213 22.5t168 -9q173 -25 277 -111q-115 51 -281 54 q-72 0 -161 -10.5t-198.5 -38t-237.5 -75.5t-275 -122q-96 -49 -218 -80t-250 -50.5t-255 -27.5t-232.5 -10t-183.5 0t-109 4zM510 496v8q63 6 70 49q2 18 6 53t10 94l12 140v53q0 41 -14 53t-59 19v8h100l203 -406l198 406h111v-8q-49 -2 -64.5 -20.5t-7.5 -72.5l2 -272 q0 -29 2 -47t10.5 -28.5t23.5 -14.5t42 -6v-8h-188v8q25 2 40 6t22 14.5t8 28.5t-1 47l-2 322h-4l-205 -418h-8l-186 391h-2l-8 -205q-4 -27 -4.5 -47t-0.5 -37q-2 -53 11.5 -74.5t66.5 -27.5v-8h-184zM1047 1307v6q18 4 28 12t21 37l94 217l4 4l29 -82q16 -41 28.5 -79 t26.5 -68q8 -23 15 -30t30 -11v-6h-94v6q31 8 31 14q0 10 -9.5 33.5t-19.5 54.5h-98q-4 -10 -15.5 -39.5t-11.5 -42.5q0 -10 9 -13t26 -7v-6h-94zM1139 1425h90l-41 117h-4q-12 -31 -23.5 -59.5t-21.5 -57.5zM1194 496v8q37 6 54.5 21.5t35.5 66.5l168 391l8 2l51 -141 q27 -72 51.5 -141.5t49.5 -122.5q14 -41 28.5 -55.5t51.5 -20.5v-8h-174v8q61 12 59 28q0 18 -15.5 59.5t-35.5 94.5h-176q-4 -8 -12.5 -27.5t-15.5 -41t-12 -42t-5 -32.5q0 -18 14 -25.5t49 -13.5v-8h-174zM1358 707h160l-72 206h-4q-23 -53 -44.5 -104t-39.5 -102z M1407 1049q0 20 12.5 33.5t32.5 13.5q18 0 31.5 -13.5t13.5 -33.5t-13.5 -31.5t-31.5 -11.5q-45 0 -45 43zM1720 965v8h97l356 -402h2v217q2 53 0 87t-11.5 53.5t-28.5 28t-52 8.5v8h188v-8q-33 -2 -48 -13.5t-21 -27.5t-7.5 -49t-1.5 -87v-299h-6l-356 404h-2v-207 q2 -59 2 -91t6 -48q6 -18 24.5 -28.5t57.5 -14.5v-8h-188v8q59 6 71 41q2 16 5 49t3 92v168q0 47 -5 59.5t-15 22.5q-8 10 -21.5 16t-48.5 13zM1989 1307v6q25 0 32 8t7 33v174q0 23 -7.5 32t-31.5 9v4h182q0 -16 1 -32.5t1 -33.5h-8q-4 33 -18.5 45.5t-49.5 12.5h-35 q-14 0 -14 -15v-104h53q29 0 37 6t12 29h7v-84h-7q-4 27 -12 34t-37 7h-53v-84q0 -25 8 -33t41 -8v-6h-108zM2327 629h8q4 -18 13 -39t25.5 -40.5t40 -33.5t58.5 -18q90 0 96 102q-4 59 -37.5 85t-66.5 42q-10 0 -66 33q-51 33 -53 100q0 51 36 87t105 36q16 2 37 -2t53 -12 q0 -18 3.5 -43t5.5 -66h-9q-10 37 -31.5 71t-76.5 38q-41 -4 -62.5 -27.5t-21.5 -60.5q4 -47 31.5 -73t68.5 -44q14 -6 35 -16.5t40 -26.5t33.5 -41t14.5 -59q0 -61 -40 -99.5t-116 -38.5q-25 0 -42 3t-33 6q-16 8 -23.5 10t-11.5 6l-7 49t-7 72zM2472 1438q0 57 37.5 98 t109.5 43q57 0 98.5 -36t41.5 -99t-42 -103.5t-106 -40.5q-59 0 -99 37t-40 101zM2501 1448q0 -63 33.5 -100t86.5 -37q45 0 77 28.5t34 85.5q-2 72 -37 109t-88 37q-43 0 -74.5 -29t-31.5 -94zM2836 727q2 63 26 111.5t64 81t92 48t109 15.5q49 0 90 -6t60 -12q0 -16 3 -47 t9 -68h-12q-18 70 -60.5 94.5t-101.5 24.5q-111 -4 -168 -63.5t-57 -166.5q0 -43 13 -85t41 -75.5t72 -55t105 -25.5q29 0 53.5 4t42.5 10q35 6 35 53v66q0 35 -15 48t-79 19v9h180v-9q-33 -6 -41 -16t-8 -37v-67q0 -20 1 -38t7 -28q-37 -10 -83 -19.5t-93 -9.5 q-129 0 -207 66.5t-78 177.5zM3047 1571v2h56l198 -223h2v123q2 59 -6 77.5t-45 20.5v2h103v-2q-16 -2 -24.5 -8.5t-12.5 -14.5q-4 -10 -5 -28.5t-1 -46.5v-168h-2l-197 225h-4v-115q4 -35 3 -52t3 -28q4 -23 43 -22v-6h-104v6q18 0 27 6t14 16q4 10 5 27.5t1 52.5v92 q0 27 -2 33t-11 12q-4 8 -12 11.5t-29 7.5zM3247 -371.5q1 54.5 22 105.5q20 49 49.5 87t62.5 66q72 59 150 98.5t157 65.5q25 10 47.5 18.5t49.5 16.5q-104 -2 -175 -13.5t-116 -25.5q-53 -16 -86 -39q113 119 338 164q96 18 226 23.5t299 -14t381 -69t474 -139.5 q311 -109 573.5 -169t476.5 -88.5t381 -29.5t287.5 10t196.5 27.5t107 26.5q-41 -14 -151 -44t-275.5 -55.5t-385 -35.5t-479.5 14q201 -47 410 -66.5t393 13.5q-109 -33 -244 -38t-283.5 8.5t-305 43t-307 66.5t-289 79t-251 78.5t-193.5 66.5t-118 44q-246 70 -426 106 t-317 46q-72 -10 -141.5 -29.5t-141.5 -50.5q-78 -29 -153.5 -73t-136.5 -116q-31 -33 -49.5 -74.5t-26.5 -88.5q-2 -47 9 -91.5t32 -82.5q43 -72 116.5 -107t149.5 -47q78 -10 160 -9t162 11q37 23 76.5 39t82.5 25q51 18 99.5 21t95.5 26q16 10 22 -5.5t-8 -25.5 q-47 -47 -106.5 -79t-118.5 -42q-61 -12 -118.5 -8t-117.5 0q-80 -6 -159.5 -1t-155.5 27q-37 10 -76 30t-67 48q-35 29 -59.5 68t-35.5 86q-14 47 -13 101.5zM3385 496v8q49 4 61.5 19.5t12.5 58.5v305q0 47 -12.5 59t-59.5 17v8h183q29 0 57.5 -4t51 -18.5t35.5 -37 t13 -59.5q0 -51 -23.5 -81t-70.5 -50q10 -16 31.5 -47t38.5 -58q29 -37 64.5 -73.5t64.5 -46.5v-7q-25 -2 -49.5 2.5t-46.5 20.5q-45 33 -127 168q-16 20 -39 25.5t-72 5.5v-129q0 -43 12.5 -58.5t63.5 -19.5v-8h-189zM3498 721h49q33 0 55.5 7t40.5 17q16 16 27.5 39 t11.5 56q-2 61 -37.5 89.5t-97.5 28.5q-16 -2 -26.5 -2h-14.5q-8 0 -8 -18v-217zM3637 1509q2 20 2 38t4 38h4q4 -6 11 -12h184q10 0 13 3t8 9h8v-35.5t4 -36.5l-8 -4q-10 35 -24.5 45.5t-37.5 10.5h-41v-211q0 -23 8.5 -32t40.5 -9v-6h-116v6q35 0 41 9t6 32v211h-27 q-39 0 -53 -11.5t-21 -44.5h-6zM3727 -242q104 86 277 111q74 10 168 9t212 -22.5t261 -68.5t313 -127q199 -94 391.5 -147.5t351 -78t271.5 -29.5t154 -3q-31 -2 -108 -4t-183.5 0t-232.5 10t-255 27.5t-249.5 50.5t-217.5 80q-147 74 -276 122t-237.5 75.5t-198.5 38 t-160 10.5q-168 -3 -281 -54zM3863 496v8q51 2 64 17.5t13 58.5v301q0 51 -12 66.5t-57 15.5v8h331q0 -16 3.5 -48t3.5 -65l-13 -4q-10 59 -32.5 80.5t-90.5 21.5h-71q-16 0 -19.5 -4t-3.5 -18v-180h92q43 0 60.5 11t25.5 50h11v-143h-11q-8 45 -26.5 54t-59.5 9h-92v-149 q0 -55 24.5 -65.5t69.5 -10.5q39 0 70 4t47 29q10 8 22.5 27.5t20.5 45.5h15q-6 -23 -14.5 -61.5t-14.5 -58.5h-356zM4297 496v8q51 0 63 16.5t12 61.5v305q0 43 -11 57t-58 19v8h182q82 0 117 -25.5t33 -77.5q-4 -49 -37 -74.5t-60 -31.5q53 -10 92 -40t39 -85 q0 -80 -73 -115q-59 -33 -148 -26h-151zM4411 578q0 -39 14.5 -53.5t57.5 -14.5q59 0 96 26.5t41 90.5q-4 63 -44 93t-109 30h-56v-172zM4411 764h58q63 0 92 26.5t29 69.5q2 14 -2.5 31.5t-17.5 32t-38.5 24.5t-68.5 10q-16 0 -26.5 -1t-14.5 -1q-10 0 -11 -18v-174z M4538 1307v6q29 0 36 8t7 35v172q0 23 -7 32t-34 9v4h105q86 0 82 -57q-4 -29 -21.5 -42.5t-31.5 -15.5q29 -8 51 -23.5t22 -45.5q0 -45 -41 -68q-31 -14 -84 -14h-84zM4602 1354q0 -23 8 -31t33 -8q33 0 54.5 15.5t21.5 49.5q0 37 -24 52.5t-60 15.5h-33v-94zM4602 1458h33 q70 0 69 55q0 16 -13 34t-60 22q-8 0 -14.5 -2t-8.5 -2q-6 0 -6 -9v-98zM4712 496v8q37 6 54.5 21.5t36.5 66.5l167 391l9 2l51 -141q27 -72 51.5 -141.5t48.5 -122.5q14 -41 28.5 -55.5t51.5 -20.5v-8h-174v8q35 6 48 12t11 16q0 18 -15 59.5t-34 94.5h-178 q-4 -8 -11 -27.5t-15.5 -41t-13.5 -42t-5 -32.5q0 -18 14.5 -25.5t49.5 -13.5v-8h-175zM4876 707h160l-72 206h-2q-47 -100 -86 -206zM4889 1038q0 12 8 21.5t20 9.5q14 0 23.5 -9t9.5 -22q0 -31 -33 -30q-28 -1 -28 30zM5014 1038q0 12 8 21.5t20 9.5q14 0 23.5 -9t9.5 -22 q0 -31 -33 -30q-28 -1 -28 30zM5030 1571v2h94v-2q-33 -10 -33 -15q4 -4 4 -7t2 -7q16 -25 32 -51.5t32 -52.5q4 10 14.5 25.5t20.5 37.5q14 20 18 32.5t8 18.5q0 10 -34 19v2h96v-2q-20 -4 -31.5 -14.5t-23.5 -28.5q-10 -16 -23.5 -38t-30.5 -50q-10 -12 -10 -21v-65 q0 -25 7 -33t42 -8v-6h-117v6q31 0 39.5 8t8.5 33v63q0 2 -1 7.5t-12 19.5q-10 16 -22.5 38.5t-32.5 51.5q-12 18 -20.5 26.5t-26.5 10.5zM5259 727q0 117 84 186.5t217 69.5q55 0 92 -7t54 -11q4 -29 6 -57.5t8 -61.5l-14 -2q-16 68 -56.5 96.5t-117.5 28.5 q-113 -4 -166 -67.5t-53 -156.5q2 -115 61 -179t164 -68q78 4 119 42t67 97l14 -6q-10 -33 -20 -70t-20 -59q-20 -4 -63.5 -11.5t-90.5 -7.5q-76 2 -130 22.5t-89 54.5t-50.5 77t-15.5 90zM5782 965v8h188v-8q-51 -2 -63.5 -19.5t-12.5 -64.5v-136q10 2 26.5 9.5t26.5 15.5 q23 20 48.5 44t50.5 52q55 57 57 78q0 8 -51 21v8h184v-8q-37 -6 -63.5 -18.5t-55.5 -39.5q-20 -16 -65 -59t-90 -88q23 -27 49.5 -55.5t54.5 -59.5l84 -84q35 -29 53.5 -41t46.5 -16v-8h-94l-107 107t-102 112q-25 20 -39 20q-2 -2 -14 -2v-145q0 -47 12.5 -63.5 t65.5 -20.5v-8h-184v8q43 4 56 20.5t13 63.5v293q0 47 -12 64.5t-63 19.5zM6126 -598h26h-26z" />
<glyph unicode="&#x2026;" horiz-adv-x="983" d="M-16 207q29 12 62.5 49t64.5 78q36 47 73 102q8 -55 21 -104q10 -41 27.5 -82t41.5 -60q-35 -10 -70.5 -49t-64.5 -84q-35 -53 -67 -114q-6 55 -17 106q-10 43 -26.5 88t-44.5 70zM311 207q29 12 63 49t64 78q37 47 74 102q8 -55 20 -104q10 -41 28 -82t42 -60 q-35 -10 -70.5 -49t-64.5 -84q-35 -53 -68 -114q-6 55 -16 106q-10 43 -26.5 88t-45.5 70zM639 207q29 12 62.5 49t64.5 78q37 47 74 102q8 -55 20 -104q10 -41 27.5 -82t42.5 -60q-35 -10 -71 -49t-64 -84q-35 -53 -68 -114q-6 55 -16 106q-10 43 -26.5 88t-45.5 70z" />
<glyph unicode="&#x202f;" horiz-adv-x="453" />
<glyph unicode="&#x2039;" horiz-adv-x="628" d="M-8 469q137 41 266 96.5t234.5 117.5t180.5 125.5t105 119.5q4 -10 7 -21.5t6 -21.5q2 -12 4 -23q-106 -86 -207 -160q-43 -31 -89 -62.5t-92.5 -59t-88.5 -48t-76 -30.5q39 -10 94 -47t116.5 -108t123 -179.5t112.5 -261.5q0 -16 -9 -20.5t-20.5 -3.5t-20.5 2t-9 -3 t-21.5 35t-61.5 99.5t-97.5 134t-128 140t-153.5 116t-175 63.5z" />
<glyph unicode="&#x203a;" horiz-adv-x="628" d="M-8 -72q106 86 207 160q43 31 89 62.5t92 59.5t88 48.5t77 30.5q-39 10 -94.5 47t-117 107.5t-122.5 179t-113 262.5q0 16 9.5 20t20.5 3t20.5 -2t9.5 3q0 2 21.5 -35.5t61.5 -98t97 -134.5t128 -140.5t153.5 -115.5t175.5 -63q-139 -41 -267.5 -96.5t-234 -118 t-180 -126t-105.5 -118.5q-8 18 -12 41z" />
<glyph unicode="&#x205f;" horiz-adv-x="566" />
<glyph unicode="&#x20ac;" horiz-adv-x="954" d="M-207 381q33 90 94 143q27 23 62 41.5t81 24.5t103 -2t127 -39q139 -59 234.5 -72.5t156.5 -3.5q70 10 117 45q-70 -80 -160 -127q-39 -20 -85 -34.5t-100 -16.5t-115.5 10t-129.5 45q-88 43 -148.5 60.5t-100.5 17.5t-63.5 -12t-37.5 -27.5t-21.5 -31t-13.5 -21.5z M-125 639q33 90 94 143q27 23 62 41.5t81 24.5t103 -2t127 -39q139 -59 234.5 -72.5t156.5 -3.5q70 10 117 45q-70 -80 -160 -127q-39 -20 -85 -34.5t-100 -16.5t-115.5 10.5t-129.5 44.5q-88 43 -148.5 60.5t-100.5 17.5t-63.5 -12t-37.5 -27.5t-21.5 -31t-13.5 -21.5z M-23 282.5q0 104.5 20.5 229.5t70.5 270q47 143 110.5 255t136 197t148.5 143.5t147 99.5q171 93 353 116q70 -70 116 -161q41 -78 61.5 -188.5t-12.5 -250.5q-16 -70 -38.5 -107.5t-48 -53t-53 -12.5t-52.5 18q-59 33 -125 120q53 -61 100 -81q20 -8 41 -8.5t40.5 13t37 45 t29.5 85.5q18 92 10 166.5t-25 130.5q-20 63 -53 114q-154 -49 -291 -137q-59 -37 -119.5 -87t-115.5 -114.5t-101.5 -143.5t-76.5 -175q-37 -121 -55.5 -227.5t-21.5 -198.5t6 -170t24 -139q35 -145 102 -252q57 4 127 39q59 29 142 92t184 180q-33 -76 -77 -134 t-93.5 -102t-100.5 -75t-100 -51q-115 -49 -240 -60q-100 109 -153 269q-23 68 -38.5 154.5t-15.5 191z" />
<glyph unicode="&#x2122;" horiz-adv-x="856" d="M-68 1516l129 71q41 8 84 10q37 2 83 -2t94 -20q45 -16 104 -43t110.5 -39t82 -1.5t18.5 67.5q25 -53 6.5 -80t-65 -31t-114 10.5t-138.5 40.5q-18 -35 -50 -102.5t-62 -144t-48.5 -150.5t-10 -121t52.5 -54t140 48q-90 -59 -146.5 -70.5t-83 16t-27.5 87t19.5 140.5 t58.5 177t91 199q-63 20 -121.5 21t-105.5 -5q-53 -8 -101 -24zM4 993q51 -82 98.5 -99t90.5 8.5t80.5 86t70.5 135.5q76 176 139 455v-2q0 2 2 4l60 -41q-25 -125 -37 -223q-6 -41 -9 -81t-2 -70.5t6 -50t17 -19.5q16 0 41 32.5t54.5 82t59.5 108.5t56 113q12 41 27.5 81.5 t36.5 79.5l22 -12h2v-2l41 -23q-61 -127 -96 -243q-14 -49 -24.5 -103.5t-11.5 -105.5t10.5 -97t39.5 -81q-10 8 -29.5 30.5t-37.5 44.5q-23 27 -47 60q0 33 6 72q6 70 28 178q-23 -47 -47 -90t-47.5 -76t-45 -53.5t-40.5 -20.5q-35 0 -55.5 15.5t-29.5 44t-8 67.5t7 86 q-20 -68 -47 -138.5t-58.5 -129t-68.5 -99t-77 -51t-85 18t-92 108.5zM29 1518q51 14 93 19t74.5 4t55 -5t35.5 -6q12 -2 12 -4t-4 -5t-10 -6.5t-6 -5.5q0 -4 -19.5 2.5t-53.5 11.5t-80 6t-97 -11zM59 864q31 -29 66 -19.5t64.5 34t50 50t20.5 29.5q2 2 8 7.5t11.5 6.5 t6.5 -5t-10 -27q-10 -18 -36.5 -46t-58 -45.5t-65.5 -18.5t-57 34zM80 962q-2 42 6 82q12 82 36.5 161t65.5 153q6 6 7 0q8 0 0 -8q-41 -74 -66 -155t-35 -165q-6 -47 -4 -84q2 -23 4 -43t6 -43q6 -41 25 -78q10 -20 25 -34q14 -12 34 -13q10 4 17.5 9.5t17.5 9.5 q10 6 21.5 11t21.5 15q4 4 7 2t1 -6q-8 -14 -18 -26.5t-27 -20.5q-35 -14 -65 2q-18 8 -33 29q-12 18 -18 37q-14 37 -21 82q-6 41 -8 83zM399 1542q2 -2 33 -15.5t67 -21.5t61.5 -3t17.5 40q20 -33 12 -47t-34 -17t-62.5 2t-73.5 9q-12 14 -18.5 34.5t-2.5 18.5zM475 1124 q4 55 14 119q10 53 25.5 125t44.5 152q-23 -80 -35 -154t-16 -131t-4 -75l-2 -52q-2 0 -15 8zM680 1104q0 6 4 6q2 0 6 -4q8 -29 14.5 -44t22.5 -44q29 -59 64 -105q39 -53 81 -92q23 -18 50.5 -32.5t56.5 -16.5q12 4 29 8q8 4 16 4t18 4q2 2 5.5 0t-0.5 -6 q-6 -10 -16.5 -17t-22.5 -9t-24.5 2t-22.5 6q-31 8 -56.5 24.5t-48.5 36.5q-43 41 -78 90q-16 25 -31.5 50.5t-31.5 52.5q-14 27 -19.5 42t-15.5 44zM717 1167q-4 61 6 123q14 31 22 56q8 20 14.5 37.5t8.5 15.5t-7 -52.5t-14.5 -121t4 -147.5t48.5 -134q-43 51 -60.5 110.5 t-21.5 112.5z" />
<glyph unicode="&#x25fc;" horiz-adv-x="1054" d="M0 0v1055h1055v-1055h-1055z" />
<glyph unicode="&#xfb01;" horiz-adv-x="819" d="M-84 -307q49 289 113 581q27 125 58.5 262.5t67 276.5t75.5 276.5t83 262.5q51 152 105.5 237.5t107 123.5t101.5 36t92 -29q102 -61 199 -239q-74 113 -152 143q-33 12 -70 8t-75.5 -37.5t-77.5 -101.5t-76 -182q31 41 63.5 65.5t64.5 19.5t61.5 -44t54.5 -125 q-25 49 -63 58t-80 -13.5t-86 -74.5t-83 -128q-74 -291 -126 -518t-85.5 -402.5t-54 -302.5t-29.5 -215q-23 -207 0 -278zM268 721q66 23 122 69t99 91q51 53 95 110l217 -123q-88 -186 -131 -362t-60 -316q-20 -164 -14 -309l-205 209q10 117 29 242q16 106 41.5 236 t66.5 253q-20 -14 -42.5 -28.5t-52.5 -27.5t-69.5 -24.5t-95.5 -19.5zM625 1331q29 12 62.5 49t64.5 78q36 48 73 103q8 -55 21 -105q10 -41 27.5 -82t41.5 -59q-35 -10 -70.5 -49t-64.5 -84q-35 -53 -67 -115q-6 55 -17 107q-10 43 -26.5 88t-44.5 69z" />
<glyph unicode="&#xfb02;" horiz-adv-x="702" d="M-84 -307q49 289 113 581q27 125 58.5 262.5t67 276.5t75.5 276.5t83 262.5q51 152 105.5 237.5t107 123.5t101.5 36t92 -29q102 -61 199 -239q-74 113 -152 143q-33 12 -70 8t-75.5 -37.5t-77.5 -101.5t-76 -182q31 41 63.5 65.5t64.5 19.5t61.5 -44t54.5 -125 q-25 49 -63 58t-80 -13.5t-86 -74.5t-83 -128q-74 -291 -126 -518t-85.5 -402.5t-54 -302.5t-29.5 -215q-23 -207 0 -278zM379 178q20 152 61 336q35 158 93.5 369t148.5 458q45 123 92 200t94 119t92.5 54t86.5 6q96 -14 186 -114q-66 51 -133 39q-29 -6 -61.5 -26 t-67.5 -59.5t-71 -105t-69 -164.5q-102 -299 -164.5 -514t-94 -364.5t-41 -245.5t-4.5 -157.5t17.5 -99.5t22.5 -71z" />
</font>
</defs>
</svg>
