<?xml version="1.0" standalone="no"?>
<!DOCTYPE svg PUBLIC "-//W3C//DTD SVG 1.1//EN" "http://www.w3.org/Graphics/SVG/1.1/DTD/svg11.dtd" >
<svg>
<metadata>
Created by FontForge 20120731 at Thu Oct 17 14:33:03 2019
 By www-data
Copyright (c) 2011 by Mans Greba:ck. All rights reserved.
</metadata>
<defs>
<font id="FeathergraphyDecoration" horiz-adv-x="688" >
  <font-face 
    font-family="Feathergraphy Decoration"
    font-weight="400"
    font-stretch="normal"
    units-per-em="2048"
    panose-1="2 0 0 0 0 0 0 0 0 0"
    ascent="1536"
    descent="-512"
    x-height="1028"
    cap-height="1554"
    bbox="-2285 -1663 7148 2285.94"
    underline-thickness="102"
    underline-position="-102"
    unicode-range="U+000D-FB02"
  />
<missing-glyph horiz-adv-x="748" 
d="M68 0v1365h544v-1365h-544zM136 68h408v1229h-408v-1229z" />
    <glyph glyph-name=".notdef" horiz-adv-x="748" 
d="M68 0v1365h544v-1365h-544zM136 68h408v1229h-408v-1229z" />
    <glyph glyph-name="glyph1" horiz-adv-x="0" 
 />
    <glyph glyph-name="uni000D" unicode="&#xd;" horiz-adv-x="1024" 
 />
    <glyph glyph-name="space" unicode=" " horiz-adv-x="1024" 
 />
    <glyph glyph-name="exclam" unicode="!" horiz-adv-x="485" 
d="M-123 1489q29 -68 70 -89.5t90 -10t101 47.5t102 85q117 113 247 301l144 -94q-137 -287 -228 -555q-39 -115 -70.5 -237t-47 -237.5t-9 -221t40.5 -185.5q-41 78 -74.5 126t-56.5 77q-27 33 -49 51q10 143 35 305q23 139 65 315t113 363q-61 -51 -134 -100.5t-141.5 -69
t-122.5 6.5t-75 122zM-8 55q29 12 62.5 49t64.5 78q37 48 74 103q8 -55 20 -105q10 -41 27.5 -82t42.5 -59q-35 -10 -71 -49t-65 -84q-35 -53 -67 -115q-6 55 -17 107q-10 43 -26.5 88t-44.5 69zM35 1321q76 12 130 58t91 97.5t54.5 92.5t19.5 43t8 -13.5t14 -35.5
q8 -23 19 -54q-33 -59 -82 -104q-41 -39 -104.5 -66.5t-149.5 -17.5zM211 549q-4 8 10 8q6 4 10 -4q6 -16 29 -73.5t53.5 -125t64.5 -131t58 -92.5q16 -23 34.5 -40t41.5 -28q27 6 39 13q8 4 21.5 8t21.5 18q4 4 11 1t7 -9q-2 -10 -3 -21.5t-7 -21.5q-14 -25 -45 -31
q-14 -2 -25.5 3.5t-21.5 11.5t-17.5 13t-15.5 13q-31 25 -71.5 85.5t-78.5 132t-70 145.5t-46 125z" />
    <glyph glyph-name="quotedbl" unicode="&#x22;" horiz-adv-x="593" 
d="M92 827q33 90 47 174q12 72 10 151t-36 134q20 10 48.5 44t55.5 69q31 41 62 92q0 -55 4 -102q4 -41 10 -81t22 -59q-16 -68 -52 -142.5t-75 -135.5q-45 -74 -96 -144zM319 827q33 90 48 174q12 72 10 151t-37 134q20 10 49 44t55 69q31 41 62 92q0 -55 4 -102
q4 -41 10 -81t23 -59q-16 -68 -52 -142.5t-75 -135.5q-45 -74 -97 -144z" />
    <glyph glyph-name="numbersign" unicode="#" horiz-adv-x="12" 
d="M-1215.5 -742q3.5 44 16.5 96t42 104.5t78 96.5t124.5 69.5t182 27.5t250.5 -33q35 -16 78 -24.5t92 -24.5q92 -25 215 -53.5t253 -47t255 -21.5t217 26q-43 -25 -115 -39q-61 -12 -162.5 -15.5t-251.5 19.5q186 -49 332 -49t249 21.5t163.5 52t77.5 42.5
q-16 -12 -69.5 -39.5t-136.5 -56t-195.5 -52.5t-250 -29t-297 15.5t-338.5 82.5q-160 55 -279.5 72.5t-205.5 9t-143.5 -38t-91.5 -68.5q-82 -92 -84 -244q-2 0 -5.5 28t0 72z" />
    <glyph glyph-name="dollar" unicode="$" horiz-adv-x="948" 
d="M-481 14q-2 12 9 15.5t15 -6.5q18 -39 37 -75t31 -75q12 -37 26.5 -74t45.5 -65q41 -37 93 -55.5t107 -22.5q55 -2 109.5 8t107.5 31q106 37 199.5 100.5t173.5 143.5q160 158 276.5 353t170.5 415q4 16 16 12q12 -6 8 -21q-57 -233 -181 -437t-298 -365
q-86 -82 -187.5 -145.5t-218.5 -96.5q-57 -16 -118.5 -22.5t-120.5 6.5q-59 12 -112.5 44.5t-90.5 81.5q-27 16 -46.5 43t-31.5 58q-14 37 -14 74.5t-6 74.5zM-201 289q53 -86 115.5 -164t134.5 -128t153 -62.5t171 34.5t189.5 165t207.5 327q33 61 22.5 104t-47 72t-94 45
t-121 24.5t-125 10.5t-106.5 2q-35 0 -88 6t-106.5 22.5t-95.5 45t-54 71.5t16.5 104.5t118.5 143.5t250 187.5t412 236.5q33 -115 74.5 -171t80.5 -79q45 -27 92 -22q-51 -53 -97 -79t-88 -30t-79 8.5t-67 34.5q-72 52 -129 152q-190 -100 -287 -183q-41 -35 -64.5 -70.5
t-15.5 -65.5t57.5 -53.5t153.5 -33.5q209 -23 344 -48.5t193.5 -80.5t38 -153.5t-120.5 -264.5q-131 -219 -268.5 -355t-270.5 -164t-260 67.5t-240 343.5zM-135 -211q-4 12 4 16.5t12 -2.5q16 -23 34.5 -32t37.5 -19q18 -10 39.5 -19t44.5 -1q63 25 111.5 93.5t78.5 149.5
q16 41 27.5 84t24.5 88l49 177l4 20t6 21v6q49 184 98 365.5t101 365.5l49 182q12 45 26.5 91t32.5 87q37 88 94 154q29 31 64 51.5t69 24.5q37 27 76 8q25 -12 38.5 -41t21.5 -60q4 -10 -4.5 -15t-12.5 1q-16 23 -34.5 32t-36.5 21q-18 10 -40 19.5t-44 -0.5
q-63 -25 -111.5 -93.5t-79.5 -150.5q-16 -41 -27.5 -84t-23.5 -88l-47 -176q-4 -10 -6 -19.5t-6 -19.5v-8q-49 -184 -98.5 -365.5t-100.5 -363.5l-49 -183q-12 -47 -26.5 -92t-33.5 -88q-18 -43 -41.5 -82t-52.5 -71q-29 -31 -63.5 -51.5t-69.5 -24.5q-37 -27 -76 -8
q-23 14 -37 41.5t-22 58.5zM-66.5 983q3.5 53 50.5 123t151.5 156t294.5 186q-133 -90 -219 -162t-135 -129t-67.5 -99t-18.5 -73q2 -72 94 -106q-33 -8 -55 -17q-20 -8 -33.5 -16.5t-5.5 -14.5q6 -4 -12.5 11.5t-33 51.5t-11 89z" />
    <glyph glyph-name="percent" unicode="%" horiz-adv-x="10" 
d="M-1167.5 -656.5q10.5 54.5 65.5 117.5q53 63 126 85t159 11.5t179 -43t188.5 -76.5t187.5 -93.5t174 -87.5q123 -59 239.5 -106.5t222 -69t193.5 -8t154 74.5q45 45 58.5 88t5 84t-35 78t-59.5 67q-82 75 -213 138q209 -70 340 -158q55 -37 100.5 -82t64.5 -97t6 -109.5
t-73 -119.5q-72 -74 -155.5 -99t-174.5 -20t-186.5 35.5t-188.5 72.5t-182 88t-165 83q-76 35 -164 81t-179 90t-180.5 80t-168 50.5t-142 2t-102.5 -65.5q-59 -80 -49 -142.5t66.5 -102.5t149.5 -55.5t199 1.5q-68 -18 -137 -18.5t-131.5 14t-110 44t-70 71.5t-12 96.5z
M-783 -721q1 10 5 16q0 16 10 27.5t23 20.5q10 10 25 18t32 12q33 10 64.5 12.5t64.5 -1.5q68 -6 129 -20.5t121 -37.5q59 -20 112.5 -44.5t108.5 -51.5q57 -27 102 -55q12 -8 23.5 -14.5t23.5 -16.5t22.5 -19.5t16.5 -25.5q2 -4 -4 -8t-10 -2q-10 6 -14 6q0 6 -9.5 15
t-19.5 18q-10 6 -21.5 14t-21.5 16q-23 12 -48.5 25.5t-49.5 25.5q-51 27 -102.5 49.5t-104.5 43.5q-27 12 -53.5 19t-57.5 15q-57 16 -116 23q-61 12 -119 0q-27 -4 -50.5 -15.5t-37.5 -27.5q-16 -16 4 -25q4 -2 24 -6q14 -6 29 -18.5t31 -24.5q4 -4 0 -12t-11 -8
q-18 4 -41.5 4t-46.5 10q-16 6 -30 23q-4 10 -3 20zM-73 -761q5 3 57 -23q63 -41 150 -71t174 -43t163 -7t116 36.5t34 90t-82 151.5q94 -74 123 -141q12 -29 11 -60.5t-23.5 -63.5t-74 -61.5t-137.5 -54.5q-66 10 -139.5 38t-141 62t-122.5 67.5t-84 55t-24 24.5z" />
    <glyph glyph-name="ampersand" unicode="&#x26;" horiz-adv-x="1196" 
d="M-39 119q-10 86 6.5 152.5t39 113.5t44 71.5t21.5 26.5t4 -7t8 -21q6 -14 12 -35q-72 -66 -94 -164q-10 -43 -9 -98.5t17.5 -123t53 -149.5t102.5 -178q-100 119 -147.5 222.5t-57.5 189.5zM-30 204q-5 54 7 107q25 104 79.5 174t107.5 113q63 49 135 78q-45 10 -74 49
q-25 35 -37 101.5t13 187.5q12 59 49 115.5t90 107.5t117.5 96t130.5 84q154 90 338 166q51 -49 88 -115q31 -55 48 -133t-3 -176q-23 -98 -76 -123.5t-111 -17.5q-68 8 -143 53q82 -33 137.5 -32t87 26t43 63.5t4 81.5t-31 83t-58.5 65q-152 -55 -248 -115.5t-151 -121
t-75.5 -118t-18.5 -108.5q4 -121 108 -238q-113 -43 -180 -99t-102 -118.5t-41 -128t4 -127.5q23 -145 129 -303q33 -8 86 17q45 23 116.5 81t178.5 187q-78 -145 -157 -235.5t-142 -141.5q-74 -59 -142 -86q-102 96 -176 199q-31 43 -59.5 93t-47 102.5t-23.5 106.5z
M174 1000q10 85 72.5 180.5t191.5 194t357 190.5q-160 -74 -266.5 -146.5t-172 -143.5t-96.5 -135.5t-39 -121.5q-18 -133 66 -256q-14 -6 -23 -14q-22 -15 -26 -25q-2 -4 -25 32t-36 98t-3 147zM365 621q-4 14 12 14q102 18 201.5 25.5t201.5 13.5q51 2 101.5 3t101.5 -1
q25 0 50.5 -1t51.5 -7q25 -4 49.5 -9.5t49.5 -9.5q49 -12 98 -29.5t94 -44.5q23 -16 42.5 -33.5t31.5 -41.5q14 -27 13 -56.5t-17 -54.5q-31 -47 -79 -70.5t-99 -31.5q-53 -10 -105.5 -2t-99.5 34q-59 4 -98 50q-25 29 -34 60.5t-22 62.5q-4 10 5.5 15t15.5 -3
q25 -27 50.5 -50.5t45.5 -47.5q20 -25 43 -49.5t57 -34.5q94 -29 185 2q47 16 82 43q16 14 28.5 32.5t16.5 40.5q4 43 -33 76q-16 16 -34.5 29.5t-41.5 23.5q-41 23 -87 36t-93 24q-23 6 -47.5 10t-46.5 8q-25 2 -48.5 3t-48.5 1q-49 0 -97 -1t-97 -3q-98 -6 -194.5 -13
t-190.5 -24q-10 -4 -14 11zM410 602l61 80q131 -6 180 -6h45q6 16 16.5 45t21.5 58.5t20.5 54t13.5 32.5l225 99q-12 -20 -30.5 -64.5t-36 -90.5t-30.5 -84t-15 -44l184 -16q-14 -4 -23 -9q-20 -8 -16 -6q-29 0 -56.5 -13t-54 -31.5t-48 -40l-38.5 -38.5q-6 -18 -17 -64
t-25.5 -109.5t-30 -141.5t-27.5 -160q-2 -23 -12 -69q0 -6 -1 -12.5t-1 -10.5q-10 -86 16.5 -194.5t73.5 -211t107.5 -184.5t121 -115.5t113.5 -6t84 146.5q-33 -121 -80 -171t-103.5 -43t-122 65.5t-136 152.5t-145.5 217t-148 262q25 27 49 103q20 63 48 188t56 334
q10 66 -26.5 90t-83.5 27q-55 2 -129 -19z" />
    <glyph glyph-name="quotesingle" unicode="'" horiz-adv-x="161" 
d="M92 827q33 90 47 174q12 72 10 151t-36 134q20 10 48.5 44t55.5 69q31 41 62 92q0 -55 4 -102q4 -41 10 -81t22 -59q-16 -68 -52 -142.5t-75 -135.5q-45 -74 -96 -144z" />
    <glyph glyph-name="parenleft" unicode="(" horiz-adv-x="2170" 
d="M89 643q9 68 58 150q49 80 116 106.5t144.5 14t163.5 -54.5t172 -98t170 -116.5t158 -109.5q111 -74 218.5 -133.5t203.5 -86t176 -11.5t139 95q41 55 53.5 109.5t4.5 106t-32 97.5t-54 85q-74 92 -193 172q188 -88 309 -199q51 -47 92.5 -103.5t58.5 -121t6 -136
t-66 -149.5q-66 -92 -143 -125t-159.5 -25.5t-170 45.5t-172.5 91t-165.5 111.5t-150.5 103.5q-70 43 -149.5 101.5t-162.5 113.5t-164 100t-152.5 63.5t-130 2t-93.5 -83.5q-55 -100 -46 -178t61.5 -128.5t137.5 -68.5t181 2q-61 -23 -125 -24t-120 17.5t-100 54.5
t-63.5 89t-10.5 121zM442 539q-10 25 2 45q0 18 9.5 33.5t19.5 25.5q20 27 51 39q29 12 59.5 14t59.5 -2q61 -8 117.5 -25.5t109.5 -45.5q53 -27 102.5 -56.5t98.5 -64.5q49 -31 94 -70q10 -10 21.5 -19.5t21.5 -19.5t20.5 -22.5t14.5 -34.5q2 -6 -3 -10t-9 0l-8 4t-6 2
q0 8 -7.5 19t-17.5 22q-10 10 -19.5 18t-19.5 19q-45 37 -90 65q-47 33 -94 61.5t-95 55.5q-25 14 -49 23.5t-51 19.5t-54.5 18.5t-53.5 12.5q-27 4 -53.5 5t-53.5 -5q-51 -10 -82 -58q-10 -18 4 -28q4 -4 10.5 -5.5t12.5 -5.5q12 -6 25.5 -21.5t29.5 -31.5q4 -4 0 -15.5
t-10 -8.5q-16 6 -38 4t-42 12q-18 10 -27 31zM1086.5 514q5.5 4 52.5 -31q57 -51 137 -89t158.5 -54t147.5 -8t105.5 47t30.5 112.5t-76 190.5q86 -92 113 -178q10 -37 9 -77t-22.5 -80t-66.5 -77t-125 -67q-59 12 -126.5 47t-129 78t-111.5 86t-76 69.5t-20.5 30.5z" />
    <glyph glyph-name="parenright" unicode=")" horiz-adv-x="2138" 
d="M87.5 394.5q-11.5 70.5 6 135t57 120t91.5 102.5q119 108 307 196q-121 -78 -193 -170q-31 -39 -54 -85t-31.5 -96t5 -104.5t54.5 -109.5q57 -78 138 -94.5t176 11.5t201.5 87t217.5 131q74 49 157 109.5t169 115t171 97.5t161.5 54t143 -14.5t115.5 -105.5
q49 -82 58.5 -149.5t-11 -119.5t-63.5 -88t-99.5 -54.5t-120 -17.5t-122.5 24q96 -18 180 0t135.5 67t60.5 127t-44 176q-35 66 -93.5 82.5t-129 -1t-151.5 -62.5t-163 -99.5t-161.5 -113t-147.5 -101.5q-70 -45 -149.5 -102t-164.5 -109.5t-171 -91.5t-169 -46t-160 26
t-140 125q-55 78 -66.5 148.5zM372 411q-1 40 11 76q25 87 113 177q-70 -115 -76 -189t30.5 -112.5t104.5 -46t146.5 9t157.5 53.5t136 88q47 35 51.5 31t-21.5 -31t-75 -69t-110.5 -85t-128 -77.5t-125.5 -47.5q-78 31 -124 68t-67.5 76t-22.5 79zM891 322q4 23 14 34
t21 21q10 10 21 19.5t22 19.5q45 39 94 69q47 35 96 65t103 56q53 27 109 44.5t116 25.5q29 4 59.5 2t59.5 -14q31 -12 51 -37q10 -10 19.5 -25.5t9.5 -34.5q12 -20 2 -45q-8 -20 -27 -30q-20 -14 -42 -12.5t-38 -4.5q-6 -2 -10 9.5t0 15.5q16 16 29.5 31.5t25.5 21.5
q6 4 12.5 5t10.5 5q14 10 4 29q-29 45 -82 55q-27 6 -53.5 5t-53.5 -5q-51 -8 -106 -29q-27 -10 -51.5 -19t-49.5 -24q-47 -27 -94 -55t-92 -61q-45 -29 -90 -66q-10 -10 -19.5 -18t-19.5 -19q-10 -10 -17 -20t-7 -19q-2 0 -6.5 -2t-8.5 -4q-4 -4 -9 0t-3 11z" />
    <glyph glyph-name="asterisk" unicode="*" horiz-adv-x="10" 
d="M-1083 1077q14 12 66 43t136 66t200 68.5t259 52.5q-113 2 -223.5 -12.5t-202.5 -55.5q70 43 167 64.5t205.5 27.5t219.5 2t206 -14t166.5 -20.5t102.5 -16.5q137 -12 236.5 -10t173.5 12q74 31 141 84q37 27 72 60.5t57 80.5q10 23 17.5 49.5t3.5 55.5t-13.5 53.5
t-25.5 42.5q-33 39 -74 50.5t-82 8.5q-41 -4 -84 -15t-82 -28q-18 -16 -36.5 -30.5t-39.5 -24.5q-25 -16 -50 -24.5t-46 -26.5q-8 -8 -13 -1t1 15q20 33 45.5 59.5t58.5 39.5q31 14 61.5 18t61.5 14q41 14 83 21.5t83 3.5q23 -4 43 -9t41 -18q39 -25 66 -77q10 -27 16 -58
t0 -63q-4 -31 -15.5 -56.5t-27.5 -48.5q-29 -43 -64.5 -74.5t-72.5 -56.5l-47 -31q53 14 87.5 28.5t57.5 29.5q25 14 39 30q-43 -82 -156 -135q-47 -23 -114.5 -42t-157.5 -28.5t-206 -6t-261 23.5q-270 37 -467 26.5t-328 -40t-200.5 -63.5t-83.5 -44z" />
    <glyph glyph-name="plus" unicode="+" horiz-adv-x="14" 
d="M-928 1284q72 72 211 113q59 18 138 30.5t181.5 14.5t230.5 -9.5t284 -39.5q205 -41 392 -46.5t333 5.5q170 10 315 37q-203 -43 -399 -66q-84 -10 -175 -18.5t-181.5 -10.5t-175.5 3.5t-158 21.5q-137 29 -252 42t-210 16t-172 -3t-136 -16q-140 -25 -226 -74z" />
    <glyph glyph-name="comma" unicode="," horiz-adv-x="327" 
d="M-16 207q29 12 62.5 49t64.5 78q36 47 73 102q8 -55 21 -104q10 -41 27.5 -82t41.5 -60q-12 -72 -52 -151.5t-83 -149.5q-51 -82 -112 -159q29 94 36 184q6 76 -8 158t-71 135z" />
    <glyph glyph-name="hyphen" unicode="-" horiz-adv-x="782" 
d="M18 471l109 186q16 -18 54 -30.5t105.5 -14.5t169 6.5t249.5 26.5q-8 -29 -19.5 -52.5t-21.5 -41.5q-12 -23 -29 -41zM29 473l116 41q43 -12 107 -22q53 -10 131 -20.5t180 -18.5q-104 -10 -201.5 -8.5t-171.5 8.5q-85 8 -161 20z" />
    <glyph glyph-name="period" unicode="." horiz-adv-x="327" 
d="M-16 207q29 12 62.5 49t64.5 78q36 47 73 102q8 -55 21 -104q10 -41 27.5 -82t41.5 -60q-35 -10 -70.5 -49t-64.5 -84q-35 -53 -67 -114q-6 55 -17 106q-10 43 -26.5 88t-44.5 70z" />
    <glyph glyph-name="slash" unicode="/" horiz-adv-x="897" 
d="M-135 -211q-4 12 4 16.5t12 -2.5q16 -23 34.5 -32t37.5 -19q18 -10 39.5 -19t44.5 -1q63 25 111.5 93.5t78.5 149.5q16 41 27.5 84t24.5 88l49 177l4 20t6 21v6q49 184 98 365.5t101 365.5l49 182q12 45 26.5 91t32.5 87q37 88 94 154q29 31 64 51.5t69 24.5q37 27 76 8
q25 -12 38.5 -41t21.5 -60q4 -10 -4.5 -15t-12.5 1q-16 23 -34.5 32t-36.5 21q-18 10 -40 19.5t-44 -0.5q-63 -25 -111.5 -93.5t-79.5 -150.5q-16 -41 -27.5 -84t-23.5 -88l-47 -176q-4 -10 -6 -19.5t-6 -19.5v-8q-49 -184 -98.5 -365.5t-100.5 -363.5l-49 -183
q-12 -47 -26.5 -92t-33.5 -88q-18 -43 -41.5 -82t-52.5 -71q-29 -31 -63.5 -51.5t-69.5 -24.5q-37 -27 -76 -8q-23 14 -37 41.5t-22 58.5z" />
    <glyph glyph-name="zero" unicode="0" horiz-adv-x="927" 
d="M8.5 349q-26.5 126 3.5 286q20 111 59.5 192.5t89.5 140t106.5 96.5t111.5 60q129 53 283 47q72 -86 122 -184q43 -86 72 -195.5t6 -232.5q-23 -121 -62.5 -210t-90 -153.5t-106.5 -106.5t-111 -69q-131 -61 -283 -61q-76 76 -129 178q-45 86 -71.5 212zM188 415.5
q7 -116.5 37 -192.5q37 -88 101 -145q94 2 180 47q37 18 74.5 49t73.5 77t67.5 108.5t56.5 146.5q35 123 25 216t-36 157.5t-54.5 98.5t-32.5 38q-18 -4 -68.5 -16.5t-109 -42t-117.5 -84t-98 -140.5t-49.5 -211t30.5 -297q-57 147 -59 270t33 222l-6 -19
q-55 -166 -48 -282.5z" />
    <glyph glyph-name="one" unicode="1" horiz-adv-x="684" 
d="M-78 -57q41 -27 78 3.5t70.5 98.5t63.5 163t54 200q57 244 105 571q-27 -37 -70 -51q-37 -12 -96 -5t-147 64q18 -12 58 -25.5t93 -3t114.5 56.5t121.5 152l200 -102l-266 -1143q-6 -51 8 -110q12 -51 47 -118t109 -140zM258 0q55 231 121 430q27 84 59.5 170t67.5 162
t72.5 136t76.5 93q-47 -53 -92 -155.5t-86 -226.5t-75.5 -254t-59.5 -236.5t-39 -175t-14 -70.5q0 -4 -5 16.5t-12 44.5q-8 29 -14 66z" />
    <glyph glyph-name="two" unicode="2" horiz-adv-x="851" 
d="M-59 0q162 82 274.5 172t184 179t109.5 176t52 165q35 182 -31 361q0 -6 -53 -18.5t-121.5 -37t-132 -64.5t-84.5 -104q-20 -59 -16 -94t23.5 -52t50 -20.5t63.5 0t64.5 10.5t54.5 11q-98 -37 -170 -37q-31 0 -58.5 8.5t-47 30t-26.5 58t3 92.5q8 53 39 96t72.5 76.5
t93 58.5t104.5 43q123 41 273 61q39 -41 69 -94q27 -47 48.5 -116.5t21.5 -165.5q0 -115 -30 -216.5t-78 -187.5t-110.5 -157.5t-125.5 -129.5q-151 -135 -344 -227q162 -172 352 -242q82 -31 177 -42t202.5 10.5t224.5 84t240 181.5q-115 -141 -235 -216t-236.5 -100.5
t-227 -12t-209.5 49.5q-231 84 -444 287zM350 -80q160 129 240 259t110 237q37 125 29 239q18 63 35 113q12 41 22.5 74.5t8.5 31.5t4 -47t4 -119.5t-19.5 -171t-66.5 -202t-137 -213t-230 -201.5z" />
    <glyph glyph-name="three" unicode="3" horiz-adv-x="854" 
d="M-55 209q23 -127 51.5 -199.5t54.5 -107.5q31 -43 64 -54q170 119 268 234q41 49 69.5 102.5t31.5 106.5t-25.5 103t-102.5 93q18 2 53 9.5t72 28t64.5 56t31 97t-27.5 153t-113 220.5q-55 -12 -108 -37q-45 -23 -94.5 -58.5t-83.5 -89.5q-39 -59 -46.5 -103t-1.5 -73
q8 -35 29 -59q-39 20 -55 59q-14 33 -7 89.5t66 140.5q59 88 142 138t159 75q88 28 180 34q109 -154 158 -286q20 -57 29.5 -116.5t-1.5 -113t-49 -98.5t-110 -74q66 -43 81 -106.5t-9.5 -139t-82 -157.5t-135 -162t-169.5 -151.5t-187 -127.5q2 -2 -32.5 39t-74.5 117
t-71 182.5t-18 235.5zM147 -348q14 20 25 35q10 12 15 21t3 7t28 9.5t77 35t107.5 61.5t122 90t117.5 118.5t95 148.5q-23 -63 -58.5 -119.5t-81.5 -104.5t-97 -90t-101 -75q-117 -80 -252 -137zM422 1065q0 2 10 2t25 -2q16 -2 37 -6q47 -125 61 -230q6 -45 6 -90t-11 -84
t-36 -69.5t-68 -44.5q51 31 71 82t16.5 108t-20.5 115.5t-37.5 106.5t-37 79t-16.5 33z" />
    <glyph glyph-name="four" unicode="4" horiz-adv-x="878" 
d="M-125 -702q113 33 208 144.5t173 267t138.5 338.5t107.5 362l-512 -121q88 367 207 639q51 117 113.5 223t136 181t157.5 109t180 3q-59 8 -113.5 -32t-102.5 -113.5t-89 -170t-73 -198.5q-80 -240 -140 -551l246 67q35 141 61.5 267.5t42.5 222.5q20 113 33 209
l189 -152q-76 -444 -205 -805q-55 -154 -129 -304t-168 -273t-209 -208t-252 -105zM27 406q2 0 14 58t35.5 150.5t58.5 208t80 229t99.5 215t117.5 165.5q-82 -102 -125 -217t-62.5 -212.5t-23.5 -162t-6 -64.5t-17.5 -27.5t-37 -68.5t-45 -89t-44 -89t-33.5 -68.5
t-11 -27.5zM223 -621q96 109 152.5 214.5t85.5 191.5q35 98 45 188l162 324q-43 -190 -109 -363q-29 -74 -62.5 -151.5t-75.5 -151t-91 -138t-107 -114.5z" />
    <glyph glyph-name="five" unicode="5" horiz-adv-x="819" 
d="M-485 -537q178 6 348 70q72 27 147.5 69t149 103.5t140.5 145t120 194.5q57 121 70.5 204t-4 136t-59.5 81t-95 39t-112.5 8t-110.5 -11l-144 -33q39 170 92 313q23 59 49.5 119t57.5 110t64.5 84.5t70.5 47.5q2 0 26.5 -20.5t65.5 -46t98.5 -48t126 -26t147.5 20.5
t163 89q-78 -90 -155 -123t-141.5 -34t-112.5 16.5t-66 29.5q-59 -31 -97.5 -89t-63 -123.5t-37.5 -127t-22 -98.5q86 6 169 2t152 -22.5t119 -55t72.5 -95t12 -142.5t-61.5 -197q-55 -121 -136 -210t-174 -153.5t-193.5 -106.5t-196.5 -66q-227 -59 -479 -54zM-63 553
q43 188 103 300t115.5 171t92.5 78.5t35 21.5q-4 2 -11.5 -17.5t-17.5 -43.5q-10 -29 -23 -68q-41 2 -88 -43q-41 -39 -94 -130t-112 -269zM283 514q0 2 22.5 -1t50.5 -9l74 -17q55 -16 66 -81q4 -29 -1.5 -69t-27 -97.5t-61 -132t-105.5 -170.5q74 133 101.5 227
t25.5 158.5t-25.5 101.5t-50 56.5t-48 25.5t-21.5 8z" />
    <glyph glyph-name="six" unicode="6" horiz-adv-x="733" 
d="M-8 565q4 80 28 168q14 72 44 168t83.5 192.5t133 180.5t194.5 131q-117 -63 -191.5 -159.5t-119.5 -201.5q74 115 158 192t168.5 123t168.5 65.5t160 23.5q179 9 357 -59q-195 45 -371 -9q-76 -23 -155 -69.5t-153.5 -127.5t-140 -202t-112.5 -291q27 49 48 86t53 64.5
t83 47t139 34.5q25 -12 54.5 -69.5t46 -141.5t11.5 -186.5t-53 -205t-146.5 -197.5t-266.5 -163q-88 92 -143 211q-25 51 -44.5 112.5t-28.5 132t-5 150.5zM215 397q6 -53 31.5 -127.5t89.5 -163.5q27 18 54.5 36t53 48.5t52 82t55.5 139.5q20 63 27 123q-23 -86 -70 -178.5
t-137 -174.5q76 90 114.5 185.5t52 182.5t8.5 156.5t-14 108.5q-8 10 -13 19.5t-9 15.5q-6 8 -10 10q-47 -6 -97 -43q-41 -33 -91 -103.5t-93 -201.5q-12 -51 -4 -115z" />
    <glyph glyph-name="seven" unicode="7" horiz-adv-x="735" 
d="M-541 -670q156 31 288 133.5t239.5 246t191.5 312t146 334.5q-55 -29 -118 -49t-109 -13t-64.5 52t16.5 152q-2 -10 -7 -34t-3 -48.5t15.5 -44t47 -20.5t92 21.5t150.5 82.5q6 4 11 7t10 7q41 117 69.5 218t48.5 179q23 90 39 164q-162 -66 -289 -90q-55 -10 -107 -13
t-95 7t-72 35.5t-33 74.5q31 -61 115 -77q35 -6 86 -4t119.5 20t158.5 55.5t203 98.5q0 -2 25.5 -12.5t56.5 -22.5q37 -14 84 -33q-129 -492 -317 -874q-80 -164 -182.5 -321t-226.5 -277.5t-271.5 -194.5t-317.5 -72zM-217 -748q102 121 177 218.5t129 174t88 134t54 98.5
q47 98 37 141q57 74 105 132q39 49 70.5 88.5t29.5 37.5t-26.5 -78.5t-97.5 -212t-208 -322.5t-358 -411z" />
    <glyph glyph-name="eight" unicode="8" horiz-adv-x="864" 
d="M-5 271.5q-1 78.5 24.5 143t85 108.5t163.5 55q-76 47 -99.5 100t-8 107.5t61.5 107.5t111.5 98t141.5 78t150 49q2 0 29.5 -34.5t61.5 -88t63.5 -120t36.5 -129t-18.5 -115.5t-103.5 -80q70 -27 87.5 -92.5t-7 -150.5t-84 -181t-140.5 -184t-179.5 -159t-198.5 -103
q-121 240 -160 430q-16 82 -17 160.5zM215 336q0 -98 17.5 -189.5t39.5 -162.5q25 -84 60 -160q49 25 102 72q47 41 105.5 109t117.5 179q35 63 47.5 112.5t7.5 84.5t-24.5 58.5t-44.5 39.5q-59 35 -158 37q-16 4 -36 6q-16 2 -37 3t-43 -1q-31 -14 -57.5 -49t-38 -102.5
t1 -173t59.5 -258.5q-66 199 -82 322.5t-6 195.5q-16 -23 -23.5 -51.5t-7.5 -71.5zM363 763q-1 -48 28 -83q-8 18 -10 41.5t9 49.5t38 53.5t76 56.5q-53 -45 -68.5 -86t-8.5 -76t29.5 -63.5t45.5 -49.5q8 -4 20 -8q6 -2 10 -2q27 -12 58 -10q27 0 60.5 13t74.5 50
q39 37 32 91.5t-34 107.5q-31 61 -82 127q-27 -2 -59 -12q-29 -10 -67 -31t-81 -60q-70 -61 -71 -109zM483 528l4 -4z" />
    <glyph glyph-name="nine" unicode="9" horiz-adv-x="724" 
d="M-549 -508q217 2 412 94q82 39 169 101.5t167 156t149.5 221.5t116.5 297q-29 -49 -55.5 -84.5t-65.5 -63.5t-96.5 -47.5t-145.5 -33.5q-25 12 -54.5 69.5t-45.5 142.5t-11 187.5t53 205t146.5 196.5t266.5 164q86 -94 141 -213q25 -51 44.5 -112.5t28.5 -132.5t5 -149.5
t-27 -166.5q-12 -63 -43 -152.5t-87 -191t-145 -206t-218 -196.5q98 94 158.5 169t95.5 134q-76 -90 -157 -153.5t-162 -107.5t-159.5 -70.5t-150.5 -41.5q-168 -35 -330 -16zM84.5 419.5q7.5 -75.5 26.5 -126.5q23 -59 59 -98q47 6 96 43q41 33 90.5 102.5t94.5 202.5
q10 47 4 106q-4 49 -26.5 118t-76.5 151q-23 -18 -71 -69.5t-89.5 -132.5t-61 -192.5t19.5 -251.5q-35 96 -44.5 178t0.5 154q-29 -109 -21.5 -184.5z" />
    <glyph glyph-name="colon" unicode=":" horiz-adv-x="327" 
d="M-16 207q29 12 62.5 49t64.5 78q36 47 73 102q8 -55 21 -104q10 -41 27.5 -82t41.5 -60q-35 -10 -70.5 -49t-64.5 -84q-35 -53 -67 -114q-6 55 -17 106q-10 43 -26.5 88t-44.5 70zM129 864q29 12 62.5 49t64.5 78q37 48 74 103q8 -55 20 -105q10 -41 27.5 -82t42.5 -59
q-35 -10 -71 -49t-64 -84q-35 -53 -68 -115q-6 55 -16 107q-10 43 -26.5 88t-45.5 69z" />
    <glyph glyph-name="semicolon" unicode=";" horiz-adv-x="327" 
d="M-16 207q29 12 62.5 49t64.5 78q36 47 73 102q8 -55 21 -104q10 -41 27.5 -82t41.5 -60q-12 -72 -52 -151.5t-83 -149.5q-51 -82 -112 -159q29 94 36 184q6 76 -8 158t-71 135zM129 864q29 12 62.5 49t64.5 78q37 48 74 103q8 -55 20 -105q10 -41 27.5 -82t42.5 -59
q-35 -10 -71 -49t-64 -84q-35 -53 -68 -115q-6 55 -16 107q-10 43 -26.5 88t-45.5 69z" />
    <glyph glyph-name="less" unicode="&#x3c;" horiz-adv-x="628" 
d="M-8 469q137 41 266 96.5t234.5 117.5t180.5 125.5t105 119.5q4 -10 7 -21.5t6 -21.5q2 -12 4 -23q-106 -86 -207 -160q-43 -31 -89 -62.5t-92.5 -59t-88.5 -48t-76 -30.5q39 -10 94 -47t116.5 -108t123 -179.5t112.5 -261.5q0 -16 -9 -20.5t-20.5 -3.5t-20.5 2t-9 -3
t-21.5 35t-61.5 99.5t-97.5 134t-128 140t-153.5 116t-175 63.5z" />
    <glyph glyph-name="equal" unicode="=" horiz-adv-x="6" 
d="M-2283.5 -708q-4.5 24 4.5 46q4 23 19 41.5t32 34.5q33 29 72.5 50.5t80.5 37.5q12 4 23.5 8.5t28.5 8.5q-57 -4 -96.5 -13.5t-61.5 -17.5q-29 -10 -45 -20q53 57 174 88q51 12 122.5 21t167 8t216.5 -12t272 -38q305 -53 522 -59t359 10q164 18 272 57q-82 -33 -190 -59
q-92 -23 -225.5 -42.5t-301.5 -21.5q117 -10 234 -9t215 28q-76 -27 -181.5 -35t-222 -4t-234.5 16.5t-217 27.5t-173 28.5t-103 19.5q-141 20 -243.5 27.5t-180.5 5.5q-41 -10 -77.5 -23.5t-73.5 -29.5q-41 -16 -79 -39t-67 -56q-12 -16 -20 -35.5t-6 -41.5q4 -43 37 -76
q29 -29 72.5 -41t84.5 -12q47 -4 91.5 1t87.5 15q41 25 84 37q29 10 55 13t49 15q8 6 13 0t-3 -12q-45 -49 -114 -65q-35 -8 -67 -8.5t-67 -4.5q-41 -8 -86 -10t-86 6q-25 2 -46 9.5t-42 17.5q-20 10 -37.5 26.5t-27.5 36.5t-14.5 44zM-2032 -627q51 43 146 64q80 16 212 11
t335 -58q119 -31 230.5 -45.5t201.5 -17.5t153.5 0t85.5 5q-27 -2 -108.5 -10t-186 -11t-215 3t-196.5 31q-178 51 -301 62t-203 3q-95 -8 -154 -37zM-668 -668q6 0 9 2q2 0 4 2q-2 -2 -4 -2q-2 -2 -9 -2zM-121 -446q111 -41 281 -60q145 -16 367.5 -10t537.5 61
q156 27 279.5 39.5t222 13.5t171 -8.5t126.5 -21.5q125 -31 180 -90q-18 10 -47 20q-25 8 -65 17.5t-99 13.5q16 -4 28.5 -8t26.5 -8q41 -16 82 -40t76 -53q16 -16 31.5 -35.5t19.5 -41.5q8 -23 5 -47.5t-13 -45.5q-27 -45 -70 -65q-20 -10 -41.5 -17.5t-48.5 -9.5
q-41 -8 -87 -6t-91 10q-35 4 -67.5 4t-67.5 9q-35 8 -64.5 26t-52.5 41q-8 6 -3 12.5t13 0.5q23 -12 50.5 -15.5t56.5 -13.5q49 -12 86 -39q47 -10 92 -15.5t92 -0.5q43 0 87 12t75 43q33 33 37 78q4 23 -4 43t-23 39q-31 33 -69.5 55t-81.5 41q-70 33 -156 51
q-78 2 -182.5 -4t-249.5 -27q-29 -6 -104.5 -19t-179 -28.5t-224.5 -30t-240.5 -18.5t-228.5 4t-186 35q102 -25 222 -26t238 10q-174 2 -309 21.5t-231 41.5q-113 27 -197 62zM430 -659q2 -2 4 -3h8h-8q-2 1 -4 3zM442 -662q25 -4 89.5 -7t156.5 1t207 18.5t238 45.5
q207 55 343 59t218 -12q96 -21 147 -64q-59 31 -155 39q-82 8 -210 -3t-309 -64q-90 -27 -203.5 -33t-221 -3t-190.5 11t-110 12z" />
    <glyph glyph-name="greater" unicode="&#x3e;" horiz-adv-x="628" 
d="M-8 -72q106 86 207 160q43 31 89 62.5t92 59.5t88 48.5t77 30.5q-39 10 -94.5 47t-117 107.5t-122.5 179t-113 262.5q0 16 9.5 20t20.5 3t20.5 -2t9.5 3q0 2 21.5 -35.5t61.5 -98t97 -134.5t128 -140.5t153.5 -115.5t175.5 -63q-139 -41 -267.5 -96.5t-234 -118
t-180 -126t-105.5 -118.5q-8 18 -12 41z" />
    <glyph glyph-name="question" unicode="?" horiz-adv-x="954" 
d="M-25 45q29 -25 45.5 -70t26.5 -88q10 -51 16 -106q33 61 68 115q29 45 64.5 83.5t70.5 49.5q-25 18 -42 59t-27 82q-13 49 -21 104q-37 -55 -74 -102q-31 -41 -64.5 -78t-62.5 -49zM52 1165q1 35 13.5 79t40.5 99q57 111 149.5 173.5t180.5 93.5q102 37 215 45
q12 -6 48 -49t79 -109.5t83 -149.5t58.5 -170t5 -172t-75 -154t-182 -116t-319.5 -59q-10 -29 -19.5 -72t-12.5 -92t3.5 -98t26.5 -92q-47 31 -84 71.5t-63 75.5q-31 41 -54 86l78 256q129 2 228 33q43 12 82.5 32.5t70.5 49t47.5 67.5t14.5 92q-6 104 -37 186.5
t-62.5 139.5t-56.5 89t-21 36q4 2 -28.5 -1t-81.5 -26.5t-105.5 -76t-95.5 -146.5q-41 -96 -46 -152.5t5 -84.5q10 -35 39 -48q-59 16 -92 60q-14 18 -23.5 43.5t-8.5 60.5z" />
    <glyph glyph-name="at" unicode="@" horiz-adv-x="10" 
d="M-1129.5 -761q-13.5 61 7 114t66.5 100t106 86q137 92 352 164q-139 -68 -221 -143q-35 -33 -62.5 -71t-36 -80t6 -87t61.5 -92q68 -66 159 -78t200.5 9.5t231.5 70.5t249 111q84 41 180 91t194.5 96t195.5 81t186.5 45t165 -11.5t130.5 -88.5q84 -100 70 -176t-87 -121
t-181.5 -56.5t-212.5 15.5q111 -16 207 -1t155.5 57t69.5 106.5t-51 148.5q-41 55 -107.5 68.5t-147.5 -2t-174.5 -52.5t-187.5 -83t-185 -94t-169 -85q-80 -39 -171 -86t-188.5 -91t-196.5 -76t-194.5 -38t-182.5 21.5t-161 103.5q-63 63 -76.5 124zM-803 -745.5
q0 32.5 12 63.5q31 71 129 147q-80 -96 -86 -157.5t36 -93t121 -38.5t169 7t180 45t156 74q53 29 58 25.5t-24.5 -26t-86 -58.5t-127 -70.5t-147 -64.5t-144.5 -40q-90 27 -143.5 57.5t-78 63.5t-24.5 65.5zM-207 -821q6 18 17.5 27.5t23.5 19.5t24.5 17t24.5 16
q27 16 52.5 30.5t54.5 26.5q57 27 113.5 52.5t115.5 47.5q59 23 124 38.5t136 21.5q33 4 66 2t67 -13q37 -14 60 -32q12 -8 23.5 -20.5t11.5 -28.5q10 -12 2 -39q-12 -16 -33 -23q-23 -10 -47.5 -10t-42.5 -4q-8 0 -12.5 8t-0.5 12q18 12 33 25.5t29 19.5q20 4 27 6
q20 8 4 25q-14 18 -39 29.5t-54 15.5q-59 12 -122 0q-59 -6 -121 -22q-33 -8 -59.5 -16.5t-55.5 -20.5q-55 -20 -108.5 -44t-106.5 -53q-27 -12 -52.5 -25t-49.5 -28q-10 -8 -22.5 -16t-22.5 -15q-10 -8 -19.5 -18t-9.5 -16q-6 0 -14 -6q-6 -2 -12.5 2t-4.5 8z" />
    <glyph glyph-name="A" unicode="A" horiz-adv-x="1064" 
d="M-534 574q4 38 14 73q23 66 71 131q49 61 109 101q31 20 66.5 33.5t74.5 15.5q10 0 11 -15q0 -12 -11 -12q-72 -4 -133 -48t-102 -101q-42 -59 -64 -129q-11 -35 -11 -70q0 -36 11 -72q18 -70 66.5 -126t116.5 -79q39 -13 77 -13q31 0 62 9q36 10 60 34q21 21 21 49
q0 5 -1 10q-12 14 -22.5 25t-18.5 26q-10 16 -18.5 36.5t-26.5 36.5q-4 4 1 14.5t13 6.5q29 -6 55.5 -21.5t40.5 -46.5q11 -24 11 -49q0 -7 -1 -15q-4 -32 -16 -61q-18 -39 -55 -56t-74 -21q-16 -2 -31 -2q-22 0 -44 4q-36 6 -72 22q-72 33 -115 97.5t-59 136.5q-7 26 -7 54
q0 11 1 22zM-516 541q-2 23 -2 45q0 77 28 140q36 81 99 132q63 52 147 74q58 16 118 15q26 0 53 -3q87 -10 168 -55t141 -125q98 154 208.5 293t206.5 246q113 125 221 233l254 -51q-147 -666 -178 -1153q-9 -125 -9 -245v-25q1 -132 17.5 -245.5t49 -201.5t87 -140.5
t132.5 -61.5q13 -2 27 -1q69 0 157 37q-131 -72 -225 -74h-7q-89 -1 -151 51q-64 54 -100 154q-38 101 -54 231q-15 116 -14 248v33q2 150 16 305q-47 -20 -110.5 -42.5t-138 -22.5t-158.5 35.5t-172 134.5q-74 -156 -116 -278t-54 -216q-5 -42 -5 -79q0 -45 8 -85
q15 -70 56 -125q-135 71 -183 177q-38 85 -38 183q0 25 2 50q12 127 72.5 266.5t142.5 278.5q-45 63 -112 109q-68 45 -143 67q-63 18 -126 19q-11 0 -23 -1q-74 -4 -137 -39.5t-105 -106.5t-50 -181zM138 100q1 66 9.5 107t6.5 43q-4 2 9 24.5t29.5 49t32 48t19.5 21.5
q2 0 -10.5 -48t-21.5 -125q-6 -53 -6 -117q0 -28 1 -58q4 -98 36.5 -197.5t103.5 -192.5t198 -159q-135 55 -217 132t-124 160t-54 165q-12 76 -12 138v9zM246 762q-1 0 -1 1q-1 6 15 39q18 40 54 105.5t87.5 147.5t115 166t136 162.5t150.5 138.5q-119 -119 -199 -242
t-131 -223q-59 -117 -96 -228q-33 -20 -60 -34q-23 -12 -45 -22.5t-26 -10.5zM342 569q66 -87 144 -117q69 -26 137 -26h18q76 4 140.5 30.5t103.5 49.5q14 145 35.5 284.5t43 258t40 209t28.5 139.5q-262 -246 -430 -451t-260 -377z" />
    <glyph glyph-name="B" unicode="B" horiz-adv-x="1042" 
d="M-891 -38q-2 12 -2 25q0 54 33 122q53 106 146 141q66 25 141 25q31 -1 64 -5q112 -14 232.5 -63t231.5 -107q25 143 63.5 326.5t94 378t129 387t170.5 356.5l188 -123q-41 -86 -88 -192q-41 -92 -90 -213t-100 -262q66 115 148.5 241.5t175.5 239.5t193.5 196t202.5 111
q31 -14 56.5 -43.5t44.5 -60.5q23 -37 39 -76q-14 -154 -54 -297q-16 -61 -41.5 -126.5t-59.5 -129t-79 -122t-100 -103.5q49 -10 86 -62.5t55.5 -126t18.5 -155.5t-23 -152q-49 -150 -136 -246t-193 -139q-89 -36 -186 -36q-19 -1 -39 1q-118 8 -228 70q-27 14 -54.5 30.5
t-56.5 34.5q-3 -47 -3 -91q0 -61 6 -118q11 -98 44 -176q-23 41 -61.5 98.5t-77.5 110.5q-45 61 -94 123q0 20 4 43q4 20 7 49t9 68q-109 70 -224 136q-114 64 -216 98q-80 26 -147 27q-18 0 -34 -2q-79 -9 -118 -91q-31 -66 -31 -119v-12q4 -57 25 -98q23 -47 63 -84
q-59 35 -94 86q-31 43 -41 107zM-492 -35v10q0 40 14 65q16 28 43 39t62 11q80 0 197 -47q49 -43 88 -78q33 -29 60.5 -53.5t27.5 -20.5q0 2 -42 27t-104 52q-60 28 -128 48q-54 16 -98 17q-11 0 -21 -1q-51 -5 -73 -47q-10 -19 -10 -49q0 -37 15 -92q-29 72 -31 119z
M-55 -221q0 10 14 10q12 0 12 -8q16 -61 47 -121.5t64 -118.5q35 -59 73 -114.5t78 -108.5q41 -53 85 -103.5t94 -97.5q47 -47 101 -86t118 -55q33 14 55 20q12 4 30.5 6.5t31.5 18.5q4 4 14 -1t8 -13q-4 -14 -9 -27.5t-16 -26.5q-10 -10 -25 -18t-32 -8h-9q-27 0 -47 11
q-24 13 -46 24q-63 27 -115.5 68.5t-99.5 88.5t-88 96.5t-82 102.5t-77 107.5t-69 111.5q-16 29 -31.5 57.5t-31.5 59.5q-14 29 -26.5 59.5t-20.5 65.5zM-51 66q2 -4 4 54t12 161.5t31.5 242t61.5 297t101.5 325.5t153.5 329q-115 -260 -168 -476.5t-71 -370.5
q-18 -146 -18 -226v-9v-22q0 -51 -4 -50q-1 0 -1 1q-2 2 -19.5 -36t-37 -85t-34.5 -88q-12 -32 -12 -43q0 -3 1 -4zM115 12q29 -16 53.5 -31.5t46.5 -27.5q10 -6 22.5 -12.5t22.5 -12.5q16 -2 76.5 -11t136.5 -11h20q66 0 135 11q79 13 132 54q-49 -59 -126 -85.5
t-155 -32.5q49 -8 96 -8q23 0 47 2q68 6 125.5 34.5t99.5 81.5t60 133q14 66 14 126q0 24 -2 47q-8 81 -51 137q-43 58 -126 84q-54 17 -126 17q-38 0 -81 -5q41 59 101 134t119.5 179.5t107.5 243.5t67 327q-31 -2 -87.5 -54t-125 -137t-145 -195.5t-150.5 -230.5
t-138.5 -241.5t-107.5 -230.5q-18 -72 -33.5 -143.5t-27.5 -141.5z" />
    <glyph glyph-name="C" unicode="C" horiz-adv-x="954" 
d="M-23 282.5q0 104.5 20.5 229.5t70.5 270q47 143 110.5 255t136 197t148.5 143.5t147 99.5q171 93 353 116q70 -70 116 -161q41 -78 61 -188q8 -42 8 -90q0 -75 -20 -161q-16 -70 -38.5 -107.5t-48 -53t-53 -12.5t-52.5 18q-59 33 -125 120q53 -61 100 -81q20 -8 41 -8.5
t40.5 13t37 45t29.5 85.5q12 64 12 119q0 25 -2 47q-8 74 -25 131q-20 63 -53 114q-154 -49 -291 -137q-59 -37 -119.5 -87t-115.5 -114.5t-101.5 -143.5t-76.5 -175q-37 -121 -55.5 -227.5t-21.5 -198.5q-1 -23 -1 -45q0 -66 7 -125q9 -78 24 -139q35 -145 102 -252
q57 4 127 39q59 29 142 92t184 180q-33 -76 -77 -134t-93.5 -102t-100.5 -75t-100 -51q-115 -49 -240 -60q-100 109 -153 269q-23 68 -38.5 154.5t-15.5 191zM-6 498q8 104 32.5 202.5t61.5 196.5q37 96 83 187.5t103 177.5t123 164.5t144 146.5q27 49 71 80
q29 20 59.5 28.5t61.5 20.5q3 1 6 1q5 -1 9 -7q3 -5 3 -8q0 -4 -3 -7q-27 -27 -52.5 -52t-58.5 -44q-29 -16 -61.5 -31.5t-59.5 -40.5q-141 -135 -244.5 -303t-169.5 -352q-35 -92 -56 -186t-28 -193q-3 -38 -4 -76q0 -59 8 -119q12 -96 54 -184q8 -12 -6 -16q-10 -4 -19 8
q-43 96 -55 200q-7 56 -7 112q0 47 5 94zM218 505q5 130 30.5 229.5t53.5 166t51.5 99t23.5 30.5t29.5 26.5t66.5 62.5q37 35 67 61q26 23 32 23q1 0 1 -1q2 -4 -32.5 -44t-82.5 -116.5t-98 -189.5q-52 -112 -78 -260q-21 -117 -21 -256q0 -37 2 -75q7 -183 73 -400
q-72 190 -98 352q-21 135 -21 249q0 22 1 43z" />
    <glyph glyph-name="D" unicode="D" horiz-adv-x="1130" 
d="M-172 -465q0 10 12 12q45 6 87 16.5t83 16.5q41 4 83 12.5t81 30.5q102 66 178 159t135 198q59 104 106.5 214.5t84.5 225.5q74 227 117 469q21 119 33 239q11 103 10 207v33q-2 8 3 12t9 4q6 0 9 -6t3 -12q1 -29 1 -57q0 -99 -11 -196q-14 -124 -37 -249
q-43 -246 -123 -487q-41 -121 -92 -235.5t-117 -223.5q-68 -106 -154.5 -201.5t-205.5 -150.5q-23 -23 -53.5 -38t-65.5 -22q-20 -4 -38 -4q-22 0 -44 6q-39 10 -80 13q-14 4 -14 14zM-84 297q57 307 145.5 540.5t171 390t142 234.5t59.5 76q0 -8 19 -37q8 -14 18 -33
q-102 -111 -203 -278q-86 -143 -182 -363.5t-170 -529.5zM-43 0q31 256 92 524q27 113 62.5 241t83 261t106.5 267t133 261l189 -122q-66 -115 -131 -248q-55 -115 -119 -262.5t-117 -311.5q39 76 92 168t115.5 188.5t133.5 190.5t146.5 173t154.5 136t159 80
q31 -14 56.5 -43.5t43.5 -60.5q23 -37 39 -76q-109 -700 -264 -1157q-45 -129 -96.5 -245t-110.5 -204t-127 -141t-142 -58h-13q-68 0 -142 46q-82 51 -172 172q-29 35 -59.5 73.5t-55.5 71.5q-29 37 -57 76zM140 -24q2 -94 22 -177q70 -68 138 -68q10 -1 20 1
q78 12 153.5 96t144 234.5t129 352t110.5 448.5t87 523q-35 -2 -97.5 -64t-139 -162.5t-161.5 -228.5t-162 -262t-139.5 -265.5t-94.5 -235.5q-10 -84 -10 -165v-27zM510 -426q16 49 52 122t82 153.5t94 160.5t88 143.5t64.5 103.5t22.5 40q-4 0 31 64.5t85 188.5t104.5 305
t91.5 415q-12 -156 -46 -335t-82 -358.5t-112.5 -348.5t-139.5 -305t-160 -229t-175 -120z" />
    <glyph glyph-name="E" unicode="E" horiz-adv-x="1042" 
d="M-24 156q-2 16 -1 33q0 38 9 75q25 104 79 174t107 113q63 49 135 78q-45 10 -74 49q-25 36 -37 102q-4 22 -4 48q0 57 17 139q12 59 49 115.5t90 107.5t117.5 96t130.5 84q154 90 338 166q51 -49 88 -115q31 -55 48 -133q8 -36 7 -76q0 -47 -10 -100q-23 -98 -76 -124
q-40 -19 -83 -19q-13 0 -27 2q-68 8 -144 53q80 -32 134 -32h3q56 1 88 26q30 24 42 63q7 24 7 49q-1 16 -3 33q-8 43 -31 83t-57 65q-152 -55 -248.5 -115.5t-151.5 -121.5q-56 -60 -76 -118q-19 -52 -18 -99v-9q4 -121 108 -238q-131 -47 -206.5 -106.5t-109.5 -123.5
q-33 -63 -33 -129q0 -68 22 -134q49 -150 196 -307h11q64 0 143 43q74 39 175 135t226 284q-47 -100 -100 -179t-109.5 -141.5t-112.5 -108.5t-108 -79q-121 -78 -243 -108q-102 96 -177 199q-31 43 -59.5 93t-46.5 102t-24 106zM214 146v5q0 75 26 150q26 78 98 143
q-43 -57 -63.5 -115.5t-23.5 -113.5q-1 -13 -1 -25q0 -42 8 -82q10 -52 29 -98q41 -106 121 -203q-18 -6 -31 -14q-12 -6 -21.5 -14.5t-9.5 -16.5q0 -1 -1 -1q-3 0 -19 26q-20 31 -45 84t-45.5 125t-21.5 150zM236 924q10 66 32.5 130t59.5 122q35 59 83 107t101 89
q111 78 227.5 139.5t231.5 130.5q53 35 106 75t101 87q49 45 84 99q16 27 28.5 55.5t14.5 58.5q2 31 -12.5 58.5t-37.5 48.5q-23 23 -52 33t-60 14q-16 2 -32 2q-47 1 -95 -13q-64 -18 -119 -49q-23 -25 -44.5 -47t-43.5 -45q-27 -27 -52.5 -53.5t-29.5 -64.5
q-2 -12 -12.5 -14.5t-14.5 9.5q-3 15 -3 31q-1 35 15 71q22 54 64 87q41 33 87 49t91 33q61 23 128 31q16 2 32 2q50 0 100 -19q31 -14 57.5 -36.5t43.5 -53.5q15 -31 15 -64q0 -36 -11 -71q-25 -63 -69 -112.5t-91 -92.5q-49 -43 -101 -81t-110 -71q-111 -66 -223.5 -125
t-214.5 -137q-49 -39 -92 -85t-76 -101q-31 -53 -51.5 -113.5t-30.5 -122.5q-3 -15 -12 -15q-2 0 -4 1q-9 2 -9 14q0 4 1 9z" />
    <glyph glyph-name="F" unicode="F" horiz-adv-x="839" 
d="M-834 -1303q-10 32 -10 67q0 43 15 89q14 47 40.5 85t55.5 79q10 12 19 7t5 -17q-20 -47 -32.5 -97.5t-28.5 -99.5q-14 -47 -26 -95q-6 -24 -7 -49q0 -24 6 -48q10 -33 28.5 -62t47.5 -45q29 -19 61 -27q26 -7 53 -6h13q70 2 127 41t102 92t81 114t65 126q31 63 58.5 129
t51.5 131q49 133 87 269.5t72 274.5t68 276.5t75 273.5q8 20 20 12q12 -4 4 -24q-43 -139 -78 -282.5t-69.5 -286t-75.5 -285t-92 -279.5q-27 -70 -57.5 -136.5t-63.5 -133.5q-35 -66 -76 -128.5t-94 -115.5q-29 -25 -60.5 -46.5t-68.5 -33.5q-41 -16 -84 -16q-34 0 -68 10
q-39 10 -71.5 32.5t-53.5 57.5q-23 35 -31 72t-8 75zM-551 -848q2 0 26.5 -2t62.5 11.5t85 48t93 107.5t89 190.5t74 295.5q29 172 86.5 299t127 216.5t143 145.5t137 88t108.5 44t58 14q-13 -2 -61 -4h-8q-44 0 -96 20q-56 22 -107.5 78t-67.5 168q-3 16 -3 32q0 44 20 88
q28 61 78 118t117.5 111.5t139.5 101.5q168 111 389 213q59 -43 96 -104q32 -53 50 -132q6 -29 6 -61q0 -57 -19 -127q-16 -55 -38.5 -87t-48 -48t-54.5 -19.5t-55 3.5q-63 12 -134 63q70 -29 116 -32q8 -1 15 0q36 0 59 12q28 14 40 41.5t14 60.5v14q0 75 -39 183
q-119 -31 -217 -84q-43 -23 -84 -52.5t-75.5 -66.5t-60.5 -81t-34 -97q-6 -29 -6 -55q0 -21 4 -39q8 -42 27.5 -73.5t47.5 -55t58 -37.5q70 -37 168 -48q-150 -16 -280 -104q-55 -39 -112.5 -96.5t-110 -141.5t-94.5 -196.5t-66 -259.5q-33 -195 -94.5 -320t-134 -198.5
t-148.5 -105.5t-138 -41q-40 -6 -72 -6q-18 0 -33 2q-42 5 -44 5zM196 901q-2 12 -3 28q1 22 5 50q8 49 36 114.5t97.5 141.5t190.5 160t314 168q-139 -84 -235.5 -159t-160 -138.5t-96.5 -115.5t-47 -95q-13 -38 -13 -71q0 -54 33 -99q-37 -6 -63 -11q-23 -4 -41 -6
q-6 -1 -10 -1q-7 0 -4 3q3 2 -3 31z" />
    <glyph glyph-name="G" unicode="G" horiz-adv-x="1081" 
d="M-834 -915q207 -111 382 -121q26 -2 52 -2q145 0 268 52q144 60 260 179t208 267.5t159.5 314.5t116.5 321q-74 -66 -151.5 -103.5t-143.5 -55.5q-76 -23 -147 -27q-100 37 -154 139q-23 43 -38 106.5t-15 150.5t20.5 201t69.5 259q47 143 110.5 255t136.5 197t148.5 143
t147.5 99q170 94 352 117q70 -70 117 -162q41 -78 61 -189q8 -42 8 -88q0 -75 -20 -161q-16 -70 -38.5 -108t-48.5 -53t-53.5 -12t-51.5 17q-59 33 -125 121q53 -61 100 -82q20 -8 40.5 -8t40 13.5t37 45t29.5 84.5q13 65 13 121q0 24 -3 46q-7 75 -24 130q-20 63 -53 115
q-154 -49 -291 -137q-59 -37 -119.5 -87t-116 -114.5t-101.5 -143.5t-77 -175q-37 -121 -55 -216.5t-21 -169.5q-1 -18 -1 -35q0 -52 7 -93q9 -54 23 -93q35 -90 103 -123q35 2 84 21q41 16 98 49t129 96q31 106 51.5 198.5t34.5 160.5q16 80 27 145l239 -69
q-156 -655 -409 -1086q-72 -123 -159 -233.5t-188.5 -195.5t-218 -139t-250.5 -63q-24 -2 -49 -2q-112 0 -233 34q-150 42 -318 149zM-502 -696q-4 6 -4 10q0 5 4 9q9 7 19 -1q33 -29 65.5 -55.5t63.5 -54.5q29 -25 63.5 -47.5t77.5 -22.5q57 0 111.5 21.5t103.5 52.5
q49 33 92 71.5t84 83.5q78 86 143.5 184.5t110.5 208.5q41 113 86 225.5t78 227.5q35 115 55.5 229.5t42.5 231.5q4 16 17 12q12 -4 8 -20q-25 -123 -46.5 -242t-56.5 -238t-82 -235.5t-92 -233.5q-104 -229 -282 -407q-45 -45 -93.5 -84t-105.5 -68q-55 -29 -119 -42
q-27 -5 -53 -5q-38 0 -76 11q-8 -1 -16 -1q-25 0 -51 10q-33 13 -60 36q-35 29 -51 63.5t-37 69.5zM-27 459q12 70 36 178t67 231t109.5 250t162.5 233.5t227.5 181.5t305.5 95q-154 -37 -273 -115.5t-208 -178t-150.5 -210t-102.5 -210t-63.5 -178.5t-32.5 -113
q-2 -4 -14 -30t-26.5 -54.5t-26 -53t-11.5 -26.5z" />
    <glyph glyph-name="H" unicode="H" horiz-adv-x="1198" 
d="M-78 -240q39 322 107 643q29 137 67.5 287t87.5 299.5t109.5 293.5t134.5 271l188 -122q-70 -145 -137 -308q-59 -141 -125.5 -319t-124.5 -373q55 45 116 75t122 57.5t124.5 56t124 72.5t118 106.5t108.5 156.5q35 115 70 216.5t69 187.5l185 -96q-270 -756 -332 -1313
q-17 -150 -17 -294v-15q1 -152 28.5 -282t86 -233.5t155.5 -166t239 -76.5q32 -3 67 -3q118 0 268 36q-219 -80 -383 -83h-16q-154 0 -266 54q-118 57 -191.5 166.5t-112 255t-46.5 319.5q-3 59 -2 120q0 117 10 241q14 186 49 376.5t80 370.5q-68 -70 -140.5 -114.5
t-143.5 -79.5t-138.5 -67t-126 -75t-104.5 -106.5t-76 -161.5q-42 -205 -48 -389q0 -16 -1 -31q0 -164 53 -284q-23 41 -62 98t-78 111q-45 61 -96 122zM-70 -198q-1 16 -1 37q-1 47 3 118q4 102 18.5 250.5t51.5 334t100.5 402.5t165.5 459q-131 -373 -190.5 -666
t-79.5 -499q-14 -146 -14 -272q0 -82 6 -154q-18 -12 -33 -23q-11 -9 -21 -19q-7 -7 -7 -13q0 -3 1 -5q2 -4 0 50zM731 -373q-4 82 -4 164q0 164 16 326q6 61 15.5 121.5t25.5 119.5q8 31 23.5 105t35 155.5t41 153.5t40.5 98q4 6 11 6.5t11 -4.5q6 -10 -4 -20
q-18 -25 -38.5 -96.5t-40 -153.5t-35 -156.5t-21.5 -105.5q-14 -59 -23.5 -121.5t-15.5 -124.5q-12 -127 -14 -252v-50q0 -100 6 -202q8 -127 25.5 -249.5t50.5 -245.5q16 -61 35.5 -120.5t48.5 -115.5q27 -55 62.5 -106t84.5 -86q59 -16 113 -25q32 -4 68 -6h9q31 0 64 12
q10 6 17 -3q3 -4 3 -7q0 -5 -6 -10q-18 -16 -38.5 -27.5t-45.5 -19.5q-30 -9 -60 -9q-22 0 -44 5q-51 16 -86 50t-66 68q-43 47 -73.5 100.5t-53.5 110.5t-40 116.5t-31 119.5q-29 121 -44.5 241.5t-21.5 243.5zM988 206q22 269 56 462q41 225 103 401q33 53 59 94
q23 35 41.5 66t18.5 35q0 2 -20.5 -57.5t-52.5 -170t-67.5 -264.5t-66.5 -339t-49 -396q-17 -190 -17 -391v-43q-15 184 -15 348q0 134 10 255z" />
    <glyph glyph-name="I" unicode="I" horiz-adv-x="464" 
d="M-360 1118q37 -88 90 -116q35 -18 74 -18q20 0 42 6q64 14 131.5 61t133.5 110q154 147 325 393l189 -122q-195 -412 -322 -791q-55 -162 -100 -332q-45 -169 -69 -329q-20 -136 -20 -261q0 -21 1 -41q4 -142 51 -249q-23 41 -61.5 98t-77.5 111q-45 61 -97 122
q25 223 70 463q18 102 44 218t57.5 238t70.5 247t86 245q-53 -45 -114.5 -89t-123.5 -78q-64 -34 -124 -52q-41 -12 -77 -12q-18 0 -34 3q-51 9 -89 50t-56 125zM-90 840q45 0 90 26.5t87 66.5t78 86t61.5 88t35.5 70.5t4 32.5q-5 3 -4.5 3t6.5 -3q12 -6 31 -16
q23 -12 55 -29q-61 -106 -133 -184q-31 -33 -66.5 -63.5t-75.5 -52t-82 -29.5q-17 -3 -34 -4q-26 0 -53 8zM27 -238q-1 1 -1 2q0 2 4 6q5 4 9 5q3 1 5 1q6 0 9 -7q41 -133 92.5 -262.5t110.5 -256.5q57 -127 129 -245q18 -29 36.5 -57.5t41.5 -55.5q23 -29 46 -51.5
t52 -36.5q18 4 29.5 8t19.5 8q10 4 28.5 10.5t29.5 24.5q4 6 14 2t10 -12q-2 -14 -4 -28.5t-10 -28.5t-22.5 -24.5t-34.5 -14.5q-7 -2 -14 -2q-11 0 -21 4q-17 6 -29 16q-12 8 -22.5 17.5t-20.5 17.5q-55 45 -94 101.5t-74 113.5q-35 59 -64.5 119.5t-58.5 122.5
q-55 123 -105 248.5t-91 254.5z" />
    <glyph glyph-name="J" unicode="J" horiz-adv-x="509" 
d="M-1935 -946q233 -231 439 -335.5t384 -108.5h14q170 0 316 82q153 85 282 233.5t235.5 345.5t191.5 418t151.5 451.5t117 445.5t83 400t53.5 317q-35 -35 -99.5 -92.5t-141.5 -115t-159 -101.5t-154 -52q-13 -1 -25 -1q-58 0 -103 31q-56 38 -80 146q37 -88 90 -116
q35 -18 74 -18q21 0 42 6q64 14 131.5 61t133.5 110q154 147 326 393v-20l192 -133q-176 -1186 -508 -1921q-94 -209 -209.5 -391.5t-254 -312.5t-301.5 -196q-122 -50 -258 -50q-46 0 -94 6q-189 22 -406.5 145t-462.5 373zM-530 -1642q29 43 59.5 87t67.5 85
q35 39 72.5 74.5t66.5 82.5q78 123 139.5 252t112.5 264t94 272.5t82 278.5t75.5 279.5t71.5 279.5q16 72 31.5 141.5t28.5 141.5q6 35 11 70.5t9 70.5q2 18 2 37v35t-2 33.5t-10 27.5q-2 4 -4 8.5t-2 10.5t10 6t18 -12q12 -23 13.5 -41.5t3.5 -38.5q0 -20 -1 -39t-3 -37
q-4 -39 -9.5 -76t-13.5 -73q-12 -74 -28.5 -148t-34.5 -147q-35 -147 -74 -291t-80 -289t-86 -286.5t-102 -282.5q-55 -141 -123 -275.5t-156 -259.5q-20 -68 -76 -135q-31 -37 -69.5 -63.5t-73.5 -57.5q-7 -6 -13 -6q-4 0 -7 3q-4 3 -4 7.5t4 10.5zM12 891q57 27 105.5 71
t86.5 95t66.5 103t46 93t24.5 65q6 23 5 23q-9 0 10 -15q15 -11 33 -23q23 -14 51 -31q-61 -98 -131 -178q-31 -35 -65.5 -68t-72.5 -61.5t-78 -48t-81 -25.5z" />
    <glyph glyph-name="K" unicode="K" horiz-adv-x="864" 
d="M-59 -240q39 322 106 643q29 137 68 287t88 299.5t109.5 293.5t133.5 271l189 -122q-59 -123 -121 -267q-53 -123 -114.5 -281.5t-116.5 -336.5q70 76 185.5 192.5t264 250.5t320.5 270.5t354 251t367.5 192.5t359.5 93q36 3 71 3q135 0 257 -46q154 -58 278 -218
q-137 147 -306 188q-89 22 -184 22q-84 0 -172 -18q-188 -36 -383.5 -136.5t-386 -234.5t-366.5 -288t-321 -297q4 -20 19 -88t44 -164t70 -213t96 -235.5t124.5 -229t156 -196.5t187.5 -138q97 -50 212 -49h9q120 2 257 64.5t293 206.5q-193 -209 -361 -299
q-168 -91 -314 -93h-10q-140 0 -259 70q-123 72 -224.5 185.5t-181.5 256t-139 282.5t-99 262t-61 196q-68 -72 -121 -130.5t-92 -101.5q-37 -131 -63 -262q-25 -132 -34 -252q-4 -60 -4 -116q-1 -56 4 -110q9 -106 46 -189q-23 41 -61.5 98t-77.5 111q-45 61 -96 122z
M-45 -64.5q0 64.5 8 176t27.5 263t53.5 324.5t85 359.5t127 371.5q-84 -289 -125 -523.5t-56.5 -399.5t-16.5 -253t-5 -84q-2 4 -9 -17.5t-17.5 -54t-21.5 -72.5t-21.5 -75t-17.5 -57.5t-9 -22.5t-2 64.5zM-10 -254q-3 4 -3 8q0 7 9 13q10 4 18 -9q115 -184 206 -379.5
t200 -379.5q53 -94 122.5 -175t147.5 -153q41 -35 83 -66.5t89 -58.5q44 -28 94 -46q39 -15 79 -14q11 0 22 1q25 12 44 24t38 27q23 16 46 33.5t40 46.5q4 10 15 6.5t9 -13.5q-4 -39 -23.5 -79.5t-64.5 -63.5q-20 -10 -41.5 -13t-44.5 -3q-23 2 -42 6t-40 8
q-53 10 -100 33.5t-92 52.5q-86 57 -162 131t-143 156q-33 41 -59.5 85t-55.5 89q-104 182 -192.5 369.5t-198.5 363.5zM694 -63q2 3 6 3q6 0 16 -6q18 -10 36 -26q23 -20 49 -47q66 -205 176 -359q45 -66 105.5 -126t135 -104t164.5 -66q55 -13 116 -12q39 0 81 5
q-67 -18 -130 -18q-65 0 -125 19q-120 38 -219 119t-177 184.5t-132 198.5t-80 162q-23 58 -23 70q0 2 1 3z" />
    <glyph glyph-name="L" unicode="L" horiz-adv-x="538" 
d="M-988 24v12q0 34 16 66q18 36 63 66.5t125 46.5q50 10 108 10q24 0 50 -2q86 -6 184 -25.5t203.5 -49t213.5 -66.5q25 143 64 327.5t95 383t131 395t171 364.5q46 -6 97 -6h26q55 2 127 11.5t145 37.5q-66 -27 -134 -108.5t-135.5 -203.5t-132 -274.5t-119 -318.5
t-98.5 -337t-71 -328q158 -55 311.5 -109.5t291.5 -93.5q138 -40 254 -54q44 -6 84 -5q63 1 113 15q81 24 119 94q28 52 29 137q0 31 -4 67q34 -127 35 -217q0 -23 -3 -43q-11 -100 -61 -154t-134 -66q-39 -6 -82 -5q-50 -1 -106 7q-104 14 -219.5 51.5t-230 82.5t-221 92
t-192.5 84q-11 -94 -11 -180q0 -43 3 -83q8 -122 49 -218q-23 41 -61.5 98t-77.5 110q-45 61 -97 123q2 27 9 62q4 29 9 71.5t13 96.5q-10 4 -17 7t-14 7q-47 20 -124.5 45t-168 46.5t-185.5 35.5q-89 13 -165 13h-11q-81 -1 -141.5 -21.5t-82.5 -68.5q-11 -23 -11 -54
q1 -33 13 -75q24 -81 115 -199q-100 117 -138 215q-16 43 -19 85zM-805 264q84 22 169 22q12 0 26 -1q98 -4 188 -25.5t167 -54.5t134.5 -63.5t90 -53.5t32.5 -25q0 -4 -11 -8t-24 -8q-14 -6 -33 -8q-100 78 -217 133q-49 25 -108.5 46.5t-126 34.5t-138.5 17q-21 1 -42 1
q-53 0 -107 -7zM-6 182q18 203 59 420q18 92 42 196.5t55.5 214t72.5 222.5t90 221q-78 -223 -126 -431t-74 -370q-31 -188 -43 -356zM59 -84q23 8 39 16q14 6 25.5 12.5t9.5 6.5t46 -32t130 -80t190.5 -102t230.5 -100.5t248 -74.5q104 -24 202 -24q21 0 41 1
q-43 -4 -86 -4q-55 1 -111 7q-102 12 -202.5 36.5t-196 59t-179.5 71.5q-199 88 -387 207zM440 1297.5q0 5.5 4 9.5q59 72 125 139t150 117q41 23 87 37t95 16q96 0 182 -51q43 -25 72 -66q31 -47 33 -94q1 -10 1 -20q-1 -39 -13 -76q-16 -47 -37 -88q-49 -82 -120 -146.5
t-159 -103.5q-37 -41 -90 -47q-12 -2 -24 -2q-20 0 -40 6q-30 10 -59 20q-10 4 -8 14.5t12 10.5q35 4 63.5 11t59.5 11q29 2 61.5 4t61.5 19q76 43 137.5 107.5t98.5 144.5q18 39 25 81q3 17 3 34q0 24 -6 49q-10 41 -39 72.5t-69 47.5q-39 18 -81 28q-30 7 -60 6
q-13 0 -25 -1q-43 -4 -84 -18.5t-78 -36.5q-76 -47 -137.5 -110.5t-118.5 -133.5q-4 -4 -9 -4t-10 4q-4 4 -4 9.5z" />
    <glyph glyph-name="M" unicode="M" horiz-adv-x="1230" 
d="M-1049 -217q100 -160 196.5 -234.5t188.5 -80.5q10 -1 19 -2q81 0 157 48q85 54 163.5 151t151.5 227.5t136 279.5q223 522 410 1348l2 -2q0 6 2 10l176 -123q-72 -369 -109 -660q-16 -123 -25 -241q-7 -97 -7 -177v-35q2 -93 18 -149.5t53 -56.5q31 0 75 45t96.5 121
t110.5 176t116.5 211t115 225.5t107.5 220.5q37 123 84 243t106 237l66 -37h8l-2 -4l123 -70q-186 -375 -289 -723q-43 -150 -72.5 -307.5t-31.5 -307.5v-17q0 -141 32 -270q34 -136 117 -243q-14 12 -36.5 36t-48 53.5t-55.5 64.5t-56 70q-66 82 -140 176q4 98 17 215
q10 100 29.5 235t54.5 291q-68 -137 -139.5 -266t-142.5 -228.5t-135.5 -160t-117.5 -60.5q-104 0 -164.5 47t-86.5 132q-25 79 -25 186v16q2 117 20 256q-47 -152 -102.5 -308.5t-121 -301.5t-138 -270t-153.5 -212t-169 -129q-60 -29 -123 -29q-29 1 -59 7
q-94 20 -194.5 109.5t-207.5 267.5zM-885 -596q59 -60 126 -64q9 -1 18 0q57 0 113 25q64 29 125 80t108 101.5t75.5 88t30.5 43.5q4 8 23 24q18 14 34 18q18 4 17 -17q0 -20 -27 -74q-18 -39 -61 -90t-99.5 -98t-121 -85t-130.5 -50q-24 -4 -46 -4q-42 0 -80 14
q-60 20 -105 88zM350 170q10 166 41 354q27 162 75 374t128 448q-68 -236 -101.5 -455t-47 -389t-15.5 -272.5t-6 -102.5t-16.5 6t-24.5 14q-14 8 -33 23zM956 115q-1 3 -1 5q0 9 12 9q12 4 16 -10q12 -43 23.5 -74t22.5 -59.5t25.5 -58t37.5 -68.5q43 -82 91 -160t101 -152
t112.5 -142.5t129.5 -127.5q68 -59 147.5 -103t169.5 -48q23 10 42.5 17t39.5 11q25 6 51.5 7t51.5 18q8 3 15 -5q4 -5 4 -9t-3 -7q-20 -29 -50 -50t-69 -26q-10 -1 -20 -1q-27 -1 -51 7q-34 10 -66 17q-92 20 -168 70.5t-141 109.5q-66 59 -123.5 129t-110.5 142
q-51 72 -97 148.5t-87 154.5q-20 39 -34.5 67.5t-26 56t-21.5 58.5t-23 74zM1065 301q-4 55 -4 109q0 127 20 254q37 94 66 165q12 31 24.5 60t21.5 51.5t17 35.5q6 11 8 11h1q2 -2 -11.5 -71.5t-29.5 -181.5q-15 -114 -25 -256q-5 -75 -5 -151q0 -69 4 -139q9 -148 44 -292
t111 -256q-66 74 -109 157.5t-70.5 169.5t-42 171t-20.5 163z" />
    <glyph glyph-name="N" unicode="N" horiz-adv-x="1181" 
d="M-977 -217q94 -154 183 -223.5t173 -72.5h9q79 0 153 52q78 55 148.5 152.5t134 228.5t121.5 281q199 520 356 1339l197 -78l-17 -82q-12 -76 -26.5 -207t-22.5 -283q-6 -122 -7 -248q0 -30 1 -62q2 -158 23.5 -286t65.5 -209t120 -81q72 0 128 65.5t99 172t74 243
t53 277.5q51 334 66 758l164 -115q-6 -414 -70 -737q-29 -139 -71 -271.5t-105.5 -236t-148.5 -167t-197 -63.5q-88 0 -146.5 79t-90.5 213t-36 314q-1 31 -1 64q0 152 16 320q-41 -154 -95.5 -328t-120 -345t-141 -327t-162.5 -274q-88 -116 -183 -184q-87 -62 -182 -62
h-17q-104 6 -215 95t-230 288zM-948 -870q-1 4 -1 8q0 8 6 10q9 4 15 -6q29 -37 58.5 -67.5t60.5 -47.5q29 -16 73 -17h4q42 0 81 21q55 29 103 68t93 84q86 84 166 188q39 51 72 102.5t59 108.5q57 113 111 228q53 115 99 230.5t83 238.5q18 59 32.5 120.5t25.5 122.5
q8 61 12 123q2 16 2 31.5v32.5l-2 14v8v2v2q14 -8 17 -10t2 -2t-3 1t2 -1l-4 -2q-10 -4 -18 -16q-4 -8 -11.5 -8.5t-9.5 3.5q-6 8 2 23q4 8 12.5 14t16.5 11q-2 0 4 -3.5t12 -6.5t8.5 -5t-4.5 2v-2v-2v-4v-8l2 -17v-32.5t-2 -32.5q-2 -35 -6 -66.5t-8 -64.5
q-10 -66 -26.5 -129.5t-36.5 -126.5q-39 -127 -88.5 -248t-104.5 -240q-29 -59 -57.5 -117.5t-59.5 -117.5t-69.5 -112.5t-79.5 -104.5t-86 -99.5t-94 -93.5q-49 -43 -104.5 -82t-121.5 -57q-33 -20 -69 -22h-7q-36 0 -73 20q-23 14 -37 32.5t-23 39.5q-10 20 -16 40.5
t-12 41.5zM672 0l-2 -1q0 -1 14 6q18 9 50 51t72 128t76 240t63.5 384t35.5 560q3 -114 3 -215q0 -119 -4 -221q-7 -190 -24.5 -334.5t-41 -246t-48.5 -171.5q-59 -162 -137 -203q-10 8 -20 17q-10 4 -19.5 7t-17.5 -1z" />
    <glyph glyph-name="O" unicode="O" horiz-adv-x="923" 
d="M8 244q-8 59 -8 127q0 107 20 239q4 53 12.5 108.5t20.5 117.5q16 92 44 179t69 173q39 86 93 160.5t120 140.5q14 45 55 80q25 18 52.5 27.5t52.5 25.5q4 2 7 2q5 0 8 -5q5 -9 1 -15q-18 -29 -38.5 -55.5t-49.5 -43.5q-25 -20 -53.5 -34.5t-51.5 -38.5
q-102 -109 -165.5 -239t-98.5 -271q37 104 86 186t103.5 145.5t112 110.5t110.5 80q127 78 262 108q66 -123 105 -270q16 -63 29.5 -138t18.5 -160q2 -42 2.5 -87t-2.5 -93q-5 -95 -26 -196q-33 -160 -81 -277.5t-104.5 -202.5t-119 -141.5t-121.5 -90.5q-138 -80 -291 -80
h-8q-66 70 -108 182q-38 94 -58 246zM206 328q11 -138 42 -230q37 -106 96 -176q47 4 98 29q43 23 97.5 65.5t111.5 128.5l39 97.5t48.5 145.5t44 182.5t29.5 207.5q5 60 5 121q0 49 -3 97q-7 110 -38 218q48 -132 64 -256q12 -99 13 -189q0 -23 -1 -46q13 103 13 190
q0 45 -3 85q-10 120 -33 204q-25 98 -63 172q-53 -12 -111 -43q-49 -29 -109.5 -79t-119.5 -136q-20 -41 -48 -106.5t-53.5 -148.5t-44 -182t-20.5 -211v-21q0 -103 18 -211q20 -120 68 -244q-43 68 -67.5 150.5t-36.5 170.5q-11 81 -10 164v15q1 90 8 172
q-36 -158 -37 -279q1 -30 3 -57zM459 1176l4 4zM633 109l2 4l8 16q-11 -16 -11 -19q0 -1 1 -1z" />
    <glyph glyph-name="P" unicode="P" horiz-adv-x="1077" 
d="M-70 -240q39 322 107 643q29 137 67.5 287t88 299.5t109.5 293.5t134 271l189 -122q-31 -63 -68 -146q-31 -70 -71 -164t-83 -207q92 100 194.5 213t189.5 210.5t144.5 163t61.5 71.5q31 -10 67 -38t66 -56q37 -35 72 -74q-74 -430 -201 -705q-55 -117 -127 -211
t-164 -135q-57 -25 -120 -25q-40 0 -84 10q-112 26 -248 148q-45 -147 -80 -295.5t-50 -286.5q-10 -90 -10 -173q0 -44 3 -87q8 -122 49 -216q-23 41 -61.5 98t-77.5 111q-45 61 -97 122zM-59 -240q0 274 34 553q14 119 38 250t60 266.5t86 267.5t115 255
q-113 -250 -160.5 -473.5t-60.5 -395.5q-8 -95 -8 -182q0 -98 10 -188zM-8 -240q2 6 1 -1t1 18v2l2 2l10 4q8 2 12.5 -2t4.5 -8q8 -12 8 -13q2 -12 -6 -20q-4 -4 -10.5 0t-8.5 12q-2 2 -2 3t-2 3q0 2 2 2q4 4 4 5l4 -7v-2q0 2 0 1v-2t0 2v18h2l2 -4q10 -10 17 -23
q20 -27 30 -51q16 -27 28.5 -52.5t23.5 -52.5q23 -53 43 -107t41 -108q41 -109 82 -214t100 -203q29 -47 64.5 -92.5t82.5 -73.5q46 -29 102 -36l22 -2q43 0 81 23q47 29 71.5 79t35.5 104q8 46 8 93v19q-2 58 -17 111q-16 23 -30.5 46.5t-28.5 45.5q-16 27 -31.5 54.5
t-46.5 43.5q-10 4 -7 15.5t15 9.5q43 -4 83 -34t57 -73q18 -41 20 -83.5t8 -85.5q4 -33 3 -67q0 -23 -1 -45q-4 -58 -22 -112q-10 -29 -22.5 -54.5t-32.5 -47.5q-18 -23 -44 -39t-55 -23q-23 -5 -46 -5q-34 -1 -70 11q-58 18 -101 56q-45 37 -77.5 83t-61.5 95
q-53 98 -93 201.5t-81 208.5q-18 53 -37.5 104t-42.5 102q-10 25 -22.5 50.5t-24.5 48.5q-8 12 -14.5 23.5t-16.5 21.5q-4 6 -7 11t-7 11h-2zM270 537q95 -82 179 -82q9 0 17 1q92 9 172.5 108.5t151 286.5t132.5 458q-29 -86 -65 -188.5t-75 -200t-78.5 -178t-76.5 -121.5
q25 43 53.5 112.5t57 150.5t54 161.5t46 149.5t34 114t15.5 51q-43 -41 -108.5 -108.5t-141.5 -150.5t-153.5 -177.5t-145.5 -186.5q-35 -91 -68 -200zM922 1309q0 2 1 2t1 2q0 -2 -1 -2t-1 -2z" />
    <glyph glyph-name="Q" unicode="Q" horiz-adv-x="897" 
d="M-289 -317l189 231h2l4 2q92 109 155 195q-25 47 -47 115.5t-32 159.5q-4 46 -4 97.5t4 109.5q10 116 47 257q31 117 78 209t103 162.5t117.5 123t121.5 89.5q141 86 299 118q66 -109 104 -241q16 -57 29.5 -125t18.5 -144q2 -39 2 -79.5t-2 -82.5q-5 -85 -26 -175
q-33 -141 -81 -248t-104 -183.5t-118.5 -127t-121.5 -80.5q-137 -72 -291 -72h-8q-12 10 -25 24q-10 12 -24.5 30t-28.5 44q-35 -47 -65 -88t-58 -76q43 10 113 18q39 5 83 5q36 0 75 -3q87 -7 182.5 -40t185.5 -105q57 -47 108.5 -70.5t95.5 -32.5q30 -6 57 -6q12 0 23 1
q37 4 68 16q70 27 121 92q-59 -84 -141 -127q-35 -18 -80 -30q-34 -8 -74 -8h-24q-54 4 -117.5 25.5t-135.5 66.5q-94 57 -187 78q-78 17 -150 17q-14 0 -28 -1q-85 -4 -159 -25.5t-128 -46t-88 -46t-38 -23.5zM-56 612q-1 16 -1 32q0 103 29 219q32 134 115 281.5
t239 297.5q-109 -117 -176.5 -230.5t-104.5 -218t-48 -199.5q-7 -61 -7 -115q0 -30 2 -58q12 -188 102 -353q-20 -16 -37 -26q-14 -10 -25 -17.5t-7 -3.5q2 2 -18.5 52.5t-39 136.5t-23.5 202zM182 541q-1 -18 -1 -35q0 -118 24 -203q57 70 127 146q74 78 146.5 154.5
t137.5 162.5q16 20 31 41.5t27 44.5t22.5 46.5t5.5 45.5q-4 23 -18 41.5t-37 22.5q-23 6 -47.5 1t-46.5 -16q-16 -20 -32.5 -38.5t-33.5 -34.5q-10 -10 -18 -20.5t-16 -22.5q-20 -25 -19 -52q2 -8 -8 -13t-14 5q-10 18 -12.5 42t1.5 46q12 45 50 76q35 29 73.5 39t79.5 16
q29 4 57.5 -4t47.5 -35q16 -20 20 -53q2 -27 -8 -55q-20 -51 -50 -93t-63 -83q-66 -82 -137.5 -156t-140.5 -149q-23 -18 -52.5 -53.5t-64.5 -78.5q16 -49 33.5 -83.5t34.5 -57.5q18 -27 38 -45q92 8 181 72q37 27 76.5 67.5t78.5 101t75 142.5t67 191q23 86 33 162.5
t10 144t-7.5 125t-17.5 104.5q-25 111 -74 193q-94 -20 -184 -82q-78 -53 -161 -156.5t-144 -280.5q-66 -193 -70 -333z" />
    <glyph glyph-name="R" unicode="R" horiz-adv-x="1026" 
d="M-76 -240q39 322 107 643q29 137 67.5 287t88 299.5t109.5 293.5t134 271l188 -122q-31 -63 -67 -146q-31 -70 -71 -164t-83 -207q92 100 194.5 213t189.5 210.5t144.5 163t61.5 71.5q31 -10 67 -38t66 -56q37 -35 72 -74q-53 -332 -148 -580q-41 -106 -93 -204.5
t-118.5 -169t-147.5 -104.5q-48 -20 -102 -20q-36 0 -75 9q14 -49 44 -139.5t77 -198t112.5 -220t151.5 -207.5t191 -159q106 -66 234 -76q20 -2 41 -1q111 1 237 47q150 56 325 200q-199 -215 -372 -304q-167 -86 -312 -86h-9q-148 3 -272.5 81t-226.5 199.5t-181 270
t-136.5 290t-94 259.5t-53.5 181q-4 4 -8 7t-8 7q-45 -147 -80 -295q-34 -149 -50 -287q-10 -89 -11 -172q-1 -45 3 -88q8 -122 50 -216q-23 41 -62 98t-78 111q-45 61 -96 122zM-23 125q0 -2 4.5 54.5t16.5 151.5t31.5 219t50.5 260t73 272.5t99 254.5
q-66 -186 -103.5 -362t-54.5 -316q-23 -162 -24 -307q-27 -61 -47 -110q-16 -41 -31 -77t-15 -40zM-20 -283q-1 2 -1 3q0 2 2 4q3 2 3 8q4 4 9 4t7 -4q35 -53 64.5 -106.5t60.5 -106.5q29 -53 59.5 -105.5t61.5 -105.5q33 -53 64.5 -104.5t66.5 -104.5q16 -23 34.5 -47.5
t37.5 -48.5q20 -23 40.5 -44.5t42.5 -35.5q16 6 23 12q2 -2 -2 2t0 6q4 4 16.5 19.5t12.5 33.5q2 6 12 5t14 -5q4 -10 9.5 -23t5.5 -28q0 -12 -4.5 -27.5t-20.5 -29.5q-13 -13 -30 -13q-4 0 -9 1q-20 2 -33 12q-12 10 -19 18.5t-18 16.5q-47 41 -80.5 89t-68.5 97
t-65.5 98.5t-61.5 102.5q-29 51 -58.5 101t-58.5 104q-29 51 -57.5 103t-58.5 99zM264 537q55 -49 111 -68q27 2 74 26.5t105 93t123.5 194.5t131.5 333q-31 -156 -67.5 -267.5t-77.5 -188t-82 -124t-78 -71.5q133 47 239.5 288.5t196.5 665.5q-109 -106 -217 -221
q-92 -98 -197.5 -219t-193.5 -242q-35 -92 -68 -200zM340 475q0 -2 4 -4q-2 7 -3 7t-1 -3zM475 -98q0 3 4.5 3t14.5 -3q18 -6 41 -17q25 -12 59 -28q90 -240 219 -420q55 -78 125 -149.5t156 -123.5t187 -78q65 -16 137 -17q39 0 81 5q-77 -23 -148 -23q-36 -1 -71 5
q-104 18 -197.5 68.5t-174.5 127t-148.5 161.5t-120.5 171t-89 154.5t-55.5 114t-19.5 49.5z" />
    <glyph glyph-name="S" unicode="S" horiz-adv-x="948" 
d="M-481 17q0 9 9 13q11 4 15 -7q18 -39 37 -75t31 -75q12 -37 26.5 -74t45.5 -65q41 -37 93 -55.5t107 -22.5q9 0 18 -1q45 0 91 9q54 10 108 31q106 37 199.5 100.5t173.5 143.5q160 158 276.5 353t170.5 415q4 16 16 12q12 -6 8 -21q-57 -233 -181 -437t-298 -365
q-86 -82 -187.5 -145.5t-218.5 -96.5q-57 -16 -119 -22q-20 -2 -40 -3q-40 0 -80 9q-59 12 -112.5 44.5t-90.5 81.5q-27 16 -46.5 43t-31.5 58q-14 37 -14 75zM-201 289q53 -86 115.5 -164t134.5 -128q72 -51 153 -63q17 -3 34 -2q65 0 137 37q90 47 189.5 165t207.5 327
q25 46 25 82q-1 11 -3 22q-10 43 -46.5 72t-94 45t-121 24.5t-125 10.5t-106.5 2q-35 0 -88 6t-106.5 22.5t-95.5 45t-54 71.5q-4 13 -4 27q1 33 21 77q28 62 118 144t250 187.5t412 236.5q33 -115 74.5 -171t80.5 -79q38 -23 77 -23q7 0 15 1q-51 -53 -97 -79t-88 -30
q-10 -1 -20 -1q-31 0 -59 10q-37 12 -67 34q-72 52 -129 152q-190 -100 -287 -183q-40 -35 -64 -71q-18 -26 -18 -49q0 -8 2 -16q8 -30 57.5 -53.5t153.5 -33.5q209 -23 344 -48.5t193 -80.5q43 -41 44 -105q0 -22 -6 -48q-20 -98 -120 -265q-131 -219 -268.5 -355
t-270.5 -164q-30 -6 -60 -6q-102 0 -200 74q-127 96 -240 343zM-66 983q4 53 50.5 123t151 156t294.5 186q-133 -90 -219 -162t-135 -129t-67.5 -99t-18.5 -73q2 -72 94 -106q-33 -8 -55 -17q-20 -8 -33.5 -16.5t-5.5 -14.5l1 -1q1 0 -13 12q-18 16 -34 52q-12 29 -11 69
q0 10 1 20z" />
    <glyph glyph-name="T" unicode="T" horiz-adv-x="821" 
d="M-440 1331l385 217q121 25 250 31q28 1 57 1q88 0 191 -9q137 -12 272 -62q90 -33 200.5 -81t222.5 -91t214 -71q85 -24 149 -25q14 0 27 2q74 6 109 56q21 30 21 83q0 35 -9 80q41 -89 41 -152q0 -12 -2 -24q-10 -70 -64 -106q-56 -38 -150 -46q-33 -3 -69 -3
q-67 1 -143 11q-118 16 -257 53.5t-282 90.5q-39 -78 -103.5 -214t-134 -298t-132 -337t-100.5 -331.5t-38 -281.5q-1 -124 57 -186q45 -48 133 -49q23 -1 49 3q124 16 337 140q-201 -134 -343 -184q-104 -37 -182 -36q-28 0 -52 4q-91 18 -136 99.5t-48 211.5v21
q0 123 32 280q34 171 99.5 368.5t160 417t210.5 444.5q-188 57 -363 61q-29 1 -57 1q-140 0 -253 -17q-158 -23 -299 -72zM-158 1339q156 45 281 59q102 11 184 10h36q95 -3 161.5 -15.5t103.5 -16.5t38 -11t-13.5 -15.5t-31.5 -17.5t-17 -17q0 -10 -57.5 7t-158 32.5
t-235.5 18.5h-20q-127 0 -271 -34zM-1 -311q-1 25 -1 49q0 98 16 196q37 242 112 476.5t193 451.5q4 4 10.5 6t10.5 -2q10 -4 0 -22q-123 -221 -196.5 -462t-106.5 -491q-10 -61 -11 -125v-25q0 -50 3 -99q2 -63 9 -126t17 -124q12 -59 29.5 -119.5t46.5 -116.5
q16 -29 32.5 -53.5t39.5 -44.5q47 -41 106 -40q27 14 50.5 27t52.5 29q29 18 63.5 35t61.5 45q10 10 18 3t4 -19q-23 -39 -54.5 -77t-78.5 -58q-46 -20 -95 -20q-1 1 -2 1q-50 0 -96 23q-31 14 -54 36.5t-42 49.5q-16 27 -30.5 54.5t-24.5 55.5q-43 117 -62 240
q-16 123 -21 246zM944 1402q-1 5 -1 8q0 4 2 4q1 0 1 -1q2 -2 48 -23.5t110 -43.5q63 -24 136 -42q69 -18 124 -17h6q57 1 88 29q19 17 19 50q0 20 -7 47q42 -69 42 -110q0 -16 -6 -28q-23 -41 -98 -51q-32 -4 -71 -5q-51 -1 -111 7q-108 12 -218 27q-18 23 -31.5 52.5
t-22 55t-10.5 41.5z" />
    <glyph glyph-name="U" unicode="U" horiz-adv-x="1103" 
d="M-76 176q10 186 49 365q10 45 23.5 89t32.5 87q18 45 45 82q12 18 35 35q10 8 23 12t30 0q6 -2 8 -8.5t-2 -10.5q-6 -10 -14 -6q-16 4 -34 -10t-28 -33q-14 -18 -23.5 -37.5t-19.5 -42.5q-16 -43 -29.5 -88t-23.5 -92q-20 -92 -30.5 -184t-14.5 -187l-2 -68q0 -60 5 -119
q7 -93 34 -181q14 -45 36.5 -85t57.5 -67q34 -27 78 -27h2q45 0 86 17q16 16 33.5 31.5t37.5 27.5q23 16 49.5 25.5t49.5 28.5q8 6 16 -1.5t4 -15.5q-16 -31 -38.5 -59.5t-57.5 -44.5q-33 -16 -68.5 -21.5t-70.5 -11.5q-23 -4 -48.5 -3t-48.5 11q-45 18 -77 58
q-31 37 -48.5 81t-29.5 89q-19 92 -25 182q-3 52 -4 105q0 38 2 77zM-39 378.5q0 194.5 92 482.5t250 667l207 -103q-195 -385 -285 -688q-39 -129 -57 -252q-10 -65 -10 -123q0 -51 8 -97q16 -97 77.5 -155.5t184.5 -58.5q72 0 130 50.5t100 118t70 135t38 100.5
q18 119 46 255t69 279.5t94 289.5t125 286l194 -111q-186 -375 -288 -723q-43 -150 -73 -307.5t-32 -307.5v-17q0 -141 32 -270q34 -136 118 -243q-14 12 -37 36t-48.5 53.5t-55 64.5t-56.5 70q-66 82 -139 176q0 25 2 57q2 29 5 68t9 88q-27 -41 -58.5 -80t-71.5 -69
t-88 -47t-103 -17q-238 0 -343.5 99t-105.5 293.5zM190 492q4 98 19.5 197t40.5 194q55 219 153 454l46 37q16 14 31.5 26.5t19.5 12.5q2 0 -29 -65.5t-74 -172t-88 -241.5t-72.5 -276.5t-27.5 -274.5t47 -233q-42 70 -56 158q-12 70 -11 147q0 18 1 37zM795 44q0 3 6 13
q8 6 16 -2q31 -53 53.5 -107t49.5 -108q27 -53 51 -105t53 -106q29 -51 59.5 -101t67.5 -95q18 -23 37.5 -44.5t42.5 -37.5t48.5 -25.5t51.5 -5.5q10 12 16.5 21.5t16.5 17.5q10 10 27.5 15t27.5 22q4 4 13.5 0t9.5 -12q0 -23 -9.5 -47.5t-33.5 -38.5q-21 -12 -44 -12h-7
q-26 2 -50 7q-33 4 -58.5 20.5t-47.5 35.5q-41 39 -78 88q-35 47 -63.5 96t-57.5 100q-53 96 -100 205q-25 50 -47 104zM975 143q-4 71 -4 140q0 97 8 191q14 161 41 301t59.5 257t61 201t48 130t17.5 46t11.5 7t31 15.5t31.5 14.5q10 4 13 4h1q0 -2 -23.5 -50t-58 -134
t-75.5 -206t-77 -264.5t-59.5 -310.5t-25.5 -342z" />
    <glyph glyph-name="V" unicode="V" horiz-adv-x="872" 
d="M-291 102q0 10 10.5 12.5t14.5 -5.5q16 -27 33.5 -49.5t21.5 -26.5q4 -10 33 -4q25 2 49 24q4 6 12 15l4 4v2l2 2l5 6q4 10 8 18.5t8 18.5q8 18 13 36.5t9 39.5q10 41 14.5 79.5t8.5 79.5t6 81t6 81q6 66 6 131v33q0 82 1 163t12 165q6 41 14 80.5t25 80.5q14 39 35.5 75
t54.5 65q10 8 18 -4q6 -8 -2 -17q-31 -29 -51.5 -62.5t-34.5 -74.5q-14 -39 -22.5 -80t-12.5 -82q-10 -84 -10 -167v-169v-43t-2 -43q-2 -20 -3 -40.5t-3 -43.5q-4 -41 -7 -84t-8 -84q-4 -43 -11 -85t-17 -85q-6 -20 -14.5 -40.5t-20.5 -38.5q-14 -20 -29.5 -35t-36.5 -29
q-6 -10 -15 -19.5t-23 -13.5q-16 -6 -36 -3t-34 16q-16 16 -21.5 32.5t-7.5 30.5q-2 16 -1 29.5t-1 27.5zM-11 859v21q0 128 11 248q12 129 42 238t81 180l180 -125q-35 -260 -51 -510q-6 -106 -9 -222q-2 -58 -1.5 -115.5t1.5 -115.5q3 -114 15 -221.5t35 -197.5l831 1460
l29 -108l-926 -1643l-143 152q-61 360 -84 682q-10 137 -11 277zM233 -238l216 494l83 66q145 299 302 546q66 106 140.5 212t154 195t160.5 155.5t159 95.5q-74 -37 -166 -132.5t-191.5 -226.5t-202 -285.5t-196.5 -310.5q-223 -367 -459 -809z" />
    <glyph glyph-name="W" unicode="W" horiz-adv-x="1196" 
d="M-111 131v40q0 246 23 437q25 207 63.5 360.5t84.5 257t86 167t67 93.5t27 34q0 6 -6.5 -23t-14.5 -65q-8 -43 -18 -99q-72 -49 -133 -192q-27 -61 -53.5 -150.5t-50 -212.5t-43 -282.5t-32.5 -364.5zM-27 -109q-3 109 -3 215q0 243 16 467q10 137 28.5 278.5t48 270.5
t73.5 236.5t106 179.5l164 -125q-68 -195 -117 -397q-20 -86 -39 -181.5t-31 -193.5q-12 -99 -14 -197v-32q0 -81 8 -156l451 942q29 104 68.5 192.5t90.5 147.5l2 -2l2 4l2 -6l158 -121q-61 -184 -104 -377q-18 -82 -35 -174t-26 -187t-10 -191v-18q0 -87 9 -169
q311 745 664 1219q100 133 210.5 251.5t230.5 206.5t247 136q116 44 237 45q11 -1 23 -1q133 -4 269.5 -71.5t275.5 -210.5q-154 140 -304 192q-115 41 -227 40q-33 0 -65 -4q-144 -16 -281 -92.5t-265 -194t-245.5 -270t-222.5 -320.5q-371 -592 -692 -1483l-121 151
q-5 114 -5 237q0 41 1 83q2 143 12 319.5t37 356.5l-506 -1145zM793 231q0 -1 -1 -1q-2 0 13 56q16 62 53 169.5t94.5 252t136 305.5t177 328.5t219.5 323.5q-160 -250 -268.5 -478.5t-176.5 -406.5q-80 -207 -129 -389q-31 -39 -55 -74q-23 -29 -41 -55.5t-22 -30.5z
M2494 2114q0 12 17 12q14 1 28 1q41 -1 81 -9q56 -12 104 -35q49 -23 92 -55.5t84 -69.5q39 -37 76 -76t74.5 -77t76.5 -72.5t84 -61.5t94.5 -42t100.5 -23q42 -6 84 -6h22q52 2 101 18q47 14 87 47t58 80q17 41 17 86v13q-3 52 -21 100q-39 37 -66 77q-18 25 -33.5 51.5
t-41.5 43.5q-10 6 -6 16q3 8 11 8h3q41 -8 77 -31.5t58 -60.5q20 -39 26.5 -78t12.5 -78q6 -29 5 -59q0 -24 -3 -48q-8 -54 -43 -99q-33 -45 -81 -70t-99 -35q-44 -8 -88 -8h-18q-52 2 -105 12q-51 10 -100.5 29.5t-92.5 52.5q-86 59 -155.5 137t-145.5 146q-37 35 -78 63.5
t-88 50.5q-82 36 -169 36q-13 0 -25 -1q-14 0 -15 15z" />
    <glyph glyph-name="X" unicode="X" horiz-adv-x="743" 
d="M-360 -127q29 20 108 109q33 37 81 93t113.5 137t150.5 187.5t194 245.5q-31 127 -52.5 251t-34 238.5t-18.5 215t-6 178.5l197 -115q2 -76 10 -168q6 -78 18.5 -182.5t34.5 -224.5q111 143 240 314t282 376l66 -49q-39 -61 -100.5 -144.5t-136 -178.5t-160.5 -200.5
t-174 -214.5q33 -164 84 -336t126.5 -327.5t179 -280.5t241.5 -193q132 -65 295 -65q7 0 15 1q173 3 388 104q-216 -123 -396 -153q-75 -13 -144 -13q-98 0 -184 25q-148 42 -266 144.5t-210.5 246t-160 315.5t-114.5 352q-117 -143 -220 -278.5t-178 -246t-111 -188.5
q-23 -50 -23 -81q0 -18 8 -29zM238 944v17l4 20t12 20t20 0q4 -4 2 -10q-2 -4 -6 -8v-2q-6 -8 -6 -23.5t2 -31.5t4 -32.5t6 -33.5q6 -35 14.5 -65.5t14.5 -65.5q18 -66 37.5 -128t42.5 -128q39 -129 83 -255t93 -253q49 -123 104.5 -244.5t120.5 -238.5q33 -59 69 -115.5
t77 -109.5t87 -99.5t101 -81.5q33 -6 62.5 -13t58.5 -11q37 -4 74 -5h4l70 19q10 6 18 -1t-2 -17q-37 -39 -86 -58q-25 -10 -53 -11h-6q-26 0 -52 9q-53 14 -91 48t-75 65q-100 86 -172.5 194.5t-136.5 225.5q-59 117 -111.5 234.5t-101.5 240.5q-47 121 -88 243.5
t-80 245.5q-20 63 -38.5 126t-34.5 124q-10 31 -17.5 62.5t-11.5 64.5q-4 16 -6 32.5t-4 33.5q-2 8 -2 16zM322 692q133 131 233 234q43 43 84 85t71.5 73.5t48 51t13.5 17.5t16.5 25.5t64.5 69.5t109.5 90t147.5 86t178 60q62 14 129 13q37 0 76 -4q-117 -2 -229.5 -48
t-215 -120t-193.5 -166t-168 -185t-137.5 -178t-98.5 -145q-35 -16 -58.5 -10t-40.5 16q-18 12 -30 35zM419 1049q3 127 21 274v-40q0 -78 6 -182q8 -132 30 -284.5t62 -316.5t99 -317.5t142 -288t194 -226.5q-18 -2 -36 -2q-22 0 -44 3q-39 5 -68 16q-35 8 -63 24
q-92 260 -162 463q-31 86 -59.5 170t-51 148.5t-36 103.5t-13.5 37q0 -4 -7 49q-7 54 -12 148q-3 59 -3 130q0 43 1 91z" />
    <glyph glyph-name="Y" unicode="Y" horiz-adv-x="1026" 
d="M-1282 -843q0 52 10 104q10 55 25 102q4 12 8 24.5t8 24.5q6 12 12.5 23.5t12.5 23.5q25 47 54.5 89t64.5 81q70 78 155.5 139.5t190.5 84.5q6 2 11 -3.5t5 -9.5q0 -10 -12 -14q-102 -23 -187.5 -86.5t-154.5 -140.5q-35 -41 -63.5 -84t-51.5 -90t-36 -97.5t-21 -101.5
q-4 -31 -4 -62q0 -20 2 -42q4 -52 20 -99q16 -49 48 -90t75 -66q45 -29 95 -38q35 -6 70 -6q16 0 32 1q53 4 101 21.5t95 42.5q31 43 74 74q25 20 53.5 34.5t50.5 38.5q8 8 17.5 2t5.5 -16q-16 -35 -40 -68.5t-58 -56.5q-35 -23 -73 -33t-73 -26q-49 -20 -101 -31
q-39 -9 -78 -9q-14 0 -28 1q-53 4 -104 21.5t-92 52.5t-67.5 82t-39.5 98q-12 53 -12 105zM-1122 -428q76 127 180 206t224 121t251 53q69 6 137 6q62 0 123 -5q129 -10 252 -36t225.5 -54.5t181 -58t119.5 -46.5l-2 2q6 59 17 134q10 63 22.5 149t32.5 190
q-66 -72 -157 -117.5t-214 -45.5q-139 0 -213.5 50t-94.5 142q-9 36 -9 78q0 65 19 144q32 130 105 292t184.5 349.5t252.5 394.5l154 -95q-231 -360 -359 -641q-53 -121 -89 -236q-37 -117 -37 -208q0 -87 43 -142q44 -55 151 -55q94 0 166.5 65.5t126.5 162.5
q29 139 67.5 292.5t89 308t111.5 303t137 279.5l189 -122q-195 -412 -322 -791q-55 -162 -100 -332t-68 -329q-21 -137 -21 -261q0 -21 1 -41q4 -143 51 -249q-27 35 -103.5 84t-188.5 100t-251 99t-289.5 81t-304.5 44q-51 4 -101 4q-101 0 -199 -15q-144 -23 -270 -83
t-220 -171zM-623 -170q4 0 37 11.5t72 27.5l102 41q31 3 64 3q114 0 250 -38q74 -23 164 -59.5t193 -97t219 -145.5t243 -204q-182 147 -354 239.5t-321.5 143.5t-273.5 69.5t-212 20.5h-37q-62 0 -99 -5q-49 -7 -47 -7zM-104 424q16 102 56 209.5t98.5 214t122 204
t126.5 182.5t113.5 146.5t81 97t28.5 35.5t-14 -22.5t-28.5 -57t-36 -74.5t-36 -73t-26.5 -54.5t-10 -19.5t-39 -35.5t-95.5 -106.5t-121 -164t-116.5 -204.5t-82 -229.5q-21 -84 -21 -168q0 -36 4 -73q-11 50 -11 104q0 43 7 89z" />
    <glyph glyph-name="Z" unicode="Z" horiz-adv-x="784" 
d="M-726 1344q-1 11 -1 23q0 108 61 267q-30 -119 -30 -207q0 -63 16 -111q37 -114 131 -160q80 -39 192 -40q21 0 41 2q138 8 289 49q354 94 844 353l213 -103q-111 -322 -254 -600q-61 -119 -136 -238.5t-161 -225t-184.5 -189.5t-204.5 -129q33 -37 93.5 -96.5t140 -126
t176 -133t200.5 -115.5q106 -48 216 -72q64 -14 127 -14q47 0 93 7q110 17 214 82.5t196 199.5q-90 -145 -198 -222t-224 -100q-58 -12 -117 -11.5t-120 11.5q-121 23 -239 73t-227.5 119.5t-201.5 142.5t-164.5 139.5t-115.5 109.5q-6 2 -25.5 16t-42.5 31q-25 20 -53 43
q137 35 293 180q66 61 142.5 154.5t160.5 224.5t173 306t179 400q-86 -45 -208 -97t-260 -98t-281.5 -80t-273.5 -43q-38 -3 -75 -3q-86 -1 -160 15q-106 22 -166.5 87t-67.5 179zM-713 1399q0 109 31 207q27 106 96.5 190t161.5 137t194.5 80t209.5 31q104 0 208.5 -31
t186.5 -102q55 -16 90 -70q20 -29 26.5 -62.5t16.5 -64.5q4 -12 -5.5 -17t-15.5 5q-23 29 -47 55.5t-43 59.5q-18 29 -36.5 58.5t-49.5 49.5q-84 55 -180 75q-69 15 -139 15q-27 0 -55 -2q-205 -10 -373 -121q-84 -53 -144.5 -132t-81.5 -175q-12 -47 -18 -97t-8 -99
q0 -45 10 -97q6 -25 16.5 -46t26.5 -36q4 -4 4 -10t-2 -10q-12 -8 -20 4q-23 20 -34 45t-18 53q-8 47 -8 107zM381 111q162 188 258 380.5t149 352.5q61 186 84 358q47 55 84 101q32 37 56 69q21 27 21 30q0 1 -1 1q-2 0 -16.5 -64.5t-45 -172t-79.5 -244t-121 -280.5
t-168 -282.5t-221 -248.5z" />
    <glyph glyph-name="bracketleft" unicode="[" horiz-adv-x="1802" 
d="M78 658.5q8 97.5 52 194.5t132 174t225.5 126t329.5 49q172 0 311.5 -49t244 -131t173 -191.5t102 -230.5t31.5 -246t-41 -239q-23 106 -50 191t-68 183q-80 186 -171.5 302t-172 180.5t-141.5 87t-81 26.5q18 -4 70.5 -16t121 -46t145.5 -93.5t147 -157.5
q-41 74 -94.5 137.5t-128 111.5t-175 74.5t-233.5 24.5q-133 -4 -231.5 -29.5t-172.5 -66.5q-23 -16 -43 -36.5t-38 -43.5q-23 -29 -38.5 -59.5t-25.5 -65.5q-8 -35 -13 -70.5t-5 -70.5q2 -27 15 -49.5t24 -40.5q10 -18 17 -38t28 -42q4 -4 1 -15.5t-12 -7.5
q-27 8 -53.5 20.5t-40.5 41.5q-20 45 -2 88q-4 37 -2 76t10 75q4 35 17.5 70t31.5 66q-57 -66 -83.5 -140.5t-31.5 -148.5t10 -139.5t43 -113.5t64.5 -71.5t77.5 -13.5q47 12 75 32.5t41 44t14 48t-5 49.5q-14 55 -65 119q27 -18 49 -43q18 -23 36.5 -52.5t24.5 -70.5
t-19.5 -92t-74.5 -79t-116.5 -16.5t-143.5 97.5q-49 57 -74.5 143t-17.5 183.5z" />
    <glyph glyph-name="backslash" unicode="\" horiz-adv-x="14" 
d="M-1034 -553q72 72 211 113q59 18 138 30.5t181.5 14.5t230.5 -9.5t283 -39.5q205 -41 392.5 -46.5t332.5 5.5q170 10 316 36q-203 -43 -400 -65q-84 -10 -175 -18.5t-181 -10.5t-175 3t-159 22q-137 29 -252 42t-210 16t-172 -3t-136 -16q-139 -25 -225 -74z" />
    <glyph glyph-name="bracketright" unicode="]" horiz-adv-x="1802" 
d="M117 349.5q-2 125.5 31.5 247.5t103.5 231.5t175 192.5t244.5 132t313.5 49q195 0 332 -49t226 -127t133 -176t51.5 -194.5t-18.5 -183.5t-75 -144q-76 -86 -143.5 -98.5t-116.5 16t-75.5 80t-20.5 92.5t24.5 70.5t38.5 52.5q23 25 50 43q-51 -63 -66 -119
q-6 -25 -5 -49.5t14.5 -48t41 -44t74.5 -32.5q41 -12 78 12.5t64.5 72.5t43 114.5t11 140.5t-32 148.5t-84.5 140.5q18 -31 31.5 -66t17.5 -70q8 -37 10 -75.5t-2 -77.5q18 -43 -2 -88q-14 -29 -40.5 -41.5t-53.5 -20.5q-8 -4 -11 7.5t1 15.5q20 23 27.5 42t17.5 38
q10 18 23.5 40.5t15.5 51.5q0 35 -5.5 70.5t-13.5 70.5q-10 35 -25.5 65.5t-37.5 59.5q-18 23 -39 43.5t-43 38.5q-74 41 -173.5 66.5t-232.5 29.5q-135 2 -235.5 -24.5t-176 -74.5t-130 -112.5t-93.5 -138.5q70 98 148 158.5t146.5 94.5t121 46t70.5 16q-20 -4 -80.5 -27.5
t-142.5 -88t-173.5 -181t-170.5 -303.5q-41 -98 -69 -184t-52 -192q-39 115 -41 240.5z" />
    <glyph glyph-name="asciicircum" unicode="^" horiz-adv-x="729" 
d="M29 1161q10 -8 40.5 11.5t70.5 53.5t83 73.5t79 74.5t59.5 57.5t23.5 20.5q0 -4 13.5 -29.5t36 -59.5t53 -71t65.5 -63.5t71.5 -36.5t73.5 10q0 -6 -14 -23.5t-40 -34t-61.5 -23.5t-79.5 7.5t-95.5 56.5t-106.5 128q-23 -29 -58.5 -60.5t-70.5 -58.5q-41 -31 -86 -61
q-18 8 -31 16q-10 6 -20 10t-6 2z" />
    <glyph glyph-name="underscore" unicode="_" horiz-adv-x="12" 
d="M-1475 -827q8 35 28 64.5t42 53.5q47 49 105.5 86t117.5 66q18 10 36 18.5t38 16.5q-86 -16 -142.5 -32.5t-90.5 -33.5q-39 -18 -64 -37q74 92 252 154q76 27 183.5 48.5t252 32.5t329.5 8t419 -26q465 -47 795.5 -30.5t541.5 55.5q248 45 406 119q-121 -59 -283 -113
q-139 -45 -337 -89t-454 -66q178 -2 355.5 14t324.5 63q-113 -49 -271.5 -73.5t-335.5 -31.5t-356 -1t-333 16t-267.5 22.5t-156.5 18.5q-217 12 -372.5 10t-272.5 -14q-115 -33 -223 -92q-59 -31 -114.5 -71t-94.5 -93q-18 -27 -27.5 -57.5t-5.5 -63.5q12 -63 64 -108
q49 -43 116.5 -56.5t132.5 -9.5q68 4 134.5 16.5t132.5 30.5q57 43 122 66q39 16 79 25.5t75 31.5q12 8 20.5 0t-1.5 -18q-33 -37 -76 -67t-92 -46t-98.5 -21.5t-98.5 -15.5q-66 -16 -132.5 -23t-133.5 -3q-72 4 -133 30q-33 14 -60.5 37t-46.5 51q-18 29 -27.5 66t-1.5 72z
M-1098 -745q72 72 211 112q59 18 138 30.5t181.5 14.5t230.5 -9t284 -40q182 -35 352 -43t307 -2t232.5 18.5t130.5 18.5q-27 -6 -91.5 -17.5t-153.5 -24.5t-195.5 -25.5t-217 -18.5t-218 -2t-195.5 22q-137 29 -252 42.5t-210 16.5t-172 -3.5t-136 -16.5q-140 -24 -226 -73
zM969 -645q4 0 6 1t6 1t6 2q-2 -2 -6 -2t-6 -1t-6 -1z" />
    <glyph glyph-name="grave" unicode="`" horiz-adv-x="602" 
d="M43 1386q33 10 70 19q33 8 75.5 14t96.5 8q12 -37 60 -75.5t107.5 -73.5t117 -62.5l92 -44t32.5 -18.5t-61 16q-92 27 -195.5 64t-191.5 72q-102 39 -203 81z" />
    <glyph glyph-name="a" unicode="a" 
d="M-43 57q72 422 166 672q39 106 88 186q49 81 105 103q17 7 35 6q39 0 83 -34q64 -50 135 -204l-2 -6q27 -25 57 -43q27 -16 55 -16h7q43 0 80 20.5t53 61.5q16 38 16 80q0 45 -12 90q-20 84 -69 162q-23 39 -50.5 72.5t-62.5 62.5t-74 50t-82 28q-41 -18 -79 -27
q-23 -6 -47.5 -10t-47.5 -21q-8 -6 -15 1.5t-3 15.5q14 29 43 55.5t70 30.5q9 1 18 1q28 0 54 -10q34 -14 65 -24q86 -35 148.5 -101.5t105.5 -144.5q20 -41 35.5 -82t23.5 -88q4 -29 4 -59q0 -15 -1 -31q-3 -47 -30 -88q-25 -41 -73 -57q-23 -8 -45.5 -12.5t-46.5 -0.5
q-51 6 -85 35t-63 70q-48 57 -85 57q-8 0 -16 -2q-42 -16 -78 -102t-73 -235.5t-82 -350.5l299 545q2 6 4 13t4 15l189 -131q-16 -37 -41 -97t-47.5 -131t-40 -144.5t-21.5 -137.5q-1 -16 -1 -31q1 -44 9 -77q12 -46 46 -58q11 -4 26 -4q30 0 74 18q64 26 164 107
q-138 -139 -246 -190q-57 -27 -101 -27q-41 0 -71 22q-64 46 -72 196q-1 19 -2 39q0 143 58 374l-269 -539l-4 13q0 -4 -1 -5t-1 -4zM-41 57q-1 0 -1 8q0 11 2 43q3 52 13.5 135t28.5 186t47 208.5t70 201t98 162.5q-35 -55 -62.5 -121.5t-49 -138t-37 -145.5t-25.5 -141
q-25 -160 -33 -330q-12 -20 -22 -35q-10 -12 -18.5 -22.5t-10.5 -10.5zM339 125q9 92 25.5 173t33 135t18.5 54l-4 -98q-2 -43 -6 -98q-33 -131 -37 -236q-1 -13 -1 -26q0 -32 4 -62q5 -43 20.5 -77.5t44 -58.5t71.5 -28q-19 -3 -36 -3q-53 0 -82 34q-38 45 -49 122
q-6 42 -6 89q0 39 4 80z" />
    <glyph glyph-name="b" unicode="b" horiz-adv-x="765" 
d="M-437 1398q-1 6 -1 12q0 19 8 38q8 23 23.5 40t31.5 30q16 12 34.5 20t37.5 18q47 23 97 34.5t104 15.5q23 2 44 2q32 0 60 -4q27 -4 52.5 -12.5t47.5 -18.5q49 -23 92.5 -50.5t84 -58t82.5 -59.5t88 -49q45 -23 93 -35q36 -9 73 -9q12 0 24 1q49 2 97 16t83 49
q35 31 44 80q3 14 3 28q0 33 -16 62q-25 40 -72 58q-38 14 -77 15l-17 -1q-6 -2 -10 3t-4 9q0 12 14 13q29 4 56.5 -0.5t54.5 -16.5q27 -10 48 -29.5t34 -46.5q14 -26 16 -56q0 -6 1 -12q0 -23 -7 -44q-16 -55 -64 -94q-47 -34 -100 -48q-47 -13 -95 -12h-14
q-56 2 -108.5 17.5t-97.5 44.5q-47 25 -90.5 56.5t-86.5 61t-87 56t-93 43.5q-49 16 -101 16t-104 -6q-49 -8 -98 -24.5t-88 -49.5q-23 -49 -25 -86q-4 -23 -5 -51.5t16 -56.5q6 -10 -2.5 -17.5t-16.5 0.5q-35 29 -51 64q-10 20 -13 44zM6 143q20 150 62 334q35 158 93 370
t148 460q45 123 92.5 199.5t94.5 118.5q47 43 92 55q30 8 59 8q14 0 27 -2q96 -14 186 -115q-53 41 -108 41q-13 0 -25 -2q-29 -6 -61.5 -25.5t-67.5 -59.5t-70.5 -105.5t-68.5 -164.5q-88 -264 -142.5 -466.5t-87.5 -358.5q51 156 110.5 267.5t113.5 185.5q61 84 122 143
l7 -12q0 2 1 4t1 6l180 -125q-45 -406 -123 -651q-33 -104 -76 -183t-97 -103q-19 -9 -39 -9q-39 0 -81 30q-66 46 -143 191q-8 -29 -15.5 -60.5t-15.5 -64.5q-2 -41 -2 -74q0 -25 1 -45q3 -47 7 -75q6 -35 15 -52zM195 938q0 -2 7 42t22.5 114.5t38 156.5t52 166
t67.5 143.5t83 92.5q-29 -25 -51.5 -63t-42 -84t-34.5 -96t-28 -99q-29 -115 -45 -248q-20 -33 -35 -59q-14 -23 -24 -42.5t-10 -23.5zM223 238q27 -51 54.5 -89t54 -44.5t54.5 26.5t56.5 123t59 244.5t63.5 390.5q-31 -29 -71.5 -81t-87 -131t-93.5 -187.5t-90 -251.5z
M389 -90q18 -6 35 -6q27 0 51 16q39 26 69.5 77.5t55.5 123.5t43 149q43 182 66 424q14 45 26 82q11 32 19 56q6 17 5 21q0 2 0 1h-1q-2 -2 -6 -48t-13.5 -120t-24 -167t-35 -186t-48 -180t-63.5 -148.5t-80 -89.5q-24 -15 -52 -15q-22 0 -47 10z" />
    <glyph glyph-name="c" unicode="c" horiz-adv-x="632" 
d="M-6 188v28q0 48 5 92q7 58 17.5 104.5t18.5 70.5q4 10 7 16.5t-1 6.5t1 -11.5t11 -25.5q8 -16 19 -35q-33 -117 -37 -221q-1 -13 -1 -26q0 -32 4 -64q5 -45 20.5 -87t43 -76t70.5 -54q-66 20 -103.5 64t-55 100t-19.5 118zM2 340q6 78 25 154q41 176 141 374l342 166
l14 10v-4l11 4q-4 -2 -6.5 -4t-6.5 -4q-6 -13 -6 -47v-19q2 -50 24 -100q21 -48 66 -78q26 -17 63 -18q28 0 62 10q-59 -74 -115 -104q-41 -21 -77 -21q-14 -1 -27 3q-47 12 -83 62t-56 136q-63 -102 -109 -220t-64 -228q-11 -68 -10 -129q0 -38 4 -73q12 -91 58 -138
q31 -33 60.5 -39t55 4t48 34.5t41.5 55.5q43 70 78 182q-37 -135 -91 -229q-23 -41 -50 -75t-61 -54.5t-75 -21.5h-3q-40 0 -83 26q-72 41 -110 101q-38 62 -52 134q-10 51 -10 105q0 22 2 45z" />
    <glyph glyph-name="d" unicode="d" horiz-adv-x="761" 
d="M-78 1478q0 5 -1 11q0 21 5 41q6 25 16.5 45t22.5 43q31 55 85 90t116 45q37 7 73 8q25 0 49 -4q62 -8 120 -31q59 -23 109 -57.5t97 -71.5q47 -39 93.5 -77.5t93.5 -73.5t99 -62.5t110 -40.5q39 -8 77 -8q19 0 37 2q61 6 113 31q25 12 45.5 30.5t30.5 45.5t8 54.5
t-12 53.5q-23 57 -62 97q-20 20 -44.5 34.5t-49.5 10.5q-12 -4 -16 8q-4 4 1 10t15 8q18 4 35.5 -2t32.5 -14q14 -10 27.5 -20.5t23.5 -22.5q43 -45 65 -111q10 -31 10 -63q0 -36 -18 -68q-16 -33 -44 -53t-56 -31q-61 -23 -126 -27q-10 -1 -19 0q-55 0 -109 17
q-61 18 -115.5 51t-103.5 72q-51 39 -98.5 79t-96.5 79q-47 37 -100 67.5t-113 44.5q-57 16 -116 16h-4q-60 0 -115 -24q-55 -23 -97.5 -67t-52.5 -101q12 -59 43 -90q16 -18 46 -34q24 -13 54 -14q7 0 15 1q12 2 15 -9.5t-7 -15.5q-23 -10 -46.5 -15t-49.5 -1
q-27 4 -53.5 18.5t-40.5 42.5q-15 27 -17 53zM-4 88q45 406 121 649q33 104 75 183t96 104q20 9 40 9q38 0 80 -28q66 -44 143 -186q35 123 78 265t98 298q45 123 92 200t94.5 119t92.5 54q30 8 58 8q14 0 28 -2q96 -14 188 -114q-53 41 -108 41q-13 0 -25 -2
q-29 -6 -61.5 -26t-67.5 -59.5t-71 -105t-68 -164.5q-35 -100 -63 -189t-50 -171q-18 -74 -37.5 -165t-36 -192.5t-29.5 -212t-14 -223.5q-8 82 -8 162t4 154q-39 -186 -48 -304q-6 -82 -6 -140q0 -26 1 -48q4 -82 22 -123l-190 340q0 12 4 31q4 16 7 37.5t9 50.5
q-47 -98 -93 -169t-83 -118q-43 -53 -84 -90l-6 12q0 -4 -1 -5t-1 -5zM12 128q-1 17 -1 38q0 32 2 76q3 72 11.5 167t27 195.5t48 196.5t74.5 174q-47 -109 -70.5 -244t-33.5 -258q-12 -143 -13 -287q-10 -23 -18 -43q-8 -16 -13.5 -31.5t-9.5 -21.5q-2 -4 -4 38zM195 96
q29 29 67.5 77t81.5 120t88 169t86 226q4 16 8 31.5t9 32.5q-27 51 -54.5 88t-54.5 42q-3 1 -7 1q-23 0 -47 -30q-26 -34 -54.5 -124t-59 -245t-63.5 -388zM537 184l-1 1q0 3 4 5q5 4 9 3h5q7 0 7 -5q23 -104 43.5 -207.5t54.5 -203.5q16 -49 36 -97.5t46 -93.5
q29 -45 66 -75q20 -14 43.5 -20.5t46.5 -2.5q18 27 35 37q10 6 27.5 8t29.5 12q5 4 13 -3q7 -6 6 -11q0 -19 -16 -44q-12 -19 -36 -28q-17 -6 -33 -6q-6 0 -12 1q-22 3 -43 5q-29 4 -53 17.5t-45 31.5q-18 18 -33.5 40t-29.5 44q-25 47 -44 95.5t-34 97.5
q-31 98 -52.5 198.5t-39.5 200.5z" />
    <glyph glyph-name="e" unicode="e" horiz-adv-x="622" 
d="M-330 -404q-4 44 -4 87q0 61 8 122q10 53 27.5 101.5t38.5 95.5q23 47 49.5 93t54.5 87q59 86 136 158t170 121q14 6 18 -6q4 -4 0 -9.5t-8 -9.5q-92 -49 -168 -122.5t-135 -159.5q-57 -84 -103 -185q-23 -49 -37 -98q-4 -12 -7 -25.5t-5 -23.5q-4 -14 -5 -26.5t-3 -26.5
q-4 -42 -4 -83q0 -63 9 -126q15 -105 62 -199q23 -47 56 -87t78 -65q41 -26 89 -26q3 1 5 1q51 2 96 23q31 39 72 74q25 23 51.5 38t48.5 42q8 8 17.5 3t5.5 -15q-12 -37 -34 -73t-59 -60q-35 -23 -72.5 -33t-78.5 -19q-25 -6 -51 -6q-29 0 -58 8q-51 14 -92 54
q-41 35 -69.5 80t-47.5 94q-41 98 -51 202zM-8 156q-2 27 -2 53q0 33 3 61q5 52 9 68l10 51q-2 0 -1 -25.5t3 -54.5q2 -35 6 -78q-3 -26 -3 -51q0 -47 12 -90q14 -55 56 -106.5t132 -67.5q-82 2 -130 39t-69.5 89t-25.5 112zM-1 206q-4 35 -4 70q0 40 5 80q10 78 33 154
q51 176 162 375l348 164l16 12l-2 -2v-4l10 6l-10 -10q-5 -23 -15 -83q-9 -53 -9 -112q1 -8 1 -16q2 -68 20.5 -124.5t72.5 -68.5q8 -2 22 -2h10q11 -2 11 -5q0 -2 -7 -4q-16 -5 -56 -14.5t-95 -23.5t-113.5 -34.5t-112 -49.5t-87.5 -68q-21 -93 -21 -172q0 -20 1 -40
q7 -95 54 -146q31 -33 60 -40t55.5 4t50 35t43.5 54q47 70 88 183q-45 -135 -102 -230q-25 -41 -55.5 -74.5t-65.5 -53t-75 -20.5h-2q-38 0 -83 25q-70 41 -104.5 101.5t-43.5 133.5zM211 494q35 29 91 65.5t142 77.5q-47 31 -63 88t-19 104q-53 -78 -91 -163.5t-60 -171.5z
" />
    <glyph glyph-name="f" unicode="f" horiz-adv-x="364" 
d="M-84 -307q49 289 113 581q27 125 58.5 262.5t67 276.5t75.5 276.5t83 262.5q51 152 105.5 237.5t107.5 123.5q49 36 96 36h5q49 -2 92 -29q102 -61 199 -239q-74 113 -152 143q-25 9 -52 9q-9 0 -18 -1q-37 -4 -75.5 -37.5t-77.5 -101.5t-76 -182q31 41 63 65
q27 21 54 21q6 0 11 -1q32 -5 61.5 -44t54.5 -125q-25 49 -63 58q-11 3 -22 3q-28 0 -58 -16q-42 -23 -86 -75t-83 -128q-74 -291 -126 -518t-85.5 -402.5t-54 -302.5t-29.5 -215q-12 -103 -12 -173t12 -105zM2 -416q-1 1 -1 2q0 2 2 4q3 4 7 7q10 6 15 0q31 -55 50 -111.5
t42 -114.5q18 -57 37.5 -113.5t42.5 -111.5t47 -109.5t57 -103.5q33 -53 74 -88q23 -18 47 -29.5t53 -7.5q20 23 41 35q14 8 31.5 10t32.5 14q4 4 13 -3q7 -6 7 -11q0 -15 -20 -47q-15 -23 -41 -31q-15 -5 -30 -5q-12 0 -23 3q-25 6 -48 10q-31 6 -56.5 22.5t-47.5 39.5
q-20 23 -36.5 47.5t-33.5 48.5q-29 51 -52.5 104.5t-45.5 108.5q-20 53 -40 108.5t-38 108.5q-20 55 -38.5 109.5t-47.5 103.5zM140 -250v37q0 56 2 111q3 75 10 145q12 164 36 336q33 106 60 188q23 72 42 127t19 51t-13 -77.5t-31.5 -188t-40 -257t-38 -282t-23.5 -260.5
q-3 -57 -3 -104q0 -53 4 -94q-12 57 -17.5 125.5t-6.5 142.5z" />
    <glyph glyph-name="g" unicode="g" horiz-adv-x="731" 
d="M-1067 -978q2 30 10 56q8 29 19.5 52.5t23.5 48.5q8 16 18.5 14t6.5 -18q-15 -59 -15 -114q0 -53 21 -99q18 -45 58 -84t96 -60q76 -27 155 -37q56 -7 112 -7q23 0 46 1q162 10 305 74q147 66 257 183.5t181 258.5q78 141 132.5 291t103.5 303q25 76 37 155t25.5 155.5
t34 152.5t58.5 148q10 20 23 12q10 -10 -2 -29q-41 -74 -60.5 -150.5t-34 -156.5t-27.5 -160t-38 -159q-25 -80 -51.5 -159t-56.5 -157q-31 -80 -68 -153q-10 -20 -18.5 -39t-18.5 -37t-19 -37t-20 -37q-41 -74 -92 -140.5t-115 -123.5q-129 -117 -288 -172
q-80 -29 -164 -41q-63 -9 -127 -9q-21 0 -43 1q-84 4 -167 22.5t-159 63.5q-39 12 -76.5 43.5t-54.5 83.5q-8 26 -8 51v9zM-512 -825v13q0 99 59 226q-20 -86 -20 -158q0 -24 2 -47q4 -39 16.5 -75.5t37 -65.5t63.5 -46t98 -17q74 0 148.5 64.5t147.5 177t141.5 266t129 333
t109.5 377t84 395.5l-311 -626l-5 12q-2 -4 -2 -8l-180 123q72 422 166 672q39 106 88 186t104 103q18 6 35 6q41 0 85 -34q63 -51 132 -204l-8 -45q-29 55 -56.5 89t-55.5 37h-4q-25 0 -54 -32q-30 -35 -62 -117t-68 -217t-77 -334l297 545l232 -76q-113 -494 -256 -880
q-61 -166 -134 -324t-157 -281.5t-178 -199.5t-197 -76q-102 0 -169.5 20.5t-106.5 54.5t-55.5 76t-18.5 87zM25.5 125q1.5 0 0.5 37v17q0 36 3 91q4 68 13 159t30.5 191.5t57.5 204t91 195.5q-63 -141 -95 -284.5t-46 -260.5q-14 -122 -14 -237v-29q-14 -20 -23 -39
q-8 -16 -15 -28q-4 -8 -4 -13q0 -4 1.5 -4z" />
    <glyph glyph-name="h" unicode="h" horiz-adv-x="778" 
d="M-2 141q20 150 61 334q35 158 93.5 370t148.5 460q45 123 92 199.5t95 118.5q47 43 92 55q29 8 56 7q15 0 30 -2q96 -14 186 -114q-51 41 -105 41q-13 0 -26 -2q-29 -6 -61.5 -25.5t-67.5 -59.5t-71 -105.5t-70 -164.5q-90 -270 -145.5 -476t-86.5 -363q53 160 121 276.5
t127 194.5q70 90 141 151l189 -133q-25 -33 -54.5 -104.5t-59.5 -164.5t-53.5 -198.5t-34.5 -203.5q-8 -72 -8 -137q0 -23 1 -45q4 -83 32 -131t82 -53h9q53 0 133 52q-147 -116 -249 -116h-13q-106 8 -147 132q-26 76 -26 193q1 75 11 167q26 236 133 574
q-35 -37 -89 -109.5t-110.5 -177t-107.5 -238.5t-78 -296q-3 -48 -3 -85q0 -18 1 -34q2 -47 6 -75q6 -33 14 -52zM68 1597q0 92 55 169t137 112q80 36 167 36h5q90 -1 172 -34q82 -37 152.5 -86t142.5 -96t144.5 -92t150.5 -78q41 -4 81 -8q20 -2 39.5 -2t39.5 2q23 4 44 8
t42 14q43 23 67 66q11 16 21 13q8 -2 7 -11q0 -3 -1 -8q-10 -29 -25.5 -59t-44.5 -52q-30 -23 -66 -34q-27 -8 -52 -8q-9 0 -19 1q-72 6 -125 37t-108 59q-76 41 -144.5 86t-138.5 92q-35 23 -68.5 46.5t-68.5 44.5q-37 23 -73 39t-77 24q-45 9 -90 9q-34 0 -70 -5
q-82 -12 -147 -59q-67 -45 -101 -121q-24 -52 -23 -105q0 -25 5 -49q16 -80 74.5 -138t130.5 -91q10 -4 19.5 -8t19.5 -8q8 -4 17.5 -5.5t19.5 -3.5q20 -2 39.5 -3t42.5 -1q41 2 81 5t81 12q41 8 79.5 18t75.5 27q18 10 35.5 19t34.5 22q33 27 39 59q2 9 2 17q-1 25 -19 51
q-24 34 -53 57q-35 23 -71 38q-18 7 -35 7q-18 0 -37 -8q-20 -6 -25 6q-4 14 21 20q23 10 47 8t45 -12q10 -4 20.5 -9t20.5 -9q10 -6 18 -11t21 -14q16 -16 31.5 -32.5t25.5 -36.5t15.5 -46t-5.5 -48q-10 -23 -26.5 -40.5t-34.5 -29.5t-39 -21.5t-41 -19.5
q-41 -16 -83 -25.5t-85 -17.5q-45 -6 -88 -9q-26 -2 -52 -2l-34 1q-23 0 -44.5 2t-43.5 8q-23 8 -42.5 17.5t-39.5 19.5q-39 23 -72.5 51.5t-60.5 62.5q-55 78 -55 170zM72 33q-1 2 -1 3q0 6 11 9q10 6 14 -4q55 -125 103.5 -249t107.5 -247q29 -59 59.5 -118.5t67.5 -116.5
q18 -29 38 -54.5t42 -50.5q23 -23 48.5 -43t53.5 -28q16 8 28.5 13t23.5 9q14 4 32.5 7t32.5 20q4 4 13.5 -2t7.5 -12q-4 -27 -22.5 -52.5t-53.5 -31.5q-5 -1 -11 -1q-11 0 -21 3q-16 4 -28 10q-14 6 -25 13t-22 13q-31 18 -54 42t-46 49q-20 27 -38.5 53t-37.5 55
q-35 55 -63.5 113.5t-57.5 118.5q-55 119 -102 239.5t-100 239.5zM360 52q2 108 22.5 217.5t51.5 212t59.5 182t50 128t21.5 50.5t5 -3t12 -14q8 -8 16 -22q-74 -178 -127 -350q-23 -74 -42 -154t-33 -158q-13 -77 -16 -151q-1 -17 -1 -34q0 -54 8 -101q-27 84 -27 184v13z
M381 1235q59 100 121 172q27 31 55.5 58.5t59 47t61.5 27.5q14 4 27 3q16 0 32 -5h-9q-35 0 -71 -26q-41 -30 -77.5 -76.5t-69.5 -101t-58.5 -100.5t-39.5 -77q-13 -27 -16 -27h-1q-4 4 -6 21.5t-4 36.5q-2 23 -4 47z" />
    <glyph glyph-name="i" unicode="i" horiz-adv-x="479" 
d="M-49 721q66 23 122 69t99 91q51 53 94 110l217 -123q-88 -186 -131 -362t-59 -316q-15 -126 -15 -241q0 -34 1 -68l-205 209q10 117 28 242q16 106 42 236t67 253q-20 -14 -43 -28.5t-52.5 -27.5t-69.5 -24.5t-95 -19.5zM59 -307q10 29 28.5 49t35.5 43q4 10 14 5t8 -15
q-4 -31 -7 -59.5t-13 -55.5q-10 -25 -21.5 -51.5t-7.5 -54.5q12 -78 64.5 -141.5t124.5 -90.5q24 -10 51 -9q10 0 22 1q38 6 56 39t18 71.5t-6 77.5q-16 78 -48 153t-69 146q-37 72 -82 140q-23 33 -47 64.5t-53 57.5q-8 8 2 19q8 8 16 0q35 -31 59.5 -64.5t49.5 -68.5
q45 -72 86 -148q37 -76 69.5 -154.5t47.5 -164.5q2 -23 3 -44.5t-3 -43.5q-4 -23 -14.5 -44.5t-28.5 -37.5q-33 -27 -77 -27h-11q-23 4 -44.5 10.5t-41.5 16.5q-78 40 -126 118q-46 74 -46 162v7q-14 27 -14 57q0 18 5 37zM293 330q8 131 33 266q37 76 67 135q27 49 48.5 89
t21.5 36q-4 -14 -21.5 -65.5t-38 -128t-41.5 -172.5q-20 -96 -32 -202q-9 -81 -8 -165v-51q4 -110 28 -211q-45 102 -54 229q-5 76 -5 147q0 48 2 93zM307 1331q29 12 62.5 49t64.5 78q37 48 74 103q8 -55 20 -105q10 -41 27.5 -82t42.5 -59q-35 -10 -70.5 -49t-64.5 -84
q-35 -53 -68 -115q-6 55 -16 107q-10 43 -26.5 88t-45.5 69z" />
    <glyph glyph-name="j" unicode="j" horiz-adv-x="462" 
d="M-813 -846v13q0 99 59 227q-20 -86 -20 -158q0 -24 2 -47q4 -39 16.5 -76t37 -65.5t63.5 -46t98 -17.5q72 0 148.5 79t153.5 213t150.5 314.5t138 384t119 417.5t91.5 419q-31 -12 -71 -30.5t-84 -35t-90 -26.5q-33 -7 -64 -7q-13 0 -25 1q92 12 159.5 58t112.5 97
q53 59 90 129l203 -108q-119 -553 -264 -987q-61 -184 -136 -361.5t-161 -315.5t-180 -223t-197 -85q-102 0 -169.5 20.5t-106.5 54t-55.5 75.5t-18.5 87zM-796 -728q10 66 46 122q20 27 46 48t55 36q31 14 63 19q24 4 47 4q10 0 19 -1q18 0 34.5 -6t30.5 -14
q16 -6 29.5 -14.5t26.5 -16.5q29 -16 54.5 -34.5t49.5 -37.5q53 -37 103.5 -73.5t101.5 -73.5q102 -72 206.5 -141.5t215.5 -128.5q55 -29 112.5 -52.5t116.5 -35.5q47 -11 96 -11q12 0 25 1q61 3 109 42q14 27 25 51.5t24 53.5q14 33 31.5 65.5t21.5 71.5q2 12 13.5 13
t13.5 -11q6 -33 6 -68q0 -13 -1 -26q-3 -49 -30 -94t-69 -72t-87 -41q-43 -14 -87 -14q-19 0 -38 3q-63 9 -120 27q-59 18 -114.5 45t-109.5 56q-109 59 -209 127.5t-198 140.5q-49 35 -97.5 70.5t-99.5 70.5q-25 16 -49.5 32.5t-50.5 33.5q-12 8 -25.5 15t-25.5 11
q-10 4 -27 9h-29h-8q-54 0 -103 -27q-53 -29 -81 -78q-31 -51 -38 -109q-3 -22 -3 -43q0 -37 8 -73q4 -18 -10 -18q-12 -4 -17 16q-8 36 -8 73q0 28 5 57zM135 -469q74 195 116 373t62 315q23 160 29 299q33 98 59 176q12 33 22.5 65t20 55.5t12.5 30.5l7 21q0 -2 -7 -66.5
t-23.5 -171t-42 -243.5t-62.5 -284.5t-85 -296t-108 -273.5zM287 1331q27 12 61.5 49t65.5 78q36 48 71 103q8 -55 21 -105q10 -41 28.5 -82t43.5 -59q-35 -10 -71 -49t-65 -84q-35 -53 -67 -115q-6 55 -17 107q-10 43 -27.5 88t-43.5 69z" />
    <glyph glyph-name="k" unicode="k" horiz-adv-x="636" 
d="M-25 168q23 168 62 367q35 170 92 391t147 469q45 123 92.5 199.5t94.5 118.5q47 43 92 55q30 8 59 8q14 0 27 -2q96 -14 188 -115q-53 41 -108 41q-13 0 -25 -2q-29 -6 -61.5 -25.5t-67.5 -59.5t-70.5 -105.5t-68.5 -164.5q-113 -336 -172 -580.5t-86 -418.5
q102 215 205.5 359.5t203 235.5t192.5 136t175 60q49 9 97 9q139 0 270 -75q-85 41 -184 41q-30 0 -60 -4q-57 -6 -123.5 -28.5t-142.5 -68.5t-159 -119.5t-171 -182.5q2 -25 10.5 -96.5t24.5 -167t40.5 -201t61.5 -198.5t85 -162q47 -70 111 -92q25 -9 52 -9q43 -1 91 21
q79 36 175 155q-106 -152 -195 -219.5t-164 -72.5h-14q-67 0 -121 42q-60 47 -107.5 123t-83.5 171t-61.5 188.5t-40.5 172t-24 123.5q-55 -100 -99 -223t-73 -276q2 -86 13 -123q4 -23 10 -35zM2 137q-1 2 -1 5q0 7 9 10q8 6 17 -2q41 -61 74.5 -128t64.5 -134.5t60.5 -135
t64.5 -131.5q35 -66 77 -126t89 -116q23 -29 48 -54t54 -50q27 -23 56.5 -44.5t60.5 -31.5q18 6 26 15q4 4 5.5 6t5.5 6q6 8 18 25.5t12 39.5q0 8 10.5 9t14.5 -7q16 -27 16 -57q0 -16 -5 -34.5t-25 -32.5q-16 -15 -36 -15h-4q-22 2 -36 8t-25.5 14.5t-23.5 14.5
q-66 39 -117 90t-98 107q-10 14 -21.5 27.5t-21.5 29.5q-10 14 -20.5 28.5t-20.5 28.5q-20 31 -38 63t-34 62q-66 129 -121 260t-135 250zM72 662q0 -2 12 66.5t33.5 177t53.5 241.5t70 258t83 228.5t94 152.5q-27 -41 -53.5 -105.5t-51 -144.5t-47 -169t-41.5 -175
q-45 -203 -84 -436q-20 -25 -35 -45q-14 -16 -24 -30.5t-10 -18.5zM371 252l86 -141q39 -160 92 -279q23 -51 52.5 -98t64.5 -82q34 -36 76 -54q27 -12 58 -12q17 0 34 4q-33 -11 -62 -11q-26 1 -50 9q-52 18 -96 59.5t-80 103t-65 128.5q-68 158 -110 373zM676 1745
q8 12 18 4q47 -23 86 -51.5t78 -57.5q37 -29 75 -58.5t77 -55.5q41 -27 82 -49.5t86 -32.5q20 -5 41 -5q24 0 48 7q44 12 74 47q35 33 56.5 73t23.5 87v10q0 40 -14 79q-16 44 -45 81t-63.5 67.5t-75.5 53.5t-87 33q-22 5 -43 5q-23 0 -46 -6q-16 -16 -27.5 -30.5
t-22.5 -30.5q-10 -18 -24.5 -42t-16.5 -54q0 -10 -10 -11t-14 9q-14 39 -14 73q4 45 32 78q29 33 74 39q16 3 31 3h7q18 -1 38 -3q49 -4 93 -21.5t85 -46.5q39 -29 71.5 -62.5t57.5 -74.5t35 -90q5 -24 5 -49t-5 -49q-4 -25 -14.5 -46.5t-24.5 -41.5q-6 -10 -14.5 -19.5
t-16.5 -17.5q-16 -18 -35 -35q-43 -33 -90 -39q-13 -2 -26 -2q-35 0 -72 12q-47 14 -87 38t-79 50q-39 27 -76 55.5t-73 57.5q-37 29 -74 54.5t-78 45.5q-7 3 -7 11q0 4 1 8z" />
    <glyph glyph-name="l" unicode="l" horiz-adv-x="337" 
d="M-428 1481q-1 9 -1 17q0 26 10 52q13 32 36 58q45 49 104 80q57 33 121 51t129 20h10q30 0 57 -10q32 -12 60 -27q29 -14 56.5 -30.5t54.5 -34.5q109 -72 210 -146.5t212 -140.5q29 -16 56.5 -30.5t55.5 -26.5q29 -12 58.5 -20.5t60.5 -8.5q29 -2 55.5 10.5t43.5 36.5
q16 25 25 53.5t3 57.5t-21.5 55.5t-37.5 48.5q-41 45 -96 80q-53 33 -111.5 44t-120.5 13q-33 0 -33 11q0 6 12.5 11t28.5 3q70 -4 132.5 -18.5t119.5 -51.5q57 -39 101 -90q23 -27 38 -59.5t17 -69.5q0 -37 -17 -69q-12 -33 -40 -58q-29 -27 -65 -32q-15 -2 -30 -2
q-21 0 -41 4q-70 12 -129 42.5t-116 65.5q-113 72 -218.5 150.5t-218.5 146.5q-29 16 -57.5 31.5t-58.5 25.5q-29 10 -59.5 8.5t-63.5 -6.5q-63 -12 -124 -37.5t-110 -66.5q-25 -20 -44 -46t-25 -54q-8 -29 1 -57.5t27 -53.5q41 -49 98.5 -78.5t120.5 -32.5h11q59 0 115 20
q60 22 118 54q57 33 108.5 72t100.5 84q90 96 179 194.5t200 176.5q111 79 243 113q102 27 206 26q30 0 61 -2q16 1 31 1q54 0 104 -16q74 -23 127 -81q33 -35 50.5 -76t25.5 -82q10 -43 11 -85v-28q0 -28 -1 -55q0 -29 -10.5 -33t-14.5 21q-10 92 -42.5 177t-98.5 140
q-62 55 -152 77q-61 15 -124 14q-29 0 -58 -3q-127 -16 -239 -72q-57 -29 -109.5 -64.5t-99.5 -76.5t-91 -88t-85 -94q-10 -10 -21.5 -22.5t-21.5 -24.5l-21 -25q-6 -6 -12 -11t-12 -11q-23 -23 -47.5 -43.5t-49.5 -40.5q-51 -41 -106 -75t-117 -56q-58 -23 -126 -29
q-14 -1 -27 -1q-53 0 -105 19q-61 25 -113 70q-23 23 -41 52.5t-22 64.5zM14 178q20 152 62 336q35 158 93 369t148 458q45 123 92.5 200t94.5 119t92 54q30 8 58 8q14 0 28 -2q96 -14 186 -114q-53 41 -108 41q-13 0 -25 -2q-29 -6 -61.5 -26t-67.5 -59.5t-70.5 -105
t-68.5 -164.5q-102 -299 -164.5 -514t-94.5 -364.5t-41 -245.5q-6 -62 -6 -109q0 -27 2 -49q5 -62 17.5 -99.5t22.5 -70.5zM29 150q-1 2 -1 4q0 3 3 6q6 10 16 0q25 -33 40 -65t32 -64q16 -35 29.5 -67t29.5 -66q29 -66 58.5 -130.5t62.5 -129.5q33 -66 66.5 -128.5
t74.5 -121.5q20 -29 42 -57.5t46 -53.5q25 -25 53.5 -44t61.5 -24q16 10 27.5 17.5t23.5 13.5q14 8 34 14.5t34 22.5q4 6 14 1q8 -4 8 -10q0 -24 -20 -60q-16 -28 -51 -37q-14 -4 -28 -4q-18 0 -36 6q-16 4 -28.5 11t-24.5 11q-35 16 -61.5 40t-51.5 50q-23 29 -43 57.5
t-41 57.5q-37 59 -69.5 120.5t-63.5 125.5q-31 63 -59.5 125.5t-56.5 128.5q-14 31 -27.5 62.5t-30.5 62.5q-16 31 -27.5 62.5t-31.5 55.5q-2 1 -4 7zM150 330v20q0 79 14 139q43 113 78 199q14 37 28.5 72t25.5 62q12 26 20 42q8 15 9 15h1q2 -2 -11.5 -46.5t-33 -118
t-40 -172t-29.5 -208.5q-6 -70 -6 -143q0 -39 2 -81q5 -116 36 -227q-55 143 -73.5 256t-20.5 191z" />
    <glyph glyph-name="m" unicode="m" horiz-adv-x="1140" 
d="M-14 74q6 168 39 338q14 72 34.5 151.5t50 159.5t69.5 159t91 150l181 -125q-59 -96 -113 -209q-45 -98 -89 -225t-61 -270l392 655q23 43 46 85t52 83l182 -125q-59 -92 -110 -201q-45 -92 -87 -215t-63 -264l393 764q6 23 15 41l188 -131q-25 -33 -55.5 -101.5
t-60 -157.5t-55.5 -187.5t-39 -190.5q-11 -80 -11 -147v-21q2 -76 28.5 -119t80.5 -45h4q54 0 139 56q-139 -110 -235 -124q-15 -2 -30 -2q-75 0 -115 64q-44 70 -44 217v25q4 166 67 418l-282 -562v-6l-51 -96l-142 152q0 59 8 129q6 59 18.5 140t35.5 173l-328 -586z
M-5 230q1 72 9 165.5t27.5 196t52.5 207t84 196.5q-55 -150 -80 -292t-33 -252q-4 -66 -4 -127.5t4 -120.5l-24 -62q-10 -23 -19.5 -43t-11.5 -22t-4 40q-1 28 -1 69v45zM786 76q6 88 17.5 167t25 134t13.5 61v2q1 0 3 -20q3 -26 7 -62q4 -41 10 -94q-31 -137 -33 -241
q0 -45 5.5 -87t21.5 -73t45 -47q21 -12 51 -13q11 0 23 2q-35 -12 -63 -12q-37 0 -61 21q-43 36 -57 105q-11 50 -10 110q0 23 2 47z" />
    <glyph glyph-name="n" unicode="n" horiz-adv-x="841" 
d="M-80 100q0 131 25.5 250t63.5 219.5t81 182.5t80 140t60.5 90t21.5 34q-4 2 -11.5 -24.5t-15.5 -61.5q-8 -39 -18 -92q-61 -63 -117 -166q-47 -88 -95 -227.5t-75 -344.5zM-18 68q6 168 38 338q14 72 35 151.5t50.5 159.5t69.5 158.5t91 150.5l180 -125
q-59 -94 -112 -207q-45 -96 -88 -224t-62 -271l484 823l188 -131q-25 -33 -54.5 -108.5t-57 -177t-51 -217.5t-37.5 -228q-12 -98 -11 -186v-26q2 -98 23 -164q22 -68 68 -92q18 -10 42 -9q35 0 82 22q-115 -90 -199 -90q-25 0 -47 8q-96 35 -134 185q-23 92 -23 221
q1 80 9 174q24 246 114 551l-455 -838zM450 -45q-1 31 -2 63q0 45 3 91q2 39 6 75.5t10 75.5q8 39 18.5 76t30.5 72q8 10 19 0q8 -6 4 -15q-18 -33 -28.5 -69.5t-18.5 -75.5q-6 -39 -10.5 -77t-6.5 -77q-2 -35 -1 -69q0 -43 2 -87q5 -78 16 -155q10 -78 26.5 -153.5
t44.5 -149.5q14 -35 29.5 -70t38.5 -67q23 -33 48.5 -59.5t57.5 -43.5q20 2 38 3t34 -1q18 0 39.5 -5t44.5 5q8 4 13 -5t1 -15q-20 -24 -51 -40q-20 -11 -43 -10q-12 0 -25 3q-35 6 -57 27.5t-45 39.5q-63 51 -98 121t-62 141q-25 74 -39 149t-24 150q-9 76 -13 152z
M557 -55q12 156 59 319q41 141 121 309t221 330q-143 -236 -208 -429q-66 -194 -88 -332q-20 -122 -20 -197v-19q1 -26 1 -44q0 -36 -4 -38q-1 -1 -3 -1q-6 1 -16 13q-14 16 -28 35q-16 23 -35 54z" />
    <glyph glyph-name="o" unicode="o" horiz-adv-x="692" 
d="M-35 223q4 49 19 115q6 61 19 146t42 179.5t75 189.5t116 175q-66 -96 -103 -196.5t-57 -192.5q49 121 112.5 223.5t133.5 145.5q37 22 74 22q35 0 71 -19q74 -40 143 -204q21 -29 41 -74q8 -19 8 -59q0 -16 -1 -36q-5 -68 -25.5 -158.5t-53 -190t-75.5 -186.5
t-96.5 -150.5t-112.5 -80.5q-18 -5 -37 -5q-42 1 -87 27q-65 38 -132 157q-16 12 -32.5 37t-35.5 66q-7 14 -7 43q0 12 1 26zM92 33q18 -27 40 -40q15 -9 31 -9q7 0 15 2q24 6 53 35.5t62 91.5q-33 -39 -71 -59q-24 -13 -49 -13q-15 0 -30 4q41 8 81 49t77 100.5t68.5 130
t56.5 138.5q25 80 49.5 174t52.5 207q-35 42 -77 42h-6q-46 -3 -101 -87t-118.5 -267.5t-133.5 -498.5z" />
    <glyph glyph-name="p" unicode="p" horiz-adv-x="788" 
d="M-45 -170q2 131 18.5 279.5t53 303t98 313.5t154.5 312l192 -112q-70 -129 -123 -257t-94 -257l371 592q0 4 1 7t1 7l180 -125q-55 -422 -139 -672q-37 -106 -83 -186t-103 -101q-17 -7 -35 -7q-43 0 -91 37q-69 52 -149 208l-23 -39q-37 -188 -46 -363q-3 -62 -3 -122
q0 -108 11 -206q16 -153 54 -278t95 -213l-293 281q-48 254 -48 520q0 39 1 78zM-41 -55q0 49 4 134t16.5 196.5t37 233.5t63.5 247t98 235q-66 -166 -93.5 -305t-35.5 -242q-4 -60 -4 -114t4 -103q-25 -90 -45 -161q-8 -31 -16 -61t-14.5 -53.5t-10.5 -37.5t-4 -16t0 47z
M41 -756q6 10 14 6q49 -35 83 -78.5t69 -89.5l129 -178q35 -45 68.5 -87t72.5 -79q41 -35 86 -64q42 -28 92 -28h7q20 25 40 33q12 4 29 5t31 11q4 4 12 -4q6 -6 6 -12q0 -17 -22 -45q-15 -20 -39 -25q-9 -1 -17 -1q-16 0 -30 4q-23 8 -43 12q-59 10 -103.5 43t-83.5 69
q-39 39 -71.5 81t-65.5 85t-62.5 87t-62.5 85q-33 43 -65.5 84t-73.5 70q-2 1 -2 5t2 11zM90 -201l29 86q10 33 19.5 57.5t13.5 22.5q-8 -61 -8 -175q-1 -3 -1 -6q0 -112 19 -245q18 -137 63 -283.5t127 -275.5q-80 96 -128 202.5t-72 199.5q-31 106 -41 212zM233 219
q29 -53 57.5 -91t58.5 -45q5 -1 11 -1q24 0 50 26q30 33 62 122t64.5 242t67.5 386z" />
    <glyph glyph-name="q" unicode="q" horiz-adv-x="831" 
d="M-578 -315q6 51 39 104q16 29 42 50.5t57 37.5q33 16 67 17q37 0 68 -27q16 -16 9 -25.5t-19 0.5q-29 18 -55.5 10t-49.5 -28t-40 -45t-34 -53q-16 -27 -26 -55.5t-8 -57.5q0 -29 18 -53.5t51 -34.5q38 -13 80 -13h6q45 1 92 7q86 12 177 47q86 35 167.5 77t167.5 83
t174.5 71.5t186.5 34.5h19q89 0 167 -33q45 -18 85 -45.5t69 -66.5q59 -78 93 -166t52 -180q10 -47 15 -95q2 -25 2 -50q0 -22 -2 -44q-4 -47 -14.5 -95t-39.5 -89q-14 -20 -31.5 -37.5t-39.5 -28.5q-23 -12 -47.5 -17t-49.5 -7q-51 0 -96 14t-84 47q-37 31 -66.5 68
t-58 74.5t-57.5 73.5t-62 67q-18 16 -8 26q8 8 31 -10q37 -35 66.5 -72.5t58.5 -76.5t59.5 -75t67.5 -65q39 -31 82 -39q31 -6 58 -6q17 0 32 2q47 4 83 32t56 71q20 41 27.5 88t7.5 94q-4 94 -25 186q-20 94 -61 181q-23 43 -47.5 83t-59.5 70q-35 29 -77.5 50.5
t-87.5 33.5q-45 10 -93 11h-10q-42 0 -84 -7q-94 -16 -182 -54t-174 -79q-86 -43 -172 -87t-184 -68q-47 -12 -96 -19q-38 -6 -78 -6h-21q-25 2 -49.5 6t-48.5 14q-23 10 -43.5 30t-30.5 44q-14 23 -19 50q-4 15 -4 31q0 12 2 24zM2 55q68 399 156 647q37 106 83 189.5
t99 114.5q26 16 54.5 16t59.5 -16q60 -31 128 -154q23 45 45 90t51 90l192 -112q-160 -295 -239.5 -591t-94.5 -559q-3 -67 -3 -130q0 -188 32 -348q43 -214 129 -347l-295 281q-33 166 -41 356q-4 73 -4 155q0 104 6 222q13 213 68 449l-238 -480l-6 13q0 -4 -1 -5.5
t-1 -3.5zM13 108q7 60 21.5 153t36 208t51.5 223.5t68.5 197.5t85.5 134q-29 -37 -51 -89t-40.5 -114.5t-32 -130t-23.5 -133.5q-25 -154 -37 -324l-45 -90q-16 -35 -29 -63q-12 -23 -12 -30q0 -5 7 58zM227 166l283 514q12 33 24.5 65.5t28.5 65.5q-37 51 -73 54h-4
q-35 0 -74 -65q-41 -69 -86 -221.5t-99 -412.5zM479 -492q-10 77 -10 157q0 88 12 179q31 115 56 201q10 37 20 72t18.5 61.5t13.5 41.5t5 13q0 -4 -12.5 -76.5t-22.5 -186t-12 -254.5v-28q0 -128 17 -254q18 -139 65 -262.5t135 -203.5q-72 51 -122 116.5t-84 136
t-52.5 144.5t-26.5 143z" />
    <glyph glyph-name="r" unicode="r" horiz-adv-x="823" 
d="M-13 157q-1 14 -1 29q0 76 13 188q15 134 60 302t144 336q-78 -176 -111 -319.5t-43 -246.5q-5 -55 -5 -104q0 -59 7 -109q-18 -41 -31 -73q-12 -29 -21 -53.5t-9 -28.5t-3 79zM-12 72q6 168 39 338q14 72 34.5 151.5t50 159.5t69.5 158.5t91 150.5l181 -125
q-59 -78 -111 -176q-43 -84 -84 -196.5t-55 -243.5q74 170 146.5 297t134 215t106.5 140t67 75q4 12 7 20l8 -6l180 -125q-20 -31 -40 -82t-32 -102q-10 -43 -10 -77v-11q2 -37 28 -38h1q27 0 77 48q52 49 142 170q-114 -201 -216 -288q-92 -78 -155 -78q-7 1 -13 1
q-66 10 -86 105q-5 24 -4 52q0 86 42 212q-47 -57 -107.5 -143t-122 -192.5t-117 -230.5t-92.5 -259l-16 -70zM513 499q-2 15 -2 32q0 33 7 73q10 60 24 112t28 87q13 33 18 33q3 0 1 -26q-1 -24 -3 -52l-4 -78q-25 -76 -33 -133q-2 -16 -2 -32q0 -31 8 -58q11 -37 54 -37h9
q-21 -6 -37 -6q-25 0 -39 14q-24 24 -29 71z" />
    <glyph glyph-name="s" unicode="s" horiz-adv-x="548" 
d="M-152 102v10q0 47 18 95q20 53 59.5 104t85.5 98.5t95.5 85t92.5 64.5q-16 37 -30.5 66.5t-22.5 59.5q-9 31 -10 63v5q0 30 9 70q14 61 45 100.5t62 61.5q37 27 78 41l131 -65q-43 -31 -76 -68q-29 -31 -53 -70q-20 -33 -19 -70v-12q2 -23 11.5 -44t25.5 -56
q53 31 135 70t161 74.5t137.5 60t64.5 28.5q-6 -4 -66.5 -33.5t-139.5 -70.5t-157.5 -83t-124.5 -69q25 -45 50 -98q24 -52 40 -114q15 -58 14 -121v-9q-1 -68 -30 -141q-43 -109 -116.5 -163t-154.5 -65q-24 -3 -47 -3q-56 0 -110 18q-76 26 -121 84q-35 44 -37 96z
M-96 -231q-1 2 -1 5q0 6 9 8q12 3 16 -5q20 -29 39 -54.5t29 -54.5t19.5 -58.5t35.5 -45.5q35 -25 77 -26h4q40 0 77 18q39 16 71.5 43.5t61.5 62.5q53 66 86 150q16 41 23.5 84t11.5 86q8 60 8 119q-1 117 -31 230q-46 171 -135 324q-4 12 8 17q3 2 6 2q6 0 13 -6
q45 -82 79.5 -168t57.5 -178q27 -115 27 -232q0 -68 -9 -137q-8 -94 -46 -182t-105 -158q-33 -35 -74 -61.5t-88 -36.5q-20 -4 -39 -4q-30 0 -59 10q-25 8 -45.5 23.5t-36.5 33.5q-49 18 -70 70q-14 31 -14 61.5t-6 59.5zM-94 152q-4 -19 -5 -37q0 -43 25 -74q33 -41 84 -57
q34 -11 68 -11q18 1 36 3q52 8 96 37.5t62 80.5q-31 -36 -84 -60q-45 -20 -113 -21q-12 0 -24 1q78 4 122 45t65 101q20 58 21 126v15q0 59 -7 111q-8 35 -18.5 62.5t-20.5 51.5q-70 -41 -136.5 -105.5t-111.5 -133.5t-59 -135z" />
    <glyph glyph-name="t" unicode="t" horiz-adv-x="415" 
d="M-745 -682q4 20 12 37q16 35 42.5 61.5t57.5 46.5q23 29 57.5 49.5t75.5 26.5q14 2 28 2q36 -1 72 -15q48 -20 78 -58q12 -12 4 -20.5t-18 -0.5q-40 28 -81 28h-3q-43 -1 -90 -10q-43 -8 -88 -23t-80 -50q-23 -25 -35 -54.5t-6 -60.5q6 -29 29.5 -51.5t52.5 -36.5
q59 -31 125 -41q19 -2 38 -3q48 0 93 15q63 18 119.5 55t109.5 80t103.5 88.5t103.5 90.5q27 23 54.5 43t58.5 37q31 18 61.5 31.5t65.5 25.5q67 23 133 39q53 13 109 13q14 0 28 -1q35 -2 71 -11t62 -38q29 -27 38 -63q6 -25 6 -51q0 -11 -1 -23q-12 -74 -69 -125
q-27 -27 -66 -33q-20 -4 -47 -9t-41 7q-8 6 -7 13t5 12q8 4 23 -7q12 -10 28.5 -9t32.5 8.5t32.5 18.5t29.5 23q49 49 53 117q1 8 1 16q0 26 -10 48q-12 30 -38 49q-27 20 -58.5 26.5t-66.5 6.5q-70 -2 -137.5 -19.5t-133.5 -44.5q-66 -23 -123 -61.5t-110 -85.5
t-105.5 -94.5t-109.5 -90.5t-121.5 -76.5t-138.5 -44.5q-20 -3 -40 -3q-54 0 -106 20q-35 10 -67.5 26.5t-61.5 44.5q-12 14 -21 32t-13 38q-2 10 -2 19.5t2 19.5zM6 -8q10 109 35 246q23 117 60.5 280.5t99.5 366.5q10 39 -10.5 58.5t-49.5 29.5q-35 10 -84 10l37 41h24
q52 0 78 7q34 9 49 23.5t19 32t15 33.5q6 16 23 61.5t38.5 95.5t40 95t25.5 62q6 20 13 38.5t15 34.5l225 99q-31 -49 -55 -106.5t-45.5 -119t-41 -123t-42.5 -116.5h2q-7 -21 -7 -38q0 -25 16 -41q26 -26 67 -34q29 -6 67 -6q23 0 48 2q-14 -12 -23 -20q-8 -8 -14 -15.5
t-2 -5.5q-29 0 -61.5 -5t-64.5 -15.5t-59.5 -23.5t-42.5 -30q-31 -102 -61.5 -205.5t-58 -208t-48 -211t-28.5 -212.5q-3 -23 -3 -47q0 -67 20 -147q28 -108 78 -210t114 -184t126 -116q34 -19 66 -18q26 0 50 12q54 28 85 146q-25 -123 -64.5 -176t-87.5 -56h-7
q-46 0 -96 35q-54 38 -106 95t-100.5 124t-84.5 122l-43 76q-25 43 -38.5 68.5t-15.5 27.5zM39 -39q-1 0 -1 -1q0 -5 22 -37q28 -40 63 -91q41 -59 96 -135q35 -123 88 -221q23 -43 52.5 -85t66.5 -78t82 -60.5t98 -32.5q-80 2 -151.5 57t-133 137t-112.5 176.5t-87 176
t-57.5 137t-25.5 57.5zM348 1083q16 49 48 117t87.5 139.5t138.5 140t203 119.5q-76 -45 -134 -105t-101 -123.5t-72 -125t-47 -108.5q-17 -47 -27 -75q-8 -24 -11 -24h-1q-4 6 -18.5 5t-29.5 0q-16 1 -28 9q-9 6 -9 21q0 5 1 10z" />
    <glyph glyph-name="u" unicode="u" horiz-adv-x="813" 
d="M-33 70q6 168 39 338q14 72 34.5 151.5t50.5 159.5t70 158.5t91 150.5l180 -125q-68 -104 -123 -229q-47 -106 -91 -245.5t-54 -293.5q35 33 84 88.5t103.5 134t110.5 183t107 235.5q18 59 39 123t43 129l189 -131q-25 -33 -55.5 -101.5t-60.5 -157.5t-54 -188
q-24 -98 -38 -190q-11 -78 -12 -144v-24q2 -76 29 -119t81 -45h4q53 0 138 56q-131 -102 -224 -121q-22 -4 -42 -4q-63 1 -101 47q-49 62 -55 204q-1 15 -1 30q0 135 43 331q-63 -127 -131 -228.5t-123 -172.5q-66 -84 -127 -150zM-14 143q0 -6 0 68t12 195.5t45 273
t100 301.5q-49 -154 -69.5 -282t-24.5 -224q-2 -42 -2 -82q0 -66 6 -123q-20 -33 -35 -57q-12 -23 -22 -43.5t-10 -26.5zM436 -131q-3 46 -3 92q0 133 22 266q8 45 17 89t26 87q8 23 16 43.5t21 40.5q12 20 27.5 39t37.5 31q4 4 10 0t6 -8q2 -10 -6 -17q-16 -10 -30.5 -26.5
t-24.5 -36.5q-10 -18 -19.5 -38.5t-17.5 -43.5q-14 -43 -23.5 -87t-15.5 -91q-14 -91 -17 -183q-1 -30 -1 -62q0 -61 4 -122q6 -92 22.5 -182t51.5 -176q16 -41 39.5 -80t54.5 -70q33 -31 74 -48q33 -14 69 -14q8 0 17 1l37.5 22.5t39.5 18.5q25 10 52.5 13t52.5 20
q8 5 14 -3q4 -5 4 -10q0 -3 -2 -6q-20 -29 -46.5 -53.5t-65.5 -32.5q-22 -6 -44 -6q-13 0 -27 2q-36 6 -71 12q-47 10 -86 38t-67 63q-29 37 -48.5 79t-35.5 83q-29 88 -44.5 176t-19.5 180zM600 293q55 160 100 287q18 53 37 104t32 91t22.5 64.5t9.5 22.5t-21.5 -70.5
t-48 -168t-48 -214t-21.5 -209t30 -150.5q24 -45 79 -45q14 0 30 3q-38 -13 -66 -13q-7 0 -14 1q-33 4 -55.5 20.5t-37 44t-20.5 58.5q-12 46 -12 105q0 33 4 69z" />
    <glyph glyph-name="v" unicode="v" horiz-adv-x="561" 
d="M-39 424q-1 20 -1 39q0 60 5 123q6 84 25.5 169t55.5 165.5t93 152.5l148 -108q-53 -113 -90 -246q-31 -117 -47 -271q-5 -51 -5 -105q0 -109 21 -230l481 913l19 -108l-527 -1010l-129 151q-43 182 -49 365zM164 492q2 62 11 123t22 114q27 127 75 246l41 -27
q-41 -115 -71 -233q-26 -102 -44 -226q-11 -79 -11 -155q0 -43 3 -86q-16 58 -22 120q-4 47 -4 93v31z" />
    <glyph glyph-name="w" unicode="w" horiz-adv-x="1026" 
d="M6 82q6 168 39 338q14 72 34.5 151.5t50.5 160.5t70 159t91 149l180 -122q-61 -98 -115 -211q-45 -98 -88 -227.5t-59 -274.5l414 663q20 43 43.5 84t52.5 82l168 -116q-45 -88 -82 -193q-33 -90 -65 -210t-48 -255q37 74 92.5 181.5t124 226t146.5 236.5t156.5 212
t157.5 153.5t149 62.5h6q66 0 122 -62q58 -64 97 -219q-53 153 -128 185q-29 13 -61 12q-49 0 -102 -30q-88 -50 -181 -165t-184 -258q-211 -336 -444 -863l-143 150q-4 54 -4 115v41q2 72 10 165t31 197l-387 -668zM17 198q-2 25 -2 55q-1 64 7 151q10 128 47 289t121 323
q-66 -166 -92 -302t-35 -237q-4 -58 -4 -111.5t4 -101.5l-24 -69q-11 -27 -17 -49q-7 -25 -2 -25l1 5q0 16 -4 72zM993 791q41 80 93.5 149.5t105.5 140.5q106 137 227 265q59 66 123 124t135 111q35 27 74 50.5t80 41.5q41 15 86 25q17 4 34 4q29 0 58 -10q25 4 50.5 -8.5
t41.5 -34.5q20 -27 23.5 -55.5t11.5 -57.5q1 -3 1 -5q0 -6 -7 -8q-10 -3 -16 3q-20 25 -40 46t-36 44q-6 10 -14.5 19.5t-18.5 19.5q-20 20 -49 20q-41 0 -80 -13t-74 -32q-37 -20 -70.5 -42.5t-68.5 -49.5q-66 -53 -125 -110.5t-119 -118.5q-57 -61 -110.5 -126
t-106.5 -130q-51 -66 -99 -134.5t-87 -140.5q-5 -7 -11 -7q-4 0 -8 3q-6 4 -6 9q0 4 2 8z" />
    <glyph glyph-name="x" unicode="x" horiz-adv-x="686" 
d="M-55 61q49 123 130 245t167 233q-11 118 -11 225q0 30 1 60q4 134 26 231l164 -150q-2 -20 -4 -45q-2 -23 -2 -53.5v-67.5q63 68 119.5 124.5l97.5 97.5q49 47 90 83l86 -143q-55 -53 -119 -117q-53 -55 -122.5 -128.5t-143.5 -159.5q6 -100 23.5 -210t48 -214.5
t79 -196.5t118 -156.5t162.5 -95.5q58 -19 127 -19q42 0 89 7q-81 -21 -153 -21q-29 0 -56 4q-96 12 -177 54.5t-145.5 113t-114.5 159.5t-86 191.5t-60 209.5q-78 -100 -142.5 -202t-99.5 -196zM311 252q0 -4 8.5 -13.5t18.5 -19.5q12 -12 29 -26q4 -96 28 -195
q23 -86 70 -184.5t137 -186.5q-68 53 -117 121t-80.5 137.5t-50 136t-29 119t-12.5 83t-2 28.5z" />
    <glyph glyph-name="y" unicode="y" horiz-adv-x="768" 
d="M-743 -906q-1 16 -1 33q0 33 3 64q6 49 15 97t32 96q20 47 57 84.5t86 54.5q47 18 98.5 18t98.5 -6q98 -16 190 -48t184 -67t181.5 -68.5t181.5 -60.5t187 -40q33 -4 65 -4q62 0 123 16q80 43 137 112q35 41 65.5 89.5t47.5 105.5q6 20 17 20q9 0 9 -13v-5
q-4 -72 -26 -139q-27 -76 -82 -129q-57 -51 -133 -68q-35 -10 -71 -12t-71 -2h-15q-90 0 -174 22q-91 23 -179 51q-90 31 -177.5 65t-175.5 67q-88 31 -177 57.5t-181 30.5h-14q-38 0 -75 -9q-44 -10 -79 -36q-35 -29 -58.5 -68t-35.5 -82q-14 -45 -20.5 -90t-8.5 -92
q0 -45 7 -90t28 -84q43 -84 133 -111q43 -12 88 -13h13q39 0 79 5q92 14 176 50t162 87q39 27 75 55.5t67 63.5t55 73t35 83q4 10 9 16t9 2q14 -4 6 -31q-14 -49 -41.5 -92t-62.5 -78t-73 -65.5t-79 -59.5q-84 -53 -176 -88t-190 -45q-25 -2 -49.5 -2t-49.5 2q-51 4 -98 27
t-81 63.5t-48 87.5q-16 49 -18 100zM-485 -825v12q0 100 61 227q-20 -88 -20 -160q0 -24 2 -47q4 -39 16 -75.5t36.5 -65.5t63.5 -46t99 -17q63 0 131.5 62.5t138.5 173t136.5 260t128 323.5t115.5 362.5t97 378.5q-55 -129 -123.5 -244.5t-128.5 -205.5q-70 -104 -139 -195
l-143 152q6 168 39 340q14 72 34.5 151.5t50 161.5t69.5 161t91 150l183 -125q-68 -106 -123 -229q-47 -104 -91 -242.5t-55 -292.5q39 43 92.5 117t111.5 179.5t115.5 245.5t100.5 319q2 6 2 11t2 11l203 -108q-119 -557 -266 -994q-63 -186 -138 -364t-161 -317.5
t-181.5 -224.5t-197.5 -85t-170 20.5t-108 54.5t-56 77t-18 88zM-68 201q18 207 72.5 361.5t114 257t104.5 152.5t45 48q-2 -2 -1 -12.5t1 -22.5q0 -14 2 -33q-70 -70 -135 -176q-55 -92 -111.5 -233.5t-91.5 -341.5z" />
    <glyph glyph-name="z" unicode="z" horiz-adv-x="686" 
d="M-1458 -674q29 8 58.5 13.5t58.5 -1.5q29 -8 56.5 -19t57.5 -13q78 -4 155 -4q237 0 472 41q313 53 600 188q10 4 14 -8q6 -12 -6 -17q-150 -72 -307.5 -118.5t-318.5 -75.5q-164 -29 -329 -36q-55 -2 -110 -2q-110 0 -221 9q-32 -15 -64 -15q-10 0 -20 1q-27 4 -49.5 15
t-48.5 16q-9 2 -9 10q0 12 11 16zM-602 -674q229 47 422 129q82 35 165 80t153.5 101.5t124.5 126t81 153.5q23 70 23 121q-1 9 -1 17q-4 56 -27.5 89t-63 48.5t-85.5 19.5q-16 1 -33 1q-96 0 -225 -38l80 72q27 31 85.5 99.5t126 164.5t135 213t114.5 244q-53 -31 -125 -67
t-142 -56q-51 -14 -96 -14q-18 0 -34 2q-58 8 -82 63l92 70q-1 -7 -1 -14q0 -29 29 -37q16 -5 36 -6q26 0 60 8q60 14 137 48.5t155 86.5l207 -103q-53 -102 -121 -211q-57 -92 -136.5 -200.5t-175.5 -206.5q63 -2 126 -20q62 -19 96 -68q28 -41 28 -107q0 -13 -1 -29
q-7 -88 -81 -225q-47 -88 -117.5 -158.5t-153.5 -126t-172 -96.5t-175 -71q-203 -70 -428 -103zM389 377q61 100 101 172t65 127t40 100t30 92q10 8 24.5 22.5t26.5 27t21.5 21.5t11.5 9q-39 -100 -88 -198q-41 -86 -100.5 -185.5t-131.5 -187.5z" />
    <glyph glyph-name="braceleft" unicode="{" horiz-adv-x="1867" 
d="M88 559q29 115 107 205q33 39 80 76t110.5 65.5t145 46t184.5 17.5q102 0 192 -21.5t166 -56.5t139.5 -80t114.5 -90q119 -111 201 -248l227 227v-288l-156 -297q-59 135 -141 262q-35 55 -79 112.5t-95 113.5t-109.5 106.5t-125.5 91.5q-47 18 -96.5 33.5t-100.5 21.5
q-86 10 -170 -4t-162 -45q-39 -16 -75.5 -36.5t-69.5 -49.5q-29 -29 -53.5 -62.5t-45.5 -72.5q-16 -29 -17 -59.5t-1 -59.5q0 -27 -4 -53.5t4 -57.5q4 -6 -3 -13t-15 1q-23 23 -39.5 53.5t-12.5 65.5q2 27 14.5 49.5t28.5 38.5q33 82 95 156q29 37 67.5 62.5t79.5 43.5
q84 41 172 59.5t180 14.5q6 -2 15 -2q-57 14 -129 14q-100 0 -180 -13.5t-143.5 -37t-110 -54t-78.5 -63.5q-78 -76 -111 -172z" />
    <glyph glyph-name="bar" unicode="|" horiz-adv-x="897" 
d="M-135 -211q-4 12 4 16.5t12 -2.5q16 -23 34.5 -32t37.5 -19q18 -10 39.5 -19t44.5 -1q63 25 111.5 93.5t78.5 149.5q16 41 27.5 84t24.5 88l49 177l4 20t6 21v6q49 184 98 365.5t101 365.5l49 182q12 45 26.5 91t32.5 87q37 88 94 154q29 31 64 51.5t69 24.5q37 27 76 8
q25 -12 38.5 -41t21.5 -60q4 -10 -4.5 -15t-12.5 1q-16 23 -34.5 32t-36.5 21q-18 10 -40 19.5t-44 -0.5q-63 -25 -111.5 -93.5t-79.5 -150.5q-16 -41 -27.5 -84t-23.5 -88l-47 -176q-4 -10 -6 -19.5t-6 -19.5v-8q-49 -184 -98.5 -365.5t-100.5 -363.5l-49 -183
q-12 -47 -26.5 -92t-33.5 -88q-18 -43 -41.5 -82t-52.5 -71q-29 -31 -63.5 -51.5t-69.5 -24.5q-37 -27 -76 -8q-23 14 -37 41.5t-22 58.5z" />
    <glyph glyph-name="braceright" unicode="}" horiz-adv-x="1867" 
d="M90 401v295l232 -231q82 139 202 252q51 47 116 92t142.5 81t169.5 57.5t197 21.5q104 0 187 -18.5t147.5 -47.5t111.5 -66.5t82 -76.5q80 -92 111 -209q-33 98 -113 176q-35 33 -82 63.5t-110.5 55t-145.5 38t-184 13.5q-72 0 -131 -14q8 0 14 2q92 4 183.5 -14.5
t175.5 -59.5q41 -20 81 -46t70 -63q61 -75 96 -159q16 -16 28.5 -39t15.5 -51q4 -35 -12.5 -66t-39.5 -55q-8 -8 -16 -1t-4 15q10 31 5 57.5t-5 55.5t-1 60.5t-18 60.5q-20 39 -44.5 73.5t-55.5 63.5q-33 29 -69.5 50t-77.5 38q-80 31 -166 45t-172 4q-51 -6 -102.5 -21.5
t-98.5 -35.5q-68 -41 -128 -92.5t-112.5 -108.5t-96.5 -115.5t-79 -113.5q-82 -129 -145 -269z" />
    <glyph glyph-name="asciitilde" unicode="~" horiz-adv-x="880" 
d="M57 522q25 90 72 144q20 23 47 41t62.5 24t78.5 -2t97 -39q106 -59 180 -72.5t121 -3.5q53 10 88 45q-55 -80 -123 -127q-29 -20 -64.5 -34.5t-76.5 -16.5t-88.5 10.5t-98.5 45.5q-68 43 -113.5 60t-76.5 17t-49.5 -12t-28.5 -27.5t-15.5 -31t-11.5 -21.5z" />
    <glyph glyph-name="uni00A0" unicode="&#xa0;" horiz-adv-x="1024" 
 />
    <glyph glyph-name="exclamdown" unicode="&#xa1;" horiz-adv-x="485" 
d="M-94 -656q137 287 228 555q39 115 70.5 237t47 237.5t9 221t-40.5 185.5q41 -78 74.5 -126t56.5 -77q27 -33 49 -51q-10 -143 -35 -305q-23 -139 -65 -315t-113 -363q61 51 134 100.5t141.5 69t122.5 -6.5t75 -122q-29 68 -70 89.5t-90 10t-101 -47.5t-102 -85
q-117 -113 -247 -301zM-75 979q2 10 3 21.5t7 21.5q14 25 45 31q14 2 25.5 -3.5t21.5 -11.5t17.5 -13t15.5 -13q31 -25 71.5 -85.5t78.5 -132t70 -145.5t46 -125q4 -8 -10 -8q-6 -4 -10 4q-6 16 -29 73.5t-53.5 125t-64.5 131t-58 92.5q-16 23 -34.5 40t-41.5 28
q-27 -6 -39 -13q-8 -4 -21.5 -8t-21.5 -18q-4 -4 -11 -1t-7 9zM166 -436q33 59 82 104q41 39 104.5 66.5t149.5 17.5q-76 -12 -130 -58t-91 -97.5t-54.5 -92.5t-19.5 -43t-8 13.5t-14 35.5q-8 23 -19 54zM254 1034q35 10 71 49t65 84q35 53 67 115q6 -55 17 -107
q10 -43 26.5 -88t44.5 -69q-29 -12 -62.5 -49t-64.5 -78q-37 -48 -74 -103q-8 55 -20 105q-10 41 -27.5 82t-42.5 59z" />
    <glyph glyph-name="cent" unicode="&#xa2;" horiz-adv-x="632" 
d="M-236 -467q-4 12 4.5 16.5t12.5 -2.5q16 -23 34.5 -32t37.5 -19q18 -10 39.5 -19t44.5 -1q63 25 111 93.5t79 149.5q16 41 27.5 84t23.5 88l49 177l4 20t7 21v6q49 184 98 365.5t100 365.5l49 182q12 45 26.5 91t33.5 87q37 88 94 154q29 31 63.5 51.5t69.5 24.5
q37 27 76 8q25 -12 38 -41t21 -60q4 -10 -4 -15t-12 1q-16 23 -34.5 32t-37.5 21q-18 10 -39.5 19.5t-44.5 -0.5q-63 -25 -111.5 -93.5t-78.5 -150.5q-16 -41 -27.5 -84t-23.5 -88l-48 -176q-4 -10 -6 -19.5t-6 -19.5v-8q-49 -184 -98 -365.5t-100 -363.5l-50 -183
q-12 -47 -26.5 -92t-32.5 -88t-42 -82t-52 -71q-29 -31 -64 -51.5t-69 -24.5q-37 -27 -76 -8q-23 14 -37 41.5t-23 58.5zM-6 188.5q-2 61.5 5 119t17.5 104.5t18.5 71q4 10 7 16.5t-1 6.5t1 -11.5t11 -25.5q8 -16 19 -35q-33 -117 -37 -221q-2 -45 3 -90t20.5 -87t43 -76
t70.5 -54q-66 20 -103.5 64t-55 100.5t-19.5 118zM2 340q6 78 25 154q41 176 141 374l342 166l14 10v-4l11 4q-4 -2 -6.5 -4t-6.5 -4q-8 -16 -6 -66t23.5 -99.5t66.5 -79t125 -7.5q-59 -74 -115.5 -103.5t-103.5 -18t-83 61.5t-56 136q-63 -102 -108.5 -220t-64 -228.5
t-7 -201.5t58.5 -138q31 -33 60.5 -39t55 4t48 34.5t41.5 55.5q43 70 78 182q-37 -135 -91 -229q-23 -41 -50 -75t-61 -54.5t-75 -21.5t-86 26q-72 41 -109.5 101.5t-52 133t-8.5 150.5z" />
    <glyph glyph-name="sterling" unicode="&#xa3;" horiz-adv-x="538" 
d="M-988 24q-3 42 15.5 78.5t63.5 66.5t125 46q72 14 158.5 8t184 -25.5t203 -49t213.5 -66.5q25 143 64 327.5t95 383t131 395t171 364.5q57 -8 123 -6q55 2 127 11.5t145 37.5q-66 -27 -134 -108.5t-135.5 -203.5t-132 -274.5t-119 -318.5t-98.5 -337t-71 -328
q158 -55 311.5 -109.5t292 -93.5t254 -53.5t196.5 9t119.5 94.5t24.5 204q43 -160 32 -260.5t-61 -153.5t-134 -65.5t-187.5 2t-219.5 51.5t-230.5 82t-221 92t-192.5 84q-16 -141 -8 -263t49 -218q-23 41 -61.5 98t-77.5 110q-45 61 -97 123q2 27 9 62q4 29 9 71.5t13 96.5
q-10 4 -17 7t-14 7q-47 20 -124.5 45t-168 46.5t-185.5 35.5t-176 13t-141.5 -21.5t-83 -68.5t2 -129t115.5 -199q-100 117 -138 215q-16 43 -19 85zM-805 264q98 25 195.5 21t187.5 -25.5t167 -54.5t134.5 -63.5t90 -53.5t32.5 -25q0 -4 -11 -8t-24 -8q-14 -6 -33 -8
q-100 78 -217 133q-49 25 -108.5 46.5t-126 34.5t-139 17t-148.5 -6zM-207 381q33 90 94 143q27 23 62 41.5t81 24.5t103 -2t127 -39q139 -59 234.5 -72.5t156.5 -3.5q70 10 117 45q-70 -80 -160 -127q-39 -20 -85 -34.5t-100 -16.5t-115.5 10t-129.5 45q-88 43 -148.5 60.5
t-100.5 17.5t-63.5 -12t-37.5 -27.5t-21.5 -31t-13.5 -21.5zM-6 182q18 203 59 420q18 92 42 196.5t55.5 214t72.5 222.5t90 221q-78 -223 -126 -431t-74 -370q-31 -188 -43 -356zM59 -84q23 8 39 16q14 6 25.5 12.5t9.5 6.5t46 -32t130 -80t190.5 -102t230.5 -100.5
t248 -75t243 -22.5q-96 -10 -197.5 2.5t-202 37t-196 59t-179.5 71.5q-199 88 -387 207zM440 1297.5q0 5.5 4 9.5q59 72 125 139t150 117q41 23 87 37t95 16q96 0 182 -51q43 -25 72 -66q31 -47 33 -94q4 -49 -11.5 -96t-37.5 -88q-49 -82 -120 -146.5t-159 -103.5
q-37 -41 -90 -47q-33 -6 -63.5 4t-59.5 20q-10 4 -8 14.5t12 10.5q35 4 63.5 11t59.5 11q29 2 61.5 4t61.5 19q76 43 137.5 107.5t98.5 144.5q18 39 25 81t-3 83t-39 72.5t-69 47.5q-39 18 -81 27.5t-85 5.5t-84 -18.5t-78 -36.5q-76 -47 -137.5 -110.5t-118.5 -133.5
q-4 -4 -9 -4t-10 4q-4 4 -4 9.5z" />
    <glyph glyph-name="currency" unicode="&#xa4;" horiz-adv-x="6838" 
d="M-662 -250q31 -10 107 -26.5t196.5 -27.5t287.5 -10t381 29.5t475.5 89t572.5 168.5q260 90 473 139.5t383 69t300 14t226 -23.5q225 -45 338 -164q-33 23 -86 39q-45 14 -116.5 25.5t-174.5 13.5q27 -8 49.5 -16.5t45.5 -18.5q82 -27 158.5 -65.5t148.5 -98.5
q35 -29 64.5 -66.5t49.5 -86.5q18 -51 19.5 -105.5t-10.5 -101.5q-10 -47 -36 -86t-61 -68q-29 -29 -66.5 -48t-74.5 -30q-78 -23 -156.5 -27.5t-160.5 1.5q-59 4 -116.5 0t-117.5 8q-61 10 -119.5 42t-107.5 79q-12 10 -6 25.5t22 5.5q45 -23 94.5 -26t98.5 -21
q45 -8 84 -24.5t75 -39.5q82 -10 163 -11t159 9q78 12 150.5 47t115.5 107q20 39 32.5 83t8.5 91q-12 96 -74 163q-61 72 -137 116t-153 73q-72 31 -142.5 50.5t-142.5 29.5q-137 -10 -316.5 -46t-424.5 -106q-37 -14 -118 -44t-194.5 -66.5t-252 -78.5t-289 -79t-306 -66.5
t-305 -43t-284 -8.5t-242.5 38q184 -33 393 -13.5t410 66.5q-262 -25 -480.5 -14.5t-384 36t-275.5 55.5t-151 44zM332 -598h26h-26zM358 -598q41 -2 154 3t272.5 29.5t351 78t390.5 147.5q170 80 313 127t262 68.5t213 22.5t168 -9q173 -25 277 -111q-115 51 -281 54
q-72 0 -161 -10.5t-198.5 -38t-237.5 -75.5t-275 -122q-96 -49 -218 -80t-250 -50.5t-255 -27.5t-232.5 -10t-183.5 0t-109 4zM510 496v8q63 6 70 49q2 18 6 53t10 94l12 140v53q0 41 -14 53t-59 19v8h100l203 -406l198 406h111v-8q-49 -2 -64.5 -20.5t-7.5 -72.5l2 -272
q0 -29 2 -47t10.5 -28.5t23.5 -14.5t42 -6v-8h-188v8q25 2 40 6t22 14.5t8 28.5t-1 47l-2 322h-4l-205 -418h-8l-186 391h-2l-8 -205q-4 -27 -4.5 -47t-0.5 -37q-2 -53 11.5 -74.5t66.5 -27.5v-8h-184zM1047 1307v6q18 4 28 12t21 37l94 217l4 4l29 -82q16 -41 28.5 -79
t26.5 -68q8 -23 15 -30t30 -11v-6h-94v6q31 8 31 14q0 10 -9.5 33.5t-19.5 54.5h-98q-4 -10 -15.5 -39.5t-11.5 -42.5q0 -10 9 -13t26 -7v-6h-94zM1139 1425h90l-41 117h-4q-12 -31 -23.5 -59.5t-21.5 -57.5zM1194 496v8q37 6 54.5 21.5t35.5 66.5l168 391l8 2l51 -141
q27 -72 51.5 -141.5t49.5 -122.5q14 -41 28.5 -55.5t51.5 -20.5v-8h-174v8q61 12 59 28q0 18 -15.5 59.5t-35.5 94.5h-176q-4 -8 -12.5 -27.5t-15.5 -41t-12 -42t-5 -32.5q0 -18 14 -25.5t49 -13.5v-8h-174zM1358 707h160l-72 206h-4q-23 -53 -44.5 -104t-39.5 -102z
M1407 1049q0 20 12.5 33.5t32.5 13.5q18 0 31.5 -13.5t13.5 -33.5t-13.5 -31.5t-31.5 -11.5q-45 0 -45 43zM1720 965v8h97l356 -402h2v217q2 53 0 87t-11.5 53.5t-28.5 28t-52 8.5v8h188v-8q-33 -2 -48 -13.5t-21 -27.5t-7.5 -49t-1.5 -87v-299h-6l-356 404h-2v-207
q2 -59 2 -91t6 -48q6 -18 24.5 -28.5t57.5 -14.5v-8h-188v8q59 6 71 41q2 16 5 49t3 92v168q0 47 -5 59.5t-15 22.5q-8 10 -21.5 16t-48.5 13zM1989 1307v6q25 0 32 8t7 33v174q0 23 -7.5 32t-31.5 9v4h182q0 -16 1 -32.5t1 -33.5h-8q-4 33 -18.5 45.5t-49.5 12.5h-35
q-14 0 -14 -15v-104h53q29 0 37 6t12 29h7v-84h-7q-4 27 -12 34t-37 7h-53v-84q0 -25 8 -33t41 -8v-6h-108zM2327 629h8q4 -18 13 -39t25.5 -40.5t40 -33.5t58.5 -18q90 0 96 102q-4 59 -37.5 85t-66.5 42q-10 0 -66 33q-51 33 -53 100q0 51 36 87t105 36q16 2 37 -2t53 -12
q0 -18 3.5 -43t5.5 -66h-9q-10 37 -31.5 71t-76.5 38q-41 -4 -62.5 -27.5t-21.5 -60.5q4 -47 31.5 -73t68.5 -44q14 -6 35 -16.5t40 -26.5t33.5 -41t14.5 -59q0 -61 -40 -99.5t-116 -38.5q-25 0 -42 3t-33 6q-16 8 -23.5 10t-11.5 6l-7 49t-7 72zM2472 1438q0 57 37.5 98
t109.5 43q57 0 98.5 -36t41.5 -99t-42 -103.5t-106 -40.5q-59 0 -99 37t-40 101zM2501 1448q0 -63 33.5 -100t86.5 -37q45 0 77 28.5t34 85.5q-2 72 -37 109t-88 37q-43 0 -74.5 -29t-31.5 -94zM2836 727q2 63 26 111.5t64 81t92 48t109 15.5q49 0 90 -6t60 -12q0 -16 3 -47
t9 -68h-12q-18 70 -60.5 94.5t-101.5 24.5q-111 -4 -168 -63.5t-57 -166.5q0 -43 13 -85t41 -75.5t72 -55t105 -25.5q29 0 53.5 4t42.5 10q35 6 35 53v66q0 35 -15 48t-79 19v9h180v-9q-33 -6 -41 -16t-8 -37v-67q0 -20 1 -38t7 -28q-37 -10 -83 -19.5t-93 -9.5
q-129 0 -207 66.5t-78 177.5zM3047 1571v2h56l198 -223h2v123q2 59 -6 77.5t-45 20.5v2h103v-2q-16 -2 -24.5 -8.5t-12.5 -14.5q-4 -10 -5 -28.5t-1 -46.5v-168h-2l-197 225h-4v-115q4 -35 3 -52t3 -28q4 -23 43 -22v-6h-104v6q18 0 27 6t14 16q4 10 5 27.5t1 52.5v92
q0 27 -2 33t-11 12q-4 8 -12 11.5t-29 7.5zM3247 -371.5q1 54.5 22 105.5q20 49 49.5 87t62.5 66q72 59 150 98.5t157 65.5q25 10 47.5 18.5t49.5 16.5q-104 -2 -175 -13.5t-116 -25.5q-53 -16 -86 -39q113 119 338 164q96 18 226 23.5t299 -14t381 -69t474 -139.5
q311 -109 573.5 -169t476.5 -88.5t381 -29.5t287.5 10t196.5 27.5t107 26.5q-41 -14 -151 -44t-275.5 -55.5t-385 -35.5t-479.5 14q201 -47 410 -66.5t393 13.5q-109 -33 -244 -38t-283.5 8.5t-305 43t-307 66.5t-289 79t-251 78.5t-193.5 66.5t-118 44q-246 70 -426 106
t-317 46q-72 -10 -141.5 -29.5t-141.5 -50.5q-78 -29 -153.5 -73t-136.5 -116q-31 -33 -49.5 -74.5t-26.5 -88.5q-2 -47 9 -91.5t32 -82.5q43 -72 116.5 -107t149.5 -47q78 -10 160 -9t162 11q37 23 76.5 39t82.5 25q51 18 99.5 21t95.5 26q16 10 22 -5.5t-8 -25.5
q-47 -47 -106.5 -79t-118.5 -42q-61 -12 -118.5 -8t-117.5 0q-80 -6 -159.5 -1t-155.5 27q-37 10 -76 30t-67 48q-35 29 -59.5 68t-35.5 86q-14 47 -13 101.5zM3385 496v8q49 4 61.5 19.5t12.5 58.5v305q0 47 -12.5 59t-59.5 17v8h183q29 0 57.5 -4t51 -18.5t35.5 -37
t13 -59.5q0 -51 -23.5 -81t-70.5 -50q10 -16 31.5 -47t38.5 -58q29 -37 64.5 -73.5t64.5 -46.5v-7q-25 -2 -49.5 2.5t-46.5 20.5q-45 33 -127 168q-16 20 -39 25.5t-72 5.5v-129q0 -43 12.5 -58.5t63.5 -19.5v-8h-189zM3498 721h49q33 0 55.5 7t40.5 17q16 16 27.5 39
t11.5 56q-2 61 -37.5 89.5t-97.5 28.5q-16 -2 -26.5 -2h-14.5q-8 0 -8 -18v-217zM3637 1509q2 20 2 38t4 38h4q4 -6 11 -12h184q10 0 13 3t8 9h8v-35.5t4 -36.5l-8 -4q-10 35 -24.5 45.5t-37.5 10.5h-41v-211q0 -23 8.5 -32t40.5 -9v-6h-116v6q35 0 41 9t6 32v211h-27
q-39 0 -53 -11.5t-21 -44.5h-6zM3727 -242q104 86 277 111q74 10 168 9t212 -22.5t261 -68.5t313 -127q199 -94 391.5 -147.5t351 -78t271.5 -29.5t154 -3q-31 -2 -108 -4t-183.5 0t-232.5 10t-255 27.5t-249.5 50.5t-217.5 80q-147 74 -276 122t-237.5 75.5t-198.5 38
t-160 10.5q-168 -3 -281 -54zM3863 496v8q51 2 64 17.5t13 58.5v301q0 51 -12 66.5t-57 15.5v8h331q0 -16 3.5 -48t3.5 -65l-13 -4q-10 59 -32.5 80.5t-90.5 21.5h-71q-16 0 -19.5 -4t-3.5 -18v-180h92q43 0 60.5 11t25.5 50h11v-143h-11q-8 45 -26.5 54t-59.5 9h-92v-149
q0 -55 24.5 -65.5t69.5 -10.5q39 0 70 4t47 29q10 8 22.5 27.5t20.5 45.5h15q-6 -23 -14.5 -61.5t-14.5 -58.5h-356zM4297 496v8q51 0 63 16.5t12 61.5v305q0 43 -11 57t-58 19v8h182q82 0 117 -25.5t33 -77.5q-4 -49 -37 -74.5t-60 -31.5q53 -10 92 -40t39 -85
q0 -80 -73 -115q-59 -33 -148 -26h-151zM4411 578q0 -39 14.5 -53.5t57.5 -14.5q59 0 96 26.5t41 90.5q-4 63 -44 93t-109 30h-56v-172zM4411 764h58q63 0 92 26.5t29 69.5q2 14 -2.5 31.5t-17.5 32t-38.5 24.5t-68.5 10q-16 0 -26.5 -1t-14.5 -1q-10 0 -11 -18v-174z
M4538 1307v6q29 0 36 8t7 35v172q0 23 -7 32t-34 9v4h105q86 0 82 -57q-4 -29 -21.5 -42.5t-31.5 -15.5q29 -8 51 -23.5t22 -45.5q0 -45 -41 -68q-31 -14 -84 -14h-84zM4602 1354q0 -23 8 -31t33 -8q33 0 54.5 15.5t21.5 49.5q0 37 -24 52.5t-60 15.5h-33v-94zM4602 1458h33
q70 0 69 55q0 16 -13 34t-60 22q-8 0 -14.5 -2t-8.5 -2q-6 0 -6 -9v-98zM4712 496v8q37 6 54.5 21.5t36.5 66.5l167 391l9 2l51 -141q27 -72 51.5 -141.5t48.5 -122.5q14 -41 28.5 -55.5t51.5 -20.5v-8h-174v8q35 6 48 12t11 16q0 18 -15 59.5t-34 94.5h-178
q-4 -8 -11 -27.5t-15.5 -41t-13.5 -42t-5 -32.5q0 -18 14.5 -25.5t49.5 -13.5v-8h-175zM4876 707h160l-72 206h-2q-47 -100 -86 -206zM4889 1038q0 12 8 21.5t20 9.5q14 0 23.5 -9t9.5 -22q0 -31 -33 -30q-28 -1 -28 30zM5014 1038q0 12 8 21.5t20 9.5q14 0 23.5 -9t9.5 -22
q0 -31 -33 -30q-28 -1 -28 30zM5030 1571v2h94v-2q-33 -10 -33 -15q4 -4 4 -7t2 -7q16 -25 32 -51.5t32 -52.5q4 10 14.5 25.5t20.5 37.5q14 20 18 32.5t8 18.5q0 10 -34 19v2h96v-2q-20 -4 -31.5 -14.5t-23.5 -28.5q-10 -16 -23.5 -38t-30.5 -50q-10 -12 -10 -21v-65
q0 -25 7 -33t42 -8v-6h-117v6q31 0 39.5 8t8.5 33v63q0 2 -1 7.5t-12 19.5q-10 16 -22.5 38.5t-32.5 51.5q-12 18 -20.5 26.5t-26.5 10.5zM5259 727q0 117 84 186.5t217 69.5q55 0 92 -7t54 -11q4 -29 6 -57.5t8 -61.5l-14 -2q-16 68 -56.5 96.5t-117.5 28.5
q-113 -4 -166 -67.5t-53 -156.5q2 -115 61 -179t164 -68q78 4 119 42t67 97l14 -6q-10 -33 -20 -70t-20 -59q-20 -4 -63.5 -11.5t-90.5 -7.5q-76 2 -130 22.5t-89 54.5t-50.5 77t-15.5 90zM5782 965v8h188v-8q-51 -2 -63.5 -19.5t-12.5 -64.5v-136q10 2 26.5 9.5t26.5 15.5
q23 20 48.5 44t50.5 52q55 57 57 78q0 8 -51 21v8h184v-8q-37 -6 -63.5 -18.5t-55.5 -39.5q-20 -16 -65 -59t-90 -88q23 -27 49.5 -55.5t54.5 -59.5l84 -84q35 -29 53.5 -41t46.5 -16v-8h-94l-107 107t-102 112q-25 20 -39 20q-2 -2 -14 -2v-145q0 -47 12.5 -63.5
t65.5 -20.5v-8h-184v8q43 4 56 20.5t13 63.5v293q0 47 -12 64.5t-63 19.5zM6126 -598h26h-26z" />
    <glyph glyph-name="yen" unicode="&#xa5;" horiz-adv-x="1026" 
d="M-1282 -843q0 52 10 104q10 55 25 102q4 12 8 24.5t8 24.5q6 12 12.5 23.5t12.5 23.5q25 47 54.5 89t64.5 81q70 78 155.5 139.5t190.5 84.5q6 2 11 -3.5t5 -9.5q0 -10 -12 -14q-102 -23 -187.5 -86.5t-154.5 -140.5q-35 -41 -63.5 -84t-51.5 -90t-36 -97.5t-21 -101.5
q-6 -51 -2 -103.5t20 -99.5q16 -49 48 -90t75 -66q45 -29 95 -38t102 -5q53 4 101 21.5t95 42.5q31 43 74 74q25 20 53.5 34.5t50.5 38.5q8 8 17.5 2t5.5 -16q-16 -35 -40 -68.5t-58 -56.5q-35 -23 -73 -33t-73 -26q-49 -20 -101 -31.5t-106 -7.5q-53 4 -104 21.5t-92 52.5
t-67.5 82t-39.5 98q-12 53 -12 105zM-1122 -428q76 127 180 206t224 121t251 53t260 1t252 -36t225.5 -54.5t181 -58t119.5 -46.5l-2 2q6 59 17 134q10 63 22.5 149t32.5 190q-66 -72 -157 -117.5t-214 -45.5q-139 0 -213.5 50t-95 142t11 222t104.5 292t184.5 349.5
t252.5 394.5l154 -95q-231 -360 -359 -641q-53 -121 -89 -235.5t-37 -204.5t43 -145.5t151 -55.5q94 0 166.5 65.5t126.5 162.5q29 139 67.5 292.5t89 308t111.5 303t137 279.5l189 -122q-195 -412 -322 -791q-55 -162 -100 -332t-68.5 -329.5t-19.5 -302t51 -248.5
q-27 35 -103.5 84t-188.5 100t-251 99t-289.5 81t-305 44t-299 -11.5t-270.5 -82.5t-220 -171zM-623 -170q4 0 37 11.5t72 27.5l102 41q139 14 314 -35q74 -23 164 -59.5t193 -97t219 -145.5t243 -204q-182 147 -354 239.5t-321.5 143.5t-273.5 69.5t-212 20.5t-136.5 -5
t-46.5 -7zM-104 423.5q16 102.5 56 210t98.5 214t122 204t126.5 182.5t113.5 146.5t81 97t28.5 35.5t-14 -22.5t-28.5 -57t-36 -74.5t-36 -73t-26.5 -54.5t-10 -19.5t-39 -35.5t-95.5 -106.5t-121 -164t-116.5 -204.5t-82 -229.5t-17 -241q-20 90 -4 192.5zM-53 31
q25 -4 89 -7.5t156.5 1t207 18.5t237.5 45q207 55 343 59.5t218 -12.5q97 -20 148 -63q-59 31 -156 39q-82 8 -210 -3.5t-308 -64.5q-90 -27 -204 -33t-221.5 -3t-190.5 11.5t-109 12.5zM-10 -55q25 -4 89 -7.5t156.5 1t207 18.5t237.5 45q207 55 343 59.5t218 -12.5
q97 -20 148 -63q-59 31 -156 39q-82 8 -210 -3.5t-308 -64.5q-90 -27 -204 -33t-221.5 -3t-190.5 11.5t-109 12.5z" />
    <glyph glyph-name="brokenbar" unicode="&#xa6;" horiz-adv-x="6838" 
d="M-662 -250q31 -10 107 -26.5t196.5 -27.5t287.5 -10t381 29.5t475.5 89t572.5 168.5q260 90 473 139.5t383 69t300 14t226 -23.5q225 -45 338 -164q-33 23 -86 39q-45 14 -116.5 25.5t-174.5 13.5q27 -8 49.5 -16.5t45.5 -18.5q82 -27 158.5 -65.5t148.5 -98.5
q35 -29 64.5 -66.5t49.5 -86.5q18 -51 19.5 -105.5t-10.5 -101.5q-10 -47 -36 -86t-61 -68q-29 -29 -66.5 -48t-74.5 -30q-78 -23 -156.5 -27.5t-160.5 1.5q-59 4 -116.5 0t-117.5 8q-61 10 -119.5 42t-107.5 79q-12 10 -6 25.5t22 5.5q45 -23 94.5 -26t98.5 -21
q45 -8 84 -24.5t75 -39.5q82 -10 163 -11t159 9q78 12 150.5 47t115.5 107q20 39 32.5 83t8.5 91q-12 96 -74 163q-61 72 -137 116t-153 73q-72 31 -142.5 50.5t-142.5 29.5q-137 -10 -316.5 -46t-424.5 -106q-37 -14 -118 -44t-194.5 -66.5t-252 -78.5t-289 -79t-306 -66.5
t-305 -43t-284 -8.5t-242.5 38q184 -33 393 -13.5t410 66.5q-262 -25 -480.5 -14.5t-384 36t-275.5 55.5t-151 44zM332 -598h26h-26zM358 -598q41 -2 154 3t272.5 29.5t351 78t390.5 147.5q170 80 313 127t262 68.5t213 22.5t168 -9q173 -25 277 -111q-115 51 -281 54
q-72 0 -161 -10.5t-198.5 -38t-237.5 -75.5t-275 -122q-96 -49 -218 -80t-250 -50.5t-255 -27.5t-232.5 -10t-183.5 0t-109 4zM510 496v8q63 6 70 49q2 18 6 53t10 94l12 140v53q0 41 -14 53t-59 19v8h100l203 -406l198 406h111v-8q-49 -2 -64.5 -20.5t-7.5 -72.5l2 -272
q0 -29 2 -47t10.5 -28.5t23.5 -14.5t42 -6v-8h-188v8q25 2 40 6t22 14.5t8 28.5t-1 47l-2 322h-4l-205 -418h-8l-186 391h-2l-8 -205q-4 -27 -4.5 -47t-0.5 -37q-2 -53 11.5 -74.5t66.5 -27.5v-8h-184zM1047 1307v6q18 4 28 12t21 37l94 217l4 4l29 -82q16 -41 28.5 -79
t26.5 -68q8 -23 15 -30t30 -11v-6h-94v6q31 8 31 14q0 10 -9.5 33.5t-19.5 54.5h-98q-4 -10 -15.5 -39.5t-11.5 -42.5q0 -10 9 -13t26 -7v-6h-94zM1139 1425h90l-41 117h-4q-12 -31 -23.5 -59.5t-21.5 -57.5zM1194 496v8q37 6 54.5 21.5t35.5 66.5l168 391l8 2l51 -141
q27 -72 51.5 -141.5t49.5 -122.5q14 -41 28.5 -55.5t51.5 -20.5v-8h-174v8q61 12 59 28q0 18 -15.5 59.5t-35.5 94.5h-176q-4 -8 -12.5 -27.5t-15.5 -41t-12 -42t-5 -32.5q0 -18 14 -25.5t49 -13.5v-8h-174zM1358 707h160l-72 206h-4q-23 -53 -44.5 -104t-39.5 -102z
M1407 1049q0 20 12.5 33.5t32.5 13.5q18 0 31.5 -13.5t13.5 -33.5t-13.5 -31.5t-31.5 -11.5q-45 0 -45 43zM1720 965v8h97l356 -402h2v217q2 53 0 87t-11.5 53.5t-28.5 28t-52 8.5v8h188v-8q-33 -2 -48 -13.5t-21 -27.5t-7.5 -49t-1.5 -87v-299h-6l-356 404h-2v-207
q2 -59 2 -91t6 -48q6 -18 24.5 -28.5t57.5 -14.5v-8h-188v8q59 6 71 41q2 16 5 49t3 92v168q0 47 -5 59.5t-15 22.5q-8 10 -21.5 16t-48.5 13zM1989 1307v6q25 0 32 8t7 33v174q0 23 -7.5 32t-31.5 9v4h182q0 -16 1 -32.5t1 -33.5h-8q-4 33 -18.5 45.5t-49.5 12.5h-35
q-14 0 -14 -15v-104h53q29 0 37 6t12 29h7v-84h-7q-4 27 -12 34t-37 7h-53v-84q0 -25 8 -33t41 -8v-6h-108zM2327 629h8q4 -18 13 -39t25.5 -40.5t40 -33.5t58.5 -18q90 0 96 102q-4 59 -37.5 85t-66.5 42q-10 0 -66 33q-51 33 -53 100q0 51 36 87t105 36q16 2 37 -2t53 -12
q0 -18 3.5 -43t5.5 -66h-9q-10 37 -31.5 71t-76.5 38q-41 -4 -62.5 -27.5t-21.5 -60.5q4 -47 31.5 -73t68.5 -44q14 -6 35 -16.5t40 -26.5t33.5 -41t14.5 -59q0 -61 -40 -99.5t-116 -38.5q-25 0 -42 3t-33 6q-16 8 -23.5 10t-11.5 6l-7 49t-7 72zM2472 1438q0 57 37.5 98
t109.5 43q57 0 98.5 -36t41.5 -99t-42 -103.5t-106 -40.5q-59 0 -99 37t-40 101zM2501 1448q0 -63 33.5 -100t86.5 -37q45 0 77 28.5t34 85.5q-2 72 -37 109t-88 37q-43 0 -74.5 -29t-31.5 -94zM2836 727q2 63 26 111.5t64 81t92 48t109 15.5q49 0 90 -6t60 -12q0 -16 3 -47
t9 -68h-12q-18 70 -60.5 94.5t-101.5 24.5q-111 -4 -168 -63.5t-57 -166.5q0 -43 13 -85t41 -75.5t72 -55t105 -25.5q29 0 53.5 4t42.5 10q35 6 35 53v66q0 35 -15 48t-79 19v9h180v-9q-33 -6 -41 -16t-8 -37v-67q0 -20 1 -38t7 -28q-37 -10 -83 -19.5t-93 -9.5
q-129 0 -207 66.5t-78 177.5zM3047 1571v2h56l198 -223h2v123q2 59 -6 77.5t-45 20.5v2h103v-2q-16 -2 -24.5 -8.5t-12.5 -14.5q-4 -10 -5 -28.5t-1 -46.5v-168h-2l-197 225h-4v-115q4 -35 3 -52t3 -28q4 -23 43 -22v-6h-104v6q18 0 27 6t14 16q4 10 5 27.5t1 52.5v92
q0 27 -2 33t-11 12q-4 8 -12 11.5t-29 7.5zM3247 -371.5q1 54.5 22 105.5q20 49 49.5 87t62.5 66q72 59 150 98.5t157 65.5q25 10 47.5 18.5t49.5 16.5q-104 -2 -175 -13.5t-116 -25.5q-53 -16 -86 -39q113 119 338 164q96 18 226 23.5t299 -14t381 -69t474 -139.5
q311 -109 573.5 -169t476.5 -88.5t381 -29.5t287.5 10t196.5 27.5t107 26.5q-41 -14 -151 -44t-275.5 -55.5t-385 -35.5t-479.5 14q201 -47 410 -66.5t393 13.5q-109 -33 -244 -38t-283.5 8.5t-305 43t-307 66.5t-289 79t-251 78.5t-193.5 66.5t-118 44q-246 70 -426 106
t-317 46q-72 -10 -141.5 -29.5t-141.5 -50.5q-78 -29 -153.5 -73t-136.5 -116q-31 -33 -49.5 -74.5t-26.5 -88.5q-2 -47 9 -91.5t32 -82.5q43 -72 116.5 -107t149.5 -47q78 -10 160 -9t162 11q37 23 76.5 39t82.5 25q51 18 99.5 21t95.5 26q16 10 22 -5.5t-8 -25.5
q-47 -47 -106.5 -79t-118.5 -42q-61 -12 -118.5 -8t-117.5 0q-80 -6 -159.5 -1t-155.5 27q-37 10 -76 30t-67 48q-35 29 -59.5 68t-35.5 86q-14 47 -13 101.5zM3385 496v8q49 4 61.5 19.5t12.5 58.5v305q0 47 -12.5 59t-59.5 17v8h183q29 0 57.5 -4t51 -18.5t35.5 -37
t13 -59.5q0 -51 -23.5 -81t-70.5 -50q10 -16 31.5 -47t38.5 -58q29 -37 64.5 -73.5t64.5 -46.5v-7q-25 -2 -49.5 2.5t-46.5 20.5q-45 33 -127 168q-16 20 -39 25.5t-72 5.5v-129q0 -43 12.5 -58.5t63.5 -19.5v-8h-189zM3498 721h49q33 0 55.5 7t40.5 17q16 16 27.5 39
t11.5 56q-2 61 -37.5 89.5t-97.5 28.5q-16 -2 -26.5 -2h-14.5q-8 0 -8 -18v-217zM3637 1509q2 20 2 38t4 38h4q4 -6 11 -12h184q10 0 13 3t8 9h8v-35.5t4 -36.5l-8 -4q-10 35 -24.5 45.5t-37.5 10.5h-41v-211q0 -23 8.5 -32t40.5 -9v-6h-116v6q35 0 41 9t6 32v211h-27
q-39 0 -53 -11.5t-21 -44.5h-6zM3727 -242q104 86 277 111q74 10 168 9t212 -22.5t261 -68.5t313 -127q199 -94 391.5 -147.5t351 -78t271.5 -29.5t154 -3q-31 -2 -108 -4t-183.5 0t-232.5 10t-255 27.5t-249.5 50.5t-217.5 80q-147 74 -276 122t-237.5 75.5t-198.5 38
t-160 10.5q-168 -3 -281 -54zM3863 496v8q51 2 64 17.5t13 58.5v301q0 51 -12 66.5t-57 15.5v8h331q0 -16 3.5 -48t3.5 -65l-13 -4q-10 59 -32.5 80.5t-90.5 21.5h-71q-16 0 -19.5 -4t-3.5 -18v-180h92q43 0 60.5 11t25.5 50h11v-143h-11q-8 45 -26.5 54t-59.5 9h-92v-149
q0 -55 24.5 -65.5t69.5 -10.5q39 0 70 4t47 29q10 8 22.5 27.5t20.5 45.5h15q-6 -23 -14.5 -61.5t-14.5 -58.5h-356zM4297 496v8q51 0 63 16.5t12 61.5v305q0 43 -11 57t-58 19v8h182q82 0 117 -25.5t33 -77.5q-4 -49 -37 -74.5t-60 -31.5q53 -10 92 -40t39 -85
q0 -80 -73 -115q-59 -33 -148 -26h-151zM4411 578q0 -39 14.5 -53.5t57.5 -14.5q59 0 96 26.5t41 90.5q-4 63 -44 93t-109 30h-56v-172zM4411 764h58q63 0 92 26.5t29 69.5q2 14 -2.5 31.5t-17.5 32t-38.5 24.5t-68.5 10q-16 0 -26.5 -1t-14.5 -1q-10 0 -11 -18v-174z
M4538 1307v6q29 0 36 8t7 35v172q0 23 -7 32t-34 9v4h105q86 0 82 -57q-4 -29 -21.5 -42.5t-31.5 -15.5q29 -8 51 -23.5t22 -45.5q0 -45 -41 -68q-31 -14 -84 -14h-84zM4602 1354q0 -23 8 -31t33 -8q33 0 54.5 15.5t21.5 49.5q0 37 -24 52.5t-60 15.5h-33v-94zM4602 1458h33
q70 0 69 55q0 16 -13 34t-60 22q-8 0 -14.5 -2t-8.5 -2q-6 0 -6 -9v-98zM4712 496v8q37 6 54.5 21.5t36.5 66.5l167 391l9 2l51 -141q27 -72 51.5 -141.5t48.5 -122.5q14 -41 28.5 -55.5t51.5 -20.5v-8h-174v8q35 6 48 12t11 16q0 18 -15 59.5t-34 94.5h-178
q-4 -8 -11 -27.5t-15.5 -41t-13.5 -42t-5 -32.5q0 -18 14.5 -25.5t49.5 -13.5v-8h-175zM4876 707h160l-72 206h-2q-47 -100 -86 -206zM4889 1038q0 12 8 21.5t20 9.5q14 0 23.5 -9t9.5 -22q0 -31 -33 -30q-28 -1 -28 30zM5014 1038q0 12 8 21.5t20 9.5q14 0 23.5 -9t9.5 -22
q0 -31 -33 -30q-28 -1 -28 30zM5030 1571v2h94v-2q-33 -10 -33 -15q4 -4 4 -7t2 -7q16 -25 32 -51.5t32 -52.5q4 10 14.5 25.5t20.5 37.5q14 20 18 32.5t8 18.5q0 10 -34 19v2h96v-2q-20 -4 -31.5 -14.5t-23.5 -28.5q-10 -16 -23.5 -38t-30.5 -50q-10 -12 -10 -21v-65
q0 -25 7 -33t42 -8v-6h-117v6q31 0 39.5 8t8.5 33v63q0 2 -1 7.5t-12 19.5q-10 16 -22.5 38.5t-32.5 51.5q-12 18 -20.5 26.5t-26.5 10.5zM5259 727q0 117 84 186.5t217 69.5q55 0 92 -7t54 -11q4 -29 6 -57.5t8 -61.5l-14 -2q-16 68 -56.5 96.5t-117.5 28.5
q-113 -4 -166 -67.5t-53 -156.5q2 -115 61 -179t164 -68q78 4 119 42t67 97l14 -6q-10 -33 -20 -70t-20 -59q-20 -4 -63.5 -11.5t-90.5 -7.5q-76 2 -130 22.5t-89 54.5t-50.5 77t-15.5 90zM5782 965v8h188v-8q-51 -2 -63.5 -19.5t-12.5 -64.5v-136q10 2 26.5 9.5t26.5 15.5
q23 20 48.5 44t50.5 52q55 57 57 78q0 8 -51 21v8h184v-8q-37 -6 -63.5 -18.5t-55.5 -39.5q-20 -16 -65 -59t-90 -88q23 -27 49.5 -55.5t54.5 -59.5l84 -84q35 -29 53.5 -41t46.5 -16v-8h-94l-107 107t-102 112q-25 20 -39 20q-2 -2 -14 -2v-145q0 -47 12.5 -63.5
t65.5 -20.5v-8h-184v8q43 4 56 20.5t13 63.5v293q0 47 -12 64.5t-63 19.5zM6126 -598h26h-26z" />
    <glyph glyph-name="section" unicode="&#xa7;" horiz-adv-x="6838" 
d="M-662 -250q31 -10 107 -26.5t196.5 -27.5t287.5 -10t381 29.5t475.5 89t572.5 168.5q260 90 473 139.5t383 69t300 14t226 -23.5q225 -45 338 -164q-33 23 -86 39q-45 14 -116.5 25.5t-174.5 13.5q27 -8 49.5 -16.5t45.5 -18.5q82 -27 158.5 -65.5t148.5 -98.5
q35 -29 64.5 -66.5t49.5 -86.5q18 -51 19.5 -105.5t-10.5 -101.5q-10 -47 -36 -86t-61 -68q-29 -29 -66.5 -48t-74.5 -30q-78 -23 -156.5 -27.5t-160.5 1.5q-59 4 -116.5 0t-117.5 8q-61 10 -119.5 42t-107.5 79q-12 10 -6 25.5t22 5.5q45 -23 94.5 -26t98.5 -21
q45 -8 84 -24.5t75 -39.5q82 -10 163 -11t159 9q78 12 150.5 47t115.5 107q20 39 32.5 83t8.5 91q-12 96 -74 163q-61 72 -137 116t-153 73q-72 31 -142.5 50.5t-142.5 29.5q-137 -10 -316.5 -46t-424.5 -106q-37 -14 -118 -44t-194.5 -66.5t-252 -78.5t-289 -79t-306 -66.5
t-305 -43t-284 -8.5t-242.5 38q184 -33 393 -13.5t410 66.5q-262 -25 -480.5 -14.5t-384 36t-275.5 55.5t-151 44zM332 -598h26h-26zM358 -598q41 -2 154 3t272.5 29.5t351 78t390.5 147.5q170 80 313 127t262 68.5t213 22.5t168 -9q173 -25 277 -111q-115 51 -281 54
q-72 0 -161 -10.5t-198.5 -38t-237.5 -75.5t-275 -122q-96 -49 -218 -80t-250 -50.5t-255 -27.5t-232.5 -10t-183.5 0t-109 4zM510 496v8q63 6 70 49q2 18 6 53t10 94l12 140v53q0 41 -14 53t-59 19v8h100l203 -406l198 406h111v-8q-49 -2 -64.5 -20.5t-7.5 -72.5l2 -272
q0 -29 2 -47t10.5 -28.5t23.5 -14.5t42 -6v-8h-188v8q25 2 40 6t22 14.5t8 28.5t-1 47l-2 322h-4l-205 -418h-8l-186 391h-2l-8 -205q-4 -27 -4.5 -47t-0.5 -37q-2 -53 11.5 -74.5t66.5 -27.5v-8h-184zM1047 1307v6q18 4 28 12t21 37l94 217l4 4l29 -82q16 -41 28.5 -79
t26.5 -68q8 -23 15 -30t30 -11v-6h-94v6q31 8 31 14q0 10 -9.5 33.5t-19.5 54.5h-98q-4 -10 -15.5 -39.5t-11.5 -42.5q0 -10 9 -13t26 -7v-6h-94zM1139 1425h90l-41 117h-4q-12 -31 -23.5 -59.5t-21.5 -57.5zM1194 496v8q37 6 54.5 21.5t35.5 66.5l168 391l8 2l51 -141
q27 -72 51.5 -141.5t49.5 -122.5q14 -41 28.5 -55.5t51.5 -20.5v-8h-174v8q61 12 59 28q0 18 -15.5 59.5t-35.5 94.5h-176q-4 -8 -12.5 -27.5t-15.5 -41t-12 -42t-5 -32.5q0 -18 14 -25.5t49 -13.5v-8h-174zM1358 707h160l-72 206h-4q-23 -53 -44.5 -104t-39.5 -102z
M1407 1049q0 20 12.5 33.5t32.5 13.5q18 0 31.5 -13.5t13.5 -33.5t-13.5 -31.5t-31.5 -11.5q-45 0 -45 43zM1720 965v8h97l356 -402h2v217q2 53 0 87t-11.5 53.5t-28.5 28t-52 8.5v8h188v-8q-33 -2 -48 -13.5t-21 -27.5t-7.5 -49t-1.5 -87v-299h-6l-356 404h-2v-207
q2 -59 2 -91t6 -48q6 -18 24.5 -28.5t57.5 -14.5v-8h-188v8q59 6 71 41q2 16 5 49t3 92v168q0 47 -5 59.5t-15 22.5q-8 10 -21.5 16t-48.5 13zM1989 1307v6q25 0 32 8t7 33v174q0 23 -7.5 32t-31.5 9v4h182q0 -16 1 -32.5t1 -33.5h-8q-4 33 -18.5 45.5t-49.5 12.5h-35
q-14 0 -14 -15v-104h53q29 0 37 6t12 29h7v-84h-7q-4 27 -12 34t-37 7h-53v-84q0 -25 8 -33t41 -8v-6h-108zM2327 629h8q4 -18 13 -39t25.5 -40.5t40 -33.5t58.5 -18q90 0 96 102q-4 59 -37.5 85t-66.5 42q-10 0 -66 33q-51 33 -53 100q0 51 36 87t105 36q16 2 37 -2t53 -12
q0 -18 3.5 -43t5.5 -66h-9q-10 37 -31.5 71t-76.5 38q-41 -4 -62.5 -27.5t-21.5 -60.5q4 -47 31.5 -73t68.5 -44q14 -6 35 -16.5t40 -26.5t33.5 -41t14.5 -59q0 -61 -40 -99.5t-116 -38.5q-25 0 -42 3t-33 6q-16 8 -23.5 10t-11.5 6l-7 49t-7 72zM2472 1438q0 57 37.5 98
t109.5 43q57 0 98.5 -36t41.5 -99t-42 -103.5t-106 -40.5q-59 0 -99 37t-40 101zM2501 1448q0 -63 33.5 -100t86.5 -37q45 0 77 28.5t34 85.5q-2 72 -37 109t-88 37q-43 0 -74.5 -29t-31.5 -94zM2836 727q2 63 26 111.5t64 81t92 48t109 15.5q49 0 90 -6t60 -12q0 -16 3 -47
t9 -68h-12q-18 70 -60.5 94.5t-101.5 24.5q-111 -4 -168 -63.5t-57 -166.5q0 -43 13 -85t41 -75.5t72 -55t105 -25.5q29 0 53.5 4t42.5 10q35 6 35 53v66q0 35 -15 48t-79 19v9h180v-9q-33 -6 -41 -16t-8 -37v-67q0 -20 1 -38t7 -28q-37 -10 -83 -19.5t-93 -9.5
q-129 0 -207 66.5t-78 177.5zM3047 1571v2h56l198 -223h2v123q2 59 -6 77.5t-45 20.5v2h103v-2q-16 -2 -24.5 -8.5t-12.5 -14.5q-4 -10 -5 -28.5t-1 -46.5v-168h-2l-197 225h-4v-115q4 -35 3 -52t3 -28q4 -23 43 -22v-6h-104v6q18 0 27 6t14 16q4 10 5 27.5t1 52.5v92
q0 27 -2 33t-11 12q-4 8 -12 11.5t-29 7.5zM3247 -371.5q1 54.5 22 105.5q20 49 49.5 87t62.5 66q72 59 150 98.5t157 65.5q25 10 47.5 18.5t49.5 16.5q-104 -2 -175 -13.5t-116 -25.5q-53 -16 -86 -39q113 119 338 164q96 18 226 23.5t299 -14t381 -69t474 -139.5
q311 -109 573.5 -169t476.5 -88.5t381 -29.5t287.5 10t196.5 27.5t107 26.5q-41 -14 -151 -44t-275.5 -55.5t-385 -35.5t-479.5 14q201 -47 410 -66.5t393 13.5q-109 -33 -244 -38t-283.5 8.5t-305 43t-307 66.5t-289 79t-251 78.5t-193.5 66.5t-118 44q-246 70 -426 106
t-317 46q-72 -10 -141.5 -29.5t-141.5 -50.5q-78 -29 -153.5 -73t-136.5 -116q-31 -33 -49.5 -74.5t-26.5 -88.5q-2 -47 9 -91.5t32 -82.5q43 -72 116.5 -107t149.5 -47q78 -10 160 -9t162 11q37 23 76.5 39t82.5 25q51 18 99.5 21t95.5 26q16 10 22 -5.5t-8 -25.5
q-47 -47 -106.5 -79t-118.5 -42q-61 -12 -118.5 -8t-117.5 0q-80 -6 -159.5 -1t-155.5 27q-37 10 -76 30t-67 48q-35 29 -59.5 68t-35.5 86q-14 47 -13 101.5zM3385 496v8q49 4 61.5 19.5t12.5 58.5v305q0 47 -12.5 59t-59.5 17v8h183q29 0 57.5 -4t51 -18.5t35.5 -37
t13 -59.5q0 -51 -23.5 -81t-70.5 -50q10 -16 31.5 -47t38.5 -58q29 -37 64.5 -73.5t64.5 -46.5v-7q-25 -2 -49.5 2.5t-46.5 20.5q-45 33 -127 168q-16 20 -39 25.5t-72 5.5v-129q0 -43 12.5 -58.5t63.5 -19.5v-8h-189zM3498 721h49q33 0 55.5 7t40.5 17q16 16 27.5 39
t11.5 56q-2 61 -37.5 89.5t-97.5 28.5q-16 -2 -26.5 -2h-14.5q-8 0 -8 -18v-217zM3637 1509q2 20 2 38t4 38h4q4 -6 11 -12h184q10 0 13 3t8 9h8v-35.5t4 -36.5l-8 -4q-10 35 -24.5 45.5t-37.5 10.5h-41v-211q0 -23 8.5 -32t40.5 -9v-6h-116v6q35 0 41 9t6 32v211h-27
q-39 0 -53 -11.5t-21 -44.5h-6zM3727 -242q104 86 277 111q74 10 168 9t212 -22.5t261 -68.5t313 -127q199 -94 391.5 -147.5t351 -78t271.5 -29.5t154 -3q-31 -2 -108 -4t-183.5 0t-232.5 10t-255 27.5t-249.5 50.5t-217.5 80q-147 74 -276 122t-237.5 75.5t-198.5 38
t-160 10.5q-168 -3 -281 -54zM3863 496v8q51 2 64 17.5t13 58.5v301q0 51 -12 66.5t-57 15.5v8h331q0 -16 3.5 -48t3.5 -65l-13 -4q-10 59 -32.5 80.5t-90.5 21.5h-71q-16 0 -19.5 -4t-3.5 -18v-180h92q43 0 60.5 11t25.5 50h11v-143h-11q-8 45 -26.5 54t-59.5 9h-92v-149
q0 -55 24.5 -65.5t69.5 -10.5q39 0 70 4t47 29q10 8 22.5 27.5t20.5 45.5h15q-6 -23 -14.5 -61.5t-14.5 -58.5h-356zM4297 496v8q51 0 63 16.5t12 61.5v305q0 43 -11 57t-58 19v8h182q82 0 117 -25.5t33 -77.5q-4 -49 -37 -74.5t-60 -31.5q53 -10 92 -40t39 -85
q0 -80 -73 -115q-59 -33 -148 -26h-151zM4411 578q0 -39 14.5 -53.5t57.5 -14.5q59 0 96 26.5t41 90.5q-4 63 -44 93t-109 30h-56v-172zM4411 764h58q63 0 92 26.5t29 69.5q2 14 -2.5 31.5t-17.5 32t-38.5 24.5t-68.5 10q-16 0 -26.5 -1t-14.5 -1q-10 0 -11 -18v-174z
M4538 1307v6q29 0 36 8t7 35v172q0 23 -7 32t-34 9v4h105q86 0 82 -57q-4 -29 -21.5 -42.5t-31.5 -15.5q29 -8 51 -23.5t22 -45.5q0 -45 -41 -68q-31 -14 -84 -14h-84zM4602 1354q0 -23 8 -31t33 -8q33 0 54.5 15.5t21.5 49.5q0 37 -24 52.5t-60 15.5h-33v-94zM4602 1458h33
q70 0 69 55q0 16 -13 34t-60 22q-8 0 -14.5 -2t-8.5 -2q-6 0 -6 -9v-98zM4712 496v8q37 6 54.5 21.5t36.5 66.5l167 391l9 2l51 -141q27 -72 51.5 -141.5t48.5 -122.5q14 -41 28.5 -55.5t51.5 -20.5v-8h-174v8q35 6 48 12t11 16q0 18 -15 59.5t-34 94.5h-178
q-4 -8 -11 -27.5t-15.5 -41t-13.5 -42t-5 -32.5q0 -18 14.5 -25.5t49.5 -13.5v-8h-175zM4876 707h160l-72 206h-2q-47 -100 -86 -206zM4889 1038q0 12 8 21.5t20 9.5q14 0 23.5 -9t9.5 -22q0 -31 -33 -30q-28 -1 -28 30zM5014 1038q0 12 8 21.5t20 9.5q14 0 23.5 -9t9.5 -22
q0 -31 -33 -30q-28 -1 -28 30zM5030 1571v2h94v-2q-33 -10 -33 -15q4 -4 4 -7t2 -7q16 -25 32 -51.5t32 -52.5q4 10 14.5 25.5t20.5 37.5q14 20 18 32.5t8 18.5q0 10 -34 19v2h96v-2q-20 -4 -31.5 -14.5t-23.5 -28.5q-10 -16 -23.5 -38t-30.5 -50q-10 -12 -10 -21v-65
q0 -25 7 -33t42 -8v-6h-117v6q31 0 39.5 8t8.5 33v63q0 2 -1 7.5t-12 19.5q-10 16 -22.5 38.5t-32.5 51.5q-12 18 -20.5 26.5t-26.5 10.5zM5259 727q0 117 84 186.5t217 69.5q55 0 92 -7t54 -11q4 -29 6 -57.5t8 -61.5l-14 -2q-16 68 -56.5 96.5t-117.5 28.5
q-113 -4 -166 -67.5t-53 -156.5q2 -115 61 -179t164 -68q78 4 119 42t67 97l14 -6q-10 -33 -20 -70t-20 -59q-20 -4 -63.5 -11.5t-90.5 -7.5q-76 2 -130 22.5t-89 54.5t-50.5 77t-15.5 90zM5782 965v8h188v-8q-51 -2 -63.5 -19.5t-12.5 -64.5v-136q10 2 26.5 9.5t26.5 15.5
q23 20 48.5 44t50.5 52q55 57 57 78q0 8 -51 21v8h184v-8q-37 -6 -63.5 -18.5t-55.5 -39.5q-20 -16 -65 -59t-90 -88q23 -27 49.5 -55.5t54.5 -59.5l84 -84q35 -29 53.5 -41t46.5 -16v-8h-94l-107 107t-102 112q-25 20 -39 20q-2 -2 -14 -2v-145q0 -47 12.5 -63.5
t65.5 -20.5v-8h-184v8q43 4 56 20.5t13 63.5v293q0 47 -12 64.5t-63 19.5zM6126 -598h26h-26z" />
    <glyph glyph-name="dieresis" unicode="&#xa8;" horiz-adv-x="309" 
d="M383 1331q29 12 62.5 49t64.5 78q37 48 74 103q8 -53 20 -99q10 -41 27.5 -78.5t42.5 -56.5q-35 -10 -71 -37.5t-64 -58.5q-35 -37 -68 -80q-6 33 -16 66q-10 29 -26.5 59.5t-45.5 54.5zM711 1323q29 12 62.5 51t64.5 80q36 50 73 107q8 -55 21 -105q10 -41 27.5 -82
t41.5 -59q-35 -10 -70.5 -36t-64.5 -54q-35 -35 -67 -74q-6 31 -17 61q-10 27 -26.5 56.5t-44.5 54.5z" />
    <glyph glyph-name="copyright" unicode="&#xa9;" horiz-adv-x="1093" 
d="M36 331q-13 118 10.5 244.5t86.5 245.5q61 117 147.5 197t180.5 115.5t190.5 25.5t177.5 -72q82 -63 130.5 -162.5t61.5 -218t-10.5 -245.5t-86.5 -246q-61 -117 -147.5 -196.5t-180.5 -115.5t-189.5 -26t-177.5 74q-82 63 -131 162.5t-62 217.5zM73.5 340
q12.5 -109 56.5 -200t120 -148q74 -57 162 -66.5t174 24.5t164.5 106.5t134.5 179.5q57 106 79.5 222.5t10.5 225.5t-57.5 200t-120.5 148q-74 57 -161 66.5t-173 -24.5t-165 -107t-136 -179q-57 -109 -79 -224t-9.5 -224zM303 348q2 45 8 84q4 61 22.5 120.5t37.5 106.5
q23 55 47 107l221 108l10 7v-2l6 2q-4 -4 -8 -7q-4 -10 -3 -41.5t14.5 -64.5t43 -52.5t82.5 -4.5q-78 -96 -142 -79t-91 128q-41 -66 -70.5 -142.5t-42 -148.5t-5.5 -131t38 -90q41 -41 75 -23.5t58 58.5q29 45 51 118q-23 -88 -57 -149q-29 -53 -74 -84t-104 4
q-31 16 -51.5 40t-34.5 50q8 -41 26.5 -72.5t59.5 -50.5q-47 14 -72.5 48t-36 75t-8.5 86zM334 524q6 6 0 6v-6z" />
    <glyph glyph-name="ordfeminine" unicode="&#xaa;" 
d="M19 754q50 296 116 471q28 74 62 130.5t73 72t83.5 -19.5t94.5 -143l-1 -4q18 -18 39 -30.5t44 -10.5q30 0 56 14t37 43q11 27 11 58t-8 61q-14 59 -48 114q-16 27 -35.5 50.5t-44.5 43.5q-24 21 -51.5 35.5t-57.5 19.5q-29 -13 -55 -19q-16 -4 -33.5 -7t-33.5 -15
q-6 -4 -10.5 1.5t-2.5 10.5q10 21 30.5 39.5t49.5 21.5q27 2 50.5 -7t45.5 -16q60 -25 104 -71.5t74 -101.5q14 -29 25 -57.5t16 -61.5q4 -30 2 -63t-21 -62q-17 -29 -51 -40q-16 -6 -32 -9t-32 0q-36 4 -60 24.5t-44 49.5q-42 49 -71 38t-54.5 -71.5t-51.5 -165t-57 -245.5
l209 382q2 4 3 9t3 11l132 -92q-11 -26 -28.5 -68t-33 -92t-28 -101.5t-15.5 -96t5.5 -76t33 -40.5t69 9.5t115.5 75.5q-96 -98 -172 -133.5t-120.5 -3.5t-51 137t39.5 290l-189 -378l-3 9q0 -3 -0.5 -3.5t-0.5 -2.5zM20 754q-1 0 1 36t9.5 94.5t20 130.5t33 146t49 141
t68.5 114q-24 -39 -43.5 -85.5t-34.5 -96.5t-26 -102t-18 -99q-17 -112 -23 -231q-8 -14 -15 -25q-7 -8 -13 -15.5t-8 -7.5zM286.5 801.5q6.5 64.5 18 121.5t23 94.5t13.5 37.5l-3 -68q-2 -30 -4 -69q-23 -92 -26 -165q-2 -32 1.5 -62t14.5 -54.5t31 -41t50 -19.5
q-56 -10 -82.5 21.5t-34.5 85.5t-1.5 118.5z" />
    <glyph glyph-name="guillemotleft" unicode="&#xab;" horiz-adv-x="628" 
d="M-8 469q137 41 266 96.5t234.5 117.5t180.5 125.5t105 119.5q4 -10 7 -21.5t6 -21.5q2 -12 4 -23q-106 -86 -207 -160q-43 -31 -89 -62.5t-92.5 -59t-88.5 -48t-76 -30.5q39 -10 94 -47t116.5 -108t123 -179.5t112.5 -261.5q0 -16 -9 -20.5t-20.5 -3.5t-20.5 2t-9 -3
t-21.5 35t-61.5 99.5t-97.5 134t-128 140t-153.5 116t-175 63.5z" />
    <glyph glyph-name="logicalnot" unicode="&#xac;" horiz-adv-x="12" 
d="M-1475 -827q8 35 28 64.5t42 53.5q47 49 105.5 86t117.5 66q18 10 36 18.5t38 16.5q-86 -16 -142.5 -32.5t-90.5 -33.5q-39 -18 -64 -37q74 92 252 154q76 27 183.5 48.5t252 32.5t329.5 8t419 -26q465 -47 795.5 -30.5t541.5 55.5q248 45 406 119q-121 -59 -283 -113
q-139 -45 -337 -89t-454 -66q178 -2 355.5 14t324.5 63q-113 -49 -271.5 -73.5t-335.5 -31.5t-356 -1t-333 16t-267.5 22.5t-156.5 18.5q-217 12 -372.5 10t-272.5 -14q-115 -33 -223 -92q-59 -31 -114.5 -71t-94.5 -93q-18 -27 -27.5 -57.5t-5.5 -63.5q12 -63 64 -108
q49 -43 116.5 -56.5t132.5 -9.5q68 4 134.5 16.5t132.5 30.5q57 43 122 66q39 16 79 25.5t75 31.5q12 8 20.5 0t-1.5 -18q-33 -37 -76 -67t-92 -46t-98.5 -21.5t-98.5 -15.5q-66 -16 -132.5 -23t-133.5 -3q-72 4 -133 30q-33 14 -60.5 37t-46.5 51q-18 29 -27.5 66t-1.5 72z
M-1098 -745q72 72 211 112q59 18 138 30.5t181.5 14.5t230.5 -9t284 -40q182 -35 352 -43t307 -2t232.5 18.5t130.5 18.5q-27 -6 -91.5 -17.5t-153.5 -24.5t-195.5 -25.5t-217 -18.5t-218 -2t-195.5 22q-137 29 -252 42.5t-210 16.5t-172 -3.5t-136 -16.5q-140 -24 -226 -73
zM969 -645q4 0 6 1t6 1t6 2q-2 -2 -6 -2t-6 -1t-6 -1z" />
    <glyph glyph-name="uni00AD" unicode="&#xad;" horiz-adv-x="782" 
d="M18 471l109 186q16 -18 54 -30.5t105.5 -14.5t169 6.5t249.5 26.5q-8 -29 -19.5 -52.5t-21.5 -41.5q-12 -23 -29 -41zM29 473l116 41q43 -12 107 -22q53 -10 131 -20.5t180 -18.5q-104 -10 -201.5 -8.5t-171.5 8.5q-85 8 -161 20z" />
    <glyph glyph-name="registered" unicode="&#xae;" horiz-adv-x="1093" 
d="M36 331q-13 118 10.5 244.5t86.5 245.5q61 117 147.5 197t180.5 115.5t190.5 25.5t177.5 -72q82 -63 130.5 -162.5t61.5 -218t-10.5 -245.5t-86.5 -246q-61 -117 -147.5 -196.5t-180.5 -115.5t-189.5 -26t-177.5 74q-82 63 -131 162.5t-62 217.5zM73.5 340
q12.5 -109 56.5 -200t120 -148q74 -57 162 -66.5t174 24.5t164.5 106.5t134.5 179.5q57 106 79.5 222.5t10.5 225.5t-57.5 200t-120.5 148q-74 57 -161 66.5t-173 -24.5t-165 -107t-136 -179q-57 -109 -79 -224t-9.5 -224zM225 203q16 143 47 286q27 123 71 262.5t110 254.5
l84 -54q-14 -29 -31 -65q-14 -31 -31.5 -74t-38.5 -92q41 45 87 95t86 93t65.5 73t27.5 32q14 -4 30 -16.5t30 -24.5q16 -14 31 -33q-25 -147 -66 -260q-18 -47 -41.5 -91t-53.5 -76t-66 -47t-79 -5q8 -29 29 -89.5t56.5 -127t86 -127t119 -88t153.5 -11t189 104.5
q-119 -129 -217 -160t-177 1t-139.5 110t-103.5 165t-69.5 166.5t-36.5 116.5l-6 6q-41 -133 -58.5 -261t17.5 -214q-10 18 -27.5 45t-34.5 49q-20 27 -43 56zM250 182q0 2 1 3t1 3q2 4 4 3t2 -3q16 -23 29.5 -47t27.5 -47q12 -25 25.5 -48t28.5 -46q16 -25 29.5 -48.5
t29.5 -45.5q8 -10 15.5 -21.5t17.5 -21.5q8 -10 17 -20.5t20 -16.5q8 4 10 6l-2 4l8 8t6 15q0 4 5 4t7 -4t4.5 -10.5t2.5 -12.5q0 -14 -13 -24q-4 -6 -16 -7q-12 0 -14 7q-6 4 -9.5 7t-7.5 7q-23 18 -37 39.5t-30 44.5t-29.5 45t-28.5 45q-12 23 -25.5 46.5t-25.5 45.5
q-14 23 -26.5 45.5t-26.5 44.5zM250 365l5 54t18.5 137t37 178t62.5 175q-31 -86 -47.5 -164.5t-24.5 -140.5q-8 -72 -10 -137l-21 -49q-8 -18 -14 -34.5t-6 -18.5zM377 551q25 -25 49 -31q12 0 33.5 11.5t47 42t55.5 87t61 148.5q-29 -139 -67 -203.5t-71 -87.5
q59 20 106.5 129t88.5 299q-47 -47 -96 -98q-41 -45 -89.5 -99.5t-86.5 -107.5q-8 -23 -15.5 -45.5t-15.5 -44.5zM412 522q0 2 2 -2zM471 266q0 4 8 0t19 -8q10 -6 26 -12q39 -106 99 -189q25 -35 56.5 -67.5t70 -56t84 -35t98.5 -4.5q-70 -20 -130.5 -1t-111.5 60t-92 94
t-68.5 101.5t-43 82t-15.5 35.5z" />
    <glyph glyph-name="macron" unicode="&#xaf;" horiz-adv-x="782" 
d="M182 1262l109 165q16 -18 54 -30.5t105.5 -14.5t169 6.5t248.5 26.5q-8 -29 -19 -48t-22 -36q-12 -18 -28 -31z" />
    <glyph glyph-name="degree" unicode="&#xb0;" horiz-adv-x="503" 
d="M344 1350q16 57 62.5 92t95.5 52t88 20t39 -3t18.5 -22t36.5 -45t25.5 -73t-17.5 -105t-59.5 -96t-67.5 -52q-37 -20 -80 -24q-49 31 -86 69q-31 35 -51 81t-4 106zM473 1329q0 -41 11.5 -68.5t27.5 -46.5q16 -23 39 -34q31 20 55 43q23 20 40.5 46.5t17.5 59.5
q0 66 -23 94.5t-27 24.5q-4 -2 -25.5 -6t-48 -15.5t-47 -35t-20.5 -62.5z" />
    <glyph glyph-name="plusminus" unicode="&#xb1;" horiz-adv-x="12" 
d="M-1475 -827q8 35 28 64.5t42 53.5q47 49 105.5 86t117.5 66q18 10 36 18.5t38 16.5q-86 -16 -142.5 -32.5t-90.5 -33.5q-39 -18 -64 -37q74 92 252 154q76 27 183.5 48.5t252 32.5t329.5 8t419 -26q465 -47 795.5 -30.5t541.5 55.5q248 45 406 119q-121 -59 -283 -113
q-139 -45 -337 -89t-454 -66q178 -2 355.5 14t324.5 63q-113 -49 -271.5 -73.5t-335.5 -31.5t-356 -1t-333 16t-267.5 22.5t-156.5 18.5q-217 12 -372.5 10t-272.5 -14q-115 -33 -223 -92q-59 -31 -114.5 -71t-94.5 -93q-18 -27 -27.5 -57.5t-5.5 -63.5q12 -63 64 -108
q49 -43 116.5 -56.5t132.5 -9.5q68 4 134.5 16.5t132.5 30.5q57 43 122 66q39 16 79 25.5t75 31.5q12 8 20.5 0t-1.5 -18q-33 -37 -76 -67t-92 -46t-98.5 -21.5t-98.5 -15.5q-66 -16 -132.5 -23t-133.5 -3q-72 4 -133 30q-33 14 -60.5 37t-46.5 51q-18 29 -27.5 66t-1.5 72z
M-1098 -745q72 72 211 112q59 18 138 30.5t181.5 14.5t230.5 -9t284 -40q182 -35 352 -43t307 -2t232.5 18.5t130.5 18.5q-27 -6 -91.5 -17.5t-153.5 -24.5t-195.5 -25.5t-217 -18.5t-218 -2t-195.5 22q-137 29 -252 42.5t-210 16.5t-172 -3.5t-136 -16.5q-140 -24 -226 -73
zM969 -645q4 0 6 1t6 1t6 2q-2 -2 -6 -2t-6 -1t-6 -1z" />
    <glyph glyph-name="uni00B2" unicode="&#xb2;" horiz-adv-x="851" 
d="M-59 911q162 82 274.5 172t184 179t109.5 176t52 165q35 182 -31 361q0 -6 -53 -18.5t-121.5 -37t-132 -64.5t-84.5 -104q-20 -59 -16 -94t23.5 -52t50 -20.5t63.5 0t64.5 10.5t54.5 11q-98 -37 -170 -37q-31 0 -58.5 8.5t-47 30t-26.5 58t3 92.5q8 53 39 96t72.5 76.5
t93 58.5t104.5 43q123 41 273 61q39 -41 69 -94q27 -47 48.5 -116.5t21.5 -165.5q0 -115 -30 -216.5t-78 -187.5t-110.5 -157.5t-125.5 -129.5q-151 -135 -344 -227q162 -172 352 -242q82 -31 177 -42t202.5 10.5t224.5 84t240 181.5q-115 -141 -235 -216t-236.5 -100.5
t-227 -12t-209.5 49.5q-231 84 -444 287zM350 831q160 129 240 259t110 237q37 125 29 239q18 63 35 113q12 41 22.5 74.5t8.5 31.5t4 -47t4 -119.5t-19.5 -171t-66.5 -202t-137 -213t-230 -201.5z" />
    <glyph glyph-name="uni00B3" unicode="&#xb3;" horiz-adv-x="854" 
d="M-55 1188q23 -127 51.5 -199.5t54.5 -107.5q31 -43 64 -54q170 119 268 234q41 49 69.5 102.5t31.5 106.5t-25.5 103t-102.5 93q18 2 53 9.5t72 28t64.5 56t31 97t-27.5 153t-113 220.5q-55 -12 -108 -37q-45 -23 -94.5 -58.5t-83.5 -89.5q-39 -59 -46.5 -103t-1.5 -73
q8 -35 29 -59q-39 20 -55 59q-14 33 -7 89.5t66 140.5q59 88 142 138t159 75q88 28 180 34q109 -154 158 -286q20 -57 29.5 -116.5t-1.5 -113t-49 -98.5t-110 -74q66 -43 81 -106.5t-9.5 -139t-82 -157.5t-135 -162t-169.5 -151.5t-187 -127.5q2 -2 -32.5 39t-74.5 117
t-71 182.5t-18 235.5zM147 631q14 20 25 35q10 12 15 21t3 7t28 9.5t77 35t107.5 61.5t122 90t117.5 118.5t95 148.5q-23 -63 -58.5 -119.5t-81.5 -104.5t-97 -90t-101 -75q-117 -80 -252 -137zM422 2044q0 2 10 2t25 -2q16 -2 37 -6q47 -125 61 -230q6 -45 6 -90t-11 -84
t-36 -69.5t-68 -44.5q51 31 71 82t16.5 108t-20.5 115.5t-37.5 106.5t-37 79t-16.5 33z" />
    <glyph glyph-name="acute" unicode="&#xb4;" horiz-adv-x="602" 
d="M218.5 1151q-1.5 2 32.5 18.5t92 45t117.5 63.5t106.5 74t62 75q53 -2 97 -8t77 -14q37 -8 69 -19q-102 -43 -204 -81q-88 -35 -191.5 -73t-195.5 -65q-61 -18 -62.5 -16z" />
    <glyph glyph-name="paragraph" unicode="&#xb6;" horiz-adv-x="12" 
d="M-1475 -827q8 35 28 64.5t42 53.5q47 49 105.5 86t117.5 66q18 10 36 18.5t38 16.5q-86 -16 -142.5 -32.5t-90.5 -33.5q-39 -18 -64 -37q74 92 252 154q76 27 183.5 48.5t252 32.5t329.5 8t419 -26q465 -47 795.5 -30.5t541.5 55.5q248 45 406 119q-121 -59 -283 -113
q-139 -45 -337 -89t-454 -66q178 -2 355.5 14t324.5 63q-113 -49 -271.5 -73.5t-335.5 -31.5t-356 -1t-333 16t-267.5 22.5t-156.5 18.5q-217 12 -372.5 10t-272.5 -14q-115 -33 -223 -92q-59 -31 -114.5 -71t-94.5 -93q-18 -27 -27.5 -57.5t-5.5 -63.5q12 -63 64 -108
q49 -43 116.5 -56.5t132.5 -9.5q68 4 134.5 16.5t132.5 30.5q57 43 122 66q39 16 79 25.5t75 31.5q12 8 20.5 0t-1.5 -18q-33 -37 -76 -67t-92 -46t-98.5 -21.5t-98.5 -15.5q-66 -16 -132.5 -23t-133.5 -3q-72 4 -133 30q-33 14 -60.5 37t-46.5 51q-18 29 -27.5 66t-1.5 72z
M-1098 -745q72 72 211 112q59 18 138 30.5t181.5 14.5t230.5 -9t284 -40q182 -35 352 -43t307 -2t232.5 18.5t130.5 18.5q-27 -6 -91.5 -17.5t-153.5 -24.5t-195.5 -25.5t-217 -18.5t-218 -2t-195.5 22q-137 29 -252 42.5t-210 16.5t-172 -3.5t-136 -16.5q-140 -24 -226 -73
zM969 -645q4 0 6 1t6 1t6 2q-2 -2 -6 -2t-6 -1t-6 -1z" />
    <glyph glyph-name="periodcentered" unicode="&#xb7;" horiz-adv-x="327" 
d="M57 659q29 12 63 49t64 78q37 48 74 103q8 -55 21 -105q10 -41 27.5 -81.5t41.5 -59.5q-35 -10 -70.5 -49t-64.5 -84q-35 -53 -68 -115q-6 55 -16 107q-10 43 -26.5 88t-45.5 69z" />
    <glyph glyph-name="cedilla" unicode="&#xb8;" horiz-adv-x="915" 
d="M43 -416.5q6 54.5 55 127.5q-18 -39 -15 -68.5t16.5 -56t32 -54.5t32.5 -62q61 39 96 74.5t52.5 69.5t18.5 63.5t-7 54.5q-20 59 -84 110l77 207h72q-4 -16 -8 -37q-4 -16 -9 -38.5t-12 -47.5q88 -57 123 -118.5t31 -125t-37 -123t-80 -111.5t-100 -93t-94 -64
q-45 51 -85 96.5t-60.5 93.5t-14.5 102.5z" />
    <glyph glyph-name="uni00B9" unicode="&#xb9;" horiz-adv-x="684" 
d="M-78 1041q41 -27 78 3.5t70.5 98.5t63.5 163t54 200q57 244 105 571q-27 -37 -70 -51q-37 -12 -96 -5t-147 64q18 -12 58 -25.5t93 -3t114.5 56.5t121.5 152l200 -102l-266 -1143q-6 -51 8 -110q12 -51 47 -118t109 -140zM258 1098q55 231 121 430q27 84 59.5 170
t67.5 162t72.5 136t76.5 93q-47 -53 -92 -155.5t-86 -226.5t-75.5 -254t-59.5 -236.5t-39 -175t-14 -70.5q0 -4 -5 16.5t-12 44.5q-8 29 -14 66z" />
    <glyph glyph-name="ordmasculine" unicode="&#xba;" horiz-adv-x="692" 
d="M-35 1167q4 49 19 115q6 61 19 146t42 179.5t75 189.5t116 175q-66 -96 -103 -196.5t-57 -192.5q49 121 112.5 223.5t134 145.5t144.5 3t143 -204q21 -29 41 -74q12 -27 7 -95.5t-25.5 -158.5t-53 -189.5t-75.5 -186.5t-96.5 -150.5t-112.5 -80.5t-124 21.5t-132 157.5
q-16 12 -32.5 37t-35.5 66q-10 20 -6 69zM92 977q18 -27 40 -40t46.5 -7t53 35.5t61.5 91.5q-33 -39 -71 -59.5t-79 -8.5q41 8 81 49t77 100.5t68.5 130t56.5 138.5q25 80 49.5 174t52.5 207q-37 45 -83 42t-101 -87t-118.5 -267.5t-133.5 -498.5z" />
    <glyph glyph-name="guillemotright" unicode="&#xbb;" horiz-adv-x="628" 
d="M-8 -72q106 86 207 160q43 31 89 62.5t92 59.5t88 48.5t77 30.5q-39 10 -94.5 47t-117 107.5t-122.5 179t-113 262.5q0 16 9.5 20t20.5 3t20.5 -2t9.5 3q0 2 21.5 -35.5t61.5 -98t97 -134.5t128 -140.5t153.5 -115.5t175.5 -63q-139 -41 -267.5 -96.5t-234 -118
t-180 -126t-105.5 -118.5q-8 18 -12 41z" />
    <glyph glyph-name="onequarter" unicode="&#xbc;" horiz-adv-x="1101" 
d="M-72 -211q-4 12 4 16.5t12 -2.5q16 -23 34.5 -32t37.5 -19q18 -10 39.5 -19t44.5 -1q63 25 111.5 93.5t78.5 149.5q16 41 27.5 84t24.5 88l49 177l4 20t6 21v6q49 184 98 365.5t101 365.5l49 182q12 45 26.5 91t32.5 87q37 88 94 154q29 31 64 51.5t69 24.5q37 27 76 8
q25 -12 38.5 -41t21.5 -60q4 -10 -4.5 -15t-12.5 1q-16 23 -34.5 32t-36.5 21q-18 10 -40 19.5t-44 -0.5q-63 -25 -111.5 -93.5t-79.5 -150.5q-16 -41 -27.5 -84t-23.5 -88l-47 -176q-4 -10 -6 -19.5t-6 -19.5v-8q-49 -184 -98.5 -365.5t-100.5 -363.5l-49 -183
q-12 -47 -26.5 -92t-33.5 -88q-18 -43 -41.5 -82t-52.5 -71q-29 -31 -63.5 -51.5t-69.5 -24.5q-37 -27 -76 -8q-23 14 -37 41.5t-22 58.5zM-30 548q27 -18 51 2t46 64.5t41.5 106.5t35.5 131q37 159 69 373q-18 -24 -46 -33q-24 -8 -63 -3.5t-96 41.5q12 -8 38 -16.5
t60.5 -2t75 36.5t79.5 100l131 -67l-174 -747q-4 -33 5 -72q8 -33 31 -77t71 -91zM190 585q36 151 79 281q17 55 38.5 111t44.5 106t47.5 89t49.5 61q-31 -35 -60 -102t-56 -148t-49.5 -166t-39 -154.5t-25.5 -114.5t-9 -46q0 -3 -3.5 10.5t-7.5 29.5q-5 19 -9 43zM207 -641
q80 23 147.5 102t123 189t98 240t76.5 256l-363 -85q62 260 147 452q36 83 80 158t96 128.5t111.5 77.5t127.5 2q-41 5 -80 -23t-73 -80t-63 -120.5t-51 -140.5q-57 -170 -100 -391l175 48q25 100 43.5 189.5t29.5 157.5q15 80 24 148l134 -108q-54 -314 -146 -570
q-38 -109 -90.5 -215t-119.5 -193.5t-148 -147.5t-179 -74zM315 144q2 0 10.5 41t25 106.5t41 147t56.5 162t70.5 152.5t83.5 117q-58 -72 -88.5 -153.5t-44.5 -150.5t-16.5 -114.5t-4.5 -45.5q-1 0 -12 -19.5t-26.5 -48.5t-32 -63t-31 -63t-23.5 -48.5t-8 -19.5zM454 -584
q68 77 108 152t61 136q24 69 31 133l115 229q-30 -134 -77 -257q-20 -52 -44 -107t-53.5 -107t-64.5 -97.5t-76 -81.5z" />
    <glyph glyph-name="onehalf" unicode="&#xbd;" horiz-adv-x="1181" 
d="M-20 -211q-4 12 4 16.5t12 -2.5q16 -23 34.5 -32t37.5 -19q18 -10 39.5 -19t44.5 -1q63 25 111.5 93.5t78.5 149.5q16 41 27.5 84t24.5 88l49 177l4 20t6 21v6q49 184 98 365.5t101 365.5l49 182q12 45 26.5 91t32.5 87q37 88 94 154q29 31 64 51.5t69 24.5q37 27 76 8
q25 -12 38.5 -41t21.5 -60q4 -10 -4.5 -15t-12.5 1q-16 23 -34.5 32t-36.5 21q-18 10 -40 19.5t-44 -0.5q-63 -25 -111.5 -93.5t-79.5 -150.5q-16 -41 -27.5 -84t-23.5 -88l-47 -176q-4 -10 -6 -19.5t-6 -19.5v-8q-49 -184 -98.5 -365.5t-100.5 -363.5l-49 -183
q-12 -47 -26.5 -92t-33.5 -88q-18 -43 -41.5 -82t-52.5 -71q-29 -31 -63.5 -51.5t-69.5 -24.5q-37 -27 -76 -8q-23 14 -37 41.5t-22 58.5zM16 511q29 -19 55 2.5t49.5 69.5t44.5 114.5t38 140.5q40 172 74 402q-19 -26 -49 -35q-26 -9 -67.5 -4t-103.5 45q13 -8 41 -17.5
t65.5 -2.5t80.5 39.5t85 107.5l141 -72l-187 -805q-4 -36 6 -77q8 -36 32.5 -83.5t76.5 -98.5zM253 551q38 163 85 303q19 59 42 119.5t47.5 114t51 96t53.5 65.5q-33 -37 -64.5 -109.5t-60.5 -159.5t-53.5 -179t-42 -167t-27.5 -123t-10 -49q0 -3 -3.5 11.5t-8.5 31.5
q-5 20 -9 46zM321 -3q108 55 182.5 115t122.5 119t73 117t35 110q23 121 -21 241q0 -4 -35.5 -12.5t-81 -25t-87.5 -43t-56 -69.5q-14 -39 -11 -62.5t16 -34.5t33 -13.5t42 0t43 7t36 7.5q-65 -25 -113 -25q-20 0 -38.5 5.5t-31.5 20t-17.5 39t1.5 61.5q6 35 26.5 64t48 51
t62 39t69.5 29q82 27 182 40q26 -27 46 -62q18 -32 32.5 -78t14.5 -110q0 -77 -20 -144.5t-52 -125t-74 -105t-84 -86.5q-100 -90 -229 -151q108 -115 235 -161q54 -21 117.5 -28.5t135 7t149.5 56t160 121.5q-77 -94 -157 -144t-157.5 -67t-151 -8t-139.5 33
q-154 56 -296 191zM593 -56q107 86 160 172.5t73 157.5q25 83 20 159q12 42 23 76q8 27 15 49.5t6 20.5q-2 -1 2 -31t3 -79.5t-13 -114t-44.5 -134.5t-91 -142t-153.5 -134z" />
    <glyph glyph-name="threequarters" unicode="&#xbe;" horiz-adv-x="1112" 
d="M-31 -211q-4 12 4 16.5t12 -2.5q16 -23 34.5 -32t37.5 -19q18 -10 39.5 -19t44.5 -1q63 25 111.5 93.5t78.5 149.5q16 41 27.5 84t24.5 88l49 177l4 20t6 21v6q49 184 98 365.5t101 365.5l49 182q12 45 26.5 91t32.5 87q37 88 94 154q29 31 64 51.5t69 24.5q37 27 76 8
q25 -12 38.5 -41t21.5 -60q4 -10 -4.5 -15t-12.5 1q-16 23 -34.5 32t-36.5 21q-18 10 -40 19.5t-44 -0.5q-63 -25 -111.5 -93.5t-79.5 -150.5q-16 -41 -27.5 -84t-23.5 -88l-47 -176q-4 -10 -6 -19.5t-6 -19.5v-8q-49 -184 -98.5 -365.5t-100.5 -363.5l-49 -183
q-12 -47 -26.5 -92t-33.5 -88q-18 -43 -41.5 -82t-52.5 -71q-29 -31 -63.5 -51.5t-69.5 -24.5q-37 -27 -76 -8q-23 14 -37 41.5t-22 58.5zM4 732q15 -83 33.5 -130.5t35.5 -70.5q21 -28 42 -36q112 78 176 154q27 32 45.5 67t20.5 70t-16.5 67.5t-67.5 60.5q12 2 35 7
t47.5 18.5t42.5 36.5t20 63.5t-18 100.5t-74 144q-36 -7 -71 -24q-29 -15 -61.5 -38t-55.5 -59q-25 -39 -30 -67.5t-1 -47.5q5 -23 19 -39q-26 13 -36 39q-9 21 -4.5 58t43.5 93q38 57 92.5 90t104.5 49q58 19 118 23q71 -101 104 -188q13 -37 19 -76.5t-1 -74.5t-32 -64.5
t-72 -48.5q43 -28 53 -69.5t-6.5 -91t-54 -103.5t-88.5 -106.5t-111 -99.5t-123 -83q2 -2 -20.5 25t-49 77t-47 119.5t-11.5 154.5zM136 367q10 13 17 23q6 8 9.5 13.5t2.5 4.5q-2 -1 18 6.5t50.5 23t70.5 40.5t80 59t77 77.5t62 97.5q-15 -42 -38 -79t-53.5 -68.5t-64 -59
t-65.5 -48.5q-77 -53 -166 -90zM260 -533q78 23 143.5 100t119 184.5t95.5 234t74 249.5l-353 -83q61 253 143 441q35 81 78 154t93.5 125t108.5 75.5t124 1.5q-40 6 -77.5 -21.5t-71 -78.5t-61.5 -117.5t-50 -137.5q-55 -165 -97 -380l170 46q24 97 42.5 184.5t29.5 153.5
q13 78 22 145l131 -105q-53 -307 -142 -556q-38 -107 -89 -210.5t-115.5 -188.5t-144 -143.5t-173.5 -72.5zM317 1294q0 1 6.5 1t16.5 -1q10 -2 24 -4q31 -82 40 -151q4 -30 4 -59.5t-7.5 -55t-23.5 -45.5t-45 -29q34 20 47 53.5t11 71t-13.5 76t-25 70t-24 51.5t-10.5 22z
M365 232q1 0 9.5 40t24.5 104t40 144t55 158.5t68.5 148.5t81.5 114q-57 -70 -86.5 -149.5t-43 -147t-16 -112t-4.5 -44.5q-1 0 -12 -19t-25.5 -47.5t-31 -61.5t-30.5 -61.5t-23 -47.5t-7 -19zM500 -477q66 75 105 148t59 133q24 67 31 129l112 224q-30 -131 -76 -251
q-20 -51 -43 -104.5t-52 -104t-62.5 -95t-73.5 -79.5z" />
    <glyph glyph-name="questiondown" unicode="&#xbf;" horiz-adv-x="954" 
d="M15.5 56q13.5 85 75 154t182 116t319.5 59q10 29 19.5 72t12.5 92t-3.5 98t-26.5 92q47 -31 84 -71.5t63 -75.5q31 -41 54 -86l-78 -256q-129 -2 -228 -33q-43 -12 -82.5 -32.5t-70.5 -49t-47.5 -67.5t-14.5 -92q6 -104 37 -186.5t62.5 -139.5t56.5 -89t21 -36
q-4 -2 28.5 1t81.5 26.5t105.5 76t95.5 146.5q41 96 46 152.5t-5 84.5q-10 35 -39 48q59 -16 92 -60q14 -18 23.5 -43.5t8.5 -60.5t-13.5 -79t-40.5 -99q-57 -111 -149.5 -173.5t-180.5 -93.5q-102 -37 -215 -45q-12 6 -48 49t-79 109.5t-83 149.5t-58.5 170t-5 172z
M674 1032q25 -18 42 -59t27 -82q13 -49 21 -104q37 55 74 102q31 41 64.5 78t62.5 49q-29 25 -45.5 70t-26.5 88q-10 51 -16 106q-33 -61 -68 -115q-29 -45 -64.5 -83.5t-70.5 -49.5z" />
    <glyph glyph-name="Agrave" unicode="&#xc0;" horiz-adv-x="1064" 
d="M-534 573.5q4 38.5 14 73.5q23 66 71 131q49 61 109 101q31 20 66.5 33.5t74.5 15.5q10 0 11 -15q0 -12 -11 -12q-72 -4 -133 -48t-102 -101q-43 -59 -64.5 -129t0.5 -142q18 -70 66.5 -126t116.5 -79q72 -23 139 -4q35 10 59.5 34t20.5 59q-12 14 -22.5 25t-18.5 26
q-10 16 -18.5 36.5t-26.5 36.5q-4 4 1 14.5t13 6.5q29 -6 55.5 -21.5t40.5 -46.5t10 -63.5t-16 -61.5q-18 -39 -55 -56t-74 -21q-39 -4 -75.5 2t-71.5 22q-72 33 -115 97.5t-59 136.5q-10 37 -6 75.5zM-516 541q-10 104 25.5 185t99 132t147.5 73.5t171 12.5t168 -55
t141 -125q98 154 208.5 293t206.5 246q113 125 221 233l254 -51q-147 -666 -178 -1153q-10 -137 -9 -269.5t17.5 -246t49 -201.5t87 -140.5t132.5 -61.5t184 36q-131 -72 -225 -74t-158.5 51.5t-100.5 154t-52.5 230.5t-14.5 280.5t16 305.5q-47 -20 -110.5 -42.5
t-138 -22.5t-158.5 35.5t-172 134.5q-74 -156 -116 -278t-54 -216t3 -164.5t56 -124.5q-135 70 -183 176.5t-36 233.5t72.5 266.5t142.5 278.5q-45 63 -112.5 109t-142.5 67.5t-149.5 17.5t-137 -39.5t-104.5 -106.5t-50 -181zM138 100.5q1 65.5 9.5 106.5t6.5 43
q-4 2 9 24.5t29.5 49t32 48t19.5 21.5q2 0 -10.5 -48t-21.5 -125t-5 -175t36.5 -197.5t103.5 -192.5t198 -159q-135 55 -217 132t-124 160t-54.5 165t-11.5 147.5zM246 762q-4 0 14.5 40t54 105.5t87 147.5t115 166t136 162.5t150.5 138.5q-119 -119 -199 -242t-131 -223
q-59 -117 -96 -228q-33 -20 -60 -34q-23 -12 -45 -22.5t-26 -10.5zM342 569q66 -88 144.5 -117.5t154.5 -25.5t140.5 30.5t103.5 49.5q14 145 35.5 284.5t43 258t40 209t28.5 139.5q-262 -246 -430 -451t-260 -377zM643 1898q33 10 70 19q33 8 75.5 14t96.5 8
q12 -37 60 -75.5t107.5 -73.5t117 -62.5l92 -44t32.5 -18.5t-61 16q-92 27 -195.5 64t-191.5 72q-102 39 -203 81z" />
    <glyph glyph-name="Aacute" unicode="&#xc1;" horiz-adv-x="1064" 
d="M-534 573.5q4 38.5 14 73.5q23 66 71 131q49 61 109 101q31 20 66.5 33.5t74.5 15.5q10 0 11 -15q0 -12 -11 -12q-72 -4 -133 -48t-102 -101q-43 -59 -64.5 -129t0.5 -142q18 -70 66.5 -126t116.5 -79q72 -23 139 -4q35 10 59.5 34t20.5 59q-12 14 -22.5 25t-18.5 26
q-10 16 -18.5 36.5t-26.5 36.5q-4 4 1 14.5t13 6.5q29 -6 55.5 -21.5t40.5 -46.5t10 -63.5t-16 -61.5q-18 -39 -55 -56t-74 -21q-39 -4 -75.5 2t-71.5 22q-72 33 -115 97.5t-59 136.5q-10 37 -6 75.5zM-516 541q-10 104 25.5 185t99 132t147.5 73.5t171 12.5t168 -55
t141 -125q98 154 208.5 293t206.5 246q113 125 221 233l254 -51q-147 -666 -178 -1153q-10 -137 -9 -269.5t17.5 -246t49 -201.5t87 -140.5t132.5 -61.5t184 36q-131 -72 -225 -74t-158.5 51.5t-100.5 154t-52.5 230.5t-14.5 280.5t16 305.5q-47 -20 -110.5 -42.5
t-138 -22.5t-158.5 35.5t-172 134.5q-74 -156 -116 -278t-54 -216t3 -164.5t56 -124.5q-135 70 -183 176.5t-36 233.5t72.5 266.5t142.5 278.5q-45 63 -112.5 109t-142.5 67.5t-149.5 17.5t-137 -39.5t-104.5 -106.5t-50 -181zM138 100.5q1 65.5 9.5 106.5t6.5 43
q-4 2 9 24.5t29.5 49t32 48t19.5 21.5q2 0 -10.5 -48t-21.5 -125t-5 -175t36.5 -197.5t103.5 -192.5t198 -159q-135 55 -217 132t-124 160t-54.5 165t-11.5 147.5zM246 762q-4 0 14.5 40t54 105.5t87 147.5t115 166t136 162.5t150.5 138.5q-119 -119 -199 -242t-131 -223
q-59 -117 -96 -228q-33 -20 -60 -34q-23 -12 -45 -22.5t-26 -10.5zM342 569q66 -88 144.5 -117.5t154.5 -25.5t140.5 30.5t103.5 49.5q14 145 35.5 284.5t43 258t40 209t28.5 139.5q-262 -246 -430 -451t-260 -377zM771.5 1663q-1.5 2 32.5 18.5t92 45t117.5 63.5t106.5 74
t62 75q53 -2 97 -8t77 -14q37 -8 69 -19q-102 -43 -204 -81q-88 -35 -191.5 -73t-195.5 -65q-61 -18 -62.5 -16z" />
    <glyph glyph-name="Acircumflex" unicode="&#xc2;" horiz-adv-x="1064" 
d="M-534 573.5q4 38.5 14 73.5q23 66 71 131q49 61 109 101q31 20 66.5 33.5t74.5 15.5q10 0 11 -15q0 -12 -11 -12q-72 -4 -133 -48t-102 -101q-43 -59 -64.5 -129t0.5 -142q18 -70 66.5 -126t116.5 -79q72 -23 139 -4q35 10 59.5 34t20.5 59q-12 14 -22.5 25t-18.5 26
q-10 16 -18.5 36.5t-26.5 36.5q-4 4 1 14.5t13 6.5q29 -6 55.5 -21.5t40.5 -46.5t10 -63.5t-16 -61.5q-18 -39 -55 -56t-74 -21q-39 -4 -75.5 2t-71.5 22q-72 33 -115 97.5t-59 136.5q-10 37 -6 75.5zM-516 541q-10 104 25.5 185t99 132t147.5 73.5t171 12.5t168 -55
t141 -125q98 154 208.5 293t206.5 246q113 125 221 233l254 -51q-147 -666 -178 -1153q-10 -137 -9 -269.5t17.5 -246t49 -201.5t87 -140.5t132.5 -61.5t184 36q-131 -72 -225 -74t-158.5 51.5t-100.5 154t-52.5 230.5t-14.5 280.5t16 305.5q-47 -20 -110.5 -42.5
t-138 -22.5t-158.5 35.5t-172 134.5q-74 -156 -116 -278t-54 -216t3 -164.5t56 -124.5q-135 70 -183 176.5t-36 233.5t72.5 266.5t142.5 278.5q-45 63 -112.5 109t-142.5 67.5t-149.5 17.5t-137 -39.5t-104.5 -106.5t-50 -181zM138 100.5q1 65.5 9.5 106.5t6.5 43
q-4 2 9 24.5t29.5 49t32 48t19.5 21.5q2 0 -10.5 -48t-21.5 -125t-5 -175t36.5 -197.5t103.5 -192.5t198 -159q-135 55 -217 132t-124 160t-54.5 165t-11.5 147.5zM246 762q-4 0 14.5 40t54 105.5t87 147.5t115 166t136 162.5t150.5 138.5q-119 -119 -199 -242t-131 -223
q-59 -117 -96 -228q-33 -20 -60 -34q-23 -12 -45 -22.5t-26 -10.5zM342 569q66 -88 144.5 -117.5t154.5 -25.5t140.5 30.5t103.5 49.5q14 145 35.5 284.5t43 258t40 209t28.5 139.5q-262 -246 -430 -451t-260 -377zM738 1673q10 -8 40.5 11.5t70.5 53.5t83 73.5t79 74.5
t59.5 57.5t23.5 20.5q0 -4 13.5 -29.5t36 -59.5t53 -71t65.5 -63.5t71.5 -36.5t73.5 10q0 -6 -14 -23.5t-40 -34t-61.5 -23.5t-79.5 7.5t-95.5 56.5t-106.5 128q-23 -29 -58.5 -60.5t-70.5 -58.5q-41 -31 -86 -61q-18 8 -31 16q-10 6 -20 10t-6 2z" />
    <glyph glyph-name="Atilde" unicode="&#xc3;" horiz-adv-x="1064" 
d="M-534 573.5q4 38.5 14 73.5q23 66 71 131q49 61 109 101q31 20 66.5 33.5t74.5 15.5q10 0 11 -15q0 -12 -11 -12q-72 -4 -133 -48t-102 -101q-43 -59 -64.5 -129t0.5 -142q18 -70 66.5 -126t116.5 -79q72 -23 139 -4q35 10 59.5 34t20.5 59q-12 14 -22.5 25t-18.5 26
q-10 16 -18.5 36.5t-26.5 36.5q-4 4 1 14.5t13 6.5q29 -6 55.5 -21.5t40.5 -46.5t10 -63.5t-16 -61.5q-18 -39 -55 -56t-74 -21q-39 -4 -75.5 2t-71.5 22q-72 33 -115 97.5t-59 136.5q-10 37 -6 75.5zM-516 541q-10 104 25.5 185t99 132t147.5 73.5t171 12.5t168 -55
t141 -125q98 154 208.5 293t206.5 246q113 125 221 233l254 -51q-147 -666 -178 -1153q-10 -137 -9 -269.5t17.5 -246t49 -201.5t87 -140.5t132.5 -61.5t184 36q-131 -72 -225 -74t-158.5 51.5t-100.5 154t-52.5 230.5t-14.5 280.5t16 305.5q-47 -20 -110.5 -42.5
t-138 -22.5t-158.5 35.5t-172 134.5q-74 -156 -116 -278t-54 -216t3 -164.5t56 -124.5q-135 70 -183 176.5t-36 233.5t72.5 266.5t142.5 278.5q-45 63 -112.5 109t-142.5 67.5t-149.5 17.5t-137 -39.5t-104.5 -106.5t-50 -181zM138 100.5q1 65.5 9.5 106.5t6.5 43
q-4 2 9 24.5t29.5 49t32 48t19.5 21.5q2 0 -10.5 -48t-21.5 -125t-5 -175t36.5 -197.5t103.5 -192.5t198 -159q-135 55 -217 132t-124 160t-54.5 165t-11.5 147.5zM246 762q-4 0 14.5 40t54 105.5t87 147.5t115 166t136 162.5t150.5 138.5q-119 -119 -199 -242t-131 -223
q-59 -117 -96 -228q-33 -20 -60 -34q-23 -12 -45 -22.5t-26 -10.5zM342 569q66 -88 144.5 -117.5t154.5 -25.5t140.5 30.5t103.5 49.5q14 145 35.5 284.5t43 258t40 209t28.5 139.5q-262 -246 -430 -451t-260 -377zM719 1747q25 90 72 143q20 23 46.5 41.5t62.5 24.5t79 -2
t96 -39q106 -59 180 -72.5t121 -3.5q53 10 88 45q-55 -80 -123 -127q-29 -20 -64.5 -34.5t-76.5 -16.5t-88 10.5t-98 44.5q-68 43 -114 60.5t-76.5 17.5t-49 -12t-29 -27.5t-15.5 -31t-11 -21.5z" />
    <glyph glyph-name="Adieresis" unicode="&#xc4;" horiz-adv-x="1064" 
d="M-534 573.5q4 38.5 14 73.5q23 66 71 131q49 61 109 101q31 20 66.5 33.5t74.5 15.5q10 0 11 -15q0 -12 -11 -12q-72 -4 -133 -48t-102 -101q-43 -59 -64.5 -129t0.5 -142q18 -70 66.5 -126t116.5 -79q72 -23 139 -4q35 10 59.5 34t20.5 59q-12 14 -22.5 25t-18.5 26
q-10 16 -18.5 36.5t-26.5 36.5q-4 4 1 14.5t13 6.5q29 -6 55.5 -21.5t40.5 -46.5t10 -63.5t-16 -61.5q-18 -39 -55 -56t-74 -21q-39 -4 -75.5 2t-71.5 22q-72 33 -115 97.5t-59 136.5q-10 37 -6 75.5zM-516 541q-10 104 25.5 185t99 132t147.5 73.5t171 12.5t168 -55
t141 -125q98 154 208.5 293t206.5 246q113 125 221 233l254 -51q-147 -666 -178 -1153q-10 -137 -9 -269.5t17.5 -246t49 -201.5t87 -140.5t132.5 -61.5t184 36q-131 -72 -225 -74t-158.5 51.5t-100.5 154t-52.5 230.5t-14.5 280.5t16 305.5q-47 -20 -110.5 -42.5
t-138 -22.5t-158.5 35.5t-172 134.5q-74 -156 -116 -278t-54 -216t3 -164.5t56 -124.5q-135 70 -183 176.5t-36 233.5t72.5 266.5t142.5 278.5q-45 63 -112.5 109t-142.5 67.5t-149.5 17.5t-137 -39.5t-104.5 -106.5t-50 -181zM138 100.5q1 65.5 9.5 106.5t6.5 43
q-4 2 9 24.5t29.5 49t32 48t19.5 21.5q2 0 -10.5 -48t-21.5 -125t-5 -175t36.5 -197.5t103.5 -192.5t198 -159q-135 55 -217 132t-124 160t-54.5 165t-11.5 147.5zM246 762q-4 0 14.5 40t54 105.5t87 147.5t115 166t136 162.5t150.5 138.5q-119 -119 -199 -242t-131 -223
q-59 -117 -96 -228q-33 -20 -60 -34q-23 -12 -45 -22.5t-26 -10.5zM342 569q66 -88 144.5 -117.5t154.5 -25.5t140.5 30.5t103.5 49.5q14 145 35.5 284.5t43 258t40 209t28.5 139.5q-262 -246 -430 -451t-260 -377zM791 1843q29 12 62.5 49t64.5 78q37 48 74 103
q8 -53 20 -99q10 -41 27.5 -78.5t42.5 -56.5q-35 -10 -71 -37.5t-64 -58.5q-35 -37 -68 -80q-6 33 -16 66q-10 29 -26.5 59.5t-45.5 54.5zM1119 1835q29 12 62.5 51t64.5 80q36 50 73 107q8 -55 21 -105q10 -41 27.5 -82t41.5 -59q-35 -10 -70.5 -36t-64.5 -54
q-35 -35 -67 -74q-6 31 -17 61q-10 27 -26.5 56.5t-44.5 54.5z" />
    <glyph glyph-name="Aring" unicode="&#xc5;" horiz-adv-x="1064" 
d="M-534 573.5q4 38.5 14 73.5q23 66 71 131q49 61 109 101q31 20 66.5 33.5t74.5 15.5q10 0 11 -15q0 -12 -11 -12q-72 -4 -133 -48t-102 -101q-43 -59 -64.5 -129t0.5 -142q18 -70 66.5 -126t116.5 -79q72 -23 139 -4q35 10 59.5 34t20.5 59q-12 14 -22.5 25t-18.5 26
q-10 16 -18.5 36.5t-26.5 36.5q-4 4 1 14.5t13 6.5q29 -6 55.5 -21.5t40.5 -46.5t10 -63.5t-16 -61.5q-18 -39 -55 -56t-74 -21q-39 -4 -75.5 2t-71.5 22q-72 33 -115 97.5t-59 136.5q-10 37 -6 75.5zM-516 541q-10 104 25.5 185t99 132t147.5 73.5t171 12.5t168 -55
t141 -125q98 154 208.5 293t206.5 246q113 125 221 233l254 -51q-147 -666 -178 -1153q-10 -137 -9 -269.5t17.5 -246t49 -201.5t87 -140.5t132.5 -61.5t184 36q-131 -72 -225 -74t-158.5 51.5t-100.5 154t-52.5 230.5t-14.5 280.5t16 305.5q-47 -20 -110.5 -42.5
t-138 -22.5t-158.5 35.5t-172 134.5q-74 -156 -116 -278t-54 -216t3 -164.5t56 -124.5q-135 70 -183 176.5t-36 233.5t72.5 266.5t142.5 278.5q-45 63 -112.5 109t-142.5 67.5t-149.5 17.5t-137 -39.5t-104.5 -106.5t-50 -181zM138 100.5q1 65.5 9.5 106.5t6.5 43
q-4 2 9 24.5t29.5 49t32 48t19.5 21.5q2 0 -10.5 -48t-21.5 -125t-5 -175t36.5 -197.5t103.5 -192.5t198 -159q-135 55 -217 132t-124 160t-54.5 165t-11.5 147.5zM246 762q-4 0 14.5 40t54 105.5t87 147.5t115 166t136 162.5t150.5 138.5q-119 -119 -199 -242t-131 -223
q-59 -117 -96 -228q-33 -20 -60 -34q-23 -12 -45 -22.5t-26 -10.5zM342 569q66 -88 144.5 -117.5t154.5 -25.5t140.5 30.5t103.5 49.5q14 145 35.5 284.5t43 258t40 209t28.5 139.5q-262 -246 -430 -451t-260 -377zM909 1862q16 57 62.5 92t95.5 52t88 20t39 -3t18.5 -22
t36.5 -45t25.5 -73t-17.5 -105t-59.5 -96t-67.5 -52q-37 -20 -80 -24q-49 31 -86 69q-31 35 -51 81t-4 106zM1038 1841q0 -41 11.5 -68.5t27.5 -46.5q16 -23 39 -34q31 20 55 43q23 20 40.5 46.5t17.5 59.5q0 66 -23 94.5t-27 24.5q-4 -2 -25.5 -6t-48 -15.5t-47 -35
t-20.5 -62.5z" />
    <glyph glyph-name="AE" unicode="&#xc6;" horiz-adv-x="2107" 
d="M-534 573.5q4 38.5 14 73.5q23 66 71 131q49 61 109 101q31 20 66.5 33.5t74.5 15.5q10 0 11 -15q0 -12 -11 -12q-72 -4 -133 -48t-102 -101q-43 -59 -64.5 -129t0.5 -142q18 -70 66.5 -126t116.5 -79q72 -23 139 -4q35 10 59.5 34t20.5 59q-12 14 -22.5 25t-18.5 26
q-10 16 -18.5 36.5t-26.5 36.5q-4 4 1 14.5t13 6.5q29 -6 55.5 -21.5t40.5 -46.5t10 -63.5t-16 -61.5q-18 -39 -55 -56t-74 -21q-39 -4 -75.5 2t-71.5 22q-72 33 -115 97.5t-59 136.5q-10 37 -6 75.5zM-516 541q-10 104 25.5 185t99 132t147.5 73.5t171 12.5t168 -55
t141 -125q98 154 208.5 293t206.5 246q113 125 221 233l254 -51q-16 -76 -36 -168q-16 -78 -37 -185.5t-39 -230.5l-80 -22q29 178 56.5 315t41.5 203q-262 -246 -430 -451t-260 -377q49 -66 104.5 -98.5t112.5 -41.5t112.5 0t102.5 26l-2 -99q-47 -16 -102.5 -22t-116.5 6
t-126 50t-132 112q-74 -156 -116 -278t-54 -216t3 -164.5t56 -124.5q-135 70 -183 176.5t-36 233.5t72.5 266.5t142.5 278.5q-45 63 -112.5 109t-142.5 67.5t-149.5 17.5t-137 -39.5t-104.5 -106.5t-50 -181zM138 100.5q1 65.5 9.5 106.5t6.5 43q-4 2 9 24.5t29.5 49t32 48
t19.5 21.5q2 0 -10.5 -48t-21.5 -125t-5 -175t36.5 -197.5t103.5 -192.5t198 -159q-135 55 -217 132t-124 160t-54.5 165t-11.5 147.5zM246 762q-4 0 14.5 40t54 105.5t87 147.5t115 166t136 162.5t150.5 138.5q-119 -119 -199 -242t-131 -223q-59 -117 -96 -228
q-33 -20 -60 -34q-23 -12 -45 -22.5t-26 -10.5zM615.5 156.5q-5.5 54.5 7.5 107.5q25 104 79 174t107 113q63 49 135 78q-45 10 -74 49q-25 35 -37 101.5t13 187.5q12 59 49 115.5t90 107.5t117.5 96t130.5 84q154 90 338 166q51 -49 88 -115q31 -55 48 -133t-3 -176
q-23 -98 -76 -123.5t-110 -17.5q-68 8 -144 53q82 -33 137.5 -32t87 25.5t43 63.5t4 82t-31 83t-58.5 65q-152 -55 -248 -115.5t-151 -121t-75.5 -118t-18.5 -108.5q4 -121 108 -238q-131 -47 -206.5 -106.5t-109.5 -124t-33 -132t22 -130.5q49 -150 196 -307q68 -4 154 43
q74 39 175 135t226 284q-47 -100 -100 -179t-109.5 -141.5t-112.5 -108.5t-108 -79q-121 -78 -243 -108q-102 96 -177 199q-31 43 -59.5 93t-46.5 102t-23.5 106.5zM853 145.5q-1 77.5 25.5 155.5t98.5 143q-43 -57 -63.5 -115.5t-23.5 -113.5t7 -107.5t29 -97.5
q41 -106 121 -203q-18 -6 -31 -14q-12 -6 -21.5 -14.5t-9.5 -16.5q0 -6 -20.5 25t-45 84t-45 125t-21.5 149.5zM874 -207l95 -43q18 -98 53 -173t88 -117t127 -47t172 36q-129 -72 -223 -74t-157.5 48.5t-100.5 146.5t-54 223zM874 924q10 66 33 130t60 122q35 59 83 107
t101 89q111 78 227.5 139.5t231.5 130.5q53 35 106 75t101 87q49 45 84 99q16 27 28.5 55.5t14.5 58.5q2 31 -12.5 58.5t-37.5 48.5q-23 23 -52.5 33t-59.5 14q-63 6 -127 -11.5t-119 -48.5q-23 -25 -44.5 -47t-43.5 -45q-27 -27 -52.5 -53.5t-29.5 -64.5
q-2 -12 -12.5 -14.5t-14.5 9.5q-10 49 12.5 102.5t63.5 86.5t87 49t91 33q61 23 128 31t132 -17q31 -14 57.5 -36.5t43.5 -53.5q16 -33 15 -68.5t-11 -66.5q-25 -63 -69 -112.5t-91 -92.5q-49 -43 -101 -81t-110 -71q-111 -66 -223.5 -125t-214.5 -137q-49 -39 -92 -85
t-76 -101q-31 -53 -51.5 -113.5t-30.5 -122.5q-4 -18 -16 -14q-12 2 -9 23z" />
    <glyph glyph-name="Ccedilla" unicode="&#xc7;" horiz-adv-x="954" 
d="M-43 -738.5q6 54.5 55 127.5q-18 -39 -15 -68.5t16.5 -56t32 -54.5t32.5 -62q61 39 96 74.5t52.5 69.5t18.5 63.5t-7 54.5q-20 59 -84 110l77 207h72q-4 -16 -8 -37q-4 -16 -9 -38.5t-12 -47.5q88 -57 123 -118.5t31 -125t-37 -123t-80 -111.5t-100 -93t-94 -64
q-45 51 -85 96.5t-60.5 93.5t-14.5 102.5zM-23 282.5q0 104.5 20.5 229.5t70.5 270q47 143 110.5 255t136 197t148.5 143.5t147 99.5q171 93 353 116q70 -70 116 -161q41 -78 61.5 -188.5t-12.5 -250.5q-16 -70 -38.5 -107.5t-48 -53t-53 -12.5t-52.5 18q-59 33 -125 120
q53 -61 100 -81q20 -8 41 -8.5t40.5 13t37 45t29.5 85.5q18 92 10 166.5t-25 130.5q-20 63 -53 114q-154 -49 -291 -137q-59 -37 -119.5 -87t-115.5 -114.5t-101.5 -143.5t-76.5 -175q-37 -121 -55.5 -227.5t-21.5 -198.5t6 -170t24 -139q35 -145 102 -252q57 4 127 39
q59 29 142 92t184 180q-33 -76 -77 -134t-93.5 -102t-100.5 -75t-100 -51q-115 -49 -240 -60q-100 109 -153 269q-23 68 -38.5 154.5t-15.5 191zM-6 498q8 104 32.5 202.5t61.5 196.5q37 96 83 187.5t103 177.5t123 164.5t144 146.5q27 49 71 80q29 20 59.5 28.5t61.5 20.5
q10 4 15.5 -5.5t-0.5 -15.5q-27 -27 -52.5 -52t-58.5 -44q-29 -16 -61.5 -31.5t-59.5 -40.5q-141 -135 -244.5 -303t-169.5 -352q-35 -92 -56 -186t-28 -193q-8 -98 4.5 -194.5t53.5 -184.5q8 -12 -6 -16q-10 -4 -19 8q-43 96 -55 199.5t-2 206.5zM218 505q5 130 30.5 229.5
t53.5 166t51.5 99t23.5 30.5t29.5 26.5t66.5 62.5t67.5 60.5t32.5 22.5t-32.5 -44t-82.5 -116.5t-98.5 -189.5t-77 -260.5t-19.5 -330.5t73 -400q-72 190 -97.5 352t-20.5 292z" />
    <glyph glyph-name="Egrave" unicode="&#xc8;" horiz-adv-x="1042" 
d="M-23.5 156.5q-5.5 54.5 7.5 107.5q25 104 79 174t107 113q63 49 135 78q-45 10 -74 49q-25 35 -37 101.5t13 187.5q12 59 49 115.5t90 107.5t117.5 96t130.5 84q154 90 338 166q51 -49 88 -115q31 -55 48 -133t-3 -176q-23 -98 -76 -123.5t-110 -17.5q-68 8 -144 53
q82 -33 137.5 -32t87 25.5t43 63.5t4 82t-31 83t-57.5 65q-152 -55 -248.5 -115.5t-151.5 -121t-75.5 -118t-18.5 -108.5q4 -121 108 -238q-131 -47 -206.5 -106.5t-109.5 -124t-33 -132t22 -130.5q49 -150 196 -307q68 -4 154 43q74 39 175 135t226 284q-47 -100 -100 -179
t-109.5 -141.5t-112.5 -108.5t-108 -79q-121 -78 -243 -108q-102 96 -177 199q-31 43 -59.5 93t-46.5 102t-23.5 106.5zM214 145.5q-1 77.5 25.5 155.5t98.5 143q-43 -57 -63.5 -115.5t-23.5 -113.5t7 -107.5t29 -97.5q41 -106 121 -203q-18 -6 -31 -14q-12 -6 -21.5 -14.5
t-9.5 -16.5q0 -6 -20.5 25t-45 84t-45 125t-21.5 149.5zM236 924q10 66 32.5 130t59.5 122q35 59 83 107t101 89q111 78 227.5 139.5t231.5 130.5q53 35 106 75t101 87q49 45 84 99q16 27 28.5 55.5t14.5 58.5q2 31 -12.5 58.5t-37.5 48.5q-23 23 -52 33t-60 14
q-63 6 -127 -11.5t-119 -48.5q-23 -25 -44.5 -47t-43.5 -45q-27 -27 -52.5 -53.5t-29.5 -64.5q-2 -12 -12.5 -14.5t-14.5 9.5q-10 49 12.5 102.5t63.5 86.5t87 49t91 33q61 23 128 31t132 -17q31 -14 57.5 -36.5t43.5 -53.5q16 -33 15 -68.5t-11 -66.5q-25 -63 -69 -112.5
t-91 -92.5q-49 -43 -101 -81t-110 -71q-111 -66 -223.5 -125t-214.5 -137q-49 -39 -92 -85t-76 -101q-31 -53 -51.5 -113.5t-30.5 -122.5q-4 -18 -16 -14q-12 2 -8 23zM332 1898q33 10 70 19q33 8 75.5 14t96.5 8q12 -37 60 -75.5t107.5 -73.5t117 -62.5l92 -44t32.5 -18.5
t-61 16q-92 27 -195.5 64t-191.5 72q-102 39 -203 81z" />
    <glyph glyph-name="Eacute" unicode="&#xc9;" horiz-adv-x="1042" 
d="M-23.5 156.5q-5.5 54.5 7.5 107.5q25 104 79 174t107 113q63 49 135 78q-45 10 -74 49q-25 35 -37 101.5t13 187.5q12 59 49 115.5t90 107.5t117.5 96t130.5 84q154 90 338 166q51 -49 88 -115q31 -55 48 -133t-3 -176q-23 -98 -76 -123.5t-110 -17.5q-68 8 -144 53
q82 -33 137.5 -32t87 25.5t43 63.5t4 82t-31 83t-57.5 65q-152 -55 -248.5 -115.5t-151.5 -121t-75.5 -118t-18.5 -108.5q4 -121 108 -238q-131 -47 -206.5 -106.5t-109.5 -124t-33 -132t22 -130.5q49 -150 196 -307q68 -4 154 43q74 39 175 135t226 284q-47 -100 -100 -179
t-109.5 -141.5t-112.5 -108.5t-108 -79q-121 -78 -243 -108q-102 96 -177 199q-31 43 -59.5 93t-46.5 102t-23.5 106.5zM214 145.5q-1 77.5 25.5 155.5t98.5 143q-43 -57 -63.5 -115.5t-23.5 -113.5t7 -107.5t29 -97.5q41 -106 121 -203q-18 -6 -31 -14q-12 -6 -21.5 -14.5
t-9.5 -16.5q0 -6 -20.5 25t-45 84t-45 125t-21.5 149.5zM236 924q10 66 32.5 130t59.5 122q35 59 83 107t101 89q111 78 227.5 139.5t231.5 130.5q53 35 106 75t101 87q49 45 84 99q16 27 28.5 55.5t14.5 58.5q2 31 -12.5 58.5t-37.5 48.5q-23 23 -52 33t-60 14
q-63 6 -127 -11.5t-119 -48.5q-23 -25 -44.5 -47t-43.5 -45q-27 -27 -52.5 -53.5t-29.5 -64.5q-2 -12 -12.5 -14.5t-14.5 9.5q-10 49 12.5 102.5t63.5 86.5t87 49t91 33q61 23 128 31t132 -17q31 -14 57.5 -36.5t43.5 -53.5q16 -33 15 -68.5t-11 -66.5q-25 -63 -69 -112.5
t-91 -92.5q-49 -43 -101 -81t-110 -71q-111 -66 -223.5 -125t-214.5 -137q-49 -39 -92 -85t-76 -101q-31 -53 -51.5 -113.5t-30.5 -122.5q-4 -18 -16 -14q-12 2 -8 23zM583.5 1663q-1.5 2 32.5 18.5t92 45t117.5 63.5t106.5 74t62 75q53 -2 97 -8t77 -14q37 -8 69 -19
q-102 -43 -204 -81q-88 -35 -191.5 -73t-195.5 -65q-61 -18 -62.5 -16z" />
    <glyph glyph-name="Ecircumflex" unicode="&#xca;" horiz-adv-x="1042" 
d="M-23.5 156.5q-5.5 54.5 7.5 107.5q25 104 79 174t107 113q63 49 135 78q-45 10 -74 49q-25 35 -37 101.5t13 187.5q12 59 49 115.5t90 107.5t117.5 96t130.5 84q154 90 338 166q51 -49 88 -115q31 -55 48 -133t-3 -176q-23 -98 -76 -123.5t-110 -17.5q-68 8 -144 53
q82 -33 137.5 -32t87 25.5t43 63.5t4 82t-31 83t-57.5 65q-152 -55 -248.5 -115.5t-151.5 -121t-75.5 -118t-18.5 -108.5q4 -121 108 -238q-131 -47 -206.5 -106.5t-109.5 -124t-33 -132t22 -130.5q49 -150 196 -307q68 -4 154 43q74 39 175 135t226 284q-47 -100 -100 -179
t-109.5 -141.5t-112.5 -108.5t-108 -79q-121 -78 -243 -108q-102 96 -177 199q-31 43 -59.5 93t-46.5 102t-23.5 106.5zM214 145.5q-1 77.5 25.5 155.5t98.5 143q-43 -57 -63.5 -115.5t-23.5 -113.5t7 -107.5t29 -97.5q41 -106 121 -203q-18 -6 -31 -14q-12 -6 -21.5 -14.5
t-9.5 -16.5q0 -6 -20.5 25t-45 84t-45 125t-21.5 149.5zM236 924q10 66 32.5 130t59.5 122q35 59 83 107t101 89q111 78 227.5 139.5t231.5 130.5q53 35 106 75t101 87q49 45 84 99q16 27 28.5 55.5t14.5 58.5q2 31 -12.5 58.5t-37.5 48.5q-23 23 -52 33t-60 14
q-63 6 -127 -11.5t-119 -48.5q-23 -25 -44.5 -47t-43.5 -45q-27 -27 -52.5 -53.5t-29.5 -64.5q-2 -12 -12.5 -14.5t-14.5 9.5q-10 49 12.5 102.5t63.5 86.5t87 49t91 33q61 23 128 31t132 -17q31 -14 57.5 -36.5t43.5 -53.5q16 -33 15 -68.5t-11 -66.5q-25 -63 -69 -112.5
t-91 -92.5q-49 -43 -101 -81t-110 -71q-111 -66 -223.5 -125t-214.5 -137q-49 -39 -92 -85t-76 -101q-31 -53 -51.5 -113.5t-30.5 -122.5q-4 -18 -16 -14q-12 2 -8 23zM575 1673q10 -8 41 11.5t71 53.5t83 73.5t79 74.5t59.5 57.5t23.5 20.5q0 -4 13 -29.5t36 -59.5
t53.5 -71t65.5 -63.5t71.5 -36.5t73.5 10q0 -6 -14 -23.5t-40 -34t-61.5 -23.5t-79.5 7.5t-95.5 56.5t-106.5 128q-23 -29 -58.5 -60.5t-70.5 -58.5q-41 -31 -86 -61q-18 8 -31 16q-10 6 -20.5 10t-6.5 2z" />
    <glyph glyph-name="Edieresis" unicode="&#xcb;" horiz-adv-x="1042" 
d="M-23.5 156.5q-5.5 54.5 7.5 107.5q25 104 79 174t107 113q63 49 135 78q-45 10 -74 49q-25 35 -37 101.5t13 187.5q12 59 49 115.5t90 107.5t117.5 96t130.5 84q154 90 338 166q51 -49 88 -115q31 -55 48 -133t-3 -176q-23 -98 -76 -123.5t-110 -17.5q-68 8 -144 53
q82 -33 137.5 -32t87 25.5t43 63.5t4 82t-31 83t-57.5 65q-152 -55 -248.5 -115.5t-151.5 -121t-75.5 -118t-18.5 -108.5q4 -121 108 -238q-131 -47 -206.5 -106.5t-109.5 -124t-33 -132t22 -130.5q49 -150 196 -307q68 -4 154 43q74 39 175 135t226 284q-47 -100 -100 -179
t-109.5 -141.5t-112.5 -108.5t-108 -79q-121 -78 -243 -108q-102 96 -177 199q-31 43 -59.5 93t-46.5 102t-23.5 106.5zM214 145.5q-1 77.5 25.5 155.5t98.5 143q-43 -57 -63.5 -115.5t-23.5 -113.5t7 -107.5t29 -97.5q41 -106 121 -203q-18 -6 -31 -14q-12 -6 -21.5 -14.5
t-9.5 -16.5q0 -6 -20.5 25t-45 84t-45 125t-21.5 149.5zM236 924q10 66 32.5 130t59.5 122q35 59 83 107t101 89q111 78 227.5 139.5t231.5 130.5q53 35 106 75t101 87q49 45 84 99q16 27 28.5 55.5t14.5 58.5q2 31 -12.5 58.5t-37.5 48.5q-23 23 -52 33t-60 14
q-63 6 -127 -11.5t-119 -48.5q-23 -25 -44.5 -47t-43.5 -45q-27 -27 -52.5 -53.5t-29.5 -64.5q-2 -12 -12.5 -14.5t-14.5 9.5q-10 49 12.5 102.5t63.5 86.5t87 49t91 33q61 23 128 31t132 -17q31 -14 57.5 -36.5t43.5 -53.5q16 -33 15 -68.5t-11 -66.5q-25 -63 -69 -112.5
t-91 -92.5q-49 -43 -101 -81t-110 -71q-111 -66 -223.5 -125t-214.5 -137q-49 -39 -92 -85t-76 -101q-31 -53 -51.5 -113.5t-30.5 -122.5q-4 -18 -16 -14q-12 2 -8 23zM651 1843q29 12 62.5 49t64.5 78q37 48 74 103q8 -53 20 -99q10 -41 27.5 -78.5t42.5 -56.5
q-35 -10 -71 -37.5t-64 -58.5q-35 -37 -68 -80q-6 33 -16 66q-10 29 -26.5 59.5t-45.5 54.5zM979 1835q29 12 62.5 51t64.5 80q36 50 73 107q8 -55 21 -105q10 -41 27.5 -82t41.5 -59q-35 -10 -70.5 -36t-64.5 -54q-35 -35 -67 -74q-6 31 -17 61q-10 27 -26.5 56.5
t-44.5 54.5z" />
    <glyph glyph-name="Igrave" unicode="&#xcc;" horiz-adv-x="464" 
d="M-360 1118q37 -88 90 -115.5t116.5 -13t131 61.5t133.5 110q154 147 325 393l189 -122q-195 -412 -322 -791q-55 -162 -100 -332t-68.5 -329.5t-19.5 -302t51 -248.5q-23 41 -61.5 98t-77.5 111q-45 61 -97 122q25 223 70 463q18 102 44 218t57.5 238t70.5 247t86 245
q-53 -45 -114.5 -89t-124 -77.5t-123 -52t-111.5 -9.5t-89 50t-56 125zM-90 840q45 0 90 26.5t87 66.5t78 86t61.5 88t35.5 70.5t4 32.5q-10 6 1.5 0t31.5 -16q23 -12 55 -29q-61 -106 -133 -184q-31 -33 -66.5 -63.5t-75.5 -52t-82 -30t-87 4.5zM27 -238q-2 4 3 8.5t9 4.5
q10 4 14 -6q41 -133 92.5 -262.5t110.5 -256.5q57 -127 129 -245q18 -29 36.5 -57.5t41.5 -55.5q23 -29 46 -51.5t52 -36.5q18 4 29.5 8t19.5 8q10 4 28.5 10.5t29.5 24.5q4 6 14 2t10 -12q-2 -14 -4 -28.5t-10 -28.5t-22.5 -24.5t-34.5 -14.5q-18 -4 -35 2t-29 16
q-12 8 -22.5 17.5t-20.5 17.5q-55 45 -94 101.5t-74 113.5q-35 59 -64.5 119.5t-58.5 122.5q-55 123 -105 248.5t-91 254.5zM147 1898q33 10 70 19q33 8 75.5 14t96.5 8q12 -37 60 -75.5t107.5 -73.5t117 -62.5l92 -44t32.5 -18.5t-61 16q-92 27 -195.5 64t-191.5 72
q-102 39 -203 81z" />
    <glyph glyph-name="Iacute" unicode="&#xcd;" horiz-adv-x="464" 
d="M-360 1118q37 -88 90 -115.5t116.5 -13t131 61.5t133.5 110q154 147 325 393l189 -122q-195 -412 -322 -791q-55 -162 -100 -332t-68.5 -329.5t-19.5 -302t51 -248.5q-23 41 -61.5 98t-77.5 111q-45 61 -97 122q25 223 70 463q18 102 44 218t57.5 238t70.5 247t86 245
q-53 -45 -114.5 -89t-124 -77.5t-123 -52t-111.5 -9.5t-89 50t-56 125zM-90 840q45 0 90 26.5t87 66.5t78 86t61.5 88t35.5 70.5t4 32.5q-10 6 1.5 0t31.5 -16q23 -12 55 -29q-61 -106 -133 -184q-31 -33 -66.5 -63.5t-75.5 -52t-82 -30t-87 4.5zM27 -238q-2 4 3 8.5t9 4.5
q10 4 14 -6q41 -133 92.5 -262.5t110.5 -256.5q57 -127 129 -245q18 -29 36.5 -57.5t41.5 -55.5q23 -29 46 -51.5t52 -36.5q18 4 29.5 8t19.5 8q10 4 28.5 10.5t29.5 24.5q4 6 14 2t10 -12q-2 -14 -4 -28.5t-10 -28.5t-22.5 -24.5t-34.5 -14.5q-18 -4 -35 2t-29 16
q-12 8 -22.5 17.5t-20.5 17.5q-55 45 -94 101.5t-74 113.5q-35 59 -64.5 119.5t-58.5 122.5q-55 123 -105 248.5t-91 254.5zM353.5 1663q-1.5 2 32.5 18.5t92 45t117.5 63.5t106.5 74t62 75q53 -2 97 -8t77 -14q37 -8 69 -19q-102 -43 -204 -81q-88 -35 -191.5 -73
t-195.5 -65q-61 -18 -62.5 -16z" />
    <glyph glyph-name="Icircumflex" unicode="&#xce;" horiz-adv-x="464" 
d="M-360 1118q37 -88 90 -115.5t116.5 -13t131 61.5t133.5 110q154 147 325 393l189 -122q-195 -412 -322 -791q-55 -162 -100 -332t-68.5 -329.5t-19.5 -302t51 -248.5q-23 41 -61.5 98t-77.5 111q-45 61 -97 122q25 223 70 463q18 102 44 218t57.5 238t70.5 247t86 245
q-53 -45 -114.5 -89t-124 -77.5t-123 -52t-111.5 -9.5t-89 50t-56 125zM-90 840q45 0 90 26.5t87 66.5t78 86t61.5 88t35.5 70.5t4 32.5q-10 6 1.5 0t31.5 -16q23 -12 55 -29q-61 -106 -133 -184q-31 -33 -66.5 -63.5t-75.5 -52t-82 -30t-87 4.5zM27 -238q-2 4 3 8.5t9 4.5
q10 4 14 -6q41 -133 92.5 -262.5t110.5 -256.5q57 -127 129 -245q18 -29 36.5 -57.5t41.5 -55.5q23 -29 46 -51.5t52 -36.5q18 4 29.5 8t19.5 8q10 4 28.5 10.5t29.5 24.5q4 6 14 2t10 -12q-2 -14 -4 -28.5t-10 -28.5t-22.5 -24.5t-34.5 -14.5q-18 -4 -35 2t-29 16
q-12 8 -22.5 17.5t-20.5 17.5q-55 45 -94 101.5t-74 113.5q-35 59 -64.5 119.5t-58.5 122.5q-55 123 -105 248.5t-91 254.5zM226 1673q10 -8 40.5 11.5t70.5 53.5t83 73.5t79 74.5t59.5 57.5t23.5 20.5q0 -4 13.5 -29.5t36 -59.5t53 -71t65.5 -63.5t71.5 -36.5t73.5 10
q0 -6 -14 -23.5t-40 -34t-61.5 -23.5t-79.5 7.5t-95.5 56.5t-106.5 128q-23 -29 -58.5 -60.5t-70.5 -58.5q-41 -31 -86 -61q-18 8 -31 16q-10 6 -20 10t-6 2z" />
    <glyph glyph-name="Idieresis" unicode="&#xcf;" horiz-adv-x="464" 
d="M-360 1118q37 -88 90 -115.5t116.5 -13t131 61.5t133.5 110q154 147 325 393l189 -122q-195 -412 -322 -791q-55 -162 -100 -332t-68.5 -329.5t-19.5 -302t51 -248.5q-23 41 -61.5 98t-77.5 111q-45 61 -97 122q25 223 70 463q18 102 44 218t57.5 238t70.5 247t86 245
q-53 -45 -114.5 -89t-124 -77.5t-123 -52t-111.5 -9.5t-89 50t-56 125zM-90 840q45 0 90 26.5t87 66.5t78 86t61.5 88t35.5 70.5t4 32.5q-10 6 1.5 0t31.5 -16q23 -12 55 -29q-61 -106 -133 -184q-31 -33 -66.5 -63.5t-75.5 -52t-82 -30t-87 4.5zM27 -238q-2 4 3 8.5t9 4.5
q10 4 14 -6q41 -133 92.5 -262.5t110.5 -256.5q57 -127 129 -245q18 -29 36.5 -57.5t41.5 -55.5q23 -29 46 -51.5t52 -36.5q18 4 29.5 8t19.5 8q10 4 28.5 10.5t29.5 24.5q4 6 14 2t10 -12q-2 -14 -4 -28.5t-10 -28.5t-22.5 -24.5t-34.5 -14.5q-18 -4 -35 2t-29 16
q-12 8 -22.5 17.5t-20.5 17.5q-55 45 -94 101.5t-74 113.5q-35 59 -64.5 119.5t-58.5 122.5q-55 123 -105 248.5t-91 254.5zM260 1843q29 12 62.5 49t64.5 78q37 48 74 103q8 -53 20 -99q10 -41 27.5 -78.5t42.5 -56.5q-35 -10 -71 -37.5t-64 -58.5q-35 -37 -68 -80
q-6 33 -16 66q-10 29 -26.5 59.5t-45.5 54.5zM588 1835q29 12 62.5 51t64.5 80q36 50 73 107q8 -55 21 -105q10 -41 27.5 -82t41.5 -59q-35 -10 -70.5 -36t-64.5 -54q-35 -35 -67 -74q-6 31 -17 61q-10 27 -26.5 56.5t-44.5 54.5z" />
    <glyph glyph-name="Eth" unicode="&#xd0;" horiz-adv-x="1130" 
d="M-172 -465q0 10 12 12q45 6 87 16.5t83 16.5q41 4 83 12.5t81 30.5q102 66 178 159t135 198q59 104 106.5 214.5t84.5 225.5q74 227 117 469q20 119 32.5 238.5t10.5 240.5q-2 8 3 12t9 4q6 0 9 -6t3 -12q4 -129 -10 -253t-37 -249q-43 -246 -123 -487
q-41 -121 -92 -235.5t-117 -223.5q-68 -106 -154.5 -201.5t-205.5 -150.5q-23 -23 -53.5 -38t-65.5 -22q-43 -8 -82 1.5t-80 13.5q-14 4 -14 14zM-84 297q57 307 145.5 540.5t171 390t142 234.5t59.5 76q0 -8 19 -37q8 -14 18 -33q-102 -111 -203 -278q-86 -143 -182 -363.5
t-170 -529.5zM-43 0q31 256 92 524q27 113 62.5 241t83 261t106.5 267t133 261l189 -122q-66 -115 -131 -248q-55 -115 -119 -262.5t-117 -311.5q39 76 92 168t115.5 188.5t133.5 190.5t146.5 173t154.5 136t159 80q31 -14 56.5 -43.5t43.5 -60.5q23 -37 39 -76
q-109 -700 -264 -1157q-45 -129 -96.5 -245t-110.5 -204t-127 -141t-141.5 -58t-155.5 46t-172 172q-29 35 -59.5 73.5t-55.5 71.5q-29 37 -57 76zM96 467l13 205q16 -18 54 -30.5t105.5 -14.5t169 6t248.5 26q-8 -29 -19.5 -52t-21.5 -42q-12 -23 -29 -41zM140 -23.5
q2 -93.5 22 -177.5q80 -78 158.5 -66.5t153.5 95.5t143.5 234.5t129 352t110.5 448.5t87 523q-35 -2 -97.5 -64t-139 -162.5t-161.5 -228.5t-162 -262t-139.5 -265.5t-94.5 -235.5q-12 -98 -10 -191.5zM510 -426q16 49 52 122t82 153.5t94 160.5t88 143.5t64.5 103.5
t22.5 40q-4 0 31 64.5t85 188.5t104.5 305t91.5 415q-12 -156 -46 -335t-82 -358.5t-112.5 -348.5t-139.5 -305t-160 -229t-175 -120z" />
    <glyph glyph-name="Ntilde" unicode="&#xd1;" horiz-adv-x="1181" 
d="M-977 -217q94 -154 183 -223.5t173 -72.5t162 52t148.5 152.5t134 228.5t121.5 281q199 520 356 1339l197 -78l-17 -82q-12 -76 -26.5 -207t-22.5 -283.5t-6 -310t23.5 -285.5t65.5 -209t120 -81q72 0 128 65.5t99 172t74 243t53 277.5q51 334 66 758l164 -115
q-6 -414 -70 -737q-29 -139 -71 -271.5t-105.5 -236t-148.5 -167t-197 -63.5q-88 0 -146.5 79t-90.5 213t-36 314.5t15 383.5q-41 -154 -95.5 -328t-120 -345t-141 -327t-163 -273.5t-182.5 -185t-198.5 -61.5t-215 95t-230.5 288zM-948 -870q-4 14 5 18t15 -6
q29 -37 58.5 -67.5t60.5 -47.5q29 -16 73 -17t85 21q55 29 103 68t93 84q86 84 166 188q39 51 72 102.5t59 108.5q57 113 111 228q53 115 99 230.5t83 238.5q18 59 32.5 120.5t25.5 122.5q8 61 12 123q2 16 2 31.5v32.5l-2 14v8v2v2q14 -8 17 -10t2 -2t-3 1t2 -1l-4 -2
q-10 -4 -18 -16q-4 -8 -11.5 -8.5t-9.5 3.5q-6 8 2 23q4 8 12.5 14t16.5 11q-2 0 4 -3.5t12 -6.5t8.5 -5t-4.5 2v-2v-2v-4v-8l2 -17v-32.5t-2 -32.5q-2 -35 -6 -66.5t-8 -64.5q-10 -66 -26.5 -129.5t-36.5 -126.5q-39 -127 -88.5 -248t-104.5 -240q-29 -59 -57.5 -117.5
t-59.5 -117.5t-69.5 -112.5t-79.5 -104.5t-86 -99.5t-94 -93.5q-49 -43 -104.5 -82t-121.5 -57q-33 -20 -69 -22q-39 -2 -80 20q-23 14 -37 32.5t-23 39.5q-10 20 -16 40.5t-12 41.5zM481 1747q25 90 72 143q20 23 46.5 41.5t62.5 24.5t79 -2t96 -39q106 -59 180 -72.5
t121 -3.5q53 10 88 45q-55 -80 -123 -127q-29 -20 -64.5 -34.5t-76.5 -16.5t-88 10.5t-98 44.5q-68 43 -114 60.5t-76.5 17.5t-49 -12t-29 -27.5t-15.5 -31t-11 -21.5zM672 0q-6 -4 12 5t50 51t72 128t76 240t63.5 384t35.5 560q6 -246 -1 -436.5t-24.5 -334.5t-41 -245.5
t-48.5 -171.5q-59 -162 -137 -203q-10 8 -20 17q-10 4 -19.5 7t-17.5 -1z" />
    <glyph glyph-name="Ograve" unicode="&#xd2;" horiz-adv-x="923" 
d="M8.5 243.5q-20.5 151.5 11.5 366.5q4 53 12.5 108.5t20.5 117.5q16 92 44 179t69 173q39 86 93 160.5t120 140.5q14 45 55 80q25 18 52.5 27.5t52.5 25.5q10 6 15 -3t1 -15q-18 -29 -38.5 -55.5t-49.5 -43.5q-25 -20 -53.5 -34.5t-51.5 -38.5q-102 -109 -165.5 -239
t-98.5 -271q37 104 86 186t103.5 145.5t112 110.5t110.5 80q127 78 262 108q66 -123 105 -270q16 -63 29.5 -138t18.5 -160t0 -180t-26 -196q-33 -160 -81 -277.5t-104.5 -202.5t-119 -141.5t-121.5 -90.5q-141 -82 -299 -80q-66 70 -108 182q-37 94 -57.5 245.5zM206 328.5
q11 -138.5 42 -230.5q37 -106 96 -176q47 4 98 29q43 23 97.5 65.5t111.5 128.5l39 97.5t48.5 145.5t44 182.5t29.5 207t2 218t-38 218.5q49 -131 64.5 -255.5t11.5 -235.5q20 154 10 274.5t-33 204.5q-25 98 -63 172q-53 -12 -111 -43q-49 -29 -109.5 -79t-119.5 -136
q-20 -41 -48 -106.5t-53.5 -148.5t-44 -182t-20.5 -211t17.5 -231.5t68.5 -244.5q-43 68 -67.5 150.5t-36 170.5t-10.5 178.5t8 172.5q-45 -197 -34 -335.5zM283 1898q33 10 70 19q33 8 75.5 14t96.5 8q12 -37 60 -75.5t107.5 -73.5t117 -62.5l92 -44t32.5 -18.5t-61 16
q-92 27 -195.5 64t-191.5 72q-102 39 -203 81zM459 1176l4 4zM633 109l2 4l8 16q-14 -20 -10 -20z" />
    <glyph glyph-name="Oacute" unicode="&#xd3;" horiz-adv-x="923" 
d="M8.5 243.5q-20.5 151.5 11.5 366.5q4 53 12.5 108.5t20.5 117.5q16 92 44 179t69 173q39 86 93 160.5t120 140.5q14 45 55 80q25 18 52.5 27.5t52.5 25.5q10 6 15 -3t1 -15q-18 -29 -38.5 -55.5t-49.5 -43.5q-25 -20 -53.5 -34.5t-51.5 -38.5q-102 -109 -165.5 -239
t-98.5 -271q37 104 86 186t103.5 145.5t112 110.5t110.5 80q127 78 262 108q66 -123 105 -270q16 -63 29.5 -138t18.5 -160t0 -180t-26 -196q-33 -160 -81 -277.5t-104.5 -202.5t-119 -141.5t-121.5 -90.5q-141 -82 -299 -80q-66 70 -108 182q-37 94 -57.5 245.5zM206 328.5
q11 -138.5 42 -230.5q37 -106 96 -176q47 4 98 29q43 23 97.5 65.5t111.5 128.5l39 97.5t48.5 145.5t44 182.5t29.5 207t2 218t-38 218.5q49 -131 64.5 -255.5t11.5 -235.5q20 154 10 274.5t-33 204.5q-25 98 -63 172q-53 -12 -111 -43q-49 -29 -109.5 -79t-119.5 -136
q-20 -41 -48 -106.5t-53.5 -148.5t-44 -182t-20.5 -211t17.5 -231.5t68.5 -244.5q-43 68 -67.5 150.5t-36 170.5t-10.5 178.5t8 172.5q-45 -197 -34 -335.5zM224.5 1663q-1.5 2 32.5 18.5t92 45t117.5 63.5t106.5 74t62 75q53 -2 97 -8t77 -14q37 -8 69 -19
q-102 -43 -204 -81q-88 -35 -191.5 -73t-195.5 -65q-61 -18 -62.5 -16zM459 1176l4 4zM633 109l2 4l8 16q-14 -20 -10 -20z" />
    <glyph glyph-name="Ocircumflex" unicode="&#xd4;" horiz-adv-x="923" 
d="M8.5 243.5q-20.5 151.5 11.5 366.5q4 53 12.5 108.5t20.5 117.5q16 92 44 179t69 173q39 86 93 160.5t120 140.5q14 45 55 80q25 18 52.5 27.5t52.5 25.5q10 6 15 -3t1 -15q-18 -29 -38.5 -55.5t-49.5 -43.5q-25 -20 -53.5 -34.5t-51.5 -38.5q-102 -109 -165.5 -239
t-98.5 -271q37 104 86 186t103.5 145.5t112 110.5t110.5 80q127 78 262 108q66 -123 105 -270q16 -63 29.5 -138t18.5 -160t0 -180t-26 -196q-33 -160 -81 -277.5t-104.5 -202.5t-119 -141.5t-121.5 -90.5q-141 -82 -299 -80q-66 70 -108 182q-37 94 -57.5 245.5zM206 328.5
q11 -138.5 42 -230.5q37 -106 96 -176q47 4 98 29q43 23 97.5 65.5t111.5 128.5l39 97.5t48.5 145.5t44 182.5t29.5 207t2 218t-38 218.5q49 -131 64.5 -255.5t11.5 -235.5q20 154 10 274.5t-33 204.5q-25 98 -63 172q-53 -12 -111 -43q-49 -29 -109.5 -79t-119.5 -136
q-20 -41 -48 -106.5t-53.5 -148.5t-44 -182t-20.5 -211t17.5 -231.5t68.5 -244.5q-43 68 -67.5 150.5t-36 170.5t-10.5 178.5t8 172.5q-45 -197 -34 -335.5zM459 1176l4 4zM461 1673q10 -8 40.5 11.5t70.5 53.5t83 73.5t79 74.5t59.5 57.5t23.5 20.5q0 -4 13.5 -29.5
t36 -59.5t53 -71t65.5 -63.5t71.5 -36.5t73.5 10q0 -6 -14 -23.5t-40 -34t-61.5 -23.5t-79.5 7.5t-95.5 56.5t-106.5 128q-23 -29 -58.5 -60.5t-70.5 -58.5q-41 -31 -86 -61q-18 8 -31 16q-10 6 -20 10t-6 2zM633 109l2 4l8 16q-14 -20 -10 -20z" />
    <glyph glyph-name="Otilde" unicode="&#xd5;" horiz-adv-x="923" 
d="M8.5 243.5q-20.5 151.5 11.5 366.5q4 53 12.5 108.5t20.5 117.5q16 92 44 179t69 173q39 86 93 160.5t120 140.5q14 45 55 80q25 18 52.5 27.5t52.5 25.5q10 6 15 -3t1 -15q-18 -29 -38.5 -55.5t-49.5 -43.5q-25 -20 -53.5 -34.5t-51.5 -38.5q-102 -109 -165.5 -239
t-98.5 -271q37 104 86 186t103.5 145.5t112 110.5t110.5 80q127 78 262 108q66 -123 105 -270q16 -63 29.5 -138t18.5 -160t0 -180t-26 -196q-33 -160 -81 -277.5t-104.5 -202.5t-119 -141.5t-121.5 -90.5q-141 -82 -299 -80q-66 70 -108 182q-37 94 -57.5 245.5zM206 328.5
q11 -138.5 42 -230.5q37 -106 96 -176q47 4 98 29q43 23 97.5 65.5t111.5 128.5l39 97.5t48.5 145.5t44 182.5t29.5 207t2 218t-38 218.5q49 -131 64.5 -255.5t11.5 -235.5q20 154 10 274.5t-33 204.5q-25 98 -63 172q-53 -12 -111 -43q-49 -29 -109.5 -79t-119.5 -136
q-20 -41 -48 -106.5t-53.5 -148.5t-44 -182t-20.5 -211t17.5 -231.5t68.5 -244.5q-43 68 -67.5 150.5t-36 170.5t-10.5 178.5t8 172.5q-45 -197 -34 -335.5zM432 1747q25 90 72 143q20 23 46.5 41.5t62.5 24.5t79 -2t96 -39q106 -59 180 -72.5t121 -3.5q53 10 88 45
q-55 -80 -123 -127q-29 -20 -64.5 -34.5t-76.5 -16.5t-88 10.5t-98 44.5q-68 43 -114 60.5t-76.5 17.5t-49 -12t-29 -27.5t-15.5 -31t-11 -21.5zM459 1176l4 4zM633 109l2 4l8 16q-14 -20 -10 -20z" />
    <glyph glyph-name="Odieresis" unicode="&#xd6;" horiz-adv-x="923" 
d="M8.5 243.5q-20.5 151.5 11.5 366.5q4 53 12.5 108.5t20.5 117.5q16 92 44 179t69 173q39 86 93 160.5t120 140.5q14 45 55 80q25 18 52.5 27.5t52.5 25.5q10 6 15 -3t1 -15q-18 -29 -38.5 -55.5t-49.5 -43.5q-25 -20 -53.5 -34.5t-51.5 -38.5q-102 -109 -165.5 -239
t-98.5 -271q37 104 86 186t103.5 145.5t112 110.5t110.5 80q127 78 262 108q66 -123 105 -270q16 -63 29.5 -138t18.5 -160t0 -180t-26 -196q-33 -160 -81 -277.5t-104.5 -202.5t-119 -141.5t-121.5 -90.5q-141 -82 -299 -80q-66 70 -108 182q-37 94 -57.5 245.5zM206 328.5
q11 -138.5 42 -230.5q37 -106 96 -176q47 4 98 29q43 23 97.5 65.5t111.5 128.5l39 97.5t48.5 145.5t44 182.5t29.5 207t2 218t-38 218.5q49 -131 64.5 -255.5t11.5 -235.5q20 154 10 274.5t-33 204.5q-25 98 -63 172q-53 -12 -111 -43q-49 -29 -109.5 -79t-119.5 -136
q-20 -41 -48 -106.5t-53.5 -148.5t-44 -182t-20.5 -211t17.5 -231.5t68.5 -244.5q-43 68 -67.5 150.5t-36 170.5t-10.5 178.5t8 172.5q-45 -197 -34 -335.5zM459 1176l4 4zM520 1843q29 12 62.5 49t64.5 78q37 48 74 103q8 -53 20 -99q10 -41 27.5 -78.5t42.5 -56.5
q-35 -10 -71 -37.5t-64 -58.5q-35 -37 -68 -80q-6 33 -16 66q-10 29 -26.5 59.5t-45.5 54.5zM633 109l2 4l8 16q-14 -20 -10 -20zM848 1835q29 12 62.5 51t64.5 80q36 50 73 107q8 -55 21 -105q10 -41 27.5 -82t41.5 -59q-35 -10 -70.5 -36t-64.5 -54q-35 -35 -67 -74
q-6 31 -17 61q-10 27 -26.5 56.5t-44.5 54.5z" />
    </font>
</defs>
</svg>
