<?xml version="1.0" standalone="no"?>
<!DOCTYPE svg PUBLIC "-//W3C//DTD SVG 1.1//EN" "http://www.w3.org/Graphics/SVG/1.1/DTD/svg11.dtd" >
<svg>
<metadata>
Created by FontForge 20120731 at Fri Oct 18 14:36:38 2019
 By www-data
Typeface (c) Melissa Baxter, 2005. All Rights Reserved
</metadata>
<defs>
<font id="FBButtercream" horiz-adv-x="10" >
  <font-face 
    font-family="FB Buttercream"
    font-weight="400"
    font-stretch="normal"
    units-per-em="2048"
    panose-1="2 0 0 0 0 0 0 0 0 0"
    ascent="1638"
    descent="-410"
    x-height="1520"
    cap-height="1787"
    bbox="-51 -470.25 2073 1850.44"
    underline-thickness="150"
    underline-position="-142"
    unicode-range="U+0020-F005"
  />
<missing-glyph horiz-adv-x="1034" 
d="M10 0v1280h1024v-1280h-1024zM42 32h960v1216h-960v-1216z" />
    <glyph glyph-name=".notdef" horiz-adv-x="1034" 
d="M10 0v1280h1024v-1280h-1024zM42 32h960v1216h-960v-1216z" />
    <glyph glyph-name=".null" horiz-adv-x="20" 
 />
    <glyph glyph-name="nonmarkingreturn" horiz-adv-x="20" 
 />
    <glyph glyph-name="space" unicode=" " horiz-adv-x="818" 
 />
    <glyph glyph-name="space" unicode="&#xa0;" horiz-adv-x="818" 
 />
    <glyph glyph-name="exclam" unicode="!" horiz-adv-x="357" 
d="M170 1565q-8 -6 -15 -5l-10 -5h-15h-20q-42 -19 -80 -20l-20 -20l5 -35q53 -19 60 -75l5 -30l5 -280l5 -15l5 -250q6 -5 5 -10v-100q5 -29 0 -50l5 -15v-75l5 -10q1 -33 0 -55l5 -25l-5 -100v-15q-5 -24 -5 -40q-5 -8 -10 -10q-16 -65 -45 -105l35 -20q18 8 35 10
q97 40 180 40l10 25q-17 33 -25 55v15v25v15l-5 20v15v20l-5 80v20v20v15q-8 20 -5 40v20v85v15v60v35v30l-5 35l-5 110v35v25v35v25l-5 30v25v20v85v55v20v85v15v60l15 20q-3 38 -40 30q-28 -9 -60 -5zM85 -40q17 -98 110 -110q162 42 140 205q-60 107 -170 90
q-107 -72 -80 -185z" />
    <glyph glyph-name="quotedbl" unicode="&#x22;" horiz-adv-x="223" 
d="M126 1558l8 -12l-4 -12v-24l4 -12v-52l4 -12q-7 -29 -4 -52q31 -17 60 -12l12 4v12v20l4 12v12l4 12v16l4 32v16q5 41 4 68q-54 8 -88 4zM10 1562l4 -16q-2 -21 4 -40q-1 -19 0 -32q-4 -61 4 -100q33 -6 56 -4l20 12v20v16l4 20l8 132l-28 4h-44z" />
    <glyph glyph-name="numbersign" unicode="#" horiz-adv-x="830" 
d="M575 1395l-5 -40l-5 -45q1 -51 -5 -85v-250q-20 7 -40 5l-20 5q-37 -2 -60 0q-34 7 -60 5l-60 20q-39 2 -70 20v15v20v20v20v20v85v15v60q-35 32 -75 30q-15 -25 -15 -45l5 -20l5 -100q6 -66 5 -110h-15l-10 10l-115 35l-20 -15q6 -66 -5 -115l10 -5h45l10 -5q28 4 55 -5
q29 1 50 -5v-70l5 -30v-15l5 -15q-6 -40 0 -70v-20l10 -70v-15l-10 -5q-51 -12 -90 -10q-39 -7 -70 0l-15 -5q-2 -53 5 -85l15 -5h25h15h20h15h100q-1 -30 5 -55v-15q15 -49 15 -85q13 -40 10 -75q46 -23 80 10v20v15q-32 99 -25 180h20q30 8 55 5h15q7 6 15 5h15q26 1 40 0
q59 11 100 5v-105l-5 -15v-180l20 -20q30 2 55 10l5 25v55v50v15v20v15v35q0 36 5 60l5 50l85 5l75 5q19 48 15 90l-15 5h-40h-40q-46 -3 -80 0v70q-3 90 5 150q175 -47 185 45l-40 25l-40 5q-63 7 -105 25v20v25l5 65q-1 29 5 50v20v55q9 40 5 70q0 32 5 55q2 52 -5 85h-70
h-10h10h-10zM280 915h20l20 -5q8 3 15 0l15 -5q46 9 85 -5q25 -1 40 -5l80 -15l5 -15v-225h-20h-70h-15h-20h-40q-5 -6 -10 -5h-20q-45 -8 -85 -5v15v20v15q-14 50 -10 90v15v15v15l-5 10v15v15v65z" />
    <glyph glyph-name="dollar" unicode="$" horiz-adv-x="955" 
d="M280 1570q1 -25 5 -40q36 -58 30 -115q-253 -66 -275 -285q56 -214 280 -195l5 -55v-30q3 -14 0 -25l5 -15v-15q12 -76 10 -125l5 -25q1 -33 0 -55l10 -50l-5 -20l5 -10l5 -75l5 -25v-15l10 -40q8 -39 10 -60q-123 8 -190 95q-66 80 -15 165l-5 35l-25 -5
q-15 -21 -35 -30q-5 -6 -10 -5q-52 -49 -95 -70v-30q24 -5 40 -5q116 -197 330 -205q27 -113 -50 -180l5 -35l20 -5l25 5h20q51 12 90 10q58 -3 100 10l5 20q-77 67 -65 180q117 29 195 85q343 249 45 535q-153 121 -335 110v20q-8 49 -5 85l-5 10v20q-10 49 -5 85
q-12 89 0 150q9 10 20 10l45 -25q147 -61 235 -170q0 -29 5 -50q19 -8 35 -5l5 15l5 15v100l5 65q15 70 5 125q-35 -6 -50 -35h-50q-25 8 -45 5l-10 10q-7 -3 -15 0l-10 5h-15l-10 5h-15q-75 19 -125 15l5 40q27 55 25 105h-15q-19 6 -40 5h-15h-100zM310 1335v-255l5 -10
v-95q-68 0 -120 20q-69 96 -20 195q26 113 120 165q11 -8 15 -20zM715 650q65 -297 -200 -340l-5 100l-15 70v30q-5 13 -5 25v25l-5 25l-5 70q-11 29 -10 55q-6 8 -5 15v15l-5 15v25v15l-5 10l-10 125q267 10 270 -280z" />
    <glyph glyph-name="percent" unicode="%" horiz-adv-x="894" 
d="M740 1465q-487 71 -725 -255l-5 -35v-20q4 -56 0 -90q21 -40 50 -65q92 -29 170 -15q162 113 85 295l20 5q37 11 65 10l30 5l15 5h20l15 5h20q13 5 25 5q28 13 55 15l15 5h25l10 10h20q46 20 80 25l-15 -35l-15 -35l-15 -35l-20 -30l-5 -15l-5 -10q-28 -36 -40 -65
l-45 -80l-10 -35l-70 -115q-15 -35 -30 -55q-1 -13 -5 -20l-5 -15l-10 -5q-11 -41 -30 -70l-5 -20q-24 -28 -35 -60q-17 -20 -25 -40l-50 -85l-5 -25l-10 -25l-10 -25l-10 -20l-10 -30l-15 -25v-20q-18 -30 -20 -55l-10 -20q-17 -78 -40 -130q-28 -60 -75 -90l-20 -30
l20 -30q39 2 65 10h70l15 5h25h15h20h15h100l45 25q-1 25 -10 40q-46 5 -75 30l10 30l5 25l20 65l5 20l10 55l5 20l15 35v15q19 38 25 75l45 110l15 35l40 110l10 35l15 30l10 30l15 25l15 25q16 49 40 80l5 25l15 30l15 35q9 30 20 50l5 20l10 25l10 20l10 25l5 25l10 15
l5 15l20 55l60 145q12 42 -30 45q-50 -16 -95 -15zM180 1070q-60 -11 -80 60q-1 80 50 125q130 -45 30 -185zM535 205l15 -65q202 -180 325 45q19 186 -160 225q-145 -65 -180 -205zM730 135q-115 48 -5 195q112 -102 5 -195z" />
    <glyph glyph-name="ampersand" unicode="&#x26;" horiz-adv-x="963" 
d="M657 1705q-107 -1 -175 -20q-27 -22 -50 -30l-35 -30q-30 -44 -60 -70q-13 -40 -30 -65q-58 -284 45 -510v-25q-262 -261 -335 -580q-7 -253 205 -335q278 -82 485 145l10 -5q21 -33 50 -55q125 -168 135 -80l-25 25l-10 10l-5 15l-10 5l-20 35l-40 70q-19 19 -25 35
q17 16 25 30l60 55q159 278 -70 355q-55 -2 -75 -45q24 -113 115 -65l10 -10l15 -35q-7 -153 -125 -225l-10 15l-15 15l-5 15l-10 10l-5 20q-9 5 -10 10l-5 15q-6 5 -5 10q-38 62 -55 105q-64 93 -75 190q-22 45 -25 85l5 10l10 15l45 70l15 5l10 15q5 8 10 10l5 10l10 15
q51 49 75 85l15 15q7 21 15 35l20 30l10 15l20 25q17 41 50 70q11 61 40 105v15v20q1 25 5 40q-3 7 0 15v20v15v55q-9 25 -5 45l-5 10q-6 7 -5 15q-24 47 -35 80l-10 5l-70 55h-20h-20h-20q-7 -6 -15 -5zM717 1485q-20 -243 -220 -375q-22 -36 -50 -55l-20 30v20l-10 50v25
l-5 20v25l-5 20v55v20v85v15v60q58 119 155 180q169 23 155 -175zM437 675q15 -22 20 -40q15 -38 20 -65l10 -15q25 -41 35 -70l20 -40l10 -15v-15q9 -5 10 -10l10 -10l20 -35l5 -15l10 -10l10 -15l5 -10l10 -10l35 -45q-217 -230 -270 -90q-134 263 30 525q8 -5 10 -15z
" />
    <glyph glyph-name="quotesingle" unicode="'" horiz-adv-x="105" 
d="M10 1590q3 -6 0 -12l4 -12q8 -53 0 -96q4 -38 0 -64q43 -31 68 12v16l4 16v16l4 16v12v12q15 62 12 104h-68z" />
    <glyph glyph-name="parenleft" unicode="(" horiz-adv-x="363" 
d="M354 -40q-256 455 -195 925q-36 519 200 905v55q-20 7 -40 5q-256 -351 -240 -750l-5 -10l-5 -10q-2 -54 -10 -90v-100q-49 -575 250 -985q26 -14 50 -15q4 38 -5 70z" />
    <glyph glyph-name="parenright" unicode=")" horiz-adv-x="363" 
d="M19 1780q256 -455 195 -925q36 -519 -200 -905v-55q20 -7 40 -5q256 351 240 750l5 10l5 10q2 54 10 90v100q49 575 -250 985q-26 14 -50 15q-4 -38 5 -70z" />
    <glyph glyph-name="asterisk" unicode="*" horiz-adv-x="645" 
d="M280 1540v-115q3 -66 -5 -110h-15l-40 30l-20 15q-22 18 -35 35q-33 8 -50 30q-37 5 -60 5q-23 -47 -30 -85q33 -21 50 -45q55 -29 80 -75q33 -13 45 -40l-10 -5q-41 -42 -80 -60l-10 -15l-30 -20l-60 -40l15 -45q31 -20 65 -20l10 10l15 10l15 10l15 10l15 15l30 20
q30 45 70 65v-235l25 -15q41 13 65 30v15v15v35v15v15q-2 47 5 80q38 -18 60 -40q72 -26 120 -75q47 1 80 25v30l-25 30q-130 72 -195 180l15 5l60 40q5 9 10 10q25 15 45 20l10 10q66 31 105 65l5 30q-6 5 -5 10l-10 10q-15 32 -35 50l-20 -10q-7 -8 -15 -10
q-32 -30 -65 -40q-5 -9 -10 -10q-7 -8 -15 -10l-5 -10l-10 -5q-5 -6 -10 -5q-17 -17 -35 -20l-25 -25v20v15v15v15q-7 19 -5 40v15q-12 50 -10 90q-39 19 -75 15z" />
    <glyph glyph-name="plus" unicode="+" horiz-adv-x="590" 
d="M225 980v-190l-15 5l-15 -5q-19 6 -40 5h-40q-58 2 -100 -5l-5 -110h20h20h85h40h35v-140q-1 -47 5 -80q46 -13 85 -5h55l15 5v25l5 20v15v155q29 8 50 5h40q76 -3 125 5v40l-5 80h-50h-20h-20h-15h-20h-90v25v15v20v15v100q-75 25 -140 15z" />
    <glyph glyph-name="comma" unicode="," horiz-adv-x="217" 
d="M61 106q-51 -123 76 -136q-46 -39 -16 -56q96 28 88 128q-11 96 -104 88q-23 -18 -44 -24z" />
    <glyph glyph-name="hyphen" unicode="-" horiz-adv-x="606" 
d="M12 705q50 -8 85 -5h20h15h100h85h20h30l55 5h20h15h15l35 -5h15q46 -2 80 5q4 76 -5 125h-25h-30l-20 -5h-15h-15l-40 5h-55q-28 -6 -50 -5h-30h-70h-25q-46 6 -80 0l-35 5h-90q-7 -77 -5 -125z" />
    <glyph glyph-name="hyphen" unicode="&#xad;" horiz-adv-x="606" 
d="M12 705q50 -8 85 -5h20h15h100h85h20h30l55 5h20h15h15l35 -5h15q46 -2 80 5q4 76 -5 125h-25h-30l-20 -5h-15h-15l-40 5h-55q-28 -6 -50 -5h-30h-70h-25q-46 6 -80 0l-35 5h-90q-7 -77 -5 -125z" />
    <glyph glyph-name="period" unicode="." horiz-adv-x="219" 
d="M16 -2q43 -103 144 -56q59 89 -16 152h-12h-48q-74 -25 -68 -96z" />
    <glyph glyph-name="slash" unicode="/" horiz-adv-x="579" 
d="M479 1515l-5 -15l-5 -35q-25 -57 -35 -95v-15q-18 -45 -20 -80l-5 -20q-13 -27 -15 -60l-5 -30l-10 -35l-10 -45l-5 -20l-5 -20l-5 -15l-30 -125l-25 -80l-15 -35q-8 -31 -20 -50q-6 -38 -20 -65l-5 -15q-14 -34 -20 -60q-20 -39 -30 -70l-5 -20l-5 -20l-5 -15
q-7 -26 -15 -40l-5 -15q-22 -69 -50 -110v-15l-10 -15l-5 -15l-15 -35v-15l-10 -10v-15l-10 -5q-13 -40 -30 -65q-14 -54 -5 -100q40 -24 70 0l10 25l15 30l10 20l15 20v15l30 55l10 25l5 15l10 20l10 10q13 53 40 90q7 36 25 60q1 13 5 20l5 20q16 32 20 55l5 15l5 20
l10 15v15q21 49 30 85l10 30l5 15l25 65l10 35l10 35q5 24 5 40l5 15l5 10v15l30 80l5 25l5 10l15 60l5 25l5 20q12 29 15 55l5 25l10 15q0 29 5 50l5 35l20 85q23 60 30 105q-16 49 -60 45q-25 -14 -40 -30z" />
    <glyph glyph-name="zero" unicode="0" horiz-adv-x="1151" 
d="M564 1510l-40 -5q-38 -27 -75 -30q-31 -28 -65 -35q-5 -9 -10 -10q-6 -8 -15 -10l-5 -10l-5 -10h-15q-32 -37 -60 -55q-18 -39 -40 -60l-10 -25l-10 -15l-10 -10l-5 -20l-10 -5q-9 -32 -25 -55q-17 -20 -25 -40q-25 -81 -60 -130l-5 -20l-15 -65l-10 -15l-5 -50l-5 -15
q-10 -41 -10 -70l-15 -65q-4 -190 75 -335q74 -266 325 -315q366 -126 540 230l30 40q167 451 60 860q-25 29 -35 60l-10 10l-35 45l-5 15q-27 24 -35 55q-17 12 -25 30q-9 5 -10 10l-15 5q-23 18 -35 35l-40 30q-48 17 -75 45l-40 5h-15q-51 10 -90 5q-7 -6 -15 -5z
M604 1450q282 -190 245 -510q33 -457 -180 -800q-44 -38 -80 -55q-62 -23 -120 -15l-35 15q-60 18 -95 50h-15q-225 248 -190 585q50 442 340 715q42 2 75 15h55z" />
    <glyph glyph-name="one" unicode="1" horiz-adv-x="480" 
d="M370 1550l-15 -10l-20 -10l-60 -20q-17 -10 -35 -15l-5 -10l-35 -15l-5 -10l-15 -5l-10 -5l-35 -5q-22 -15 -45 -20q2 -45 125 10l5 -20l-5 -15v-20l-15 -125l5 -25l-5 -30v-75l-5 -35l5 -30v-15q3 -54 -5 -90q2 -102 -5 -135v-140q2 -41 -5 -70q1 -51 -5 -85v-45l-5 -45
q1 -29 -5 -50q3 -12 0 -20l5 -20q-4 -9 -5 -35l-5 -50v-30l-5 -15q4 -41 -5 -70v-20q-8 -30 -10 -55q-56 -46 -115 -55q-19 -30 -20 -60q18 -11 40 -15l15 5l60 20h20l25 5h15l20 5l20 5l35 5l30 5h25l10 5h20q77 21 125 25l10 15q-1 26 -5 40q-61 5 -95 45v35v25v50l-5 15
v20v35l-5 90v35v100v45v50v20v20v15v20v90v35l5 30v35l5 30v35v35q8 28 5 50v15v60v65l5 15v40v100v15l5 15v15v20v15q1 25 5 40v15q3 54 -5 90q-13 -5 -25 -5z" />
    <glyph glyph-name="two" unicode="2" horiz-adv-x="1025" 
d="M760 1575q-449 -19 -540 -325q-63 -279 185 -220q39 29 50 70l-20 25q-30 -13 -60 -5q-66 138 35 230l5 25q191 165 410 130q95 -50 130 -140q16 -108 -5 -185l-20 -25q-29 -108 -85 -175q-30 -103 -100 -170q-57 -115 -155 -175q-36 -58 -85 -85q-51 -66 -110 -100
l-5 -15l-15 -5l-10 -10q-5 -8 -10 -10l-15 -5q-64 -63 -125 -90l-5 -10l-15 -5q-31 -22 -55 -30q-34 -27 -70 -35q-33 -41 -60 -65l5 -35l10 -5l30 -10l35 -10q8 -5 10 -10h15l75 -20q49 -23 80 -45q48 -14 80 -35l25 -5l20 -5l25 -15l25 -5l30 -10l40 -10l35 -10l55 -30h15
l15 -10l15 -5q27 -9 40 -20q45 -6 75 -15l65 -30q22 19 35 35v15l25 55l5 15l5 10l40 90l-15 30q-57 -16 -95 -45l-10 5q-74 -16 -135 5l-35 -5l-15 5h-15l-95 15l-10 5l-40 10l-10 5l-10 5l-80 25l-5 15h-25q7 21 20 35l5 15l10 10q5 6 10 5l10 10l10 10q23 38 55 55
q1 13 5 20q304 235 415 555l10 5l5 20l40 70v20l10 10l5 20l5 10v15l5 10l5 15l30 75q2 37 0 60l10 15q1 29 10 50q-6 60 5 105q-17 26 -20 55q-18 25 -20 50h-15q-85 104 -205 130h-5h5h-5z" />
    <glyph glyph-name="three" unicode="3" horiz-adv-x="980" 
d="M785 1610h-15q-29 -11 -55 -15h-15l-100 -25l-10 5l-85 -20h-25l-25 -10l-25 -5l-25 -5l-30 -10h-25q-49 -16 -85 -20q-98 -37 -195 -30l-60 -25l5 -65l5 -40l5 -35q0 -51 15 -90l25 -10q5 9 10 10q29 107 90 175l15 10l15 5l20 5l30 5q13 9 25 10l15 10l15 5l35 10l15 5
l25 5l15 5l15 5h15l15 5h35q32 13 55 15l-5 -20l-5 -15q-17 -20 -25 -40l-25 -60l-5 -10q-27 -54 -50 -85q3 -7 0 -15l-5 -20q-10 -29 -25 -50l-5 -20l-5 -15l-5 -15q-10 -26 -20 -40l-20 -90q359 77 420 -360q-8 -324 -240 -500q-100 -86 -190 -15q-176 58 -140 340v15
l15 40q16 34 20 60q-85 54 -185 -25q7 -44 30 -70q25 -322 300 -440h15l35 -5h90q251 4 410 165l5 15l5 15l10 10l5 20l15 35l15 35q2 46 15 80l5 35v70q-8 30 -5 55v20v15v20v15v15q-7 19 -5 40q-10 30 -10 55l-5 20q-33 67 -40 120q-49 45 -70 90l-15 15l-15 5l-15 15
l-30 20q-48 25 -75 50h-15l-40 10q-38 9 -60 10l10 30l15 25q9 32 20 55q27 46 40 80q13 25 25 40l5 15q4 28 15 50l15 15l5 15l10 15l5 10l70 115q10 26 5 45h-10z" />
    <glyph glyph-name="four" unicode="4" horiz-adv-x="1026" 
d="M630 1565l-40 -15l-20 -15l-10 -10q-30 -55 -65 -85q-12 -16 -30 -25l-5 -10q-5 -9 -10 -10l-5 -10q-5 -6 -10 -5q-32 -48 -65 -75l-15 -15l-10 -20q-26 -33 -50 -50l-15 -20l-5 -10l-10 -5q-29 -44 -60 -70l-15 -10l-45 -50q-89 -73 -135 -125q3 -24 15 -40l15 -10
l15 -5l15 -10l15 -5l15 -10l40 -15l75 -45l25 -5l20 -10h20l15 -10q13 -1 20 -5h20l15 -10q29 -12 50 -15l35 -15h15q57 -8 90 -20v-60v-30q3 -16 0 -30l10 -10l-5 -15q6 -7 5 -15v-15l-5 -40q9 -59 0 -105q10 -9 10 -20v-45l5 -30l-5 -35q6 -8 5 -15l-5 -15q13 -79 10 -130
q-4 -72 -65 -105l10 -40l20 -5q41 21 80 20q75 49 150 50q31 16 60 15q52 2 40 55q-66 -6 -115 15l5 15l-5 15q4 67 -5 110l5 20l-5 25q2 13 0 20v20l5 20q-9 29 -5 55l5 15l-5 30l5 10l-5 20l5 15v15q-7 29 -5 55l-10 80q188 -27 235 -115l25 5q20 58 15 100l20 35l-10 10
q11 51 10 85l-20 10q-132 -76 -250 -5q-28 2 -50 10v25l-5 15v15v15l-5 10v40l-5 35q-11 39 -5 75v25l-5 25q-1 66 15 110l-10 15l5 30l-5 20v20l-5 85q2 40 -5 70q6 94 -5 150q-7 10 -20 15h5h-5h-15h5h-10h5h-5zM530 1225l5 -20v-30q-2 -39 0 -65l5 -25l-5 -30l5 -15
l-5 -15q1 -29 -5 -50l5 -15v-25l-5 -30v-30l-5 -15l5 -15q-5 -38 -5 -60l-20 10h-15q-13 8 -25 10l-15 5l-10 10l-15 5l-15 5l-90 45h-20l-15 5l-15 10l-15 5q-8 5 -10 10q-62 8 -105 30q17 39 40 65q37 32 55 55l15 15l15 20l10 10l30 20l10 20l15 10l15 15q23 29 45 40
l15 15l30 35l5 15l15 10q28 47 60 75q15 -50 15 -130z" />
    <glyph glyph-name="five" unicode="5" horiz-adv-x="855" 
d="M725 1570h-25l-25 -5h-15h-50l-100 -10h-25h-15h-35h-15q-56 -9 -95 -5l-30 -5h-20q-13 -5 -25 -5q-8 -6 -15 -5h-40l-10 -5l-15 -5l-35 -10h-15h-20q-30 -11 -55 -10l-5 -10l-20 -25l-5 -25v-70l-5 -30l5 -365l25 -5q10 13 20 20q246 74 370 -105q131 -192 95 -410
q1 -159 -90 -265q-115 -154 -275 -40q-96 97 -80 220l10 15q136 -28 140 105q-51 42 -125 0l-45 -40q-17 -48 -35 -75q18 -182 135 -300q237 -164 460 -40l10 5h15q16 11 30 15q159 159 180 360q-6 471 -415 640l-65 5l-15 5h-15h-20h-90l-5 100v30v85q1 25 5 40l-5 125
l15 5q29 8 50 5l15 5h15h20h15h100q32 1 55 5q25 -1 40 -5l10 5q38 -7 65 -5l10 -5q54 -7 90 -20q54 -50 70 -110l20 -5l20 15v40l-5 25q-3 5 0 10l-5 10q-24 78 -30 125q-26 7 -45 5q-16 -5 -30 -5z" />
    <glyph glyph-name="six" unicode="6" horiz-adv-x="1068" 
d="M395 1708q-81 -49 -137 -72l-11 -22l-6 -11q-20 -26 -27 -44l-11 -17l-11 -5l-44 -77q-18 -28 -33 -44v-17q-16 -26 -17 -50l-11 -16q-18 -67 -38 -110q3 -55 -17 -94l6 -17l-11 -16q1 -33 -6 -61q6 -63 -11 -110q19 -86 6 -155q15 -41 16 -72l6 -16l-6 -17
q23 -60 22 -110l11 -16l6 -28l5 -39q14 -26 17 -44q14 -22 11 -44q31 -50 38 -99q10 -4 11 -11l11 -11l6 -11l5 -17l11 -5q31 -48 66 -78l88 -77l17 -5l99 -50h22h22q28 7 44 6h16q54 14 94 16h22q55 18 93 22q235 181 286 458q-26 237 -181 386l-39 17l-11 11
q-41 17 -60 33h-17h-16l-17 -6l-11 6q-49 -16 -93 -11q-6 -10 -11 -11l-17 -6l-16 -5q-10 -5 -11 -11h-17q-33 -28 -66 -33q-10 -13 -22 -17l-5 -17l-50 -22l-16 -11l-11 -11l-17 -11l-33 -22q-43 -54 -88 -77l-5 28v16l-11 17q-9 33 -11 60l-11 6l5 11v16q-23 50 -27 89v27
q3 33 11 55l-6 17l11 39q-9 40 6 66l-6 33l6 11q7 74 38 121q28 257 215 309q66 42 115 -11q53 -53 22 -116q13 -31 11 -55q52 -22 99 -5q85 129 -88 231l-22 11q-21 10 -33 22q-58 3 -99 17q-31 -13 -55 -11zM795 590q77 -316 -170 -470l-10 5q-25 3 -45 15
q-268 121 -335 435q121 145 295 160q176 -8 265 -145z" />
    <glyph glyph-name="seven" unicode="7" horiz-adv-x="888" 
d="M725 1545q-41 2 -70 -5h-15h-30l-20 -5h-40q-78 -15 -125 -15l-20 -10q-48 -22 -90 -25q-28 -17 -55 -20l-10 -10l-100 -40q-20 -17 -40 -20l-10 -10q-21 -9 -35 -25q-35 -11 -55 -30q2 -37 0 -60l5 -30q13 -24 15 -40l20 -85l30 -5q35 110 105 180q27 14 45 30
q29 3 50 10q28 11 50 10q22 15 45 15l80 30h20h20q36 13 70 10l10 5q29 5 50 5l10 5h50h45q-16 -39 -40 -65l-15 -20l-10 -25q-8 -13 -10 -25l-25 -30q-11 -38 -35 -60q-16 -50 -45 -80q-1 -13 -5 -20l-10 -20l-5 -20l-10 -20l-5 -20l-10 -15l-20 -30q-13 -61 -40 -100
q2 -30 -15 -50l5 -15q-13 -27 -15 -60l-10 -15l-10 -60q-12 -41 -15 -70q-15 -50 -15 -90q-11 -29 -10 -55v-20q-7 -29 -5 -50l-5 -10v-15l-10 -60v-25v-15q-10 -80 -5 -135q-6 -57 -40 -90l10 -30l25 -5q30 8 55 5l15 5h15q89 18 150 15q19 18 20 35q-77 58 -110 135v25
l-5 15v20v15q3 24 0 40q11 30 5 60l5 15l5 15q-2 35 5 60q3 36 10 60l5 15q-3 13 0 25l10 10q0 39 15 75v25l10 20v15l5 35l5 20l20 80l10 20v20l25 65l5 25l5 20l35 95v15q16 26 15 50q19 27 20 60l10 10l5 15l45 80l10 5q5 9 10 10q51 64 100 95q23 81 -25 135l-50 10
q-32 -17 -65 -15z" />
    <glyph glyph-name="eight" unicode="8" horiz-adv-x="1327" 
d="M197 1400l5 -11q-13 -36 -10 -69q-43 -295 183 -415q-35 -43 -71 -62q-294 -468 66 -790q15 -18 30 -29q8 4 15 0l11 -11l111 -56q287 -39 518 73l11 17q63 47 96 102q157 154 158 364q-76 332 -336 432q26 34 51 51l10 17l66 108l5 69q-2 60 5 96v52q-22 42 -25 85
l-15 23l-5 17l-10 17q-27 27 -36 56l-10 12l-10 11q-37 41 -56 74l-15 6l-16 11l-15 6l-10 6l-76 39h-21l-15 6l-20 11l-10 -5l-16 5l-10 6l-35 6l-10 5q-26 -4 -46 6q-318 -45 -442 -341zM964 1349q65 -209 -46 -370l-20 -28q-193 -83 -371 -40l-25 34v17q-32 54 -36 103
l-10 5q-46 357 178 569q274 -22 330 -290zM1111 354q-45 -336 -335 -358h-81l-10 11q-55 34 -87 63l-10 34l-25 17q-148 258 -102 529l10 17v17l10 23l5 11l6 17l10 11l51 103q201 -48 360 56q313 -196 198 -551z" />
    <glyph glyph-name="nine" unicode="9" horiz-adv-x="1081" 
d="M38 1348q-1 -15 -6 -23l-22 -94q68 -464 497 -430q155 -24 280 17q-40 -257 -207 -412q-52 -105 -134 -165q-55 -76 -123 -111q-37 -44 -84 -65h-61v-36q51 -30 100 -29q686 180 772 854l11 6q1 44 5 70q0 67 -5 106l11 6q2 291 -123 518q-38 31 -61 59l-17 12
q-42 20 -67 41l-23 6l-16 6l-12 12h-16q-55 28 -95 41q-404 -40 -604 -389zM653 1625h17q152 -221 134 -471q6 -9 5 -18l6 -29l11 -141q-125 -111 -274 -100q-137 -20 -195 88q-83 99 -56 218q30 340 307 453h45z" />
    <glyph glyph-name="colon" unicode=":" horiz-adv-x="224" 
d="M70 916q13 -67 72 -72q62 5 72 60q10 92 -72 100q-60 -30 -72 -88zM166 564q53 37 36 92q-18 65 -84 56q-108 -139 48 -148z" />
    <glyph glyph-name="semicolon" unicode=";" horiz-adv-x="249" 
d="M67 960q-57 -131 68 -132l20 4q94 135 -60 148q-14 -14 -28 -20zM35 612q6 -71 76 -72q-13 -29 -16 -48q23 -10 40 -12q72 60 68 144q-35 77 -112 72q-41 -38 -56 -84z" />
    <glyph glyph-name="semicolon" unicode="&#x37e;" horiz-adv-x="249" 
d="M67 960q-57 -131 68 -132l20 4q94 135 -60 148q-14 -14 -28 -20zM35 612q6 -71 76 -72q-13 -29 -16 -48q23 -10 40 -12q72 60 68 144q-35 77 -112 72q-41 -38 -56 -84z" />
    <glyph glyph-name="less" unicode="&#x3c;" horiz-adv-x="610" 
d="M445 1035h-15l-10 -10q-29 -11 -45 -25q-59 -25 -95 -50q-25 -13 -45 -20q-7 -8 -15 -10q-52 -46 -95 -65l-10 -10l-15 -10q-19 -20 -35 -30l-55 -40q9 -42 35 -65l20 -15l25 -10l30 -20l25 -5l20 -20l25 -5l25 -10l20 -10l15 -10l65 -30l15 -5l20 -5l15 -15l20 -5l10 -5
l15 -10l10 -5q28 -12 45 -25q40 -6 70 -30q40 -2 65 15q10 46 -5 85l-20 10l-25 15l-20 10q-60 14 -100 45l-15 5l-10 10l-25 10l-15 5l-55 30l-15 10q-8 5 -10 10l-15 5l-75 40l20 15l15 10l20 5q33 24 60 35l15 10l15 10l70 40l15 5l10 10l15 5l15 5q39 44 80 65
q12 72 -55 80q-22 -18 -45 -25z" />
    <glyph glyph-name="equal" unicode="=" horiz-adv-x="609" 
d="M15 790q50 -8 85 -5h20h15h100h85h20h30l55 5h20h15h15l35 -5h15q46 -2 80 5q4 76 -5 125h-25h-30l-20 -5h-15h-15l-40 5h-55q-28 -6 -50 -5h-30h-70h-25q-46 6 -80 0l-35 5h-90q-7 -77 -5 -125zM15 605l30 -5h25h15h20q45 8 85 5h20l20 -5h20h25h15h25h20h15h25h25h15
h60h15h15q59 -2 100 5v15v15v50l-5 45h-35q-46 2 -80 -5l-25 5h-30l-25 -5h-30h-25h-30h-70h-15q-20 7 -40 5h-15h-15l-35 -5l-110 5q-10 -78 -5 -125z" />
    <glyph glyph-name="greater" unicode="&#x3e;" horiz-adv-x="610" 
d="M70 990l15 -15q27 -17 45 -40l20 -10l20 -15l15 -10l65 -30l40 -30l15 -5l10 -10q70 -29 110 -60q-36 -22 -65 -30l-15 -15l-35 -15q-33 -31 -70 -40l-20 -5q-6 -8 -15 -10q-19 -19 -35 -25l-15 -5l-10 -5l-15 -10l-10 -5q-56 -12 -95 -40q-15 -48 -5 -85q34 -17 65 -15
q15 11 30 15q39 23 70 30l20 15l20 5l20 15l50 25l15 5l20 5l20 10q30 20 55 25l15 10l35 15l15 5q21 19 45 20q30 27 60 40q30 32 35 65l-15 15l-20 10l-15 15l-15 5l-10 10l-5 10l-15 5l-5 10q-37 18 -60 40l-20 10l-20 15l-70 40l-15 10l-15 10l-15 5l-105 60h-15
q-39 23 -75 25q-26 -34 -30 -70z" />
    <glyph glyph-name="question" unicode="?" horiz-adv-x="963" 
d="M10 1484q46 -278 300 -195q54 36 67 89q-65 51 -129 -5l-31 5q-19 23 -31 33q-23 145 67 228q192 163 398 45q150 -330 -139 -578q-49 -90 -114 -139l-5 -16q-11 -25 -26 -39l-5 -17l-11 -11q-28 -64 -57 -100q-61 -180 37 -294l25 11q-25 128 47 211l26 22l21 11l15 11
q30 27 57 34q22 25 46 33l16 11l16 11l15 11l31 23q28 28 52 38q28 37 62 50l15 34q136 166 171 361v16l-16 39q-5 339 -470 372q-365 0 -450 -305zM191 112q55 -72 129 -94q160 30 150 172q-38 153 -181 139q-120 -72 -98 -217z" />
    <glyph glyph-name="at" unicode="@" horiz-adv-x="1218" 
d="M65 970l-10 -80l-5 -10l-5 -15q-19 -34 -25 -60v-55l-5 -15l-5 -40l5 -15v-55q11 -53 10 -90l15 -15l5 -30q29 -55 40 -95q27 -18 45 -35q129 -188 370 -185q310 -47 545 100q-5 39 -40 40q-290 -172 -585 -60l-10 15q-316 147 -240 530q128 505 610 430l95 -45
q169 -135 180 -335q37 -238 -150 -340q-30 8 -50 30q-132 283 45 505l5 30l-70 15h-35l-30 5q-79 23 -135 20l-20 -5q-7 -6 -15 -5l-20 -5l-10 -10h-15q-20 -13 -40 -15q-38 -15 -60 -20q-7 -8 -15 -10l-10 -15l-35 -20l-10 -15q-19 -17 -30 -35l-50 -45q-127 -209 15 -350
l40 -5q79 -9 140 10q37 37 70 55q5 9 10 10l5 10l45 50q5 9 10 10l25 40l35 60q15 43 35 70q3 -27 0 -50q-64 -220 85 -370q51 -10 90 -5q5 9 10 10l85 50q21 40 50 60q163 354 25 550q-149 251 -490 240q-356 -66 -525 -390zM745 1055q-6 -130 -75 -220q-68 -173 -220 -225
q-136 22 -50 260q103 155 265 200q47 -2 80 -15z" />
    <glyph glyph-name="A" unicode="A" horiz-adv-x="1242" 
d="M295 1330v-23q-31 -45 -31 -92q31 -30 46 -62h108q26 29 53 39q196 442 521 298l23 -84l8 -222l-8 -23v-23l-7 -123q-220 6 -383 -99q-370 -120 -575 -414q-40 -129 -8 -238q147 -211 376 -237q263 -59 475 92l15 -23q103 -31 153 -99q60 -22 92 -62h54q1 113 -123 199
l-7 54l7 23l39 122v23q18 72 23 123l7 31l8 15q14 74 31 123v53l7 23l15 62v30l8 15v23v31l8 23v31v30q4 11 0 23q12 106 7 169l-15 31v23l-8 23v23q-12 27 -15 53q-18 46 -23 84l-23 54q-43 49 -53 107q-120 79 -246 77q-341 -87 -559 -306zM1000 908l-8 -31v-84v-23
l-15 -153l-8 -54l-23 -76l-7 -46l-8 -23l-8 -46v-23q-36 -80 -38 -153q-225 -157 -406 -85q-159 0 -192 146q37 263 223 414q150 202 367 245q71 3 123 -8z" />
    <glyph glyph-name="B" unicode="B" horiz-adv-x="1294" 
d="M356 1771h-18l-18 -6l-47 -6h-17q-31 -10 -48 -18q-105 -9 -183 -53q-15 -36 107 -30l17 -194l6 -12l6 -18v-41q13 -59 12 -101q12 -47 12 -82v-53l11 -42v-17q3 -66 12 -112v-42q12 -46 6 -76q7 -6 6 -12l6 -18v-47q13 -47 12 -89l6 -153q9 -59 6 -100l6 -30l5 -24v-94
l6 -18v-23l6 -12v-18q6 -68 6 -118l-12 -6q-27 -43 -71 -65v-23l42 -18l12 6l11 6q46 -4 83 6q489 -40 844 206l6 12l6 12q48 85 59 159q35 446 -378 543q-38 29 -71 41q356 226 195 514l-24 41q-24 34 -35 59l-18 6l-35 41q-76 29 -118 71h-18l-12 12q-91 23 -147 24
q-70 22 -130 17h-94q-9 -7 -18 -5zM332 1700q55 -6 95 0l76 -18q100 -2 172 -35q157 -159 165 -355q0 -293 -224 -330q-128 -52 -242 -18q-9 62 -6 101l-6 41v24l-12 94l-6 71v23v18q-8 23 -6 47l-12 65v18v59l-6 18v47l-5 18l-12 106zM769 927q277 -123 330 -396
q9 -211 -106 -354h-17l-12 -6l-12 -6l-41 -12q-6 -7 -12 -5q-42 -17 -71 -18q-79 -27 -142 -24q-128 -28 -224 -12q-9 67 -6 113l-6 23v36l-6 17v30l-6 17v24v18v18l-5 100l-12 65v17q-7 9 -6 18l-6 18v29l-6 18v18v18l-6 11v24l-6 12v23q-10 58 -6 101q49 10 83 11l18 6
l82 18h24q6 7 12 6l47 12l41 12h77z" />
    <glyph glyph-name="C" unicode="C" horiz-adv-x="1168" 
d="M616 1757q-53 -23 -98 -22l-6 -11h-16q-6 -7 -11 -6q-38 -31 -71 -43l-11 -11l-11 -6l-38 -21q-22 -29 -49 -39q-41 -66 -93 -103q-3 -10 -11 -11v-17l-33 -27q-23 -45 -54 -71q-6 -28 -22 -49q-8 -28 -22 -44l-5 -16q-6 -26 -17 -44q-9 -71 -33 -114l6 -22l-6 -22v-38
l-5 -66q7 -32 0 -55q5 -17 5 -32v-22q4 -14 0 -22l6 -16l-6 -11q17 -44 11 -77q16 -38 11 -71l11 -16l6 -22l5 -16q17 -45 22 -77l22 -32q126 -326 426 -361q288 -70 535 208l11 43q-36 70 -110 60q-50 -40 -38 -136q-274 -221 -557 -44q-49 30 -76 66q-92 230 -49 447
q-10 116 16 197q85 431 404 661l11 -6q41 29 82 22q110 47 180 -44q84 -55 88 -147q20 -10 43 -6q6 7 11 6q6 10 11 11q1 14 6 22l27 43v17l5 27l6 11q25 61 33 104l-17 11l-44 11q-5 -10 -10 -11q-18 -63 -44 -99q-141 201 -382 170q-32 -11 -55 -11z" />
    <glyph glyph-name="D" unicode="D" horiz-adv-x="1285" 
d="M113 1637q-13 -28 -11 -53q-61 -14 -92 -57l17 -12q44 27 86 36l19 -109l-4 -10l53 -301l8 -14l12 -69q24 -36 23 -72l6 -34l55 -311l-2 -20l4 -50l1 -36l12 -68l2 -36l19 -113l5 -55l7 -9q-2 -41 8 -75q-101 -17 -96 -62q206 8 358 103l33 11q6 7 14 8l29 10l38 17
q8 5 8 11q38 18 63 42q66 35 104 74q477 261 346 660l-3 15q-22 37 -28 71l-6 9l-28 41l-8 19l-10 24q-23 28 -34 49l-6 9q-23 44 -43 69l-8 19l-14 18l-80 113q-55 26 -82 61q-34 3 -58 10l-12 9q-27 8 -50 26q-70 15 -113 36l-16 2l-19 -3l-11 3l-15 -2q-29 7 -61 4l-17 7
l-25 -4l-14 -3l-36 -1l-15 2l-25 -4l-15 -3l-10 4q-78 -7 -124 -17q-29 47 -96 24q-23 -14 -43 -13zM318 1592l21 -2l11 -3q29 7 52 -6q34 10 60 1q90 -5 148 -30q96 -9 166 -52l16 -33q58 -76 77 -149l12 -8l3 -14q21 -37 42 -99l19 -78q18 -47 20 -83q29 -94 15 -175
q20 -192 -45 -348l-13 -13q-26 -39 -50 -59l-9 -7q-43 -26 -75 -39l-8 -11l-19 -9l-13 -7q-7 -7 -14 -8q-17 -17 -37 -21l-8 -12l-38 -17q-42 -27 -74 -38l-33 -16l-9 -7l-34 -11l-28 -10l-3 15l-4 24l-3 15l-3 20l-3 15l-17 98l-19 108l-3 15l-4 20l4 11q-21 72 -18 129
q-7 18 -6 34l-5 30l-5 29l-10 24l-17 98l-9 24l-5 25l-4 24l-17 68q0 20 -6 35v25l-5 30l-4 24l-12 69l-5 25l-11 64l-3 20l-3 15q-1 38 -6 64q5 46 -9 80q12 35 3 67l43 17z" />
    <glyph glyph-name="E" unicode="E" horiz-adv-x="1426" 
d="M634 1747l-27 -5l-114 -20l-15 -20l-26 -5q-87 -74 -153 -109q-266 -345 -289 -732q168 -665 767 -799l27 4l26 5q84 -3 143 16l207 109q213 206 246 461q-68 66 -143 93l-50 -27q-24 -141 34 -248l3 -63l-46 -54l-119 -93q-194 -147 -396 -70q-225 7 -272 251
q-12 7 -12 16l-4 27l-20 60q-53 116 -60 235l-2 63l24 22l16 12l249 80l95 26l27 5l114 20l51 18l41 25l34 15l26 5q87 34 147 44l50 27l62 56q-3 100 -29 168q-115 386 -482 414l-9 -1l9 1l-9 -1l-17 -3l-35 -7q-32 -18 -69 -21zM783 1465q128 -136 163 -307
q-73 -19 -118 -49l-44 -7l-44 -8q-22 -13 -43 -17l-26 -4l-330 -86q-13 74 3 137q-18 311 209 464q174 30 230 -123z" />
    <glyph glyph-name="F" unicode="F" horiz-adv-x="1246" 
d="M1186 1707l-16 2l-12 -5q-52 2 -90 -3l-17 1h-61l-17 -4l-28 2l-17 -4l-17 7l-16 2l-17 -4l-101 -3l-17 7q-79 -12 -139 1l-35 -8l-28 2l-21 8q-57 -6 -100 9l-96 -9h-124l-22 -4l-17 2l-11 6l-17 -4l-16 2q-32 -4 -62 -1q-33 -7 -57 -6q-5 -49 51 -66l3 -28l9 -23
l-2 -23q8 -9 9 -23l9 -23l22 -75l3 -22l5 -12q6 -51 15 -85l13 -46l13 -41l-8 -27l2 -39q19 -79 10 -147q11 -15 13 -35l4 -22l-2 -84q12 -32 11 -68q7 -36 6 -62l9 -29l2 -40l3 -28l-2 -16l15 -91l-2 -23l2 -39q18 -44 15 -85l-1 -17q13 -54 14 -91q4 -18 3 -34l10 -12
l19 -97q-24 -22 -37 -47q-49 -28 -68 -72l16 -2l17 -1l17 -2q44 10 79 5l17 4l16 -2l17 -1l17 4l12 5q44 0 85 15q53 2 91 14l-3 34q-77 10 -112 66l2 16l-8 40l-1 51l1 16q-11 51 -8 96l-10 12l1 17l-2 39q-8 75 -6 124l-3 23l-10 18l-4 17l2 22l-10 12l3 39q-10 4 -10 12
l1 17l2 22q-6 9 -4 17l-4 12l-4 17l1 16l2 17l-5 12q-13 71 -12 118l34 3l78 -7q46 7 78 5q68 15 124 6q27 -17 49 -22q20 -37 45 -54l24 15l-5 11l10 44l-2 40l-5 11l4 45q-6 22 -2 45q-6 22 -1 45l-8 40l-34 -3q-74 -108 -185 -129q-9 -6 -17 -5l-17 2q-28 0 -44 4l-17 1
l-11 -4l-17 1l-90 -3l-4 17q-6 9 -4 17l2 28l-10 12l2 22l-4 17q2 33 -1 56l2 17q-16 52 -9 96l-3 23l2 22q-9 9 -10 18l1 16l-4 18l2 16l-8 40l2 22l-5 12l-3 90l17 4l22 -2l17 -2q29 7 46 13q55 -9 95 -2l17 -2l16 -1q43 3 73 -1l33 -3q19 2 34 -3l34 3l22 3l22 -7
q64 5 112 1l23 -2q55 9 100 -3q69 16 124 12q71 -46 74 -119l33 -8q25 62 27 120q-5 52 -20 86l-23 2q-8 -6 -17 -4z" />
    <glyph glyph-name="G" unicode="G" horiz-adv-x="1407" 
d="M986 1590q-337 234 -672 6q-219 -275 -69 -496q137 -215 377 -201q14 -19 12 -38l-6 -19q3 -66 -13 -113q-335 -45 -527 -282q-78 -363 257 -534l19 7q68 -32 132 -32q474 -94 672 301q50 229 -100 377q-155 166 -371 157v31l6 13q-1 73 26 132q253 -1 402 176
q99 255 -95 465q-8 54 19 94q77 169 226 151q-61 -184 76 -208q147 234 -151 264q-157 -102 -220 -251zM1017 1301q3 -212 -144 -333q-404 -102 -402 195q-74 365 251 477q287 -43 295 -339zM1036 296q-1 -202 -138 -320q-139 -73 -283 -44q-208 3 -226 245q-39 155 13 282
q59 209 276 214q319 26 358 -377z" />
    <glyph glyph-name="H" unicode="H" horiz-adv-x="1344" 
d="M88 1710v-192l6 -30v-84l6 -18l24 -961l6 -18v-67q9 -46 6 -84l6 -36v-42q9 -62 6 -102q-33 -58 -84 -83v-30l18 -13h24h18h30q36 9 66 7h24l18 6h24h18h24h109l24 24l-12 29q-79 18 -109 84q-10 45 -12 78v30v78v103v78v24v66v42v18v18q-2 55 6 96q56 7 97 6h18h120h30
h36h18q24 -8 48 -6h24h36l24 -6h18h24l24 6h102h18h72v-619q-42 -45 -96 -60v-36q178 -39 325 12q-4 29 -18 48q-70 4 -121 42v36v36v102v24v18v24v109v18v18v78l6 42v24v42q2 46 6 72v60l6 36v48v18q0 39 6 66v18v18l6 18q-1 48 6 84l6 24l6 103l6 24v18v48v18
q-6 141 18 234q52 79 133 102l6 42q-11 6 -12 12h-30h-30h-30h-19h-72h-18q-81 5 -138 -6q23 -71 78 -108l6 -66q11 -35 12 -60v-108q-10 -60 -6 -102v-157l-6 -18v-48q2 -71 -6 -120h-18h-48q-56 -1 -96 6h-18q-55 12 -96 6h-18q-36 9 -66 6l-30 6h-24q-34 3 -60 12
q-48 -1 -84 12h-18h-24h-18l-12 6h-43h-18l-48 12l-6 30v18v78v85v42l6 36q-3 66 6 108v18v18v18v102q-1 78 12 132q75 -15 85 42l-25 12h-24h-24h-30h-78h-24h-102h-18h-72q-30 -57 48 -54z" />
    <glyph glyph-name="I" unicode="I" horiz-adv-x="493" 
d="M177 1636q117 -247 276 -39q29 161 -127 190q-118 -41 -149 -151zM279 1255q-58 -34 -118 -40q3 -69 92 -22l-2 -22q-26 -79 -27 -141l-28 -319l5 -29l-34 -384l-11 -49q-23 -110 -23 -177q-102 -37 -123 -96q12 -8 13 -16l92 -8l22 -2l21 -2l85 -7q148 -24 250 -8l-3 44
q-90 37 -142 98q10 95 7 156l-4 44l4 42l3 36l9 99l7 78l3 36l2 21l2 29l2 21l12 142l3 29l2 21l11 128l2 28l3 29q-5 40 0 78q-9 30 -3 51q-12 65 -4 115q-27 18 -49 18q-46 -20 -81 -21z" />
    <glyph glyph-name="J" unicode="J" horiz-adv-x="1160" 
d="M669 1724q131 -35 200 -129v-67l12 -133q-3 -64 3 -103q8 -50 2 -92l3 -42l-4 -19l6 -67l-5 -12l1 -18q0 -85 7 -140l-4 -31l2 -24l-6 -68l4 -48q2 -31 -2 -49l4 -43l-4 -18q7 -67 -2 -116l-5 -19q-8 -51 -17 -81l1 -18l-8 -50l-5 -12l-5 -13q-6 -55 -21 -99l-22 -27
q-45 -106 -126 -163q-121 12 -208 73q-78 96 -103 199q-31 52 -39 94q-8 21 -9 42q-29 70 -30 131q-8 6 -7 12l-8 17l-8 18l-1 18q-8 22 -10 42q-23 48 -26 89q41 21 43 65l-25 4l-17 -14q-51 -32 -80 -62l-18 -1l-11 -13l-18 -8l-11 -7q-41 -33 -75 -49q-7 -35 63 -31
l10 -36l12 -66q18 -34 24 -65q27 -58 33 -101l8 -24q11 -5 13 -11l9 -30q31 -44 44 -81q8 -8 7 -18q8 -9 8 -17l13 -11l2 -19q45 -60 64 -110q12 -5 13 -11l141 -79q400 -50 552 323q8 71 32 124l2 37l-2 25l-2 24l5 18l-2 19l-1 18l4 18l2 49l-2 19l-1 18q9 48 4 92l3 37
q-3 57 3 97l3 37l4 31l-4 36l-2 25l5 18l-3 104q6 25 2 49l2 43l3 30l-2 31l-3 36l4 25l-3 24l-5 67l2 37l-7 17v67l-2 18l-4 122q37 48 92 63l-16 41l-24 -2l-24 -2l-18 -1l-109 -10l-79 -7l-24 -2l-103 -9l-18 -2l-73 -6z" />
    <glyph glyph-name="K" unicode="K" horiz-adv-x="1593" 
d="M322 1801l-22 -13l-18 -2l-16 -13l-17 -2l-17 -7l-97 -32q-75 -13 -125 -46l14 -28q56 2 96 -21l23 -261l7 -17l8 -93q20 -63 16 -110l34 -190l-4 -24q10 -31 11 -58l68 -779q-7 -93 -71 -128l-3 -24l60 -18l81 7l22 13l18 2l57 11l70 6l17 7l17 2l12 7l69 11l34 15l3 29
l-72 17l-12 11l-67 29l-4 41q-17 58 -20 98l-3 35l-3 29l-8 28l-2 24l-2 17l-16 116l-2 23l-14 92l-10 46l-5 59l-2 23l-17 133l16 13l22 20l48 51l16 19l11 12l11 7q46 63 91 90l5 18l17 7q34 51 63 82l13 -22q36 -72 52 -119q36 -63 45 -119q21 -24 28 -50q18 -32 23 -56
q44 -60 56 -113q12 -14 15 -28l26 -38l16 -40q28 -41 41 -73l14 -22l14 -28q13 -17 20 -33q29 -28 40 -55l8 -23l14 -22q20 -27 28 -51l12 -10l8 -23l12 -5l55 -89q-46 -48 -63 -87l18 -4l23 2l24 2l17 1l23 2l23 8l18 2l17 1q39 12 69 12l23 8l17 1q9 8 17 8l18 1l91 26
l8 42q-70 13 -110 60l-7 11l-13 17l-7 11l-41 67q-41 42 -60 82q-44 43 -66 82l-26 27q-23 44 -53 72l-7 17l-13 16l-8 17l-21 39q-23 30 -34 56q-34 28 -46 66l-20 22l-7 17l-8 17l-13 16q-22 41 -47 66q-15 33 -33 50q-16 48 -48 78l-13 16l-8 17q-16 23 -21 45
q-52 55 -68 111q50 60 86 90q78 138 186 215q62 81 130 117q-5 21 -20 33l-18 -1l-104 -9l-18 -2l-180 -16l-4 -23q51 -33 82 -63l-65 -65l-5 -12l-11 -7l-53 -57q-33 -37 -60 -58q-33 -45 -64 -70l-21 -25l-17 -13l-15 -19l-16 -25l-10 -13l-22 -25l-16 -13l-10 -19
l-11 -12l-16 -14q-5 -10 -11 -12q-22 -37 -48 -57q-25 -55 -62 -88l-9 35l-7 81l-3 35l-7 76l-2 23l-1 17l-16 116l-8 23l-2 23l-2 23q-19 56 -21 98q-15 46 -13 87q24 76 72 117q-3 32 -32 33q-15 -7 -29 -9z" />
    <glyph glyph-name="L" unicode="L" horiz-adv-x="1150" 
d="M308 1714l-4 -51q6 -6 4 -12l-7 -79q4 -53 -7 -91l-13 -147q2 -16 -2 -23q3 -32 -7 -80l2 -40l-2 -23q-10 -63 -9 -102q-14 -79 -20 -164q-12 -66 -16 -113l-19 -90l-1 -80l-8 -27l-16 -176q-2 -46 -12 -79l-19 -216q-70 -25 -128 -23l-14 -27l22 -8l17 -2l102 -8l17 -2
l176 -15l34 -3l34 -3l28 -8q63 -5 107 -21l23 -2l17 -1l113 -10l23 -2l17 -2l102 -9l74 -6l23 -2l96 -8l17 -2l68 -6l13 16q4 35 0 63l2 22l1 17l4 40l1 17l2 17q7 52 2 91l-29 -9q-36 -120 -109 -196l-12 -5l-35 -8l-57 5l-11 -5l-69 6l-39 9l-62 12l-17 1l-17 2l-34 3
l-22 2l-29 2l-23 2l-27 8l-96 14l-46 4l-39 9l-33 20l2 17l-4 18l1 17l2 23l2 17l2 22q19 88 18 142l3 39q2 36 11 62l2 23q4 47 13 79l1 17l2 23l2 17l16 113l2 28q4 9 2 17q8 27 9 45l2 23l9 96l9 39l12 74l2 28l7 11l2 23l24 141l8 27l2 23l8 22l2 23l7 22l3 29l7 22
l3 28q4 72 22 118l1 17l2 17l6 74q70 40 130 46l8 22l-22 14l-34 8l-28 3l-23 2l-102 9l-23 2l-22 2l-23 2l-97 8l-17 1l-68 6q-31 -39 66 -97z" />
    <glyph glyph-name="M" unicode="M" horiz-adv-x="2073" 
d="M618 1699q-18 -30 -44 -48q-18 -32 -44 -48l-14 -19l-15 -11l-70 -112q-14 32 -14 69q-31 76 -34 137q-218 30 -373 -97q37 -83 146 -39l10 -34l5 -61q11 -12 10 -26l4 -52q21 -90 28 -147l2 -26q28 -93 28 -165q17 -63 32 -102l18 -219q22 -101 21 -174l9 -113l-16 -204
q-8 -117 -81 -175l-11 -54q185 -17 314 30l5 45l-19 33l-3 44q-4 66 -17 113l-3 35l-12 157l-10 122l-5 70l-2 26l-3 35l-2 26q6 105 -6 176l-2 26l-9 114l-4 52l5 27l-4 61l-5 158q94 152 221 215q191 27 229 -497l37 -366q2 -67 17 -113l14 -78l29 -375q-16 -109 1 -202
q125 -37 228 22l-4 52l-5 52l-34 138l-5 61l-19 139l-3 35l-11 43l-12 148l-10 34l-4 44l-7 96l-10 26l-4 43q-10 13 -10 26l-2 35l-12 148l-2 26l-8 105q80 161 211 241q150 44 264 -36l2 -26q23 -32 29 -68l14 -78l4 -52l9 -17l62 -786q-15 -49 -16 -90q-56 -74 -119 -108
l4 -44l33 -14l86 8l40 4l102 10l31 3l134 13l24 2l94 10q15 33 18 72q-130 79 -161 231l-2 26l-2 26l-9 114l-2 26l-2 26l-2 26q-3 51 -15 87l-2 26l-2 26q-4 51 -15 87q-12 50 -14 86l-3 27q-10 13 -9 25q-12 50 -15 87l-2 26q-11 13 -10 25l-35 146l-71 187
q-385 178 -683 -181l-14 78q-38 63 -42 128q-45 91 -59 153q-99 50 -193 34z" />
    <glyph glyph-name="N" unicode="N" horiz-adv-x="1373" 
d="M871 1756l42 -20l27 -60l18 -73l8 -15q5 -53 21 -88l-3 -44l11 -63l-2 -22q10 -56 6 -96l7 -37l11 -95q0 -54 11 -90q-5 -45 3 -81l-6 -28l11 -31l-2 -16l3 -21l11 -91q-7 -43 2 -75l3 -48l26 -147q5 -27 2 -43q5 -27 8 -42q-5 -40 -5 -66l-11 4l-17 35q-33 26 -48 56
l-11 3q-34 49 -63 76l-2 16q-34 45 -48 84l-26 27l-7 10l-16 30l-22 34q-8 4 -8 9q-28 50 -42 85l-11 3q-13 32 -36 48l-14 19l-76 127l-16 30q-8 4 -7 10q-8 4 -8 9q-7 4 -7 10q-7 4 -7 9q-7 4 -7 10q-54 64 -72 133q-17 14 -16 30q-25 16 -39 36l-4 21l-13 14l-3 16
l-13 14l-3 16q-20 28 -26 55q-42 49 -54 93q-92 29 -192 -18q-68 -33 -117 -42l-12 -24q52 -18 102 7q4 -30 14 -51l5 -26q9 -43 7 -75l8 -9l-2 -22q31 -99 30 -168l7 -10l6 -37q9 -62 19 -105l11 -35l7 -37l8 -15q5 -38 12 -68l24 -137l-2 -16l6 -37l8 -15l-1 -22
q19 -38 25 -82v-33l22 -126l-2 -16l9 -53l-3 -11l3 -16q-8 -39 1 -70l1 -38q-20 -95 -101 -131q3 -21 16 -29q88 -10 160 12l12 -4l16 3q126 13 203 41q6 30 2 54q-59 6 -80 51l-3 21l-3 16l-4 21l-3 16l-6 36l-3 16l-3 16q-6 49 -20 83l1 27l-4 21l-4 21l-2 16l-8 42
l-13 106l-3 16q-1 39 -12 68q0 41 -7 69l-3 21l-8 74l-16 90l-9 20l-3 16l-3 21l-5 26l-4 21l-9 20l-3 21l-12 36l-3 15l-3 16l-20 83q-47 211 47 14l3 -16l12 -9q9 -41 29 -70l7 -10q7 -7 8 -15l12 -8l3 -16l12 -9l9 -20l46 -78l21 -24l18 -40l11 -3l18 -40q33 -38 45 -74
q37 -35 51 -72q20 -10 32 -27l8 -15l9 -20l12 -8l3 -16q41 -49 60 -92l20 -24l26 -22l2 -16q70 -52 97 -118l12 -9l8 -15l13 -9l8 -14l78 -106q10 -3 12 -8q23 -22 35 -43q16 -11 26 -28l12 -3l12 -9l9 -20q56 -46 82 -94l59 -27l21 31q-16 93 -7 161q-8 16 -10 30l3 12
l-9 20l3 17l-3 15l-3 16l-3 16l-3 16l-2 15l-7 37l-5 59l-4 26l-13 73v28l-3 21l-8 9q0 51 -9 85l-5 26l3 17l-7 10l-16 89l-3 48q-10 52 -11 90l3 17q-17 48 -15 84l-5 26l3 17q-8 43 -8 74q-3 73 -15 117l2 22l-11 90l2 22q-9 30 -4 53l-3 43l4 12q-18 69 -11 122
q23 58 79 74l-6 36l-92 28l-15 -3l-12 3q-80 -12 -136 3q-74 -4 -126 10q-17 -22 -14 -45z" />
    <glyph glyph-name="O" unicode="O" horiz-adv-x="1904" 
d="M515 1646q-46 -40 -94 -55q-48 -53 -101 -68l-15 -16q-71 -73 -126 -108q-256 -447 -102 -807q287 -685 1069 -537l154 5q796 364 489 1259q-353 614 -1204 363q-30 -26 -70 -36zM1090 1554q69 -8 115 -31l98 -100q177 -393 80 -761q4 -57 -3 -105q-117 -451 -488 -376
q-391 110 -525 558q-79 571 356 879q210 41 367 -64z" />
    <glyph glyph-name="P" unicode="P" horiz-adv-x="1160" 
d="M639 1767l-71 -11l-22 -6h-22h-22l-27 -5l-22 -6h-22l-16 -5l-66 -6q-57 -7 -93 -5q-28 -11 -49 -11q-41 -33 -82 -38l-11 -11q-9 -5 -11 -11l-11 -6q-23 -29 -55 -38l-27 -27l5 -28q60 14 104 -5l11 -170l6 -22l5 -38l6 -22l5 -71l11 -88v-16q9 -51 6 -87l5 -11l11 -50
v-43q13 -51 11 -88q10 -32 5 -60l6 -16l22 -110q-1 -43 0 -71q22 -78 5 -148l11 -5v-17l6 -43q4 -105 -6 -170v-104l-5 -16l-11 -11l-6 -22q-39 -37 -49 -76l33 -17h93h60h22h93h44h38q23 7 38 17v43q-124 50 -126 175v22l-10 44q-19 51 -22 87l-17 39v16q-29 81 -22 148
q-14 42 -11 82q-11 68 -5 115h44q19 5 38 5l33 11q53 24 104 27q5 7 11 6l22 11l65 27q23 18 49 17q39 25 72 32q10 15 21 22l61 33q18 22 38 33q24 27 49 38q27 35 60 49l6 17l27 27q18 43 38 66v16q29 64 28 126q12 365 -318 465h-21h-61h-38h-27h-22zM781 1509
q88 -359 -82 -618l-16 -5q-29 -17 -44 -27q-74 -7 -126 -28l-49 -11q-49 -19 -93 -16l-11 38v38l-11 44l-11 66l-5 33q-9 49 -6 93q-5 14 -5 27q-6 14 -6 27l-5 28v27q-15 44 -17 77l-5 93v16q-9 22 -6 44l-5 22v16q-8 21 -5 44q-20 63 -17 115q54 13 93 11l82 16
q247 20 350 -170z" />
    <glyph glyph-name="Q" unicode="Q" horiz-adv-x="1650" 
d="M1066 1728q-69 16 -119 18l-19 -11q-40 2 -71 -2l-26 -10l-23 -4l-29 -3q-57 -32 -110 -42l-41 -29l-10 -8l-107 -66l-7 -16l-49 -31q-30 -39 -60 -57q0 -9 -7 -16l-15 -18l-16 -19l-15 -18q-14 -30 -35 -48q-16 -21 -24 -39l-28 -32l-3 -22l-13 -14q-13 -25 -24 -38
l-1 -18l-13 -13v-17l-13 -14q-20 -53 -39 -87q4 -29 -14 -47l10 -9l-46 -120q-89 -554 472 -777l29 3l19 -6l16 -10q10 7 17 6l50 -15l45 -7q94 11 161 -2q66 -265 273 -226q129 57 120 160l-37 11q-104 -82 -161 19q-25 64 -19 116l13 13l26 10l13 14l53 24l40 28
q46 40 88 55q12 28 35 48l10 8q22 36 46 56q29 55 68 89l7 15l6 16q42 75 51 129q25 39 37 70l10 20q4 30 16 53l25 74l-8 14l9 20l7 15q-3 66 14 112q-14 28 -10 55l-15 62q-14 41 -10 73q-29 38 -27 83q-20 28 -19 52l-16 10q-19 41 -42 65q-10 24 -26 37l-1 12l-15 15
l-1 13q-53 49 -81 87l-123 72q-32 7 -49 15l-19 5l-15 -1q-44 28 -88 38zM1138 1591l27 -20l3 -24q5 -7 2 -12q25 -16 34 -33l-3 -23q21 -42 17 -74l14 -16l-7 -15q16 -19 18 -40l3 -24q5 -7 2 -12l10 -9q1 -50 18 -86l-1 -17l-3 -40l2 -12l-18 -87l2 -12l-12 -89l-15 -36
q-4 -46 -20 -75q-18 -121 -73 -198q-20 -73 -67 -119q-5 -31 -22 -51q-239 134 -418 -54q43 -43 90 -4l43 -13q112 -148 17 -184q-170 -93 -372 111l2 5l-2 -5l2 5q-36 48 -53 86l-10 89q-18 29 -25 54l1 52l-7 14v17l-7 48l7 15q-23 79 1 145q-7 9 -6 19l11 25l-5 19l9 21
q-4 9 0 17l7 15l1 18l9 20q-4 32 4 57q168 361 509 564l17 6l53 8q60 30 120 33q64 -32 91 -79z" />
    <glyph glyph-name="R" unicode="R" horiz-adv-x="1464" 
d="M828 1720l-45 -39q-44 -55 -89 -85l-6 -27l-15 -18q-7 -15 -14 -19q-7 -16 -15 -18l-6 -18q-30 -32 -43 -64q-44 -49 -65 -92q-61 110 19 173l-12 42l-39 -4q-44 -29 -84 -43l-126 -29q-29 -17 -62 -23l-14 -19l-79 -16q-61 -34 -109 -37q-6 -16 -14 -18l3 -34
q270 9 277 -590q11 -13 10 -25l13 -59l2 -34q11 -13 10 -25l27 -237q16 -108 14 -179q-75 -71 -144 -100l3 -42l41 -5l133 22l80 8l23 2l64 6l126 21l21 28l-2 25q-66 28 -101 76l-4 43l-10 33q-16 79 -19 135l5 35l-26 135l-3 34l-3 42l-3 43l-2 25l-9 111l-5 60l-4 153
q302 409 663 503q261 -182 93 -274q0 262 -193 118q-12 -85 12 -145q178 -138 327 -2l35 55q-57 241 -229 381q-166 81 -323 54q-44 -32 -84 -43z" />
    <glyph glyph-name="S" unicode="S" horiz-adv-x="1571" 
d="M1014 1636q-927 250 -1004 -338q12 -461 620 -414q75 -26 158 -18l147 -77q215 -220 108 -459q-320 -328 -620 -164q-238 215 -49 303q-33 -151 128 -165q203 163 -10 320h-128q-279 -171 -167 -380q75 -202 315 -225q634 -49 964 372q95 268 -59 484l-68 26
q-58 50 -109 78q-15 -6 -29 0l-99 26l-78 17q-48 -4 -79 9q-57 -11 -108 -9l-79 -17l-30 8l-19 -8l-158 -18q-136 -3 -226 35q-156 721 620 493q25 -33 29 -70q34 -29 30 -60q39 -33 59 -69l29 8q-43 194 20 346q0 52 -10 78z" />
    <glyph glyph-name="T" unicode="T" horiz-adv-x="1170" 
d="M731 1787l-27 -8q-39 4 -70 -6l-18 3l-20 -3l-137 6l-72 -13l-13 -4q-106 10 -186 -17l12 -40q173 -134 93 -369l-20 -3l-24 4l-26 -1l-19 -3l-25 4l-43 1l-14 -3l-99 5l-13 -36q19 -37 19 -73l24 -4q45 -7 74 -7q89 12 162 -9l6 -39l-7 -43l-1 -113l-8 -43l4 -13
l-29 -234l2 -26l-6 -68q3 -12 -1 -44l3 -51q7 -7 4 -13l-3 -18q12 -60 7 -102q11 -27 10 -52q13 -26 10 -52l11 -46q23 -48 28 -87q56 -76 126 -110q102 -50 192 -53q533 106 347 650l-11 8l-10 14q-30 35 -53 54q-105 -3 -115 -112q29 -136 124 -47l11 -8
q-48 -417 -338 -495q-71 15 -117 52l-40 96l3 18l-3 19l-4 14q3 60 -1 101l5 24l3 18q3 73 15 123q-1 52 9 87l-2 25l6 31l3 18q7 31 15 48l21 122l3 18l9 49l3 19l14 79q15 125 49 205l19 3l32 1l18 -3l51 3l19 -3q63 7 107 0q28 29 41 56l1 44l-62 4l-13 -4l-18 4l-14 -4
q-95 3 -154 14q5 351 189 395q0 38 -36 44q-17 -3 -32 -1z" />
    <glyph glyph-name="U" unicode="U" horiz-adv-x="1594" 
d="M1061 1799l15 -34l120 -180l46 -257q31 -137 25 -242q21 -121 10 -208q146 -607 -291 -764q-111 15 -187 58l-5 27l-20 14l-71 152l-20 61l-8 44l-9 53l-8 45l-6 35q-25 69 -31 122l-11 17l-8 44q-13 11 -13 25l-7 35l-10 62l-37 158l-13 25l-19 107l-27 150q4 49 -5 82
q132 25 149 108l-56 18l-26 -5l-112 -20l-26 -4l-103 -18q-171 -12 -287 -78l16 -43q130 -41 194 -295l35 -149q59 -452 304 -768q90 -41 139 -86l27 -4l19 -6l20 -14q122 -16 203 -47q322 88 528 376l4 28l30 79l41 117l-6 35l6 65l10 93q-10 77 -4 127l2 37l-5 27l-14 180
l4 28l-4 27q-6 44 -4 72q-17 83 -17 143q-12 139 -30 223l4 29q82 27 61 102q-271 -57 -506 11z" />
    <glyph glyph-name="V" unicode="V" horiz-adv-x="1229" 
d="M210 1758h-16h-39q-84 7 -145 -11v-22q42 -19 67 -44q1 -58 11 -95v-28q12 -37 11 -67q8 -32 6 -61q6 -5 5 -11v-17q21 -45 22 -89l6 -22l6 -33l5 -17l6 -17l11 -128q6 -8 5 -16l6 -12v-55q11 -35 11 -61l28 -112q20 -74 22 -122l6 -22l5 -28l6 -17l5 -22l17 -95
q7 -9 6 -16l5 -34q26 -50 28 -94q9 -16 11 -28l34 -73q13 -23 16 -44l6 -17l22 -39v-16q32 -45 45 -84q27 -62 83 -89l28 33l11 12l11 11l11 16l11 17l17 17l6 16q19 24 28 39l33 62l5 11q17 53 39 83l6 17q8 29 17 44l5 23q27 51 34 94l16 39l11 39l6 34l11 33l6 11l5 17
q20 40 28 72l6 17l5 11l6 17q21 63 39 100l22 78l11 11l6 22l44 128l6 11q14 28 22 50l11 23l6 22l66 161q31 56 78 73l23 33l-6 5l6 -5q-8 9 -17 17h-39h-56h-22h-22h-39q-59 -8 -100 -6q-6 -10 -11 -11v-17l16 -5q54 -27 84 -50l-11 -39l-6 -17l-22 -67l-17 -33l-5 -11
l-6 -28q-23 -53 -33 -89l-28 -95l-11 -11q-9 -77 -50 -134q-12 -60 -39 -100q-1 -14 -6 -22l-6 -22v-22q-21 -45 -27 -78l-6 -23l-5 -22l-6 -22l-6 -22l-16 -39l-6 -17l-28 -67v-17l-11 -16v-17l-11 -17q-3 -30 -17 -55l-5 -17q-36 -61 -50 -106l-17 6v17q-7 5 -6 11v16
q-21 38 -27 73l-6 78l-5 22l-6 22l-6 22l-5 23l-22 72v28l-6 44q-7 6 -6 12l-5 16v17q-18 82 -17 139l-5 22l-6 23l-6 11v16l-16 89l-6 28v22v17q-6 6 -5 11v17q-21 76 -17 134v27q-12 77 -11 123v16v23v44l-6 11v17l-5 139l11 17l11 17l6 16l11 6l5 17l11 5l45 61
q-10 6 -11 11l-17 6h-17h-27h-17h-22h-17h-111z" />
    <glyph glyph-name="W" unicode="W" horiz-adv-x="1949" 
d="M1505 1732q56 -59 76 -110l-7 -25l2 -14l-3 -106l-3 -14q-8 -28 -9 -49q-7 -27 -9 -45l1 -38l-6 -29l-6 -30q1 -56 -6 -92l-3 -14v-29q-5 -88 -20 -142q-7 -41 -5 -67l-7 -25l-3 -15q3 -23 1 -38l-2 -19l-3 -15q4 -52 -1 -91l2 -13q-20 -76 -22 -128l3 -19l-4 -10l2 -71
l-4 -10l-4 -44l8 -46l-3 -15l-8 -111l-18 7l-14 16l-4 19l-12 7l-10 27l-14 12l-2 14q-8 5 -8 12q-24 30 -32 57q-8 5 -8 13q-27 25 -37 50l-10 22q-23 26 -31 47l-8 18l-14 16l-10 22l-14 17l-9 17q-19 35 -38 56l-8 17l-28 62q-7 3 -7 8l-40 69l-5 23q-26 39 -30 76
l-17 35l-17 30q-33 75 -92 108q-8 -21 -22 -33l-5 -34l-12 -30q-14 -60 -39 -98l-6 -29l-37 -74l-2 -24l-7 -20q-17 -50 -42 -84q-5 -39 -16 -64l-3 -15l-9 -16l-8 -20q-6 -26 -15 -41l-3 -15l-3 -15l-8 -16l-3 -14l-4 -11q-11 -24 -9 -44l-4 -10l-10 -7q-10 -40 -22 -65
l-13 11l-3 14q-10 17 -12 36l-17 35q-19 31 -26 53l-11 27l-4 23q-11 15 -16 30q-18 25 -26 48l-7 8l-3 19l-7 8l-2 14q-36 57 -42 107q-32 48 -38 88l-7 8q-18 35 -22 63q-8 4 -7 8l-3 14l-7 9l-6 37l-11 31l-13 7l-2 14l-8 13l-3 14l-17 35l-3 14l-11 31l-11 31l-9 51
l9 16q14 57 56 95l6 30l-23 1l-70 -17l-15 -12l-21 -4q-29 -11 -54 -14q-4 -7 -10 -7q-68 -34 -121 -45q-16 -26 -15 -46q83 -4 142 -36l2 -14q27 -48 37 -84l9 -18l11 -31l10 -27l14 -12l14 -50q20 -23 26 -52q39 -48 52 -100l12 -36q40 -68 49 -120q28 -46 32 -85
q8 -16 11 -31l16 -26l3 -19q20 -32 27 -57l7 -8l12 -36q25 -53 28 -95l35 -70l2 -14q36 -59 42 -112l13 -7q25 -69 64 -112l38 11q18 88 59 144q9 65 26 104l3 15l3 15l23 61l7 25q7 39 17 65l25 81l6 25l4 10l15 45l1 24l7 25l13 22l2 19l3 15l9 16l3 14l9 12l11 35l3 10
l3 15q26 45 31 81q10 -6 14 -16q28 -31 39 -60l8 -18q25 -26 32 -51l25 -48l14 -12l3 -18q56 -72 78 -125l14 -16l9 -18l9 -17l14 -17q26 -51 48 -82l9 -17l8 -18l14 -16l12 -32q11 -13 15 -25l14 -17l8 -13l14 -16l9 -18l14 -12l2 -14q23 -20 30 -42q17 -16 23 -34
q10 -3 12 -7l13 -8l22 -29l72 -92l27 5l18 27q-1 36 11 64q0 61 21 108v28l5 39l2 20q7 30 7 53l5 35l3 14l7 92l5 34v34l6 29v29l1 28l3 15q0 42 5 68q3 26 9 44l-2 71l6 63l3 15l2 24v29l1 24l3 15q10 39 11 68q2 27 8 49l-3 19l4 38l4 11l4 10l7 53l2 25l3 14l3 15l8 78
l-3 18l2 20l2 19l3 20l3 14l3 15l-1 38l3 15l2 19l4 11l14 78q100 10 118 64l-60 23q-44 0 -75 10q-59 -3 -103 11q-41 2 -70 11q-71 0 -120 12l-11 -2z" />
    <glyph glyph-name="X" unicode="X" horiz-adv-x="1405" 
d="M1047 1726q66 -43 72 -112q-27 -46 -56 -74q-55 -129 -129 -196q-32 -92 -80 -140q-45 -97 -105 -149l-56 102l-16 28l-8 28q-13 13 -16 28q-27 43 -32 84q-13 13 -16 28l-8 28q-10 13 -8 28l-16 19l-8 56q-34 57 -49 102l16 112l-24 47h-24h-112h-24h-41h-24h-32h-24
h-161l-56 -28v-47l96 -47l73 -158l56 -93q29 -51 56 -84l16 -47q26 -41 33 -74q14 -10 16 -19q9 -9 8 -19q9 -9 8 -18q83 -114 112 -224q58 -69 73 -149l-25 -47l-24 -28l-16 -28l-24 -28l-16 -37l-24 -19l-8 -18l-105 -140q-24 -67 -64 -103q-29 -82 -72 -130
q-47 -43 -105 -47l-8 -28l-8 -47l32 -9h24h250q30 73 -33 112l25 28l8 28l16 9q21 49 48 75l8 28l24 28l24 18q15 34 32 56l16 10q58 91 105 139l8 -18q27 -45 40 -75l8 -28q27 -41 32 -84q10 -9 8 -18l8 -28q52 -97 73 -168q-49 -45 -24 -103h24h24h80h113q32 15 64 10h32
q72 15 137 9q8 17 16 19q-15 85 -137 93l-40 102q-35 56 -48 103l-8 19l-40 74l-41 112q-17 32 -24 65q-17 28 -24 56q-67 105 -88 215l32 37l24 47l32 46l24 38q36 80 73 121l8 37l24 28q34 62 48 103l16 18l48 75q47 99 89 158q95 43 152 56q5 34 -8 66h-8h8h-8l-32 9
l-72 19q-66 -12 -113 9q-50 -11 -88 0z" />
    <glyph glyph-name="Y" unicode="Y" horiz-adv-x="1132" 
d="M1009 1807l-18 6l-18 -6q-34 -4 -58 0l-12 -5h-18q-69 -10 -117 -10l-30 -16l6 -15q95 -44 141 -109v-57l-6 -15q-2 -40 -11 -62q-11 -31 -24 -52q-6 -48 -29 -83v-26q-41 -85 -47 -150l-24 -21l-29 11l-18 20l-17 11l-18 10l-35 16l-24 15l-23 16l-18 20l-23 16l-12 15
q-60 30 -94 68q-72 26 -112 72q36 42 24 83l-24 -5q-23 -21 -53 -21l-17 -15l-53 -11q-6 -9 -12 -10l-12 -5q-37 -10 -64 -21q-61 -14 -100 -41q27 -38 94 -16l29 -10l30 -21l17 -5q41 -19 65 -42l29 -5l18 -20q43 -8 70 -31l18 -11l24 -10l17 -11l24 -10q9 -5 11 -10
q35 -11 53 -26l30 -10l11 -11l24 -10q9 -5 12 -11l129 -56l6 -32l-6 -15l-6 -21l-6 -10q6 -51 -12 -88l-11 -36l-12 -37v-31q-14 -39 -18 -67q-21 -56 -17 -98l-6 -11q-7 -26 -18 -46v-16q-13 -49 -12 -83l-5 -10l-6 -21l-18 -57l-6 -46l-12 -21q4 -7 0 -15l-5 -31v-21
l-6 -16l-6 -20l-41 -130q-34 -58 -77 -93l18 -31l29 5h24l23 5l18 6l65 5l23 5l12 5l12 5h17l12 5q55 5 94 16l6 36q-80 48 -71 124l6 16l6 21q25 82 47 129q0 26 6 41l12 37l17 36q-3 25 0 41l12 31l6 21q2 14 0 21l6 20l6 21l6 26l11 16q-3 8 0 15l6 10l12 47l12 41l17 83
l6 31l12 31l6 31q14 29 17 57l6 21l12 10q-1 49 18 88q2 14 0 21l6 16l11 36q8 22 6 41q20 48 18 83l12 42q12 31 17 56l6 26l12 21q3 38 17 67v26l12 21l6 26l6 21l12 15q7 73 29 114q0 20 -12 31h-35q-43 -12 -76 -16z" />
    <glyph glyph-name="Z" unicode="Z" horiz-adv-x="1220" 
d="M175 1801l-1 -16q-14 -27 -19 -51l-18 -36q-10 -46 -25 -72l8 -33q30 5 51 16l27 24l10 4q47 63 107 91l30 -9l40 -4q46 -6 80 -2l20 -2l15 -2q58 -16 99 -15l84 -14l20 -2l20 -8l64 -6l20 -2q27 -14 49 -16l109 -17l-6 -20l-11 -10l-79 -115l-22 -35l-12 -20l-40 -60
l-6 -16l-11 -9l-6 -16l-11 -14q-9 -20 -22 -30l-7 -26q-23 -32 -35 -61l-12 -25q-14 -28 -28 -46q-19 -54 -52 -85q-36 -81 -75 -126l-7 -26l-17 -31l-11 -9q-21 -50 -40 -76l-23 -30q-31 -64 -72 -99l-7 -26l-11 -5q-15 -30 -34 -50l-17 -30l-12 -20l-11 -15l-33 -39
l-11 -21l-11 -9l-11 -15l-7 -21l-11 -9l-6 -16l-10 -4q-19 -44 -40 -71l-7 -21l-7 -20l-5 -10l-12 -15l-11 -15l-12 -31l-6 -10l-50 -70l-8 -36q85 -48 167 -55l30 2l15 4l20 -2l20 -2q31 6 55 0l15 -2l20 -2l15 4l15 -1l81 2l15 -2l20 4l20 3l26 3l25 8l15 -2q33 9 61 -1
q22 15 46 17q25 -1 40 1l26 3l70 4l40 1l82 13l20 -2l15 9l15 -2l15 -1l15 4l15 -2l15 -1q9 5 16 3l71 9q40 91 19 191l-30 3q-31 -71 -63 -111l-15 1q-28 -12 -51 -11l-21 -8l-26 -8l-25 -3l-26 -8l-25 -3l-30 -2l-31 -2q-55 -19 -101 -11l-41 -7l-25 -3l-9 7
q-30 -17 -57 -16q-8 -2 -15 1l-20 -8l-15 7l-66 -10q-25 2 -40 -1q-58 5 -101 -6l18 36l22 25q30 67 73 104l12 31l34 55q9 22 18 36l6 15l6 16q25 31 35 60l11 15q6 8 11 10l13 36l11 15q32 58 62 90l11 20l35 66q18 29 34 50l12 20l16 15l7 26l28 39l6 16l12 20l6 21
q17 22 24 45l6 16q18 38 35 60l5 11l37 92l12 20q21 36 39 55l12 20q15 41 30 67l11 15l7 20l11 15l10 4q7 25 18 41l7 21q17 25 23 40l11 10l6 15l24 51l6 16l6 10q37 66 49 118q-69 25 -124 23q-19 -1 -35 4l-15 1q-47 -7 -80 3l-15 2l-15 1l-19 8l-30 3q-46 17 -79 18
l-20 2l-79 14l-35 3l-30 3l-20 2l-15 2l-100 10q-54 13 -89 9l-25 8q-28 2 -49 11l-16 -4l-19 7q-78 1 -125 13z" />
    <glyph glyph-name="bracketleft" unicode="[" horiz-adv-x="375" 
d="M10 1755q28 -48 25 -100v-60q3 -51 -5 -85v-75q0 -26 -5 -40v-1445q-7 -58 -5 -100h20h25h25h15h40h15l15 5h40q46 -2 80 5q0 31 -15 55h-85h-15h-60v15v25v15v20v15v100v15v100v35v55v20v85v15v60v40v20v20v15v20v90v45v40v70v15v25v15v20v15v100v15v15v50l5 80v25v25
v35v20v20v85v15v60l5 20v20v20v85v15v60l10 10h15h20l15 5h25h15h20h15h100q10 19 10 40l-20 10h-20h-25h-20h-25h-65h-20h-85h-15h-60z" />
    <glyph glyph-name="backslash" unicode="\" horiz-adv-x="579" 
d="M12 1480q6 -8 5 -15q17 -37 20 -65q14 -29 20 -55v-30l10 -40q6 -27 5 -50l10 -15l5 -35l5 -15l5 -10v-15q15 -39 20 -60l5 -35q12 -42 25 -70v-20q19 -35 25 -65l10 -60q28 -67 35 -115l15 -25v-20l10 -10l5 -15l5 -30q20 -43 25 -75q17 -40 25 -70l5 -20q22 -39 30 -70
l40 -80l5 -20l5 -15q15 -25 20 -45l15 -25l10 -15l5 -15l5 -15l5 -15q6 -8 5 -15q39 -50 50 -95q40 -24 70 0q7 53 0 95q-6 5 -5 10q-30 44 -45 80q-14 41 -20 70l-10 10l-5 15l-10 30q-6 5 -5 10q-6 8 -5 15l-20 30l-5 25q-16 37 -20 60q-8 16 -10 30q-17 36 -20 65l-10 15
q-17 38 -20 60l-5 15l-5 15q-36 77 -50 130l-5 20l-5 20q-27 52 -30 100l-10 15v15l-15 65l-5 25l-10 15l-5 30l-5 10v15q-15 55 -15 95q-19 38 -20 75l-5 20q-6 8 -5 15q-13 29 -15 55q-31 64 -35 120q-31 37 -75 35q-32 -32 -30 -65z" />
    <glyph glyph-name="bracketright" unicode="]" horiz-adv-x="377" 
d="M22 1730h70q95 8 165 -15v-220q11 -55 5 -95l5 -1475h-15h-20h-15h-20h-90q-15 -29 -15 -55l15 -5h70l190 -5v25v20v15v20l-5 20v15v155v35v35v20v55v25v15v20v15v100v20v90v30v30v55v20v85v15v60v20v90v35v20v85v15v60v20v15v100v85l-5 25v70v15l-5 15v15v20v15v20v90
q-2 41 25 65v20l-20 10h-20h-25h-20h-25h-65h-20h-85h-15h-60q-12 -29 0 -50z" />
    <glyph glyph-name="asciicircum" unicode="^" horiz-adv-x="560" 
d="M245 1715l-15 -20l-10 -10l-5 -10q-8 -4 -10 -10l-10 -5q-31 -54 -75 -85q-20 -41 -50 -65q-14 -26 -30 -40v-15q-22 -30 -30 -55q33 -22 65 -20l15 15q6 8 15 10q14 26 25 40l15 15l15 15l10 15l15 20l10 5q5 9 10 10q31 46 60 70l10 -15q36 -64 45 -115l10 -5l10 -30
q19 -18 30 -35q107 -51 190 5v30q-51 60 -70 110l-10 5l-10 10l-5 15l-25 25l-5 15l-10 5q-52 77 -75 130q-23 23 -50 30q-22 -40 -55 -60z" />
    <glyph glyph-name="underscore" unicode="_" horiz-adv-x="1184" 
d="M21 -235h20l25 5h15h15h90h20l10 -5h40h100h35h35h15h20h15q41 2 70 -5q61 11 105 5l25 -5h25h25h30h20h90h55h20h20h20h20h85h15h60q23 39 15 75q-49 9 -85 5h-35q-72 -10 -130 5h-40l-25 -5q-67 9 -110 5h-35l-15 -5h-15h-15q-19 6 -40 5h-15h-65l-25 -5l-10 5l-90 -5
h-25l-20 5h-25h-20h-90h-70h-15h-20h-15h-20l-80 5q-16 -46 -5 -85z" />
    <glyph glyph-name="grave" unicode="`" horiz-adv-x="580" 
d="M65 1670l-10 -10l-45 -75l25 -20l30 -15l25 -20l25 -15l65 -35l20 -15l20 -10l60 -35l15 -10q8 -5 10 -10l20 -5q8 -5 10 -10l15 -5l15 -5l10 -5l20 -10l5 -10l20 -5q49 -46 95 -65q46 68 65 115l-15 10q-32 17 -55 25q-69 48 -115 70l-20 10l-10 5l-20 10l-10 10l-75 40
q-21 16 -30 30l-20 5l-15 10q-20 10 -20 15l-10 5l-90 50z" />
    <glyph glyph-name="a" unicode="a" horiz-adv-x="1744" 
d="M857 1715l-16 -32l-20 -14l-31 -59l-13 -16l-12 -16l-54 -84l-16 -33l-38 -86l-12 -16q8 -6 5 -12l-12 -15q-19 -62 -50 -103l-14 -21q-18 -40 -18 -72l-12 -15l-12 -16l-15 -27l-25 -36q-6 -53 -23 -89l-13 -21l-14 -21l-13 -21l-15 -27l-12 -16l-12 -15l-18 -38
q-36 -85 -74 -134l5 -12q-44 -57 -58 -101l-42 -69l-18 -38q-10 -8 -18 -9q-3 -19 -17 -32l-9 -39l-22 -20l-16 -32l-12 -16l-11 -44q-50 -44 -70 -83l22 -8l40 -5q43 -15 85 -16l15 -8l63 -8l158 -19l22 20q27 43 -147 64l5 22l35 138l11 10l4 17l39 121l12 15l5 23l12 15
l4 17l44 108l35 8l39 -5l33 1l34 8l27 8l118 14l34 7l41 1q14 5 25 2l27 8l23 -3l68 9l17 4l159 14l8 -29q66 -94 69 -180q7 -10 4 -17q13 -8 13 -13l4 -18q19 -22 12 -47q50 -63 51 -121l15 -7l4 -18l36 -50q13 -46 37 -79q-27 -60 -75 -104q-13 -32 -14 -56l46 -11
q45 23 81 30q154 80 318 97l16 33l-24 3q-73 6 -125 21l4 16q-34 49 -40 97l-11 24l-18 25q-13 46 -37 79l-18 59q-7 10 -3 17l-13 13l-22 43q-24 54 -44 85q-15 66 -38 108l-14 41l-5 12l4 17q-38 46 -42 91l-14 42q-32 48 -36 84l-14 41q-32 48 -36 85l-10 24
q-39 65 -45 114l-12 18q-49 76 -53 144l-13 13l-2 23q-15 25 -13 47q-49 69 -46 143q-18 32 -17 59q-19 18 -44 22zM821 1412l9 -30l8 -35l18 -25l-5 -17l15 -7q15 -45 31 -72l26 -89q11 -10 12 -19l11 -18l1 -29q14 -5 13 -13l21 -14l-4 -17l20 -19q8 -37 8 -64
q32 -34 40 -68l-25 -2l-83 -7l-32 4l-26 -8h-139q-40 -15 -77 -14q-74 -23 -144 -22q11 43 26 71l14 21l5 22l14 21q10 53 30 88q-1 34 22 54l4 17l12 16l4 16l4 17l6 22l58 135q37 73 80 122z" />
    <glyph glyph-name="b" unicode="b" horiz-adv-x="1206" 
d="M10 1724q39 -35 77 -13l-4 -41l2 -48l21 -104l-8 -17q7 -57 4 -96l4 -25q-1 -46 5 -78l-3 -29q7 -7 5 -13l3 -30l-7 -11l7 -132l2 -43l10 -24l-10 -41q7 -10 5 -19l-8 -17q24 -64 19 -121q11 -56 4 -96q8 -48 -1 -84q5 -16 3 -30q6 -50 5 -84l3 -30l1 -120l-8 -23
q2 -33 13 -61l-7 -18l2 -36l4 -30l2 -108q-35 -37 -82 -47l15 -43l17 -1l42 2q11 6 19 5q46 17 84 10l26 16q15 64 4 113l17 -1l12 -7l11 -7l12 -7l23 -8l22 -14l47 -16l11 -7q33 -12 52 -23l42 -3q756 -40 625 651q-223 526 -818 155q-30 -45 -66 -66l-10 19l2 23l2 18
l1 18q-12 33 -6 60l-8 49l2 24l2 18q-11 48 -5 84q-4 22 -2 42q-10 16 -10 30l-4 19l2 24l-2 48l-5 12l2 18l-4 96l-3 24l-6 72q-6 9 -4 19l1 17q-10 7 -11 13l3 30l-11 13l2 24l-4 18l-3 102l-5 12l3 42q-4 19 -2 36q-30 17 -53 17q-99 -40 -124 -121zM922 663
q81 -195 9 -372q-44 -154 -193 -156q-210 -51 -380 99q-47 10 -81 25l-3 42l3 36l-9 102q14 37 12 65l2 24q-10 47 2 83q-15 72 -7 127l12 4l12 5q180 156 383 200q196 -71 238 -284z" />
    <glyph glyph-name="c" unicode="c" horiz-adv-x="1534" 
d="M677 1642q-35 -17 -65 -23q-899 -496 -452 -1174q540 -541 1237 -195l11 24q67 65 97 116q21 111 -108 94l-10 -16l-22 -23l-11 -16l-10 -23l-119 -163q-452 -151 -656 124q-312 392 -118 871q90 185 301 256q243 109 419 -39q-58 -115 -10 -217q73 -52 161 -47
q234 215 -290 451h-33q-142 22 -236 15z" />
    <glyph glyph-name="d" unicode="d" horiz-adv-x="1490" 
d="M127 1657q-22 -27 -26 -54q-82 -3 -132 -43l20 -16q63 21 118 22v-118l-6 -11v-326l6 -16v-75q23 -42 14 -80v-37v-337l-7 -21l-7 -54l-6 -37v-75l-7 -38v-123l-6 -58l6 -11q-12 -43 -6 -80q-135 0 -139 -48q269 -30 488 42l47 6q9 6 20 5l39 5l53 11q12 4 13 11
q54 12 93 32q93 24 151 59q680 186 601 631v16q-20 42 -20 80l-6 10l-27 49l-6 21l-7 27q-24 34 -33 58l-7 11q-19 50 -39 80l-7 22l-13 21l-79 134q-65 37 -93 80q-43 10 -72 21l-13 11q-35 14 -60 37q-87 29 -138 59l-20 6h-27l-13 5h-20q-37 13 -79 16l-20 11h-33h-19
l-47 5l-19 5h-33h-20l-14 6q-101 7 -165 5q-26 55 -118 43q-33 -10 -60 -5zM385 1571l26 -5l13 -6q40 2 66 -16q48 5 80 -10q114 -22 184 -59q123 -27 205 -86l13 -37q58 -91 66 -171l13 -11v-16q20 -43 33 -112l7 -86q12 -52 7 -91q15 -103 -20 -187q-19 -205 -139 -358
l-20 -11q-43 -36 -79 -53l-13 -6q-62 -19 -106 -26l-13 -11l-26 -5l-20 -6q-11 -6 -20 -5q-25 -15 -53 -16l-13 -11l-53 -10q-60 -22 -105 -27l-47 -11l-13 -5l-46 -6l-40 -5v16v27v16v21v16v107v118v16v21l7 11q-11 80 7 139q-6 20 0 37v33v32l-7 26v107l-7 27v27v26l-6 75
q4 21 0 38l6 26v33v26v75v27v69v22v16q8 40 7 69q17 47 7 86q23 34 19 69l60 11h20z" />
    <glyph glyph-name="e" unicode="e" horiz-adv-x="1421" 
d="M808 1500h-28h-120l-19 -15h-28q-102 -49 -176 -69q-334 -250 -427 -572q52 -584 641 -785h27h28q86 -16 149 -8l232 61q254 142 334 351q-58 65 -130 99l-56 -15q-50 -115 -9 -214l-9 -53l-56 -38l-139 -61q-225 -95 -418 0q-228 39 -232 251q-11 8 -9 16v22l-10 54
q-33 105 -18 206l9 53l28 15l19 8l269 31l102 7h28h120l56 8l47 15l37 8h28q94 15 157 15l56 15l74 38q15 84 0 145q-48 342 -417 420h-10h10h-10h-18h-37q-36 -11 -75 -8zM910 1241q106 -133 112 -282q-78 -5 -130 -23h-47h-46q-24 -8 -46 -8h-28l-353 -23q0 64 28 115
q37 264 297 358q184 0 213 -137z" />
    <glyph glyph-name="f" unicode="f" horiz-adv-x="1036" 
d="M513 1681l-89 -15q-54 -26 -97 -36q-378 -339 -126 -694q12 -35 15 -67h-30l-22 -5h-148q-12 -42 -8 -73q125 -28 230 -10l8 -26q13 -48 15 -83v-41q9 -8 7 -16v-15q24 -48 22 -88q9 -5 8 -10l15 -68l7 -15v-21q15 -42 15 -72l22 -73v-176q-36 -46 -89 -72l15 -36h81
l30 5l22 6l23 5h22q41 14 89 15q21 13 44 15q69 1 119 11l8 25q-110 30 -149 99v31l-7 31v72q-9 42 -8 68l-7 20l-7 83l-8 26v21v20v26q2 32 -7 57v26v21v20l-8 16v15l-7 83l22 5h30h22h30h133q64 -41 112 -62q7 10 14 11l8 20v16v21v88v15v62q-70 18 -67 -67h-44h-75
l-14 -5h-23h-29h-134l-15 36q-3 42 -15 72q-14 31 -14 57q-9 5 -8 11v15q-19 25 -22 42v15q-11 20 -8 41l-7 31l-15 26v16v52v20q-1 31 8 57v42v15v16v15q14 37 14 62q64 120 245 88q149 -2 245 -57q13 -41 8 -72q-182 12 -127 -98q107 -55 208 0q128 256 -423 300
q-28 -9 -59 -11z" />
    <glyph glyph-name="g" unicode="g" horiz-adv-x="1211" 
d="M861 1331q-294 204 -586 6q-191 -240 -60 -433q119 -187 328 -175q12 -16 11 -33l-5 -16q2 -58 -11 -99q-293 -39 -460 -246q-68 -317 224 -465l17 5q59 -27 115 -27q413 -82 586 262q44 200 -88 329q-135 144 -323 137v27l6 11q-2 64 21 115q222 -1 351 153
q86 223 -82 406q-8 47 16 82q67 148 197 131q-53 -160 66 -181q128 204 -131 230q-137 -88 -192 -219zM888 1079q3 -185 -126 -290q-352 -88 -350 170q-65 319 219 416q250 -37 257 -296zM905 203q-1 -176 -121 -278q-121 -64 -246 -39q-182 2 -197 213q-34 136 11 247
q51 181 241 186q278 23 312 -329z" />
    <glyph glyph-name="h" unicode="h" horiz-adv-x="1105" 
d="M58 1650l-10 -100l-8 -15l-19 -201q6 -50 -1 -84l3 -32q7 -8 5 -17l-2 -16q8 -6 6 -11l4 -159q7 -42 6 -70l-4 -111q11 -44 6 -75q7 -6 5 -11l3 -37l-2 -16q15 -60 10 -102l-3 -32q8 -62 -10 -105l9 -43l-6 -122q7 -21 3 -43l5 -11l1 -53q8 -50 -1 -85q-42 -2 -48 -33
l18 -12l25 -2l26 -2l25 -2l108 -9l19 -2l76 -6q36 59 -45 62l-5 17l-4 101l4 37l3 31q-8 53 2 91l2 15q-9 31 -1 64l-4 22l2 21l9 26l-6 74l2 22l-5 16l9 89l4 43q-5 19 -3 37q220 98 434 71l35 -40l5 -11l12 -6l5 -17l5 -11l12 -11l46 -126l3 -32q4 -50 -2 -85q5 -14 4 -27
v-69q-6 -40 0 -69l-5 -53l4 -27l-5 -47q3 -14 -2 -21q8 -54 -2 -95l-3 -32q7 -6 5 -11l3 -38l-10 -104q-68 1 -81 -42l31 -8l19 -1l26 -2l25 -2l25 -2l26 -2l107 -9l19 -2l76 -6l17 36q-49 18 -88 23l4 42l-2 37q-8 23 -3 43q-12 35 -6 64l-4 27q5 39 0 69l2 26l2 22
q-6 9 -5 16l-4 16l7 15l-11 12l1 16q-5 30 -1 58q-12 28 -7 54l-5 22l2 21q-7 6 -5 11l2 16q-15 51 -11 91q-19 50 -17 91q-10 33 -7 59l-53 116q-204 145 -428 67q-117 -13 -197 -64l-12 6l2 27l-4 27l3 26l1 16q-12 54 -3 96q-15 87 -12 144l2 26l-4 22q5 55 2 90l2 16
l1 16l16 163l26 14q85 3 137 31l-10 22l-19 7l-49 15l-19 1l-19 2q-59 13 -108 9l-57 10q-51 -6 -89 -4z" />
    <glyph glyph-name="i" unicode="i" horiz-adv-x="628" 
d="M37 1435q177 -210 355 -13q20 145 -182 159q-145 -46 -173 -146zM210 1104q-71 -34 -145 -45q10 -61 118 -12v-19q-24 -73 -18 -128v-286l9 -25v-344l-9 -44q-17 -99 -10 -159q-125 -41 -145 -95q16 -7 18 -13h118h28h27h109q191 -10 318 13l-9 38q-118 26 -191 76
q2 85 -9 140l-9 38v38v32v89v70v32v19v25v19v128v25v19v115v25v25q-11 36 -9 70q-15 26 -9 45q-22 57 -18 102q-37 14 -64 12q-56 -21 -100 -25z" />
    <glyph glyph-name="j" unicode="j" horiz-adv-x="973" 
d="M630 1706q-24 -219 169 -191q137 125 -29 242h-17h-73zM804 1363h-17q-22 -9 -45 -6h-22h-17h-40h-17h-16q-52 2 -91 -5l12 -40q61 -25 95 -62v-39q6 -21 6 -40v-135l6 -17l5 -338l12 -28v-236l5 -17v-68q17 -75 12 -130l5 -16v-181l-5 -39q-112 -170 -305 -107l-5 12
q-10 5 -12 11q-9 8 -11 17q-10 5 -11 11q-23 20 -34 40q-21 38 -45 61q-71 149 11 231l-11 39h-22l-17 -5l-23 -6l-17 -11h-22q-39 -18 -74 -17q-7 -7 -16 -6l-68 -22q1 -37 39 -34q53 -294 299 -399q53 -3 90 5q259 10 355 231l11 33l11 91v16v17v17q6 27 6 45v45v17v17v17
v17l6 39q0 36 5 62l6 28v34l6 34l5 17v17v17l6 101v17l11 45v23v28v22v23v96v95v23v45v17v39v17q6 27 6 45q35 66 90 90l11 34q-51 17 -90 11q-45 -11 -79 -5z" />
    <glyph glyph-name="k" unicode="k" horiz-adv-x="982" 
d="M38 1582q-8 -66 -5 -113v-79l5 -17v-74l6 -22v-96l6 -23v-34q-3 -67 5 -113q-1 -65 6 -113l5 -28l12 -181q-1 -18 0 -51q8 -21 5 -45l6 -11v-141l6 -17v-29q-3 -45 5 -79v-90q17 -68 12 -124l-6 -12l-11 -5q-50 -39 -85 -57l11 -28h23h56h23h23h17h22h102l5 23v22
q-7 22 -5 45q-16 77 -11 130q-19 102 -17 164q23 19 45 28l17 17l11 6l11 6l6 11l11 6q49 29 79 56l12 -11l50 -108l17 -28l17 -17q21 -28 29 -51q10 -5 11 -11l11 -17l17 -11q18 -32 40 -51l5 -17l12 -6l5 -11l51 -79q-27 -20 -17 -45q156 -17 283 39q-17 49 -85 40l-17 23
l-6 11q-21 20 -34 39l-73 79l-40 68q-41 35 -56 74q-88 75 -124 163q36 28 67 40l6 11l34 23l51 28q5 10 11 11q23 21 45 29q38 38 79 56q57 56 119 74q11 21 11 45l-34 17h-22h-62h-96q-62 2 -108 -12q-6 -44 46 -56l-23 -11l-17 -17l-17 -12l-11 -11l-12 -5
q-28 -19 -45 -34l-17 -6l-17 -17l-22 -6l-17 -22q-9 -5 -11 -12l-17 -5q-54 -46 -91 -68l-11 -17l-11 -11l-12 -6l-90 -85v23v17v17v56q-15 51 -11 91l-6 39l-6 113v17v175q-5 15 -5 29l-6 11q3 108 -11 175l-6 23v62v22v17v17v17l-6 40v22v102q47 41 102 51v39
q-10 6 -11 12q-35 1 -62 11h-23h-96h-17h-68q17 -82 17 -124z" />
    <glyph glyph-name="l" unicode="l" horiz-adv-x="767" 
d="M161 1599l-1 -56q4 -7 3 -13l-2 -87q4 -58 -3 -100l-4 -162q2 -16 -1 -25q3 -35 -2 -87l3 -44l-1 -25q-5 -70 -3 -112q-7 -87 -9 -181q-5 -73 -7 -124l-10 -98l1 -88l-4 -31l-5 -193q0 -50 -7 -87l-6 -236q-46 -27 -85 -25l-8 -30l15 -9l11 -1l69 -10l11 -2l118 -17
l23 -3l23 -4l19 -9q41 -4 72 -23l15 -2l11 -1l76 -12l15 -2l12 -1l68 -10l50 -8l15 -2l65 -9l11 -2l46 -6l8 17q1 39 -2 69v25l1 19l1 44l1 18v19q3 57 -1 100l-19 -9q-21 -133 -67 -216l-8 -5l-23 -9l-38 5l-8 -5l-46 7l-26 10l-42 12l-11 2l-12 1l-22 4l-16 2l-19 3l-15 2
l-19 9l-64 16l-31 4l-26 10l-22 22v19l-3 19v19l1 25l1 18v25q10 96 8 155l1 44q1 38 6 68l1 25q1 51 6 86v19l1 25l1 19l7 124v31q3 10 1 19q5 29 5 49l1 25l3 106l5 43l6 80v31l5 12v25l12 155l5 31v25l5 24v25l5 24l1 31l4 25l1 31q1 79 11 130l1 18v19l2 81q46 44 86 50
l4 25l-15 14l-22 10l-19 3l-16 2l-68 10l-15 2l-16 2l-15 2l-64 10l-12 1l-45 7q-20 -43 46 -107z" />
    <glyph glyph-name="m" unicode="m" horiz-adv-x="2055" 
d="M656 1504q-22 -24 -50 -38q-21 -25 -50 -37l-16 -15l-17 -8l-82 -89q-12 28 -9 60q-26 67 -25 119q-225 44 -397 -52q31 -73 149 -45l8 -30v-52q10 -11 9 -23v-45q14 -77 16 -127v-22q22 -81 17 -142q11 -56 25 -90v-187q14 -88 8 -149v-98l-33 -172q-19 -98 -100 -142
l-16 -44q192 -30 331 0l8 37l-16 30v37q1 57 -9 97v30v135v105v59v23v30v22q15 88 9 150v22v97v45l8 23v52l8 135q111 121 249 164q202 8 198 -441l9 -314q-4 -57 8 -97l8 -68v-321q-26 -91 -16 -172q127 -41 240 0v45v45l-25 119v53l-8 119v30l-9 38v127l-8 30v37v82l-8 23
v37q-10 12 -9 22v30v127v23v90q98 130 241 187q160 25 273 -53v-22q21 -29 25 -60l8 -67v-45l8 -15v-673q-20 -40 -25 -75q-64 -58 -132 -82v-37l33 -15h91h41h108h33h141h25h99q18 26 25 59q-129 78 -149 210v22v23v97v22v23v22q2 43 -8 75v22v23q0 43 -9 74q-8 44 -8 75
v23q-10 12 -8 22q-8 43 -8 75v22q-10 12 -9 23l-25 127l-57 164q-388 183 -729 -97l-8 67q-35 57 -33 113q-40 80 -50 134q-100 51 -199 45z" />
    <glyph glyph-name="n" unicode="n" horiz-adv-x="1305" 
d="M159 1353q-70 -53 -139 -68l3 -40q52 -17 77 -62l3 -32l4 -32l1 -56l4 -24q-4 -91 12 -152l-9 -39l2 -48l-3 -32q-5 -47 5 -88q-11 -43 -7 -79l-3 -31l-2 -32q2 -63 9 -104q-17 -124 -6 -222l-9 -23l4 -24l-8 -23l5 -17l-8 -23q0 -73 -11 -126l-14 -6l-30 -53l-29 -46
l15 -41l40 13l19 6l14 15l46 20q34 6 66 26l20 14q52 29 98 31q62 53 119 61q-18 63 -54 100l-10 104l-14 57l2 24q-7 11 -4 24l-5 24l-7 64l-3 32l-7 65l3 31l-5 24l1 80q-4 41 0 71q-7 9 -5 17l2 23q-6 142 15 238q152 199 333 265l57 -5q167 -194 150 -459l12 -9l5 -80
l7 -64q14 -20 15 -49l-9 -31q101 -260 -35 -394l1 -64l18 -9l64 2l20 6l18 -1l19 -2l26 6l32 5l51 3l161 26l5 55q-77 23 -85 119q-2 86 6 142q-21 61 -9 113q-22 48 -17 96l-11 17l3 32q-30 106 -35 186l-10 24l-12 9l2 24l-11 17l-4 32q-41 64 -52 124q-53 46 -80 102
l-19 2q-56 54 -115 58q-240 119 -507 -218l5 134q-2 140 21 237l-36 19q-89 -89 -181 -111z" />
    <glyph glyph-name="o" unicode="o" horiz-adv-x="1515" 
d="M646 1512q-46 -17 -86 -16q-51 -26 -94 -23l-16 -8q-74 -36 -125 -47q-315 -266 -298 -579q28 -595 658 -697l117 -39q699 56 713 814q-97 559 -807 603q-29 -11 -62 -8zM1053 1285q50 -25 78 -55l47 -102q25 -344 -149 -595q-12 -44 -31 -78q-211 -307 -470 -149
q-264 190 -242 564q97 451 508 564q170 -27 259 -149z" />
    <glyph glyph-name="p" unicode="p" horiz-adv-x="1086" 
d="M41 1568l7 -135l-2 -46l9 -84q4 -31 -1 -56l2 -20q11 -76 6 -125q14 -77 6 -130l2 -20q15 -56 15 -94l1 -75l5 -45l-3 -30q1 -24 3 -40l6 -55l-4 -25q5 -14 3 -25l2 -25l-4 -25l3 -25l2 -25q-4 -69 5 -110l-4 -26l7 -69l8 -25l-4 -15l7 -10l-4 -25q10 -26 11 -49l-5 -11
l9 -94q-49 -62 -119 -90l2 -25l19 -8l85 7l18 1l30 2l18 2l24 2l18 1l121 10l8 36q-47 14 -59 50q-12 67 -5 115q-5 15 -3 30l-3 34l4 16l-1 15l-2 15l-3 35l1 55l-4 40l-10 99q6 30 1 51l-1 20l-2 19l4 21l-7 65l5 15l-2 20q2 78 -6 125q39 3 67 0q132 19 217 12l18 7l24 2
q34 16 65 20l17 6l30 3q79 31 130 40q28 26 57 35l11 11l12 6q23 19 46 29q31 41 73 61q1 25 26 42q5 25 20 42l9 35l4 86q-14 46 -14 79q-212 540 -832 260l-23 109l-30 -2q-163 -59 -146 -122zM464 1591l72 6q79 7 134 0q181 -136 170 -322q13 -219 -200 -312
q-178 -110 -379 -106l-1 15l-1 15l-16 99l-3 30l-1 15l-2 15q6 20 2 40l-5 60l4 21l-4 34q6 20 2 41q9 48 5 80q-19 108 -5 181l11 6l12 6l5 10l18 1q5 7 11 6q6 7 12 6q78 40 141 52z" />
    <glyph glyph-name="q" unicode="q" horiz-adv-x="1538" 
d="M576 1684q-70 -3 -116 -14l-13 -14q-37 -8 -64 -19l-19 -14l-20 -10l-25 -9q-40 -40 -84 -62l-26 -33l-6 -9l-71 -81v-14l-32 -38q-12 -38 -32 -61q4 -7 0 -14l-7 -19l-6 -19l-6 -19q-2 -27 -13 -47q-7 -22 -7 -38l-13 -33l7 -19l-7 -14q-1 -24 -6 -38l6 -14l-6 -15
l6 -14l-6 -14q4 -48 0 -80q15 -23 6 -43l13 -5l7 -109q142 -475 745 -520l26 10h19l20 -5q6 8 12 9h52l45 5q81 32 148 38q167 -201 340 -118q95 78 45 160h-38q-62 -92 -155 -23q-48 46 -64 90l7 14l19 14l6 14l39 33l26 33q25 44 57 67q0 25 13 47l7 9q5 35 19 57
q4 52 26 90v14v14q7 72 -7 119q8 38 7 66v19q-8 25 -7 47l-6 66l-13 10v19v14q-30 53 -32 95q-25 19 -32 42l-39 47q-29 31 -38 57q-43 25 -58 62q-30 18 -39 38l-19 4q-34 29 -64 43q-20 17 -39 24l-6 9l-20 9l-6 10q-68 27 -109 52l-142 28q-32 -2 -51 0h-19l-13 -4
q-52 12 -97 9zM698 1590l32 -10l13 -19q7 -4 6 -9q30 -7 45 -19l7 -19q36 -29 45 -57l19 -9v-14q22 -12 32 -29l13 -19q8 -4 6 -9l13 -5q22 -41 52 -66l6 -14l13 -33l6 -10l20 -76l6 -9l26 -76v-33q15 -38 13 -66q32 -103 12 -180q12 -64 -12 -113q7 -27 0 -48
q-273 51 -360 -146q56 -25 83 19h45q162 -94 90 -147q-118 -117 -386 0v5v-5v5q-52 30 -83 57l-45 70q-28 19 -45 38l-19 43l-13 9l-7 15l-25 37v15q-53 58 -58 118q-10 6 -13 14v24l-13 14v19q-8 6 -6 14v14l-7 14v19q-16 26 -19 48q8 336 238 586l13 10l45 19q42 39 96 56
q72 -10 116 -42z" />
    <glyph glyph-name="r" unicode="r" horiz-adv-x="1263" 
d="M979 -2q-11 -66 -74 -86v-21l18 -11h324l12 32l-12 11l-7 16q-64 41 -87 90l-24 22l-13 32q-7 5 -6 10q-8 6 -6 11q-2 1 -4 3l-130 -94q4 -8 9 -15zM1004 307q-18 41 -25 69l-12 21l-12 21q-24 43 -32 75l-12 16l-12 16l-19 53l-6 22q-11 5 -13 10l-6 16l-6 16
q-21 43 -25 75q-43 55 -50 112l13 16q543 22 366 458l-12 6l-6 10l-13 38q-32 33 -49 69l-19 11q-37 18 -56 37l-50 32l-6 11q-60 20 -99 53q-34 5 -56 21q-52 9 -87 22l-87 10l-25 11l-13 5h-18l-75 11q-49 2 -87 11l-18 10q-50 -2 -87 6l-19 5h-68q-30 5 -50 5
q-58 11 -100 11q-18 -13 -24 -27l6 -21q47 -32 68 -69v-128l-6 -32v-166l-6 -21v-96l6 -26q-9 -32 -6 -59v-171l-6 -10v-59q5 -27 0 -85q3 -63 0 -107v-283l-7 -15q4 -30 0 -59l7 -43q-10 -41 0 -80q-20 -77 -75 -117v-21q47 -8 81 -5q134 17 217 10q50 14 56 53
q-48 21 -81 43q-13 33 -18 59v64l-6 85l6 106v22q-3 55 6 90v22l6 21v53q8 21 6 43l7 11v101h24q61 13 106 11h25q46 15 81 16q56 12 105 10l7 -26q28 -50 37 -91l12 -27q15 -53 31 -85q10 -46 31 -80l7 -37q16 -26 18 -43q41 -59 50 -112l12 -21q2 -3 3 -5q19 -30 22 -59
q10 -8 13 -16l8 -8l128 88zM886 205l6 -16l13 -42l6 -22l12 -10q23 -62 47 -102l130 94q-4 4 -3 8q-31 45 -43 80l-6 16l-38 85l-128 -88zM488 1559q278 -4 324 -213q80 -246 -94 -410l-24 -27q-37 -12 -63 -16q-172 -62 -335 -48v32l6 27v58q8 21 6 43v544l-6 48
q107 -2 186 -38z" />
    <glyph glyph-name="s" unicode="s" horiz-adv-x="1110" 
d="M93 1399q-11 -172 58 -306q11 -6 12 -11l12 -6l23 -34q41 -26 63 -51l128 -62q222 -37 365 -165q116 -287 12 -549q-106 -190 -308 -125q-238 17 -295 215q-34 74 -23 142l29 11q-10 -73 40 -119q178 41 35 153q-126 40 -209 -45q-25 -88 -11 -164q224 -304 597 -278
q551 9 446 516l-23 45v17l-12 17l-35 74q-7 5 -5 11l-12 17q-57 60 -81 102l-23 6q-58 53 -116 73l-29 6l-23 6l-18 11h-17l-23 6l-145 39l-110 80q-201 377 40 555q234 119 458 -216q2 -87 12 -141l29 -6l11 23q-15 177 87 294v29q-43 -6 -58 -40q-189 184 -429 159
q-345 -11 -452 -289z" />
    <glyph glyph-name="t" unicode="t" horiz-adv-x="1006" 
d="M690 1698l-25 -8q-38 3 -67 -6l-17 3l-18 -2l-130 5l-67 -12l-13 -4q-100 9 -175 -17l11 -37q163 -126 87 -348l-18 -3l-23 5l-24 -2l-18 -3l-23 4l-42 2l-12 -4l-94 5l-12 -34q18 -35 18 -68l23 -4q42 -7 70 -7q84 11 152 -9l6 -37l-7 -40l-1 -106l-7 -41l3 -12
l-27 -221l2 -24l-5 -64q2 -12 -2 -42l4 -48q6 -7 3 -12l-3 -18q12 -56 7 -96q10 -25 9 -49q12 -25 9 -49l11 -43q21 -46 27 -82q52 -71 118 -104q96 -47 181 -50q503 100 328 613l-11 8l-9 13q-29 33 -51 51q-99 -3 -107 -106q27 -128 116 -44l11 -8q-46 -393 -320 -466
q-66 14 -110 49l-37 90l3 17l-3 18l-4 13q3 56 -1 95l4 23l3 17q3 69 15 117q-1 48 8 81l-1 24l5 29l3 17q6 29 14 45l20 115l3 18l8 46l3 17l13 75q14 117 46 193l19 3l29 1l18 -3l48 3l17 -3q59 6 101 0q26 28 39 53l1 41l-58 4l-13 -3l-17 3l-13 -4q-89 3 -146 14
q5 330 179 372q0 35 -34 41q-16 -3 -30 0z" />
    <glyph glyph-name="u" unicode="u" horiz-adv-x="1578" 
d="M1079 1596l8 -31l85 -168v-222q7 -119 -17 -206q0 -104 -25 -176q37 -529 -407 -597q-104 30 -170 77v23l-17 15l-42 138l-9 53v39v45v39v30q-12 61 -8 107l-9 16v38q-10 11 -8 23v30v54l-9 138l-8 22v92v130q12 40 8 69q131 2 161 69l-51 23h-25h-110h-26h-102
q-166 15 -288 -23l8 -38q118 -54 136 -276l9 -130q-21 -387 161 -688q80 -47 119 -92l25 -7l17 -8l17 -15q114 -31 187 -69q322 26 568 237l9 23l42 61l59 92v31l17 53l26 77q3 65 17 107l8 30v23l17 153l9 23v23q1 38 8 61q-2 72 9 122q12 118 8 192l9 23q83 10 76 76
q-270 -8 -484 84z" />
    <glyph glyph-name="v" unicode="v" horiz-adv-x="1465" 
d="M985 1595q62 -114 51 -236l-7 -45l-8 -52l-14 -44l-8 -45l-7 -37l-14 -51l-8 -37l-22 -104l-14 -44l-22 -82l-7 -37l-7 -22l-8 -52l-22 -81v-22l-7 -52l-7 -30l-15 -59l-7 -22l-29 -89q-13 -64 -44 -104v22q-59 82 -72 156q-12 24 -15 44q-19 15 -29 30l-22 52
q-22 41 -29 74q-39 57 -51 103l-7 37l-15 37l-7 37l-15 23l-7 22l-7 29l-15 15q-10 30 -21 52l-8 22l-7 37q-29 68 -36 119q-31 53 -37 103q9 73 73 97q10 28 7 59q-19 1 -29 7h-102h-22h-21q-11 -9 -22 -7h-51l-160 -8l-22 -51q159 -40 218 -171l29 -44l51 -141l22 -37
l15 -15v-22q13 -7 14 -15l58 -133l22 -37l15 -37q13 -19 14 -37l15 -37l44 -81l7 -30q9 -7 7 -15q39 -62 51 -118l7 -22l15 -15l14 -30l8 -22l7 -15q49 -94 65 -163l15 -7q48 -73 95 -111q26 12 43 30l29 51q10 30 22 52l15 45l14 51l15 52q17 28 22 59l14 23q22 93 58 155
l15 37l14 59l8 23l14 51l8 23l7 22l7 15l7 14q16 55 37 89q6 40 29 74v22l14 30l8 22q20 77 43 126q10 39 22 59q35 117 80 185q93 27 102 97l-65 44q-94 16 -153 37q-108 22 -175 67h-22l-51 7z" />
    <glyph glyph-name="w" unicode="w" horiz-adv-x="1677" 
d="M854 1609q-31 -81 -42 -141q-23 -63 -41 -97l-7 -44l-48 -132l-7 -26q-21 -43 -28 -80l-14 -26l-7 -27l-14 -17l-7 -27l-6 -26l-7 -26l-7 -27q-42 -99 -56 -176l-7 53q-6 23 -6 44l-7 53v53q-9 28 -7 52q-20 67 -14 124l-14 26l-21 150l-7 26l-7 27l-27 176q30 79 83 114
q-3 45 -21 71l-41 -26l-35 -18h-21q-54 -35 -104 -35l-13 -18q-41 -16 -76 -18q-95 -33 -160 -35q-33 -21 -48 -44q12 -65 55 -106l7 -52q25 -67 35 -124v-26q8 -13 7 -27l14 -26l7 -44l41 -141l14 -35l7 -53q11 -25 14 -44q8 -12 7 -27l48 -176v-26q36 -118 35 -212
q38 -93 41 -176q33 -74 42 -150q38 -73 96 -61l7 17l14 18q17 70 42 123v27l13 17l35 141l7 18q19 100 41 159l21 52l14 53l14 62l7 26l7 18q29 141 69 220l7 27q11 81 27 141q13 102 42 167q10 157 69 273l14 -70q23 -55 28 -97q25 -90 34 -150l7 -44q7 -23 7 -44
q7 -23 7 -44q11 -25 14 -44l14 -44l-7 -18l34 -167l14 -44l7 -44l7 -53q30 -81 35 -150l13 -26v-36l14 -26v-27q9 -14 7 -26q8 -12 7 -26l14 -27l7 -44v-26q18 -36 21 -71q37 -76 48 -141q26 -17 55 -17l14 44v26q25 81 35 141l14 44l13 44l14 53l14 44l35 123l13 27
q21 102 42 158q10 46 21 71q4 46 20 79q5 129 56 220h55l14 71l-14 9q-90 174 -221 264q-152 130 -69 -79q26 -69 27 -133l-14 -35v-35l-13 -44l-7 -35l-14 -36l-7 -35l-14 -44q-12 -53 -28 -88q-1 -23 -6 -35l-7 -35l-7 -62l-21 -62q-12 -100 -35 -158l-13 53l-7 52
q-16 30 -21 62l-7 18l-62 202v27l-7 35l-7 18l-28 149v36l-14 35v35l-13 35v44l-21 27v26l-7 18l-28 141q-41 95 -55 167q-28 13 -55 9q-10 -86 -28 -141z" />
    <glyph glyph-name="x" unicode="x" horiz-adv-x="1167" 
d="M870 1652q54 -42 59 -109q-22 -46 -46 -73q-45 -125 -107 -190q-26 -89 -66 -137q-38 -94 -87 -145l-47 100l-13 27l-7 27q-10 13 -13 28q-23 41 -27 81q-10 13 -13 28l-7 27q-8 13 -6 27l-14 18l-6 55q-28 56 -40 99l13 109l-20 46h-20h-93h-20h-33h-20h-27h-20h-133
l-47 -28v-45l80 -45l60 -155l47 -90q24 -49 46 -82l14 -45q21 -40 26 -73q12 -9 14 -18q7 -9 6 -18q8 -9 7 -18q69 -111 93 -218q48 -67 60 -145l-20 -46l-20 -27l-13 -27l-20 -27l-14 -37l-20 -18l-6 -18l-87 -136q-20 -65 -53 -100q-24 -80 -60 -127q-39 -42 -87 -45
l-6 -28l-7 -45l27 -9h20h206q25 71 -26 109l20 27l6 27l13 9q18 48 40 73l7 27l20 27l20 19q12 32 27 54l13 9q48 89 87 136l6 -18q23 -43 34 -72l6 -28q23 -40 27 -81q8 -9 7 -19l6 -27q43 -94 60 -163q-40 -44 -20 -100h20h20h67h93q27 15 53 9h27q60 15 113 9q7 17 14 18
q-12 84 -114 91l-33 100q-29 54 -40 100l-6 18l-34 73l-33 108q-15 31 -20 64q-15 27 -20 54q-56 102 -73 209l26 36l20 46l27 45l20 36q29 78 60 118l7 37l20 27q27 60 39 100l14 18l40 72q38 97 73 155q79 41 127 54q4 33 -7 64h-7h7h-7l-26 9l-60 18q-55 -11 -94 9
q-41 -11 -73 0z" />
    <glyph glyph-name="y" unicode="y" horiz-adv-x="1244" 
d="M963 1777q23 -51 20 -94l-20 -106l-11 -11v-16l-10 -17l-5 -11l-26 -83q-17 -44 -35 -73q-17 -62 -41 -100q-23 -111 -72 -188q-9 -47 -36 -78q-4 -30 -15 -56q-26 -30 -36 -61l-10 11q-38 34 -57 67q-37 24 -51 55q-36 23 -51 56q-40 32 -57 67q-147 137 -169 327
q-17 44 -20 78q36 30 26 72h-41l-21 -11l-15 -5h-21q-5 -7 -10 -6q-60 -42 -113 -55q-29 -27 -56 -34l5 -39q79 -1 128 -55l16 -17l15 -17l46 -61q28 -21 41 -50q27 -25 36 -50l15 -16l5 -17l11 -11q8 -6 10 -11q8 -8 10 -17l10 -5l5 -17q10 -6 11 -11l10 -11q11 -18 15 -34
q39 -35 57 -77q23 -19 35 -39l16 -11l10 -17l10 -6l11 -16q9 -6 10 -11q9 -6 10 -11q47 -40 72 -78l5 -17v-78q-1 -34 5 -61l-5 -16q3 -8 0 -17q2 -121 -5 -161q5 -31 -5 -56q5 -17 5 -33v-17l-5 -11v-139v-38q-18 -12 -36 -17q-41 -42 -92 -56q-6 -29 -6 -50l16 -11h66
l21 -5h20l21 -6l20 -5h26h61h16h15q20 -7 41 -6h62l20 22q-23 58 -72 78l-25 78v94v28l-5 17l5 16v17v17v22v22v17v16v17q-3 52 0 89v22v17v16v95l-5 17q8 37 5 66l10 11l5 22l10 6l21 39l5 11l5 22q34 54 41 95q28 51 41 89l5 16l10 11q19 61 36 95l31 55l10 28l11 17
l10 22l5 22l20 39q11 38 26 61q25 55 36 95q24 40 46 66q80 14 128 45l-15 33l-72 22q-48 26 -92 33l-26 23l-15 5l-10 6q-55 5 -93 22h-15z" />
    <glyph glyph-name="z" unicode="z" horiz-adv-x="1171" 
d="M178 1616h-142l-7 -17q-9 -67 -8 -106q-11 -117 0 -202l50 9q210 313 506 202h21h78q40 -9 72 -9l-22 -96l-14 -18l-7 -26l-50 -202l-14 -27l-36 -70l-21 -61l-7 -27l-14 -26l-8 -26l-14 -9q-23 -76 -50 -123l-28 -27l-14 -35q-40 -86 -79 -131l-14 -27l-14 -26l-14 -27
l-8 -26l-14 -26l-7 -18l-14 -9q-9 -38 -29 -61l-28 -44q-34 -86 -78 -141q-22 -59 -22 -114l14 -9l43 -17q41 -2 71 -18q46 -3 79 0l71 -17q18 9 35 9h29l78 -9h29l28 -9h29h71h93h28h28h22q44 14 78 0l29 9h49q45 16 79 17q60 164 28 325l-64 -17q-185 -271 -548 -220
l14 70l14 18l8 26q32 101 64 158l14 44v27q43 116 57 193l14 35l21 26l15 53l14 35q40 97 71 150q26 86 57 140l7 27l7 26l7 17l22 97l7 26l28 71q36 135 22 246h-43l-36 8l-142 9h-50l-121 9h-28h-29l-114 -18l-21 9h-29l-49 9q-76 -12 -129 0q-11 -11 -21 -9z" />
    <glyph glyph-name="braceleft" unicode="{" horiz-adv-x="358" 
d="M220 1785q-13 -25 -30 -40q-15 -42 -45 -65l-5 -20l-5 -15v-15q2 -89 -15 -150q12 -67 10 -110l5 -20v-65l5 -10q5 -45 15 -75l-5 -30l5 -20q-5 -72 -5 -95q-8 -29 -10 -50q-21 -46 -50 -75q-32 -58 -80 -90v-20q138 -66 120 -215v-15q-1 -25 -5 -40v-50
q-11 -59 -10 -100q-97 -328 -25 -620q25 -34 35 -65q44 -27 65 -50q54 -16 105 -10q-5 26 -15 45q-75 69 -100 150v20v15v100l15 65v15l5 15q5 24 5 40l20 55l5 35q0 36 5 60v30l5 15v25l5 20v25v20v15q7 20 5 40v50v20v20v15v20v90q-18 59 -15 105q-8 18 -10 35
q-17 26 -25 45l25 20q6 29 20 45l5 35l5 30l5 20q5 24 5 40l10 165q-7 28 -5 55q-9 30 -10 50l-10 40q0 96 -10 155l5 15q-9 58 0 100q28 96 110 140q3 37 -25 50q-69 -17 -110 -35z" />
    <glyph glyph-name="bar" unicode="|" horiz-adv-x="138" 
d="M37 1810l-5 -15v-35l-10 -55q3 -12 0 -20v-15q3 -48 0 -80q3 -17 0 -30v-455q6 -7 5 -15v-75q-1 -59 0 -100v-35l-10 -30v-35l-5 -85q7 -40 0 -75v-580q-2 -47 5 -80v-105q8 -20 5 -40v-35l-5 -15q8 -78 0 -130q6 -5 5 -10q-9 -78 20 -130q51 -3 75 30v15v15v25v15v20v15
v100v35v40v50v70v15v20q-6 7 -5 15v100v55v20v85v15v60v70l5 20v15q-2 56 5 95v20v20v20v85v15v60v40v40v20v15v25v15v20v15v100l5 30v85v15v60v65v20v15v35v15q11 55 5 95v25v70v25l-5 15q2 24 0 40v15l5 15v15v15l-5 90q-33 18 -65 15z" />
    <glyph glyph-name="braceright" unicode="}" horiz-adv-x="358" 
d="M13 1780q99 -60 110 -165v-15q6 -5 5 -10v-15l-5 -15q7 -46 0 -80v-20l-5 -35v-55l-5 -10l-5 -25l-15 -110l5 -15v-115l5 -15v-35l20 -110q15 -17 15 -35q22 -19 30 -40q-27 -34 -35 -70q4 -53 -15 -90l10 -370q7 -30 5 -55l5 -30l10 -80l5 -20l10 -15v-20l5 -10l5 -35
v-15q12 -30 15 -55v-135l-20 -50q-5 -8 -10 -10l-5 -10q-38 -62 -75 -95l-5 -30q147 -4 205 125v15l5 10l10 30q4 36 15 60v70q-3 41 5 75q-6 5 -5 10v20q-10 49 -5 85v15q-10 30 -10 55l-5 10l-10 45l5 15q-19 45 -20 85q-15 47 -15 80l-5 50v40l-5 10v35v15v15q-1 46 5 80
q38 85 115 115v25q-211 168 -125 435v55l5 40q1 64 10 105q-22 89 -15 155q-9 25 -10 45q-51 49 -75 105q-69 29 -120 35q-18 -27 -15 -50z" />
    <glyph glyph-name="asciitilde" unicode="~" horiz-adv-x="1026" 
d="M885 1695l-15 -5l-15 -10l-15 -5q-17 -18 -35 -20l-25 -30q-43 -22 -70 -45h-15l-125 30q-136 90 -275 75h-15h-15q-55 2 -90 -5l-10 -15h-15q-6 -8 -15 -10l-10 -15l-15 -10q-5 -9 -10 -10l-10 -10q-5 -8 -10 -10q-30 -38 -55 -60l-15 -40q12 -25 15 -45l35 -15
q13 -13 30 -15q8 -5 10 -10l20 5l10 10l10 5q41 57 90 85q90 2 150 -10l15 -5l70 -40l20 -10l10 -10h15l15 -5l90 -35l80 -5l30 -10q5 9 10 10l35 5q22 15 45 15q60 59 125 80q1 13 5 20q81 18 75 100q-26 92 -120 80q-8 -6 -15 -5z" />
    <glyph glyph-name="Adieresis" unicode="&#xc4;" 
 />
    <glyph glyph-name="Aring" unicode="&#xc5;" 
 />
    <glyph glyph-name="Ccedilla" unicode="&#xc7;" 
 />
    <glyph glyph-name="Eacute" unicode="&#xc9;" 
 />
    <glyph glyph-name="Ntilde" unicode="&#xd1;" 
 />
    <glyph glyph-name="Odieresis" unicode="&#xd6;" 
 />
    <glyph glyph-name="Udieresis" unicode="&#xdc;" 
 />
    <glyph glyph-name="aacute" unicode="&#xe1;" 
 />
    <glyph glyph-name="agrave" unicode="&#xe0;" 
 />
    <glyph glyph-name="acircumflex" unicode="&#xe2;" 
 />
    <glyph glyph-name="adieresis" unicode="&#xe4;" 
 />
    <glyph glyph-name="atilde" unicode="&#xe3;" 
 />
    <glyph glyph-name="aring" unicode="&#xe5;" 
 />
    <glyph glyph-name="ccedilla" unicode="&#xe7;" 
 />
    <glyph glyph-name="eacute" unicode="&#xe9;" 
 />
    <glyph glyph-name="egrave" unicode="&#xe8;" 
 />
    <glyph glyph-name="ecircumflex" unicode="&#xea;" 
 />
    <glyph glyph-name="edieresis" unicode="&#xeb;" 
 />
    <glyph glyph-name="iacute" unicode="&#xed;" 
 />
    <glyph glyph-name="igrave" unicode="&#xec;" 
 />
    <glyph glyph-name="icircumflex" unicode="&#xee;" 
 />
    <glyph glyph-name="idieresis" unicode="&#xef;" 
 />
    <glyph glyph-name="ntilde" unicode="&#xf1;" 
 />
    <glyph glyph-name="oacute" unicode="&#xf3;" 
 />
    <glyph glyph-name="ograve" unicode="&#xf2;" 
 />
    <glyph glyph-name="ocircumflex" unicode="&#xf4;" 
 />
    <glyph glyph-name="odieresis" unicode="&#xf6;" 
 />
    <glyph glyph-name="otilde" unicode="&#xf5;" 
 />
    <glyph glyph-name="uacute" unicode="&#xfa;" 
 />
    <glyph glyph-name="ugrave" unicode="&#xf9;" 
 />
    <glyph glyph-name="ucircumflex" unicode="&#xfb;" 
 />
    <glyph glyph-name="udieresis" unicode="&#xfc;" 
 />
    <glyph glyph-name="dagger" unicode="&#x2020;" 
 />
    <glyph glyph-name="degree" unicode="&#xb0;" 
 />
    <glyph glyph-name="cent" unicode="&#xa2;" 
 />
    <glyph glyph-name="sterling" unicode="&#xa3;" 
 />
    <glyph glyph-name="section" unicode="&#xa7;" 
 />
    <glyph glyph-name="bullet" unicode="&#x2022;" 
 />
    <glyph glyph-name="paragraph" unicode="&#xb6;" 
 />
    <glyph glyph-name="germandbls" unicode="&#xdf;" 
 />
    <glyph glyph-name="registered" unicode="&#xae;" 
 />
    <glyph glyph-name="copyright" unicode="&#xa9;" 
 />
    <glyph glyph-name="trademark" unicode="&#x2122;" 
 />
    <glyph glyph-name="acute" unicode="&#xb4;" 
 />
    <glyph glyph-name="dieresis" unicode="&#xa8;" 
 />
    <glyph glyph-name="notequal" unicode="&#x2260;" 
 />
    <glyph glyph-name="AE" unicode="&#xc6;" 
 />
    <glyph glyph-name="Oslash" unicode="&#xd8;" 
 />
    <glyph glyph-name="infinity" unicode="&#x221e;" 
 />
    <glyph glyph-name="plusminus" unicode="&#xb1;" 
 />
    <glyph glyph-name="lessequal" unicode="&#x2264;" 
 />
    <glyph glyph-name="greaterequal" unicode="&#x2265;" 
 />
    <glyph glyph-name="yen" unicode="&#xa5;" 
 />
    <glyph glyph-name="mu" unicode="&#xb5;" 
 />
    <glyph glyph-name="partialdiff" unicode="&#x2202;" 
 />
    <glyph glyph-name="summation" unicode="&#x2211;" 
 />
    <glyph glyph-name="product" unicode="&#x220f;" 
 />
    <glyph glyph-name="glyph155" 
 />
    <glyph glyph-name="integral" unicode="&#x222b;" 
 />
    <glyph glyph-name="ordfeminine" unicode="&#xaa;" 
 />
    <glyph glyph-name="ordmasculine" unicode="&#xba;" 
 />
    <glyph glyph-name="Omega" unicode="&#x2126;" 
 />
    <glyph glyph-name="ae" unicode="&#xe6;" 
 />
    <glyph glyph-name="oslash" unicode="&#xf8;" 
 />
    <glyph glyph-name="questiondown" unicode="&#xbf;" 
 />
    <glyph glyph-name="exclamdown" unicode="&#xa1;" 
 />
    <glyph glyph-name="logicalnot" unicode="&#xac;" 
 />
    <glyph glyph-name="radical" unicode="&#x221a;" 
 />
    <glyph glyph-name="florin" unicode="&#x192;" 
 />
    <glyph glyph-name="approxequal" unicode="&#x2248;" 
 />
    <glyph glyph-name="Delta" unicode="&#x2206;" 
 />
    <glyph glyph-name="guillemotleft" unicode="&#xab;" 
 />
    <glyph glyph-name="guillemotright" unicode="&#xbb;" 
 />
    <glyph glyph-name="ellipsis" unicode="&#x2026;" 
 />
    <glyph glyph-name="Agrave" unicode="&#xc0;" 
 />
    <glyph glyph-name="Atilde" unicode="&#xc3;" 
 />
    <glyph glyph-name="Otilde" unicode="&#xd5;" 
 />
    <glyph glyph-name="OE" unicode="&#x152;" 
 />
    <glyph glyph-name="oe" unicode="&#x153;" 
 />
    <glyph glyph-name="endash" unicode="&#x2013;" 
 />
    <glyph glyph-name="emdash" unicode="&#x2014;" 
 />
    <glyph glyph-name="quotedblleft" unicode="&#x201c;" horiz-adv-x="222" 
d="M10 1572v-40q4 -11 4 -20v-32q6 -15 4 -32q8 -38 8 -64q32 -6 56 -4l16 24l4 12l-8 12l4 12q-3 11 0 16q-2 42 4 68q-2 23 4 40l-4 20q-54 8 -88 4zM122 1576l4 -12q-6 -54 8 -96q-6 -50 4 -84h12q24 -6 44 -4l16 4l4 20l4 12q-4 6 -4 12v16v68l8 60q-47 16 -88 12z" />
    <glyph glyph-name="quotedblright" unicode="&#x201d;" horiz-adv-x="222" 
d="M10 1572v-40q4 -11 4 -20v-32q6 -15 4 -32q8 -38 8 -64q32 -6 56 -4l16 24l4 12l-8 12l4 12q-3 11 0 16q-2 42 4 68q-2 23 4 40l-4 20q-54 8 -88 4zM122 1576l4 -12q-6 -54 8 -96q-6 -50 4 -84h12q24 -6 44 -4l16 4l4 20l4 12q-4 6 -4 12v16v68l8 60q-47 16 -88 12z" />
    <glyph glyph-name="quoteleft" unicode="&#x2018;" horiz-adv-x="105" 
d="M10 1550q3 -6 0 -12l4 -12q8 -53 0 -96q4 -38 0 -64q43 -31 68 12v16l4 16v16l4 16v12v12q15 62 12 104h-68z" />
    <glyph glyph-name="quoteright" unicode="&#x2019;" horiz-adv-x="105" 
d="M10 1550q3 -6 0 -12l4 -12q8 -53 0 -96q4 -38 0 -64q43 -31 68 12v16l4 16v16l4 16v12v12q15 62 12 104h-68z" />
    <glyph glyph-name="divide" unicode="&#xf7;" 
 />
    <glyph glyph-name="lozenge" unicode="&#x25ca;" 
 />
    <glyph glyph-name="ydieresis" unicode="&#xff;" 
 />
    <glyph glyph-name="Ydieresis" unicode="&#x178;" 
 />
    <glyph glyph-name="fraction" unicode="&#x2044;" 
 />
    <glyph glyph-name="fraction" unicode="&#x2215;" 
 />
    <glyph glyph-name="Euro" unicode="&#x20ac;" 
 />
    <glyph glyph-name="guilsinglleft" unicode="&#x2039;" 
 />
    <glyph glyph-name="guilsinglright" unicode="&#x203a;" 
 />
    <glyph glyph-name="uniF001" unicode="&#xf001;" 
 />
    <glyph glyph-name="uniF001" unicode="&#xfb01;" 
 />
    <glyph glyph-name="uniF002" unicode="&#xf002;" 
 />
    <glyph glyph-name="uniF002" unicode="&#xfb02;" 
 />
    <glyph glyph-name="daggerdbl" unicode="&#x2021;" 
 />
    <glyph glyph-name="periodcentered" unicode="&#xb7;" 
 />
    <glyph glyph-name="periodcentered" unicode="&#x2219;" 
 />
    <glyph glyph-name="quotesinglbase" unicode="&#x201a;" 
 />
    <glyph glyph-name="quotedblbase" unicode="&#x201e;" 
 />
    <glyph glyph-name="perthousand" unicode="&#x2030;" 
 />
    <glyph glyph-name="Acircumflex" unicode="&#xc2;" 
 />
    <glyph glyph-name="Ecircumflex" unicode="&#xca;" 
 />
    <glyph glyph-name="Aacute" unicode="&#xc1;" 
 />
    <glyph glyph-name="Edieresis" unicode="&#xcb;" 
 />
    <glyph glyph-name="Egrave" unicode="&#xc8;" 
 />
    <glyph glyph-name="Iacute" unicode="&#xcd;" 
 />
    <glyph glyph-name="Icircumflex" unicode="&#xce;" 
 />
    <glyph glyph-name="Idieresis" unicode="&#xcf;" 
 />
    <glyph glyph-name="Igrave" unicode="&#xcc;" 
 />
    <glyph glyph-name="Oacute" unicode="&#xd3;" 
 />
    <glyph glyph-name="Ocircumflex" unicode="&#xd4;" 
 />
    <glyph glyph-name="Ograve" unicode="&#xd2;" 
 />
    <glyph glyph-name="Uacute" unicode="&#xda;" 
 />
    <glyph glyph-name="Ucircumflex" unicode="&#xdb;" 
 />
    <glyph glyph-name="Ugrave" unicode="&#xd9;" 
 />
    <glyph glyph-name="dotlessi" unicode="&#x131;" 
 />
    <glyph glyph-name="circumflex" unicode="&#x2c6;" 
 />
    <glyph glyph-name="tilde" unicode="&#x2dc;" 
 />
    <glyph glyph-name="uni02C9" unicode="&#x2c9;" 
 />
    <glyph glyph-name="breve" unicode="&#x2d8;" 
 />
    <glyph glyph-name="dotaccent" unicode="&#x2d9;" 
 />
    <glyph glyph-name="ring" unicode="&#x2da;" 
 />
    <glyph glyph-name="cedilla" unicode="&#xb8;" 
 />
    <glyph glyph-name="hungarumlaut" unicode="&#x2dd;" 
 />
    <glyph glyph-name="ogonek" unicode="&#x2db;" 
 />
    <glyph glyph-name="caron" unicode="&#x2c7;" 
 />
    <glyph glyph-name="Lslash" unicode="&#x141;" 
 />
    <glyph glyph-name="lslash" unicode="&#x142;" 
 />
    <glyph glyph-name="Scaron" unicode="&#x160;" 
 />
    <glyph glyph-name="scaron" unicode="&#x161;" 
 />
    <glyph glyph-name="Zcaron" unicode="&#x17d;" 
 />
    <glyph glyph-name="zcaron" unicode="&#x17e;" 
 />
    <glyph glyph-name="brokenbar" unicode="&#xa6;" 
 />
    <glyph glyph-name="Eth" unicode="&#xd0;" 
 />
    <glyph glyph-name="eth" unicode="&#xf0;" 
 />
    <glyph glyph-name="Yacute" unicode="&#xdd;" 
 />
    <glyph glyph-name="yacute" unicode="&#xfd;" 
 />
    <glyph glyph-name="Thorn" unicode="&#xde;" 
 />
    <glyph glyph-name="thorn" unicode="&#xfe;" 
 />
    <glyph glyph-name="minus" unicode="&#x2212;" 
 />
    <glyph glyph-name="multiply" unicode="&#xd7;" 
 />
    <glyph glyph-name="uni00B9" unicode="&#xb9;" 
 />
    <glyph glyph-name="uni00B2" unicode="&#xb2;" 
 />
    <glyph glyph-name="uni00B3" unicode="&#xb3;" 
 />
    <glyph glyph-name="onehalf" unicode="&#xbd;" 
 />
    <glyph glyph-name="onequarter" unicode="&#xbc;" 
 />
    <glyph glyph-name="threequarters" unicode="&#xbe;" 
 />
    <glyph glyph-name="franc" unicode="&#x20a3;" 
 />
    <glyph glyph-name="Gbreve" unicode="&#x11e;" 
 />
    <glyph glyph-name="gbreve" unicode="&#x11f;" 
 />
    <glyph glyph-name="Idotaccent" unicode="&#x130;" 
 />
    <glyph glyph-name="Scedilla" unicode="&#x15e;" 
 />
    <glyph glyph-name="scedilla" unicode="&#x15f;" 
 />
    <glyph glyph-name="Cacute" unicode="&#x106;" 
 />
    <glyph glyph-name="cacute" unicode="&#x107;" 
 />
    <glyph glyph-name="Ccaron" unicode="&#x10c;" 
 />
    <glyph glyph-name="ccaron" unicode="&#x10d;" 
 />
    <glyph glyph-name="dcroat" unicode="&#x111;" 
 />
    <glyph glyph-name="currency" unicode="&#xa4;" 
 />
    <glyph glyph-name="macron" unicode="&#xaf;" 
 />
    <glyph glyph-name="Amacron" unicode="&#x100;" 
 />
    <glyph glyph-name="amacron" unicode="&#x101;" 
 />
    <glyph glyph-name="Abreve" unicode="&#x102;" 
 />
    <glyph glyph-name="abreve" unicode="&#x103;" 
 />
    <glyph glyph-name="Aogonek" unicode="&#x104;" 
 />
    <glyph glyph-name="aogonek" unicode="&#x105;" 
 />
    <glyph glyph-name="Ccircumflex" unicode="&#x108;" 
 />
    <glyph glyph-name="ccircumflex" unicode="&#x109;" 
 />
    <glyph glyph-name="Cdotaccent" unicode="&#x10a;" 
 />
    <glyph glyph-name="cdotaccent" unicode="&#x10b;" 
 />
    <glyph glyph-name="Dcaron" unicode="&#x10e;" 
 />
    <glyph glyph-name="dcaron" unicode="&#x10f;" 
 />
    <glyph glyph-name="Dcroat" unicode="&#x110;" 
 />
    <glyph glyph-name="Emacron" unicode="&#x112;" 
 />
    <glyph glyph-name="emacron" unicode="&#x113;" 
 />
    <glyph glyph-name="Ebreve" unicode="&#x114;" 
 />
    <glyph glyph-name="ebreve" unicode="&#x115;" 
 />
    <glyph glyph-name="Edotaccent" unicode="&#x116;" 
 />
    <glyph glyph-name="edotaccent" unicode="&#x117;" 
 />
    <glyph glyph-name="Eogonek" unicode="&#x118;" 
 />
    <glyph glyph-name="eogonek" unicode="&#x119;" 
 />
    <glyph glyph-name="Ecaron" unicode="&#x11a;" 
 />
    <glyph glyph-name="ecaron" unicode="&#x11b;" 
 />
    <glyph glyph-name="Gcircumflex" unicode="&#x11c;" 
 />
    <glyph glyph-name="gcircumflex" unicode="&#x11d;" 
 />
    <glyph glyph-name="Gdotaccent" unicode="&#x120;" 
 />
    <glyph glyph-name="gdotaccent" unicode="&#x121;" 
 />
    <glyph glyph-name="Gcommaaccent" unicode="&#x122;" 
 />
    <glyph glyph-name="gcommaaccent" unicode="&#x123;" 
 />
    <glyph glyph-name="Hcircumflex" unicode="&#x124;" 
 />
    <glyph glyph-name="hcircumflex" unicode="&#x125;" 
 />
    <glyph glyph-name="Hbar" unicode="&#x126;" 
 />
    <glyph glyph-name="hbar" unicode="&#x127;" 
 />
    <glyph glyph-name="Itilde" unicode="&#x128;" 
 />
    <glyph glyph-name="itilde" unicode="&#x129;" 
 />
    <glyph glyph-name="Imacron" unicode="&#x12a;" 
 />
    <glyph glyph-name="imacron" unicode="&#x12b;" 
 />
    <glyph glyph-name="Ibreve" unicode="&#x12c;" 
 />
    <glyph glyph-name="ibreve" unicode="&#x12d;" 
 />
    <glyph glyph-name="Iogonek" unicode="&#x12e;" 
 />
    <glyph glyph-name="iogonek" unicode="&#x12f;" 
 />
    <glyph glyph-name="IJ" unicode="&#x132;" 
 />
    <glyph glyph-name="ij" unicode="&#x133;" 
 />
    <glyph glyph-name="Jcircumflex" unicode="&#x134;" 
 />
    <glyph glyph-name="jcircumflex" unicode="&#x135;" 
 />
    <glyph glyph-name="Kcommaaccent" unicode="&#x136;" 
 />
    <glyph glyph-name="kcommaaccent" unicode="&#x137;" 
 />
    <glyph glyph-name="kgreenlandic" unicode="&#x138;" 
 />
    <glyph glyph-name="Lacute" unicode="&#x139;" 
 />
    <glyph glyph-name="lacute" unicode="&#x13a;" 
 />
    <glyph glyph-name="Lcommaaccent" unicode="&#x13b;" 
 />
    <glyph glyph-name="lcommaaccent" unicode="&#x13c;" 
 />
    <glyph glyph-name="Lcaron" unicode="&#x13d;" 
 />
    <glyph glyph-name="lcaron" unicode="&#x13e;" 
 />
    <glyph glyph-name="Ldot" unicode="&#x13f;" 
 />
    <glyph glyph-name="ldot" unicode="&#x140;" 
 />
    <glyph glyph-name="Nacute" unicode="&#x143;" 
 />
    <glyph glyph-name="nacute" unicode="&#x144;" 
 />
    <glyph glyph-name="Ncommaaccent" unicode="&#x145;" 
 />
    <glyph glyph-name="ncommaaccent" unicode="&#x146;" 
 />
    <glyph glyph-name="Ncaron" unicode="&#x147;" 
 />
    <glyph glyph-name="ncaron" unicode="&#x148;" 
 />
    <glyph glyph-name="napostrophe" unicode="&#x149;" 
 />
    <glyph glyph-name="Eng" unicode="&#x14a;" 
 />
    <glyph glyph-name="eng" unicode="&#x14b;" 
 />
    <glyph glyph-name="Omacron" unicode="&#x14c;" 
 />
    <glyph glyph-name="omacron" unicode="&#x14d;" 
 />
    <glyph glyph-name="Obreve" unicode="&#x14e;" 
 />
    <glyph glyph-name="obreve" unicode="&#x14f;" 
 />
    <glyph glyph-name="Ohungarumlaut" unicode="&#x150;" 
 />
    <glyph glyph-name="ohungarumlaut" unicode="&#x151;" 
 />
    <glyph glyph-name="Racute" unicode="&#x154;" 
 />
    <glyph glyph-name="racute" unicode="&#x155;" 
 />
    <glyph glyph-name="Rcommaaccent" unicode="&#x156;" 
 />
    <glyph glyph-name="rcommaaccent" unicode="&#x157;" 
 />
    <glyph glyph-name="Rcaron" unicode="&#x158;" 
 />
    <glyph glyph-name="rcaron" unicode="&#x159;" 
 />
    <glyph glyph-name="Sacute" unicode="&#x15a;" 
 />
    <glyph glyph-name="sacute" unicode="&#x15b;" 
 />
    <glyph glyph-name="Scircumflex" unicode="&#x15c;" 
 />
    <glyph glyph-name="scircumflex" unicode="&#x15d;" 
 />
    <glyph glyph-name="Tcommaaccent" unicode="&#x162;" 
 />
    <glyph glyph-name="tcommaaccent" unicode="&#x163;" 
 />
    <glyph glyph-name="Tcaron" unicode="&#x164;" 
 />
    <glyph glyph-name="tcaron" unicode="&#x165;" 
 />
    <glyph glyph-name="Tbar" unicode="&#x166;" 
 />
    <glyph glyph-name="tbar" unicode="&#x167;" 
 />
    <glyph glyph-name="Utilde" unicode="&#x168;" 
 />
    <glyph glyph-name="utilde" unicode="&#x169;" 
 />
    <glyph glyph-name="Umacron" unicode="&#x16a;" 
 />
    <glyph glyph-name="umacron" unicode="&#x16b;" 
 />
    <glyph glyph-name="Ubreve" unicode="&#x16c;" 
 />
    <glyph glyph-name="ubreve" unicode="&#x16d;" 
 />
    <glyph glyph-name="Uring" unicode="&#x16e;" 
 />
    <glyph glyph-name="uring" unicode="&#x16f;" 
 />
    <glyph glyph-name="Uhungarumlaut" unicode="&#x170;" 
 />
    <glyph glyph-name="uhungarumlaut" unicode="&#x171;" 
 />
    <glyph glyph-name="Uogonek" unicode="&#x172;" 
 />
    <glyph glyph-name="uogonek" unicode="&#x173;" 
 />
    <glyph glyph-name="Wcircumflex" unicode="&#x174;" 
 />
    <glyph glyph-name="wcircumflex" unicode="&#x175;" 
 />
    <glyph glyph-name="Ycircumflex" unicode="&#x176;" 
 />
    <glyph glyph-name="ycircumflex" unicode="&#x177;" 
 />
    <glyph glyph-name="Zacute" unicode="&#x179;" 
 />
    <glyph glyph-name="zacute" unicode="&#x17a;" 
 />
    <glyph glyph-name="Zdotaccent" unicode="&#x17b;" 
 />
    <glyph glyph-name="zdotaccent" unicode="&#x17c;" 
 />
    <glyph glyph-name="longs" unicode="&#x17f;" 
 />
    <glyph glyph-name="Aringacute" unicode="&#x1fa;" 
 />
    <glyph glyph-name="aringacute" unicode="&#x1fb;" 
 />
    <glyph glyph-name="AEacute" unicode="&#x1fc;" 
 />
    <glyph glyph-name="aeacute" unicode="&#x1fd;" 
 />
    <glyph glyph-name="Oslashacute" unicode="&#x1fe;" 
 />
    <glyph glyph-name="oslashacute" unicode="&#x1ff;" 
 />
    <glyph glyph-name="tonos" unicode="&#x384;" 
 />
    <glyph glyph-name="dieresistonos" unicode="&#x385;" 
 />
    <glyph glyph-name="Alphatonos" unicode="&#x386;" 
 />
    <glyph glyph-name="anoteleia" unicode="&#x387;" 
 />
    <glyph glyph-name="Epsilontonos" unicode="&#x388;" 
 />
    <glyph glyph-name="Etatonos" unicode="&#x389;" 
 />
    <glyph glyph-name="Iotatonos" unicode="&#x38a;" 
 />
    <glyph glyph-name="Omicrontonos" unicode="&#x38c;" 
 />
    <glyph glyph-name="Upsilontonos" unicode="&#x38e;" 
 />
    <glyph glyph-name="Omegatonos" unicode="&#x38f;" 
 />
    <glyph glyph-name="iotadieresistonos" unicode="&#x390;" 
 />
    <glyph glyph-name="Alpha" unicode="&#x391;" 
 />
    <glyph glyph-name="Beta" unicode="&#x392;" 
 />
    <glyph glyph-name="Gamma" unicode="&#x393;" 
 />
    <glyph glyph-name="uni0394" unicode="&#x394;" 
 />
    <glyph glyph-name="Epsilon" unicode="&#x395;" 
 />
    <glyph glyph-name="Zeta" unicode="&#x396;" 
 />
    <glyph glyph-name="Eta" unicode="&#x397;" 
 />
    <glyph glyph-name="Theta" unicode="&#x398;" 
 />
    <glyph glyph-name="Iota" unicode="&#x399;" 
 />
    <glyph glyph-name="Kappa" unicode="&#x39a;" 
 />
    <glyph glyph-name="Lambda" unicode="&#x39b;" 
 />
    <glyph glyph-name="Mu" unicode="&#x39c;" 
 />
    <glyph glyph-name="Nu" unicode="&#x39d;" 
 />
    <glyph glyph-name="Xi" unicode="&#x39e;" 
 />
    <glyph glyph-name="Omicron" unicode="&#x39f;" 
 />
    <glyph glyph-name="Pi" unicode="&#x3a0;" 
 />
    <glyph glyph-name="Rho" unicode="&#x3a1;" 
 />
    <glyph glyph-name="Sigma" unicode="&#x3a3;" 
 />
    <glyph glyph-name="Tau" unicode="&#x3a4;" 
 />
    <glyph glyph-name="Upsilon" unicode="&#x3a5;" 
 />
    <glyph glyph-name="Phi" unicode="&#x3a6;" 
 />
    <glyph glyph-name="Chi" unicode="&#x3a7;" 
 />
    <glyph glyph-name="Psi" unicode="&#x3a8;" 
 />
    <glyph glyph-name="uni03A9" unicode="&#x3a9;" 
 />
    <glyph glyph-name="Iotadieresis" unicode="&#x3aa;" 
 />
    <glyph glyph-name="Upsilondieresis" unicode="&#x3ab;" 
 />
    <glyph glyph-name="alphatonos" unicode="&#x3ac;" 
 />
    <glyph glyph-name="epsilontonos" unicode="&#x3ad;" 
 />
    <glyph glyph-name="etatonos" unicode="&#x3ae;" 
 />
    <glyph glyph-name="iotatonos" unicode="&#x3af;" 
 />
    <glyph glyph-name="upsilondieresistonos" unicode="&#x3b0;" 
 />
    <glyph glyph-name="alpha" unicode="&#x3b1;" 
 />
    <glyph glyph-name="beta" unicode="&#x3b2;" 
 />
    <glyph glyph-name="gamma" unicode="&#x3b3;" 
 />
    <glyph glyph-name="delta" unicode="&#x3b4;" 
 />
    <glyph glyph-name="epsilon" unicode="&#x3b5;" 
 />
    <glyph glyph-name="zeta" unicode="&#x3b6;" 
 />
    <glyph glyph-name="eta" unicode="&#x3b7;" 
 />
    <glyph glyph-name="theta" unicode="&#x3b8;" 
 />
    <glyph glyph-name="iota" unicode="&#x3b9;" 
 />
    <glyph glyph-name="kappa" unicode="&#x3ba;" 
 />
    <glyph glyph-name="lambda" unicode="&#x3bb;" 
 />
    <glyph glyph-name="uni03BC" unicode="&#x3bc;" 
 />
    <glyph glyph-name="nu" unicode="&#x3bd;" 
 />
    <glyph glyph-name="xi" unicode="&#x3be;" 
 />
    <glyph glyph-name="omicron" unicode="&#x3bf;" 
 />
    <glyph glyph-name="pi" unicode="&#x3c0;" 
 />
    <glyph glyph-name="rho" unicode="&#x3c1;" 
 />
    <glyph glyph-name="sigma1" unicode="&#x3c2;" 
 />
    <glyph glyph-name="sigma" unicode="&#x3c3;" 
 />
    <glyph glyph-name="tau" unicode="&#x3c4;" 
 />
    <glyph glyph-name="upsilon" unicode="&#x3c5;" 
 />
    <glyph glyph-name="phi" unicode="&#x3c6;" 
 />
    <glyph glyph-name="chi" unicode="&#x3c7;" 
 />
    <glyph glyph-name="psi" unicode="&#x3c8;" 
 />
    <glyph glyph-name="omega" unicode="&#x3c9;" 
 />
    <glyph glyph-name="iotadieresis" unicode="&#x3ca;" 
 />
    <glyph glyph-name="upsilondieresis" unicode="&#x3cb;" 
 />
    <glyph glyph-name="omicrontonos" unicode="&#x3cc;" 
 />
    <glyph glyph-name="upsilontonos" unicode="&#x3cd;" 
 />
    <glyph glyph-name="omegatonos" unicode="&#x3ce;" 
 />
    <glyph glyph-name="afii10023" unicode="&#x401;" 
 />
    <glyph glyph-name="afii10051" unicode="&#x402;" 
 />
    <glyph glyph-name="afii10052" unicode="&#x403;" 
 />
    <glyph glyph-name="afii10053" unicode="&#x404;" 
 />
    <glyph glyph-name="afii10054" unicode="&#x405;" 
 />
    <glyph glyph-name="afii10055" unicode="&#x406;" 
 />
    <glyph glyph-name="afii10056" unicode="&#x407;" 
 />
    <glyph glyph-name="afii10057" unicode="&#x408;" 
 />
    <glyph glyph-name="afii10058" unicode="&#x409;" 
 />
    <glyph glyph-name="afii10059" unicode="&#x40a;" 
 />
    <glyph glyph-name="afii10060" unicode="&#x40b;" 
 />
    <glyph glyph-name="afii10061" unicode="&#x40c;" 
 />
    <glyph glyph-name="afii10062" unicode="&#x40e;" 
 />
    <glyph glyph-name="afii10145" unicode="&#x40f;" 
 />
    <glyph glyph-name="afii10017" unicode="&#x410;" 
 />
    <glyph glyph-name="afii10018" unicode="&#x411;" 
 />
    <glyph glyph-name="afii10019" unicode="&#x412;" 
 />
    <glyph glyph-name="afii10020" unicode="&#x413;" 
 />
    <glyph glyph-name="afii10021" unicode="&#x414;" 
 />
    <glyph glyph-name="afii10022" unicode="&#x415;" 
 />
    <glyph glyph-name="afii10024" unicode="&#x416;" 
 />
    <glyph glyph-name="afii10025" unicode="&#x417;" 
 />
    <glyph glyph-name="afii10026" unicode="&#x418;" 
 />
    <glyph glyph-name="afii10027" unicode="&#x419;" 
 />
    <glyph glyph-name="afii10028" unicode="&#x41a;" 
 />
    <glyph glyph-name="afii10029" unicode="&#x41b;" 
 />
    <glyph glyph-name="afii10030" unicode="&#x41c;" 
 />
    <glyph glyph-name="afii10031" unicode="&#x41d;" 
 />
    <glyph glyph-name="afii10032" unicode="&#x41e;" 
 />
    <glyph glyph-name="afii10033" unicode="&#x41f;" 
 />
    <glyph glyph-name="afii10034" unicode="&#x420;" 
 />
    <glyph glyph-name="afii10035" unicode="&#x421;" 
 />
    <glyph glyph-name="afii10036" unicode="&#x422;" 
 />
    <glyph glyph-name="afii10037" unicode="&#x423;" 
 />
    <glyph glyph-name="afii10038" unicode="&#x424;" 
 />
    <glyph glyph-name="afii10039" unicode="&#x425;" 
 />
    <glyph glyph-name="afii10040" unicode="&#x426;" 
 />
    <glyph glyph-name="afii10041" unicode="&#x427;" 
 />
    <glyph glyph-name="afii10042" unicode="&#x428;" 
 />
    <glyph glyph-name="afii10043" unicode="&#x429;" 
 />
    <glyph glyph-name="afii10044" unicode="&#x42a;" 
 />
    <glyph glyph-name="afii10045" unicode="&#x42b;" 
 />
    <glyph glyph-name="afii10046" unicode="&#x42c;" 
 />
    <glyph glyph-name="afii10047" unicode="&#x42d;" 
 />
    <glyph glyph-name="afii10048" unicode="&#x42e;" 
 />
    <glyph glyph-name="afii10049" unicode="&#x42f;" 
 />
    <glyph glyph-name="afii10065" unicode="&#x430;" 
 />
    <glyph glyph-name="afii10066" unicode="&#x431;" 
 />
    <glyph glyph-name="afii10067" unicode="&#x432;" 
 />
    <glyph glyph-name="afii10068" unicode="&#x433;" 
 />
    <glyph glyph-name="afii10069" unicode="&#x434;" 
 />
    <glyph glyph-name="afii10070" unicode="&#x435;" 
 />
    <glyph glyph-name="afii10072" unicode="&#x436;" 
 />
    <glyph glyph-name="afii10073" unicode="&#x437;" 
 />
    <glyph glyph-name="afii10074" unicode="&#x438;" 
 />
    <glyph glyph-name="afii10075" unicode="&#x439;" 
 />
    <glyph glyph-name="afii10076" unicode="&#x43a;" 
 />
    <glyph glyph-name="afii10077" unicode="&#x43b;" 
 />
    <glyph glyph-name="afii10078" unicode="&#x43c;" 
 />
    <glyph glyph-name="afii10079" unicode="&#x43d;" 
 />
    <glyph glyph-name="afii10080" unicode="&#x43e;" 
 />
    <glyph glyph-name="afii10081" unicode="&#x43f;" 
 />
    <glyph glyph-name="afii10082" unicode="&#x440;" 
 />
    <glyph glyph-name="afii10083" unicode="&#x441;" 
 />
    <glyph glyph-name="afii10084" unicode="&#x442;" 
 />
    <glyph glyph-name="afii10085" unicode="&#x443;" 
 />
    <glyph glyph-name="afii10086" unicode="&#x444;" 
 />
    <glyph glyph-name="afii10087" unicode="&#x445;" 
 />
    <glyph glyph-name="afii10088" unicode="&#x446;" 
 />
    <glyph glyph-name="afii10089" unicode="&#x447;" 
 />
    <glyph glyph-name="afii10090" unicode="&#x448;" 
 />
    <glyph glyph-name="afii10091" unicode="&#x449;" 
 />
    <glyph glyph-name="afii10092" unicode="&#x44a;" 
 />
    <glyph glyph-name="afii10093" unicode="&#x44b;" 
 />
    <glyph glyph-name="afii10094" unicode="&#x44c;" 
 />
    <glyph glyph-name="afii10095" unicode="&#x44d;" 
 />
    <glyph glyph-name="afii10096" unicode="&#x44e;" 
 />
    <glyph glyph-name="afii10097" unicode="&#x44f;" 
 />
    <glyph glyph-name="afii10071" unicode="&#x451;" 
 />
    <glyph glyph-name="afii10099" unicode="&#x452;" 
 />
    <glyph glyph-name="afii10100" unicode="&#x453;" 
 />
    <glyph glyph-name="afii10101" unicode="&#x454;" 
 />
    <glyph glyph-name="afii10102" unicode="&#x455;" 
 />
    <glyph glyph-name="afii10103" unicode="&#x456;" 
 />
    <glyph glyph-name="afii10104" unicode="&#x457;" 
 />
    <glyph glyph-name="afii10105" unicode="&#x458;" 
 />
    <glyph glyph-name="afii10106" unicode="&#x459;" 
 />
    <glyph glyph-name="afii10107" unicode="&#x45a;" 
 />
    <glyph glyph-name="afii10108" unicode="&#x45b;" 
 />
    <glyph glyph-name="afii10109" unicode="&#x45c;" 
 />
    <glyph glyph-name="afii10110" unicode="&#x45e;" 
 />
    <glyph glyph-name="afii10193" unicode="&#x45f;" 
 />
    <glyph glyph-name="afii10050" unicode="&#x490;" 
 />
    <glyph glyph-name="afii10098" unicode="&#x491;" 
 />
    <glyph glyph-name="Wgrave" unicode="&#x1e80;" 
 />
    <glyph glyph-name="wgrave" unicode="&#x1e81;" 
 />
    <glyph glyph-name="Wacute" unicode="&#x1e82;" 
 />
    <glyph glyph-name="wacute" unicode="&#x1e83;" 
 />
    <glyph glyph-name="Wdieresis" unicode="&#x1e84;" 
 />
    <glyph glyph-name="wdieresis" unicode="&#x1e85;" 
 />
    <glyph glyph-name="Ygrave" unicode="&#x1ef2;" 
 />
    <glyph glyph-name="ygrave" unicode="&#x1ef3;" 
 />
    <glyph glyph-name="afii00208" unicode="&#x2015;" 
 />
    <glyph glyph-name="underscoredbl" unicode="&#x2017;" 
 />
    <glyph glyph-name="quotereversed" unicode="&#x201b;" 
 />
    <glyph glyph-name="minute" unicode="&#x2032;" 
 />
    <glyph glyph-name="second" unicode="&#x2033;" 
 />
    <glyph glyph-name="exclamdbl" unicode="&#x203c;" 
 />
    <glyph glyph-name="uni203E" unicode="&#x203e;" 
 />
    <glyph glyph-name="uni207F" unicode="&#x207f;" 
 />
    <glyph glyph-name="lira" unicode="&#x20a4;" 
 />
    <glyph glyph-name="peseta" unicode="&#x20a7;" 
 />
    <glyph glyph-name="afii61248" unicode="&#x2105;" 
 />
    <glyph glyph-name="afii61289" unicode="&#x2113;" 
 />
    <glyph glyph-name="afii61352" unicode="&#x2116;" 
 />
    <glyph glyph-name="estimated" unicode="&#x212e;" 
 />
    <glyph glyph-name="oneeighth" unicode="&#x215b;" 
 />
    <glyph glyph-name="threeeighths" unicode="&#x215c;" 
 />
    <glyph glyph-name="fiveeighths" unicode="&#x215d;" 
 />
    <glyph glyph-name="seveneighths" unicode="&#x215e;" 
 />
    <glyph glyph-name="arrowleft" unicode="&#x2190;" 
 />
    <glyph glyph-name="arrowup" unicode="&#x2191;" 
 />
    <glyph glyph-name="arrowright" unicode="&#x2192;" 
 />
    <glyph glyph-name="arrowdown" unicode="&#x2193;" 
 />
    <glyph glyph-name="arrowboth" unicode="&#x2194;" 
 />
    <glyph glyph-name="arrowupdn" unicode="&#x2195;" 
 />
    <glyph glyph-name="arrowupdnbse" unicode="&#x21a8;" 
 />
    <glyph glyph-name="orthogonal" unicode="&#x221f;" 
 />
    <glyph glyph-name="intersection" unicode="&#x2229;" 
 />
    <glyph glyph-name="equivalence" unicode="&#x2261;" 
 />
    <glyph glyph-name="house" unicode="&#x2302;" 
 />
    <glyph glyph-name="revlogicalnot" unicode="&#x2310;" 
 />
    <glyph glyph-name="integraltp" unicode="&#x2320;" 
 />
    <glyph glyph-name="integralbt" unicode="&#x2321;" 
 />
    <glyph glyph-name="SF100000" unicode="&#x2500;" 
 />
    <glyph glyph-name="SF110000" unicode="&#x2502;" 
 />
    <glyph glyph-name="SF010000" unicode="&#x250c;" 
 />
    <glyph glyph-name="SF030000" unicode="&#x2510;" 
 />
    <glyph glyph-name="SF020000" unicode="&#x2514;" 
 />
    <glyph glyph-name="SF040000" unicode="&#x2518;" 
 />
    <glyph glyph-name="SF080000" unicode="&#x251c;" 
 />
    <glyph glyph-name="SF090000" unicode="&#x2524;" 
 />
    <glyph glyph-name="SF060000" unicode="&#x252c;" 
 />
    <glyph glyph-name="SF070000" unicode="&#x2534;" 
 />
    <glyph glyph-name="SF050000" unicode="&#x253c;" 
 />
    <glyph glyph-name="SF430000" unicode="&#x2550;" 
 />
    <glyph glyph-name="SF240000" unicode="&#x2551;" 
 />
    <glyph glyph-name="SF510000" unicode="&#x2552;" 
 />
    <glyph glyph-name="SF520000" unicode="&#x2553;" 
 />
    <glyph glyph-name="SF390000" unicode="&#x2554;" 
 />
    <glyph glyph-name="SF220000" unicode="&#x2555;" 
 />
    <glyph glyph-name="SF210000" unicode="&#x2556;" 
 />
    <glyph glyph-name="SF250000" unicode="&#x2557;" 
 />
    <glyph glyph-name="SF500000" unicode="&#x2558;" 
 />
    <glyph glyph-name="SF490000" unicode="&#x2559;" 
 />
    <glyph glyph-name="SF380000" unicode="&#x255a;" 
 />
    <glyph glyph-name="SF280000" unicode="&#x255b;" 
 />
    <glyph glyph-name="SF270000" unicode="&#x255c;" 
 />
    <glyph glyph-name="SF260000" unicode="&#x255d;" 
 />
    <glyph glyph-name="SF360000" unicode="&#x255e;" 
 />
    <glyph glyph-name="SF370000" unicode="&#x255f;" 
 />
    <glyph glyph-name="SF420000" unicode="&#x2560;" 
 />
    <glyph glyph-name="SF190000" unicode="&#x2561;" 
 />
    <glyph glyph-name="SF200000" unicode="&#x2562;" 
 />
    <glyph glyph-name="SF230000" unicode="&#x2563;" 
 />
    <glyph glyph-name="SF470000" unicode="&#x2564;" 
 />
    <glyph glyph-name="SF480000" unicode="&#x2565;" 
 />
    <glyph glyph-name="SF410000" unicode="&#x2566;" 
 />
    <glyph glyph-name="SF450000" unicode="&#x2567;" 
 />
    <glyph glyph-name="SF460000" unicode="&#x2568;" 
 />
    <glyph glyph-name="SF400000" unicode="&#x2569;" 
 />
    <glyph glyph-name="SF540000" unicode="&#x256a;" 
 />
    <glyph glyph-name="SF530000" unicode="&#x256b;" 
 />
    <glyph glyph-name="SF440000" unicode="&#x256c;" 
 />
    <glyph glyph-name="upblock" unicode="&#x2580;" 
 />
    <glyph glyph-name="dnblock" unicode="&#x2584;" 
 />
    <glyph glyph-name="block" unicode="&#x2588;" 
 />
    <glyph glyph-name="lfblock" unicode="&#x258c;" 
 />
    <glyph glyph-name="rtblock" unicode="&#x2590;" 
 />
    <glyph glyph-name="ltshade" unicode="&#x2591;" 
 />
    <glyph glyph-name="shade" unicode="&#x2592;" 
 />
    <glyph glyph-name="dkshade" unicode="&#x2593;" 
 />
    <glyph glyph-name="filledbox" unicode="&#x25a0;" 
 />
    <glyph glyph-name="H22073" unicode="&#x25a1;" 
 />
    <glyph glyph-name="H18543" unicode="&#x25aa;" 
 />
    <glyph glyph-name="H18551" unicode="&#x25ab;" 
 />
    <glyph glyph-name="filledrect" unicode="&#x25ac;" 
 />
    <glyph glyph-name="triagup" unicode="&#x25b2;" 
 />
    <glyph glyph-name="triagrt" unicode="&#x25ba;" 
 />
    <glyph glyph-name="triagdn" unicode="&#x25bc;" 
 />
    <glyph glyph-name="triaglf" unicode="&#x25c4;" 
 />
    <glyph glyph-name="circle" unicode="&#x25cb;" 
 />
    <glyph glyph-name="H18533" unicode="&#x25cf;" 
 />
    <glyph glyph-name="invbullet" unicode="&#x25d8;" 
 />
    <glyph glyph-name="invcircle" unicode="&#x25d9;" 
 />
    <glyph glyph-name="openbullet" unicode="&#x25e6;" 
 />
    <glyph glyph-name="smileface" unicode="&#x263a;" 
 />
    <glyph glyph-name="invsmileface" unicode="&#x263b;" 
 />
    <glyph glyph-name="sun" unicode="&#x263c;" 
 />
    <glyph glyph-name="female" unicode="&#x2640;" 
 />
    <glyph glyph-name="male" unicode="&#x2642;" 
 />
    <glyph glyph-name="spade" unicode="&#x2660;" 
 />
    <glyph glyph-name="club" unicode="&#x2663;" 
 />
    <glyph glyph-name="heart" unicode="&#x2665;" 
 />
    <glyph glyph-name="diamond" unicode="&#x2666;" 
 />
    <glyph glyph-name="musicalnote" unicode="&#x266a;" 
 />
    <glyph glyph-name="musicalnotedbl" unicode="&#x266b;" 
 />
    <glyph glyph-name="uniF004" unicode="&#xf004;" 
 />
    <glyph glyph-name="uniF005" unicode="&#xf005;" 
 />
  </font>
</defs>
</svg>
