<?xml version="1.0" standalone="no"?>
<!DOCTYPE svg PUBLIC "-//W3C//DTD SVG 1.1//EN" "http://www.w3.org/Graphics/SVG/1.1/DTD/svg11.dtd" >
<svg xmlns="http://www.w3.org/2000/svg">
<metadata></metadata>
<defs>
<font id="deconeuelight" horiz-adv-x="1021" >
<font-face units-per-em="2048" ascent="1536" descent="-512" />
<missing-glyph horiz-adv-x="759" />
<glyph horiz-adv-x="0" />
<glyph unicode="&#xd;" horiz-adv-x="759" />
<glyph horiz-adv-x="0" />
<glyph horiz-adv-x="0" />
<glyph unicode=" "  horiz-adv-x="759" />
<glyph unicode="&#x09;" horiz-adv-x="759" />
<glyph unicode="&#xa0;" horiz-adv-x="759" />
<glyph unicode="!" horiz-adv-x="208" d="M74 20q-1 33 32 33t33 -33q0 -12 -9 -21t-24 -9q-14 0 -23 9t-9 21zM90 182v1245h33v-1245h-33z" />
<glyph unicode="&#x22;" horiz-adv-x="346" d="M70 1030v406h53v-406h-53zM199 1030v406h53v-406h-53z" />
<glyph unicode="'" horiz-adv-x="446" d="M199 1030v406h73v-406h-73z" />
<glyph unicode="," horiz-adv-x="235" d="M-12 -195l98 248h55l-121 -248h-32z" />
<glyph unicode="." horiz-adv-x="258" d="M102 23q0 18 10.5 29t26.5 11q41 0 41 -40q0 -14 -11 -25.5t-30 -11.5q-16 0 -26.5 11t-10.5 26z" />
<glyph unicode=":" horiz-adv-x="370" d="M82 31q0 18 10.5 29.5t26.5 11.5q41 0 41 -41q0 -14 -11.5 -25.5t-29.5 -11.5q-16 0 -26.5 11t-10.5 26zM82 700q0 18 10.5 29.5t26.5 11.5q41 0 41 -41q0 -14 -11.5 -25t-29.5 -11q-16 0 -26.5 11t-10.5 25z" />
<glyph unicode=";" horiz-adv-x="325" d="M2 -195l96 248h58l-121 -248h-33zM82 700q0 18 10.5 29.5t26.5 11.5q41 0 41 -41q0 -14 -11.5 -25t-29.5 -11q-16 0 -26.5 11t-10.5 25z" />
<glyph unicode="?" horiz-adv-x="1185" d="M168 1053q0 84 31.5 157.5t87 129t129 87t157.5 31.5t159 -31.5t130.5 -87t87 -129t31.5 -157.5q0 -113 -55.5 -204t-143.5 -147q-39 -23 -74.5 -44t-64.5 -48.5t-45 -63.5t-16 -85l2 -260h-35v262q0 55 17.5 95t46 72t66.5 55.5t81 45.5q8 4 14 8t10 9q72 51 116 130.5 t44 174.5q0 76 -28.5 143.5t-79 118.5t-118 79.5t-145.5 28.5t-144.5 -28.5t-116.5 -79.5t-78.5 -119t-28.5 -143h-37zM530 18q0 16 10.5 26.5t26.5 10.5q12 0 22.5 -10t10.5 -27q0 -14 -10 -25t-23 -11q-16 0 -26.5 11t-10.5 25z" />
<glyph unicode="A" d="M121 -2l485 1462l410 -1462h-70l-80 287h-577l-99 -287h-69zM309 350h539l-248 895z" />
<glyph unicode="B" horiz-adv-x="950" d="M137 0v1432h303q53 0 109.5 -14.5t103.5 -49.5t78 -95.5t31 -152.5q0 -59 -22.5 -105t-51.5 -81q-33 -39 -72 -70q41 -23 98.5 -53.5t110 -78.5t88 -120.5t35.5 -177.5q0 -96 -28.5 -176t-84 -137.5t-138.5 -89t-193 -31.5h-367zM211 66h58.5t74.5 -1.5t74 -1.5h55 q98 0 173 29t126 78t78 116.5t27 147.5q0 76 -30 135.5t-73 105.5t-93 76.5t-89 47.5q-35 14 -95.5 37.5t-121 46t-107.5 40t-57 21.5v-878zM211 1020q12 -4 65.5 -24.5t112.5 -41.5q68 -25 154 -57q41 27 75 61q29 29 53.5 70t24.5 92q0 76 -26.5 124t-66.5 76t-88 37 t-93 9h-211v-346z" />
<glyph unicode="C" horiz-adv-x="823" d="M133 705q0 150 52.5 278.5t144.5 227t218 160t275 77.5v-74q-133 -16 -245.5 -72.5t-194.5 -144.5t-128 -203.5t-46 -248.5q0 -125 46 -236t128 -196t194.5 -141t245.5 -71v-71q-150 14 -275.5 75.5t-217.5 156.5t-144.5 218t-52.5 265z" />
<glyph unicode="D" horiz-adv-x="874" d="M129 -20v1480h74q143 0 265 -62.5t211 -165t140 -235.5t51 -274q0 -150 -54 -284t-146 -236.5t-215 -162.5t-260 -60h-66zM205 57h8q103 -1 205 51q106 54 189 146t135.5 214t52.5 255q0 131 -50.5 253t-132.5 215t-188.5 149.5t-218.5 56.5v-1340z" />
<glyph unicode="E" horiz-adv-x="1050" d="M129 0v1432h811v-64h-739v-539h436v-81h-436v-680h739v-68h-811z" />
<glyph unicode="F" horiz-adv-x="968" d="M125 -2v1438h838v-64h-770v-541h456v-81h-456v-752h-68z" />
<glyph unicode="G" horiz-adv-x="882" d="M127 707q0 150 59.5 285.5t162 239t239.5 165t295 61.5v-65q-141 0 -268.5 -57.5t-220.5 -154t-147 -219.5q-52 -120 -52 -246v-9q2 -127 49 -238t130 -198t196.5 -143t246.5 -73l2 693h-274v65h338v-831q-158 0 -295 57t-239.5 155.5t-162 230.5t-59.5 282z" />
<glyph unicode="H" horiz-adv-x="1056" d="M125 0v1434h74v-1082h776v1082h72v-1434h-72v289h-776v-289h-74z" />
<glyph unicode="I" horiz-adv-x="198" d="M129 -2v1438h70v-1438h-70z" />
<glyph unicode="J" horiz-adv-x="598" d="M133 -20v63h74q63 0 120.5 24.5t102.5 69.5t71.5 105.5t26.5 132.5v1059h70v-1063q0 -84 -28.5 -156t-81 -124t-124 -81.5t-159.5 -29.5h-72z" />
<glyph unicode="K" horiz-adv-x="956" d="M127 -4v1440h72v-1022l649 1022h92l-389 -625l393 -815h-4h-82l-360 756l-299 -482v-274h-72z" />
<glyph unicode="L" horiz-adv-x="722" d="M129 0v1436h64v-1373h530v-63h-594z" />
<glyph unicode="M" horiz-adv-x="2004" d="M129 0v1460l782 -1050v1050l1094 -1460h-94l-924 1229v-1229h-76v287l-710 942l2 -1229h-74z" />
<glyph unicode="N" horiz-adv-x="1001" d="M129 0v1462l805 -1067v1039h67v-1434h-67v285l-735 968v-1253h-70z" />
<glyph unicode="O" horiz-adv-x="1656" d="M129 717q0 156 59.5 291t161 235t235.5 158.5t285 58.5q156 0 291 -58.5t235.5 -158.5t159 -235.5t58.5 -290.5q0 -152 -58.5 -286t-159 -235.5t-235.5 -161t-291 -59.5q-152 0 -285.5 59.5t-235 161t-161 235.5t-59.5 286zM203 717q0 -137 53 -259t143 -212t212 -143.5 t259 -53.5q141 0 263 53.5t212.5 143.5t142.5 212t52 259t-52 259t-142.5 213t-212.5 144t-263 53q-137 0 -259 -53t-212 -144t-143 -213t-53 -259z" />
<glyph unicode="P" horiz-adv-x="765" d="M133 2v1458h60q119 0 223 -44t182 -121.5t122 -182t44 -225.5q0 -117 -44 -224.5t-121 -190.5t-179.5 -132t-218.5 -49v-289h-68zM201 358q102 0 192 44t157.5 118t106.5 169t39 198q0 104 -39 195.5t-106.5 159t-157.5 108.5t-192 43v-1035z" />
<glyph unicode="Q" horiz-adv-x="1566" d="M131 725q0 150 52.5 284t144.5 235.5t219 159.5t278 58q141 0 268.5 -58t222.5 -159.5t150.5 -236t55.5 -283.5q0 -94 -22.5 -181t-62.5 -163t-93.5 -139.5t-116.5 -110.5q29 -35 59.5 -42t65.5 -7q29 0 54.5 13.5t45.5 29.5q23 18 41 43l59 -33q-27 -43 -77 -81 t-134 -40h-10q-55 0 -98 20q-47 21 -76 50q-78 -47 -156.5 -71.5t-175.5 -24.5q-152 0 -278.5 56t-218.5 154.5t-144.5 233.5t-52.5 293zM205 723q0 -102 27.5 -194.5t75.5 -170t114.5 -139t146.5 -100.5q10 16 37 42.5t66 53.5t90 47.5t112 21.5h6q59 0 128 -22 q71 -22 149 -80q129 96 209 232.5t80 310.5q0 133 -50 253t-134 211t-198 144t-239 53q-135 0 -248.5 -53t-196.5 -144t-129 -212t-46 -254zM649 96q47 -23 90 -32t84 -9q47 0 82 5.5t63.5 15.5t58.5 25.5t67 37.5q-78 55 -149 63q-25 4 -49 4q-42 0 -79 -10 q-57 -16 -100 -45.5t-68 -54.5z" />
<glyph unicode="R" horiz-adv-x="774" d="M129 -2v1456h70q119 0 223 -48t183 -130t124 -189.5t45 -226.5q0 -150 -69.5 -279.5t-184.5 -207.5l180 -371h-71l-166 338q-59 -29 -124 -46.5t-136 -17.5v-278h-74zM203 340q104 2 196.5 45t160 113.5t106.5 164t39 197.5q0 102 -39 196.5t-106.5 168t-160 119 t-196.5 49.5v-1053z" />
<glyph unicode="S" horiz-adv-x="878" d="M129 0v70h291q86 0 158.5 25.5t125 68.5t81 97t28.5 114q0 66 -25.5 123t-66.5 106t-90 92t-99 84q-47 39 -91 76t-78.5 78t-56 90t-21.5 111q0 61 25.5 116.5t72.5 97.5t116.5 65.5t155.5 23.5h224v-66h-228q-66 0 -121 -19.5t-95 -52t-61.5 -75.5t-21.5 -90 q0 -45 19.5 -84t50.5 -75t70.5 -70t82.5 -70q49 -39 102.5 -85t97.5 -101.5t74 -122t30 -146.5q0 -70 -28 -138.5t-84 -121.5t-142 -87t-201 -34h-295z" />
<glyph unicode="T" horiz-adv-x="940" d="M129 1378v64h369h73h369v-64h-371v-1378h-69v1378h-371z" />
<glyph unicode="U" horiz-adv-x="991" d="M127 375v6v1046h66v-1046q6 -68 37.5 -129.5t80.5 -107.5t111.5 -73.5t130.5 -27.5q70 0 133.5 27.5t113.5 73.5t82.5 108.5t39.5 132.5v1042h69v-1052q-6 -84 -44 -157t-96 -126t-134 -85t-160 -32t-159.5 32t-133 85t-94.5 126t-43 157z" />
<glyph unicode="V" horiz-adv-x="1124" d="M135 1430h70l424 -1256l422 1256h73l-495 -1463z" />
<glyph unicode="W" horiz-adv-x="1998" d="M129 6v1428h66v-1231l731 973v258h63v-1231l924 1231h84l-1071 -1428v1065z" />
<glyph unicode="X" horiz-adv-x="1189" d="M170 -2l451 760l-404 684h72l368 -623l373 623h70l-404 -684l453 -760h-80l-412 694l-407 -694h-80z" />
<glyph unicode="Y" horiz-adv-x="1132" d="M145 1432h68l420 -1004l416 1004h67l-450 -1084v-350h-66v350z" />
<glyph unicode="Z" horiz-adv-x="1314" d="M137 2l1034 1370h-4h-712v68h850l-1035 -1377h916v-61h-1049z" />
<glyph unicode="a" d="M121 -2l485 1462l410 -1462h-70l-80 287h-577l-99 -287h-69zM309 350h539l-248 895z" />
<glyph unicode="b" horiz-adv-x="950" d="M137 0v1432h303q53 0 109.5 -14.5t103.5 -49.5t78 -95.5t31 -152.5q0 -59 -22.5 -105t-51.5 -81q-33 -39 -72 -70q41 -23 98.5 -53.5t110 -78.5t88 -120.5t35.5 -177.5q0 -96 -28.5 -176t-84 -137.5t-138.5 -89t-193 -31.5h-367zM211 66h58.5t74.5 -1.5t74 -1.5h55 q98 0 173 29t126 78t78 116.5t27 147.5q0 76 -30 135.5t-73 105.5t-93 76.5t-89 47.5q-35 14 -95.5 37.5t-121 46t-107.5 40t-57 21.5v-878zM211 1020q12 -4 65.5 -24.5t112.5 -41.5q68 -25 154 -57q41 27 75 61q29 29 53.5 70t24.5 92q0 76 -26.5 124t-66.5 76t-88 37 t-93 9h-211v-346z" />
<glyph unicode="c" horiz-adv-x="823" d="M133 705q0 150 52.5 278.5t144.5 227t218 160t275 77.5v-74q-133 -16 -245.5 -72.5t-194.5 -144.5t-128 -203.5t-46 -248.5q0 -125 46 -236t128 -196t194.5 -141t245.5 -71v-71q-150 14 -275.5 75.5t-217.5 156.5t-144.5 218t-52.5 265z" />
<glyph unicode="d" horiz-adv-x="874" d="M129 -20v1480h74q143 0 265 -62.5t211 -165t140 -235.5t51 -274q0 -150 -54 -284t-146 -236.5t-215 -162.5t-260 -60h-66zM205 57h8q103 -1 205 51q106 54 189 146t135.5 214t52.5 255q0 131 -50.5 253t-132.5 215t-188.5 149.5t-218.5 56.5v-1340z" />
<glyph unicode="e" horiz-adv-x="1050" d="M129 0v1432h811v-64h-739v-539h436v-81h-436v-680h739v-68h-811z" />
<glyph unicode="f" horiz-adv-x="962" d="M129 -2v1438h834v-64h-770v-541h456v-81h-456v-752h-64z" />
<glyph unicode="g" horiz-adv-x="882" d="M127 707q0 150 59.5 285.5t162 239t239.5 165t295 61.5v-65q-141 0 -268.5 -57.5t-220.5 -154t-147 -219.5q-52 -120 -52 -246v-9q2 -127 49 -238t130 -198t196.5 -143t246.5 -73l2 693h-274v65h338v-831q-158 0 -295 57t-239.5 155.5t-162 230.5t-59.5 282z" />
<glyph unicode="h" horiz-adv-x="1056" d="M125 0v1434h74v-1082h776v1082h72v-1434h-72v289h-776v-289h-74z" />
<glyph unicode="i" horiz-adv-x="198" d="M129 -2v1438h70v-1438h-70z" />
<glyph unicode="j" horiz-adv-x="598" d="M133 -20v63h74q63 0 120.5 24.5t102.5 69.5t71.5 105.5t26.5 132.5v1059h70v-1063q0 -84 -28.5 -156t-81 -124t-124 -81.5t-159.5 -29.5h-72z" />
<glyph unicode="k" horiz-adv-x="956" d="M127 -4v1440h72v-1022l649 1022h92l-389 -625l393 -815h-4h-82l-360 756l-299 -482v-274h-72z" />
<glyph unicode="l" horiz-adv-x="722" d="M129 0v1436h64v-1373h530v-63h-594z" />
<glyph unicode="m" horiz-adv-x="2004" d="M129 0v1460l782 -1050v1050l1094 -1460h-94l-924 1229v-1229h-76v287l-710 942l2 -1229h-74z" />
<glyph unicode="n" horiz-adv-x="1001" d="M129 0v1462l805 -1067v1039h67v-1434h-67v285l-735 968v-1253h-70z" />
<glyph unicode="o" horiz-adv-x="1656" d="M129 717q0 156 59.5 291t161 235t235.5 158.5t285 58.5q156 0 291 -58.5t235.5 -158.5t159 -235.5t58.5 -290.5q0 -152 -58.5 -286t-159 -235.5t-235.5 -161t-291 -59.5q-152 0 -285.5 59.5t-235 161t-161 235.5t-59.5 286zM203 717q0 -137 53 -259t143 -212t212 -143.5 t259 -53.5q141 0 263 53.5t212.5 143.5t142.5 212t52 259t-52 259t-142.5 213t-212.5 144t-263 53q-137 0 -259 -53t-212 -144t-143 -213t-53 -259z" />
<glyph unicode="p" horiz-adv-x="765" d="M133 2v1458h60q119 0 223 -44t182 -121.5t122 -182t44 -225.5q0 -117 -44 -224.5t-121 -190.5t-179.5 -132t-218.5 -49v-289h-68zM201 358q102 0 192 44t157.5 118t106.5 169t39 198q0 104 -39 195.5t-106.5 159t-157.5 108.5t-192 43v-1035z" />
<glyph unicode="q" horiz-adv-x="1566" d="M131 725q0 150 52.5 284t144.5 235.5t219 159.5t278 58q141 0 268.5 -58t222.5 -159.5t150.5 -236t55.5 -283.5q0 -94 -22.5 -181t-62.5 -163t-93.5 -139.5t-116.5 -110.5q29 -35 59.5 -42t65.5 -7q29 0 54.5 13.5t45.5 29.5q23 18 41 43l59 -33q-27 -43 -77 -81 t-134 -40h-10q-55 0 -98 20q-47 21 -76 50q-78 -47 -156.5 -71.5t-175.5 -24.5q-152 0 -278.5 56t-218.5 154.5t-144.5 233.5t-52.5 293zM205 723q0 -102 27.5 -194.5t75.5 -170t114.5 -139t146.5 -100.5q10 16 37 42.5t66 53.5t90 47.5t112 21.5h6q59 0 128 -22 q71 -22 149 -80q129 96 209 232.5t80 310.5q0 133 -50 253t-134 211t-198 144t-239 53q-135 0 -248.5 -53t-196.5 -144t-129 -212t-46 -254zM649 96q47 -23 90 -32t84 -9q47 0 82 5.5t63.5 15.5t58.5 25.5t67 37.5q-78 55 -149 63q-25 4 -49 4q-42 0 -79 -10 q-57 -16 -100 -45.5t-68 -54.5z" />
<glyph unicode="r" horiz-adv-x="774" d="M129 -2v1456h70q119 0 223 -48t183 -130t124 -189.5t45 -226.5q0 -150 -69.5 -279.5t-184.5 -207.5l180 -371h-71l-166 338q-59 -29 -124 -46.5t-136 -17.5v-278h-74zM203 340q104 2 196.5 45t160 113.5t106.5 164t39 197.5q0 102 -39 196.5t-106.5 168t-160 119 t-196.5 49.5v-1053z" />
<glyph unicode="s" horiz-adv-x="878" d="M129 0v70h291q86 0 158.5 25.5t125 68.5t81 97t28.5 114q0 66 -25.5 123t-66.5 106t-90 92t-99 84q-47 39 -91 76t-78.5 78t-56 90t-21.5 111q0 61 25.5 116.5t72.5 97.5t116.5 65.5t155.5 23.5h224v-66h-228q-66 0 -121 -19.5t-95 -52t-61.5 -75.5t-21.5 -90 q0 -45 19.5 -84t50.5 -75t70.5 -70t82.5 -70q49 -39 102.5 -85t97.5 -101.5t74 -122t30 -146.5q0 -70 -28 -138.5t-84 -121.5t-142 -87t-201 -34h-295z" />
<glyph unicode="t" horiz-adv-x="940" d="M129 1382v60h371h69h371v-60h-373v-1382h-65v1382h-373z" />
<glyph unicode="u" horiz-adv-x="991" d="M127 375v6v1046h66v-1046q6 -68 37.5 -129.5t80.5 -107.5t111.5 -73.5t130.5 -27.5q70 0 133.5 27.5t113.5 73.5t82.5 108.5t39.5 132.5v1042h69v-1052q-6 -84 -44 -157t-96 -126t-134 -85t-160 -32t-159.5 32t-133 85t-94.5 126t-43 157z" />
<glyph unicode="v" horiz-adv-x="1124" d="M135 1430h70l424 -1256l422 1256h73l-495 -1463z" />
<glyph unicode="w" horiz-adv-x="1998" d="M129 6v1428h66v-1231l731 973v258h63v-1231l924 1231h84l-1071 -1428v1065z" />
<glyph unicode="x" horiz-adv-x="1189" d="M170 -2l451 760l-404 684h72l368 -623l373 623h70l-404 -684l453 -760h-80l-412 694l-407 -694h-80z" />
<glyph unicode="y" horiz-adv-x="1132" d="M145 1432h68l420 -1004l416 1004h67l-450 -1084v-350h-66v350z" />
<glyph unicode="z" horiz-adv-x="1314" d="M137 2l1034 1370h-4h-712v68h850l-1035 -1377h916v-61h-1049z" />
<glyph unicode="&#xb4;" horiz-adv-x="1705" d="M596 1503l119 154h55l-119 -154h-55z" />
<glyph unicode="&#xc0;" d="M121 -2l485 1462l410 -1462h-70l-80 287h-577l-99 -287h-69zM309 350h539l-248 895zM446 1661h56l119 -154h-56z" />
<glyph unicode="&#xc1;" d="M121 -2l485 1462l410 -1462h-70l-80 287h-577l-99 -287h-69zM309 350h539l-248 895zM596 1503l119 154h55l-119 -154h-55z" />
<glyph unicode="&#xc2;" d="M121 -2l485 1462l410 -1462h-70l-80 287h-577l-99 -287h-69zM309 350h539l-248 895zM455 1489l147 184l146 -184h-43l-103 123l-102 -123h-45z" />
<glyph unicode="&#xc3;" d="M121 -2l485 1462l410 -1462h-70l-80 287h-577l-99 -287h-69zM309 350h539l-248 895zM442 1509q6 29 21.5 49.5t40.5 30.5q37 16 73.5 2t63.5 -43q37 -39 88 -22q18 8 32.5 22.5t18.5 36.5l23 -6q-6 -29 -22.5 -49.5t-43.5 -30.5q-29 -12 -61.5 -4t-54.5 33 q-23 25 -53.5 35t-57.5 0q-35 -14 -43 -60z" />
<glyph unicode="&#xc4;" d="M121 -2l485 1462l410 -1462h-70l-80 287h-577l-99 -287h-69zM309 350h539l-248 895zM438 1565q0 18 10.5 29.5t26.5 11.5q41 0 41 -41q0 -14 -11 -25.5t-30 -11.5q-16 0 -26.5 11t-10.5 26zM686 1565q0 18 10.5 29.5t26.5 11.5q41 0 41 -41q0 -14 -11.5 -25.5 t-29.5 -11.5q-16 0 -26.5 11t-10.5 26z" />
<glyph unicode="&#xc7;" horiz-adv-x="823" d="M133 705q0 150 52.5 278.5t144.5 227t218 160t275 77.5v-74q-133 -16 -245.5 -72.5t-194.5 -144.5t-128 -203.5t-46 -248.5q0 -125 46 -236t128 -196t194.5 -141t245.5 -71v-71q-150 14 -275.5 75.5t-217.5 156.5t-144.5 218t-52.5 265zM367 -260l65 14v-18q8 -31 29 -53 q16 -20 46 -36t77 -16q35 0 65.5 8.5t52.5 28.5q18 12 30.5 34t17.5 46l1 14q1 13 -2.5 31.5t-13.5 40t-33 37.5q-39 25 -70.5 33t-66.5 12l-18 2l47 127l57 -20l-22 -54q53 -8 106 -39q39 -27 57.5 -60.5t23.5 -64t3 -52t-4 -21.5q-4 -37 -24.5 -66.5t-55.5 -58.5 q-59 -47 -151 -47q-20 0 -46 4t-51 14q-47 23 -78.5 59.5t-37.5 84.5z" />
<glyph unicode="&#xc8;" horiz-adv-x="1050" d="M129 0v1432h811v-64h-739v-539h436v-81h-436v-680h739v-68h-811zM406 1661h55l119 -154h-56z" />
<glyph unicode="&#xc9;" horiz-adv-x="1050" d="M129 0v1432h811v-64h-739v-539h436v-81h-436v-680h739v-68h-811zM535 1503l118 154h56l-119 -154h-55z" />
<glyph unicode="&#xca;" horiz-adv-x="1050" d="M129 0v1432h811v-64h-739v-539h436v-81h-436v-680h739v-68h-811zM385 1489l147 184l146 -184h-43l-103 123l-102 -123h-45z" />
<glyph unicode="&#xcb;" horiz-adv-x="1050" d="M129 0v1432h811v-64h-739v-539h436v-81h-436v-680h739v-68h-811zM391 1565q0 18 10.5 29.5t26.5 11.5q41 0 41 -41q0 -14 -11.5 -25.5t-29.5 -11.5q-16 0 -26.5 11t-10.5 26zM639 1565q0 18 10.5 29.5t26.5 11.5q41 0 41 -41q0 -14 -11.5 -25.5t-29.5 -11.5 q-16 0 -26.5 11t-10.5 26z" />
<glyph unicode="&#xcc;" horiz-adv-x="198" d="M23 1661h55l119 -154h-56zM129 -2v1438h70v-1438h-70z" />
<glyph unicode="&#xcd;" horiz-adv-x="198" d="M129 -2v1438h70v-1438h-70zM143 1503l119 154h55l-118 -154h-56z" />
<glyph unicode="&#xce;" horiz-adv-x="198" d="M8 1501l160 156l158 -156h-37l-121 105l-123 -105h-37zM129 -2v1438h70v-1438h-70z" />
<glyph unicode="&#xcf;" horiz-adv-x="198" d="M4 1565q0 18 10.5 29.5t26.5 11.5q41 0 41 -41q0 -14 -11.5 -25.5t-29.5 -11.5q-16 0 -26.5 11t-10.5 26zM129 -2v1438h70v-1438h-70zM252 1565q0 18 10.5 29.5t26.5 11.5q41 0 41 -41q0 -14 -11.5 -25.5t-29.5 -11.5q-16 0 -26.5 11t-10.5 26z" />
<glyph unicode="&#xd1;" horiz-adv-x="1001" d="M129 0v1462l805 -1067v1039h67v-1434h-67v285l-735 968v-1253h-70zM397 1550q6 29 21.5 49.5t40.5 30.5q37 16 73.5 2t63.5 -43q37 -39 88 -22q18 8 32.5 22.5t18.5 36.5l23 -6q-6 -29 -22.5 -49.5t-43.5 -30.5q-29 -12 -61.5 -4t-55.5 33t-53 35t-57 0q-35 -14 -43 -60z " />
<glyph unicode="&#xd2;" horiz-adv-x="1695" d="M170 717q0 156 59.5 291t161 235t235.5 158.5t285 58.5q156 0 291 -58.5t235.5 -158.5t159 -235.5t58.5 -290.5q0 -152 -58.5 -286t-159 -235.5t-235.5 -161t-291 -59.5q-152 0 -285.5 59.5t-235 161t-161 235.5t-59.5 286zM244 717q0 -137 53 -259t143 -212t212 -143.5 t259 -53.5q141 0 263 53.5t212.5 143.5t142.5 212t52 259t-52 259t-142.5 213t-212.5 144t-263 53q-137 0 -259 -53t-212 -144t-143 -213t-53 -259zM745 1661h56l119 -154h-56z" />
<glyph unicode="&#xd3;" horiz-adv-x="1695" d="M170 717q0 156 59.5 291t161 235t235.5 158.5t285 58.5q156 0 291 -58.5t235.5 -158.5t159 -235.5t58.5 -290.5q0 -152 -58.5 -286t-159 -235.5t-235.5 -161t-291 -59.5q-152 0 -285.5 59.5t-235 161t-161 235.5t-59.5 286zM244 717q0 -137 53 -259t143 -212t212 -143.5 t259 -53.5q141 0 263 53.5t212.5 143.5t142.5 212t52 259t-52 259t-142.5 213t-212.5 144t-263 53q-137 0 -259 -53t-212 -144t-143 -213t-53 -259zM903 1503l119 154h55l-119 -154h-55z" />
<glyph unicode="&#xd4;" horiz-adv-x="1695" d="M170 717q0 156 59.5 291t161 235t235.5 158.5t285 58.5q156 0 291 -58.5t235.5 -158.5t159 -235.5t58.5 -290.5q0 -152 -58.5 -286t-159 -235.5t-235.5 -161t-291 -59.5q-152 0 -285.5 59.5t-235 161t-161 235.5t-59.5 286zM244 717q0 -137 53 -259t143 -212t212 -143.5 t259 -53.5q141 0 263 53.5t212.5 143.5t142.5 212t52 259t-52 259t-142.5 213t-212.5 144t-263 53q-137 0 -259 -53t-212 -144t-143 -213t-53 -259zM715 1507l188 185l187 -185h-43l-144 123l-143 -123h-45z" />
<glyph unicode="&#xd5;" horiz-adv-x="1695" d="M170 717q0 156 59.5 291t161 235t235.5 158.5t285 58.5q156 0 291 -58.5t235.5 -158.5t159 -235.5t58.5 -290.5q0 -152 -58.5 -286t-159 -235.5t-235.5 -161t-291 -59.5q-152 0 -285.5 59.5t-235 161t-161 235.5t-59.5 286zM244 717q0 -137 53 -259t143 -212t212 -143.5 t259 -53.5q141 0 263 53.5t212.5 143.5t142.5 212t52 259t-52 259t-142.5 213t-212.5 144t-263 53q-137 0 -259 -53t-212 -144t-143 -213t-53 -259zM731 1550q6 29 21.5 49.5t40.5 30.5q37 16 73.5 2t63.5 -43q37 -39 88 -22q18 8 32.5 22.5t18.5 36.5l23 -6 q-6 -29 -22.5 -49.5t-43.5 -30.5q-29 -12 -61.5 -4t-55.5 33t-53.5 35t-56.5 0q-35 -14 -43 -60z" />
<glyph unicode="&#xd6;" horiz-adv-x="1695" d="M170 717q0 156 59.5 291t161 235t235.5 158.5t285 58.5q156 0 291 -58.5t235.5 -158.5t159 -235.5t58.5 -290.5q0 -152 -58.5 -286t-159 -235.5t-235.5 -161t-291 -59.5q-152 0 -285.5 59.5t-235 161t-161 235.5t-59.5 286zM244 717q0 -137 53 -259t143 -212t212 -143.5 t259 -53.5q141 0 263 53.5t212.5 143.5t142.5 212t52 259t-52 259t-142.5 213t-212.5 144t-263 53q-137 0 -259 -53t-212 -144t-143 -213t-53 -259zM741 1565q0 18 10.5 29.5t26.5 11.5q41 0 41 -41q0 -14 -11 -25.5t-30 -11.5q-16 0 -26.5 11t-10.5 26zM989 1565 q0 18 10.5 29.5t26.5 11.5q41 0 41 -41q0 -14 -11.5 -25.5t-29.5 -11.5q-16 0 -26.5 11t-10.5 26z" />
<glyph unicode="&#xd9;" horiz-adv-x="991" d="M127 375v6v1046h66v-1046q6 -68 37.5 -129.5t80.5 -107.5t111.5 -73.5t130.5 -27.5q70 0 133.5 27.5t113.5 73.5t82.5 108.5t39.5 132.5v1042h69v-1052q-6 -84 -44 -157t-96 -126t-134 -85t-160 -32t-159.5 32t-133 85t-94.5 126t-43 157zM406 1661h55l119 -154h-56z" />
<glyph unicode="&#xda;" horiz-adv-x="991" d="M127 375v6v1046h66v-1046q6 -68 37.5 -129.5t80.5 -107.5t111.5 -73.5t130.5 -27.5q70 0 133.5 27.5t113.5 73.5t82.5 108.5t39.5 132.5v1042h69v-1052q-6 -84 -44 -157t-96 -126t-134 -85t-160 -32t-159.5 32t-133 85t-94.5 126t-43 157zM514 1503l119 154h55l-119 -154 h-55z" />
<glyph unicode="&#xdb;" horiz-adv-x="991" d="M127 375v6v1046h66v-1046q6 -68 37.5 -129.5t80.5 -107.5t111.5 -73.5t130.5 -27.5q70 0 133.5 27.5t113.5 73.5t82.5 108.5t39.5 132.5v1042h69v-1052q-6 -84 -44 -157t-96 -126t-134 -85t-160 -32t-159.5 32t-133 85t-94.5 126t-43 157zM365 1507l188 185l186 -185h-43 l-143 123l-143 -123h-45z" />
<glyph unicode="&#xdc;" horiz-adv-x="991" d="M127 375v6v1046h66v-1046q6 -68 37.5 -129.5t80.5 -107.5t111.5 -73.5t130.5 -27.5q70 0 133.5 27.5t113.5 73.5t82.5 108.5t39.5 132.5v1042h69v-1052q-6 -84 -44 -157t-96 -126t-134 -85t-160 -32t-159.5 32t-133 85t-94.5 126t-43 157zM389 1565q0 18 10.5 29.5 t26.5 11.5q41 0 41 -41q0 -14 -11.5 -25.5t-29.5 -11.5q-16 0 -26.5 11t-10.5 26zM637 1565q0 18 10.5 29.5t26.5 11.5q41 0 41 -41q0 -14 -11.5 -25.5t-29.5 -11.5q-16 0 -26.5 11t-10.5 26z" />
<glyph unicode="&#xe0;" d="M121 -2l485 1462l410 -1462h-70l-80 287h-577l-99 -287h-69zM309 350h539l-248 895zM446 1661h56l119 -154h-56z" />
<glyph unicode="&#xe1;" d="M121 -2l485 1462l410 -1462h-70l-80 287h-577l-99 -287h-69zM309 350h539l-248 895zM596 1503l119 154h55l-119 -154h-55z" />
<glyph unicode="&#xe2;" d="M121 -2l485 1462l410 -1462h-70l-80 287h-577l-99 -287h-69zM309 350h539l-248 895zM455 1489l147 184l146 -184h-43l-103 123l-102 -123h-45z" />
<glyph unicode="&#xe3;" d="M121 -2l485 1462l410 -1462h-70l-80 287h-577l-99 -287h-69zM309 350h539l-248 895zM442 1509q6 29 21.5 49.5t40.5 30.5q37 16 73.5 2t63.5 -43q37 -39 88 -22q18 8 32.5 22.5t18.5 36.5l23 -6q-6 -29 -22.5 -49.5t-43.5 -30.5q-29 -12 -61.5 -4t-54.5 33 q-23 25 -53.5 35t-57.5 0q-35 -14 -43 -60z" />
<glyph unicode="&#xe4;" d="M121 -2l485 1462l410 -1462h-70l-80 287h-577l-99 -287h-69zM309 350h539l-248 895zM444 1565q0 18 10.5 29.5t26.5 11.5q41 0 41 -41q0 -14 -11 -25.5t-30 -11.5q-16 0 -26.5 11t-10.5 26zM692 1565q0 18 10.5 29.5t26.5 11.5q41 0 41 -41q0 -14 -11 -25.5t-30 -11.5 q-16 0 -26.5 11t-10.5 26z" />
<glyph unicode="&#xe6;" horiz-adv-x="2072" d="M121 -2l485 1462l410 -1462h-70l-80 287h-577l-99 -287h-69zM309 350h539l-248 895zM946 0v1432h811v-64h-739v-539h436v-81h-436v-680h739v-68h-811z" />
<glyph unicode="&#xe7;" horiz-adv-x="823" d="M133 705q0 150 52.5 278.5t144.5 227t218 160t275 77.5v-74q-133 -16 -245.5 -72.5t-194.5 -144.5t-128 -203.5t-46 -248.5q0 -125 46 -236t128 -196t194.5 -141t245.5 -71v-71q-150 14 -275.5 75.5t-217.5 156.5t-144.5 218t-52.5 265zM367 -260l65 14v-18q8 -31 29 -53 q16 -20 46 -36t77 -16q35 0 65.5 8.5t52.5 28.5q18 12 30.5 34t17.5 46l1 14q1 13 -2.5 31.5t-13.5 40t-33 37.5q-39 25 -70.5 33t-66.5 12l-18 2l47 127l57 -20l-22 -54q53 -8 106 -39q39 -27 57.5 -60.5t23.5 -64t3 -52t-4 -21.5q-4 -37 -24.5 -66.5t-55.5 -58.5 q-59 -47 -151 -47q-20 0 -46 4t-51 14q-47 23 -78.5 59.5t-37.5 84.5z" />
<glyph unicode="&#xe8;" horiz-adv-x="1050" d="M129 0v1432h811v-64h-739v-539h436v-81h-436v-680h739v-68h-811zM406 1661h55l119 -154h-56z" />
<glyph unicode="&#xe9;" horiz-adv-x="1050" d="M129 0v1432h811v-64h-739v-539h436v-81h-436v-680h739v-68h-811zM535 1503l118 154h56l-119 -154h-55z" />
<glyph unicode="&#xea;" horiz-adv-x="1050" d="M129 0v1432h811v-64h-739v-539h436v-81h-436v-680h739v-68h-811zM385 1489l147 184l146 -184h-43l-103 123l-102 -123h-45z" />
<glyph unicode="&#xec;" horiz-adv-x="1705" />
<glyph unicode="&#xee;" horiz-adv-x="1705" />
<glyph unicode="&#xf1;" horiz-adv-x="1001" d="M129 0v1462l805 -1067v1039h67v-1434h-67v285l-735 968v-1253h-70zM397 1550q6 29 21.5 49.5t40.5 30.5q37 16 73.5 2t63.5 -43q37 -39 88 -22q18 8 32.5 22.5t18.5 36.5l23 -6q-6 -29 -22.5 -49.5t-43.5 -30.5q-29 -12 -61.5 -4t-55.5 33t-53 35t-57 0q-35 -14 -43 -60z " />
<glyph unicode="&#xf2;" horiz-adv-x="1695" d="M170 717q0 156 59.5 291t161 235t235.5 158.5t285 58.5q156 0 291 -58.5t235.5 -158.5t159 -235.5t58.5 -290.5q0 -152 -58.5 -286t-159 -235.5t-235.5 -161t-291 -59.5q-152 0 -285.5 59.5t-235 161t-161 235.5t-59.5 286zM244 717q0 -137 53 -259t143 -212t212 -143.5 t259 -53.5q141 0 263 53.5t212.5 143.5t142.5 212t52 259t-52 259t-142.5 213t-212.5 144t-263 53q-137 0 -259 -53t-212 -144t-143 -213t-53 -259zM745 1661h56l119 -154h-56z" />
<glyph unicode="&#xf3;" horiz-adv-x="1695" d="M170 717q0 156 59.5 291t161 235t235.5 158.5t285 58.5q156 0 291 -58.5t235.5 -158.5t159 -235.5t58.5 -290.5q0 -152 -58.5 -286t-159 -235.5t-235.5 -161t-291 -59.5q-152 0 -285.5 59.5t-235 161t-161 235.5t-59.5 286zM244 717q0 -137 53 -259t143 -212t212 -143.5 t259 -53.5q141 0 263 53.5t212.5 143.5t142.5 212t52 259t-52 259t-142.5 213t-212.5 144t-263 53q-137 0 -259 -53t-212 -144t-143 -213t-53 -259zM903 1503l119 154h55l-119 -154h-55z" />
<glyph unicode="&#xf4;" horiz-adv-x="1695" d="M170 717q0 156 59.5 291t161 235t235.5 158.5t285 58.5q156 0 291 -58.5t235.5 -158.5t159 -235.5t58.5 -290.5q0 -152 -58.5 -286t-159 -235.5t-235.5 -161t-291 -59.5q-152 0 -285.5 59.5t-235 161t-161 235.5t-59.5 286zM244 717q0 -137 53 -259t143 -212t212 -143.5 t259 -53.5q141 0 263 53.5t212.5 143.5t142.5 212t52 259t-52 259t-142.5 213t-212.5 144t-263 53q-137 0 -259 -53t-212 -144t-143 -213t-53 -259zM715 1507l188 185l187 -185h-43l-144 123l-143 -123h-45z" />
<glyph unicode="&#xf5;" horiz-adv-x="1695" d="M170 717q0 156 59.5 291t161 235t235.5 158.5t285 58.5q156 0 291 -58.5t235.5 -158.5t159 -235.5t58.5 -290.5q0 -152 -58.5 -286t-159 -235.5t-235.5 -161t-291 -59.5q-152 0 -285.5 59.5t-235 161t-161 235.5t-59.5 286zM244 717q0 -137 53 -259t143 -212t212 -143.5 t259 -53.5q141 0 263 53.5t212.5 143.5t142.5 212t52 259t-52 259t-142.5 213t-212.5 144t-263 53q-137 0 -259 -53t-212 -144t-143 -213t-53 -259zM731 1550q6 29 21.5 49.5t40.5 30.5q37 16 73.5 2t63.5 -43q37 -39 88 -22q18 8 32.5 22.5t18.5 36.5l23 -6 q-6 -29 -22.5 -49.5t-43.5 -30.5q-29 -12 -61.5 -4t-55.5 33t-53.5 35t-56.5 0q-35 -14 -43 -60z" />
<glyph unicode="&#xf6;" horiz-adv-x="1695" d="M170 717q0 156 59.5 291t161 235t235.5 158.5t285 58.5q156 0 291 -58.5t235.5 -158.5t159 -235.5t58.5 -290.5q0 -152 -58.5 -286t-159 -235.5t-235.5 -161t-291 -59.5q-152 0 -285.5 59.5t-235 161t-161 235.5t-59.5 286zM244 717q0 -137 53 -259t143 -212t212 -143.5 t259 -53.5q141 0 263 53.5t212.5 143.5t142.5 212t52 259t-52 259t-142.5 213t-212.5 144t-263 53q-137 0 -259 -53t-212 -144t-143 -213t-53 -259zM741 1565q0 18 10.5 29.5t26.5 11.5q41 0 41 -41q0 -14 -11 -25.5t-30 -11.5q-16 0 -26.5 11t-10.5 26zM989 1565 q0 18 10.5 29.5t26.5 11.5q41 0 41 -41q0 -14 -11.5 -25.5t-29.5 -11.5q-16 0 -26.5 11t-10.5 26z" />
<glyph unicode="&#xf8;" horiz-adv-x="1695" d="M137 4l1444 1471h90l-1431 -1471h-103zM170 717q0 156 59.5 291t161 235t235.5 158.5t285 58.5q156 0 291 -58.5t235.5 -158.5t159 -235.5t58.5 -290.5q0 -152 -58.5 -286t-159 -235.5t-235.5 -161t-291 -59.5q-152 0 -285.5 59.5t-235 161t-161 235.5t-59.5 286z M244 717q0 -137 53 -259t143 -212t212 -143.5t259 -53.5q141 0 263 53.5t212.5 143.5t142.5 212t52 259t-52 259t-142.5 213t-212.5 144t-263 53q-137 0 -259 -53t-212 -144t-143 -213t-53 -259z" />
<glyph unicode="&#xf9;" horiz-adv-x="991" d="M127 375v6v1046h66v-1046q6 -68 37.5 -129.5t80.5 -107.5t111.5 -73.5t130.5 -27.5q70 0 133.5 27.5t113.5 73.5t82.5 108.5t39.5 132.5v1042h69v-1052q-6 -84 -44 -157t-96 -126t-134 -85t-160 -32t-159.5 32t-133 85t-94.5 126t-43 157zM406 1661h55l119 -154h-56z" />
<glyph unicode="&#xfa;" horiz-adv-x="991" d="M127 375v6v1046h66v-1046q6 -68 37.5 -129.5t80.5 -107.5t111.5 -73.5t130.5 -27.5q70 0 133.5 27.5t113.5 73.5t82.5 108.5t39.5 132.5v1042h69v-1052q-6 -84 -44 -157t-96 -126t-134 -85t-160 -32t-159.5 32t-133 85t-94.5 126t-43 157zM514 1503l119 154h55l-119 -154 h-55z" />
<glyph unicode="&#xfb;" horiz-adv-x="991" d="M127 375v6v1046h66v-1046q6 -68 37.5 -129.5t80.5 -107.5t111.5 -73.5t130.5 -27.5q70 0 133.5 27.5t113.5 73.5t82.5 108.5t39.5 132.5v1042h69v-1052q-6 -84 -44 -157t-96 -126t-134 -85t-160 -32t-159.5 32t-133 85t-94.5 126t-43 157zM365 1507l188 185l186 -185h-43 l-143 123l-143 -123h-45z" />
<glyph unicode="&#xfc;" horiz-adv-x="991" d="M127 375v6v1046h66v-1046q6 -68 37.5 -129.5t80.5 -107.5t111.5 -73.5t130.5 -27.5q70 0 133.5 27.5t113.5 73.5t82.5 108.5t39.5 132.5v1042h69v-1052q-6 -84 -44 -157t-96 -126t-134 -85t-160 -32t-159.5 32t-133 85t-94.5 126t-43 157zM389 1565q0 18 10.5 29.5 t26.5 11.5q41 0 41 -41q0 -14 -11.5 -25.5t-29.5 -11.5q-16 0 -26.5 11t-10.5 26zM637 1565q0 18 10.5 29.5t26.5 11.5q41 0 41 -41q0 -14 -11.5 -25.5t-29.5 -11.5q-16 0 -26.5 11t-10.5 26z" />
<glyph unicode="&#x2000;" horiz-adv-x="846" />
<glyph unicode="&#x2001;" horiz-adv-x="1692" />
<glyph unicode="&#x2002;" horiz-adv-x="846" />
<glyph unicode="&#x2003;" horiz-adv-x="1692" />
<glyph unicode="&#x2004;" horiz-adv-x="564" />
<glyph unicode="&#x2005;" horiz-adv-x="423" />
<glyph unicode="&#x2006;" horiz-adv-x="282" />
<glyph unicode="&#x2007;" horiz-adv-x="282" />
<glyph unicode="&#x2008;" horiz-adv-x="211" />
<glyph unicode="&#x2009;" horiz-adv-x="338" />
<glyph unicode="&#x200a;" horiz-adv-x="94" />
<glyph unicode="&#x202f;" horiz-adv-x="338" />
<glyph unicode="&#x205f;" horiz-adv-x="423" />
<glyph unicode="&#xe000;" horiz-adv-x="1443" d="M0 0v1444h1444v-1444h-1444z" />
</font>
</defs>
</svg>
