<?xml version="1.0" standalone="no"?>
<!DOCTYPE svg PUBLIC "-//W3C//DTD SVG 1.1//EN" "http://www.w3.org/Graphics/SVG/1.1/DTD/svg11.dtd" >
<svg xmlns="http://www.w3.org/2000/svg">
<metadata></metadata>
<defs>
<font id="boltontitlingshadowedregular" horiz-adv-x="1013" >
<font-face units-per-em="2048" ascent="1638" descent="-410" />
<missing-glyph horiz-adv-x="819" />
<glyph horiz-adv-x="0" />
<glyph horiz-adv-x="682" />
<glyph unicode=" "  horiz-adv-x="819" />
<glyph unicode="&#x09;" horiz-adv-x="819" />
<glyph unicode="&#xa0;" horiz-adv-x="819" />
<glyph unicode="!" horiz-adv-x="405" d="M41 154q0 61 36 107t95 46t98 -46t39 -107t-39 -107.5t-98 -46.5t-95 46t-36 108zM49 1229v104q0 94 7 196.5t22.5 189.5t41 140.5t58.5 53.5q53 -2 92 -176q29 -131 29 -361v-147h-8q-8 -233 -25 -432q-16 -240 -16 -422q-70 35 -84 35q-8 -4 -68 -37l-6 -4zM141 0 q33 -39 86 -39q57 0 97.5 46t40.5 106q0 57 -41 110q-8 8 -25 19q-10 8 -16 12l12 -12q39 -45 39 -109q0 -63 -38 -107t-97 -44q-35 0 -56 14zM147 369l9 4q29 16 41 16q10 0 51 -20l26 -15q0 186 17 426q0 6 8 72q12 111 19.5 178.5t7.5 116.5q0 53 -11 59l7 -4v80v74 q0 195 -16.5 317.5t-65.5 192.5q47 -6 86 -174q27 -109 26 -361v-147q0 -111 -16 -332l-8 -100q-18 -221 -19 -422q-74 37 -84 37q-10 -2 -69 -37l-4 -2z" />
<glyph unicode="&#x22;" horiz-adv-x="532" d="M41 1735v141l2 2h147v-141q0 -100 -12 -144.5t-57 -44.5q-39 0 -58 33q-23 37 -22 154zM137 1522h2q16 -31 54 -31q33 0 51 35t18 153v142h-41v-115q0 -100 -12 -144t-57 -44q-6 0 -15 4zM272 1876h150v-141q0 -100 -12.5 -144.5t-57.5 -44.5q-37 0 -55 33 q-23 41 -23 154v141zM369 1522q8 -4 12 -4q35 0 53 34q18 35 19 154v115h39v-142q0 -100 -12.5 -144t-57.5 -44q-37 0 -53 31z" />
<glyph unicode="#" horiz-adv-x="1032" d="M41 463v59h289l12 109h-219v35h223l4 28h-309v64h317l48 372h61l-51 -372h41l41 313h51l-41 -313h59l49 372h62l-51 -372h41l41 313h51l-41 -313h190v-64h-291l-20 -172h41l16 144h291v28h45v-63h-291l-12 -109h221v-59h-315l-49 -359h-58l37 295h-59l-47 -356h-60l4 33 h9l47 356h112l2 31h-149l-47 -359h-60l39 295h-192v33h196l5 31h-283zM387 522h41l16 144h113l4 28h-153zM477 522h64l14 109h-66zM569 43l4 33h9l47 356h317v31h45v-64h-315l-47 -356h-60z" />
<glyph unicode="$" horiz-adv-x="1187" d="M41 254v272q0 53 41 54q31 0 45 -22.5t27 -61.5q8 -27 12 -37q23 -84 90 -174q12 -18 37.5 -49t32.5 -31q2 0 2 2q0 8 -21 41q-68 96 -92 176q-12 16 -22 72l2 2q33 0 48 -24.5t27 -67.5q6 -23 9 -29q29 -86 92 -174l18 -23l12 -6q29 -12 37 -14l41 456q-31 8 -100 46 q-25 6 -66 36q-35 27 -53 31l8 -2q35 -23 106.5 -50.5t112.5 -33.5l2 23l-10 2q-129 33 -214 69.5t-134 98.5q-51 63 -51 159q0 178 121 238q100 47 215 47h61v2q12 -4 39 -4t27 -4l20 256h45l-22 -260q35 -6 73 -13l15 191h45l-19 -203q27 -6 41.5 -12t42.5 -19 q29 -14 31 -14l12 -6q18 -8 37 -38t32 -69.5t21.5 -75.5t8.5 -53v-14q0 -39 -35 -39q-20 0 -38.5 19.5t-41.5 52.5q-14 20 -20 27q-51 31 -111 53l-16 -178q104 -37 208 -93q78 -43 122 -128t44 -203q0 -201 -153 -322q-162 -127 -324 -127h-90l-4 -29h2h2l-2 -30h-6h-2 l-19 -178h-45l19 190q-16 6 -51 19.5t-73 31t-64.5 32.5t-26.5 26q0 -8 27.5 -20.5t67.5 -26t72.5 -22.5t51.5 -13l4 28q-66 10 -132.5 29.5t-123.5 50.5t-92 71t-35 89zM270 1075q0 -18 10.5 -31.5t34.5 -35.5q16 -14 27 -25q-23 23 -23 53q0 47 48.5 69.5t111.5 22.5h21 q10 -2 18 -2l2 27q-43 16 -86 16q-70 -6 -117 -25.5t-47 -68.5zM381 993q0 -6 6 -18q4 -10 4 -17v-4q6 -2 19 -6l6 -2q16 -2 41.5 -9t44.5 -13l12 159h-2q-61 -8 -96 -25.5t-35 -64.5zM483 150h72l39 436l-4 2q-14 2 -15 4l3 29q2 0 12 -5q25 -6 74 -22l43 -14q4 0 6 -2h4 q0 2 -13.5 9t-35 17t-40 18.5t-28.5 10.5q-8 2 -45 14q-29 10 -31 10l-2 -26h4q6 0 6 -2l-2 -27q-4 2 -6 2zM510 -74l2 2l4 35q23 -2 92 -2q162 0 324 127q154 121 153 322q0 31 -8 80t-22.5 97t-34 79.5t-39.5 31.5q78 -45 122 -130t44 -201q0 -207 -154 -324 q-164 -127 -323 -127q-68 0 -92 2l-23 -240h-45l22 248h-22zM549 905q16 -2 41.5 -8t25.5 -10v8l17 178h-10q-6 0 -7 2l2 25q43 -14 83 -31.5t65 -42.5l6 -6q-23 20 -55 41q-76 53 -148 74l-2 -23q4 -2 6 -2l-2 -31h-6h-2zM592 147h2l39 424q27 -6 47 -13t41 -13l18 -6l6 -2 q49 -49 50 -150q0 -92 -59.5 -161.5t-143.5 -78.5zM911 1112q8 -4 21 -10q39 -14 43 -39q8 -43 31 -109q18 -49 24 -80v-14q0 -35 -37 -35q-14 0 -33.5 15.5t-23.5 29.5l2 -10q33 4 33 41v14l-6 25q-14 63 -27.5 111.5t-26.5 60.5z" />
<glyph unicode="%" horiz-adv-x="1187" d="M41 971q0 131 82 219q84 92 203 92q10 0 53 -6t43 -8q164 -76 301 -76q18 0 55 3t83 9t83 19.5t47 31.5l4 9h21q4 0 6 2l6 2v-4h8l-8 -17v-2q0 -4 -6 -4l-2 -2l-72 -98q6 0 15.5 1t11.5 5l-25 -35l-6 -2q-6 -2 -18 -2l-236 -324q-10 -33 -25.5 -54t-43.5 -50 q-23 -25 -33 -37l-471 -647h-41l440 606q-43 -16 -92 -16q-8 0 -38 9t-62.5 22.5t-57 24.5t-24.5 13l-4 -2q59 -31 129 -30q115 0 200 92q84 90 84 223q0 141 -94 236q49 -16 111 -29q76 -20 149 -21q14 0 51 2q6 0 27 2l63 91q-131 -49 -237 -50q-92 0 -203 39 q94 -94 94 -237q0 -127 -84 -223q-82 -94 -202 -95q-121 0 -203 95q-82 88 -82 223zM168 -70l313 432q12 70 59.5 136.5t108.5 93.5l406 561q-8 -8 -27 -10q-18 -2 -24 -8l24 36q2 0 12 5q20 4 29.5 7t13.5 7l7 12h20q12 2 12 6v-8h11l-11 -20q0 -4 -2 -4t-4 -2h-2 l-409 -564q6 0 14 2q33 2 45 2q121 0 203 -92q84 -90 84 -221q0 -127 -84 -217t-203 -90q-117 0 -201 90t-84 215l-270 -369h-41zM199 971q0 -88 26.5 -163t77.5 -95q-18 23 -27 43q-37 72 -36 182q0 51 4 96t17 85t38 63.5t63 23.5q20 0 35 -8l4 -2q-27 39 -79 39 q-72 0 -97 -78q-27 -74 -26 -186zM293 901q0 -121 43 -186l-2 -2q57 4 84.5 79.5t27.5 180.5q0 61 -6 119.5t-24 76.5q-72 0 -99 -82q-25 -80 -24 -186zM612 1133q96 -92 97 -234q0 -27 -2 -31l170 232h2q-14 -2 -58 -2q-98 0 -209 35zM641 299q0 -86 25.5 -161t76.5 -93 q-18 25 -24 41q-37 72 -37 182q0 49 5 94.5t18.5 84t39 62t62.5 23.5q21 0 37 -8q-27 39 -80 39q-74 0 -98 -76q-25 -80 -25 -188zM678 -4q59 -35 129 -35q119 0 203 90q84 94 84 221q0 70 -25 121t-80 121q74 -45 116 -121t42 -162q0 -129 -84 -223q-84 -90 -203 -90 q-14 0 -43 5t-61.5 14.5t-55 23.5t-22.5 31v4zM737 227q0 -41 23 -110q14 -51 14 -72v-6q0 -2 2 -2v4q59 4 86 81t27 175q-4 129 -27 190v2q-70 0 -98 -79q-27 -72 -27 -183z" />
<glyph unicode="&#x26;" horiz-adv-x="1503" d="M41 637q0 111 33 215q63 203 209 317q23 16 22 45q0 18 -12 52q-76 160 -76 297q0 63 8 82q33 156 230 223q51 10 84 10q16 0 45 -4l-4 18q53 0 104 -30q35 -20 69.5 -70.5t34.5 -93.5q0 -29 -13 -52.5t-42 -60.5q-31 -37 -44 -61.5t-15 -55.5q-4 -18 -21.5 -35.5 t-38.5 -17.5q-16 0 -30.5 27.5t-14.5 58.5q0 10 4 29q4 12 5 16v13q0 8 -3.5 16t-7.5 8t-8 -4q-16 -10 -29.5 -23.5t-13.5 -27.5v-15q0 -16 7 -42.5t19.5 -58.5t21.5 -52.5t14 -24.5q6 2 63 17q39 8 54.5 12t15.5 6q0 39 19.5 74t57.5 84q31 43 47.5 70.5t16.5 54.5 q0 23 -20.5 67.5t-36.5 55.5l24 -15q37 -23 71 -69.5t34 -89.5q0 -33 -14.5 -58.5t-43.5 -60.5t-43 -59.5t-14 -57.5q82 -4 124 -17.5t62 -56.5q10 -18 49 -67q31 -39 46.5 -62.5t15.5 -36.5q0 -12 -19 -18l-12 -6q-12 0 -16 4l35 -29q-68 35 -130.5 51.5t-134.5 16.5 q-57 0 -90.5 -8.5t-33.5 -28.5q0 -12 10 -29l30 -61q6 -8 15 -25q16 -27 20 -35l37 -67q94 -180 246 -430q37 -59 45 -74l4 8q33 55 54.5 101.5t21.5 83.5l-4 26q0 37 28 47h2q8 0 13 2q4 2 12 2q16 0 16 -30v-68q0 -10 2 -41l3 -16v-6q2 -35 12 -86q4 -29 4 -41 q0 -29 -27 -54q-4 -6 -28 -32q-29 -29 -45.5 -47.5t-16.5 -28.5q0 -8 6 -12q31 -37 60.5 -66t36.5 -29q0 6 -39 52q-6 4 -6 12q0 18 15 37.5t44 46.5q27 25 41 42t14 34q-14 41 -16 129l-2 51q0 37 28 49h2q6 0 13 2q4 2 10 2q18 0 18 -31v-69q0 -8 2 -29q2 -18 3 -22v-11 q2 -27 8 -73q6 -37 6 -52q0 -37 -25 -59q-8 -10 -39 -43q-25 -25 -38 -39t-13 -23q0 -8 6 -14l19 -22q8 -10 8 -11q8 -12 10 -12h-6q-4 0 -6 2l6 -12l6 -12q6 -12 6 -21q0 -4 -45 -4q-33 0 -80 2t-71 2q-27 2 -29 2q-8 0 -37 -2q-66 -8 -102 -8q-35 0 -61.5 6t-34.5 23 q-8 18 -29 18h-12q-111 -39 -197 -39q-135 0 -270 72q-225 119 -303 379q-25 86 -25 182zM301 815q0 -137 43 -272q29 -102 81 -188.5t120 -131.5l30 -18q-115 106 -174 291q-43 139 -43 274t52 223q4 6 11 14.5t7 12.5v6q-8 8 -18 27q-16 25 -25 24q-14 0 -33 -39 q-51 -88 -51 -223zM379 61l2 2q78 -70 182.5 -108.5t198.5 -38.5q29 0 90 16q70 20 106 21h13q16 0 35 -23q23 -25 45 -24q102 12 186 12q10 0 63 -4q86 -4 121 -4q41 0 41 6q0 33 -28.5 60.5t-38.5 27.5q-18 0 -27 8q8 -10 14.5 -21t6.5 -18q0 -6 -43 -6q-31 0 -117 4 q-51 4 -66 4q-16 0 -61 -6q-61 -6 -92 -6q-68 0 -82 29q-8 14 -31 14h-16q-104 -35 -197 -35q-78 0 -162 22.5t-143 67.5zM389 1593q0 -27 12.5 -63.5t26.5 -67t26.5 -54.5t18.5 -32q0 -23 22.5 -47t39.5 -24h2h4v-2q0 2 -6 10l-7 10l-6 12q-10 37 -39 103q-37 82 -37 110 v13q8 25 27 42t43 17q10 0 23 -2h4l-2 2q-12 8 -25 20q-33 27 -57 27q-20 0 -45 -20.5t-25 -40.5v-13zM430 711q0 -129 43 -275q4 -12 23.5 -52t48 -91t50 -86t26.5 -35l2 4q72 -39 147 -39h37q37 0 37 37q0 31 -22.5 81t-65.5 126q-27 49 -35 65q-88 176 -234 449 q-6 16 -12 16q-8 0 -16 -22.5t-14.5 -56t-10.5 -67.5t-4 -54zM578 1196q0 -16 6 -27l4 -6q23 -39 30 -57q16 -37 48 -96.5t59 -104.5q63 -125 184 -323q76 -129 129 -224q12 -20 23 -30l4 -6q4 0 18 14l2 2q-12 20 -57 98q-41 70 -59 103q-94 158 -185 323 q-10 20 -36.5 68.5t-36.5 66.5l-62 123q-6 0 -9 10.5t-3 18.5q0 20 29 27q31 10 96 10q72 0 151.5 -22.5t128.5 -55.5q-29 14 -71 43q-41 27 -69 41t-68 22q-70 16 -129 17q-57 0 -92 -7t-35 -28zM1053 1239v6q31 -2 54 -28.5t58 -79.5q35 -55 56 -78l2 -4q14 -23 14 -33 q0 -12 -16 -18l-13 -7q-18 0 -51 31q-14 12 -27 21l-6 4l-4 -4h6h7l12 4q16 6 16 20t-45 64q-31 35 -47 58.5t-16 43.5z" />
<glyph unicode="'" horiz-adv-x="272" d="M41 1737v141h147v-141q0 -100 -13 -143.5t-58 -43.5q-39 0 -58 33q-18 35 -18 154zM113 1530v2l2 2q2 -2 20 -2q35 0 53 35t19 151v123h24v-143q0 -96 -14 -142.5t-59 -46.5q-6 0 -25.5 7.5t-19.5 13.5z" />
<glyph unicode="(" horiz-adv-x="368" d="M41 967q0 391 65 706q63 303 164 371q-68 -160 -106 -449q-41 -305 -41 -628q0 -324 41 -629q38 -286 106 -444q-98 66 -164 366q-66 315 -65 707zM147 948q0 324 41 629q4 31 11 65q20 154 44.5 238t84.5 123q-63 -160 -105 -447q-41 -305 -41 -628q0 -324 41 -629 q39 -289 105 -446l-2 2l-7 6q-23 20 -28 26l2 -4q-70 174 -105 434q-41 285 -41 631z" />
<glyph unicode=")" horiz-adv-x="374" d="M41 -86q63 160 104 446q41 293 41 629t-41 629q-41 287 -104 453q98 -72 166 -373q68 -297 67 -707q0 -410 -67 -708q-68 -303 -166 -371v2zM100 -135q2 6 13 41q12 41 17 57.5t7 16.5h2q53 92 92 282q68 305 68 707q0 399 -68 706q-55 242 -127 334q-4 4 -4 14 q98 -68 166 -370q68 -307 68 -709q0 -401 -68 -706q-68 -301 -166 -373z" />
<glyph unicode="*" horiz-adv-x="423" d="M43 1507q0 18 35 64.5t69 81.5q-16 18 -31.5 36.5t-34 43t-28.5 42t-10 25.5l2 4l4 2q18 0 113 -92v2v2l-2 8q-4 2 -20.5 16.5t-22.5 20.5q10 -2 43 -30q4 141 20 141t25 -150q8 8 13 24.5t13 43.5q6 33 11 33q10 0 18 -51q14 14 29.5 24t25.5 10l7 -4q0 -10 -11.5 -29.5 t-29 -42t-34 -41t-30.5 -34.5q16 -18 33.5 -40t34 -43.5t28 -38.5t11.5 -26h-2v-2l-3 -2h-6q-37 0 -47 -20.5t-10 -54.5q0 -33 -12 -33q-8 0 -11.5 17.5t-3.5 58.5q-2 49 -6 78.5t-16 43.5q-8 -152 -25 -151q-12 0 -16 51q-43 -37 -55 -37q0 2 -5 2l-2 4q0 12 25 45l6 7 q2 2 2 4l2 4l2 4q2 2 6 4q14 12 15 16v45q-92 -90 -113 -90h-4zM244 1630l26 35q4 6 6 6q35 39 59.5 62.5t39.5 23.5l6 -4q0 -12 -25 -47q-25 -39 -80 -102q45 -55 62.5 -78t30 -42.5t12.5 -27.5l-8 -6q-8 0 -43 29l2 2q4 -2 8 -2l8 4q0 10 -11 29.5t-28.5 42t-36 44 t-28.5 31.5z" />
<glyph unicode="+" horiz-adv-x="1032" d="M41 571v64h405v448h60v-448h35v391h45v-391h323v-64h-403v-442h-60v385h-325v31h325v26h-405zM528 66v32h13v447h403v30h47v-61h-405v-448h-58z" />
<glyph unicode="," horiz-adv-x="376" d="M41 152q0 61 37 107t94 46q55 0 94 -41t39 -114v-41q0 -55 -12 -111q-4 -12 -13.5 -33.5t-17.5 -42.5q-18 -39 -18 -43l2 -8q-43 -63 -74 -64q-2 0 -2 7q0 10 6 31.5t19 58.5q12 43 12 47q0 12 -10.5 19t-30.5 14q-33 10 -43 20q35 -18 61 -18q-8 12 -12 12q-59 0 -95 46 t-36 108zM197 -209q0 6 20 25q31 25 43 45l-4 2q27 37 44 103.5t17 127.5v45q-10 90 -49 127q29 -18 48.5 -56t19.5 -85v-45q0 -47 -11.5 -98.5t-31 -96.5t-44 -72.5t-50.5 -27.5q-2 0 -2 6z" />
<glyph unicode="-" d="M41 571v64h868v-64h-868zM100 526v27h838v37h35v-64h-873z" />
<glyph unicode="." horiz-adv-x="372" d="M41 154q0 61 36 107t95 46t98 -46t39 -107t-39 -107.5t-98 -46.5t-95 46t-36 108zM117 12q35 -31 80 -30q59 2 97 48t38 107q0 86 -70 133q31 -31 44 -56.5t13 -66.5q0 -63 -36.5 -107t-100.5 -44q-41 0 -65 18v-2z" />
<glyph unicode="/" horiz-adv-x="837" d="M41 51l596 1753h65l-596 -1753h-65zM135 -18l12 36l584 1719h66l-596 -1755h-66z" />
<glyph unicode="0" horiz-adv-x="1529" d="M41 940q0 387 215 664q217 279 442 278v4q227 0 447 -256q215 -252 215 -688q0 -213 -53.5 -388t-155.5 -302q-205 -252 -453 -252q-238 0 -450 276q-207 274 -207 664zM334 858q0 -276 96 -500q68 -156 156 -204q-51 57 -99 161q-96 217 -96 500v80q12 340 94 569 q39 115 104.5 176.5t155.5 61.5q4 0 26 -3t44.5 -8t40.5 -11.5t18 -12.5l-2 -4q-78 78 -184 78q-178 -2 -260 -236q-43 -123 -68.5 -267t-25.5 -300v-80zM467 764q0 -276 96 -500l4 -10q20 -43 39 -79t27 -36h-2q25 -6 59 -6q154 12 248 229q49 113 79 262.5t30 317.5v100 q0 299 -82 482q-29 72 -54.5 97.5t-89.5 25.5q-180 0 -260 -236q-43 -127 -68.5 -269.5t-25.5 -299.5v-78zM520 20h2q115 -68 234 -67q248 0 452 252q102 125 155.5 301t53.5 389q0 434 -215 686l-12 16q-41 47 -68.5 76t-48.5 33q20 -4 46 -21.5t51.5 -43t51 -53 t48.5 -54.5l4 -6q215 -254 215 -686q-2 -434 -209 -690q-209 -254 -453 -254q-160 0 -307 122z" />
<glyph unicode="1" horiz-adv-x="874" d="M41 1262q0 29 40 66.5t118 96.5q53 39 83.5 66t49.5 49q49 61 90 135q12 25 31 64q31 70 55 102.5t61 32.5h13q31 -6 30 -49q0 -6 -4 -25q-8 -25 -8 -41v-174q0 -33 -2 -63q-2 -139 -2 -199v-461q0 -219 3 -339t17 -212q10 -96 35 -170.5t45 -74.5q4 0 9 4l2 2 q-16 16 -26.5 66t-23.5 138q-8 72 -12 201q-4 229 -4 354v457l6 264v177q14 31 15 59q0 14 -3 14h25q31 -6 31 -49q0 -29 -15 -63v-179q-2 -27 -2 -125v-403q-2 -29 -2 -113v-79q0 -125 4 -355q0 -37 5.5 -105.5t12.5 -135t17 -111.5t23 -45h-2q-6 -2 -11 -2q-2 0 -4 2v-14 q0 -14 -21.5 -19.5t-57.5 -5.5q-35 0 -99 4q-55 4 -74 4h-55t-61 -4q-8 0 -43 -4q-47 -6 -70 -6q-37 0 -37 12v14q14 70 43 72q37 0 58.5 74t33.5 199q12 117 13 356v504q-8 -4 -15 -11q-8 -8 -32 -24q-31 -18 -45 -33q-8 -8 -15 -12l-6 -4q-10 -8 -18 -8h-23q-20 0 -33.5 8 t-25.5 22l-8 8h34q12 2 25 15l14 10q49 49 123 86h-4q12 4 18 4q2 0 2 2q0 4 -9 14.5t-15 12.5q-6 6 -21 6q-12 0 -45 -23l-14 -10l-22 -12q-12 -8 -31 -23q-31 -23 -43 -30l-6 -4q-10 -10 -23 -11q-8 0 -14 -4q-4 -2 -10 -2q-25 0 -46.5 21.5t-21.5 38.5zM311 -47q2 6 2 10 l4 -4l29 4q76 10 103 10q39 2 79 2q82 0 111 -2q16 -2 86 -10l25 -4q31 0 30 29v14q2 0 11 -2q10 -2 16 -2q14 0 20.5 -9t6.5 -38q0 -31 -33 -31q-74 12 -111 14q-27 2 -108 3q-39 0 -86 -3q-35 -8 -99 -12q-37 -2 -51 -4q-35 0 -35 19v14v2z" />
<glyph unicode="2" horiz-adv-x="1386" d="M41 1376q0 223 174 367q174 143 420 143q193 0 332 -100q12 -8 42.5 -44t68.5 -85t62.5 -83t24.5 -38h2q45 -135 45 -268q0 -190 -94 -310q-92 -123 -235 -233q-143 -111 -283 -203q-35 -23 -75 -54.5t-79.5 -68.5t-65.5 -71.5t-26 -61.5q0 -18 27 -18h37l10 -4q2 2 2 6 q88 129 236 229q10 6 65 47t76 56q72 53 141 106q137 104 234 232q96 129 96 309q0 6 -4 53t-9 94t-14.5 85t-19.5 38h-2q-55 137 -162 221l6 -4q18 -10 27 -18q10 -6 38.5 -41t69.5 -86t64.5 -84t23.5 -39h2q47 -143 48 -270q0 -182 -97 -308q-106 -139 -233 -233 q-35 -25 -75 -54.5t-67 -50.5q-12 -8 -28 -20q-27 -20 -41 -31q-96 -66 -155.5 -116t-112.5 -115q119 6 266 22q86 10 151.5 56.5t104.5 122.5q35 68 92 67q20 0 29.5 -17.5t9.5 -41.5q0 -31 -14.5 -62.5t-40.5 -79.5q-37 -59 -45 -86q-10 -20 -25 -79q-20 -74 -42 -112 t-62 -38q-10 0 -50.5 2t-73 4t-58 4t-34.5 2q-47 2 -239 2q-96 0 -363 -16q-14 -2 -32 -2q-12 0 -24.5 16.5t-12.5 30.5q0 10 4 14q74 190 172 338q90 135 268 273l2 2q6 4 23 16q31 18 43 31q20 18 50 47t54.5 54.5t50 54t35.5 43.5q8 12 8 16q53 90 85 163.5t32 149.5 q0 43 -7 96.5t-20.5 103.5t-33 85t-41.5 41l-19 6q-33 6 -108 6q-119 0 -215 -102q-96 -104 -97 -230q0 -102 39 -178h13q94 0 159 60q16 18 37 18q49 0 49 -63v-15h-2q-2 -2 -6 -18q-57 -129 -252 -129q-39 0 -75.5 7t-55.5 26q-12 4 -28 16q-94 66 -145.5 167t-51.5 232z M188 -31l2 -4q33 4 82 8q10 2 15 2q10 0 47 2q18 0 45 3q23 0 63 2q74 4 115 4q229 0 455 -17q41 0 58 30t34 89l6 23q8 51 23.5 86.5t42.5 85.5q35 68 53 112q6 10 6 29v6q6 2 31 2q18 0 28.5 -17.5t10.5 -37.5q0 -37 -15.5 -70t-42.5 -71q-37 -53 -45 -84q-25 -66 -28 -91 q-10 -59 -31 -98t-66 -39q-174 14 -454 15q-45 0 -154 -9q-109 -10 -158 -10q-57 0 -90 11.5t-33 37.5zM231 1350q0 -16 3.5 -48t8.5 -63t13 -53.5t16 -22.5h2q4 -6 13.5 -15t27 -24.5t24.5 -20.5t11 -9l2 -4q-2 2 -10 14q-8 14 -10 14h-2q-41 82 -41 189q0 125 94 231 q96 104 215 104q76 0 109 -6q12 -4 20 -6q33 -10 33 -12t-12 -2q-55 49 -97 59q-45 10 -110 11q-121 0 -215 -107q-94 -100 -95 -229zM315 924l2 2q84 -84 201 -84q211 0 256 147h2q2 6 2 21q0 63 -51 63q-2 0 -10 -2t-8 -4v-12q0 -20 -2 -21h-2q-45 -147 -259 -147 q-8 0 -29.5 4t-45 10t-40 12.5t-16.5 10.5z" />
<glyph unicode="3" horiz-adv-x="1478" d="M41 485q0 248 215 353q31 16 94 20q45 0 69.5 -7t24.5 -28v-26q0 -18 -18 -37t-55 -47q-49 -39 -56 -54q-33 -45 -32 -127v-53q0 -127 92 -231q31 -35 74 -64q-25 10 -45.5 41t-34 71t-20.5 78t-7 62v53q0 82 31 127q10 20 65 60q33 25 50.5 41t17.5 35v10 q43 -2 57.5 -13.5t14.5 -48.5q0 -18 -19.5 -37.5t-60.5 -50.5q-47 -35 -56 -49q-31 -45 -30 -127v-53q0 -119 84 -221q53 -20 102 -21q180 0 295 158t117 352q6 37 6 74q0 154 -88 279q-29 31 -65 42t-85 11q-25 0 -69 -17q-47 -18 -74 -18q-25 0 -25 35q0 25 29 37t66 12 q100 0 178 -47q-94 94 -230 94q-27 0 -65 -16q-45 -16 -78 -17q-23 0 -23 33q0 37 40 83t110 112l55 55q72 76 127 147h-82q-106 0 -197 -27.5t-118 -72.5q-49 -82 -115 -82q-29 0 -28 43l2 6q4 12 4 17l-13 6q41 23 68 67q33 47 124 74t200 27h92q66 0 88 4t22 16v4 q-2 4 -2 6l-2 4q-8 2 -35 7q-74 8 -129 8h-88q-100 0 -198.5 -27.5t-126.5 -73.5q-53 -84 -115 -83q-27 0 -27 43q2 33 33 94t72 124.5t76.5 107.5t48.5 44q186 -16 422 -16q205 0 417 16q27 0 27 -31q0 -18 -9 -40.5t-22 -34.5q-57 -61 -135 -142l-24 -26q-16 -18 -43 -45 q-53 -53 -81 -89t-28 -63t35 -39q12 -2 18 -6q4 25 36 65t85 95q23 25 33 37q14 16 41 43q25 23 39 38t35 40q57 57 73 94h23q45 0 45 -31q0 -20 -18.5 -51t-47 -66t-50 -58.5t-52.5 -55.5l-12 -13q-10 -10 -45 -51q-45 -47 -70 -76.5t-33 -54.5q119 -72 185 -201 q90 -174 90 -432q0 -131 -74 -260t-174 -223q-100 -98 -230 -158q-123 -55 -241 -55q-236 0 -393 154q-154 154 -154 335zM362 23q143 -125 361 -125q109 0 240 59q131 61 229 156q98 96 172 223q74 129 74 256q0 258 -92 436q-12 25 -35 59.5t-48.5 67.5t-53 54.5 t-48.5 21.5q12 0 30.5 -18.5t36 -45t32 -52t18.5 -36.5q92 -178 92 -436q0 -61 -19.5 -126.5t-54.5 -131.5q-70 -125 -174 -223q-109 -98 -229 -158q-119 -55 -240 -55q-162 0 -288 71z" />
<glyph unicode="4" horiz-adv-x="1449" d="M41 428q6 53 45 92q109 152 223 314q4 4 26.5 35.5t107.5 154.5t87 127q229 326 412 653q18 33 51 57.5t60 24.5q33 0 39 -43q4 -35 6 -35q-2 -49 -2 -223q0 -172 -2 -221q-2 -78 -7 -223q-2 -80 -6 -219v-158q0 -94 2 -129q0 -43 10.5 -62.5t49.5 -19.5q-2 4 -2 39 q-2 16 -2 129v74q0 63 2 82q0 170 2 219q4 143 6 217q2 51 2 223q0 18 -2 80v67q0 45 5 72t20 29q20 -2 29 -17.5t16 -40.5q4 -16 8 -16q-2 -57 -2 -72q-2 -109 -2 -151q0 -174 -2 -223q-2 -145 -7 -224q-2 -59 -4 -120q-2 -76 -2 -103v-155q0 -84 2 -115h9q59 0 59 -60v-67 q0 -61 -59 -62h-62q-29 0 -41 -20.5t-12 -56.5q0 -35 10 -78t19 -62q4 -8 26 -39q27 -35 43.5 -60.5t16.5 -41.5q0 -20 -37 -20l-49 6q-12 2 -27.5 5t-26.5 3q-51 6 -104 6q-27 0 -55.5 -1t-61.5 -3q-4 0 -27 -4q-49 -8 -75 -8q-47 0 -47 24q16 35 32.5 50.5t42.5 29.5 q20 14 35 26.5t25 39.5q10 37 12 108h-631q-49 10 -53 53h684l-2 7q-2 43 -18 43q-12 2 -39 2h-703q-53 12 -53 61zM313 553q0 -16 19 -16l45 2l6 6q94 154 238 358q152 213 237 365q0 96 -12 96q-4 0 -12 -8q-2 -6 -19 -25l-12 -16q-92 -154 -240 -367q-14 -20 -61 -82 q-45 -59 -73 -97t-54.5 -79t-44 -76.5t-17.5 -60.5zM479 541l348 8q33 0 33 61v138q0 27 -2 69q-2 61 -2 88v191h-2q-80 -125 -166 -246q-104 -143 -209 -309zM838 -84q0 2 6 12q10 15 10 19q6 2 29 2h30q59 6 117 6q20 0 78 -8q78 -10 106 -10q59 0 60 26q-2 31 -11.5 47.5 t-27.5 32.5q-29 27 -41 59q-6 8 -19.5 56.5t-13.5 87.5q0 33 13.5 52t42.5 19h63q55 0 55 60v72v2v6h15q59 0 59 -58v-69q0 -61 -59 -62h-62q-29 0 -41 -21.5t-12 -56.5q0 -37 10 -78.5t19 -60.5q4 -10 30 -47q29 -35 42.5 -57.5t13.5 -38.5q0 -23 -35 -23q-31 2 -51 6 l-56 7q-51 8 -104 8q-39 0 -82 -2l-33 -2q-25 -2 -78 -11l-41 -4q-8 0 -20 10.5t-12 18.5z" />
<glyph unicode="5" horiz-adv-x="1409" d="M41 428q0 201 109 297q94 82 227 82h49q45 0 45 -51t-33 -56h-2q-170 -47 -170 -256q0 -131 86 -223q10 -14 37 -31q16 -12 25 -20l-6 6q-90 90 -91 230q0 207 170 256h2q35 6 35 53v2q4 -2 27 -2q45 0 45 -53q0 -47 -35 -52h-2q-170 -49 -170 -256q0 -121 70 -202 q47 -20 106 -21q176 0 299 156q98 121 99 346q0 211 -99 340q-4 6 -12 16l-12 15q-37 12 -84 22t-84 10q-55 0 -104.5 -27.5t-108.5 -74.5q-66 -51 -86 -51q-51 0 -56 57l-16 -20q16 6 37 24q14 16 41 38t61.5 42t71.5 33.5t72 13.5q4 0 35.5 -3t71.5 -9t71 -18.5t37 -30.5 q-8 29 -44 49t-83 33.5t-87 18.5t-55 5q-61 0 -116.5 -31.5t-116.5 -83.5q-51 -41 -64 -40q-57 0 -57 65q0 61 2 86q4 90 12 176q8 66 9 180q0 33 -11 134q-8 76 -11 112.5t-3 71.5q0 41 7 65.5t22 24.5q2 0 4 -2h4l6 -2q6 0 15.5 -1t9.5 -3v2q18 -2 82 -10q195 -23 299 -23 h135q125 0 183 6t81 29q27 20 53 20q25 0 39 -18l2 -4q2 -10 2 -17q0 -16 -12 -32q-35 -43 -82 -121q-35 -61 -59.5 -86t-67.5 -25h-2q-4 0 -12 2l-6 2q-125 8 -293 9h-111q-88 0 -117.5 -4.5t-29.5 -20.5q0 -10 2 -21v-6v-90v-28q-2 -31 -2 -43q0 -29 4 -45.5t16 -16.5 q6 0 23.5 4t17.5 6v29q-2 14 -2 55v88q-2 6 -2 29t35 23q16 0 63 4q39 2 49 2h111q90 0 287 -13l14 -2q6 -2 8 -2h2q43 0 62.5 8.5t36.5 43.5q39 88 112 180l6 6q6 6 29 14l2 2q23 0 39 -9t16 -26q0 -25 -24.5 -66.5t-57 -84.5t-62.5 -77t-34 -36q-18 -2 -47 -2h-2 q-4 0 -12 2l-4 2q-201 10 -295 11h-111q-14 0 -65 -2q-20 -2 -41 -3h-6q-35 0 -35 -20q0 -12 2 -25v-6v-82v-2v-2q90 23 160 23q248 0 438 -197q178 -186 178 -512q0 -10 2 -22q2 -10 2 -19q0 -260 -184 -461q-193 -209 -449 -208q-238 0 -405 102q-162 100 -162 346z M279 35q164 -94 387 -94q254 0 448 211q182 199 182 458v41q0 322 -178 512q-20 25 -61 58q68 -43 133 -109q178 -186 178 -512v-41q0 -262 -182 -461q-195 -211 -449 -211q-236 0 -405 107q-23 14 -51 39z" />
<glyph unicode="6" horiz-adv-x="1468" d="M41 807q0 182 68 348q82 199 202 346q123 150 287 262q162 106 309 107l4 4q72 0 72 -51q0 -25 -21.5 -38t-52.5 -13q-86 -45 -183 -118t-167 -149q-98 -109 -168 -250q-6 -12 -20.5 -51t-28.5 -88t-23.5 -96t-9.5 -78q0 -41 19 -45q16 0 32 18q6 8 13 13q14 156 76 284 q74 150 165 248q88 98 193 168q45 31 129 72q53 27 75.5 42t22.5 34h6q70 0 70 -52q0 -27 -21.5 -40t-50.5 -13q-55 -31 -159 -96q-86 -55 -193 -170q-70 -78 -130 -178.5t-83 -194.5q14 16 53 72q55 78 94 121t68 43q256 0 428 -164q176 -166 176 -481q0 -272 -174 -463 q-176 -188 -362 -195h-6q-6 2 -7 4v-4q-297 0 -503 213q-199 205 -199 629zM358 553q0 -39 17.5 -96.5t49.5 -117.5t73 -112.5t86 -83.5h-2q-33 33 -64 82t-53.5 103.5t-35.5 101.5t-13 78q0 162 96 295q100 137 246 137q12 0 35.5 -2t49 -7t45 -13.5t23.5 -20.5 q-6 23 -30.5 39t-59.5 28.5t-65.5 17.5t-53.5 5q-143 0 -245 -139q-98 -131 -99 -295zM436 25v2q4 -2 51.5 -20.5t105.5 -39t111.5 -36t79.5 -15.5q20 0 21 10v2l4 -2h2h6q186 2 361 193q176 195 176 463q0 313 -176 479q-20 20 -21 22q4 0 39 -27.5t55 -45.5 q176 -164 176 -480q0 -270 -176 -464q-90 -98 -180 -145.5t-188 -47.5h-6v-2q-250 0 -441 154zM487 451q0 -59 40 -158.5t102 -173.5q35 -12 73 -13q143 0 246 127q100 125 101 312q0 180 -101 305l-12 12l2 6q-49 18 -107 19q-143 0 -245 -139q-98 -131 -99 -297z" />
<glyph unicode="7" horiz-adv-x="1333" d="M41 1458q0 12 9 37t23.5 52.5t29 53t30.5 52.5q8 25 23 69q27 88 55.5 132t89.5 44h2h2q160 0 273.5 -5t220.5 -15q23 -2 100 -2h96q23 0 66 4q45 4 69 4q35 0 35 -31q0 -10 -4 -26q-186 -418 -344 -854q-158 -432 -244 -924q-10 -53 -49 -53h-16q-51 8 -111 8 q-16 0 -51 -4t-49 -4q-25 0 -38 9t-13 32v12q106 379 293 766q51 109 92 197q55 117 82 172q14 27 53 110l29 62l47 98q20 43 41 86q-45 6 -99 6h-88q-137 0 -240.5 -34.5t-138.5 -102.5q-39 -86 -108 -86q-18 0 -32.5 13.5t-14.5 31.5v2v2h-2q53 8 88 82q57 115 284 131 q47 6 93 6h88q4 0 22 -2q94 -4 119 -4q45 0 45 6q0 29 -41 29q-102 14 -201 14h-88q-141 0 -241.5 -34.5t-134.5 -104.5q-41 -84 -111 -84q-41 0 -41 47zM373 -39l4 2v-12q0 -16 6 -29.5t25 -13.5q76 10 116 10q37 0 115 -10h12q39 0 49 53q84 487 244 924q150 414 342 854 q6 12 6 26q0 27 -37 27h-36h-2q0 -4 -3 -4q-176 -408 -337 -852q-160 -434 -244 -928q-8 -51 -49 -51l-29 2q-78 10 -104 10q-25 0 -45 -4q-14 -2 -33 -4z" />
<glyph unicode="8" horiz-adv-x="1409" d="M41 567q0 164 94 289q12 16 32.5 35.5t70.5 69.5q59 57 89.5 89.5t30.5 43.5q0 6 -12 12q-86 41 -147 162q-43 80 -43 223q0 164 139 291q139 123 332 123l4 -11q199 0 330 -116q133 -121 133 -271q0 -47 -18.5 -96t-48.5 -92t-67.5 -80t-74.5 -61q-6 0 -6 -9 q0 -10 20.5 -20t40.5 -10q72 49 160 166q49 72 49 161q0 158 -133 275h-2q92 -41 148.5 -135.5t56.5 -186.5q0 -90 -50 -162q-70 -96 -149 -161l-10 -9q-2 0 -6 -4q92 -72 153 -176q88 -150 88 -323q0 -225 -188 -402q-184 -170 -430 -170q-244 0 -414 146 q-172 145 -172 409zM287 537q10 -166 110 -289l19.5 -19.5l25.5 -25.5q37 -33 41 -33l-2 -6q-8 8 -16 22l-12 15q-100 127 -111 288v46q0 61 17.5 138t50 148.5t76.5 116.5t96 45q20 0 94 -33q70 -29 143 -86l-6 6q-14 12 -22 21l-7 6q-29 23 -64.5 45.5t-73.5 43 t-69.5 31.5t-52.5 11q-100 0 -172 -166q-66 -147 -65 -280v-45zM342 57l2 2q168 -143 406 -143q244 0 430 172q188 176 188 401q0 174 -88 324q-18 31 -40.5 62.5t-50.5 63.5t-56.5 54.5t-55.5 28.5q27 -6 57.5 -47t65.5 -101l8 -12q88 -150 88 -323q0 -231 -186 -404 q-186 -172 -430 -172q-193 0 -338 94zM383 1540q0 -45 36 -109.5t97 -84.5q-37 12 -56.5 63t-19.5 86q0 104 71 180t175 76q2 0 24.5 -4t46 -9t41 -14.5t17.5 -19.5v2q-31 14 -76 47q-31 23 -53 34t-55 11q-100 0 -172 -74q-76 -76 -76 -184zM408 442q4 -86 33.5 -165.5 t82.5 -133.5q51 -14 103 -14q135 0 235 90q45 39 84 126t39 190q0 100 -37 168.5t-119 150.5v2q-49 29 -102 52.5t-78 23.5q-104 0 -176 -164q-66 -147 -65 -281v-45zM510 1444q0 -43 22.5 -81t59.5 -63.5t77 -39t72 -13.5q39 0 68 29t47 74t26.5 95t8.5 91t-12.5 82 t-36.5 57l-6 4q-37 16 -80 23q-100 0 -173 -77t-73 -181z" />
<glyph unicode="9" horiz-adv-x="1419" d="M41 1284q0 258 180 426q201 190 385 191q299 -2 473 -211q168 -199 168 -631q0 -178 -80 -344q-94 -188 -233 -346t-313 -263q-12 -8 -54.5 -25.5t-94.5 -36.5t-94 -32.5t-63 -13.5q-14 0 -14 6v-6q-68 0 -68 49q0 31 68 51h2q41 20 160 97q92 57 196 155q57 57 109 125 q-35 0 -89 10.5t-111.5 28.5t-107.5 48t-79 69q23 -29 64.5 -50.5t92 -33.5t95.5 -17.5t76 -5.5q25 0 45 33t41 86q14 33 18 39q10 10 32.5 34.5t41.5 51.5l24 96q-18 0 -43.5 -17.5t-49 -42t-41 -46t-21.5 -29.5q-8 -10 -23 -51q-20 -51 -37.5 -80t-42.5 -29 q-205 0 -411 168q-197 164 -197 480q0 16 -2 34q-2 16 -2 33zM268 1395q0 -156 57.5 -284t137.5 -173q-94 98 -129 313q-10 72 -10 101q0 133 79 231q82 106 222 107q104 0 182 -45l4 -3q-41 41 -103.5 67t-134.5 26q-137 0 -225 -107q-80 -98 -80 -233zM358 -47h2h148 q12 6 57 35q70 43 115 69q170 100 313 260q139 158 232 345q82 162 82 350q0 424 -170 630q-33 37 -74 74q80 -49 145 -125q170 -201 170 -630q0 -180 -82 -349q-88 -184 -233 -344q-143 -162 -313 -264q-168 -100 -322 -100q-29 0 -46 18.5t-24 30.5zM393 1305 q0 -27 10 -103q2 -18 15.5 -64t32 -99.5t34 -86t23.5 -32.5l-2 -2q51 -18 108 -19q113 0 215 68q72 49 102 86t30 90v28q-2 12 -7 48q-6 70 -23.5 139t-56.5 174q-18 55 -42.5 77.5t-73.5 28.5q-37 4 -62 4q-141 0 -225 -104q-78 -102 -78 -233z" />
<glyph unicode=":" horiz-adv-x="403" d="M41 1126q0 59 38 105.5t95 46.5q59 0 98 -46t39 -106q0 -66 -37.5 -109.5t-99.5 -43.5q-61 0 -97 45t-36 108zM47 154q0 61 36 107t95 46t98 -46t39 -107t-38.5 -107.5t-98.5 -46.5q-59 0 -95 46t-36 108zM135 971h2q29 -16 62 -17q57 0 96 46.5t39 105.5q0 63 -39 108 l-6 7l-4 4q2 0 16 -11.5t21 -17.5q39 -45 38 -109q0 -61 -37.5 -105t-99.5 -44q-51 0 -88 33zM139 0h2q27 -16 60 -16q59 0 97 46t38 107l14 70q4 -23 7 -49.5t5 -40.5q0 -61 -38.5 -106.5t-98.5 -45.5q-51 0 -86 35z" />
<glyph unicode=";" horiz-adv-x="405" d="M41 1130q0 61 36 107.5t93 46.5h2q59 0 99 -47t40 -107q0 -59 -40 -107t-99 -48q-55 0 -93 47t-38 108zM43 158q0 61 37 107t94 46t95 -40t38 -115v-41q0 -8 -7 -44t-17.5 -81t-20.5 -75t-16 -30l4 -4q-43 -63 -74 -63q-2 0 -2 4q0 10 6 29.5t17 54.5q14 47 14 53 q0 2 -31 18t-35 21q35 -12 54 -12q-20 18 -25 18q-59 0 -95 46t-36 108zM141 973q25 -12 56 -12q59 0 99 46t40 105q0 12 -8.5 34.5t-18.5 49.5q-12 29 -12 33h2t23 -29q41 -47 40 -106q0 -61 -39.5 -107.5t-97.5 -46.5q-51 0 -84 33zM225 -219q0 16 25 39t24 43v-6 q25 35 43.5 102.5t18.5 126.5v45q-10 86 -47 121q29 -14 52.5 -53t23.5 -88v-41q0 -45 -11.5 -97.5t-31 -97.5t-44 -72.5t-51.5 -27.5q-2 2 -2 6z" />
<glyph unicode="=" horiz-adv-x="1017" d="M41 463v59h868v-59h-868zM41 694v64h868v-64h-868zM106 410v26h834v37h37v-63h-871zM106 643v27h834v35h37v-62h-871z" />
<glyph unicode="?" horiz-adv-x="1273" d="M41 1532q0 201 199 295q145 70 272 69q61 0 84 -8q258 0 395 -178q119 -150 119 -377v-67q-27 -307 -123 -385q-102 -86 -199 -107q-109 -27 -184 -84q-84 -61 -84 -325q-70 37 -82 36v2h2q-2 0 -14 -6t-26.5 -15t-22.5 -14.5t-12 -7.5v95q0 156 42 239.5t142 141.5 q74 39 153 112q74 74 95 305q6 59 6 113q0 123 -31 193q-2 4 -4 10q-16 37 -32.5 52t-61.5 15q-51 0 -104.5 -19.5t-92.5 -49.5q39 -51 39 -123q0 -82 -53 -141t-127 -60q-76 0 -125 60q37 -12 61 -13q76 0 128.5 62.5t52.5 138.5q0 4 -3.5 25.5t-9.5 43t-13 38t-13 16.5 l-4 -2q39 31 91 51t105 20q16 0 51 -12q33 -12 50 -12h2q-31 31 -72 49t-82 18q-53 0 -105.5 -20t-93.5 -53q39 -45 39 -121t-53 -141q-53 -59 -127 -60q-76 0 -125 61.5t-49 139.5zM305 152q0 59 40 106t97 47h13q10 -2 14 -2q25 0 25 21q0 12 -9 32l-2 4q2 0 6 2h7 q16 0 84 -34q0 262 82 323q88 61 190 88q102 25 197 107q43 37 80.5 143.5t37.5 239.5v67q0 223 -120 375q-31 37 -58 62q74 -45 125 -111q119 -152 119 -377v-67q-25 -303 -119 -383q-102 -86 -199 -107q-100 -23 -186 -86q-84 -61 -84 -326q-72 39 -86 39q-27 -6 -27 -26 q0 -14 21 -53q27 -55 27 -84q0 -61 -39 -107.5t-99 -46.5q-57 0 -97 47t-40 107zM453 -29q2 -2 4 -6l2 -2l6 -6q39 -45 96 -45q59 0 99 46t40 108q0 49 -26.5 91t-71.5 54q33 -39 33 -100t-40 -107.5t-99 -46.5q-20 0 -39 6z" />
<glyph unicode="@" horiz-adv-x="1503" d="M41 969q0 389 184 661q184 279 447 279q262 0 461 -279q199 -272 198 -661q0 -70 -14 -156q-16 -104 -49 -199q-35 -102 -88.5 -170.5t-128.5 -68.5q-31 0 -64 19.5t-51 39.5q-12 6 -37 21q-63 37 -98 37q-37 0 -113 -25q-84 -27 -127 -27q-76 0 -135 27q-4 2 -21.5 11 t-27.5 16l4 2q35 -111 76 -185q47 -80 91 -108.5t130 -28.5q137 0 219 64q80 59 221 61q-33 18 -47 35q-8 4 -29 16q-31 16 -56 27.5t-50 11.5q-41 0 -121 -24q-80 -27 -121 -27q-76 0 -135 27q-8 4 -22.5 15t-30.5 26q-25 18 -27 18h6q68 -29 138 -29q43 0 127 29 q76 25 108 25q37 0 64.5 -15.5t64.5 -46.5q39 -29 64.5 -43t58.5 -14q74 0 131 73q53 68 86 166q29 92 46.5 189.5t17.5 163.5q0 391 -199 663l-6 8q-20 29 -33.5 48.5t-33 42t-37 37t-27.5 14.5q20 0 49 -21.5t58.5 -54.5t53 -63.5t48.5 -65.5q199 -272 198 -662 q0 -70 -14 -155q-16 -100 -51 -199.5t-86 -167.5q-23 -27 -55.5 -51.5t-57.5 -24.5q-10 0 -16 4l-4 2q-47 14 -60 21q-86 -125 -200 -199q-115 -72 -246 -71q-264 0 -447 274q-184 276 -184 668zM195 967q0 -328 129 -561q8 -16 37.5 -49t68.5 -72q29 -31 39 -42.5t10 -13.5 v-2q-53 45 -98 133q-63 121 -96 258.5t-33 301.5q0 328 129 561q127 231 348 231q53 0 118.5 -15.5t84.5 -45.5q-31 53 -113 79.5t-147 26.5q-221 0 -348 -231q-129 -233 -129 -559zM326 897q29 53 86 84q10 6 37 16q45 16 45 27q0 4 -5 8q-16 16 -16 33q0 25 24.5 43 t63.5 31.5t77 19.5t62 6h7q20 -6 45.5 -10t46.5 -4h20q-61 61 -168 61q-68 0 -134 -25.5t-107 -68.5q-6 -8 -13 -8q-6 0 -24.5 13.5t-18.5 25.5l-2 -8q-25 -123 -26 -244zM367 1188q139 113 286 112q23 0 80.5 -9t116.5 -25.5t101 -40t42 -54.5q0 -12 -2 -24q-4 -16 -4 -35 v-113q-2 -35 -2 -225v-117q0 -57 17.5 -109t46.5 -52l5 2t7 2l6 -13q-20 39 -20 115q0 20 -3 43v12v64q0 78 3 172v53v113q6 61 18 61q4 0 27 -16q18 -12 28 -21q6 -6 6 -20q0 -18 -1 -25.5t-5 -29.5v-115q-2 -39 -2 -225v-76q2 4 2 12l2 6h-2l6 17v6q0 4 2 6q43 147 43 313 q0 328 -135 561q-45 76 -93 106t-134 30q-223 0 -350 -232q-57 -100 -92 -229zM471 727q0 -104 78 -164l6 -4q12 -6 18 -12v2q-45 51 -45 135q0 102 70 178q68 74 227 82q-2 23 -8 29t-22 12h-4l-5 2q-176 -2 -245 -82q-70 -76 -70 -178zM487 47h2q115 -66 240 -65 q125 0 246 71q88 53 151 135q45 14 123 15q-86 -129 -202 -201q-115 -72 -246 -72q-172 0 -314 117zM559 1040q72 16 160 17q10 0 31 -2q18 -2 28 -2q53 0 53 51v2v6l-2 -2q-27 8 -55 8q-131 0 -215 -78zM602 633q0 -18 6 -53t15 -35q72 0 131 42t61 113q0 45 2 68 q2 18 2 80v35q-106 -16 -161.5 -84t-55.5 -166z" />
<glyph unicode="A" horiz-adv-x="1896" d="M41 20q0 27 16.5 50.5t22.5 23.5q14 0 49 47q37 53 117 215q121 244 233 553q4 8 6 15q131 360 179 458q68 147 67 234v12q-100 12 -123 68q8 -2 58 -8q45 -4 53 -7q-16 27 -48 40.5t-85 23.5q-61 14 -92 29.5t-35 54.5q0 6 -2 8t-2 6q0 35 59 35q16 0 57 -4q57 -4 91 -4 q31 0 77 -2q51 -2 103 -2q8 0 18 2h17h36q12 0 29 2h14q14 0 22.5 -8.5t16.5 -34.5l301 -877l9 -12q127 -385 202 -561q51 -121 91 -192.5t71 -71.5q18 0 35 -60l2 -6q0 -14 -7 -27.5t-24 -13.5q-119 12 -198 12q-29 0 -95 -8q-68 -10 -92 -10q-29 0 -43 6q-27 10 -30 23 q0 33 8 47t22 28q18 16 26.5 34t8.5 55l-2 18q-6 41 -10 65.5t-8 24.5h-2h-619q-18 0 -32.5 -29.5t-24 -71.5t-13.5 -78t-4 -46q2 -35 18.5 -53.5t45.5 -32.5q31 -16 31 -31q0 -29 -12.5 -46t-37.5 -17q-80 12 -174 12t-217 -12q-33 0 -33 18q0 8 5.5 20.5t11.5 26.5 q43 2 88 4q57 2 82 2q31 0 67.5 -3t87.5 -9q25 0 37.5 17.5t12.5 43.5q0 14 -9.5 21.5t-29.5 15.5q-16 6 -25 10l-2 3q0 -25 -13.5 -42.5t-35.5 -17.5q-82 10 -172 10q-96 0 -217 -12q-35 0 -35 16zM424 188q2 -27 21.5 -58.5t31.5 -31.5q10 0 10 21q0 4 -2 8v10q0 8 4.5 43 t13.5 78t23.5 73.5t32.5 30.5h682v3v8q-6 16 -18.5 30.5t-24.5 14.5h-702q-16 0 -29.5 -30t-23 -74t-14.5 -79.5t-5 -46.5zM528 594q0 -18 23 -19h45l4 -6q0 25 9 52.5t26 68.5l10 23q31 74 62 161q4 10 34 95q47 119 64 166l18 49l8 18q14 39 21 55q10 27 22.5 65t12.5 69 q0 47 -37 47q-12 0 -28.5 -39t-33.5 -92q-6 -18 -18 -50q-14 -41 -45 -122q-10 -23 -33 -82l-49 -129q-12 -39 -31 -82l-30 -74q-53 -121 -54 -174zM694 578h439q25 0 24 22q0 27 -12 66t-33 92l-4 10q-10 29 -31 78q-23 51 -30 78q-10 29 -37 102q-31 80 -47.5 130 t-16.5 85v-4l-22 -63q-25 -63 -64 -170q-43 -119 -72 -191q-8 -20 -30 -76q-25 -55 -40.5 -93t-23.5 -66zM1067 1755q8 0 23 2q10 2 16 2q12 0 21.5 -9t17.5 -36l301 -874l8 -15q111 -338 203 -557q59 -141 94 -202.5t68 -61.5q16 0 34 -55l2 -10q0 -12 -10 -27.5t-22 -15.5 q-106 14 -199 14q-74 -2 -190 -14q-72 0 -72 43q0 8 4 18v-2q25 2 113 10q31 2 63 4q8 0 35 -4q70 -8 106 -8q41 0 66 9t25 32l-2 8q-20 57 -37 57q-18 0 -56 48q-29 37 -106 217q-90 209 -203 557l-8 14z" />
<glyph unicode="B" horiz-adv-x="1861" d="M41 1853q0 16 17.5 23.5t47.5 7.5q20 0 74 -6q55 -4 76 -4h35q23 -2 26 -2h66q201 16 346 16q180 0 334 -29.5t252 -84.5q84 -47 121 -115t37 -141q0 -184 -267 -285q-10 -2 -20 -21q0 -18 10 -25t31 -11q18 -4 24 -9q2 6 21 17q264 96 264 282q0 6 -6 39t-16.5 68 t-23.5 61.5t-30 26.5q86 -53 124 -116.5t38 -139.5q0 -184 -266 -283h-2q102 -55 182 -135q129 -135 129 -362q0 -84 -30.5 -174.5t-86.5 -184.5q-115 -190 -481 -264q-72 -14 -231 -14q-57 4 -136 4h-147q-55 0 -70 2h-22h-2l4 6h-25h-24q-16 0 -33 2h-16h-97q-12 0 -61 -4 q-70 -8 -101 -8q-61 0 -61 22q4 55 21 56q20 0 40 57q25 59 46 221q12 92 21 235.5t9 325.5v228q0 125 -3 230t-14 201.5t-35 160t-62 67.5q-27 2 -27 59zM197 -68q0 2 2 7v10q90 6 137 6h96q16 0 51 -4q27 -4 35 -4q2 0 6 2h2l6 4h3h28q12 -2 66 -2q43 0 135 -2 q96 -2 147 -2q162 0 228 14q371 78 483 260q117 186 117 361q0 125 -39 218t-115 169q-8 8 -16 14l-6 6q68 -45 129 -106q129 -135 129 -361q0 -174 -115 -360q-113 -178 -485 -256q-76 -16 -228 -17q-29 2 -135 2h-149q-53 0 -66 3h-31q-10 2 -49 2h-145q-18 0 -68 -7 q-53 -6 -78 -6q-37 0 -56 11.5t-19 37.5zM406 1284q0 -37 63 -37v35l2 4q8 162 21 258l4 33q6 70 17 101.5t44 31.5q254 -6 395.5 -18.5t171.5 -42.5l6 -7q-29 35 -67 54q-109 57 -569 63q-39 0 -48 -45q-4 -14 -10 -69q-2 -10 -8 -52q-14 -104 -22 -258v-51zM416 909 q0 -262 2 -309q4 -98 10 -181t20.5 -156t38 -119t60.5 -46q-20 63 -34.5 125t-23.5 158q-6 55 -10 168q-2 47 -2 311q0 82 2 113t2 102q0 25 45 25l19 -2q10 -2 43 -4q59 -8 80 -9h131l2 11q213 -27 332 -80q74 -33 88 -33q0 2 -15.5 11.5t-42 24.5t-49 26.5t-45.5 21.5 q-68 29 -156 52.5t-178 23.5h-133l-27 2q-49 4 -96 8h-12q-45 0 -45 -27q0 -70 -2 -100q-2 -29 -2 -37q-2 -57 -2 -80zM553 1245q287 2 451 53q172 53 172 209q0 57 -19 97l-2 2q-143 37 -516 43q-37 0 -45 -45q-12 -33 -23 -121q-10 -66 -18 -238zM557 805q0 -264 2 -311 q4 -117 10 -170q14 -147 37 -220q225 12 363 50q139 39 220 102t111 170q35 123 35 244q0 66 -10 127q0 2 -8 23.5t-20.5 48t-22.5 45t-17 18.5l-4 -4q-14 8 -43 20q-68 31 -154.5 56.5t-176.5 25.5h-134q-12 0 -43 4q-59 6 -84 6q-57 0 -57 -22q0 -70 -2 -100 q-2 -33 -2 -113z" />
<glyph unicode="C" horiz-adv-x="1906" d="M41 946q0 197 76 361q78 166 202 295q127 127 283 200q156 76 313 76q160 0 308 -23q37 -6 93 -20t115.5 -36.5t108.5 -51.5t72 -59q8 -16 25.5 -55.5t34 -82.5t27.5 -83t11 -64v-49q-2 -25 -31 -25h-16q-6 0 -28.5 22.5t-52.5 57.5t-54.5 68.5t-32.5 50.5l2 -4l-12 6 l-12 6q-168 88 -332 88h-47q-236 0 -416 -235q-182 -238 -182 -570q0 -328 225 -553q55 -55 140 -83.5t167 -28.5q135 0 318 129q92 66 163.5 138.5t89.5 141.5l9 31q10 55 55 55h4q14 0 30.5 -12t16.5 -27v-12q-10 -31 -23.5 -83t-25.5 -109.5t-20.5 -102.5t-8.5 -65 q0 -27 -55 -62q-129 -82 -319 -123q-201 -41 -349 -41q-360 0 -616 275q-256 274 -256 659zM352 930q0 -328 226 -553q76 -76 120 -107l-2 2q-27 25 -55 56q-225 219 -225 553q0 324 182 567q182 238 418 238h47q164 0 326 -89q4 -2 14 -8q51 -25 72 -45q-68 59 -148 101 q-168 90 -332 90h-45q-236 0 -415 -236q-182 -242 -183 -569zM537 76l2 4q201 -127 444 -127q133 0 344 43q57 12 121.5 31.5t123 44t95.5 51.5t37 53q0 31 9 91.5t25.5 121t37 101t41.5 40.5h4q16 0 30.5 -12t14.5 -29v-14q-8 -25 -20.5 -72t-27 -111.5t-22.5 -111.5 t-8 -67q0 -25 -55 -60q-66 -41 -145 -71.5t-175 -49.5q-221 -41 -348 -41q-297 0 -528 185zM1675 1630l13 -12q47 -18 63 -41t29 -72q23 -113 73 -221q0 -4 2 -16q2 -18 3 -25q0 -33 -29 -33h-19q-25 0 -51 56v2l-6 12q18 4 19 23v49q-51 100 -74 219q-10 41 -23 59z" />
<glyph unicode="D" horiz-adv-x="1810" d="M41 31q0 55 14 55q16 0 37 49q20 66 39 219q12 98 21.5 239.5t9.5 315.5q0 121 2 152t2 135q0 121 -2 209t-9.5 173t-22.5 142.5t-40 63.5q-4 2 -13 22.5t-9 36.5q0 35 32 35q41 -8 105 -8h100q47 0 84 4t92 4q172 0 428 -39q199 -31 357 -127t256 -264 q51 -84 79.5 -199.5t28.5 -249.5q0 -360 -323 -649q-322 -291 -791 -334q-14 0 -43 -2t-59 -6q-45 -4 -56 -4h-4h-55h-47h-68q-39 -2 -53 -2q-45 0 -68.5 6t-23.5 23zM182 -74q0 31 2 31h135q14 0 35 -2h13h57h6l25 2q31 2 43 2h10q61 6 70 10q463 39 786 330 q326 293 326 649q0 131 -29 247t-80 202q-66 111 -162 196q147 -90 242 -256q51 -86 79.5 -200.5t28.5 -245.5q0 -362 -323 -649q-326 -289 -791 -332q-8 0 -28.5 -2t-55.5 -6q-61 -6 -71 -6h-56q-8 2 -47 2h-90q-20 0 -51 -2h-31q-43 0 -43 30zM410 625q0 -55 4 -142 q2 -27 2 -32q2 -18 4 -72q4 -119 18.5 -166t65.5 -47q-14 80 -25 237v7q-4 109 -4 165v304q0 264 12 464q2 18 2 62q2 76 6.5 126t16.5 62l-4 -4l2 10q4 43 17.5 67t54.5 24q311 -8 553 -150l6 -6q-12 10 -34 29.5t-32 25.5q-29 16 -92 43t-144 53.5t-155 43t-129 16.5 q-82 0 -92 -43l-12 -62q-10 -55 -25 -239v-10q-16 -250 -16 -463v-303zM553 514q0 -53 4 -139q2 -25 2 -33q4 -84 12 -162q295 57 510 269q246 244 246 550q0 55 -11 140.5t-30.5 171.5t-47.5 141t-58 55h2q-31 16 -90.5 38t-133 44.5t-143.5 36.5t-121 14q-84 0 -94 -41 q-6 -25 -10 -61v-6q-16 -84 -25 -250q-12 -225 -12 -465v-303z" />
<glyph unicode="E" horiz-adv-x="1769" d="M41 1853q0 16 17.5 23.5t47.5 7.5q29 0 95 -8q49 -6 63 -6q244 0 486 12q4 0 59 4q115 8 189.5 12.5t136.5 4.5q96 0 102 -13l2 -4q2 2 16 2h15q61 0 110.5 -48t112.5 -138q45 -66 68 -88q12 -18 12 -21q0 -27 -37 -26h-14q-18 0 -49 10q6 0 18 -14q4 -6 8 -11 q-35 16 -123 41q-127 31 -252 41q-119 12 -250 13h-180q-37 0 -60.5 -19.5t-35.5 -51.5t-17.5 -63.5t-9.5 -76.5q0 -18 -2 -31q0 -8 -2 -31q0 -12 -2 -28l-6 -68h281q162 0 266 33q61 18 114.5 56t84.5 89q10 12 24 12h2q41 0 41 -32v-15q-14 -88 -14 -190q0 -109 14 -203 v-14q0 -37 -47 -37h-4q-12 0 -27.5 14.5t-15.5 36.5v6q-72 0 -188 10q-57 6 -76 7h-439q-18 0 -25 -35t-7 -90q0 -20 2 -64v-35v-444q0 -164 26 -236h62q162 0 360 27q244 35 377 123q10 6 37 22q49 31 83 49.5t52 18.5q23 0 33 -15.5t10 -37.5q0 -31 -12 -41l-19 -19 q-35 -35 -49 -51q-12 -14 -22 -24q-12 -16 -43 -64q-37 -59 -63.5 -90t-53.5 -31q-227 0 -283 2q-55 2 -221 2q-88 2 -135 2q-164 4 -221 5h-197q-18 0 -67 -5q-55 -2 -80 -2q-35 0 -54.5 5.5t-19.5 19.5q0 53 16 53q18 0 39 56q23 53 43 221q12 90 21.5 232.5t9.5 324.5 q0 106 2 135t2 123q0 215 -10 317q-14 131 -38 210t-64 83q-25 0 -25 55zM180 -41l4 4q-2 -6 -2 -33q0 -28 31 -28h2q127 10 191 10h196q51 0 166 -2q123 -4 190 -4h222h94l59 -2q82 0 124 13t85 56q10 16 55 70q61 76 96.5 124t35.5 79q0 33 -48 33q-16 0 -32.5 -15.5 t-40.5 -44.5q-16 -20 -27 -31q-29 -23 -54.5 -57.5t-56.5 -83.5q-25 -41 -32 -47l-15 -14l-4 -4q-23 -23 -45 -23q-223 0 -278 2t-222 2h-356q-37 2 -133 2h-61q-82 0 -144 -6zM401 1098l1 -29v-29v-544q0 -143 23 -229t91 -109q-6 14 -18 47q-31 74 -31 239v547q2 23 2 88 q0 31 29 31h438q55 -2 94 -4q117 -6 144 -8q35 -2 79 -19q-45 61 -141 68q-25 2 -39 2q-72 4 -125 8l-78 4h-438q-18 0 -24.5 -16.5t-6.5 -46.5zM422 1333q0 -41 41 -41h22l-8 -6q2 35 6 103q2 18 4 41q0 23 2 40q0 10 7 33q6 39 6 58l6 30l2 15q4 47 27.5 79.5t78.5 32.5 h76q80 0 107 -2q129 -4 269 -17t230 -36q16 -4 37 -11t49 -18q45 -16 50 -16q0 2 -11 8q-63 57 -180 86t-258 43q-4 0 -37 2q-66 4 -131 8l-82 4h-37q-18 2 -26 3h-25h-16q-20 2 -76 2q-51 0 -75.5 -30t-33.5 -83l-2 -19q-8 -72 -11 -110.5t-5 -91.5q-4 -41 -6 -107z M1423 948q23 6 23 35v12q-18 104 -19 203q0 45 11 143q8 8 16 21q12 20 29 20h2q41 0 41 -32v-15q-16 -119 -17 -190q0 -80 17 -207v-14q0 -39 -47 -39h-4q-12 0 -28.5 16.5t-16.5 40.5v6h-7zM1473 1782q8 -8 28 -17q18 -6 25 -12l14 -16q41 -49 62 -78l18 -25 q10 -14 43 -55q29 -33 44 -54.5t15 -31.5t-11 -15t-23 -5h-15q-55 0 -98 51l-12 12l-2 -2q16 -6 34 -6h15q35 0 35 24q-20 31 -58 78q-33 41 -45 58l-14 18q-16 25 -34.5 50.5t-20.5 25.5z" />
<glyph unicode="F" horiz-adv-x="1671" d="M41 1851q0 35 31 35q102 -18 192 -18q31 0 176 2q174 2 262 2h443q2 2 14 2h15q18 0 55 -14.5t49 -26.5q18 -18 50 -55t65.5 -79t57.5 -77t24 -45q0 -25 -29 -25h-19q-16 0 -51 11q6 -6 13 -11q8 -6 14 -14q-68 37 -150 58.5t-178 33.5q-74 8 -219 21q-8 0 -52 3t-112 5 q-39 0 -64.5 -19.5t-37.5 -50t-16.5 -63.5t-8.5 -82q0 -20 -2 -35q-8 -82 -10 -139l176 -2q168 0 266 30q104 33 176 115q6 4 17 19q20 31 39 30h2h2q37 0 37 -37v-12q-16 -119 -17 -196q0 -80 17 -207v-15q0 -34 -44 -34h-3h-2q-10 0 -26.5 14t-16.5 35v12l-5 2 q-14 4 -22 6q-131 10 -242 12l-332 7q-27 0 -26 -35v-88q-2 -14 -2 -107q0 -117 4 -186l2 -29q2 -61 2 -127q0 -100 4 -180t14.5 -147.5t30 -109.5t51.5 -48q16 -10 17 -60q0 -28 -31 -28h-2l-49 6q-27 6 -82 10t-76 4l-22 -2q-113 -6 -172 -12q-33 0 -33 29q0 27 2 30 q78 8 147 13q33 0 80 -5.5t84 -11.5q29 -4 49 -6q35 0 35 29q0 31 -5 41t-17 18q-18 12 -31 33q-23 29 -41 127q-20 109 -27 325l-4 -12q0 66 -2 127l-2 29q-2 16 -2 186v107q2 14 2 88q0 31 27 30l329 -4h50q94 0 161.5 -6t114.5 -26q-23 27 -60.5 46t-82.5 21 q-131 10 -242 12l-332 5q-27 0 -26 -31v-86q-2 -31 -2 -105q0 -123 4 -188q2 -37 4 -117q4 -121 8 -206t14.5 -154.5t29.5 -112.5t50 -49q16 -6 17 -59q0 -27 -33 -27l-49 6q-12 2 -27.5 5t-26.5 3q-51 6 -104 6q-80 -2 -197 -14q-33 0 -32 31q0 53 16 53q12 0 31 45 q16 47 35 197q16 145 24 514q0 20 2 41q2 20 2 39v225q0 125 -3 225.5t-13 195.5t-34 157.5t-62 66.5q-25 0 -25 55zM428 1319q0 -35 41 -39l20 -2l-6 -2q6 115 13 188q8 100 18 138q6 49 30.5 81.5t78.5 32.5q14 -2 71 -2q70 0 92 -2q111 -4 225.5 -19.5t217.5 -45.5 q18 -6 63 -27q47 -23 54 -23q2 0 2 2q0 4 -9 13q-68 53 -170 86q-84 29 -209.5 45t-226.5 20q-23 2 -43 2q-76 2 -123 7q-53 0 -77.5 -30t-32.5 -83q-14 -96 -18.5 -146.5t-8.5 -152.5q-2 -20 -2 -41zM1321 926q20 8 20 35v12q-14 100 -14 205q0 66 10 151q4 4 13 19 q12 20 30 20h6q39 0 39 -35v-12q-16 -119 -16 -197q0 -80 16 -206v-15q0 -39 -47 -39h-2q-14 0 -19 8.5t-9 26.5q-2 14 -6.5 21.5t-14.5 7.5zM1380 1774q14 0 33 -12.5t23 -18.5q27 -31 90 -117l2 -2q10 -14 43 -51q29 -31 44 -51.5t15 -34.5q0 -25 -33 -25h-16 q-55 0 -98 49l-6 7q-2 2 -2 4q-2 2 -5 4v-2q14 -8 37 -8h15q12 0 22 7t10 21q0 10 -17 34t-46 58q-31 35 -37 45q-27 37 -74 93z" />
<glyph unicode="G" horiz-adv-x="1955" d="M41 938q0 430 281 682t591 252q160 0 308 -23q150 -25 321 -120q53 -51 68 -111q4 -14 22 -51q23 -49 34 -77t11 -50v-21q-4 -23 -24 -22h-19q-4 0 -22.5 14t-42 35.5t-42 41t-20.5 25.5l-4 13q-72 49 -171 75.5t-208 26.5h-69q-233 0 -404 -225q-156 -205 -155 -520v-68 q0 -356 219 -563l12 -12q152 -90 303 -90q41 0 78 7t63 15q25 4 59 15.5t68.5 28.5t58 42t23.5 55q0 29 4 113q6 113 7 186q0 262 -19.5 392.5t-81.5 156.5q-2 0 -10 16.5t-8 30.5q0 29 39 29q49 -6 102 -6h100q23 0 80 4q63 6 93 6q35 0 54 -6t19 -23q-6 -63 -30 -63 q-39 0 -57.5 -60.5t-31.5 -191.5q-6 -55 -10 -184q-2 -55 -2 -379q10 -31 23 -60l2 -4q0 -27 -51 -63q-119 -80 -332 -141q-219 -63 -357 -64q-360 0 -616 274t-256 662zM350 932q0 -358 219 -565l11 -11q27 -27 47 -45t41 -24l6 -2l-19 12q-4 2 -18 16q-219 207 -219 564 v67q0 313 155 518q170 227 404 228h70q147 0 272 -50l10 -4q51 -20 97.5 -43.5t64.5 -52.5q-29 47 -89.5 80t-135.5 63q-14 6 -15 7q-125 49 -270 49h-72q-231 0 -403 -228q-156 -205 -156 -520v-59zM545 80q193 -125 440 -125q123 0 356 61q53 12 119 37t125.5 52.5t99 56 t39.5 51.5l-2 4v2l-2 6q-16 37 -22 60q0 324 2 377q2 82 7 156.5t15.5 138t28.5 103.5t47 40q16 0 25 26h45q18 0 32.5 -6t14.5 -20q-6 -63 -31 -64q-39 0 -57.5 -61.5t-30.5 -188.5q-6 -53 -10 -186q-2 -55 -2 -377q16 -43 24 -61l2 -6q0 -25 -51 -62q-117 -80 -329 -141 q-215 -61 -357 -62q-297 0 -524 185zM1638 1647q53 -27 82 -60t41 -80q4 -14 25 -55q20 -45 31.5 -73.5t11.5 -49.5v-14q-4 -23 -25 -23h-18q-12 0 -33 33q-16 23 -22 23h-7q-2 0 -2 2l-2 -7q20 4 25 27v19q0 25 -12.5 63.5t-29.5 77.5t-35.5 71.5t-29.5 45.5z" />
<glyph unicode="H" horiz-adv-x="1769" d="M41 1853q0 16 17.5 23.5t47.5 7.5q29 0 95 -8q49 -6 63 -6q16 0 64 6q68 8 96 8q33 0 50.5 -7t17.5 -24q0 -33 -3.5 -42t-15.5 -15q-16 -10 -29 -27q-20 -31 -34 -108q-4 -33 -11.5 -100.5t-7.5 -130.5q0 -55 8.5 -88t26.5 -33h27l2 -9q0 102 2 172t10 129.5t25.5 95.5 t48.5 42q8 8 24.5 20.5t34.5 12.5q35 0 35 -33q0 -29 -7 -44.5t-24 -31.5q-18 -23 -31.5 -47.5t-21.5 -71.5q-14 -76 -19 -241q29 2 99 2l63 2q111 2 144 2h184q20 -2 92 -2h92q31 0 31 53v190q0 90 -21.5 162t-60.5 84q-14 4 -18 51q0 35 32 35q115 -18 197 -18q14 0 59 6 q68 8 99 8t48 -7t17 -24q0 -59 -14 -59q-20 0 -37 -47q-20 -49 -39 -225q-18 -199 -22 -590v-189q0 -129 4 -239.5t14 -201.5t29.5 -145.5t50.5 -54.5q18 -2 18 -59q0 -31 -32 -31q-106 12 -193 12q-10 0 -49 -4q-68 -6 -100 -6q-37 0 -58.5 7.5t-21.5 21.5q0 53 14 53 t31 53q16 63 35 217q10 98 17 236.5t7 318.5v136h-80q-20 -2 -92 -2h-197q-33 0 -69 2h-35h-104q-16 0 -52 2h-32q-55 0 -56 -39q-2 -27 -2 -94v-297q0 -240 13 -357q14 -133 31.5 -200.5t49.5 -73.5q20 0 21 -62q0 -28 -33 -28h-2q-100 12 -196 12q-8 0 -37 -2 q-74 -8 -109 -8q-37 0 -58.5 6t-21.5 20q0 27 2 33q72 10 148 10q14 0 65 -4q61 -6 95 -6q31 0 49 5t18 20q0 33 -5 45t-17 22q-25 16 -39 51q-25 59 -39 224q-12 117 -13 352v301q0 8 -2 33q-2 27 -2 37q0 29 9.5 46t33.5 17q45 -4 105 -4h104q23 -2 105 -2h288q29 0 89 2 q31 0 51 1t20 3v35q-2 10 -24.5 14t-59.5 4q-35 0 -94 -4q-37 -2 -43 -2h-393q-23 2 -105 2q-18 0 -49 2h-37q-29 0 -42 -7t-13 -32v-393q0 -129 2 -228t11.5 -193.5t27.5 -152t49 -57.5q18 -2 19 -61q0 -29 -31 -29q-127 10 -197 11q-4 0 -26 -2q-72 -6 -109 -7 q-41 0 -64.5 6.5t-23.5 20.5q0 55 12 55t31 54q12 47 31 215q10 92 17 231t7 324q0 115 2 145q2 31 2 127q0 141 -2 174q-4 76 -9 147.5t-15 134t-24.5 102.5t-35.5 42q-20 2 -20 59zM1276 -31q57 8 147 8q14 0 60 -4q68 -6 96 -6q33 0 52.5 6.5t19.5 20.5q0 33 -5.5 44 t-19.5 21q-23 18 -37 50q-23 53 -41 221q-14 125 -14 366v187q2 381 25 587v9q16 139 29.5 201.5t43.5 62.5l4 2q8 12 22.5 21.5t35.5 11.5q33 0 32 -31q0 -61 -18 -61t-35 -48q-23 -70 -39 -223q-16 -147 -20 -590v-188q0 -143 2 -241.5t11 -187.5t28.5 -147.5t52.5 -62.5 q20 0 21 -61q0 -29 -33 -29q-106 12 -197 12q-12 0 -53 -4q-68 -6 -96 -6q-35 0 -54.5 6t-19.5 21v32z" />
<glyph unicode="I" horiz-adv-x="618" d="M41 1839q0 33 29 33q121 -18 196 -19q6 0 41 5q35 4 62.5 7t52.5 3q33 0 52.5 -7.5t19.5 -21.5q0 -61 -15 -61q-18 0 -35 -47q-23 -74 -38 -226q-16 -147 -21 -585v-205q0 -135 2 -231.5t10.5 -187.5t27.5 -149.5t50 -58.5q4 0 4 2t-4 8l-6 15q-20 51 -37 219 q-12 133 -12 360v195q4 387 22 592q14 137 28.5 202.5t43.5 65.5q10 0 10 18q2 31 17 45q33 0 32 -30q0 -63 -16 -64q-18 0 -35 -47q-23 -53 -37 -223q-18 -182 -22 -588v-201q0 -123 3 -228t12 -197.5t28.5 -147.5t50.5 -55q20 0 21 -60q0 -28 -31 -28h-2q-100 12 -197 12 q-12 0 -51 -4q-66 -6 -98 -6q-35 0 -54.5 6t-19.5 20v2l-10 9l18 2q129 10 166 10q6 0 37 -2q88 -8 117 -8q35 0 55 5t20 17q0 61 -18 62q-8 0 -14 2h-4v-2v-5q2 -14 2 -30q0 -29 -31 -29h-6q-129 12 -191 12q-84 -4 -184 -14h-10q-29 0 -29 29q0 55 12 55q16 0 31 49 q12 33 31 219v4q12 119 19 246t7 303q0 117 2 148t2 125q0 141 -2 174q-4 76 -9 147.5t-15 134t-24.5 102.5t-35.5 42q-20 2 -20 61z" />
<glyph unicode="J" horiz-adv-x="1034" d="M41 -375q0 33 31.5 58.5t97.5 60.5q68 35 96 57q84 66 152 176q6 31 16 48q16 29 31 106q16 86 31 264q24 240 24 504v21v440q0 72 -6 148.5t-18.5 142t-28.5 105.5t-37 42q-6 2 -15 20.5t-9 34.5q0 18 10 28.5t35 10.5v-14q119 -16 196 -16q10 0 49 4q68 8 103 8 q33 0 52 -6t19 -23q0 -61 -22 -61q-27 0 -49 -47q-23 -47 -41 -224q-8 -86 -8 -223v-164q0 -109 5 -251t13 -312q4 -92 4 -123q2 -27 2 -80q4 -137 29 -178l2 -10q8 -35 13 -64.5t5 -56.5q0 -39 -14 -53q-25 -27 -33 -27q-66 -39 -190 -145q-113 -98 -166 -127 q-49 -31 -160 -84q-51 -23 -90 -36t-70 -13q-29 0 -44 13t-15 46zM166 -471l2 2q4 -20 20.5 -34.5t40.5 -14.5q78 12 158 51l12 6q82 43 131 70l13 6q84 49 166 129q84 78 194 143q16 0 31.5 31t15.5 68q-6 43 -11 65.5t-13 40.5q-4 14 -8.5 29.5t-10.5 44.5q-8 45 -14 190 q-6 96 -14 400l-2 92q0 29 -3 76q-4 84 -4 118v168q0 96 4.5 181.5t15.5 157t30.5 113.5t48.5 42q24 0 24 56q0 25 -11 30.5t-38 5.5h-14q-2 -45 -23 -45q-27 0 -49 -47q-29 -57 -41 -223q-8 -94 -8 -221v-166q0 -43 4 -123q0 -27 2 -74q0 -31 2 -109q2 -150 4 -227.5 t6 -152.5q2 -51 2 -58q4 -90 9.5 -131t21.5 -69q4 -12 19 -105l2 -10q0 -37 -15.5 -66.5t-31.5 -29.5q-104 -63 -193 -146q-74 -72 -166 -129q-84 -47 -160.5 -83t-148.5 -52z" />
<glyph unicode="K" horiz-adv-x="1738" d="M58.5 1870.5q17.5 7.5 47.5 7.5q29 0 95 -8q49 -6 63 -6q84 0 197 18q20 0 35.5 -6t15.5 -21q-2 -55 -31 -55t-49 -45q-27 -55 -43 -229q-10 -143 -10 -318v-135q0 -25 2 -96l2 -53v-33v-12q0 -4 3 -17.5t7 -13.5h4q16 0 43 33h2q-2 35 -2 145v129q0 111 3 211t13.5 187 t32 141.5t56.5 54.5q10 0 33 10q20 10 28 10q4 0 19 -2q16 -4 18 -4q18 0 19 -16q-6 -55 -31 -55q-27 0 -51 -47q-27 -51 -43 -230q-10 -147 -11 -319v-135q307 326 426 499q121 182 121 246q0 33 -14.5 47t-42.5 25q-16 6 -24.5 12t-8.5 18q0 29 21.5 48.5t46.5 19.5 q66 -10 125 -10q18 -2 73 -2h58q88 0 106 2q8 0 35 2q37 4 53 4q31 0 47.5 -8.5t16.5 -30.5q0 -23 -15.5 -35t-38.5 -24q-14 -6 -14 -9v-2l-4 6q-20 0 -56 -29.5t-112 -101.5l-43 -41q-131 -125 -393 -421q-39 -39 -39 -74q0 -18 10 -44t25.5 -50.5t30 -45t26.5 -34.5v-2 q225 -406 326 -553l30 -45q68 -104 104 -148.5t73 -54.5q-53 55 -146 197q-104 154 -325 555q-18 18 -50 88q-6 16 -10 22h-18q-8 10 -18.5 32.5t-10.5 39.5q0 35 44 95t111.5 131t123 124t124.5 117q25 23 29 26q84 82 136.5 124t78.5 42l6 -2l11 6q25 18 49 30.5t45 12.5 q8 0 25.5 -13t17.5 -23q0 -20 -15.5 -34t-42.5 -26q-12 -6 -12 -8l-4 2q-14 0 -49 -23q-53 -37 -164 -147q-41 -39 -158 -162l-24 -24q-37 -35 -76 -75t-79 -84t-66.5 -84t-26.5 -65q0 -37 22.5 -74.5t61.5 -86.5q10 -12 12 -15q221 -401 326 -555q23 -33 65 -94 q29 -41 43.5 -62.5t14.5 -25.5v-2l-2 2h-2q0 -6 8 -16q8 -12 8 -21q0 -18 -16 -35h-90q-23 2 -91 2h-141q-39 0 -100 -4q-39 -2 -53 -2q-51 0 -68 27q0 37 11 53t32 31q18 10 26.5 21.5t10.5 35.5q0 57 -74 199q-80 143 -237 385q-47 -41 -76 -78l-10 -10q-16 -20 -25 -29 l-31 -31q-43 -41 -55 -64.5t-12 -82.5q0 -127 2 -204t11 -142.5t30.5 -103t56.5 -37.5q6 0 13 -12.5t7 -26.5q0 -16 -11 -26.5t-38 -10.5q-94 12 -194 12q-12 0 -51 -4q-63 -6 -99 -6q-37 0 -56.5 6t-19.5 20q0 10 5 31q78 10 141 10q23 0 82 -6q70 -8 100 -8q61 0 62 25 q-2 53 -21 53q-33 0 -50 37t-30 112q-18 96 -18 336q0 72 10 82q6 6 37 43q8 8 18 21q25 25 62 67q43 51 74 80l4 2q6 4 10 8l12 15q-12 12 -24 30q-12 20 -25 21q-10 0 -30.5 -16.5t-43 -40t-44 -48t-46.5 -51.5q-14 -18 -16 -20q-14 -16 -27 -33q-16 -20 -26 -31 q-10 -10 -11 -80q0 -121 2 -198.5t11.5 -143t30 -104.5t55.5 -39q6 0 13 -13.5t7 -29.5q0 -14 -11 -24.5t-38 -10.5q-100 12 -197 12q-6 0 -41 -2q-70 -8 -102 -8q-37 0 -58.5 7.5t-21.5 21.5q0 27 14 47q18 25 29 55q20 80 37 219q25 209 25 555v437q0 70 -6.5 145.5 t-16.5 140t-26.5 105.5t-37.5 43q-22 4 -22 56q0 21 17.5 28.5zM1114 -51q0 6 12 6h2h2h7q86 4 131 4h143q25 0 64 -2h26h90q14 14 15 35q0 8 -5.5 19.5t-13.5 23.5q27 -20 43 -21q8 0 32 -25.5t24 -54.5q0 -18 -15 -32h-92q-18 2 -90 2h-143q-33 0 -80 -4q-33 -2 -49 -2 q-23 0 -48 4q-14 8 -34.5 23.5t-20.5 23.5z" />
<glyph unicode="L" horiz-adv-x="1650" d="M41 43q0 53 18 53t37 51q23 59 41 218q23 188 29 557q0 115 2 145q2 31 2 127q0 141 -2 174q0 14 -2 43q-2 61 -4 88q-8 131 -25.5 211t-46.5 84q-20 0 -20 55q0 23 6 28t22 5l-10 -10q47 -8 80 -8q18 -2 80 -2q18 0 78 6q92 10 131 10t60.5 -7t21.5 -24q0 -61 -19 -61 q-20 0 -43 -47q-25 -53 -45 -223q-20 -166 -24 -586v-346q0 -33 4 -115v-6q2 -16 4 -62q6 -129 21.5 -188t70.5 -70q-29 55 -35 269q-6 55 -6 125v344q4 422 25 587q18 143 35.5 207t52.5 64q-2 0 -2 2q0 6 26.5 22.5t46.5 16.5q25 0 25 -31q0 -61 -19 -61q-23 0 -45 -48 q-27 -53 -45 -223q-20 -178 -24 -588v-348q0 -68 6 -121q6 -129 22 -217h197q182 0 352 88q162 86 191 127q43 76 114 76h17q14 0 25.5 -7t11.5 -19v-25q0 -23 -21.5 -61.5t-51.5 -77.5t-51.5 -64.5t-31.5 -36.5q-25 -55 -53.5 -92t-69.5 -37h-211q-61 0 -137 2h-72 q-109 0 -171 1t-148 6q-53 0 -105 2q-33 2 -100 2q-80 -4 -180 -13q-35 0 -35 29zM168 -70q0 27 2 29h2q76 10 137 10q29 0 94 -4h7l215 -6q47 -2 211 -2h419q59 6 93 70l8 12q10 16 24 49q20 39 39 68.5t51 62.5q16 16 43 57q31 47 46 48h16q33 0 35 -27v-27q0 -37 -33 -84 t-84 -104q-35 -39 -37 -47q-29 -55 -59.5 -93t-69.5 -38h-418q-164 0 -211 2l-215 6q-33 2 -100 2q-80 -4 -180 -12q-35 0 -35 28z" />
<glyph unicode="M" horiz-adv-x="2279" d="M41 1841q0 33 33 33q68 -6 108 -12q35 -8 109 -9q51 10 135 11h86q20 0 30.5 -8.5t18.5 -30.5q129 -223 285 -533q59 -123 137 -266l141 -264q10 -10 13 -10q6 0 12 10l12 12q-72 129 -180 344q-43 86 -57 115q-143 281 -271 504q43 0 54.5 -7.5t19.5 -33.5 q158 -272 289 -527q16 -31 57 -112q27 -51 38 -73.5t13 -27.5q18 -33 43 -84q20 -35 23 -41q109 209 240 488q4 8 20 43q35 78 75 161t82 161.5t82 133t64 54.5q27 0 41 -6q35 -8 113 -8h45q31 2 45 2q14 2 28 2q20 2 27 2q23 0 23 -27t-6.5 -43t-20.5 -16l-8 2 q-25 0 -49 -43q-31 -43 -58 -215q-12 -80 -18 -217t-6 -373q0 -399 18 -572q12 -131 28.5 -197.5t47.5 -66.5q20 0 20 -55q0 -29 -36 -29q-137 10 -193 11q-82 -2 -190 -15q-35 0 -35 31q0 47 12 47l6 -4q31 0 46.5 61.5t27.5 190.5q6 63 10 209q2 59 2 377q0 78 2 108 l-123 -258q-18 -39 -69 -147q-12 -25 -66 -138l-6 -12q-39 -82 -61 -131q-6 -14 -17 -37q-29 -63 -47 -99t-29 -36q-12 0 -24 21.5t-31 62.5q-4 10 -6 14q33 70 90 193l217 457q35 70 101 208l36 80l17 37q29 63 38 100t11 117v6q0 14 -14 21l-4 2q-12 0 -25 -19 q-18 -39 -70 -147q-12 -25 -65 -137q-18 -39 -70 -148q-12 -25 -65 -137q-4 -8 -4 -10q-68 -143 -97 -207l-32 -70q-23 -47 -58 -125q-43 -94 -66.5 -141t-35.5 -47q-6 0 -27 21q-4 8 -32.5 66t-40 82t-27.5 56q-6 10 -12 23q-18 35 -27 51l-6 12q-47 84 -74 140l-14 28 q-14 31 -34 70t-36 68q-10 20 -31 65q-41 86 -63 117q-14 29 -19 28q-4 0 -4 -10q0 -8 2 -16v-31v-432q0 -133 3.5 -239.5t14.5 -201t33.5 -154.5t59.5 -67q20 0 20 -61q0 -31 -32 -31q-10 2 -37 6q-10 2 -23 5q-6 2 -59 2h-115q-12 0 -45 -2q-37 -4 -51 -5q-27 0 -42 7.5 t-15 25.5q0 10 2 24.5t4 14.5h61q14 2 62 2h53q8 0 31 -2q45 -6 67 -6q25 0 40 6t15 21q0 33 -6 44t-20 21q-27 20 -45 57q-27 47 -45 224q-16 158 -17 377v360q0 119 6 223v15q-2 2 -6 10t-14 24q-14 25 -23.5 39.5t-17.5 14.5q-12 0 -16 -45q-6 -98 -6 -224v-356 q0 -129 3 -240.5t14 -207t33.5 -155t57.5 -59.5q20 -2 21 -65q0 -27 -33 -27q-10 2 -35 9q-18 4 -23 4h-176q-20 0 -59 -4q-33 -2 -47 -3q-49 0 -49 27q0 55 26 55q25 0 51 50q29 47 50 215q8 55 14 213q6 135 6 352v438q0 143 -13.5 200.5t-68.5 90.5q-29 10 -43 47 l-10 -22l10 -5q25 -8 41 -8q10 0 10 4q0 6 -26 19q-25 14 -76 33q-55 18 -86 39.5t-43 72.5zM1731 -33.5q2 13.5 4 13.5h16v-3h2q4 0 6 3q31 2 105 2q6 0 28 -2q76 -6 111 -7q39 0 63.5 6.5t24.5 20.5q0 53 -18 53q-20 0 -39 49q-25 45 -39 217q-16 197 -17 568q0 233 7 375 q4 82 13 166.5t24.5 153.5t36 113t46.5 44l4 -2h5l8 -2q10 0 41 10q37 10 51 10q25 0 24 -26q0 -27 -6 -43.5t-20 -16.5l-8 2q-27 0 -50 -41q-33 -45 -57 -215q-12 -78 -18 -217q-6 -137 -6 -371q0 -379 18 -571q12 -129 28.5 -194.5t47.5 -65.5q18 0 18 -57q0 -29 -35 -29 q-121 14 -192 14h-12l-50 -4q-104 -6 -135 -10q-32 0 -32 27q0 16 2 29.5z" />
<glyph unicode="N" horiz-adv-x="1933" d="M41 1862q0 29 33 28l43 -4q70 -8 86 -10q57 -8 131 -8h131q74 0 98.5 -9.5t36.5 -37.5q57 -109 160 -262q35 -53 100 -156q27 -39 66 -103q27 -43 39 -61q14 -23 77 -121q57 -88 105 -160q14 -23 35 -53q10 -14 41 -61q23 -37 43 -68q2 -2 6 -8q6 -14 14 -25 q16 -20 43 -67q25 -39 49 -76q16 -29 38 -45t30 -16q2 0 4 2q0 2 -4 4q-72 121 -197 311l-12 18q-4 8 -6 11q-68 104 -172 266l-25 39l-63 96q-39 57 -54.5 80t-64.5 98q-6 12 -21 35l-6 8q-94 152 -147 244q39 -4 53 -10t21 -31q66 -119 157 -260q27 -41 72 -111 q16 -25 29 -43q16 -23 35.5 -52.5t46.5 -72.5q23 -31 26 -38q102 -156 215 -332q72 -113 123 -191v13q6 68 6 122v173q0 102 2 131q2 27 2 120q0 223 -14 340q-18 147 -39.5 219t-64.5 72q-29 0 -29 53q0 16 17.5 23.5t49.5 7.5q29 0 99 -8q47 -6 61 -6q33 0 54.5 3t58.5 9 l10 2q33 6 49 8q31 0 31 -32q0 -59 -25 -60q-29 0 -49 -45q-25 -47 -45 -225q-25 -188 -28 -602q0 -66 -3 -88q-2 -23 -2 -115v-256q-2 -31 -2 -135v-125q0 -29 4 -78q2 -41 3 -55q0 -70 -52 -92l-6 -2q-12 -2 -24 -2q-18 0 -27.5 8t-17.5 22q-6 10 -11 10h-6l-6 -2v19 l-6 -10q-14 20 -37 55q-23 33 -37 53l-18 27q-14 23 -19 26q-59 88 -73 111q-2 4 -53.5 82t-61.5 93t-19 28q-35 53 -77 119q-57 88 -97.5 149t-56.5 86q-51 92 -137 217q-31 45 -41 60q-39 66 -74 122q0 -37 -2 -96q0 -80 -2 -142.5t-4 -96.5q-2 -25 -2 -111q0 -66 -4 -186 q-2 -90 -2 -136v-149q0 -70 6 -132.5t18 -109.5q29 -112 83 -112h1q12 0 24.5 -22.5t12.5 -45.5q0 -35 -35 -35q-43 8 -69 8q-37 4 -68 5h-117q-14 0 -45 -3q-39 -4 -53 -4q-27 0 -42 6.5t-15 22.5q0 25 17.5 34t47.5 9h35q25 -2 35 -2h55q55 0 68 -2l8 -2q31 -4 49 -4 q20 0 32.5 6t12.5 20q-6 72 -37 72q-10 0 -24 6l-6 4q-4 0 -5 -4l3 -4v-6q2 -10 2 -18q0 -27 -33 -27q-12 2 -38 5t-32 3h-180q-23 0 -64 -4q-31 -2 -47 -2q-47 0 -47 27q0 55 29 55q27 0 55 47q27 43 51 215q20 131 21 563q0 233 2 281v53q2 59 4 99t8 75q2 10 2 47 q0 100 -14 140t-76 63q-23 6 -38 17.5t-15 19.5t14 8q23 0 68 -20l12 -4q-10 18 -37 34q-29 16 -92 35q-59 16 -91 36.5t-44 70.5zM483 457q0 -147 29 -249t80 -102h2v-2q-10 23 -25 52q-2 18 -6 71q-6 37 -8 68q-10 51 -10 108v150q0 53 4 168q4 100 4 153q0 86 2 111 q2 23 2 121q0 152 3 210t11 77q-18 37 -29.5 57t-21.5 20q-12 0 -16 -45q0 -4 -2 -20q-10 -139 -10 -248q0 -96 -3 -121q-2 -25 -2 -110v-49l-2 -142q-2 -109 -2 -129v-149zM1591 -80l6 2q6 2 7 2q35 0 47 22.5t12 65.5q0 18 -2 60q-4 53 -4 75v256q0 45 2 185l2 78v108 q0 72 2 88q4 436 25 602q18 141 38.5 206t55.5 65q12 6 34.5 15t43.5 9q33 0 32 -28q0 -59 -26 -60q-25 0 -45 -45q-25 -49 -47 -225q-20 -172 -25 -600q-2 -18 -2 -88v-111q0 -39 -2 -113q-4 -98 -4 -149v-254q0 -31 4 -80q2 -41 2 -57q0 -47 -17.5 -69.5t-64.5 -22.5 q-23 0 -31 5t-20 23q-8 12 -10 17h-2h-7v14l-2 2z" />
<glyph unicode="O" horiz-adv-x="1980" d="M41 944q0 197 76 361q78 166 202 294q127 127 283 201q156 76 313 76l-2 -2q150 0 312 -76q156 -74 282 -201q125 -127 205 -294q80 -172 80 -359q0 -389 -258 -659q-260 -276 -621 -277q-358 0 -616 277q-256 274 -256 659zM348 936q0 -336 166 -569q12 -16 33.5 -46 t44 -54.5t44 -42t40.5 -19.5q-14 2 -41 36.5t-51 73.5l-2 2q-166 233 -166 568q0 334 166 569q162 236 399 236q16 0 60 -6.5t90.5 -15.5t80 -25.5t33.5 -34.5v-4q-143 135 -332 135q-233 0 -399 -236q-166 -240 -166 -567zM500 825q0 -332 166 -569q34 -49 63 -78 q88 -41 184 -41q236 0 396 209q82 104 126 258t44 338q0 389 -160 588q-25 31 -43 49q-92 49 -211 49q-238 0 -399 -235q-166 -236 -166 -568zM535 86q221 -184 528 -184q360 0 618 270t258 659q0 193 -79 361q-78 168 -203 297q-82 84 -166 135q53 -45 82 -74 q129 -127 205 -297q78 -174 77 -360q0 -391 -256 -664q-254 -270 -618 -270q-250 0 -442 125z" />
<glyph unicode="P" horiz-adv-x="1648" d="M41 1847q0 10 6 23.5t16 13.5h3q2 -2 4 -2l6 -4q115 -16 196 -16q53 0 174 6q129 6 189 6q207 0 393 -55q188 -57 320 -197q131 -137 131 -412q0 -244 -250 -465q-125 -111 -286 -185.5t-394 -141.5l-35 -10q-8 -2 -29 -9q-43 -12 -62.5 -24.5t-19.5 -44.5v-29 q14 -94 31 -139t53 -70q8 -8 9 -51q0 -29 -31 -29q-127 10 -197 11q-78 -2 -194 -15q-29 0 -29 29q0 51 16 51q27 0 39.5 59.5t24.5 196.5q2 8 2 12q12 154 16 559q0 115 2 146t2 127q0 109 -3 205t-11 185t-25.5 146.5t-46.5 61.5q-20 2 -20 61zM168 -70q0 8 1 18.5t3 12.5 l6 2q63 8 139 10h9q12 0 55 -4q70 -6 100 -6q33 0 51.5 5t18.5 20q0 27 -6 39t-19 28q-27 27 -41 58v2q-12 33 -20 65.5t-8 69.5v26q0 31 11 42.5t42 21.5l14 6q35 10 76 21q422 104 680 329q252 225 252 465q0 270 -131 414q-20 20 -62 57l-6 6q72 -47 144 -122 q131 -137 131 -412q0 -244 -252 -465q-250 -223 -676 -328q-10 -4 -41 -12q-49 -12 -78 -28.5t-29 -51.5v-24q12 -98 31 -142q12 -31 29 -47l22 -22q10 -10 11 -54q0 -28 -31 -28h-2q-23 2 -55.5 3t-114.5 1q-121 0 -187.5 4t-66.5 20zM383 735q0 -117 9 -166t40 -49h25 q-2 4 -2 15q-10 61 -11 155v187q4 348 19 514q2 25 4 75q6 115 20 158q12 35 33 53.5t53 18.5q313 -18 459 -113l-8 2q-131 137 -516 162q-45 0 -62.5 -13.5t-21.5 -47.5q-6 -55 -18 -187q-2 -31 -7 -63q-16 -197 -16 -512v-189zM522 631q0 -2 2 -39q2 -47 4 -47h-4 q225 92 424 258q225 190 226 385q0 205 -119 366q-12 6 -57.5 21.5t-108 32t-123.5 28t-107 11.5q-59 0 -73 -23q-18 -25 -21 -45q-8 -72 -24 -250q-14 -166 -19 -512v-186z" />
<glyph unicode="Q" horiz-adv-x="1998" d="M41 954q0 197 76 361q78 172 202 297q129 125 283 198q156 78 313 78q150 0 312 -78q156 -74 282 -198q123 -121 205 -297q80 -162 80 -357q0 -391 -258 -661q-258 -274 -621 -274q-57 0 -84 2h-18q-43 0 -43 -27q0 -25 4 -30t14 -5q29 0 54 -24l6 -9q2 27 43 27h12 q27 -2 84 -2q362 0 621 270q258 274 258 662q0 188 -80 360q-82 180 -203 299q-25 25 -65 60l-17 14q90 -57 174 -141q129 -133 205 -295q78 -170 78 -361q0 -387 -256 -661q-111 -117 -237 -178.5t-287 -85.5q10 0 22 2h21q27 0 67 -4q27 -2 37 -2q236 18 361 114 q35 0 45 -20.5t10 -50.5q2 -16 4 -17q-31 -23 -48.5 -36t-72.5 -50q-27 -18 -63 -43q-12 -8 -50 -35q-63 -45 -102 -70.5t-51 -25.5h-23q-43 0 -139 23q-33 8 -141 30q-27 4 -56 11l-55 12q-98 23 -254 26q-43 0 -72.5 -9t-62.5 -25q-43 -23 -68 -23q-12 0 -26.5 19.5 t-20.5 33.5q0 10 16.5 31t49.5 55q18 20 26 29q6 8 35 49q23 31 41.5 56.5t28.5 35.5q-39 16 -70 47l-6 5q43 -31 78 -48q4 4 4 7q0 4 -30.5 25.5t-120.5 78.5q-43 29 -75 50.5t-40 27.5q-158 127 -246 323q-90 197 -90 424zM354 938q0 -336 166 -569q45 -61 87 -107.5 t79 -58.5q-16 6 -36.5 32.5t-47.5 67.5q-6 8 -8 10q-166 233 -166 568q0 332 166 567q164 238 397 238q6 0 51 -10.5t94.5 -24t84 -25.5t34.5 -20l-2 -2q-143 137 -333 137q-233 0 -400 -236q-166 -240 -166 -567zM520 815q0 -330 166 -567q35 -43 62 -74q80 -37 174 -37 q236 0 395 209q82 104 126 258t44 338q0 389 -160 588q-49 49 -107.5 69.5t-134.5 20.5q-233 0 -399 -238q-166 -240 -166 -567zM608 -369q0 14 33 47l-4 3q43 20 125 20q100 0 254 -29q41 -8 141 -30q90 -20 149.5 -31.5t102.5 -11.5h21q10 2 73 43q35 29 115 79 q70 45 106 72l37 25l17 12q23 18 28 23l6 4q37 20 60 20q31 0 31 -39q0 -45 -22.5 -69.5t-76.5 -57.5q-33 -20 -51 -33l-63 -40l-7 -7q-70 -47 -108.5 -73.5t-50.5 -26.5h-23q-39 0 -139 23q-25 6 -56.5 13t-99.5 21t-96 21q-128 26 -245 26h-9q-41 0 -69.5 -9t-61.5 -27 q-45 -23 -72 -23q-12 0 -22 14.5t-19 32.5z" />
<glyph unicode="R" horiz-adv-x="1701" d="M41 1845q0 33 29 33q115 -16 196 -16q53 0 174 6q119 6 195 6q207 0 403 -55q188 -53 328 -197q133 -141 133 -412q0 -135 -96 -274q-94 -131 -252 -252l-10 -6q-49 -29 -83 -54.5t-34 -45.5q0 -12 12 -25q141 -221 215 -309q33 -37 74 -77t47 -40q0 6 -57 70 q-72 84 -215 305l22 -2q-12 16 -12 26q0 18 26.5 40t71.5 50q20 12 27 17q158 121 252 252q98 135 98 272q0 272 -135 416q-25 25 -61 57q74 -49 139 -114q133 -141 133 -412q0 -135 -96 -275q-57 -80 -135 -153.5t-170 -132.5q-6 -6 -25 -17q-25 -16 -36 -27.5t-11 -25.5 t12 -27q86 -133 207 -294l20 -27q4 -4 17 -14q29 -23 46 -42.5t17 -41.5q0 -8 -22 -9h-6q-70 -12 -105 -12q-12 0 -43 4q-39 6 -63 6q-25 0 -82 -6q-66 -6 -103 -6h-63q-23 0 -39 4t-16 10v29q0 23 22 43q20 16 21 35q0 18 -17 47q-23 49 -117 182q-23 -4 -51 -12l-10 -2 q-20 -4 -27 -6l-30 -6q-2 0 -13 -4q-25 -6 -24 -7l-19 -4q-72 -12 -110.5 -29.5t-38.5 -60.5v-24q14 -98 27.5 -134t56.5 -79q8 -8 8 -54q0 -28 -31 -28h-2q-90 10 -182 10q-86 0 -209 -10q-31 0 -31 28q0 25 2 31q66 8 136 10h12q16 0 61 -4q68 -6 99 -6t49 5t18 20 q0 25 -7 39t-21 30q-25 27 -35 56q-10 20 -20.5 59t-10.5 78v24q0 29 26.5 49.5t62.5 32t69 17.5t45 6q41 12 77.5 20.5t67.5 8.5q-23 27 -39 38t-35 11q-14 0 -53 -11q-31 -8 -57 -14l-31 -6q-6 -2 -33 -6q-74 -14 -121 -34.5t-47 -61.5v-27q14 -94 31 -139t53 -70 q8 -8 9 -51q0 -31 -31 -31q-82 10 -172 10q-98 0 -219 -12q-29 0 -29 31q0 51 16 51q27 0 39.5 59.5t24.5 196.5q2 8 2 12q12 154 16 559q0 115 2 146t2 127q0 139 -2 172q-4 78 -10 149.5t-15 133t-23.5 101.5t-35.5 42q-20 2 -20 61zM391 741q0 -113 9.5 -164t41.5 -51 q18 0 19 11v6q-10 98 -10 155v187q0 307 18 514q4 43 6 80q6 104 13.5 149t25.5 64q6 10 14 10q4 0 9 -2h12q14 0 31 8l-5 -2q82 -4 161 -14.5t150.5 -25.5t120 -35.5t58.5 -47.5q-12 31 -65.5 58.5t-114.5 50.5q-10 4 -50 15t-95.5 23.5t-112 20.5t-97.5 8q-63 0 -79 -20 q-16 -23 -19 -47q-10 -82 -24 -250q-16 -197 -17 -512v-189zM528 639q0 -35 4 -80q227 90 422 256q225 190 226 385q0 35 -2 91.5t-11.5 119t-28 106.5t-46.5 44h-2q-16 8 -34 16t-32 12q-18 6 -58 16.5t-93.5 22.5t-108.5 20.5t-96 8.5q-61 0 -78 -21q-14 -25 -19 -47 q-8 -88 -24 -252q-14 -172 -19 -510v-188zM1083 -49q0 4 2 12l2 -4h15h22q94 14 185 14q27 0 65 -8q29 -4 39 -4q33 0 82 7t49 16q0 2 -5 16t-9 18q2 0 10 -4q20 -8 23 -8q14 -8 36.5 -28.5t22.5 -45.5q0 -8 -50 -14t-81 -6q-14 0 -41 4q-43 4 -66 4q-25 0 -81 -6 q-66 -6 -103 -6h-61q-25 2 -40.5 6t-15.5 10v27z" />
<glyph unicode="S" horiz-adv-x="1626" d="M41 381q0 84 8 135q6 66 6 141q0 98 56 99q55 0 55 -94q31 -158 203 -334q29 -35 86 -76q-6 8 -25 27q-174 182 -203 337v15v8q0 14 23 14q27 0 38 -20.5t17 -71.5q8 -74 61.5 -160t139.5 -174q16 -8 45 -20t70 -25.5t80.5 -22.5t72.5 -9q39 0 60 14l-5 -2q113 0 248 117 q141 121 142 290q0 66 -19.5 132.5t-58.5 105.5l-29 29q-127 55 -293 106q-106 33 -201.5 79t-166.5 107q4 -4 19 -14t19 -12q121 -70 252 -109q82 -25 263 -94h2q59 -29 77 -43q-57 57 -141 90q-141 57 -262 94q-139 43 -252 109q-115 68 -190 151q-78 84 -78 199 q0 111 41 188.5t110 118.5q23 8 74 25.5t102 34.5l177 22v2q233 -23 393 -139h10q6 -2 8 -2h27q41 0 63.5 -57.5t46.5 -159.5q12 -55 21.5 -89t21.5 -46q2 -2 2 -11q0 -16 -16 -30.5t-33 -14.5q-4 0 -16 8.5t-25.5 19.5t-22.5 21.5t-9 16.5l2 2l8 2q-18 47 -49 93t-70 75 q-55 43 -117.5 63.5t-111.5 20.5q-51 0 -102.5 -10.5t-95.5 -32t-70.5 -56t-26.5 -83.5q0 -16 5 -36t15 -26l17 -8q76 -43 274 -104q25 -8 51 -17q162 -47 281 -114q137 -76 215 -189q43 -61 67.5 -146t24.5 -182q0 -301 -203 -473q-209 -178 -448 -178q-229 0 -414 82 q-186 80 -301 195q-45 12 -45 96zM268 133l4 2q102 -86 246 -147q188 -80 412 -80q242 0 452 178q203 176 203 473q0 98 -24.5 182t-67.5 144q-41 57 -88 103t-96 67q20 -8 43.5 -36t54.5 -69l6 -10q43 -63 67.5 -147t24.5 -181q0 -301 -202 -473q-209 -178 -451 -178 q-223 0 -412 80q-94 41 -172 92zM365 1579q0 -57 69 -109q6 -4 23 -12h-2q-35 41 -35 74q0 49 26.5 84t69.5 57.5t93 31.5t100 9q109 0 258 -98q2 -2 10 -6q18 -10 24 -17q-33 33 -78.5 63t-97 54.5t-97.5 37.5t-77 13q-51 0 -101 -10t-92 -31.5t-67.5 -56.5t-25.5 -84z M1231 1645q2 -2 6 -3h6q39 0 57.5 -39.5t36.5 -115.5q6 -35 13 -51l8 -25t23.5 -70t19.5 -55q0 -16 -15.5 -30.5t-31.5 -14.5q-20 0 -46 15.5t-26 41.5v-8q12 0 26.5 14.5t14.5 28.5q0 6 -2 13q-2 4 -2 10l-8 24q-23 59 -39 111q-20 66 -37 135z" />
<glyph unicode="T" horiz-adv-x="1820" d="M41 1522q0 25 35 80q18 31 30 53q20 35 60 121q25 57 40 84.5t27 27.5h62h2h2q166 -14 367 -14h98q16 0 70 2l26 2q27 0 135 6q115 4 217 8q33 2 50 2q55 4 86 4q45 0 68.5 -25.5t51.5 -84.5q29 -59 52 -90q31 -43 55 -80l10 -14q16 -25 25 -35l12 -19q6 -20 6 -26 q0 -23 -19.5 -40.5t-39.5 -17.5q-43 0 -65.5 20.5t-55.5 74.5l-2 4l-4 8q-27 10 -43 18q-141 49 -238 60h-22q-16 0 -19.5 -8.5t-5.5 -38.5v-2q-14 -82 -20 -275q-8 -238 -9 -508q0 -393 19 -553q14 -129 33.5 -199.5t52.5 -74.5q20 0 20 -62q0 -29 -32 -28q-113 12 -209 12 q-20 0 -45 -2t-82 -8q-74 -8 -94 -8q-33 0 -33 30q0 27 2 33q33 4 57 4q16 0 64 4q39 2 49 2q41 0 190 -10l19 -2q33 0 32 27q0 35 -5 47t-17 20q-12 6 -20.5 16.5t-18.5 34.5q-25 49 -43 220q-20 168 -20 555q0 379 8 503q2 49 2 72q4 133 11 194.5t32 61.5h24 q90 -10 238 -61q49 -14 98 -48q-27 29 -78 56.5t-113.5 51.5t-118.5 37t-89 13h-25q-16 0 -22 -33q0 -6 -2 -16q-16 -147 -21 -274q-6 -199 -6 -508q0 -395 19 -553q14 -129 34.5 -203t51.5 -74q20 -2 20 -59q0 -31 -35 -31q-113 12 -209 12q-23 0 -96 -6q-88 -8 -125 -8 q-33 0 -33 31q0 53 17 53q18 0 39 51q20 51 43 217q14 92 23 233.5t9 319.5q0 121 2 164q2 41 3 348q0 90 -11 197q-121 -39 -218 -89t-132 -114q-36 -69 -102 -69h-2h-2q-23 0 -37.5 18t-14.5 39v2v8q39 6 48.5 12.5t19.5 32.5q10 20 10 23q18 37 70.5 73.5t117 67.5 t128 51.5t106.5 28.5v14q-2 23 -5 31t-17 8h-23q-43 -4 -110.5 -23.5t-137 -51t-123 -70.5t-71.5 -78q-33 -70 -107 -70h-2q-23 0 -36 18.5t-13 41.5zM1507 1778q63 -2 78 -54q29 -74 86 -153q10 -14 37 -55l16 -25l11 -14q16 -25 24 -35l13 -19q8 -14 8 -24 q0 -23 -20.5 -39.5t-43.5 -16.5q-70 0 -104 60l-2 2q6 -2 24 -2t40 18.5t22 38.5q0 16 -31 60q-2 2 -6 8l-17 24q-16 27 -53 82q-68 98 -82 144z" />
<glyph unicode="U" horiz-adv-x="1751" d="M41 1884q0 16 8 22.5t23 6.5q8 0 14 -2h14q133 -10 166 -10q63 0 195 12q16 0 36.5 -13.5t20.5 -29.5q0 -59 -18 -60q-25 0 -43 -41q-25 -49 -47 -221q-20 -172 -25 -583q-2 -23 -2 -97v-170q0 -68 2 -67h4q2 -197 22.5 -272.5t80.5 -102.5l-7 -29q-37 80 -41 322h-6v334 q2 373 29 583q18 139 35.5 203t52.5 64q4 0 14 14q16 29 35 29q12 0 31 -13q20 -14 20 -28q0 -61 -18 -62q-27 0 -43 -43q-25 -47 -47 -215q-20 -160 -25 -586q-2 -23 -2 -96v-168q0 -72 2 -71h6q4 -190 25 -275h33q18 -2 28 -2q59 0 115.5 8t128.5 29q4 2 12 4 q49 12 103.5 27.5t111 38t95.5 50t39 56.5v475q0 125 2 158t2 137v164q0 72 -7.5 146.5t-18.5 135t-26.5 98.5t-33.5 40q-20 4 -25 59q0 33 23 33h12q86 -14 192 -14q190 0 207 16q23 0 23 -33q0 -61 -17 -61q-16 0 -34 -47q-20 -43 -39 -226q-18 -186 -23 -587 q0 -319 2 -371q2 -74 8.5 -154t16.5 -147.5t26.5 -108.5t38.5 -41q18 0 19 -63q0 -27 -33 -27q-133 10 -195 11q-6 0 -30 -3q-72 -6 -111 -6t-62.5 5.5t-23.5 19.5v12q-8 -2 -27 -10q-94 -31 -139 -49q-92 -39 -176 -61.5t-156 -22.5q-150 0 -239 90q70 -33 162 -33 q68 0 149.5 21.5t179.5 60.5q37 14 131 45q92 29 138.5 47.5t50.5 30.5l6 23l2 6q2 18 2 24q-14 0 -31 -6q-229 -61 -354 -115q-199 -82 -332 -82q-158 0 -246 95q-94 98 -98 411v156q0 127 4 172v8q6 49 6 88q0 117 2 148t3 125q0 205 -9 305q-12 139 -29.5 215t-45.5 80 q-20 4 -25 61zM1253 -45q0 33 2 33l7 -2q57 8 147 8q2 0 25 -2q37 -4 64.5 -6t53.5 -2q37 0 59.5 5t22.5 19q0 61 -18 62q-31 0 -50.5 69.5t-31.5 198.5q-6 53 -10 186q-4 217 -4 377q4 389 22 588q14 135 30.5 202.5t45.5 67.5q4 0 8 10q4 16 21 21q14 2 18 2q10 2 12 2 q18 0 25.5 -5t7.5 -26q0 -61 -16 -61q-18 0 -35 -49q-20 -41 -39 -221q-18 -186 -23 -590q0 -319 2 -373q2 -72 8.5 -152.5t16.5 -148.5t26.5 -110t39.5 -42q18 0 18 -61q0 -29 -33 -29q-106 12 -194 13q-8 0 -47 -5q-68 -6 -103 -6q-37 0 -57.5 6.5t-20.5 20.5z" />
<glyph unicode="V" horiz-adv-x="1816" d="M41 1876q0 6 45 6q27 0 50.5 -1t74.5 -3q47 -4 55 -4h129q20 0 66 6q35 4 51 4q47 0 57 -35q0 -8 2 -26q2 -10 2 -15q0 -25 -22 -24q-20 0 -35.5 -23.5t-15.5 -56.5q0 -57 30 -191q41 -166 205 -608q12 -33 27 -82q2 -8 4 -14l10 -31q4 -10 10 -37q10 -41 20.5 -75.5 t24 -69.5t27.5 -57.5t29 -22.5q10 0 20 16l-8 21l-2 8q-12 29 -19.5 48.5t-19.5 60.5q-14 43 -31 92q-2 6 -4 14q-14 49 -26 82q-168 455 -203 606q-31 135 -31 189q0 31 13.5 55.5t37.5 24.5q23 0 23 26v2v2q20 6 35 6q23 0 35 -15t12 -52q0 -29 -23 -29q-37 0 -47 -43 q0 -6 -2 -16t-2 -19q0 -47 29 -190q37 -170 205 -604q8 -29 30 -94l31 -86q10 35 35 104q20 68 65 201q139 399 174 581q20 115 21 181q0 43 -14.5 70.5t-40.5 27.5q-27 0 -27 33q0 4 2 12l2 6v4q0 18 13.5 24.5t37.5 6.5q12 0 49 -2q35 -4 54 -4h205h4q63 8 84 8 q35 0 34 -10q0 -35 -24.5 -58.5t-40.5 -31.5q-20 0 -55 -50q-35 -61 -99 -217q-94 -221 -202 -569q-49 -158 -97 -279q-49 -123 -76 -202l-8 6q0 -10 -12 -41q-6 -16 -8 -21l-19 -61q-2 -4 -18 -55q-23 -66 -27 -76q-2 -2 -8 -23.5t-10 -35.5l-19 -56q-16 -49 -41.5 -75.5 t-50.5 -26.5q-35 0 -52 23.5t-34 78.5l-61 197q-20 72 -55 176l-9 20q-8 25 -53 170q-20 70 -41.5 138.5t-32.5 97.5q-131 399 -221 614q-57 139 -101 216t-77 77q-23 0 -41 53v5l-2 6q-2 8 -2 12zM889 -63q29 6 57.5 52t42.5 107l4 15q8 25 33 82q43 100 53 157q4 10 15 41 q6 18 6 19v-2q29 96 76 206q33 82 96 277q117 362 201 569l4 13q53 129 86.5 192.5t66.5 63.5q4 0 37 14q35 14 55.5 21.5t34.5 7.5q18 0 19 -15q0 -29 -18.5 -49t-41.5 -35l-4 -4q-20 0 -55 -49q-41 -66 -103 -217q-70 -168 -200 -572q-45 -137 -99 -274q-23 -59 -55 -160 q-25 -74 -39 -110q-16 -61 -59 -166q-23 -55 -31 -82q-18 -68 -47 -114t-61 -46q-53 0 -74 58z" />
<glyph unicode="W" horiz-adv-x="2369" d="M41 1876q0 14 27 14q53 -6 92 -12q41 -6 92 -6h131q57 0 115 10q25 4 32 4l7 2q8 0 12 -20.5t4 -34.5q0 -25 -18 -25q-23 0 -36.5 -29.5t-13.5 -66.5q0 -63 27 -190q43 -193 182 -617q35 -98 43 -141q2 -4 2 -8q14 -55 27.5 -99.5t26.5 -44.5q6 0 15 13.5t9 33.5v9 q0 4 2 6h2q0 23 -10 56.5t-29 82.5q-8 20 -14 37q-137 401 -182 614q-27 129 -27 193q0 55 16.5 69.5t53.5 16.5q47 2 69 18l7 2q8 0 11 -19.5t3 -37.5q0 -23 -19 -23q-18 0 -32.5 -28.5t-14.5 -61.5q0 -66 27 -194q41 -197 172 -586l18 80q4 18 11 43q6 37 12 63l14 66 q18 82 33 149q72 336 98 543q6 55 26.5 99.5t61.5 44.5q37 0 56.5 -37t31.5 -95q63 -299 129 -579q16 -68 25 -100q27 -111 47 -189q10 -37 29 -123q20 -86 33.5 -132t27.5 -60l4 -4q10 0 17 32q4 29 12 37q-37 141 -119 482q-74 311 -129 581q-2 8 -8 28.5t-10 35.5l6 2 q8 2 18 2q37 0 57.5 -38t32.5 -95q29 -145 93 -424q33 -141 37 -158l30 -135q2 -6 4 -19q18 -70 31 -112q20 74 39 114q137 410 172 588q20 109 20 185q0 45 -14 67.5t-39 40.5q-29 23 -28 43v16q6 35 43 35q88 -14 178 -14h92q2 0 8 2q33 4 48.5 6t31.5 2q33 0 33 -12 q0 -35 -19.5 -58.5t-34.5 -31.5q-23 0 -47 -54.5t-67 -170.5l-15 -41q-39 -106 -192 -570q-55 -164 -88 -282q-12 -41 -35 -107q-25 -72 -33 -104l-14 -56q-18 -68 -33 -116l-8 -29q-6 -18 -12 -45q-23 -94 -47 -147.5t-68 -55.5q-29 0 -60.5 21.5t-31.5 56.5v4 q-53 207 -113 453l-14 57l-6 23q-12 43 -18.5 66.5t-16.5 74.5q-2 -12 -10 -51q-12 -49 -23 -101q-14 -70 -29 -129l-6 -24l-10 -41q-33 -137 -49 -221l-55 -265h4q-31 -57 -70 -57q-61 0 -90 68q10 0 37 32q23 25 29 25h-5l56 264q16 84 49 221l10 41q0 2 4 21 q31 137 47 217q12 51 25.5 137t13.5 125q0 4 -2 12v4q-4 14 -8 35q-10 35 -15 50.5t-14 15.5q-4 0 -7 -8.5t-7 -22.5l-2 -4q-25 -133 -78 -377q-31 -143 -33 -149l-55 -265q-4 -20 -22 -112q-6 -33 -19 -93l-12 -59h2q-27 -55 -68 -55q-72 0 -100 102l-111 394 q-6 20 -49 155t-78 244q-6 18 -49 162q-106 350 -145 458l-4 15q-51 141 -77 195.5t-56 54.5q-23 0 -66 84q0 6 -2 10t-2 6zM1536 -61q55 12 82 104q25 94 43 168l14 61t15 62q6 25 11 44t11 36q14 45 25 82q8 31 24.5 87t33.5 113.5t33.5 107.5t26.5 77q33 98 70 206 q14 45 64 193q74 229 114.5 334.5t71.5 105.5q2 0 6 9q12 18 21 18h6q10 0 37 2q39 4 53 4q31 0 31 -10q0 -27 -15.5 -47.5t-36.5 -36.5l-6 -6q-16 0 -39 -49q-20 -37 -88 -215l-4 -15q-29 -84 -61 -176l-13 -37q-43 -127 -100 -301q-12 -39 -14 -45q-25 -70 -50.5 -152.5 t-50 -169.5t-39 -142.5t-36.5 -141.5q-8 -41 -15 -59q-2 -12 -8 -37q-10 -47 -19.5 -82t-23.5 -71t-33.5 -58.5t-44.5 -26.5q-57 0 -86 68z" />
<glyph unicode="X" horiz-adv-x="1869" d="M41 12q0 31 17.5 51.5t54.5 47.5q39 29 55 45q61 70 172 223q127 170 362 534q25 29 25 64q0 31 -18 61q-215 365 -301 496l-25 37q-70 111 -106.5 157t-61.5 46q-14 0 -35.5 33.5t-21.5 56.5q0 18 18 18q109 -18 207 -18q23 0 92 6q76 8 117 8q51 0 80.5 -13.5 t29.5 -45.5q0 -10 -22 -23q-23 -10 -36 -23.5t-13 -39.5q0 -35 22 -113q35 -104 197 -352q27 -39 36 -46.5t29 -7.5l-4 3q0 2 -2 2q-125 188 -174 285.5t-49 178.5q0 29 13.5 42.5t35.5 23.5q25 10 25 20v3l16 4q25 0 46.5 -20.5t21.5 -47.5q0 -8 -23 -18q-23 -12 -37 -25.5 t-14 -40.5q0 -39 27 -115q35 -96 141 -270q119 160 174 269.5t55 187.5q0 33 -16 50t-45 34q-27 16 -27 26q0 25 20.5 46.5t43.5 21.5q53 -8 130 -15.5t116 -7.5l18 2q51 4 99 7.5t79 3.5q29 0 29 -4q0 -25 -15.5 -40.5t-44.5 -35.5q-41 -27 -55 -43q-39 -33 -141 -172 q-98 -131 -320 -467q-25 -43 -24 -82q0 -45 28 -92q197 -342 316 -516q121 -172 166 -228q23 -27 36 -40t33 -29q20 -18 36 -35t38 -53q6 -12 6 -21q0 -4 -45 -4q-33 0 -80 2t-71 2q-27 2 -29 2q-49 0 -141 -8q-84 -8 -119 -8q-55 0 -84 14t-29 51q0 16 23 17q14 0 34.5 12 t20.5 33v4l2 6q2 14 2 21q0 43 -35 147q-39 109 -178 346q-223 -324 -272 -457q-41 -111 -41 -147q0 -29 17.5 -48.5t43.5 -19.5q23 0 23 -16q0 -37 -32 -53.5t-87 -16.5q-41 0 -135 13q-61 8 -80 8q-20 0 -59 -4q-45 -4 -68 -4h-10q-25 -4 -35 -4q-27 0 -27 10 q0 4 13.5 30.5t19.5 26.5h18l31 2q29 2 37 2q31 0 102 -8q82 -8 117 -8q55 0 85 15.5t30 51.5q0 14 -21 15q-8 0 -25.5 6t-17.5 14l-2 -4l-2 -2q-14 -27 -26.5 -37t-34.5 -10q-74 8 -146.5 14t-117.5 6q-31 0 -88 -6q-57 -8 -88 -8q-25 0 -25 8zM510 100.5 q18 -20.5 45 -20.5q-2 2 -2 16q0 39 41 150q53 133 274 456q2 4 11.5 13.5t15.5 13.5l-14 29q-16 29 -35 28q-20 0 -37 -28q-227 -336 -277 -461q-40 -108 -40 -145q0 -31 18 -51.5zM1081 975q0 39 27 84q209 313 319 467q59 82 99.5 127t70 67.5t54 29.5t67.5 15q23 2 29 4 q20 0 20 -14q0 -25 -15 -42t-50 -40q-33 -23 -47 -37q-51 -51 -144 -176q-115 -156 -317 -467q-29 -47 -29 -80q0 -47 31 -94q172 -297 315 -514l27 -39q82 -127 131 -190.5t90 -81.5q10 -6 40 -40t30 -56q0 -4 -41 -4q-33 0 -87 3t-79 3q-16 2 -20 2q-31 0 -109 -6 q-98 -8 -137 -9q-57 0 -90 11.5t-33 40.5l-6 4q31 8 135 14q127 6 156 6q10 0 69 -4q82 -4 115 -4q41 0 41 6q0 23 -28.5 56.5t-41.5 41.5q-14 6 -74 74l-6 6q-59 68 -166 228q-100 147 -315 516q-31 49 -31 92z" />
<glyph unicode="Y" horiz-adv-x="1857" d="M41 1849q0 12 16.5 23.5t26.5 11.5l10 -2q57 -10 82 -12q16 -2 88 -2q16 0 76 2q20 2 45 2h6q16 0 55 6q45 4 64 4q53 0 53 -29v-28q0 -37 -28 -37q-41 0 -48 -49q0 -70 54 -223q72 -197 268 -588l2 -4q16 -39 30.5 -60.5t30.5 -21.5q2 0 5 2q2 2 4 2t4 2l4 6h-2l-2 2 q-4 10 -6 18v5q-205 397 -271 587q-23 61 -37 115.5t-14 91.5q0 66 45 66q29 0 31 33h12q29 0 48.5 -13.5t19.5 -44.5q0 -35 -31 -35q-39 0 -45 -49q0 -84 51 -225q63 -176 227 -506q2 0 9 14q223 393 282 574q43 139 43 207v32q-8 27 -21.5 40.5t-33.5 23.5q-29 14 -29 35 q0 59 56 59q33 0 112 -8q82 -8 117 -8q18 0 82 8q80 10 108 10q33 0 33 -10q0 -8 -2 -16l-2 -5q-37 -61 -45 -61q-14 0 -51 -47q-39 -45 -148 -221q-137 -231 -325 -582q-211 -399 -264 -567q-43 -135 -43 -197q0 -41 18 -59.5t43 -30.5q10 -4 10 -6v8q-4 12 -4 33 q0 49 41 194q51 170 264 568q190 350 328 581q92 154 131 211.5t64 57.5q2 0 24 8q29 12 50.5 20.5t35.5 8.5q18 0 19 -15q0 -20 -12.5 -37.5t-28.5 -33.5q-6 -4 -7 -7q-10 0 -51 -47q-43 -57 -143 -223q-113 -190 -326 -582q-211 -389 -266 -567q-41 -139 -41 -196 q0 -41 14.5 -60.5t40.5 -32.5q25 -14 25 -26q0 -37 -20.5 -53.5t-53.5 -16.5q-31 0 -86 17q-2 0 -10 2q-61 10 -115 10q-23 0 -73 -2q-12 -2 -25 -2q-25 -4 -51 -4q-2 0 -13 -2q-16 -2 -24 -2q-18 0 -28.5 7t-10.5 25q0 8 4 13l2 4l2 4q0 2 2 4l6 6q8 2 29 2q12 0 25 2 q51 2 73 2q45 0 138 -16q51 -8 81 -13h7q29 0 44 20.5t15 49.5q0 16 -31 33q-27 14 -35 26v-2q0 -31 -20 -50t-49 -19q-16 0 -33 8q-14 2 -35 4q-29 4 -35 4q-57 10 -110 10q-27 0 -92 -6q-76 -8 -107 -8q-27 0 -26 33q0 27 16 41t45 26q20 10 25 15q31 27 71 88 q61 96 148 252q6 10 8 14q23 43 22 66q0 39 -14 73l-41 93q-6 12 -35 81q-39 90 -55 123q-143 330 -240 514q-23 41 -45 86q-59 109 -92 158t-80 88q-31 25 -57 88z" />
<glyph unicode="Z" horiz-adv-x="1757" d="M41 37q0 31 20 57q174 217 316 426q117 176 285 449q102 160 215 344q127 209 182 311h-31q-78 0 -168 -13.5t-172 -38t-146.5 -57t-95.5 -69.5q-25 -35 -60.5 -67.5t-66.5 -32.5q-35 0 -34 24q0 8 4 23q4 20 4 30l-2 21l6 6q20 20 38.5 41.5t26.5 34.5q55 68 246 131 q147 49 336 49q8 0 37 -2q39 -2 61 -2q41 0 41 10q0 16 -13 22.5t-34 8.5q-14 2 -14 4q-70 6 -139 6q-78 0 -168 -13.5t-174 -38t-147.5 -57t-92.5 -69.5l-2 -2q-37 -47 -66.5 -73.5t-58.5 -26.5q-33 0 -33 30q0 31 29 83t68 108q12 23 14 24l10 21q35 68 59.5 103.5 t53.5 39.5q10 -16 151 -20h324q39 2 176 2q29 0 123 2l45 2h6q37 0 55 2q92 2 197 2q43 0 43 -29q0 -27 -39 -71q-156 -209 -297 -426q-156 -238 -270 -439q-6 -12 -47 -80q-43 -70 -64 -102q-82 -135 -112 -178q-106 -170 -211 -359q-2 -6 -7.5 -17t-5.5 -24q0 -20 21 -20 h49l6 12q94 180 213 359q100 154 221 358q55 94 133 219l136 215q127 197 297 426q25 31 28 43h45q43 0 43 -26q0 -27 -37 -74q-156 -209 -297 -426q-156 -244 -270 -438v-2q-10 -16 -27.5 -48t-41 -71t-46 -74t-36.5 -55q-25 -43 -50 -80q-16 -27 -20 -35 q-90 -145 -184 -315h61q45 0 88 4q72 4 180 22l9 2q104 18 233 64q123 41 209 115q27 33 59.5 64.5t59.5 31.5q53 0 53 -58q-6 -55 -43 -86q-80 -80 -96 -102q-31 -55 -60.5 -98t-64.5 -74q-25 -12 -70 -12h-289q-78 0 -192 2q-66 2 -96 2q-219 0 -334 -4q-129 -4 -240 -13 q-23 0 -37 19.5t-14 42.5zM176 -80l4 4q82 6 207 10h21q55 2 317 3q78 0 195 -3q63 -2 94 -2h289q59 0 94 34t76 102q20 35 28 47q2 2 23.5 28.5t51.5 64.5t46 61.5t16 27.5l7 2q8 2 18 2q53 0 53 -55q-2 -43 -42 -94.5t-99 -110.5q-27 -29 -31 -33q-8 -12 -22 -35 q-33 -49 -61.5 -73.5t-80.5 -24.5h-288q-78 0 -193 2q-66 2 -96 2q-219 0 -334 -4q-129 -4 -240 -12q-18 0 -35.5 18.5t-17.5 38.5z" />
<glyph unicode="[" horiz-adv-x="327" d="M41 -164v2204h190v-76h-122v-2050h24v2030h123v55h31v-76h-123v-2009h67v-78h-190zM94 -184h162v55h31v-76h-193v21z" />
<glyph unicode="\" horiz-adv-x="835" d="M41 1804h63l596 -1753h-61zM160 1735h39l596 -1753h-64l-12 36h22z" />
<glyph unicode="]" horiz-adv-x="327" d="M41 -86h123v2009h-70v21h70v20h-123v76h190v-2204h-190v78zM94 -184h162v2183h31v-2204h-193v21z" />
<glyph unicode="_" horiz-adv-x="1193" d="M41 -84h1077v-59h-1077v59zM72 -156h1061v47h20v-61h-1081v14z" />
<glyph unicode="`" horiz-adv-x="274" d="M41 1878h74l55 -141q16 -55 16 -78q0 -25 -16 -25q-37 0 -74 103l-53 141h-2zM143 1843h19l53 -141q18 -51 18 -76q0 -27 -18 -27q-4 0 -14 11q-12 8 -17 8h-2h8q18 0 19 27q0 25 -19 73z" />
<glyph unicode="a" horiz-adv-x="1705" d="M41 319q0 16 14.5 31t20.5 15q23 0 60.5 43t88.5 118q4 6 13 19q121 182 196 325q29 55 37 70q92 172 129 223q55 84 62 131q-41 2 -80 16.5t-39 24.5q0 8 28 7l11 -1h14h16q6 -2 11 -2q25 0 24 7q0 8 -38 21t-68 15q-119 6 -129 54v10q0 18 18 18h16q78 -6 148 -6h229 q12 0 29 2h16q14 0 29 -26l270 -539l9 -8q20 -43 55 -119q94 -197 150.5 -288t119.5 -101q-33 33 -86 119q-61 100 -182 346l-8 10l-258 516q10 0 24 2h6q14 0 29 -26l272 -541l9 -8q117 -240 180 -346q57 -90 86 -119q-8 6 -12 6t-15 6q-10 4 -12 4v-2v-2v-2l2 -4 q0 -29 -29 -29q-51 4 -98 6q-33 2 -80 2q-27 -2 -86 -4t-86 -4q-25 0 -42 3t-19 14q0 18 6 26t20 19q14 10 22.5 21t8.5 36q0 2 -2 12q-4 23 -8 33h-565q-18 0 -32 -18.5t-22 -42t-12 -46t-4 -32.5t-8 -10t-17.5 5t-15.5 9q-4 0 -10 -8q-6 -10 -14.5 -15.5t-22.5 -5.5 q-31 2 -88 6q-31 2 -82 2q-29 -2 -88 -4t-90 -4q-31 0 -31 10zM170 231q0 10 8 20.5t19 20.5q12 2 55 2q25 0 55 2q16 0 58 -4q53 -4 79 -4q37 0 57.5 7.5t20.5 25.5q8 -8 39 -20q33 -12 33 -21q0 -39 -45 -39q-45 4 -88 6q-12 0 -31 2h-35q-55 0 -104 -4q-25 -2 -45 -2 q-35 0 -45 -2q-31 0 -31 10zM379 424q8 -47 61 -57q-4 4 -4 16q0 8 4 30.5t12.5 47t21.5 42t30 17.5h618q-8 8 -14 21q-8 20 -31 20h-631q-16 0 -29.5 -17.5t-21.5 -43t-12 -47t-4 -29.5zM479 674q0 -16 23 -17h41q8 27 28.5 64t53.5 92l12 21q14 27 27 49q41 80 61 112 q18 37 43 78q12 20 22.5 45t10.5 45q0 33 -35 33q-12 0 -30.5 -25.5t-39 -64.5t-38 -77t-27.5 -60l-6 -13q-23 -41 -70 -125q-20 -35 -31 -53q-45 -74 -45 -104zM635 657h387q23 0 22 17q0 25 -24.5 71t-65.5 109q-8 14 -10 16q-39 103 -86 191q-8 -16 -24 -45q-4 -8 -5 -8 q-10 -18 -30 -60q-16 -31 -43 -78t-45 -84q-20 -37 -31 -51l-6 -10q-6 -10 -17 -31q-20 -37 -22 -37zM1223 248q0 8 8 22q35 0 112 -4q88 -4 132 -4q55 0 87.5 6t32.5 21v4q-2 2 -2 4l-2 4q-2 4 -6 10q-6 12 -10 17l6 -6q33 -33 51 -33q16 0 31 -37l2 -4q0 -27 -29 -27 q-45 4 -98 6q-14 0 -33 2h-35q-51 0 -96 -4q-14 0 -45 -2q-29 0 -43 -2q-31 0 -47 5t-16 22z" />
<glyph unicode="b" horiz-adv-x="1671" d="M41 1456q0 18 29 19q18 -2 41 -2q33 -2 41 -3q53 -4 81 -4h113q47 2 135 7l33 2q51 2 145 2q168 0 305.5 -16.5t225.5 -53.5q72 -27 106.5 -70t34.5 -88q0 -113 -239 -178q-14 -4 -19 -10q0 -20 23.5 -25.5t52.5 -5.5q240 66 240 178q0 16 -13.5 48t-29.5 49 q55 -27 84.5 -66t29.5 -76q0 -104 -209 -170q86 -37 135 -71q115 -86 115 -226q0 -104 -104 -221q-100 -113 -434 -162q-59 -8 -207 -8q-29 0 -64 2h-55h-135q-51 0 -62 2h-16h-4q-25 0 -64 2h-26h-86q-8 0 -43 -2q-68 -4 -97 -4q-61 0 -61 12q4 35 18 35q18 0 37 35 q23 41 41 137q10 51 19.5 141.5t9.5 204.5v142q0 82 -3 145.5t-13.5 121.5t-31 96t-52.5 42q-23 2 -27 39zM170 231q4 35 20 35q6 0 9 2q41 2 100 2h86q18 -2 88 -2h6h6h4h9q8 -2 59 -2h135h58q35 -2 61 -2q145 0 209 8q334 49 432 162q106 121 107 221q0 131 -99 213 q78 -39 124 -104.5t46 -153.5q0 -53 -27.5 -109.5t-76.5 -111.5q-100 -113 -434 -162q-63 -8 -207 -8q-86 0 -121 2h-133q-51 0 -62 2h-18h-4q-29 0 -62 2h-26h-86h-4q-96 -8 -129 -8t-51.5 3t-18.5 11zM367 1155q0 -25 4 -43q0 -18 55 -22q-2 4 -2 14q10 117 22 160v2 q10 55 20.5 78.5t41.5 23.5q236 -4 362.5 -15.5t169.5 -33.5q-25 31 -79 49q-104 35 -510 41q-31 0 -41.5 -21.5t-18.5 -74.5l-2 -10q-6 -16 -14 -61.5t-8 -86.5zM381 879q0 -154 2 -189q0 -129 26.5 -219t79.5 -90q-20 20 -33.5 103t-17.5 165q-2 41 -2 191q0 20 2 47v20 v66q0 8 15.5 11t44.5 3q27 0 67 -2q31 -2 37 -2h121q164 -16 254 -35.5t168 -60.5l-2 2l-8 6q-43 29 -78 47.5t-88 32.5q-70 20 -145.5 34.5t-155.5 14.5h-119q-6 0 -37 2q-41 2 -68 2q-29 0 -45 -3t-16 -11v-66q-2 -14 -2 -69zM500 1092q137 0 245 10q68 6 120.5 14 t98.5 24.5t73.5 44t27.5 68.5q0 23 -6 37h2q-2 0 -21 2q-90 12 -157 21q-57 6 -109.5 10t-95.5 4q-61 0 -98 -8t-43 -27q-8 -16 -21 -75q-4 -23 -12 -87zM508 793q0 -156 2 -191q0 -63 6 -104q16 -86 25 -117q186 4 323 24.5t217 71.5q63 39 93 103q12 31 20 70.5t8 80.5 q0 84 -37 131q-37 16 -67 25q-4 2 -23 6q-80 20 -143.5 31.5t-134.5 11.5h-121q-6 0 -37 2q-41 2 -68 2q-29 0 -45 -3t-16 -11v-64q-2 -14 -2 -69z" />
<glyph unicode="c" horiz-adv-x="1720" d="M41 874q0 127 68 244q72 119 186 205q109 84 252 135q135 51 278 51q61 0 136 -4t143 -10q39 -4 99.5 -15.5t120.5 -32t102 -48t47 -64.5q29 -88 67 -147q0 -4 2 -12q2 -10 2 -19q0 -23 -26 -22h-17q-20 0 -63 55q-25 29 -39 43q-168 92 -369 92h-41q-213 0 -375 -162 q-163 -163 -163 -384q0 -208 174 -355q150 -82 311 -82q131 0 283 84q156 88 231 190l4 25q10 37 51 37h2q12 0 26.5 -9.5t14.5 -23.5q0 -18 -11 -56t-30 -91q-16 -47 -23 -71t-7 -36q0 -20 -50 -39q-102 -53 -288 -82q-184 -30 -306 -30h-8q-326 0 -555 186t-229 448z M319 866q0 -223 203 -377q6 -6 23 -14q14 -8 20 -14q-186 150 -186 364q0 223 164 387q160 160 372 160q10 0 23 2h18q152 0 295 -59q12 -6 33 -12q39 -16 61.5 -27.5t32.5 -24.5q-18 25 -59 47.5t-102 49.5q-8 4 -23 10q-139 57 -295 57h-18q-12 -2 -23 -2 q-211 0 -375 -160q-164 -164 -164 -387zM432 311q193 -112 448 -112h5q100 0 311 30q53 8 111.5 21.5t110.5 30t85 34t33 35.5t13.5 72.5t29.5 103.5q10 35 21.5 48.5t35.5 13.5h2q10 0 25.5 -9.5t15.5 -21.5q0 -6 -2 -6q-16 -53 -22 -71.5t-18.5 -59.5t-19.5 -74t-7 -45 q0 -20 -51 -39q-104 -53 -287 -82q-184 -28 -308 -28h-8h-4q-302 0 -520 159zM1526 1323q27 -8 52.5 -37t47 -67.5t33.5 -76.5t12 -63q0 -32 -19 -32h-1h-19q-16 0 -33 22q-12 17 -20 25q18 0 23 16q0 8 -3 20q-2 8 -2 15q-2 4 -12 26.5t-23.5 57.5t-24.5 63.5t-11 30.5z " />
<glyph unicode="d" horiz-adv-x="1640" d="M41 330q0 31 14 30q10 0 31 31q8 16 19.5 52t19.5 83q12 66 22 328v16q0 68 3 97q2 31 2 82q0 70 -9 180q-8 80 -20 128t-37 54q-16 2 -20 39q0 16 28 16q12 0 23 -2q49 -2 71 -2h93q66 0 75 2q10 2 80 2h10q227 -4 377 -20q184 -23 324 -78q133 -51 229 -166 q45 -55 71 -125.5t26 -148.5q0 -227 -291 -406q-289 -176 -711 -205q-2 -2 -22 -2q-14 0 -52 -2q-41 -4 -49 -4h-20h-27h-68h-49h-47q-45 0 -70.5 4t-25.5 17zM168 242q0 8 2 19t4 11h37q14 -2 80 -2h92h20q33 0 74 2t49 7q410 20 711 204q293 178 293 404q0 80 -25.5 150.5 t-72.5 125.5q-41 45 -82 80q90 -53 153 -127q45 -57 70.5 -127.5t25.5 -148.5q0 -225 -290 -404q-293 -180 -711 -205q-8 -4 -43 -4q-20 -2 -31 -2q-20 -2 -51 -2h-18h-95h-51l-49 -2q-43 0 -67.5 5t-24.5 16zM367 719q0 -76 12 -131v-6q2 -94 13 -132t59 -38 q-12 49 -19 135q-6 41 -6 106q-2 35 -2 187q0 143 7 256.5t30 183.5l2 10q4 31 13 42t46 11q283 -6 500 -92q8 -4 27 -12q12 -6 26 -12q-45 39 -108 63q-27 10 -85.5 26.5t-128 33t-140 28t-119.5 11.5q-72 0 -80 -27q-8 -23 -11 -41q-12 -43 -18 -112.5t-10 -166.5 q-2 -31 -2 -43q-4 -84 -4 -120v-99q-2 -45 -2 -61zM496 793q0 -152 2 -187q0 -49 4 -99t10 -89q268 31 465 164q219 147 219 342q0 172 -96 278q-4 0 -6 2q-27 10 -85.5 25.5t-132 32t-143 27.5t-117.5 11q-72 0 -75 -26q-18 -49 -26.5 -126t-12.5 -194q-2 -29 -2 -41 q-4 -72 -4 -120z" />
<glyph unicode="e" horiz-adv-x="1591" d="M41 330q0 31 16 30q27 0 45.5 51.5t30.5 118.5q20 111 27 347q0 33 4 86q2 27 2 73q0 109 -12 197q-14 88 -34 132t-54 48q-20 0 -25 37q0 14 57 14q27 0 82 -4q49 -2 64 -2q49 0 127 2h92q145 0 217 2q219 6 438 6q2 2 17 2h14q16 0 47 -7t45 -15q18 -16 49 -41 t57.5 -48.5t48 -45t21.5 -27.5q0 -12 -31 -12h-12q-29 0 -52.5 8t-55.5 25q-39 20 -71 32.5t-77 18.5q-104 16 -301 26l-41 2q-41 2 -110 3q-39 2 -93 2q-55 0 -83.5 -4.5t-47 -17.5t-30 -41t-19.5 -81l-2 -6q-6 -35 -10 -121q0 -20 35 -20h18v8q2 49 5 88t15.5 76t38 59.5 t66.5 22.5q16 -2 68 -2q68 0 156.5 -3t162.5 -8q4 0 41 -4q127 -10 217 -25.5t135 -47.5q41 -29 91 -29h12q31 0 31 12q0 8 -17.5 23.5t-56.5 48.5q-25 18 -39 30.5t-14 16.5h4q4 0 16 -4q29 -23 58.5 -47.5t57 -48t44 -41t16.5 -23.5t-10 -10t-21 -4h-12q-49 0 -90 31 q-57 37 -166 53q-76 12 -227 24q-61 4 -115 7q-39 2 -110 2q-25 0 -76 2q-37 2 -58 2q-61 0 -93 -21.5t-42 -87.5q-4 -31 -14 -100h256q141 0 235 16q23 4 52.5 19.5t72.5 40.5q33 20 51.5 30.5t28.5 10.5h2q37 0 37 -21q0 -20 -8 -63t-8 -64q0 -59 3 -91t13 -42 q0 -27 -43 -27h-2h-2q-37 0 -133 13q-106 14 -148 14h-393q-25 0 -24 -21q-2 -10 -2 -55q-2 -14 -2 -63v-277q0 -76 12 -101.5t65 -25.5q76 0 156 6q82 4 170 13q215 20 340 75q16 6 51 23q45 20 66.5 28.5t34.5 8.5q33 0 36 -29q0 -25 -16 -40t-47 -34q-20 -10 -29 -18 q-35 -33 -69 -74q-8 -4 -25 -18q-29 -25 -49 -25q-104 2 -254 2q-45 0 -117 2h-82q-39 0 -98 2h-68h-151h-178q-10 0 -43 -2q-57 -2 -82 -2q-35 0 -55.5 4t-20.5 15zM166 244q0 24 8 30q45 2 123 2h176h154h67q59 -2 99 -2h81q72 -2 117 -2q6 0 37 -2q88 -4 133 -4 q47 0 79 4t42 15q14 16 37 28q27 33 63.5 68t61.5 47l2 2l8 6l14 8l7 7q27 10 38 10q35 0 37 -27q0 -25 -20.5 -51.5t-52 -51t-60 -42t-69.5 -41.5q-37 -18 -37 -23h2q-66 0 -156 2h-96q-43 0 -113 2h-86q-39 0 -98 2h-68h-153h-176q-12 0 -50 -2q-51 -4 -81 -4 q-31 0 -50.5 4t-19.5 15zM369 604q0 -84 20.5 -136.5t71.5 -66.5q-2 2 -2 5q0 2 -2 4t-2 4l-4 4q-27 51 -27 147v277v35q-2 25 -2 36q0 33 6 51.5t25 18.5h393q31 -2 78 -2q72 0 124 -3t99 -20q-41 49 -139 56q-12 2 -56 2q-27 0 -57 2q-61 4 -104 4h-394q-25 0 -24 -23 q-2 -10 -2 -55q-2 -14 -2 -63v-277zM1272 872q27 2 26 25q0 23 -8 64q-8 45 -8 67q0 47 8 76t39 29h2q37 0 37 -21v-4q-2 -2 -2 -6q-14 -51 -14 -119q0 -8 3 -31.5t5 -44t5 -39.5l3 -18q0 -25 -43 -25h-2h-2q-20 0 -37 29z" />
<glyph unicode="f" horiz-adv-x="1495" d="M41 1450q0 14 57 14q27 0 82 -4q49 -2 64 -2h395q45 0 98 2h90h207q2 0 8 2h7h16q41 0 69.5 -15t65.5 -46q2 -2 19 -15q47 -37 80.5 -66.5t33.5 -37.5q0 -18 -30 -18h-15q-39 0 -114 36q-76 37 -127 48q-152 33 -394 41q-35 2 -84 2q-94 0 -126.5 -17.5t-43.5 -87.5 q-16 -84 -18 -174q0 -23 35 -22h16q2 25 8 71q8 43 9 62l4 24q6 51 27.5 80t78.5 29q16 -2 64 -2q59 0 131.5 -4t148.5 -11q102 -10 198.5 -29.5t151.5 -52.5q40 -30 85 -30h3h15q10 0 20 4t10 12q0 10 -20 29.5t-46 40t-45.5 35t-27.5 20.5q14 -2 47 -23.5t71 -51 t63.5 -56.5t25.5 -39q0 -6 -10 -11t-21 -5h-14q-39 0 -115 37t-127 47q-152 33 -393 41q-37 2 -86 2q-94 0 -127 -17.5t-43 -87.5q-2 -12 -6 -49q-6 -41 -8 -65l160 -5q150 0 237.5 19.5t163.5 71.5q4 4 10 12q14 18 33 18h2h2q37 0 37 -20v-4q-2 -2 -2 -6q-16 -70 -17 -119 q0 -8 3.5 -26.5t7.5 -47.5q8 -55 8 -63q0 -23 -43 -23h-2q-43 0 -146 14q-100 14 -143 15l-297 2q-25 0 -24 -19v-53q-2 -14 -2 -68q0 -266 18 -381.5t82 -132.5q14 -2 14 -34q0 -18 -31 -19q-14 0 -30 2l-13 2q-20 0 -75 6q-55 4 -70 5q-29 -2 -88 -5q-59 -2 -88 -4 q-29 0 -29 19q0 23 6 28q25 2 66 5q47 0 65 2q29 0 95 -7q66 -8 94 -8q31 0 31 19q0 23 -27 47q-20 18 -33.5 36.5t-23.5 51.5q-19 58 -23 201q0 14 -2 55q-2 39 -2 43q-4 29 -4 115q0 20 2 45v20v55q0 18 25 19l297 -2q139 0 203.5 -5t101.5 -20q-41 51 -140 53 q-78 4 -112 7q-41 2 -107 2l-297 4q-25 0 -24 -21v-53q-2 -14 -2 -68q0 -66 6 -147q4 -43 4 -66q2 -131 19.5 -209.5t70.5 -91.5q14 -2 14 -34q0 -18 -30 -19q-14 0 -31 2l-12 2q-18 0 -74 6q-55 4 -72 4q-27 -2 -88 -4t-88 -4q-29 0 -29 21q0 31 17 30q18 0 31.5 40 t25.5 112q18 117 25 313v27q0 23 2 47.5t4 50.5v66q0 68 -4 134.5t-15.5 125.5t-31 96t-49.5 41q-20 0 -25 37zM1176 860q25 4 24 23q0 31 -8 80q-8 39 -8 55q0 72 16 94l2 2q10 10 27 10h2h2q35 0 35 -22q0 -25 -8 -72q-8 -39 -9 -57q0 -16 4 -66q2 -27 5.5 -45t7.5 -18v-6 q0 -23 -43 -23h-2q-20 0 -33 23q-6 14 -14 22z" />
<glyph unicode="g" horiz-adv-x="1757" d="M41 891q0 264 254 420q250 153 526 153h4q141 0 279 -12q41 -4 92 -13t105.5 -25.5t95.5 -42t55 -60.5q2 -6 23 -35q18 -29 28 -46.5t10 -29.5q0 -25 -22 -24h-21q-4 0 -6 2l11 -9l4 -4q-10 4 -24.5 12.5t-16.5 12.5q-113 55 -181 74q-115 28 -237 28h-8h-29 q-16 -2 -31 -2q-215 0 -364 -137q-139 -127 -139 -324q0 -8 2 -20v-16q0 -180 124 -293q176 -98 361 -99q29 2 80 9q25 4 47 6q76 12 131 31.5t55 56.5q0 55 2 80q0 12 2 41q4 39 4 61q0 158 -18 236.5t-74 103.5q-4 2 -10 11.5t-6 17.5q0 20 33 20q37 -4 94 -4h178 q18 2 47 2h17q23 2 24 2q18 0 30.5 -3t12.5 -11q-6 -39 -26 -39q-25 0 -42.5 -24.5t-26.5 -65.5t-13 -84t-7 -96q-2 -47 -2 -236q2 -4 11 -16q12 -18 12 -21v-4q0 -16 -45 -37q-102 -49 -297 -88t-324 -39q-332 0 -555 168q-229 168 -229 412zM317 920q0 -8 2 -21v-18 q0 -221 197 -349q2 0 4 -2q-143 119 -143 310v18q-2 12 -2 21q0 195 139 321q152 139 365 139q14 0 30 2h29q129 0 246 -30q31 -8 60.5 -17.5t67.5 -23t68.5 -29.5t38.5 -33q-160 111 -293 146q-99 28 -236 28h-9h-29q-16 -2 -31 -2q-213 0 -364 -139q-139 -127 -140 -321z M401 389q205 -119 482 -119q127 0 321 39q55 10 112.5 24.5t111 32t86 35t32.5 33.5v4q-12 18 -20 37q0 186 2 234q6 123 24.5 196.5t63.5 73.5q6 0 22 2q33 6 48 6q31 0 30 -16q-6 -39 -26 -39q-25 0 -42.5 -24.5t-26.5 -65.5t-13 -84t-6 -96q-2 -47 -3 -234q2 -2 7 -12 q14 -23 14 -27v-4q0 -16 -45 -37q-100 -47 -297 -88q-186 -39 -322 -39q-326 0 -555 168zM1497 1292q0 2 2 2q8 0 25 -8q14 -8 34.5 -30.5t41 -50t33 -52.5t12.5 -41v-4q-4 -4 -7 -10q-2 -12 -18 -13h-18q-31 0 -52 33l-4 4q-2 0 -4 2l-14 11h18q25 0 25 24q0 25 -15.5 50.5 t-39.5 54.5q-18 25 -19 28z" />
<glyph unicode="h" horiz-adv-x="1601" d="M41 330q0 33 12 32q10 0 29 33q14 41 27 133q16 133 24 342q0 66 2 93q2 31 2 77q0 59 -2 116.5t-10 116t-23.5 96.5t-40.5 42q-16 2 -20 39q0 14 57 14q27 0 82 -4q49 -2 64 -2q16 0 67 2q53 4 80 4q57 0 58 -14q0 -18 -6.5 -27.5t-20.5 -21.5q-18 -14 -28.5 -29.5 t-16.5 -44.5q0 -2 -2 -10q-6 -39 -11.5 -72t-5.5 -63q0 -33 7.5 -51.5t23.5 -18.5h25q2 127 16 193.5t62 66.5q8 8 38 10h13q31 0 30 -18q0 -16 -6 -25.5t-20 -21.5q-18 -14 -29.5 -29.5t-17.5 -44.5q-12 -41 -15 -131h88q35 2 95 2h258q27 -2 84 -2h84q27 0 26 35 q0 147 -12 202.5t-64 63.5q-16 4 -18 35q0 8 18.5 12t49.5 4q25 0 55.5 -2t56.5 -4q25 -2 27 -2q8 0 37 2q72 6 102 6q29 0 46.5 -4t17.5 -12q0 -39 -15 -39q-25 0 -38 -40t-25 -128q-20 -123 -23 -364v-60q-2 -16 -2 -53q0 -72 4 -141.5t13.5 -128t27 -94t41.5 -35.5 q16 0 17 -35q0 -20 -29 -21q-49 4 -92 6q-31 2 -82 2q-8 0 -49 -2q-59 -4 -90 -4t-49.5 4t-18.5 15q0 31 14 30q16 0 31.5 46.5t26.5 121.5q14 106 20 342q0 16 2 35v33q-31 -2 -71 -2h-353q-33 0 -90 4q-41 2 -53 2q-43 0 -61.5 -17.5t-18.5 -68.5v-61v-66q-2 -16 -2 -57 q0 -72 3 -139.5t12.5 -125t26.5 -92t44 -34.5q16 0 16 -37q0 -18 -30 -19q-45 4 -88 6q-29 2 -86 2q-12 0 -52 -2q-61 -4 -88 -4q-29 0 -46 4.5t-17 12.5q0 16 4 28q12 2 35 2q23 2 35 2q23 2 59 3q12 0 47 -3q66 -4 90 -4q33 0 50.5 4.5t17.5 12.5q0 37 -17 37 q-20 0 -38 34q-25 41 -35 138q-12 94 -13 219q0 41 2 59v64v61v19v18q0 23 7.5 35t27.5 12q31 -2 94 -2h41q33 -2 54 -2h352q25 0 83 1t58 3v31q-4 12 -65 12q-33 0 -97 -4q-29 -2 -34 -2h-353q-37 0 -92 4q-39 2 -53 2q-43 0 -60.5 -17.5t-17.5 -70.5v-61v-64 q-2 -16 -2 -57q0 -78 3 -141.5t12.5 -122t27 -94t43.5 -35.5q16 0 17 -35q0 -20 -29 -21q-31 2 -88 6q-33 2 -88 2q-10 0 -41 -2q-61 -4 -92 -4q-33 0 -51.5 4t-18.5 15zM1151 244q0 22 8 30q45 0 66 2q23 2 61 3q6 0 45 -3q66 -4 92 -4q33 0 50.5 4.5t17.5 12.5 q0 37 -16 37q-29 0 -45.5 44t-28.5 126q-12 78 -12 227q0 39 2 55q0 139 6 254t14 170q12 82 26.5 125t39.5 43q10 0 32 6q23 6 31 6q20 0 21 -20q0 -37 -15 -37q-25 0 -39 -42t-26 -126q-16 -100 -21 -364v-60q-2 -18 -2 -55q0 -78 3 -146.5t12.5 -126t27 -91t43.5 -33.5 q16 0 17 -37q0 -18 -29 -19q-43 4 -92 6q-31 2 -84 2q-12 0 -58 -2q-57 -4 -84 -4q-63 0 -63 17z" />
<glyph unicode="i" horiz-adv-x="557" d="M41 330q0 31 12 30q20 0 31.5 39t21.5 111l3 16q16 133 24 344q0 66 2 93q2 31 2 77q0 59 -2 116.5t-10 116t-23.5 96.5t-40.5 42q-6 2 -13 13.5t-7 23.5q0 18 27 18q72 -8 176 -8q16 0 67 2q53 4 80 4q57 0 58 -14q0 -41 -13 -41q-16 0 -33 -29q-16 -27 -34 -139 q-16 -115 -21 -362v-64q-2 -18 -2 -59q0 -78 2 -140.5t10.5 -117t25.5 -91t46 -42.5q-14 14 -25.5 54t-15.5 93q-12 98 -12 221q0 43 2 60v65v6q0 109 3 194t11 160.5t26.5 123t47.5 47.5q4 0 10 22l2 10h6q31 0 31 -18q0 -39 -12 -39q-16 0 -33 -29q-16 -31 -29.5 -114.5 t-17.5 -165.5q-4 -70 -8 -221v-64q-2 -18 -2 -61q0 -174 10 -269.5t43 -95.5h-4q-14 0 -14 -14q0 -20 -29 -21q-31 2 -88 6q-33 2 -88 2q-29 -2 -88 -4t-88 -4q-27 0 -27 21zM109 283v6q27 2 84 4q55 2 81 4q12 0 48 -2q66 -4 90 -4q33 0 50 4t17 12q0 12 -4 25 q10 -12 25 -13q16 0 16 -36q0 -8 -20.5 -12.5t-55.5 -4.5q-33 0 -102 4q-23 2 -27 2q-27 -2 -88 -4q-70 -2 -88 -4q-27 0 -26 19z" />
<glyph unicode="j" horiz-adv-x="915" d="M41 70q0 23 29.5 38t93.5 37q59 23 80 33q72 37 135 111q4 12 14 30q18 31 29 66q12 45 24 164q14 123 21 321q0 61 2 84v74q0 70 -2 129.5t-10 114.5t-24.5 95t-43.5 44q-8 2 -17.5 13.5t-9.5 21.5q0 20 41 20q72 -8 175 -8q16 0 59 2q59 4 86 4q59 0 59 -14 q0 -41 -20 -41q-25 0 -43 -29q-25 -35 -37 -139q-8 -41 -8 -135q0 -74 8 -227q6 -121 8 -185q2 -18 2 -57q4 -98 10.5 -150.5t22.5 -68.5q10 -14 18 -74q0 -33 -40.5 -59.5t-110.5 -59.5q-49 -20 -64 -30q-53 -35 -112.5 -62t-153.5 -61l-22 -9q-29 -10 -69 -20t-73 -10 q-27 0 -42 9t-15 28zM131 2h4q78 10 144 33q184 63 290 131q80 51 174 88q14 0 27.5 17.5t13.5 43.5q-6 39 -20 84q-10 35 -16.5 65t-10.5 83q-4 51 -14 284v19q0 20 -2 49q-4 53 -4 74q-2 31 -2 102q0 57 4 110.5t14 97.5t27.5 70.5t42.5 26.5q6 0 18 11q16 14 25 14 q29 0 28 -19q0 -39 -20 -38q-35 0 -54.5 -45.5t-25.5 -122.5q-8 -41 -8 -138q0 -51 2 -131t7 -171t8 -149.5t5 -76.5q2 -29 3 -35q8 -106 26 -125q8 -12 19 -71q0 -35 -46.5 -64t-119.5 -63q-41 -16 -49 -23q-43 -31 -101.5 -58.5t-118.5 -47.5q-49 -16 -71 -25l-15 -4 q-37 -12 -65.5 -19.5t-54.5 -7.5q-27 0 -45 9q-14 12 -19 22z" />
<glyph unicode="k" horiz-adv-x="1572" d="M41 330q0 18 16 30q14 14 27 31q18 49 31 135q12 70 19 155t7 189v162q0 63 -2 124t-10 117t-24.5 95t-41.5 43q-18 2 -22 39q0 14 57 14q27 0 82 -4q49 -2 64 -2q12 0 57 4q74 6 111 6q55 0 55 -14q-2 -35 -29 -35q-35 0 -52 -42t-30 -128q-12 -90 -12 -194q0 -61 1 -94 t3 -82v-19q0 -16 12 -29h2q23 0 31 16.5t8 45.5q0 8 -2 25v20v76q0 150 15.5 246t60.5 118h10q41 4 62 4q45 0 45 -12q-6 -35 -31 -35q-35 0 -52 -43t-30 -127q-12 -90 -12 -196v-68q2 2 65 47q102 78 175 133.5t131.5 107.5t92.5 97t34 80q0 20 -13.5 28.5t-38.5 14.5 q-33 6 -32 18q0 20 19.5 29.5t49.5 9.5q6 0 27 -2q12 -2 16 -2q16 -2 64 -2h65q16 -2 52 -2q31 0 43 2h49q6 0 32 2q35 2 56 2q25 0 39 -4t14 -16q0 -14 -16.5 -23.5t-38.5 -17.5l-6 -2l-7 2q-29 0 -159 -86q-12 -10 -29 -21l-4 -2q-31 -20 -93.5 -60t-127 -87t-113.5 -91 t-49 -67q0 -18 31 -51q14 -16 20 -25q10 -10 14.5 -16l10.5 -14q2 -2 2 -4q90 -111 174 -207q63 -74 121 -135l26 -27q55 -55 86 -82t49 -33q-37 31 -106 103q-51 53 -123 135q-8 10 -22 24q-106 121 -162 201q-33 33 -43 49l-11 17q-16 20 -16 26q0 20 37 47 q244 186 352 260l2 3q156 104 189 104l6 -2q6 0 29 6q49 12 69 12q33 0 33 -22q0 -6 -6 -10q-45 -33 -58 -33l-6 2q-4 0 -37 -14l-6 -3q-53 -25 -145 -88l-4 -2q-31 -20 -93.5 -60t-127 -87t-113.5 -91t-49 -67q0 -16 27.5 -51t52.5 -59q72 -88 172 -207q90 -104 121 -135 q63 -63 73 -70q8 0 28.5 -16.5t20.5 -32.5q0 -23 -43 -23q-10 -2 -53 -2q-16 2 -80 2h-127q-27 0 -84 -4q-35 -2 -51 -2q-47 0 -65 19q0 23 10 33t29 18q16 6 24 13t10 24q0 39 -67 120q-53 72 -203 230q-20 -16 -68 -47q-31 -20 -45 -31q-6 -4 -26 -18q-37 -25 -49.5 -41.5 t-12.5 -51.5q0 -147 16.5 -224t71.5 -77q18 0 19 -22q0 -25 -45 -25q-31 2 -88 6q-33 2 -86 2q-8 0 -41 -2q-61 -4 -95 -4q-31 0 -49 4.5t-18 12.5q0 23 8 30l37 2q66 2 86 3q16 0 63 -5q70 -6 101 -6q57 0 57 17q-2 33 -16 32q-6 0 -21.5 5.5t-15.5 11.5v2q0 2 -2 2 q0 -18 -7 -23.5t-36 -5.5q-31 2 -88 6q-33 2 -88 2q-10 0 -41 -2q-61 -4 -92 -4q-33 0 -51.5 4t-18.5 15zM358 657q0 -150 17.5 -225.5t70.5 -75.5h3q-4 6 -9 11l-6 12q-2 10 -6 31q-14 49 -14 208q0 37 6 47.5t35 28.5q0 2 16 13q43 25 91 67.5t48 63.5q0 18 -32 18 q-18 0 -54.5 -25.5t-68.5 -56.5l-9 -6q-14 -12 -38 -29q-29 -20 -39.5 -34.5t-10.5 -47.5zM999 248q1 10 11 22q23 2 125 2h127q25 0 59 -2h37h18q10 2 17 2q45 0 45 23q0 4 -2 8q16 -6 20 -6q10 0 29.5 -15.5t19.5 -33.5q0 -20 -43 -21q-10 -2 -53 -2q-16 2 -80 2h-127 q-25 0 -63 -2q-49 -2 -64 -2q-35 0 -55.5 5t-20.5 20z" />
<glyph unicode="l" horiz-adv-x="1499" d="M41 330q0 31 18 30q14 0 33 31q16 29 37 135q16 92 27 344q0 66 2 93q2 31 2 77q0 78 -2 109l-2 10q-4 111 -21.5 177.5t-48.5 72.5q-16 0 -20 39q-1 14 28 14q33 -2 43 -2q25 -2 29 -2h117q18 0 73 4q63 4 86 4q59 0 60 -16q0 -41 -19 -41q-23 0 -41 -29 q-23 -35 -41 -139q-20 -123 -24 -362v-62q-2 -16 -2 -53q0 -82 2 -140.5t10 -109.5t25.5 -84t48.5 -37v6l-2 4q-14 35 -25 148q-6 35 -6 76v98q0 37 2 55v62q0 139 8 219q2 16 4 39q6 61 12.5 103t16.5 81t26.5 63.5t39.5 24.5q4 0 16 6q10 6 14 6q16 0 35 -5t19 -13 q0 -39 -17 -39q-23 0 -41 -29q-23 -39 -41 -139q-20 -119 -24 -362v-62q-2 -16 -2 -55q0 -102 4 -168t16 -121h182q55 0 129 11.5t147 31t131 44t81 46.5q41 47 104 47h15q20 0 26 -9t6 -23q0 -16 -23.5 -47t-53 -58.5t-54 -50.5t-35.5 -31q-33 -43 -84 -43h-190 q-45 0 -98 2h-88q-43 0 -111 2h-80q-129 0 -192 2q-27 2 -92 2q-25 -2 -80 -4t-80 -4q-35 0 -35 21zM162 246q0 20 8 28q66 6 137 7h39q29 -2 33 -2q66 -2 194 -3h80q68 -2 109 -2h88q53 -2 100 -2h191q29 0 63.5 20.5t68.5 51.5t60.5 59.5t52.5 59.5q23 27 25 26h14 q18 0 25.5 -9t7.5 -23q0 -25 -31.5 -57.5t-78.5 -69.5q-23 -18 -25 -21q-20 -35 -49 -58.5t-66 -23.5h-190q-45 0 -98 2h-91q-41 0 -108 2h-80q-129 0 -195 2q-25 2 -90 3q-25 -2 -80 -5q-55 -2 -81 -4q-33 0 -33 19z" />
<glyph unicode="m" horiz-adv-x="2048" d="M41 1446q0 16 29 16q25 -2 67 -6q45 -4 74 -4h55q4 0 31 2q51 2 88 2h80q23 0 54.5 -28.5t68.5 -73.5t67.5 -89t69.5 -100q31 -45 41 -59l41 -55q53 -74 82 -111q8 -10 26 -39q41 -57 69 -94t40 -37q6 0 12 6l2 2q-23 29 -73 99q-27 35 -33 43q-45 57 -105 139 q-111 154 -233 301q31 0 41 -5t14 -20q117 -133 258 -327q35 -49 92 -121q51 -70 60 -80q27 35 57 78q31 41 58 76q29 41 79 116q16 23 29 41q2 2 23 35q35 51 69.5 101.5t72.5 97.5t72.5 77.5t57.5 30.5t35 -2q35 -6 114 -6q14 0 52 2q31 2 47 2q39 0 39 -14 q0 -12 -5.5 -25.5t-13.5 -13.5q-2 0 -4 2h-2l-4 2q-27 0 -45 -29q-33 -25 -53 -135q-10 -55 -17 -133q-6 -86 -6 -231q0 -119 2 -199t9.5 -153.5t25.5 -119t47 -45.5q16 0 17 -32q0 -20 -31 -21q-49 4 -92 6q-31 2 -80 2q-29 -2 -88 -4t-88 -4q-27 0 -27 21q0 27 8 26l6 -2 q25 0 40.5 36t23.5 93.5t11 120t3 137.5q0 39 -2 88v41v50l-24 -35q-57 -86 -86 -127q-23 -35 -84 -123l-37 -55q-2 -4 -21.5 -36t-46 -69t-47 -63.5t-27.5 -26.5q-10 0 -24 14h2q-10 8 -23.5 25.5t-13.5 30.5q55 80 162 237l80 119q31 45 73 107l31 45l2 2 q51 84 68.5 117.5t32 66.5t14.5 51t-17 19h-6q-8 0 -23.5 -16.5t-34.5 -45.5t-32.5 -50.5t-34.5 -51.5q-10 -18 -14 -25q-14 -20 -57 -82q-43 -59 -66 -92q-78 -119 -119 -178q-6 -8 -26 -43q-45 -68 -76 -111t-41 -43t-25 15q-8 16 -61 86q-31 39 -86 116q-31 43 -47 66 q-14 18 -55 72q-86 109 -125 168q-4 -53 -4 -109v-113v-57q-2 -14 -2 -51q0 -82 5 -153.5t16 -129t30.5 -92.5t48.5 -35q18 -2 18 -39q0 -18 -28 -18q-20 2 -43 4q-10 2 -13 2h-155q-6 0 -25 -2q-37 -2 -57 -2q-27 0 -42.5 4t-15.5 14q0 33 23 33q4 0 10 2t8 2h174 q6 -2 19.5 -4t30.5 -2q35 0 34 18q0 20 -6 28.5t-18 14.5q-27 10 -39 33q-20 25 -39 137q-16 102 -16 238q0 35 2 51v56v112q0 14 2 49q2 37 2 56q0 49 -11.5 77.5t-41.5 28.5q-6 -6 -9 -29q-6 -55 -6 -137v-112v-56q-2 -16 -2 -53q0 -78 4 -148.5t15.5 -129t31 -95.5 t50.5 -37q20 -2 20 -38q0 -18 -31 -19q-18 2 -41 4q-10 2 -12 2h-158q-6 0 -24 -2q-37 -2 -58 -2q-27 0 -42 4t-15 15q0 33 23 32q23 0 47 31q25 31 43 135q16 88 16 348q0 59 2 86v187q0 88 -11 113.5t-67 41.5q-31 12 -43 43q8 -2 45 -12q25 -4 37 -8q-18 25 -44.5 36 t-74.5 23q-49 10 -73.5 23.5t-32.5 42.5zM1550 231q0 29 11 29l6 -2q14 0 24 12q33 0 43 2h41q6 0 43 -2q66 -4 92 -4q33 0 50.5 4t17.5 13q0 35 -16 34q-27 0 -41.5 40t-26.5 124q-16 111 -16 353q0 244 17 363.5t81 158.5q16 0 49 2q29 4 45 4q37 0 37 -19q0 -37 -18 -36 h-4h-3l-6 2q-35 0 -57.5 -40t-38.5 -122q-14 -53 -16 -133q-6 -86 -6 -232q0 -244 16 -352q12 -86 26.5 -125t41.5 -39q16 0 16 -35q0 -18 -31 -18q-43 4 -92 6q-29 2 -80 2h-16q-14 -2 -109 -6q-35 -2 -51 -2q-29 0 -29 18z" />
<glyph unicode="n" horiz-adv-x="1751" d="M43 1462q0 14 37 15q4 0 16 -2q18 -2 27 -2q37 -4 96.5 -8.5t87.5 -4.5q12 0 25 2h22h35q10 -2 37 -2q2 0 41 -2q45 0 60.5 -4t19.5 -22q33 -41 63 -72q35 -39 80 -86q35 -39 113 -121q57 -59 74 -78q94 -104 194 -207l21 -22q16 -18 36 -37q29 -31 35 -39q10 -10 15 -16 q41 -49 73.5 -84t48.5 -35l3 2h2h-2q-16 18 -36 39.5t-32 36.5q-27 29 -46.5 51t-47.5 51l-13 12q-33 35 -108 119q-57 61 -84 88q-29 31 -94 99q-63 66 -94 98q-10 12 -19 18q-41 39 -64.5 65.5t-23.5 41.5q0 10 16 10q25 -20 78 -84q49 -57 86 -98q45 -49 142 -148l47 -49 q33 -35 90 -98q70 -74 102 -109q20 -23 58 -63q2 -2 12 -15q14 -16 24.5 -26t14.5 -10q6 0 6 10q2 39 2 90q0 94 1 126t3 60q2 29 2 74q0 63 -3 127t-14.5 123t-33 98t-55.5 39q-27 0 -27 37q0 14 59 14q23 0 82 -4q45 -2 64 -2q31 0 84 6q47 4 61 4q37 0 37 -16 q0 -39 -20 -39q-25 0 -43 -27q-25 -33 -43 -139q-20 -125 -25 -373v-122q-2 -25 -2 -78v-82q-2 -27 -2 -82v-80q0 -14 2 -47q2 -25 2 -33q0 -31 -15.5 -45t-58.5 -14q-20 0 -35 14q-12 10 -24 10l-4 -2v13q-6 6 -41 43l-23 24l-30 31q-84 84 -121 122t-68 72 q-45 47 -129 132l-55 57q-158 164 -226 240q-4 6 -16 18q-12 14 -16 18q-4 -37 -8 -127q0 -66 -5 -102q-2 -20 -2 -68q-6 -117 -6 -198q0 -37 2 -82t7.5 -88t12.5 -67.5t15 -24.5h-8q-6 0 -14 2q-6 2 -9 2q-4 0 -4 -8q0 -18 -28 -19q-14 2 -31 4q-25 2 -33 2h-164 q-6 0 -24 -2q-41 -2 -60 -2q-27 0 -42 4t-15 15q0 33 25 32q37 0 59 41t39 123q16 88 16 348v80v62q0 106 13 172q2 10 2 28q0 53 -17 90v3q-6 0 -10 2q-2 0 -6 2q-41 4 -72 15t-45 40q8 -2 23 -6q31 -6 49 -10.5t28 -4.5t11 5q0 6 -35 24q-23 8 -52.5 15.5t-70.5 15.5 q-29 10 -56.5 29.5t-27.5 31.5zM301 236q0 33 27 32h2h4h37h161q23 -4 64 -6q18 0 23.5 2t5.5 6t8 6.5t37 2.5q23 0 28 -46q0 -18 -26 -18q-10 0 -29 2q-25 4 -37 4h-164q-10 0 -36 -2q-35 -2 -56 -2q-49 0 -49 19zM434 678q0 -150 18.5 -227.5t79.5 -83.5q-23 43 -28 110 q-12 35 -12 158q0 55 3 132t7 136q4 39 6 121q2 80 4 119l6 18q-6 6 -16 21q-23 29 -31 28q-10 0 -16 -24q-2 -33 -6 -121q-2 -78 -7 -121q-2 -23 -2 -70q-6 -113 -6 -196zM1432 248h2q14 0 35.5 6t35.5 16q-6 43 -6 119v80q0 6 2 41v39v82q0 55 2 80q2 29 2 69v54 q2 39 2 84q2 102 5.5 168.5t13.5 130t32.5 105.5t59.5 50l8 2q10 2 19 2q33 4 36 6q29 0 29 -20q0 -37 -18 -37q-29 0 -43 -27q-23 -31 -43 -139q-25 -139 -27 -373v-55q0 -41 -2 -67q-2 -27 -2 -80v-242q0 -16 2 -49q2 -25 2 -33q0 -31 -15.5 -45t-58.5 -14q-18 0 -35 14 q-12 12 -22 12q-2 0 -4 -2v13z" />
<glyph unicode="o" horiz-adv-x="1789" d="M41 891q0 117 68 221q31 49 79 95t107 87q115 78 252 125q135 45 278 45q147 0 283 -45q139 -47 254 -125q109 -76 182 -182q74 -106 74 -221q0 -242 -234 -412q-225 -168 -559 -168q-332 0 -555 168q-229 168 -229 412zM319 881q0 -203 150 -351q35 -35 90 -69 q-88 57 -134 163.5t-46 215.5q0 209 147 352q150 145 361 145q168 0 301 -84q-152 125 -361 125q-211 0 -358 -143q-150 -145 -150 -354zM401 389h2q223 -168 555 -168q330 0 560 168q231 170 231 410q0 113 -72 221q-43 63 -105.5 120.5t-133.5 98.5q98 -74 164 -170 q72 -106 71 -221q0 -242 -229 -410t-559 -168q-279 0 -484 119zM492.5 598.5q39.5 -86.5 117.5 -166.5q104 -47 217 -47q213 0 357 131q72 66 112.5 159t40.5 206q0 225 -127 352q-113 55 -249 55q-209 0 -359 -145q-149 -144 -149 -349q0 -109 39.5 -195.5z" />
<glyph unicode="p" horiz-adv-x="1492" d="M41 330q0 31 16 30q23 0 35 38t25 126q12 94 16 346q0 66 2 93q2 31 2 77q0 59 -2 116.5t-10 116t-23.5 96.5t-40.5 42q-6 2 -13 13.5t-7 23.5q0 18 27 18q72 -8 176 -8q47 0 141 2q123 4 186 4q199 0 357 -34q168 -35 284 -119q119 -88 119 -256q0 -150 -223 -287 q-229 -139 -614 -207q-14 -2 -29 -4q-49 -6 -76 -15.5t-27 -33.5q0 -57 15.5 -84t42.5 -49q29 -23 29 -45q0 -20 -29 -21q-31 2 -88 6q-33 2 -88 2q-29 -2 -88 -4t-88 -4q-27 0 -27 21zM162 246q0 20 6 28q61 6 135 7q82 0 168 -9q31 0 31 19q0 20 -31 51q-27 29 -41 55.5 t-14 71.5q0 25 27.5 35t74.5 16q20 2 29 4q399 70 612 203q225 139 225 289q0 162 -110 250q88 -49 133 -121t45 -174q0 -147 -225 -287q-229 -137 -613 -205q-12 -2 -39 -6q-47 -8 -69.5 -16t-22.5 -31q0 -49 17.5 -82t40.5 -53l20 -15q8 -6 8 -30q0 -18 -30 -19 q-31 2 -88 6q-31 2 -86 3q-29 -2 -89 -5q-59 -2 -88 -4q-27 0 -26 19zM340 952q0 -59 10 -106q0 -47 1 -82t5 -65.5t13.5 -50t25.5 -19.5h17v8q-6 43 -9 88v84q-2 10 -2 33q0 43 2 92q0 74 2.5 134t7.5 114.5t17 96.5t31 60q10 10 59 11q309 -12 436 -82l-4 4 q-104 100 -485 114q-57 0 -71.5 -22.5t-22.5 -91.5q-4 -45 -8 -76q-2 -20 -7 -41q-8 -61 -13 -107.5t-5 -95.5zM461 870q0 -59 10 -106v-82v-18q0 -12 2 -19q211 59 385 162q205 119 205 237q0 111 -82 199q-18 6 -58 17.5t-93.5 23.5t-108.5 20.5t-100 8.5q-47 0 -76 -10.5 t-35 -34.5q-12 -68 -25 -154q-2 -20 -6 -41q-8 -61 -13 -107t-5 -96z" />
<glyph unicode="q" horiz-adv-x="1789" d="M41 891q0 117 68 221q31 49 79 95t107 87q115 78 252 125q135 45 278 45q147 0 283 -45q139 -47 254 -125q109 -76 182 -182q74 -106 74 -221q0 -242 -234 -412q-225 -168 -559 -168q-59 0 -73 2h-19q-37 0 -37 -14q0 -18 8.5 -23.5t34.5 -7.5q7 -2 21 -4q6 8 31 8h20 q14 -2 74 -2q330 0 559 168t229 410q0 115 -71 221q-66 96 -164 170q72 -41 134 -98.5t105 -120.5q72 -109 72 -221q0 -240 -231 -410q-84 -61 -180.5 -106t-178.5 -45h35q213 10 324 67q31 0 40 -13t9 -30q0 -8 2 -8q-29 -18 -94 -49q-43 -20 -66 -33q-31 -14 -52.5 -24.5 t-54 -26t-53 -23.5t-26.5 -8h-9q-6 -2 -10 -2q-23 0 -77 8t-130 21q-14 2 -26 4q-20 4 -21 4q-98 14 -168.5 22.5t-140.5 8.5q-59 0 -103 -8.5t-67 -28.5h-14q-8 -2 -17 -2q-8 0 -20 11t-19 19q0 12 26 34t62 46q8 6 15 11l2 2q12 10 22 20q16 14 25 21q2 2 2 4l2 2l4 4 q-35 16 -98 57q-45 33 -62 37q23 -14 75 -37.5t97 -44.5q8 6 9 10q0 2 -16.5 11.5t-53.5 27t-119 54.5q-45 20 -49 22q-135 72 -219 197t-84 266zM319 881q0 -203 150 -351q35 -35 90 -69q-88 57 -134 163.5t-46 215.5q0 209 147 352q150 145 361 145q168 0 301 -84 q-152 125 -361 125q-211 0 -358 -143q-150 -145 -150 -354zM492.5 598.5q39.5 -86.5 117.5 -166.5q104 -47 217 -47q213 0 357 131q72 66 112.5 159t40.5 206q0 225 -127 352q-113 55 -249 55q-209 0 -359 -145q-149 -144 -149 -349q0 -109 39.5 -195.5zM535 57q0 6 20 25 q12 10 18 16q41 12 109 13q98 -2 180 -10.5t166 -22.5q6 0 38 -5t88 -13.5t76.5 -10.5t31.5 -2q4 0 10 2h8q6 0 66 27l38 18q35 16 91 43q80 37 126 55.5t70 18.5q27 0 27 -23q0 -27 -17.5 -40t-52.5 -27q-23 -10 -26 -12q-14 -8 -42 -20.5t-61 -27.5q-18 -6 -39 -16 l-39 -18q-61 -27 -65 -27h-19q-35 0 -125 12q-53 6 -149 21q-33 6 -78 12q-109 14 -229 16q-41 0 -70 -6t-59 -18q-37 -12 -54 -12q-12 0 -22 12t-16 20z" />
<glyph unicode="r" horiz-adv-x="1515" d="M41 330q0 31 16 30q23 0 35 38t25 126q12 94 16 346q0 66 2 93q2 31 2 77q0 59 -2 116.5t-10 116t-23.5 96.5t-40.5 42q-6 2 -13 13.5t-7 23.5q0 18 27 18q72 -8 176 -8q47 0 141 2q125 4 190 4q199 0 363 -34q184 -37 297 -119q119 -88 119 -256q0 -84 -88 -170 q-78 -78 -228 -158q-37 -14 -74.5 -33.5t-37.5 -31.5q0 -18 22.5 -45t58 -59t66.5 -55.5t49 -37.5q10 -6 11 -6q45 -39 75 -58q-18 8 -41.5 30t-62.5 63q-43 40 -115 114q-10 10 -10 17q0 12 21.5 23t58.5 28q27 10 33 14q139 74 227 155t88 171q0 160 -111 248 q90 -55 134.5 -123t44.5 -170q0 -82 -89 -170q-80 -78 -227 -156q-41 -16 -76.5 -34.5t-35.5 -30.5q0 -29 22.5 -57.5t55 -53.5t61 -40t69.5 -38q31 -16 31 -18h-2q10 -4 32.5 -19.5t22.5 -29.5q0 -6 -18 -7q-51 -6 -100 -6q-47 0 -97 6q-51 0 -166 -8h-53q-33 0 -41 4 t-8 25q0 16 21 24q16 6 16 17q0 12 -14 37q-20 25 -86 92q-47 0 -101.5 -7t-101.5 -18.5t-77 -27t-30 -31.5q0 -61 16.5 -90t43.5 -51q27 -20 26 -37q0 -18 -30 -19q-31 2 -88 6q-31 2 -86 3q-27 -2 -89 -5q-61 -2 -88 -4q-27 0 -26 19q0 20 8 28q59 6 133 7q82 0 168 -9 q31 0 31 19q0 20 -31 51q-27 29 -41 55.5t-14 71.5q0 14 17.5 25.5t43 18.5t49 10t37.5 3l10 2q102 25 162 25q4 0 17 -4q-45 43 -70 43q-20 0 -68 -10q-43 -8 -59 -9l-6 -2q-8 -2 -23 -2l-6 -2q-12 -2 -35 -6q-59 -8 -91 -18.5t-32 -34.5q0 -57 15.5 -84t42.5 -49 q29 -23 29 -45q0 -20 -29 -21q-31 2 -88 6q-33 2 -88 2q-29 -2 -88 -4t-88 -4q-27 0 -27 21zM340 952q0 -59 10 -106q0 -104 8.5 -159.5t38.5 -55.5h15v8q-6 43 -9 86v84q-2 10 -2 33q0 43 2 92q0 74 2.5 134t7.5 114.5t17 96.5t31 60q10 11 59 11q182 -6 283.5 -24.5 t187.5 -68.5q-2 2 -4 5q-2 0 -4 2t-2 4l-4 4q-70 49 -178 76q-4 2 -6 2q-76 16 -150 28.5t-141 12.5q-47 0 -77 -9.5t-36 -31.5q-6 -31 -24 -154q-2 -20 -7 -41q-8 -61 -13 -107.5t-5 -95.5zM461 870q0 -59 10 -106v-84q2 -18 31 -18t79 17t106 43t101.5 48.5t69.5 36.5 q205 119 205 237q0 59 -11 108.5t-40 84.5q-53 18 -92 29q-25 6 -57 12t-77 14t-94 13.5t-86 5.5q-61 0 -78 -17q-18 -18 -18 -26q-6 -33 -25 -154q0 -6 -4 -39q-10 -63 -15 -109t-5 -96zM977 254q0 12 6 18h14h15q45 4 88 7q27 2 78 2q49 -6 96 -7q37 0 78 3.5t41 9.5 q0 2 -2 4h2q23 -6 45 -18.5t22 -30.5q0 -6 -20 -6q-49 -6 -99 -7q-47 0 -96 7q-47 0 -78 -3l-28 -2q-39 -4 -60 -4h-53q-33 0 -41 4.5t-8 22.5z" />
<glyph unicode="s" horiz-adv-x="1472" d="M41 539q0 29 6 86t6 86q0 59 49 59t52 -55q6 -18 23.5 -49t45 -67t62 -64.5t71.5 -40.5q-20 16 -46.5 40.5t-50 52t-39 51.5t-15.5 38q0 12 16 12q49 0 51 -57q23 -78 125 -162q129 -66 338 -66q14 0 21 3l-6 -3q45 0 105 19.5t117.5 54.5t93.5 81t36 95q0 74 -55 131 q-57 27 -117 41.5t-154 32.5l-41 8q-121 23 -232.5 65t-166.5 97q33 -20 108 -51q43 -16 109 -35q59 -18 117 -31l24 -4q66 -14 99 -22l45 -13q8 0 32.5 -7t58.5 -19t60.5 -23.5t36.5 -17.5q-66 55 -156 84t-225 53q-10 2 -29 6q-74 14 -154.5 40t-152 61.5t-117 82 t-45.5 99.5q0 66 37 116t103 74q137 51 315 52q98 -2 189.5 -26t164.5 -61q10 0 23 -2q12 -2 22 -2q25 0 49.5 -30.5t46 -73.5t33 -72.5t15.5 -44.5q0 -10 -16.5 -19t-26.5 -9q-50 0 -68 41q-14 29 -43 57q-156 80 -274 80q-29 0 -39 -2q-84 0 -151.5 -27t-67.5 -84v-8 q57 -25 123.5 -42.5t171.5 -37.5l28 -6q152 -33 252 -74q111 -41 195 -117q37 -35 60.5 -89t23.5 -113q0 -180 -185 -289q-188 -113 -405 -113q-201 0 -371 49q-59 16 -111.5 36t-97.5 42.5t-73.5 49t-28.5 53.5zM168 420q92 -55 238 -98q172 -49 370 -50q215 0 406 111 q182 109 182 291q0 59 -22.5 111.5t-61.5 91.5q-25 23 -37 30q84 -45 136.5 -113.5t52.5 -164.5q0 -180 -185 -289q-188 -113 -403 -113q-203 0 -373 49q-106 31 -192 69t-111 75zM338 1282q0 -38 63 -65q-10 14 -10 26q0 55 70.5 83t150.5 28q10 2 39 2q61 0 155.5 -31 t166.5 -78q-33 29 -81 54.5t-101.5 46t-103.5 33t-89 12.5q-29 0 -39 -2q-84 0 -152.5 -27t-68.5 -82zM1118 1300h2q35 0 51.5 -22.5t30.5 -65.5q10 -29 15 -38q2 -4 18 -35q8 -14 18.5 -36t10.5 -24q0 -10 -16.5 -19t-26.5 -9q-23 0 -33 6t-21 20q-10 12 -16 19h2 q14 0 28.5 8t14.5 20q0 4 -2 6q-6 6 -18.5 31t-24.5 54.5t-22.5 56t-10.5 28.5z" />
<glyph unicode="t" horiz-adv-x="1636" d="M41 1245q0 18 15.5 44t39 53.5t48 53t46.5 48.5q27 27 27 29h53q0 -2 2 -3h2q133 -8 330 -8h90q57 0 84 2q242 6 439 13q43 0 62 -14.5t44 -49.5q27 -41 49 -63l6 -7q35 -29 62.5 -56t27.5 -42q0 -14 -18 -24.5t-37 -10.5q-39 0 -96 31q-37 18 -60 25q-84 18 -151.5 29.5 t-83.5 11.5q-12 0 -19.5 -18.5t-11.5 -49.5t-6 -53.5t-4 -65.5v-14q-8 -90 -8 -313q0 -113 3 -198t13 -156.5t29.5 -115.5t50.5 -44q16 0 16 -37q0 -18 -28 -19q-45 4 -99 6q-31 2 -90 2q-8 0 -47 -2l-53 -2q-20 -2 -55 -2q-14 -2 -43 -2q-31 0 -31 19q0 23 8 30q16 0 54 2 t53 2q43 2 45 3q12 0 57 -3q63 -4 92 -4q33 0 50.5 4.5t17.5 12.5q0 37 -19 37q-16 0 -39 34q-16 25 -38 136q-18 104 -19 344q0 225 8 313q2 39 15 111q12 63 12 88q0 2 14 2h11q6 -2 12 -2q72 -6 215 -39q59 -14 115 -43q-53 53 -173 84q-59 16 -117.5 24t-109.5 15h-8 q-12 0 -19.5 -18.5t-11.5 -48.5t-6 -52.5t-4 -65.5v-14q-6 -100 -6 -315q0 -123 2 -203t11 -151.5t28.5 -115.5t52.5 -44q16 0 16 -35q0 -20 -26 -21q-70 4 -101 6q-35 2 -90 2q-6 0 -47 -2l-53 -2q-18 -2 -53 -2h-19q-16 -2 -20 -2q-37 0 -37 21q0 31 16 30q14 0 35 33 q18 31 33.5 109t21.5 164l11 145q0 25 4 100q0 4 2 62q2 43 2 217q-2 16 -4 51t-4 51q-39 -6 -88 -18t-94.5 -28.5t-83 -37t-54.5 -41.5q-31 -43 -96 -43q-20 0 -33.5 10.5t-13.5 24.5q0 7 4 15q45 6 68 40q20 25 65 47.5t107.5 41t118 31t94.5 16.5q0 43 -25 43 q-43 0 -104.5 -12.5t-125 -32t-114.5 -44t-72 -51.5q-31 -43 -96 -43q-45 0 -45 35zM1362 1391q47 -6 61 -31q6 -12 26.5 -33.5t55.5 -60.5q43 -43 66.5 -70t23.5 -37q0 -14 -17 -24.5t-38 -10.5q-71 1 -102 50q10 -2 30 -3q20 0 39 11.5t19 23.5q0 6 -19.5 27.5t-60.5 62.5 q-41 43 -59.5 63.5t-24.5 31.5z" />
<glyph unicode="u" horiz-adv-x="1583" d="M41 1454q0 8 18.5 12t49.5 4q23 0 53.5 -2t54.5 -4q23 -2 25 -2q8 0 43 4q72 6 108 7q35 0 55.5 -5.5t20.5 -19.5q0 -39 -16 -39q-23 0 -39 -29q-25 -33 -43 -135q-20 -123 -25 -358v-209h6q2 -117 20.5 -165t63.5 -64q-25 49 -28 188h-7v209v4q0 111 3.5 194.5 t13.5 157.5t31.5 120t58.5 46h-2q0 4 19.5 10t37.5 6q31 0 31 -22q0 -39 -16 -39q-31 0 -50.5 -43t-31.5 -119q-20 -123 -25 -360v-209h6q0 -94 15.5 -124t76.5 -30q76 2 207 27q35 4 90.5 14t108.5 24.5t91 32t38 35.5q0 23 -2 86q-2 76 -2 97q0 12 2 28v19q2 27 2 67 q0 72 2 97v84q0 164 -17.5 258t-60.5 102q-18 0 -18 39q0 16 18 16q29 0 80 -4l22 -2h7q53 -4 75 -4h52q59 2 79 2q35 0 54.5 -2t19.5 -6q0 -39 -12 -39q-25 0 -40 -44t-28 -126q-14 -100 -18 -365q0 -147 1 -209.5t7 -134.5q12 -78 30.5 -123t45.5 -45q14 0 14 -38 q0 -8 -17.5 -12.5t-49.5 -4.5q-29 0 -86 4q-39 2 -52 2q-8 0 -55 -2q-68 -4 -98 -4q-43 0 -45 6q-43 -10 -115 -30q-119 -31 -193.5 -46.5t-146.5 -15.5q-78 0 -139.5 18.5t-100.5 58.5q72 -31 170 -32q66 0 139.5 13.5t159.5 37.5q27 8 97 23q98 20 146 39.5t48 54.5 q-61 0 -129.5 -16.5t-163.5 -44.5q-41 -12 -53 -17q-174 -51 -299 -51q-137 0 -221 60q-84 63 -88 256v47h-2l2 26q2 53 2 70l4 113q0 66 2 92q2 31 2 75q0 51 -3 112t-11 122t-22.5 99t-37.5 38q-16 2 -20 39zM1135 240q0 22 6 30q82 4 127 4q10 0 53 -2q55 -4 86 -4 t48.5 4t17.5 13q0 39 -17 39q-20 0 -36.5 27.5t-25 70.5t-13.5 91t-7 93q-2 59 -2 142q0 90 4 184t11.5 179t17.5 144.5t22 81.5q12 31 31 31q12 0 41 6q18 6 27 6q16 0 16 -18q0 -39 -14 -39q-25 0 -39 -43t-27 -125q-16 -100 -20 -364q0 -281 15.5 -396.5t68.5 -115.5 q16 0 16 -39q0 -8 -17.5 -12.5t-47.5 -4.5q-31 0 -86 4q-43 2 -54 2q-12 0 -55 -2q-53 -4 -82 -4q-66 0 -65 17z" />
<glyph unicode="v" horiz-adv-x="1644" d="M41 1462q0 8 20 8q80 -8 181 -8h116q14 0 48 2q31 2 49 2q31 0 49 -9t18 -34q0 -14 -22 -14q-18 0 -26.5 -8t-18.5 -29q-2 -4 -2 -12q0 -33 28 -119q29 -94 183 -375q4 -10 20 -41q39 -88 61 -125q14 -27 35 -51t27 -24q4 0 4 4q0 10 -14 39q-37 76 -113 225 q-92 180 -133 275.5t-41 150.5q0 49 47 49q10 0 25 6q14 6 20 6q45 0 45 -43q0 -16 -20 -16q-18 0 -32.5 -14.5t-14.5 -34.5q0 -31 28 -117q37 -115 183 -375q6 -10 14 -26q8 -18 12 -25l25 -51q8 14 20 43q10 25 17 37q2 6 8 12q12 25 22 47q25 57 88 189 q66 143 91.5 211.5t25.5 132.5q0 65 -49 65h-2q-25 0 -25 17q0 20 17.5 27t46.5 7q16 0 49 -2q23 -2 31 -2h184q2 0 23 2q39 2 59 2q29 0 29 -6q0 -16 -16.5 -28.5t-37.5 -22.5l-4 -2q-23 0 -47 -33q-37 -31 -94 -133q-66 -109 -182 -350q-14 -33 -43 -94q-25 -47 -43 -78 q-52 -90 -66 -127q-4 0 -20 -37q-12 -23 -41 -84q-10 -18 -19 -35q-23 -55 -52.5 -95t-66.5 -40q-55 0 -77 61q-27 72 -90 205l-21 41q-20 45 -30.5 66.5t-18.5 39t-8 19.5l-62 123q-70 139 -112.5 222t-85.5 159q-53 88 -91 134t-69 46q-8 0 -23.5 14.5t-15.5 30.5z M801 260q49 0 82 64q12 20 27.5 52t37.5 83q25 51 35 71.5t14 20.5q16 35 58 106l12 21q27 47 63.5 119.5t92.5 185.5q47 96 71.5 145.5t38.5 73.5l6 10q45 78 76 116t60 38q4 0 22 4q25 4 47.5 8t38.5 4q20 0 21 -8q0 -16 -16.5 -29.5t-37.5 -23.5l-4 -2q-20 0 -49 -31 q-37 -37 -92 -133q-74 -121 -182 -352q-45 -104 -86 -172q-20 -37 -37 -68q-8 -16 -19 -35q-18 -29 -30 -61q-14 -25 -45 -90q-39 -82 -67 -123t-67 -41q-49 0 -71 47z" />
<glyph unicode="w" horiz-adv-x="2138" d="M41 1466q0 10 25 11q35 -2 86 -7q49 -6 75 -6h117q88 0 108.5 1t26.5 8l6 2q6 0 9.5 -13.5t3.5 -19.5q0 -16 -15 -17q-16 0 -30.5 -16t-14.5 -41q0 -35 27 -121q37 -127 162 -381q2 -6 4 -8q18 -35 26 -55l11 -23q6 -14 14 -35l2 -8q8 -20 17.5 -36.5t17.5 -16.5 q6 0 8 10q2 15 12 25q-8 8 -17 28.5t-20 47.5q-8 23 -10 24q-133 270 -164 381l-2 6q-22 82 -22 114q0 28 12 46q59 0 80.5 1t30.5 5l6 2q6 0 9 -13t3 -22q0 -14 -14 -14q-16 0 -30.5 -16.5t-14.5 -40.5q0 -35 24 -119q27 -100 152 -358l43 129q35 104 45 139q14 45 35 147 q27 137 54.5 207t78.5 70q27 0 46 -22.5t36 -61.5l14 -47q27 -96 39 -133l21 -64q25 -76 38 -117q8 -25 33 -104q31 -104 55.5 -171t57.5 -99l4 -2q6 0 8 8t6 14l8 14q-25 68 -94 256q-10 25 -14 37q-8 20 -21.5 65.5t-25.5 88.5q-35 113 -54.5 174t-25.5 61h14 q33 0 51.5 -22.5t30.5 -61.5q76 -242 144 -436l6 -18q16 -43 20 -60q100 182 158.5 332t58.5 232q0 29 -14 49t-37 20t-22 25v12q6 18 38 18q59 -8 162 -8h82q4 0 19 2q43 2 59 2q31 0 31 -6q0 -20 -18.5 -33.5t-30.5 -19.5q-16 0 -37 -33q-31 -39 -76 -133 q-35 -61 -74 -137q-23 -43 -52.5 -108.5t-84.5 -186.5q-25 -57 -42 -97t-32 -67q-8 -16 -30 -80q-16 -53 -33 -94t-36.5 -79t-42 -62.5t-44.5 -24.5q-61 0 -84 47q-35 86 -84 230q-23 61 -33 92q-20 66 -37 98q-12 -51 -55 -186l-8 -25q-20 -59 -35 -106l-18 -56 q0 -2 -15 -49q-12 -43 -22.5 -78.5t-12.5 -35.5h5q-29 -35 -62 -35q-72 0 -84 55q12 0 37 18q18 16 27 17h-5q33 111 101 319l2 4q8 25 27 82q29 76 43 126t14 93q0 23 -6 41q0 2 -4 11q-6 16 -13.5 30.5t-13.5 14.5q0 -2 -8 -13q-4 -8 -6 -10q-41 -154 -99 -327 q-2 -4 -16 -60q-16 -63 -26.5 -99t-21.5 -73t-22.5 -64.5t-15.5 -27.5h4q-25 -37 -61 -37q-66 0 -91 66q-41 102 -129 301l-30 65q-43 86 -60 123q-2 2 -18 43q-66 154 -84 195q-35 78 -55.5 122t-47 90t-50 73.5t-42.5 27.5l-4 2q-23 12 -40 25.5t-17 31.5zM1376 260 q2 -2 4 -2q23 0 43.5 21.5t36 51t23.5 53.5t14 44l4 10q12 23 25 64q8 29 12 37q10 20 23 45q23 51 36 84q20 55 55.5 130.5t70 146.5t70.5 139.5t58 111.5q45 88 70 126t43 38q2 0 4 2q4 2 6 2h15q4 0 26 2q37 2 53 2q29 0 29 -6q0 -18 -13 -30.5t-30 -22.5l-6 -4 q-14 0 -37 -31q-20 -25 -78 -133q-63 -111 -174 -353q-51 -106 -80 -176q-2 -8 -10 -22q-12 -31 -18 -43l-2 -2q-12 -31 -33 -82q-37 -90 -51 -135q-20 -55 -44 -89t-59 -34q-27 0 -56.5 15t-29.5 40z" />
<glyph unicode="x" horiz-adv-x="1683" d="M41 311q2 0 8 19q29 31 45 35q8 4 64 38q16 14 59 56q49 47 90 84q23 18 71 59t114.5 102.5t114.5 119t48 85.5q0 31 -40 86.5t-92 110.5t-93 94t-59 55q-25 23 -33 31t-33 35q-8 0 -21.5 10t-33.5 31q-20 20 -33.5 30.5t-21.5 10.5t-30 20.5t-22 32.5q0 10 19 10 q74 -8 182 -8h53q20 0 68 4q63 6 90 6q37 0 58.5 -8t21.5 -30q0 -6 -21 -15q-23 -8 -34 -16t-11 -23q0 -25 23 -65l2 -2q8 -16 29.5 -50t53.5 -77t67.5 -78t68.5 -47h8q-104 109 -149 169t-45 109q0 25 25.5 36t54.5 11q20 0 37.5 -12t17.5 -29q0 -6 -21 -14 q-20 -8 -31.5 -16t-11.5 -23l7 -14q16 -37 28 -63.5t30.5 -58.5t39 -53.5t39.5 -21.5q12 0 22 10q111 104 154 162t43 111q0 20 -14.5 31.5t-38.5 19.5q-27 8 -27 16q0 18 18.5 30.5t38.5 12.5h6q53 -6 103 -8q23 -2 61 -2q14 -2 49 -2q109 0 185 8q18 0 18 -6l-8 -10 q-14 -20 -47 -35q-27 -12 -47 -29q-39 -25 -129 -104q-20 -16 -64.5 -54t-101.5 -92.5t-101 -109.5t-44 -86q0 -29 34.5 -79t83.5 -103t97.5 -100.5t83.5 -79.5q8 -8 12 -13q84 -84 123 -118.5t84 -61.5q-43 33 -150 139q-119 119 -282 322q-31 29 -31 53q0 27 35.5 73 t85 95t94.5 88t86 74q10 8 12 10q12 12 25 23q61 57 96 83.5t59 26.5h23q47 2 72 2q16 0 28 -2l-8 -10q-16 -18 -45 -33q-31 -12 -51 -31q-39 -25 -129 -104q-18 -16 -61.5 -52t-102.5 -92.5t-102 -110.5t-43 -85q0 -29 34.5 -79t85 -106.5t95.5 -100.5t81 -79l13 -12 l39 -39q51 -53 77.5 -77.5t36.5 -26.5q-2 2 -10 6q-2 2 -4 2l2 -2q4 -2 6 -4l2 -2q8 -8 8 -19q0 -4 -36 -4q-20 0 -61.5 2t-76.5 4h-26q-25 0 -96 -4q-80 -6 -121 -6q-51 0 -83 8.5t-38 28.5q0 12 20 12t37 13.5t17 31.5q0 31 -31 93q-37 70 -152 202l-8 -10 q-199 -197 -248 -280q-14 -23 -26 -56t-25 -33q-6 0 -25.5 6.5t-19.5 10.5l-10 -12q-18 -18 -45 -19q-12 0 -41 2q-4 2 -10 2l-66 4q-80 6 -121 6q-12 0 -55 -2l-25 -2q-10 -2 -37 -2h-14q-20 -2 -29 -2q-20 0 -20 4v-2zM186 252q16 14 29 22q20 0 31 2q10 2 33 3 q37 0 120 -9q16 -2 35 -2q14 -4 43 -4q23 0 37 -2q39 0 61 39l5 -4q8 -27 51 -27q18 0 18 -10q0 -25 -24.5 -34t-57.5 -9q-6 0 -18 2h-12q-14 0 -39 1t-74 5q-61 4 -74 4q-18 0 -61 -2q-8 -2 -19 -2q-12 -2 -37 -2h-12q-23 -2 -31 -2q-22 0 -22 4q-1 11 18 27zM444 399 q0 -18 17.5 -29.5t40.5 -11.5q0 27 37 95q41 74 247 280q6 8 17 17q8 6 8 8q0 4 -12 16q-20 18 -35 19q-18 0 -35 -19q-203 -203 -248 -282q-37 -63 -37 -93zM1102 258q0 2 4 6q14 0 41 2q4 2 10 2q18 2 70 2q100 8 141 9q10 0 51 -3q100 -6 119 -6q31 0 31 4q0 10 -4 15 l-23 20q27 -16 39 -20h2q20 -14 39.5 -30.5t19.5 -31.5q0 -4 -38 -4q-27 0 -71 2t-65 2q-23 2 -28 2q-35 0 -107.5 -3t-115.5 -7q-8 0 -27 -2q-16 -2 -25 -2q-35 0 -49 21q-14 16 -14 22z" />
<glyph unicode="y" horiz-adv-x="1679" d="M41 1452q0 8 13.5 13t25.5 5q2 0 14 -2q43 -4 68 -6q14 -2 78 -2q33 0 98 4q63 2 88 2q43 0 66.5 -6t23.5 -24q0 -23 -29 -23q-41 0 -41 -39q0 -23 13.5 -57.5t34.5 -71.5q47 -94 241 -364q10 -18 26.5 -34t29.5 -16h2q2 3 4 3l-2 4l-2 4q-199 276 -242 362 q-23 43 -35 75t-12 54q0 39 41 39q2 0 12 2q29 6 47 6q16 0 27.5 -6t11.5 -24q0 -23 -27 -23q-37 0 -41 -29q0 -41 48 -139q45 -96 198 -307q6 4 15 16l2 2q205 256 252 359q39 82 38 127v16q-6 16 -19 25.5t-32 15.5q-25 10 -24 21q0 23 13 31t40 8q8 0 22 -3h21 q74 -8 115 -8q14 -2 47 -2q2 0 24 2q39 4 79 7.5t65 3.5q31 0 30 -7q0 -12 -10 -23t-26 -22q-6 -4 -7 -4q-16 0 -41.5 -19.5t-58.5 -55t-60.5 -68.5t-70.5 -86q-43 -55 -64 -78q-82 -102 -159.5 -204.5t-143 -198t-106.5 -171t-41 -116.5q0 -27 15.5 -43.5t37.5 -18.5h6 q-4 2 -4 21q0 39 41 123q49 111 238 348q109 141 172 219q2 2 39 49q51 63 81.5 100t65.5 75t64.5 60.5t46.5 22.5q14 2 41.5 7.5t50.5 5.5t22 -9q0 -12 -10 -23t-26 -22q-6 -4 -7 -4q-10 0 -45 -28q-51 -45 -131 -138q-29 -33 -98 -116l-23 -27q-68 -82 -172 -219 q-154 -195 -215 -293t-61 -178q0 -27 13.5 -38t37.5 -22q20 -6 21 -14q0 -43 -54 -43q-37 0 -110 8q-63 8 -90 8q-31 0 -45 -2t-48 -2q-16 -2 -45 -2q-12 -2 -47 -2q-20 0 -20 19q0 6 9 18t20 12h12q14 2 41 4h4q16 2 47 3q25 0 88 -9q63 -6 94 -6q35 0 53.5 8.5t18.5 30.5 q0 8 -27 19q-25 8 -30 16q-8 -37 -54 -37q-18 4 -59 6q-33 2 -41 4q-57 6 -100 6q-61 0 -93 -4q-14 -2 -45 -2h-14q-14 -2 -20 -2q-33 0 -33 21q0 12 17.5 25.5t54.5 33.5q55 31 71 47q82 94 131 158q27 27 27 47q0 16 -14 43q-16 27 -50 84q-45 59 -91 130t-97 155 q-72 113 -92 139q-86 106 -125 143q-27 27 -60 49q-20 14 -33.5 26.5t-29.5 39.5z" />
<glyph unicode="z" horiz-adv-x="1585" d="M41 342q0 10 18.5 33.5t49 53.5t67.5 62.5t76 65.5q74 66 92 84q129 135 256 274q70 74 195 215q6 8 41 52q41 55 70.5 90t37.5 35h-16q-184 0 -341 -44t-237 -108q-34 -22 -59 -22h-2q-33 0 -33 24q0 20 20 35l19 18q14 10 31 25q6 4 8 6q53 43 221 82q133 29 303 29h57 q16 -2 62 -2q6 10 6 18q0 12 -29.5 16.5t-70.5 6.5h-19h-61q-74 0 -152 -7.5t-149.5 -21.5t-131 -34.5t-91.5 -45.5q-14 -18 -52.5 -41.5t-62.5 -23.5q-33 0 -33 24q0 20 21 37q16 16 55 65q49 59 80.5 91t56.5 32q6 -10 135 -10h291q53 0 160 4q104 0 155 2q57 2 136 2h90 q39 0 39 -14q0 -20 -33 -45q-68 -63 -137.5 -132t-130.5 -132l-123 -135q-61 -68 -117 -136q-14 -16 -49 -57q-33 -33 -51 -55q-23 -25 -52 -56t-51 -55q-20 -20 -49 -50t-63.5 -72t-59 -76.5t-24.5 -51.5q0 -12 14 -12q37 0 65.5 25.5t59.5 68.5q6 10 12 19q47 59 152 168 q35 35 51 53t59 67q35 41 39 45q72 82 119 136q29 31 98 106q16 16 25 27q66 72 129 133l37 37q55 57 82.5 83.5t36.5 26.5h47q39 0 39 -16t-32 -48t-91 -85q-39 -35 -47 -43l-35 -35q-68 -66 -96 -98q-8 -10 -25 -27q-70 -76 -98 -106q-47 -53 -119 -136l-25 -28 q-47 -53 -76 -84q-31 -31 -90 -99l-10 -12q-12 -12 -45 -51q-20 -23 -35 -37l-20 -24q-37 -41 -56 -66h41q23 0 37.5 1t42.5 3q84 4 170 17q145 18 259 53t190 94q29 18 57 18q47 0 47 -32q0 -31 -39 -56t-96 -84q-45 -49 -79 -71.5t-87 -22.5q-59 0 -149 2h-109 q-59 0 -131 2h-127q-215 0 -299 -2q-117 -2 -215 -6q-20 0 -33.5 12.5t-13.5 28.5zM164 256v8q6 0 41 2h47l117 2q82 2 288 2h127q72 -2 131 -2h109q90 -2 150 -2q41 0 59 8.5t51 36.5q35 41 66.5 71t85.5 62q10 6 24 23q16 20 37 20q47 0 47 -34q-2 -20 -27.5 -43 t-64.5 -52q-27 -18 -33 -24q-10 -8 -30 -31q-39 -41 -69 -61.5t-77 -20.5q-59 0 -149 2h-109q-59 0 -131 2h-127q-217 0 -301 -2q-121 -4 -213 -6q-20 0 -34.5 11.5t-14.5 27.5z" />
<glyph unicode="{" horiz-adv-x="530" d="M41 946q0 23 18.5 48.5t55.5 64.5q33 35 50 59.5t19 44.5q16 334 80 580q63 242 150 299q-57 -147 -99 -375q-39 -227 -49 -512q-2 -20 -18.5 -41.5t-50.5 -56.5q-35 -35 -53.5 -59.5t-18.5 -47.5q0 -12 8 -49t14 -37q8 0 9 62q0 20 18.5 44.5t54.5 59.5q33 33 50.5 56.5 t19.5 41.5q10 274 49 514q18 125 47 211t92 134q-59 -145 -98 -371q-39 -244 -49 -514q-2 -18 -19.5 -41t-50.5 -57q-37 -37 -55 -60.5t-18 -44.5q0 -27 9 -44t27 -38q31 -33 33 -59q10 -279 49 -504q39 -215 95 -358l2 -7q-86 57 -148 291q-63 233 -80 561 q-2 25 -19.5 46.5t-51.5 54.5q-37 33 -54.5 55.5t-17.5 48.5zM254 809q90 -53 90 -111q10 -276 49 -503q37 -229 94 -361q-12 10 -31.5 25.5t-19.5 23.5l2 4q-51 141 -86 342q-39 221 -49 500q-2 43 -49 80z" />
<glyph unicode="|" horiz-adv-x="182" d="M41 51v1753h65v-1753h-65zM76 25v14h47v1743h18v-1757h-65z" />
<glyph unicode="}" horiz-adv-x="524" d="M41 -104v-2q57 147 92 360q37 233 49 504q2 23 19.5 44t50.5 50q37 33 55.5 54.5t18.5 47.5q0 23 -18.5 46.5t-55.5 60.5q-33 35 -50.5 57.5t-19.5 42.5q-10 289 -47 510q-39 227 -94 375q86 -57 149 -297q61 -233 78 -580q2 -20 18.5 -43.5t51.5 -60.5 q37 -39 55.5 -64.5t18.5 -48.5q0 -25 -18.5 -48t-55.5 -56q-35 -35 -52.5 -56.5t-19.5 -43.5q-16 -334 -78 -562q-61 -233 -147 -290zM111 1989q84 -53 149 -297q61 -240 78 -580q2 -23 19.5 -45.5t52.5 -60.5q37 -37 55 -61.5t18 -47.5q0 -27 -18.5 -49.5t-54.5 -54.5 q-35 -33 -52.5 -54.5t-19.5 -46.5q-16 -330 -78 -563q-63 -236 -147 -291q4 10 10 43q10 43 19.5 72t19.5 41l2 2q27 66 55 164q61 233 78 561q2 25 19.5 46t54.5 56q35 35 53 57.5t18 47.5q0 23 -18 48t-55 64q-35 35 -51.5 57.5t-18.5 43.5q-16 338 -78 579 q-45 170 -104 252q0 4 -6 17z" />
<glyph unicode="~" horiz-adv-x="808" d="M41 1618v53q39 74 83 129t89 55q57 0 123 -96v2q0 -2 2 -6l2 -6q8 -16 25.5 -42t37 -50.5t39 -43t31.5 -24.5q-10 10 -25.5 33t-33.5 53q-29 47 -37 56v-2q-31 41 -43 53q45 -16 94 -90l6 -11l10 -20q20 -35 35 -58.5t21 -23.5h12q12 0 41 16.5t59.5 43t51 59.5t20.5 65 v-57q-43 -76 -86 -129t-86 -53q-51 0 -123 96l-2 4q-2 4 -2 6l-2 17q0 2 -16 22l-19 29l-4 8q0 2 -13.5 22.5t-17.5 20.5h-12q-12 0 -41 -17.5t-59.5 -46t-51 -61.5t-20.5 -63v55q12 20 27.5 47t34 52.5t35 43t28.5 17.5q16 0 35 -13q-41 41 -76 41q-12 0 -41 -17.5 t-59.5 -46t-51 -61t-20.5 -61.5zM520 1505l2 6q41 -43 74 -43q12 0 42 17.5t59.5 44t50 59.5t20.5 64v59q-35 -72 -75 -124t-83 -58q-29 -29 -63 -29q-6 0 -27 4z" />
<glyph horiz-adv-x="411" d="M41 1694q0 111 30.5 170t102.5 59q59 0 98 -46t39 -105q0 -61 -39 -107.5t-98 -46.5q-57 0 -57 -25q0 -10 18 -43l4 -6l2 -4q20 -47 21 -53q0 -8 -8 -8q-33 0 -74 65l2 -4q-41 53 -41 154zM137 1616q27 -16 62 -17q59 0 98 46.5t39 107.5q0 20 -7 41t-20 41q-8 16 -8 18 l2 2q4 0 29 -18q39 -45 39 -108t-38 -108.5t-100 -45.5q-39 0 -59 16q10 -49 33 -100q14 -33 14 -47q0 -8 -6 -8q-22 -1 -47 26l6 -2l6 -2q6 0 6 8q0 16 -18 60q-23 55 -31 90z" />
<glyph horiz-adv-x="417" d="M41 1765q0 61 39 107.5t98 46.5q74 0 105.5 -59.5t31.5 -165.5q0 -102 -43 -156v2q-45 -63 -75 -63q-8 0 -9 8q6 16 15.5 45t17.5 43q-23 2 -43 6t-20 8q0 6 47 6q18 0 23 4.5t8 20.5l2 12q-29 -16 -60 -16q-59 0 -98 44t-39 107zM250 1440q0 20 29 53q14 17 20 25 q43 53 43 155q0 59 -12.5 110.5t-36.5 80.5q43 -20 63.5 -79t20.5 -136q0 -78 -36 -147.5t-83 -69.5q-8 0 -8 8z" />
<glyph horiz-adv-x="737" d="M41 1698q0 111 30.5 171t102.5 60q59 0 98 -46t39 -107t-39 -107.5t-98 -46.5q-57 0 -57 -25q0 -10 18 -43l4 -6l4 -8q18 -39 19 -49q0 -8 -8 -8q-33 0 -74 65l2 -2q-41 53 -41 152zM154 1569q0 25 57 24q37 0 82 28t45 58v23q0 23 2 55q2 20 2 27q0 16 -6 30.5t-25 34.5 q25 -10 41 -26q31 104 123 104q59 0 98 -46t39 -107t-38.5 -107.5t-98.5 -46.5q-57 0 -57 -25q0 -10 18 -43l4 -6l4 -8q18 -39 19 -49q0 -8 -8 -8q-10 0 -33 30q-27 35 -41 35h-4q-18 16 -29 47q-41 -39 -92 -39q-57 0 -57 -22q0 -12 18 -41q27 -45 27 -68q0 -8 -6 -8 q-8 0 -29 19q-18 16 -25 16h6q6 0 7 10q0 14 -21 53q-4 8 -8 19q-14 27 -14 37zM446 1604q27 -14 62 -15q59 0 99 46t40 106q0 66 -41 108q41 -14 65.5 -55t24.5 -86q0 -61 -40 -107.5t-99 -46.5q-57 0 -57 -22q0 -12 18 -41q27 -45 27 -68q0 -8 -6 -8l-11 4 q-20 8 -33.5 15.5t-13.5 13.5h2v2l-4 -4h2h6q6 0 7 10q0 14 -17 55q-23 55 -31 93z" />
<glyph horiz-adv-x="741" d="M41 1761q0 61 39 107.5t98 46.5q74 0 105.5 -59.5t31.5 -165.5q0 -51 -10 -98.5t-33 -57.5l-4 -2q-47 -66 -75 -66q-8 0 -9 11q0 6 9 20q12 25 18 43l2 12q-25 8 -47 37q16 -10 47 -10h12q8 27 13 47q-27 -18 -60 -18q-59 0 -98 46t-39 107zM272 1411q0 2 9 19 q12 20 19 37.5t7 33.5l-2 8q43 53 43 156q0 25 -6 55q-6 29 -6 45v15q-2 10 -14 35q-10 23 -11 26q0 2 2 2q6 0 31 -22q10 41 47 69.5t78 28.5q74 0 105.5 -60.5t31.5 -168.5q0 -78 -37 -150t-80 -72q-8 0 -8 11q0 6 8 20q12 25 19 43l2 12q-41 14 -41 21q0 6 39 6h12l2 8 q4 20 4 25q0 6 -4 6q-2 0 -8 -2q-23 -6 -43 -6q-14 0 -43 7t-29 17v-14q0 -76 -36.5 -147.5t-81.5 -71.5q-8 0 -9 8zM575 1413l5 12q8 29 16 49.5t16 28.5h-2q41 53 41 156q0 55 -11 107.5t-32 76.5q49 -18 70.5 -76.5t21.5 -144.5q0 -78 -35.5 -147.5t-80.5 -69.5 q-8 0 -9 8z" />
<glyph unicode="&#xa3;" horiz-adv-x="1472" d="M41 45q0 10 4 14q63 147 117 330q49 172 49 352v4q2 18 2 37q0 23 -3 42.5t-9 25.5l-6 6h-72l-19 72h80q-6 29 -22 94q-23 88 -35 151.5t-12 118.5q2 16 5 51t9 80t15.5 80t19.5 35h2q59 147 199 250q139 100 329 100t346 -88q145 -82 215 -239q27 -51 27 -123 q0 -94 -58.5 -167t-140.5 -73q-86 0 -145 72.5t-59 167.5q0 8 3 32.5t8 50t13 44t17 18.5h-7h-2q-45 0 -69.5 -2t-45 -8t-41 -18.5t-53.5 -38.5q-68 -55 -105.5 -144.5t-37.5 -177.5q0 -51 9.5 -99t27.5 -124l10 -41h178l21 -72h-293q14 -55 14 -108q0 -111 -26 -209 q-2 -8 -11 -35q-16 -51 -25 -91t-9 -77v-23q0 -18 17 -40.5t30 -22.5q10 0 10 16v25q6 37 20 98v4l5 17q2 8 8 34q10 39 14 50q25 104 25 206q0 41 -13 109h293l-4 18h55l21 -69h-291q12 -70 12 -111q0 -106 -26 -205q-20 -86 -43 -196q172 2 321 35q78 18 140.5 60 t95.5 103q37 68 108 68q29 0 41 -33l2 -4q2 -8 2 -18q0 -29 -17 -63t-52 -83q-41 -59 -49 -82q-2 -6 -13 -43q-25 -84 -50 -135t-73 -51q-10 0 -55 2t-82 4t-67.5 4t-40.5 2q-53 2 -271 2q-109 0 -415 -16l-33 -2q-12 0 -25.5 14.5t-13.5 32.5zM168 -47h12q78 4 102.5 5 t98.5 5q51 2 111 4q27 2 47 2q37 0 47 2q219 0 272 -2h12l99 -6q117 -6 135 -8q43 0 63.5 29.5t38.5 87.5q4 14 6 20q14 47 31 94q10 35 55 101q39 59 56 94q4 4 6 14t6 14.5t20 4.5q20 0 33 -16.5t13 -39.5q0 -31 -19.5 -63.5t-46.5 -67.5q-25 -33 -37 -60.5t-31 -78.5 q-8 -27 -16 -47q-16 -63 -37.5 -100t-68.5 -37h-13q-76 4 -198 8q-18 2 -35 2q-53 2 -273 2q-205 -2 -450 -20q-14 0 -26.5 17t-12.5 34v2v2v2zM436 1288q0 -84 25 -176q16 -57 49 -188h47v-2q-4 14 -6 22l-12 47l-19 74q-25 86 -24 176q0 90 37.5 178t107.5 144l18 16 q51 41 78 45q35 6 111 6q6 0 20.5 -2t33 -4t32.5 -5t14 -7l2 6q0 10 -18.5 20.5t-45 19.5t-54 15t-39.5 6q-78 0 -117 -11t-94 -60q-72 -59 -109 -145.5t-37 -174.5zM1077 1157q31 -12 68 -12q84 0 142.5 73.5t58.5 163.5q0 23 -12.5 70t-33 98.5t-50 90t-64.5 45.5 q31 -8 62.5 -34t59 -62t48 -69.5t35.5 -64.5q29 -63 28 -125q0 -90 -58 -163.5t-142 -73.5q-85 0 -142 63z" />
<glyph unicode="&#xad;" d="M41 571v64h868v-64h-868zM100 526v27h838v37h35v-64h-873z" />
<glyph unicode="&#x2000;" horiz-adv-x="1035" />
<glyph unicode="&#x2001;" horiz-adv-x="2071" />
<glyph unicode="&#x2002;" horiz-adv-x="1035" />
<glyph unicode="&#x2003;" horiz-adv-x="2071" />
<glyph unicode="&#x2004;" horiz-adv-x="690" />
<glyph unicode="&#x2005;" horiz-adv-x="517" />
<glyph unicode="&#x2006;" horiz-adv-x="345" />
<glyph unicode="&#x2007;" horiz-adv-x="345" />
<glyph unicode="&#x2008;" horiz-adv-x="258" />
<glyph unicode="&#x2009;" horiz-adv-x="414" />
<glyph unicode="&#x200a;" horiz-adv-x="115" />
<glyph unicode="&#x2010;" d="M41 571v64h868v-64h-868zM100 526v27h838v37h35v-64h-873z" />
<glyph unicode="&#x2011;" d="M41 571v64h868v-64h-868zM100 526v27h838v37h35v-64h-873z" />
<glyph unicode="&#x2012;" d="M41 571v64h868v-64h-868zM100 526v27h838v37h35v-64h-873z" />
<glyph unicode="&#x2013;" horiz-adv-x="1105" d="M41 571v64h954v-64h-954zM106 526v27h921v37h38v-64h-959z" />
<glyph unicode="&#x2014;" horiz-adv-x="2129" d="M41 571v64h1907v-64h-1907zM171 526v27h1841v37h77v-64h-1918z" />
<glyph unicode="&#x202f;" horiz-adv-x="414" />
<glyph unicode="&#x205f;" horiz-adv-x="517" />
<glyph unicode="&#x25fc;" horiz-adv-x="1474" d="M0 0v1475h1475v-1475h-1475z" />
</font>
</defs>
</svg>
