<?xml version="1.0" standalone="no"?>
<!DOCTYPE svg PUBLIC "-//W3C//DTD SVG 1.1//EN" "http://www.w3.org/Graphics/SVG/1.1/DTD/svg11.dtd" >
<svg xmlns="http://www.w3.org/2000/svg">
<metadata></metadata>
<defs>
<font id="boltontitlingoutlineregular" horiz-adv-x="1116" >
<font-face units-per-em="2048" ascent="1638" descent="-410" />
<missing-glyph horiz-adv-x="819" />
<glyph horiz-adv-x="0" />
<glyph horiz-adv-x="682" />
<glyph unicode=" "  horiz-adv-x="819" />
<glyph unicode="&#x09;" horiz-adv-x="819" />
<glyph unicode="&#xa0;" horiz-adv-x="819" />
<glyph unicode="!" horiz-adv-x="516" d="M41 154q0 -31 59 -56q63 -180 158 -180q94 0 158 180q59 25 59 56q0 96 -59 163q-68 72 -158 72t-158 -72q-59 -68 -59 -163zM55 1327q0 -8 2 -51v-59l49 -1000q139 98 162 105q14 0 152 -91l4 -2q0 262 16 568q17 219 25 420q0 39 2 83v72q0 254 -31 377 q-74 238 -170 238q-98 0 -172 -232q-39 -143 -39 -428zM123 154q0 63 39 108q41 45 96 45t96 -45q39 -45 39 -108t-39 -109q-39 -45 -96 -45t-96 45t-39 109zM137 1327q0 266 37 408q41 170 92 170t90 -174q29 -121 29 -359v-69q-2 -45 -2 -84q-8 -209 -25 -428 q-16 -229 -16 -426q-74 39 -84 38q-10 -2 -76 -43l-43 859v57q-2 43 -2 51z" />
<glyph unicode="&#x22;" horiz-adv-x="622" d="M41 1735q6 -160 43 -215.5t117 -55.5t115.5 54.5t35.5 216.5v223h-311v-223zM123 1735v141h147v-141q0 -113 -16 -151t-53 -38q-39 0 -57.5 39t-20.5 150zM270 1735q6 -160 43 -215.5t117 -55.5t116 54.5t36 216.5v223h-312v-223zM352 1735v141h148v-141 q0 -113 -16.5 -151t-53.5 -38q-39 0 -57.5 39t-20.5 150z" />
<glyph unicode="#" d="M41 377h272l-47 -354h223l48 354h-13l-45 -354h221l48 354h327v227h-301l2 6h299v228h-270l49 374h-225l-49 -374h14l49 374h-225l-47 -374h-330v-228h301v-6h-301v-227zM123 459v63h291l20 170h-311v64h319l47 374h60l-49 -374h151l49 374h60l-49 -374h282v-64h-291 l-20 -170h311v-63h-317l-47 -355h-58l45 355h-151l-47 -355h-58l48 355h-285zM471 522h154l20 170h-153zM553 604h10l2 6h-12v-6z" />
<glyph unicode="$" horiz-adv-x="1241" d="M41 250q0 -129 61 -148q111 -127 314 -159l-25 -262h209l23 235q6 4 18 4q188 0 375 146q184 145 184 389q-12 297 -209 401q-131 80 -274 117l4 49q16 -10 31 -27q53 -37 88 -88q2 4 6 15q14 31 24 55q43 -154 99 -154q119 0 118 121v10q-2 10 -2 15q-10 47 -32 106 q-14 35 -27 90q-12 68 -94 107q-18 6 -43 18l-6 2q-51 31 -135 45l24 275h-211l-18 -246q-8 2 -31 6q-27 4 -43 6v-16q2 0 10 2h10q-141 0 -251 -55q-84 -41 -125 -117t-41 -195q0 -133 67 -213q70 -88 174 -118q57 -31 109 -45q10 -4 27 -9q14 -4 24 -8l-29 -336 q-27 -10 -41 -32q-55 127 -79 245q-6 16 -21 64q-27 115 -141 114q-121 0 -121 -135v-78v-100v-96zM123 250v96v100v78q0 53 39 54q49 0 61 -52q8 -35 23 -71q29 -82 92 -172q63 -88 178 -125l45 508q-78 20 -115 32q-55 18 -100 43q-86 25 -143 95q-49 61 -49 161 q0 176 120 238q98 47 215 47h31q27 -2 31 -2v2q16 -2 49 -6q10 -2 16 -2l21 256h45l-23 -262q121 -18 185 -49q25 -14 59 -25q37 -14 43 -45q12 -59 31 -105q20 -51 27 -83q0 -4 2 -11v-6q0 -39 -37 -39q-18 0 -35 19q-6 8 -14 16q-10 10 -13 14q-37 59 -110 109 q-72 47 -148 76l-20 -230q172 -41 323 -125q158 -86 166 -331q0 -203 -153 -324q-162 -127 -324 -127q-66 0 -92 2l-23 -242h-45l23 250q-229 35 -357 160q-25 10 -24 78zM354 1071q0 -39 47 -74q41 -33 93 -53q25 -8 90 -24l20 231q-43 14 -86 14q-55 -4 -115 -24 q-49 -18 -49 -70zM430 1063q47 16 92 20q-4 1 -6 11l-6 -72h12q-39 16 -71 41q-14 2 -15 8q0 -4 -6 -8zM561 147q8 0 25 -2q31 -4 57 -4h10q80 0 152 64q76 68 76 180q-2 86 -37 135q-41 51 -109 92q-57 20 -129 41zM643 223q2 0 6 4l2 2l29 318q4 -2 14 -6q4 -2 6 -2 q43 -25 78 -68q16 -29 21 -88q0 -76 -47 -117q-49 -43 -99 -43h-10z" />
<glyph unicode="%" horiz-adv-x="1343" d="M41 -82h242l927 1274l-26 -27q16 0 30 25q12 18 21 27v18l68 121h-68v121v-2q-18 -57 -36.5 -88t-55.5 -31h-72l-14 -31q-113 -43 -207 -43q-168 0 -383 125v-23q-6 -12 -14 -12q-158 0 -265 -229q-104 -68 -104 -166q0 -160 104 -275q109 -123 265 -122q156 0 264 120 q104 117 104 277q0 23 135 39q-57 76 -106 76q6 0 12 -41zM166 977q0 127 84 221q84 92 203 92q43 0 96 -16v4q168 -78 301 -78q119 0 266 62l6 12h21q6 0 10 4v-4h10l-10 -19v-4l-2 -2q0 -2 -2 -2l-2 -2l-905 -1245h-41l886 1223q-131 -49 -237 -49q-96 0 -207 38 q96 -96 96 -235q0 -127 -84 -221t-202 -94q-121 0 -203 94q-84 94 -84 221zM328 975q0 -109 37 -182q37 -74 88 -78q53 0 90 71q33 66 32 189q-2 111 -28 190q-24 76 -96 76t-97 -78q-27 -78 -26 -188zM410 975q0 100 22 162q7 22 19 22q16 0 18 31q23 -86 25 -215 q0 -96 -25 -152q-6 -27 -14 -26q-10 0 -17 -41q-29 92 -28 219zM524 305q0 -158 107 -276q109 -117 262 -117q158 0 264 117q104 117 105 276q0 96 -105 164q-106 229 -264 229t-264 -229q-104 -68 -105 -164zM606 305q0 125 84 219q84 92 203 92q121 0 203 -92 q84 -94 84 -219q0 -127 -84 -221q-84 -90 -203 -90t-203 90q-84 94 -84 221zM768 305q0 -106 37 -184q37 -74 90 -78q53 0 88 72q35 76 35 190q-2 111 -29 187q-24 75 -96 75t-98 -78q-27 -74 -27 -184zM850 305q0 98 22 158q7 22 21 22q16 0 18 -18q23 -63 25 -164 q0 -90 -27 -153q-2 -25 -12 -25q-8 0 -18 33q-29 63 -29 147z" />
<glyph unicode="&#x26;" horiz-adv-x="1548" d="M41 647q0 -106 31 -209q86 -293 344 -428q156 -80 305 -80q102 0 213 35v2q-29 0 -41 25q41 -72 127 -72q94 14 180 14q98 0 197 -14q57 0 83.5 19.5t26.5 74.5q0 27 -18 60q-80 106 -131 106q-12 0 -53 78q14 -10 17 -20.5t3 -26.5q0 -6 -2 -21l-2 -6q55 51 76 80 q45 63 45 119q-12 33 -17 121q-2 33 -3 57.5t-1 69.5q0 111 -100 110q-4 0 -8 -2q-8 -2 -13 -2h-14q-98 -25 -98 -135l2 -14q-18 -82 -80 -178q47 12 78 12l24 -27l-6 6q-6 6 -8 13q-18 33 -76 131q-47 80 -57 98q-63 100 -184 322q-39 29 -74 55q-16 51 -49 151l-19 58 q0 2 -2 2q6 -8 6 -21q0 -41 -32 -53q25 6 75 6q55 0 111 -12q96 -23 160 -78q51 -49 119 -49l32 10q63 47 64 96q0 27 -33 89q-53 53 -86 118q-25 41 -43 56q-25 35 -94 41q-51 12 -150 12q-143 0 -262 -47q4 4 17 4q12 0 24 -4q-10 16 -29 53q-4 8 -12 25q-8 12 -10 18 t-12 37q-12 31 -17 43q-10 25 -10 33h2h12q-8 -8 -24 -9q2 0 2 -4l2 -4q33 20 41 31v-68v2q-2 4 -2 7q-8 -20 -8 -68q0 -45 14 -74q12 -31 18 -37q33 -51 95 -51q31 0 59 15q74 39 80 114q0 29 16 45q45 68 78 183q20 6 21 8q0 41 -19 78q0 -12 -6 -37q-2 -14 -2 -17 q-45 135 -117 207q-67 43 -135 43q-18 4 -57 4q-49 0 -109 -16q-242 -82 -285 -279q-10 -31 -10 -104q0 -141 80 -330q8 -16 8 -22q0 10 8 18q-162 -125 -237 -356q-39 -129 -39 -240zM123 647q0 100 35 215q63 203 211 318q23 18 22 45q0 18 -14 53q-74 170 -74 299 q0 57 8 82q33 156 230 223q43 12 84 12q31 0 45 -4q53 0 104 -30q53 -35 86 -101q2 -4 6 -16q12 -20 13 -45q0 -20 -13 -45q-27 -55 -61 -86q-37 -37 -41 -99q-2 -31 -35 -47q-12 -6 -22 -6q-16 0 -27 19q-4 4 -10 22q-8 14 -8 39q0 31 8 45q0 4 2 8v6q0 14 -8 31 q-14 29 -62 70q-33 27 -57 26q-16 0 -25 -8q-33 -18 -45 -51v-6q-2 -4 -2 -8q0 -14 12 -54l2 -6q23 -61 31 -84q6 -14 27 -51l8 -14q12 -27 20 -41q18 -37 48 -37q14 0 20 4q102 39 225 39q88 0 135 -12q39 -2 52 -17q12 -12 28 -39q35 -68 93 -129q16 -27 16 -37t-16 -20 l-13 -4q-27 0 -45 24q-84 72 -201 101q-59 14 -129 14q-66 0 -96 -8q-29 -6 -28 -27q0 -14 6 -22l2 -4q0 -2 2 -4q10 -20 39 -76q16 -27 24 -45q35 -63 74 -135q117 -211 186 -324q84 -141 131 -225q4 -6 13 -19q6 -8 8 -12l6 -4q10 0 27 27q72 115 92 215l-2 24q0 39 28 49 h2q4 0 13 2q4 2 8 2q18 0 18 -28q0 -47 1 -71.5t3 -59.5q2 -94 17 -131q0 -25 -27 -52q-18 -25 -69 -73q-20 -20 -21 -33q0 -10 6 -14q84 -98 109 -99q25 0 61 -67q6 -8 6 -17q0 -12 -22 -12q-100 14 -203 14q-88 0 -186 -14q-33 0 -49 29q-8 18 -31 18h-6q-4 -2 -8 -2 q-104 -35 -199 -35q-131 0 -268 70q-225 119 -303 381q-27 86 -27 184zM385 827q0 -133 43 -272q59 -197 190 -307q113 -94 236 -94q10 0 20 2h19q37 0 37 32q0 20 -8 33q-20 47 -95 201l-18 41q-96 195 -234 450q-10 18 -20 41q-10 20 -20 39q-29 49 -41 72q-14 27 -29 27 q-14 -10 -29 -37q-51 -90 -51 -228zM422 1026q2 -2 6 -10q25 -45 35 -64q10 -18 20 -39q10 -20 21 -39q117 -217 231 -446q76 -158 115 -246q-2 2 -2 6q0 49 45 50h-19q-10 -2 -20 -2q-94 0 -182 75q-113 94 -166 269q-39 123 -39 247q0 113 41 187q-12 -4 -16 -4 q-31 0 -70 16z" />
<glyph unicode="'" horiz-adv-x="393" d="M41 1735q0 -160 36 -215.5t120 -55.5t119.5 55.5t35.5 215.5v223h-311v-223zM123 1735v141h147v-141q0 -111 -17 -150t-56 -39t-56.5 39t-17.5 150z" />
<glyph unicode="(" horiz-adv-x="569" d="M41 969q0 -420 70 -725q165 -468 417 -566q-127 248 -198 650q-41 299 -41 641q0 332 41 614q72 418 196 682q-252 -106 -415 -571q-70 -309 -70 -725zM123 969q0 403 67 706q66 303 164 371q-68 -174 -106 -451q-41 -289 -41 -626q0 -338 41 -631q38 -279 106 -447 q-100 66 -164 369q-68 305 -67 709z" />
<glyph unicode=")" horiz-adv-x="569" d="M41 -307q250 111 418 608q70 291 69 690q0 416 -69 725q-170 467 -418 572q125 -264 197 -682q41 -283 41 -615t-41 -616q-72 -418 -197 -682zM213 -88q68 174 106 450q41 291 41 629t-41 627q-39 276 -106 450q98 -68 166 -370q68 -303 67 -707q0 -403 -67 -708 q-68 -303 -166 -371z" />
<glyph unicode="*" horiz-adv-x="524" d="M41 1477l49 -52q-43 0 -43 -2q18 0 115 -22q14 -39 100 -39q61 0 94 39q43 23 56 22l37 17l34 35q0 10 -39 36q-16 72 -38 146q20 25 38 55q18 43 28.5 79t10.5 50l-26 25l-27 26q-12 0 -74 23q-33 39 -94 39q-84 0 -100 -41q-53 -20 -68 -21l-26 -26l-27 -27 q0 -33 39 -125q12 -25 37 -57q-29 -37 -39 -53q-37 -98 -37 -127zM123 1511q0 10 24 48q25 39 80 100q-53 57 -80 100q-25 35 -24 45l2 4l4 2q19 0 111 -92q4 154 22 154q16 0 25 -152q84 90 108 90l4 -2l2 -2q0 -12 -24 -47q-29 -41 -80 -100q55 -66 80 -103t24 -47l-2 -2 l-6 -2q-23 0 -106 90q-8 -152 -25 -151q-18 0 -22 151q-90 -90 -111 -90q0 2 -4 2z" />
<glyph unicode="+" d="M41 489h408v-444h221v444h405v228h-405v448h-221v-448h-408v-228zM123 571v64h407v448h58v-448h405v-64h-405v-444h-58v444h-407z" />
<glyph unicode="," horiz-adv-x="514" d="M41 137q0 -94 61 -155q63 -66 154 -66h-29q-20 10 -20 39q0 -10 -14 -39q-23 -59 -23 -86q0 -29 12.5 -47.5t27.5 -26.5t26.5 -10t17.5 -2q61 0 141 88q37 47 62 139q16 55 16 123v23q-2 18 -2 22q-29 219 -215 219q-86 0 -156 -65q-59 -66 -59 -156zM121 137q0 59 37 99 q41 41 96 40q119 0 133 -141q0 -4 2 -20v-21q0 -49 -12 -102q-18 -74 -47 -109h-2q-43 -57 -76 -57q-2 0 -2 4q0 18 16 53q20 51 21 72q0 16 -8 25q-20 18 -25 18q-55 0 -94 41q-39 39 -39 98z" />
<glyph unicode="-" d="M41 489h1034v228h-1034v-228zM123 571v64h870v-64h-870z" />
<glyph unicode="." horiz-adv-x="516" d="M41 446q0 -92 63 -155q66 -66 154 -66t154 66q63 63 63 155t-63 156q-66 66 -154 66t-154 -66q-63 -63 -63 -156zM123 446q0 59 39 99q41 41 96 41t96 -41q39 -39 39 -99q0 -59 -39 -98q-41 -41 -96 -41t-96 41q-39 39 -39 98z" />
<glyph unicode="/" horiz-adv-x="972" d="M41 -33h240l651 1919h-240zM156 49l596 1755h65l-596 -1755h-65z" />
<glyph unicode="0" horiz-adv-x="1566" d="M41 944q0 -414 225 -717q240 -309 516 -309q281 0 516 285q225 274 228 741q0 471 -236 739q-250 285 -508 285q-262 0 -508 -309q-233 -297 -233 -715zM123 944q0 389 217 664q215 278 442 278t447 -256q215 -252 215 -686q-2 -434 -209 -690q-209 -254 -453 -254 q-242 0 -450 276q-209 281 -209 668zM418 862q0 -285 96 -500q100 -231 260 -231q154 12 246 229q92 215 110 580q0 23 3 51v49q0 293 -82 482q-97 225 -277 225q-180 -2 -260 -238q-82 -233 -94 -569v-41q-2 -31 -2 -37zM500 862q0 6 2 37v39q12 324 90 545q55 180 182 182 q133 0 201 -176q76 -176 76 -449v-47q-2 -29 -2 -51q-18 -387 -105 -614q-66 -109 -174 -115q-111 0 -180 182q-90 203 -90 467z" />
<glyph unicode="1" horiz-adv-x="940" d="M41 1260q0 -49 59 -107q14 -23 36 -28t57 -5q4 0 10 2q8 2 12 2q47 0 82 35q4 4 10 8l4 2q20 20 45 33q16 10 47 29q15 8 29 16q-10 -10 -33 -10q-12 0 -18 6q-14 10 -19 35v-182v-183q0 -51 3 -106v-88q0 -233 -13 -350q-12 -133 -33 -191q8 -8 15 -8q-80 -6 -119 -141 v-9q-2 -6 -2 -14q0 -100 125 -100q41 8 117 14h18q70 4 92 4q66 0 105 -2q47 -2 110 -10q63 0 91 23.5t28 87.5q0 59 -40 95t-99 36q16 -2 31 -2q-20 0 -43 -2q41 0 61 -3q-20 47 -33 170q-10 74 -14 200t-4 343q0 106 2 193q0 174 2 266q0 182 2 264q2 74 2 158 q14 43 14 80q0 123 -108 131q-2 0 -8 2h-11q-41 0 -90 -23l-4 -4q-31 -31 -49 -65q-35 -70 -76 -148q-35 -59 -82 -123q-47 -57 -114 -102q-104 -76 -144 -117q-18 -16 -37 -53q-10 -18 -13 -29.5t-3 -29.5zM123 1260q0 10 6 18q12 27 23 37q43 43 133 106q78 51 131 119 q45 59 90 133l10 21q43 80 68 131q10 20 26 37q25 10 43 10h9l6 -2q31 -2 30 -49q0 -29 -14 -64q0 -94 -2 -176t-2 -262q-2 -92 -2 -266q-2 -86 -2 -193q0 -221 4 -349t14 -204q18 -158 45 -203q25 -37 43 -36q4 2 9 2q2 0 4 2q23 0 22 -49q0 -29 -33 -29q-63 8 -110 10 q-41 2 -109 2q-25 0 -98 -4h-18q-78 -6 -119 -14q-35 0 -35 18q0 4 2 8v4q14 66 45 70q27 2 51 55q27 59 41 217q12 121 12 359v88q-2 55 -2 106v183v186q-2 25 -24 33q-6 4 -21 4q-12 0 -18 -6q-16 -10 -23 -15q-29 -18 -41 -24q-33 -18 -63 -45q-2 -2 -4 -2l-10 -10 q-10 -10 -25 -11q-4 0 -12 -2q-6 -2 -10 -2q-27 0 -35 10q-35 25 -35 48z" />
<glyph unicode="2" horiz-adv-x="1419" d="M41 1376q6 -313 235 -473q4 -2 13 -8q10 -6 14 -8q8 -4 25 -13q76 -33 149 -32q254 0 328 178q-2 -4 -4 -12q-2 -12 -6 -19h2q16 25 20 47.5t4 50.5q0 145 -133 146q-51 0 -94 -45q-41 -35 -100 -35q-12 0 -29 12q-39 31 -62 72h5q-8 39 -9 106q0 94 74 177q68 78 156 77 q61 0 92 -6q23 -6 63 -43q53 -41 74 -90q43 -86 43 -203q-8 -84 -39 -151q-41 -92 -74 -139q-53 -66 -83 -95q-49 -51 -87 -82q-43 -27 -73 -51l-2 -2q-186 -145 -283 -291q-102 -147 -174 -335q-10 -10 -13 -24.5t-3 -37.5q0 -29 18 -65q49 -66 105 -66q186 14 393 21 q129 0 234.5 -4.5t213.5 -12.5q115 0 150 100q23 57 33 101q8 45 22 80q14 90 41 174q37 8 51 12q16 20 17 70q0 37 -9 57q-30 82 -112 82q-119 0 -168 -113q-61 -115 -193 -131q-164 -23 -401 -26q8 0 10 8q29 0 36 -16.5t7 -55.5v-14q76 109 213 205q111 76 285 206 q141 106 252 246q111 145 110 361q0 164 -69 350h-6q-59 137 -203 233q-166 119 -381 119q-272 0 -471 -162q-207 -170 -207 -430zM123 1376q0 221 176 367q178 143 420 143q188 0 332 -102q139 -102 196 -250h2q47 -141 47 -268q0 -188 -94 -310q-102 -131 -235 -231 q-166 -125 -283 -205q-145 -98 -235 -229q-12 -20 -13 -29q0 -10 4 -10q8 -8 25 -8q244 4 412 26q174 23 256 179q28 65 94 65q25 0 35 -29q4 -10 4 -28q0 -20 -6 -29q-20 -55 -50 -98q-29 -47 -47 -99q-12 -29 -26 -90q-14 -55 -31 -92q-16 -47 -68 -47q-109 10 -216 13 t-238 3q-211 -6 -396 -20q-16 0 -28 22q-8 16 -8 27q0 12 4 16q74 197 172 336q92 139 268 275l2 2q35 27 66 45q49 37 100 92q49 49 92 105q43 66 82 153q37 90 45 180q0 141 -51 240q-27 68 -96 121q-63 51 -99 59q-49 8 -108 8q-121 0 -217 -104q-94 -106 -95 -232 q0 -109 41 -188h2q23 -33 58 -57q35 -27 76 -27q96 0 159 62q16 18 35 18q51 0 51 -64q0 -10 -2 -16h-2q0 -2 -2 -8q0 -6 -2 -8q-57 -131 -254 -131q-55 0 -110 22q-12 8 -19 12q-6 2 -26 15q-193 135 -199 403z" />
<glyph unicode="3" horiz-adv-x="1513" d="M41 489q0 -213 180 -393q178 -180 451 -180q139 0 276 68q139 66 250 170q113 139 191 323q82 109 84 217q0 147 -24 261t-75 212q-121 225 -348 289q33 -12 33 -57q0 25 -2 57v33q57 84 135 174q27 10 55 20q74 25 105 37q47 59 53 121q0 63 -29 93t-82 30 q-172 -12 -413 -16q-121 0 -219.5 4t-198.5 14q-59 0 -103 -53q-18 -25 -30 -51q-70 -141 -140 -232q-37 -43 -43 -112q0 -70 26 -99.5t83 -29.5q109 0 184 120q37 43 170 56q61 10 174 10q45 0 119 -8v2l-2 2l-35 33q0 23 -2 45q-61 -80 -153 -183q-115 -119 -174 -174 q-55 -55 -56 -131q0 -117 107 -117q70 0 112 29q16 6 31 6q129 0 213 -114q72 -102 72 -228q0 -31 -6 -71q-2 -223 -101 -404q-86 -27 -227 -26q-98 0 -162 75q-72 82 -71 181v26q-2 18 -3 23q0 53 19 86q14 23 49 39q96 66 96 139v26q-16 74 -47 89q-18 14 -48 20t-83 6 q-76 -2 -129 -33q-262 -121 -262 -424zM123 489q0 250 217 351q37 23 94 24q61 0 84 -14q6 -4 10 -25v-20q0 -37 -55 -68q-55 -33 -78 -67q-31 -49 -30 -129q0 -4 2 -23v-26q0 -129 92 -234q90 -104 223 -104q180 0 293 155q115 158 117 350q6 43 6 78q0 152 -88 277 q-113 147 -279 147q-39 0 -74 -18q-25 -16 -69 -17q-25 0 -25 35q0 41 31 72q100 96 176 178q84 92 160 191q18 29 18 36l-2 4q-8 2 -33 7q-82 8 -129 8q-119 0 -184 -10q-180 -20 -229 -95q-47 -82 -115 -82q-27 0 -27 43q4 41 25 66q80 104 152 250q8 20 20 35 q14 20 33 20q102 -10 201.5 -14t220.5 -4q243 4 415 16q27 0 27 -37q-2 -33 -33 -69q-55 -57 -157 -168q-80 -88 -142 -168q-12 -14 -14 -35q0 -23 31 -29q190 -55 292 -246q45 -90 68 -194.5t23 -241.5q-2 -131 -74 -258q-70 -125 -174 -223q-102 -96 -230 -156 q-121 -59 -241 -59q-238 0 -393 156q-156 154 -156 335z" />
<glyph unicode="4" horiz-adv-x="1484" d="M41 436q0 -70 30.5 -103.5t98.5 -49.5h711q20 0 32 -2q-59 0 -59 30q-4 -100 -8 -123q4 6 10 7q-6 -2 -18 -11q-14 -8 -23 -12q-43 -18 -106 -135q0 -55 32 -96q39 -35 90 -35q41 8 115 14h21q63 4 88 4q49 0 96 -8q25 -2 72 -8l37 -6q121 0 120 114q-8 90 -43 113 q-8 6 -26 25q-6 -6 -15 -29q-2 -4 -2 -6q-16 57 -24 186q0 49 2 72q-6 -94 -29 -94h62q139 0 139 143v70q0 141 -139 141h-74q27 0 26 -41q-6 23 -6 45q-2 39 -2 129q0 96 2 152q2 98 4 221t5 221q0 41 4 260q2 145 4 264q-6 0 -11 -39q-18 106 -124 115q-117 -8 -179 -123 q-176 -362 -405 -739q-146 -179 -445 -531q-51 -53 -63 -135zM123 428q10 55 45 90q207 287 448 631q221 315 410 653q37 74 107 80q37 -2 43 -43q4 -33 8 -33q-4 -295 -6 -440q-2 -98 -4 -221t-5 -221q-2 -55 -2 -154q0 -92 2 -131q0 -29 7 -57q2 -27 55 -27h74 q57 0 57 -59v-70q0 -61 -57 -61h-62q-33 0 -45 -25q-10 -20 -10 -39q12 -106 31 -149q18 -45 36 -60q12 -12 29 -24q12 -10 14 -54q0 -31 -32 -30q-16 2 -33 4q-45 8 -72 10q-51 8 -106 8q-23 0 -97 -4h-18q-78 -8 -117 -14q-12 0 -22 12q-10 8 -10 18q35 70 59 80 q8 4 24 13q12 8 19 10q18 10 31 43q10 33 12 145q0 53 -16 53q-14 2 -39 3h-703q-55 12 -55 63zM391 555q0 -14 19 -14h6q6 2 10 2l442 12h39q31 4 31 61q0 88 -2 138q0 16 -2 80q0 43 -2 79v199q0 133 2 199q0 57 -12 57q-6 0 -11 -8q-6 -8 -12 -14q-16 -21 -18 -25 q-113 -190 -240 -369q-125 -172 -240 -360q-10 -12 -10 -37zM410 623q63 0 63 -68q0 -8 -4 -10q115 188 240 360q147 211 241 373q6 10 31 37q-14 -18 -32.5 -23.5t-26.5 -5.5q-70 0 -70 27q-2 -66 -2 -201v-201q2 -35 2 -75q2 -63 2 -78q2 -51 2 -142q0 20 47 21h-37 l-442 -12q-4 0 -8 -2h-6z" />
<glyph unicode="5" horiz-adv-x="1445" d="M41 412q0 -291 203 -414q188 -117 448 -117q287 0 508 238q205 227 205 514v20q-2 14 -2 19q0 360 -201 569q-211 221 -500 221q-150 -6 -276 -57q4 2 10 2q33 0 47.5 -15.5t14.5 -54.5q4 18 4 70q-2 16 -2 53v41v60q-2 4 -2 16q0 -61 -43 -61q74 6 221 6q92 0 260 -9h6 q16 -6 43 -6h2q29 0 51 2q72 0 123 99q35 78 101 161q33 45 32 86q0 20 -8 48q-2 8 -4 12q-43 59 -141 59q-51 -27 -74 -43q-4 -4 -6 -4q-111 -14 -207 -14q-18 0 -66 4q-41 2 -67 2q-264 16 -467 39v-10q72 0 106 -6q-12 10 -28 10l-8 2q-47 0 -101 -39q-31 -37 -30 -86 q4 -84 12 -170q8 -84 8 -191q0 -92 -8 -172q-10 -92 -12 -182q-2 -31 -3 -94q0 -143 140 -143q43 0 110 53q14 16 99 74q41 25 90 24q18 0 59 -4q117 -18 193 -121q84 -106 86 -293q0 -190 -80 -295q-80 -102 -197 -120q-14 -2 -43 -2q-92 0 -153 67q-66 66 -66 168 q0 139 100 174h-2q109 16 109 135q0 133 -127 133q-12 0 -25 2h-22q-168 0 -281 -100q-135 -111 -139 -360zM123 412q4 207 110 299q92 80 228 80h22q12 -2 25 -3q45 0 45 -51q0 -47 -35 -53h-2q-170 -49 -170 -256q0 -133 88 -225q86 -92 213 -92q35 0 53 2q147 25 250 151 q98 123 99 346q-2 215 -103 342q-98 131 -246 152q-37 6 -71 6q-80 0 -137 -39q-90 -61 -111 -84q-31 -29 -51 -29q-57 0 -58 62q0 61 2 90q4 90 13 178q8 82 8 180q0 100 -8 183q-8 92 -13 180q0 16 11 31q10 10 20 10l8 -2q6 0 11 -2q4 -2 12 -2v2q186 -18 383 -31 q27 0 69 -2q47 -4 66 -4q113 0 223 16q23 6 41 21q14 10 41 24q35 0 49 -18l2 -2q2 -10 2 -17q0 -18 -14 -34q-76 -94 -113 -181q-20 -49 -51 -49q-20 -2 -47 -2h-2q-10 0 -16 4q-160 10 -293 11q-150 0 -225 -7q-35 0 -35 -20q0 -25 2 -31v-45v-41q0 -39 2 -57 q0 -39 -4 -53q0 -25 20 -25q14 0 23 4q111 45 246 51q252 0 438 -196q178 -186 178 -512q0 -4 2 -19v-20q0 -258 -182 -459q-199 -211 -449 -211q-236 0 -405 105q-164 102 -164 344z" />
<glyph unicode="6" horiz-adv-x="1497" d="M41 813q0 -461 223 -688q262 -238 645 -238v2q-74 0 -110 -2h39q219 6 422 332q197 170 196 408q0 182 -50 314t-153 226q-201 188 -485 189q-88 0 -115 -56q-127 -190 -278 -337q16 16 43 16q57 -12 57 -68q10 182 72 310q66 201 153 340q76 25 177 45q72 51 135 84 q80 0 121 77q10 37 10 56q0 133 -152 133q-178 0 -354 -119q-170 -115 -305 -281q-135 -174 -215 -364q-39 -92 -57.5 -182t-18.5 -197zM123 813q0 96 17.5 180t52.5 168q74 180 202 344q125 156 287 264q157 105 309 105q70 0 70 -51q0 -4 -2 -17l-2 -4q-20 -31 -66 -30 q-84 -45 -160 -99q-98 -63 -192 -168q-94 -102 -166 -250q-70 -147 -80 -342q0 -12 17 -16q18 0 26 12q158 156 287 348q10 16 45 17q252 0 430 -166q88 -84 132 -200.5t44 -280.5q0 -272 -174 -463q-176 -193 -362 -195h-4q-2 2 -7 2v-2q-299 0 -503 213q-201 207 -201 631 zM440 555q0 -102 99 -268q102 -170 245 -170q145 0 246 129q100 127 100 309q0 178 -100 305q-100 129 -246 129q-143 0 -245 -139q-98 -129 -99 -295zM522 555q0 139 82 246q76 106 180 106q84 0 183 4q82 -150 82 -356q0 -211 -82 -360q-99 4 -183 4q-100 0 -176 131 q-86 139 -86 225z" />
<glyph unicode="7" horiz-adv-x="1372" d="M41 1458q0 -43 14 -61q35 -66 113 -66q123 0 184 129q47 78 219 86q61 8 174 8q80 0 195 -12q-37 0 -37 51q0 8 2 13q-117 -256 -354 -754q-193 -399 -301 -791v-10q-2 -10 -2 -12q0 -27 12 -55q12 -39 37 -53.5t74 -14.5q57 10 108 10q47 0 109 -10q4 0 12 -2h10 q104 0 129 121q84 479 242 909q135 385 336 848q14 29 14 61q0 111 -117 111q-43 0 -59 -6q-57 -2 -172 -2q-33 0 -96 2q-66 2 -99 2q-45 2 -206 10q-104 6 -185 10h-6h-6q-59 0 -113 -36q-63 -45 -79 -107q-18 -115 -52 -217q-29 -35 -75 -78q-16 -18 -20.5 -38.5 t-4.5 -45.5zM123 1458q0 25 10 37q41 72 82 160q35 76 57 162q10 35 47 59q31 23 66 22h6h4q80 -4 185 -10q162 -8 206 -10q33 0 99 -2t98 -2q129 0 195 4q10 4 36 4q35 0 35 -29q0 -14 -6 -26q-193 -440 -340 -854q-162 -444 -244 -924q-10 -53 -49 -53h-6q-6 2 -10 2 q-66 10 -115 10q-53 0 -114 -10q-23 0 -29 16q-6 12 -6 25q0 2 2 6v4q106 379 293 768q238 498 354 754q6 12 6 22q0 31 -41 31q-119 12 -199 12q-119 0 -182 -8q-223 -14 -284 -133q-37 -82 -111 -82q-29 0 -41 25q-4 6 -4 20z" />
<glyph unicode="8" horiz-adv-x="1449" d="M41 555q0 -301 201 -471q193 -168 469 -168q272 0 485 195t213 460q0 205 -100 369q-100 172 -267 260v-37q0 -31 -13 -52t-36 -21q33 23 74 59q74 111 127 240q63 49 63 114q0 190 -159 334q-152 139 -385 139q-227 0 -389 -143q-166 -147 -166 -352q4 -176 51 -264 q53 -94 96 -132q61 -51 96 -67q-43 12 -43 63q0 14 13 39q-123 -100 -217 -229q-113 -150 -113 -336zM123 555q0 160 96 287q92 125 211 221q10 14 10 18q0 12 -12 15q-27 12 -68 49q-39 37 -79 110q-37 74 -41 226q0 168 139 291q139 122 334 122q199 0 329 -118 q133 -117 134 -273q0 -90 -50 -162q-51 -74 -116 -133q-20 -20 -43 -37q-6 0 -6 -8q0 -14 43 -37q147 -80 235 -229q88 -145 88 -326q0 -229 -186 -401t-430 -172t-416 147t-172 410zM365 563q0 -4 2 -22v-23q8 -160 112 -289q97 -116 236 -116q133 10 231 92t119 313 q0 125 -55 205q-66 94 -148 158q-90 68 -164 100q-10 4 -16 6q-66 25 -78 25q-104 0 -176 -166q-63 -141 -63 -283zM446 563q0 123 58 250q43 117 100 117q8 0 45 -17q8 -4 19 -8q68 -31 145 -90q72 -53 129 -139q41 -59 41 -154q-14 -188 -90 -254q-76 -67 -180 -73 q-102 0 -170 86q-84 102 -94 239v23q-2 16 -3 20zM461 1528q0 -106 137 -199q135 -92 219 -92q72 12 111 98q39 84 39 193q0 104 -88 178q-88 72 -168 76q-102 0 -174 -72q-76 -76 -76 -182zM543 1528q0 74 51 125q47 47 115 47q59 -4 118 -58q57 -45 58 -114 q0 -125 -31 -228q-14 16 -43 19q-61 0 -168 78q-100 61 -100 131z" />
<glyph unicode="9" horiz-adv-x="1454" d="M41 1280q0 -10 2 -33t2 -35q0 -360 229 -540q229 -186 461 -187q80 0 117 60q25 147 55 229q25 8 119 21q-12 -12 -39 -13q-31 8 -45 27.5t-14 44.5q-12 -180 -80 -328q-70 -66 -164 -116q-96 -92 -182 -148q-63 -39 -140 -84h9q-102 -43 -121 -69q-18 -37 -19 -64 q0 -131 152 -131q172 0 365 115q180 113 331 278q158 176 244 365q47 94 68.5 186t21.5 197q0 463 -186 682q-199 240 -537 241q-205 0 -440 -213q-209 -197 -209 -485zM123 1280q0 254 182 426q203 190 385 190q299 -2 473 -213q168 -201 168 -628q0 -94 -19.5 -178 t-62.5 -170q-88 -184 -231 -345q-143 -160 -313 -264q-170 -102 -322 -102q-70 0 -70 49q0 8 6 21q10 12 64 30h2l4 2q90 53 156 95q96 59 196 157q100 92 177 219q76 125 92 281q0 12 -15 14q-18 0 -28 -12q-92 -74 -127 -125q-35 -49 -62 -143q-12 -16 -43 -17 q-205 0 -409 168q-199 160 -199 477q0 12 -2 35t-2 33zM350 1389q0 -41 10 -103q66 -399 353 -399q106 6 202 69q98 66 121 121q10 27 11 56v14q-2 12 -3 14l-12 99q-8 92 -71 264q-66 169 -244 196q-23 6 -64 6q-137 0 -223 -104q-80 -98 -80 -233zM432 1389q0 106 62 182 q61 74 159 74q31 -1 47 -5q135 -20 185 -145q57 -162 65 -244q2 -20 6 -47t7 -47q0 -2 2 -12v-12q0 -8 -4 -25q-16 -37 -91 -84q-72 -49 -159 -55q-219 0 -269 331q-10 55 -10 89z" />
<glyph unicode=":" horiz-adv-x="516" d="M41 139q0 -90 61 -155q63 -66 156 -66q88 0 154 66q63 63 63 155t-63 156q-66 65 -154 65q-92 0 -156 -65q-61 -63 -61 -156zM41 1022q0 -94 61 -156q63 -66 156 -65q90 0 154 63q63 63 63 158q0 86 -61 154q-64 67 -156 67q-94 0 -156 -67q-61 -68 -61 -154zM121 139 q0 59 39 99q41 41 98 41q55 0 96 -41q39 -39 39 -99q0 -59 -39 -98q-41 -41 -96 -41q-57 0 -98 41q-39 39 -39 98zM121 1020q0 57 39 98q41 43 98 43t96 -43q39 -41 39 -98q0 -59 -39 -98t-96 -39q-59 0 -98 39t-39 98z" />
<glyph unicode=";" horiz-adv-x="516" d="M41 137q0 -94 61 -155q63 -66 154 -66h-29q-20 10 -20 39q0 -10 -14 -39q-23 -59 -23 -86q0 -29 12.5 -47.5t27.5 -26.5t26.5 -10t17.5 -2q61 0 141 88q37 47 62 139q16 55 16 123v23q-2 18 -2 22q-29 219 -215 219q-86 0 -156 -65q-59 -66 -59 -156zM41 1018 q0 -94 61 -156q66 -66 154 -65q94 0 156 65q63 63 63 156q0 90 -63 156q-62 65 -156 65q-86 0 -156 -65q-59 -66 -59 -156zM121 137q0 59 37 99q41 41 96 40q119 0 133 -141q0 -4 2 -20v-21q0 -49 -12 -102q-18 -74 -47 -109h-2q-43 -57 -76 -57q-2 0 -2 4q0 18 16 53 q20 51 21 72q0 16 -8 25q-20 18 -25 18q-55 0 -94 41q-39 39 -39 98zM123 1018q0 59 37 98q41 41 96 41q57 0 98 -41q41 -43 41 -98q0 -57 -41 -98t-98 -41q-53 0 -94 41q-39 39 -39 98z" />
<glyph unicode="=" d="M41 336h1034v221h-1034v-221zM41 547h1034v221h-1034v-221zM123 418v57h870v-57h-870zM123 629v57h870v-57h-870z" />
<glyph unicode="?" horiz-adv-x="1316" d="M41 1530q0 -49 72 -86q78 -197 186 -197q111 0 188 197q74 37 74 86q0 61 -6 106h45q12 2 37 2q35 0 63 -14q47 -25 78 -100q25 -61 25 -164q0 -45 -6 -100q-14 -193 -68 -252q-78 -68 -141 -103q-92 -53 -164 -153q-61 -80 -62 -297q0 -14 3 -109v-133q150 104 167 109 q20 0 154 -95q0 324 49 398q74 51 158 71q119 27 233 123q117 90 148 443q0 6 2 34v35q0 248 -135 426q-156 211 -451 211q-31 8 -96 8q-137 0 -305 -78q-248 -123 -248 -368zM123 1530q0 197 201 295q152 70 270 69q57 0 84 -8q260 0 397 -178q119 -156 119 -377v-33 q-2 -27 -2 -32q-25 -303 -119 -383q-98 -84 -199 -107q-96 -23 -186 -86q-84 -61 -84 -325q-72 39 -82 38q-10 -2 -76 -43v52q-2 37 -2 43q0 182 48 250q59 84 137 129q84 47 155 114q74 70 95 303q6 59 6 109q0 123 -31 196q-45 104 -117 142q-45 23 -100 22q-37 0 -55 -4 q-87 -22 -142 -65q39 -51 39 -121q0 -82 -53 -141t-127 -60q-72 0 -125 60q-51 57 -51 141zM301 154q0 -29 61 -56q63 -180 158 -180q96 0 160 180q59 25 59 56q0 96 -59 163q-68 72 -160 72q-90 0 -158 -72q-61 -74 -61 -163zM383 154q0 61 41 108q41 45 96 45q57 0 98 -45 q39 -45 39 -108t-39 -109q-39 -45 -98 -45q-57 0 -96 45q-41 47 -41 109z" />
<glyph unicode="@" horiz-adv-x="1538" d="M41 850q0 -381 201 -653q211 -285 514 -285q150 0 286 78q186 125 326 336q-279 0 -440 -72q-68 -43 -172 -43q-176 0 -279 172q-117 195 -117 467t117 465q102 172 279 172q178 0 288 -174q123 -193 123 -463q1 -132 -32 -238q-12 -20 -13 -49v8l-16 -39 q-29 -61 -35 -73h23q16 55 39 55q18 0 30 -6q-14 37 -14 74v51q-2 18 -2 55l2 55q2 113 2 148v96q2 4 2 17q2 14 2 18q0 6 2 20q0 59 -37 86q-94 63 -198 93q-94 27 -189 26q-178 0 -354 -135q-20 -14 -26.5 -32.5t-6.5 -43.5q0 -41 41 -88q53 -45 94 -45q25 0 38 7.5 t32 23.5q66 61 174 61h6q49 -4 80 -10q10 4 12 6q6 -8 6 -20q0 39 29 39q-12 0 -18 2q-14 2 -41 2q-199 0 -340 -68q-172 -74 -172 -338q0 -217 192 -291q80 -31 166 -30q94 0 191 39q25 8 47 8q12 0 16 -2q47 -25 74 -37q59 -49 153 -68q117 0 201 97q59 70 103 176 q37 104 51 194q16 104 16 156q0 385 -217 653q-227 283 -524 283q-303 0 -514 -285q-201 -272 -201 -651zM129 854q0 352 184 604t447 252q262 0 461 -252q199 -250 198 -604q0 -57 -14 -143q-14 -90 -49 -181q-35 -90 -88 -153q-55 -66 -131 -66q-70 16 -117 56 q-37 14 -80 39q-25 12 -55 12q-35 0 -76 -15q-80 -33 -162 -32q-70 0 -137 24q-141 55 -141 215q0 207 125 264q129 59 305 60q20 0 30 -2t31 -2q53 0 53 47q-4 31 -14 55q-12 27 -72 37q-55 10 -98 12q-143 0 -233 -86q-6 -6 -13 -6q-16 0 -37 21q-16 16 -16 30q0 10 4 15 q150 115 301 114q80 0 166 -24q90 -27 170 -76q6 -6 6 -18q-2 -14 -2 -21q-2 -20 -6 -31v-106q0 -117 -2 -205v-59v-49q2 -61 23 -107q18 -43 43 -43q39 0 67 109h-2q2 2 6 16v6q0 4 2 6l4 6q43 133 43 283q0 299 -135 510t-356 211t-350 -211t-129 -510q0 -297 129 -510 q129 -211 350 -211q133 0 215 58q82 57 231 57q-88 -117 -202 -184q-113 -68 -246 -68q-262 0 -447 252q-184 252 -184 604zM559 637q0 -96 76 -148q29 -23 74 -22q57 0 127 39q6 2 18 10t16 12q29 18 31 80q0 39 2 62t2 73q4 61 6 80q0 35 -14 41l-18 6q-4 2 -7 2l-2 -2 q-174 -2 -243 -71q-68 -68 -68 -162zM641 637q0 63 45 104q49 48 178 50v-3q-35 6 -35 39q-2 -18 -6 -82q0 -51 -2 -71q-2 -23 -2 -62v-18l-10 -10q-8 -4 -10 -6q-45 -29 -88 -29q-16 0 -29 6q-41 29 -41 82z" />
<glyph unicode="A" horiz-adv-x="1908" d="M41 20q0 -57 27.5 -78.5t91.5 -21.5q96 10 198 14q88 0 181 -14q96 0 125 82q12 27 12 64q0 104 -84 104q-4 2 -12 10q2 2 2 8q0 61 39 170q-15 -28 -48 -28h699q-20 0 -31 14q33 -98 37 -156q0 -12 2 -16l-12 -12q-55 -27 -56 -140q8 -55 86 -92q23 -8 72 -8 q84 10 186 14q84 0 191 -14q66 0 104 137q16 4 17 6l-8 21q-59 111 -111 111q6 0 12 14q-33 31 -98 133q-70 182 -203 621l-8 18l-301 870q-35 51 -60.5 74t-56.5 23q-8 -2 -41 -2q-31 0 -45 -2h-30q-90 0 -177 2q-111 0 -180 8q-37 0 -60.5 -13.5t-37.5 -48.5 q-8 -12 -10 -23t-2 -30q0 -4 2 -12v-8q18 -141 217 -160q57 -4 61 -45q0 -70 -59 -193q-72 -147 -189 -479q-152 -395 -227 -551q-74 -227 -109 -299q8 84 15 84q-41 0 -111 -104q-6 -16 -8 -26.5t-2 -25.5zM123 20q0 10 4 21q23 53 35 53q16 0 51 47q37 49 117 215 q80 170 231 557q109 313 184 473q68 145 68 232q-10 113 -137 123q-129 10 -141 84v6q-2 4 -3 8q0 10 5 16q6 16 20 17q70 -8 182 -8q86 -2 179 -2h36q12 2 39 2q39 0 49 2q14 0 33 -43l301 -875l8 -16q133 -397 203 -557q74 -168 109 -215t53 -47q16 0 35 -60l2 -8 q0 -8 -8 -25q-8 -18 -25 -18q-113 14 -199 14q-102 -4 -190 -14q-27 0 -39 4q-29 10 -31 23q0 51 19 63q16 10 33 31q14 23 14 67q-4 59 -41 177q-12 43 -43 45h-703q-23 0 -30 -29q-43 -129 -43 -199q6 -53 32 -71q25 -18 50 -25q12 0 12 -22q0 -20 -6 -35q-10 -29 -43 -29 q-94 14 -189 14q-104 -4 -200 -14q-33 0 -33 18zM610 588q0 -23 23 -23h581q25 0 25 25q0 29 -2 35q-12 35 -39 108q-6 12 -10 25q-2 4 -27 67q-23 61 -33 88q-90 313 -174 500q-14 25 -24 25q-12 0 -21 -23q-31 -80 -88 -235q-33 -88 -98 -260l-37 -95l-24 -63 q-33 -80 -48 -135q-4 -20 -4 -39zM633 647q59 0 59 -59q0 4 2 12v8q16 55 43 123q14 37 27 70q31 78 35 90q14 37 43 108q35 92 57 152l31 84q37 104 55 151q-22 -30 -53 -30h-2q-23 0 -49 20q88 -197 170 -489l36 -94l25 -64q18 -49 47 -131q-2 -2 -2 -8q0 57 57 57h-581z " />
<glyph unicode="B" horiz-adv-x="1867" d="M41 1858q10 -135 96 -142q-4 -4 -6 -20q23 -55 39 -215q12 -117 12 -342v-103q-2 -63 -2 -121q-8 -387 -30 -553q-18 -188 -39 -262q18 55 34 56q-86 0 -102 -136q0 -108 119 -108h2l20 2q117 10 164 10h94q8 0 50 -2q24 0 47 -2h4h10h8q16 -2 74 -2q115 0 283 -4 q92 0 146 4t99 14q408 82 537 297q125 205 127 402q-2 195 -150 305q-133 217 -368 330q27 -8 35 -20.5t8 -43.5q-8 -29 -31 -41q317 129 317 363q0 49 -28 141q-35 98 -172 180q-119 72 -357 111q-98 18 -270 18q-152 0 -352 -18h-56q-23 2 -65 2q-90 0 -176 12 q-68 0 -94.5 -21.5t-26.5 -90.5zM123 1860q0 29 33 28q90 -12 182 -12q41 0 61 -2h64q197 18 348 18q160 0 256 -16q221 -37 330 -100q106 -63 135 -140q25 -70 24 -112q0 -186 -266 -287q-14 -6 -20 -23q0 -23 12 -26q213 -66 336 -195q125 -129 127 -362 q-2 -176 -115 -359q-115 -186 -483 -260q-43 -8 -96.5 -12t-132.5 -4q-168 4 -283 4q-53 0 -68 2h-14h-10h-2q-23 2 -47 2q-41 2 -50 2h-96q-47 0 -164 -10l-24 -2q-35 0 -35 24q4 55 20 56q20 0 41 55q25 61 45 223q23 170 31 561q0 57 2 123v103q0 231 -12 350 q-18 178 -45 240q-27 61 -55 67q-25 2 -29 64zM487 1352q0 -25 2 -49q0 -37 64 -37q195 0 321.5 13t210.5 40q172 55 172 211q0 135 -112 186q-113 55 -567 62q-39 0 -48 -45q-12 -51 -20 -121q-15 -96 -23 -260zM498 924q0 -197 3 -302.5t9 -175.5q16 -174 41 -241 q14 -55 35 -76q12 -14 59 -14q262 12 408 51q154 45 225 110q74 66 102 164q23 84 39 213q-4 90 -16 158q-16 84 -72 147q-57 66 -178 119q-123 53 -334 78h-133q-31 2 -106 8l-33 2q-45 0 -45 -24q0 -68 -2 -105t-2 -112zM543 1083l24 -2q76 -6 117 -8h131q193 -20 305 -72 q4 0 47 3q76 4 103 8q41 -78 53 -185q10 -78 14 -170q-12 -104 -34 -194q-23 -76 -80 -125q-59 -53 -193 -92q-141 -37 -387 -49q4 0 4 -13q-10 12 -18 45q-20 57 -37 226q-6 68 -9 172t-3 297q0 78 2 116q2 35 2 101q0 -57 -41 -58zM553 1348q18 0 18 -41q-2 23 -2 43 q8 160 23 252q10 80 18 112q-6 -18 -32 -18q430 -6 532 -54q66 -29 66 -112q0 -98 -115 -133q-80 -25 -201 -37t-307 -12z" />
<glyph unicode="C" horiz-adv-x="1923" d="M41 940q0 -420 278 -717q281 -299 678 -299q154 0 365 45q221 43 344 131q96 55 96 129q0 53 29 203q25 88 49 148q0 8 2 14v10q0 20 -10 44t-25 38q-41 41 -92 41h-4q-113 0 -135 -119l-6 -20q-72 -135 -224 -244q-143 -111 -270 -111q-203 0 -399 199 q-201 201 -201 496q0 358 166 616q152 106 350 107q4 0 23 2h22q147 0 291 -78q162 -86 254 -236q53 -98 125 -98h18q98 0 111 98q0 29 -2 58q-2 14 -2 18q-55 111 -76 221q-10 4 -33 9q-12 47 -35.5 84.5t-64.5 74.5q-195 109 -346 129q-150 20 -320 21q-174 0 -346 -82 q-166 -78 -303 -219q-141 -172 -221 -387q-86 -154 -86 -326zM123 940q0 188 78 360q76 166 205 295q127 131 280 203q158 74 311 74q164 0 308 -21q143 -20 321 -120q51 -20 66 -48q14 -27 24 -65q23 -117 74 -221q0 -6 2 -13q2 -20 2 -38q-4 -23 -29 -23h-18q-29 0 -51 53 q-104 172 -289 271q-164 88 -330 88h-22q-18 -2 -23 -2q-233 0 -416 -238q-182 -238 -182 -567q0 -330 225 -553q223 -223 457 -223q145 0 318 127q172 125 254 280l8 33q10 53 55 53h4q18 0 35 -16q10 -10 10 -25v-4q-2 -4 -2 -8q-18 -55 -47 -178q-31 -131 -31 -185 q0 -33 -55 -57q-117 -82 -319 -123q-205 -43 -349 -43q-362 0 -618 273q-256 274 -256 661z" />
<glyph unicode="D" horiz-adv-x="1837" d="M41 31q0 -68 27.5 -89.5t91.5 -21.5q25 4 86 4q29 -2 92 -2h43q18 -2 61 -2q8 0 84 6q16 2 21 2q61 4 67 6q492 47 832 353q350 317 350 714q-8 297 -119 488q-113 190 -284 293q-160 96 -387 135q-188 37 -398 39q-8 2 -45 2q-90 0 -106 -6h-19q-31 -2 -49 -2h-102 q-55 0 -97 8q-66 0 -94 -23.5t-28 -91.5q12 -131 90 -137q-12 0 -29 -10q18 -59 27 -215q8 -135 8 -283q0 -45 -2 -123q-2 -109 -2 -160q-8 -377 -29 -550q-18 -156 -33 -197h41q-53 0 -75.5 -33t-22.5 -104zM123 31q0 55 16 55q12 0 35 51q16 49 39 217q20 178 29 559 q0 49 2 162q2 78 2 123q0 150 -8 289q-12 176 -31 233q-18 61 -35 66q-18 4 -22 59q0 31 32 31q43 -8 105 -8h102q51 0 84 4q14 4 90 4q8 0 10 -2q215 -2 418 -37q205 -35 359 -125q158 -96 256 -264q100 -174 108 -449q0 -362 -323 -651q-326 -289 -791 -332q-6 -2 -61 -6 q-10 -2 -21 -2q-70 -6 -76 -6q-41 0 -57 2h-47q-61 0 -90 2q-68 0 -94 -4q-31 0 -31 29zM487 924q0 -227 1 -319.5t8 -153.5q10 -164 24 -242q0 -2 2 -10q4 -12 6 -19q4 -16 31 -16q352 33 602 280q246 250 246 553q-12 453 -256 592q-246 141 -555 150q-51 0 -59 -35 q-6 -27 -11 -62v-4q-14 -82 -24 -252q-12 -215 -15 -462zM555 246q27 0 38 -11.5t15 -33.5l-6 18q-2 8 -2 10q-12 61 -22 228q-6 61 -7.5 151t-1.5 316q2 252 15 467q10 159 24 235l2 8q4 37 6 52q-2 -29 -22 -29q291 -8 516 -139q207 -125 215 -521q0 -270 -221 -495 q-229 -225 -549 -256z" />
<glyph unicode="E" horiz-adv-x="1783" d="M41 31q0 -68 26.5 -89.5t94.5 -21.5q92 12 184 12h27q86 -2 168 -2q96 0 331 -4h25q113 0 379 -2q57 -2 121 -2q63 0 108 51q6 10 25 33q12 12 18 21q31 53 76 112q16 25 31 37q14 12 47 49l6 6q35 25 35 115q-10 119 -123 119q-41 0 -123 -51q-49 -31 -86 -49 q-119 -82 -346 -113q-215 -31 -352 -31q-6 0 -39 2h-39q-29 0 -41 45q-25 68 -25 213v447q0 68 2 100q0 63 2 90q0 -49 -55 -49h436q111 -4 238 -12q72 -2 92 -56q43 -108 122 -108h1h4q129 0 129 121v8q-2 6 -2 10q-16 109 -16 199q0 86 16 184q0 4 2 12v11q0 114 -121 114 h-2h-2q-68 0 -98 -57q-2 -2 -8 -10q-2 -2 -9 -10q-61 -66 -137 -89q-85 -26 -228 -26h-11h-385q41 0 41 -47q6 137 14 207q2 20 6 47q4 41 8 59q4 25 19 49q2 -2 8 -2q82 -4 182 -4q127 -4 242 -14q137 -12 241 -39q98 -23 146 -62q69 -75 156 -75h2h14q63 0 92 41 q16 16 20.5 28.5t4.5 34.5q0 27 -29 74q-51 59 -88 112q-59 80 -100 125q-23 31 -82 54q-55 16 -84 16h-15q-39 0 -51 -4q-252 0 -455 -8q-215 -8 -483 -8q-98 0 -186 14q-66 0 -93.5 -23.5t-27.5 -91.5q12 -137 104 -137q-8 0 -16 -14q23 -53 37 -207q12 -106 12 -307 q0 -41 -2 -113q-2 -98 -2 -141q-8 -406 -31 -574q-16 -125 -39 -180q14 -2 37 -2q-100 0 -100 -137zM123 31q0 55 18 55q16 0 39 53q25 63 45 221q23 166 31 562q0 43 2 141q2 74 2 115q0 205 -12 315q-18 178 -45 233q-27 57 -53 62q-23 0 -27 57q0 31 33 31 q92 -14 192 -14q270 0 486 8q215 8 487 8q4 4 16 4h15q23 0 55 -12q37 -12 49 -29q39 -43 94 -119q41 -57 92 -116q10 -14 11 -23q0 -6 -4 -10q-8 -12 -31 -12h-14q-55 0 -99 51q-66 55 -186 84q-127 29 -252 41q-117 10 -250 14q-98 0 -180 4q-61 0 -82 -39 q-20 -33 -27 -76q-4 -27 -12 -94q0 -4 -4 -37q-8 -66 -14 -194q0 -37 41 -37h385q164 0 264 31q98 29 174 112l8 9q12 16 19 26q8 14 26 14h2q41 0 41 -32v-6q-2 -6 -2 -11q-16 -102 -16 -190q0 -94 16 -205q0 -4 2 -8v-4q0 -39 -47 -39h-4q-31 0 -45 51q-35 104 -164 113 q-131 10 -242 12h-438q-27 0 -26 -31q-2 -27 -3 -90q-2 -33 -2 -102v-447q0 -160 29 -239q33 -96 117 -101h41q33 -2 39 -2q141 0 362 31q248 33 377 123q35 16 90 53q53 37 78 37q39 0 41 -41q0 -43 -12 -55l-7 -6q-29 -31 -40 -43q-20 -18 -43 -50q-49 -63 -78 -114 q-29 -33 -41 -49q-16 -20 -43 -21q-63 0 -121 2q-266 2 -379 2h-25q-236 4 -331 4q-82 0 -168 2h-27q-94 0 -190 -12q-33 0 -33 29z" />
<glyph unicode="F" horiz-adv-x="1681" d="M41 1843q12 -137 104 -137q-8 0 -16 -14q23 -53 37 -207q12 -117 12 -340v-98q-2 -61 -2 -119q-2 -14 -2 -43q-2 -16 -2 -45q-8 -328 -27 -502q-14 -129 -28 -178q25 8 45 8q-98 0 -99 -137q0 -111 119 -111q90 10 193 14q27 0 82 -6l12 -2q33 -4 92 -12l17 -2 q63 0 91.5 25.5t28.5 85.5q0 117 -67 133v-86q-14 41 -27 190q-18 92 -24 309q0 45 -5 150v12q-2 29 -3 61.5t-1 120.5q0 68 2 103v90q0 -49 -55 -49l332 -6q63 0 211 -11l24 -2q76 -6 95 -57q43 -109 123 -109h2q61 0 95 32t34 87v8q-2 8 -2 13q-16 109 -17 198 q0 92 17 187q0 8 2 14v8q0 117 -121 117h-4q-66 0 -101 -61q-4 -8 -10 -15q-63 -66 -141 -92q-88 -27 -242 -27l-276 5q41 0 41 -46q8 143 14 211q2 12 6 52q4 47 8 63q4 25 19 49q2 -2 10 -2q59 -2 162 -6q117 -6 213 -20q94 -10 205 -41q90 -27 137 -66q68 -74 155 -74h17 q53 0 82 29q23 8 27.5 28.5t4.5 49.5q0 37 -26 74q-51 53 -90 108q-47 66 -101 125q-29 35 -86 53q-53 16 -80 17h-14q-27 0 -35 -2h-233q-166 -2 -189 -2q-131 -2 -438 -2q-94 0 -186 14q-66 0 -93.5 -23.5t-27.5 -91.5zM123 1845q0 31 33 31q94 -14 192 -14q307 0 438 2 q25 0 197 2h244q4 2 16 2h14q23 0 56 -13q33 -8 49 -28q51 -57 94 -119q51 -68 94 -115q8 -10 9 -20q0 -10 -5 -12q-8 -12 -28 -13h-17q-55 0 -98 49q-57 49 -170 86q-102 29 -219 46q-100 14 -219 20q-106 4 -164 6q-63 0 -84 -39q-20 -33 -27 -76q-4 -25 -12 -104 q0 -4 -4 -33q-6 -66 -14 -200q0 -39 41 -39l276 -4q166 0 266 30q100 33 176 113q8 8 19 27l4 6q10 18 29 18h4q39 0 39 -35v-6q-2 -4 -2 -10q-16 -98 -17 -193q0 -94 17 -204q0 -4 2 -9v-6q0 -37 -47 -37h-2q-31 0 -46 52q-35 102 -165 114l-25 2q-152 10 -217 11l-332 6 q-27 0 -26 -33v-88q-2 -35 -3 -105q0 -92 1.5 -124.5t3.5 -63.5v-6q4 -101 4 -152q6 -233 26 -323q18 -98 39 -127q23 -31 37 -37q16 -6 16 -57q0 -29 -32 -29l-25 4q-47 6 -80 10l-12 2q-63 6 -94 6q-104 -4 -195 -14q-33 0 -33 29q0 55 17 55q12 0 31 45q16 51 34 197 q18 178 27 510q0 27 2 41q0 29 2 43q0 57 2 122v101q0 229 -12 348q-18 178 -45 233q-27 57 -53 62q-23 0 -27 57z" />
<glyph unicode="G" horiz-adv-x="1964" d="M41 940q0 -420 278 -717q281 -299 678 -299q156 0 379 68q231 68 357 153q84 92 84 146l-11 22q-2 4 -6 21q-2 4 -8 18q0 238 3 357.5t9 183.5q12 137 33 182q-12 -4 -27 -4q90 0 113 139q0 55 -53 95q-23 20 -76 20l-76 -4l-26 -2q-33 -2 -97 -2h-100q-49 0 -96 6 q-70 0 -98.5 -22.5t-28.5 -86.5q12 -117 76 -131q-2 -2 -2 -6q18 -35 28 -116q17 -95 21 -347q-6 -86 -8.5 -158.5t-2.5 -142.5q0 -12 -36 -22q-53 -25 -109 -39q-27 -6 -104 -16q-8 0 -23 -3q-207 0 -403 191q-96 92 -144.5 215t-48.5 289v33q-2 27 -2 30q0 283 139 471 q143 193 338 193q6 0 35 2h33q139 0 241 -43q135 -51 287 -201q49 -92 127 -92h19q96 0 108 102q0 6 2 15v6q0 31 -12 67q-39 70 -59 134q-25 88 -97 153q-195 111 -358 135q-150 20 -320 21q-338 0 -645 -271q-311 -274 -311 -743zM123 940q0 430 283 682q285 250 591 250 q164 0 308 -21q143 -20 321 -120q49 -45 68 -109q20 -68 61 -143q6 -18 6 -35v-6q-2 -6 -2 -11q-2 -25 -26 -24h-19q-35 0 -57 55q-174 170 -326 232q-119 49 -272 49h-33q-29 -2 -35 -2q-233 0 -403 -226q-156 -209 -156 -520q0 -4 2 -30v-33q0 -184 54.5 -322.5 t164.5 -240.5q227 -213 463 -213q96 10 141 20q53 12 123 43q86 37 86 98q0 68 2.5 140.5t8.5 158.5q-2 248 -23 363q-18 111 -39 145q-23 35 -41 41q-16 6 -20 56q0 25 39 24q49 -6 102 -6h100q66 0 101 2q70 4 100 6q20 0 29 -6q16 -10 16 -23q-6 -61 -31 -61 q-31 0 -47 -43q-27 -49 -41 -209q-6 -68 -9 -191.5t-3 -371.5q10 -31 23 -59l2 -7q0 -23 -52 -61q-117 -80 -329 -141q-209 -63 -357 -64q-362 0 -618 273q-256 274 -256 661z" />
<glyph unicode="H" horiz-adv-x="1796" d="M41 31q0 -68 26.5 -89.5t94.5 -21.5q100 14 186 14q96 0 189 -14q66 0 93 27.5t27 83.5q0 139 -94 145q14 0 27 -55q-20 74 -33 256q-12 117 -12 348q0 12 2 92v107v102q0 61 2 92v17q2 14 2 24q-2 -84 -47 -84q74 0 201 -4h6q68 -2 211 -2q123 0 184 2q59 0 182 4 q-45 0 -47 60v-17q0 -131 -2 -203q-8 -389 -25 -548q-12 -129 -30 -205q29 6 49 6q-96 0 -96 -137q0 -111 120 -111q94 14 189 14q90 0 188 -14q66 0 93.5 27.5t27.5 83.5q0 139 -94 145q10 0 27 4q-20 51 -33 197q-14 113 -15 358q0 12 2 86v101q4 412 23 598 q14 139 35 186q-18 -6 -43 -6q53 0 75.5 34.5t22.5 108.5q0 61 -28.5 87t-92.5 26q-92 -14 -188 -14q-86 0 -189 14q-66 0 -93 -23.5t-27 -91.5q12 -115 75 -129v-8q10 -16 21 -82q6 -29 7 -79t1 -189q0 28 48 28h3q-66 0 -178 4h-6q-61 2 -186 3q-141 0 -211 -5 q-135 -4 -201 -4q47 0 47 -39q4 225 16 322q8 106 21 145q-14 -104 -25 -104q88 6 88 141q0 113 -120 113q-92 -14 -189 -14q-98 0 -186 14q-66 0 -93.5 -23.5t-27.5 -91.5q6 -68 27.5 -101.5t64.5 -37.5q-10 0 -24 -10q18 -51 30 -213q8 -139 8 -295q0 -43 -2 -119 q-2 -104 -2 -152q-8 -360 -26 -548q-10 -162 -29 -248q29 51 49 51q-96 0 -96 -139zM123 31q0 57 14 57q12 0 29 53q18 63 33 217q18 190 26 555q0 47 2 152q2 76 2 121q0 158 -8 301q-16 184 -35 233q-23 63 -41 66q-18 2 -22 59q0 31 33 31q92 -14 192 -14t195 14 q33 0 32 -31q0 -57 -14 -59q-12 0 -33 -27q-20 -27 -34 -110q-14 -86 -19 -308q0 -43 35 -43q70 0 199 5h6q68 4 207 4q123 0 184 -2q123 -4 186 -5q31 0 31 54q0 147 -1 200.5t-9 83.5q-16 90 -35 115q-23 31 -39 37q-18 6 -20 53q0 31 32 31q106 -14 195 -14q100 0 194 14 q33 0 33 -31q0 -61 -16 -61q-18 0 -35 -47q-20 -49 -39 -224q-18 -182 -22 -589v-101q-2 -74 -2 -86q0 -252 14 -366q14 -160 39 -219q23 -55 43 -56q18 -2 18 -63q0 -29 -33 -29q-100 14 -194 14q-96 0 -195 -14q-33 0 -32 29q0 55 14 55q12 0 29 53q18 63 34 219 q16 162 25 555q2 72 2 205v25q-2 14 -37 14q-123 -4 -182 -4q-61 -2 -182 -2q-141 0 -209 2q-139 4 -209 4q-31 0 -33 -14q0 -4 -2 -8q-2 -10 -2 -15q-2 -31 -2 -94v-102v-107q-2 -80 -2 -92q0 -236 12 -356q14 -158 39 -219q23 -55 43 -56q18 -2 18 -63q0 -29 -32 -29 q-94 14 -195 14q-90 0 -192 -14q-33 0 -33 29z" />
<glyph unicode="I" horiz-adv-x="698" d="M41 31q0 -68 26.5 -89.5t90.5 -21.5q90 10 192 14q94 0 187 -14q66 0 93 27.5t27 83.5q0 143 -100 143q16 0 33 -59q-20 70 -33 258q-12 117 -12 350q0 12 2 92v109q4 410 22 596q14 139 35 186q-18 -6 -43 -6q43 0 69.5 37t26.5 108q0 113 -120 113q-92 -14 -189 -14 q-96 0 -188 14q-63 0 -91 -24.5t-28 -90.5q6 -68 27.5 -101.5t64.5 -37.5q-10 0 -24 -10q18 -51 30 -213q8 -139 8 -295q0 -43 -2 -119q-2 -104 -2 -152q-8 -371 -26 -569q-10 -121 -29 -184q29 6 49 6q-96 0 -96 -137zM123 31q0 55 14 55q12 0 29 51q18 63 33 217 q18 197 26 559q0 47 2 152q2 76 2 121q0 158 -8 301q-16 184 -35 233q-23 63 -41 66q-18 2 -22 59q0 31 31 31q94 -14 194 -14t195 14q33 0 32 -31q0 -63 -14 -63q-18 0 -35 -47q-20 -49 -39 -224q-18 -182 -22 -587v-109q-2 -80 -2 -92q0 -238 12 -358q14 -160 39 -220 q23 -53 43 -53q18 0 18 -61q0 -29 -32 -29q-94 14 -195 14q-104 -4 -194 -14q-31 0 -31 29z" />
<glyph unicode="J" horiz-adv-x="1071" d="M41 -383q0 -66 43 -104q23 -23 48.5 -32t60.5 -9q100 18 186 59q41 18 117 61q37 20 45 25q90 53 182 139q66 66 158 123q18 0 69 55q20 18 28.5 48t8.5 86q-20 133 -31 145q-2 6 -8 31q0 6 -2 12q-6 29 -10 154q-2 14 -2 28q-6 88 -16 461v29q-8 139 -9 360q0 143 9 215 q12 152 32 195q-6 2 -24 2q104 0 104 145q0 113 -121 113q-92 -14 -188 -14q-97 0 -189 14q-72 0 -102.5 -23.5t-30.5 -91.5q12 -133 97 -139q-8 0 -19 -12q20 -59 33 -213q8 -72 8 -314v-112q-2 -72 -2 -138q-10 -375 -22 -522l-7 -61q-12 -150 -20 -193q-12 -70 -21 -82 q-16 -31 -24 -61q-49 -82 -123 -139q-82 -61 -143 -90q-47 -16 -72 -43q-43 -41 -43 -107zM123 -383q0 31 18 49q16 14 43 25q74 33 164 100q86 66 152 174q6 27 18 53q14 25 29 107q12 61 28 262q12 147 23 526q0 66 2 140v112q0 248 -8 322q-14 168 -39 233q-25 63 -45 66 q-23 4 -27 59q0 31 45 31q94 -14 195 -14q100 0 194 14q33 0 33 -31q0 -63 -22 -63q-27 0 -49 -47q-25 -47 -41 -224q-8 -74 -9 -223q0 -223 9 -364v-29q10 -373 16 -461q6 -147 14 -192q10 -49 19 -68q8 -12 20 -113q0 -55 -16 -73q-23 -27 -31 -27q-111 -66 -192 -145 q-80 -74 -166 -127q-86 -47 -158 -84q-72 -35 -158 -51q-27 0 -43 16q-18 18 -18 47z" />
<glyph unicode="K" horiz-adv-x="1763" d="M41 31q0 -68 26.5 -89.5t94.5 -21.5q100 14 186 14q96 0 189 -14q47 0 67 8q72 31 72 101q-16 133 -103 133q12 0 25 -107q-16 57 -25 189q-16 98 -16 321q0 27 -6 29q12 20 47 55q20 49 64 160l8 25q31 -18 67 -37q20 20 54 45q0 -27 -19.5 -34t-52.5 -7q-16 0 -27 2 q213 -322 297 -477q63 -109 64 -154q2 12 20 14q-100 -20 -100 -182q23 -53 102 -78q23 -6 70 -6q29 4 131 4h141q61 0 88 -2q49 0 92 2h41q57 57 58 117q0 33 -15 61q-72 100 -122 101q-2 0 -7 16q-39 23 -143 105q-104 180 -324 639q-20 37 -30 57q-6 12 -23 43l-10 16 q-14 23 -21 45q4 -8 5 -20q0 10 18 18q293 326 387 418l37 35q90 86 113 98l-5 2q-20 12 -24 13l6 -5q33 0 152 76q23 16 27.5 32.5t4.5 41.5q0 41 -34 80q-51 43 -95 43q-39 -4 -112 -8q-37 -2 -101 -2q-74 0 -125 2q-88 4 -120 10q-72 0 -138 -68q-23 -51 -22 -80 q0 -47 30.5 -79.5t84.5 -32.5q-23 0 -23 10q0 -49 -106 -199q-115 -170 -496 -573q37 -6 51 -6l19 -23q8 -6 12 -22v41q-4 106 -4 280q0 201 12 312q12 150 35 198h-25q90 0 113 133q0 104 -88 105q-23 4 -53 4q-102 -14 -189 -14q-98 0 -186 14q-66 0 -93.5 -23.5 t-27.5 -91.5q12 -133 94 -139q-8 0 -22 -10q20 -59 32 -215q8 -72 9 -308v-112q-2 -74 -2 -144q-8 -389 -29 -569q-14 -123 -31 -182l2 2q6 2 8 2q-14 -10 -37.5 -44t-23.5 -93zM123 31q0 25 5 38t9 17q14 0 33 51q16 59 35 217q20 178 28 559q0 70 3 146v112q0 242 -9 316 q-16 176 -37 233q-23 63 -43 66q-20 4 -24 59q0 31 33 31q92 -14 192 -14q88 0 195 14q20 0 35 -4q18 0 18 -19q-6 -55 -31 -55q-29 0 -49 -45q-27 -51 -43 -227q-12 -113 -12 -320q0 -176 4 -282v-45q4 -20 12 -29l4 -2q14 0 43 33q381 403 504 583q121 182 121 244 q0 66 -55 72q-37 0 -37 30q0 10 10 35q29 31 59 31q33 -6 125 -10q53 -2 129 -2q66 0 105 2q74 4 112 8q14 0 33 -19q10 -10 10 -22q0 -8 -6 -12q-49 -55 -61 -56l-6 4q-8 0 -49 -26q-35 -20 -164 -144q-96 -94 -391 -421q-39 -41 -39 -74q0 -10 4 -17q10 -33 24 -53 q10 -16 31 -53q10 -20 31 -57q215 -387 327 -555q102 -152 154 -207q45 -41 64 -41q20 0 49 -55q6 -12 6 -25q0 -18 -15 -35h-28q-31 -2 -64 -2q-27 2 -90 2h-141q-106 0 -137 -4q-31 0 -45 4q-31 6 -39 21q0 72 39 79q39 12 41 64q0 53 -74 195q-80 150 -301 483 q-23 35 -41 35q-10 0 -10 -2q-12 -10 -27 -25q-43 -37 -76 -76q-2 -2 -4 -6q-39 -45 -61 -67q-45 -45 -56 -62q-10 -10 -10 -80q0 -240 19 -336q14 -92 38 -123q20 -27 41 -26q18 0 21 -53q0 -14 -19 -21q-10 -4 -32 -4q-94 14 -195 14q-90 0 -192 -14q-33 0 -33 29z" />
<glyph unicode="L" horiz-adv-x="1685" d="M41 31q0 -57 27.5 -84t93.5 -27q90 10 178 14q4 0 43 -2h53q195 -8 428 -8q139 -2 424 -2q106 10 164 115q6 31 16 67q10 37 17 68q6 -4 20 -12q4 -2 11 -6q16 29 43 55q35 33 61 76q16 12 20.5 32.5t4.5 57.5v14q-2 10 -3 19q-8 100 -116 100h-17q-115 0 -186 -115 q-16 -29 -156 -96q-145 -76 -315 -80h-107h-110q-16 0 -19 -8q-8 8 -10 24q-14 70 -24 228q-6 70 -7 274q0 10 3 86v103q2 406 26 598q18 133 37 178h-29q57 0 79 33.5t22 111.5q0 55 -72 99q-43 14 -74 14q-57 -8 -116 -10q-45 -4 -113 -4h-74l-14 2q-35 2 -64 6q10 0 21 2 q-139 0 -139 -115q6 -70 27.5 -101.5t64.5 -35.5q-12 0 -27 -8q16 -59 29 -213q8 -139 8 -295q0 -43 -2 -119q-2 -104 -2 -152q-10 -422 -29 -571q-18 -139 -35 -176h39q-100 0 -100 -137zM123 31q0 55 18 55t37 51q18 45 41 217q18 147 29 559q0 47 2 152q2 76 2 121 q0 158 -8 301q-16 176 -33 233q-20 59 -39 62q-18 2 -22 59q0 31 22 31q4 -2 8 -2q20 -2 62 -6q10 -2 18 -2h78q72 0 119 4q59 2 116 10q16 0 35 -8q23 -10 23 -23q0 -63 -19 -63q-23 0 -45 -47q-23 -49 -45 -224q-25 -190 -26 -587v-103q-2 -76 -2 -86q0 -209 6 -280 q10 -172 26 -240q8 -41 29 -61q16 -18 80 -19h110h107q186 4 352 90q168 86 191 127q43 74 114 74h17q33 0 35 -25q0 -6 2 -14v-12q0 -31 -9 -39q-23 -39 -53 -70q-31 -31 -55 -69q-25 -41 -35 -62q-6 -14 -16 -31q-10 -16 -17 -30q-33 -63 -94 -70q-283 0 -420 2 q-231 0 -426 8q-25 0 -55 2h-45q-90 -4 -180 -14q-35 0 -35 29z" />
<glyph unicode="M" horiz-adv-x="2273" d="M41 1829q31 -113 98 -141q23 -12 72 -27q10 -4 16 -6q35 -12 58 -27q23 -20 34 -69q10 -35 14.5 -83.5t4.5 -127.5q0 -201 -2 -351v-84q0 -217 -4 -348t-15 -209q-14 -135 -38 -188q12 -6 20 -6q-109 0 -109 -135q0 -61 28 -86t99 -25q41 2 113 6h113h39q27 -6 73 -10 q68 0 94.5 25.5t26.5 85.5q0 139 -90 145q6 0 12 12q-23 53 -36 197q-16 131 -17 371q0 12 2 81v95v182q0 131 6 217q-10 -25 -30 -29q-23 0 -72 -6q47 -94 133 -260q33 -63 113 -223l55 -107q37 -74 96 -184q43 -80 56 -106q59 -117 69 -142q60 -65 97 -65h1 q29 0 50.5 18.5t48.5 56.5q143 338 268 642q51 94 234 438q2 2 32 59q-51 -20 -84 -20l-4 8q-23 12 -22 49q-6 -100 -19 -231q-12 -135 -12 -308q0 -231 -3 -366t-9 -213q-12 -152 -27 -189q51 10 78 11q-4 2 -6 2l-6 4q-129 0 -129 -131q0 -68 26.5 -89.5t91.5 -21.5 q92 10 193 14q86 0 184 -14q68 0 95.5 27.5t27.5 83.5q0 139 -100 139q12 0 32 -4h5q-18 47 -31 196q-18 164 -19 562q0 225 6.5 363t18.5 216q18 145 45 187q-25 4 -39 4l8 -2q72 0 99.5 32.5t27.5 106.5q0 113 -112 113q-33 -6 -123 -11q-39 0 -63.5 2t-41.5 7 q-25 6 -63 6q-68 0 -98 -41q-170 -281 -299 -561q-127 -270 -275 -551q30 32 60 32h2q25 0 57 -28q-156 250 -272 452q-139 311 -285 598q-16 53 -55 74q-6 12 -33 14t-125 2q-111 -4 -139 -8q-49 0 -91 6q-33 4 -75 11q-33 4 -41 4q-61 0 -90 -28t-29 -95zM123 1839 q0 31 33 31q18 -2 37 -4q47 -8 73 -11q47 -6 109 -6q27 4 133 9h89t24 -5q16 -10 22 -34q162 -281 287 -531q141 -285 276 -532q6 -10 13 -11q6 0 12 13q137 262 274 553q137 295 291 544q10 10 33 11q25 0 41 -4q18 -6 46 -8.5t83 -2.5q94 4 129 11q23 0 22 -31 q0 -57 -26 -57l-8 2q-25 0 -50 -41q-33 -47 -57 -219q-12 -80 -18 -221.5t-6 -370.5q0 -403 18 -570q14 -166 37 -219q18 -47 39 -47q18 0 18 -57q0 -29 -35 -29q-102 14 -192 14q-104 -4 -195 -14q-33 0 -33 29q0 49 13 49l6 -4q2 0 6 -2q12 0 31 39q20 49 35 215 q6 78 9 214t3 371q0 168 12 299q12 133 19 238q0 16 -15 23l-6 4q-8 0 -22 -21q-84 -176 -86 -184q-102 -215 -183 -389q-88 -190 -268 -572q-12 -29 -25 -28q-10 0 -26 22q-10 29 -70 139l-47 93q-70 133 -102 198l-56 107q-80 160 -112 223l-37 72q-72 139 -98 190 q-27 49 -41 49q-6 -8 -11 -47q-6 -88 -6 -223v-182v-95q-2 -70 -2 -81q0 -246 17 -381q18 -168 45 -224q27 -53 49 -57q20 -2 20 -63q0 -29 -32 -29l-27 4q-29 4 -33 4q-8 2 -59 2h-115q-72 -4 -113 -6q-43 0 -43 29q0 53 27 53q25 0 51 49q29 53 49 217q10 80 14.5 213 t4.5 354v84q2 150 2 351q0 84 -6 140t-17 93q-25 82 -63 113q-35 25 -82 39q-53 16 -78 28q-35 16 -51 78z" />
<glyph unicode="N" horiz-adv-x="1955" d="M41 1851q31 -119 109 -145q27 -12 86 -29l6 -2q33 -8 69 -26q18 -14 31 -66q12 -43 12 -123q0 -16 -2 -47q-2 -33 -2 -51q-4 -74 -7 -180.5t-3 -274.5q0 -211 -5 -343t-16 -208q-18 -199 -43 -270q8 76 19 76q-111 0 -111 -135q0 -61 28 -86t99 -25q45 2 115 6h111 q45 0 57 -2q10 -2 31 -4q20 -2 47 -4q68 0 93.5 25.5t25.5 89.5q-23 151 -116 151h-1h12q-20 41 -33 172q-10 57 -10 244q0 135 6 321q0 41 2 107q2 84 2 125q6 176 13 264q-6 -20 -23 -29q-14 0 -59 -2l-23 -2q41 -80 176 -291q72 -90 219 -264l54 -63q39 -72 108 -199 q111 -205 166 -305q76 -113 135 -203l33 -49v-74h88h-20q-12 2 -21 2q12 -23 14 -22q23 -20 91 -21q18 0 49 7q49 16 78.5 40.5t40.5 38.5q-10 92 -11 224q0 168 2 258q0 176 2 258q2 55 2 100q2 78 2 100q2 408 27 596q18 160 39 199q-8 -2 -27 -2q49 0 78 36t29 105 q0 115 -123 115q-20 -4 -68 -10l-24 -4q-31 -6 -70 -6q-98 0 -190 14q-63 0 -91 -23.5t-28 -89.5q0 -137 111 -137q-10 0 -19 64q23 -57 41 -279q14 -135 14 -332q0 -43 -2 -112q-2 -92 -2 -134q-2 -63 -2 -174q-2 -80 -6 -147q0 8 26.5 11t71.5 3q4 -4 12.5 -10t12.5 -14 q-23 20 -47 59q-98 158 -195 309q-10 12 -108 123q-98 109 -109 121q-72 111 -184 283q-14 23 -23 34q-86 180 -151 336q-16 55 -57 74q-14 12 -142 25h-10q-18 0 -49 2h-33q-14 0 -33 -2h-18q-55 0 -123 8q-57 6 -115 14l-22 2q-66 0 -92.5 -23.5t-26.5 -97.5zM123 1862 q0 28 31 28h2q12 -2 28 -4q63 -8 105 -12q74 -8 131 -8h18q18 2 33 2h33q29 -2 47 -2h10q90 -6 101 -13q16 -10 22 -34q72 -123 160 -260q8 -12 22 -35q113 -172 185 -283q72 -109 108 -166q37 -59 109 -168l39 -61q109 -170 155 -246q23 -39 49 -65q2 -4 9 -9q18 0 18 66 q4 68 6 147q0 111 2 174q0 41 2 136q2 70 2 112q0 201 -14 340q-20 178 -49 234q-27 55 -55 55q-29 0 -29 55q0 31 31 31q94 -14 196 -14q47 0 84 6q23 4 25 4q37 6 61 10q33 0 33 -33q0 -59 -25 -59q-27 0 -47 -45q-25 -51 -47 -223q-25 -193 -26 -604q0 -23 -2 -101 q0 -45 -3 -100q-2 -82 -2 -260q-2 -90 -2 -258q0 -121 7 -193q-4 -4 -16.5 -14t-35.5 -17l-8 -2q-14 -2 -22 -2q-31 0 -43 21q-2 0 -17 22h-2q0 -2 -2 -2h-6v17q-23 35 -78 118q-66 96 -104 154q-59 88 -187 281q-86 131 -88 133q-172 260 -270 415q-129 201 -172 285 q-25 49 -39 49q-10 -16 -12 -47q-6 -88 -13 -268q0 -41 -2 -125q-2 -66 -2 -106q-6 -186 -6 -324q0 -195 10 -254q14 -158 45 -205q25 -39 58 -39q29 0 35 -73q0 -29 -33 -29q-25 2 -41 4q-20 2 -29 4q-14 2 -69 2h-113q-70 -4 -115 -6q-43 0 -43 29q0 53 29 53q27 0 53 47 q29 51 53 217q10 78 15.5 213t5.5 350q0 168 3 273.5t7 179.5q0 20 2 53t2 47q0 90 -16 146q-25 84 -68 112q-47 27 -90 37q-47 12 -84 27q-39 16 -55 80z" />
<glyph unicode="O" horiz-adv-x="1996" d="M41 940q0 -420 278 -717q281 -299 678 -299t680 299q279 297 279 717q0 211 -86 395q-88 186 -219 318q-139 139 -308 219q-172 82 -346 82t-346 -82q-166 -78 -303 -219q-141 -172 -221 -387q-86 -154 -86 -326zM123 940q0 188 78 360q76 166 205 295q127 131 280 203 q157 74 311 74q156 0 312 -74q158 -74 282 -203q125 -125 205 -295q78 -172 78 -360q0 -387 -256 -661q-260 -272 -621 -273q-362 0 -618 273q-256 274 -256 661zM434 928q0 -332 166 -566q165 -235 397 -235h2q233 0 396 211q162 213 170 590q0 203 -39 347t-121 245 q-173 213 -406 213t-399 -238q-166 -236 -166 -567zM516 928q0 358 152 614q138 109 331 109q197 0 342 -183q72 -92 107 -222t35 -316q-8 -346 -154 -543q-135 -178 -330 -178t-331 201q-152 217 -152 518z" />
<glyph unicode="P" horiz-adv-x="1679" d="M41 31q0 -68 26.5 -89.5t90.5 -21.5q90 10 192 14q94 0 187 -14q66 0 93 27.5t27 83.5q0 94 -32 110q-4 4 -17 19l-4 6q-10 10 -14 22q-12 31 -25 113q0 4 -2 12v9q0 -14 -18 -19q20 8 78 23l24 6q455 115 715 348q276 256 276 526q0 313 -153 469q-150 160 -355 219 q-203 61 -417 62q-211 -2 -367 -12q-94 0 -186 14q-63 0 -91 -24.5t-28 -90.5q6 -68 27.5 -101.5t64.5 -37.5q-10 0 -24 -10q18 -51 30 -213q8 -139 8 -295q0 -45 -2 -121q-2 -104 -2 -152q-2 -399 -18 -569q-12 -129 -27 -182q29 4 43 4q-100 0 -100 -135zM123 31 q0 53 18 53q16 0 35 51q16 53 31 217q16 166 18 561q0 47 2 152q2 76 2 121q0 158 -8 301q-16 184 -35 233q-23 63 -41 66q-18 2 -22 59q0 31 31 31q94 -14 194 -14q158 10 365 12q205 0 395 -57q182 -53 317 -199q131 -137 131 -412q0 -240 -249 -465q-248 -221 -680 -329 q-66 -16 -109 -31q-37 -12 -37 -59q0 -2 2 -13v-14q14 -100 31 -137q14 -39 31 -52l16 -16l6 -6q8 -8 8 -53q0 -29 -32 -29q-94 14 -195 14q-104 -4 -194 -14q-31 0 -31 29zM465 897q2 -70 2 -162q4 -102 8 -153q2 -27 17 -52q6 -12 24 -12t31 6q262 94 483 283 q225 190 225 385q0 205 -118 367q-121 161 -541 188q-53 0 -66 -16q-18 -25 -20 -45v-7q-16 -137 -27 -243q-14 -172 -18 -512v-27zM514 600h2q35 0 47 -31q0 2 -2 6q-4 8 -4 15q-4 49 -8 147q0 90 -2 158v29q4 344 18 520q10 102 27 227v4q0 2 4 6q0 -16 -2 -16 q371 -20 477 -156q102 -139 103 -317q0 -162 -197 -322q-213 -180 -463 -270z" />
<glyph unicode="Q" horiz-adv-x="2062" d="M41 940q0 -248 100 -461q94 -211 267 -348q59 -55 120 -92q84 -55 168 -98q-35 0 -44 19.5t-9 51.5v25q-2 -4 -12 -25q-2 -4 -6 -10l-9 -12q-20 -29 -38 -49q-12 -14 -41 -45q-33 -37 -43 -50q-51 -72 -52 -102q0 -35 14.5 -53.5t22.5 -22.5q-12 6 -16 31 q0 -51 25.5 -71.5t80.5 -20.5q10 0 29 2q31 2 43 2q37 55 131 55q115 -4 240 -24q98 -18 250 -54q114 -24 152 -24h3q8 0 21 2h14q14 4 102 55q20 12 64 43q47 33 70 47q37 25 86 60q16 10 43 28q86 72 137 123t67 70q-29 0 -44 -4t-38 -15q-20 -8 -38 -16q0 123 -164 123 q-119 -100 -334 -113q-150 0 -264.5 12t-231.5 37q27 -29 29 -82v21q-2 14 -2 27q0 -51 -39 -52q4 0 10 -2t8 -2q20 0 43 -2h41q397 0 680 299q279 297 279 717q0 211 -86 395q-88 186 -219 318q-139 139 -308 219q-172 82 -346 82t-346 -82q-166 -78 -303 -219 q-141 -172 -221 -387q-86 -154 -86 -326zM123 940q0 188 78 360q76 166 205 295q127 131 280 203q158 74 311 74q156 0 312 -74q158 -74 282 -203q125 -125 205 -295q78 -172 78 -360q0 -387 -256 -661q-260 -272 -621 -273q-6 0 -41 2h-43q-2 0 -8 2t-10 2q-43 0 -43 -30 q0 -10 4 -27q4 -12 35 -18q121 -27 239.5 -39.5t274.5 -12.5q231 12 360 113q53 0 54 -43l2 -23q0 -23 2 -22q-16 -16 -54 -43q-16 -10 -96 -66q-2 -2 -31 -22q-29 -18 -69 -47q-41 -29 -62 -41q-63 -41 -73 -43h-8q-8 -2 -13 -2q-27 0 -119 18l-20 4q-143 33 -252 53 q-125 23 -254 27q-123 0 -170 -55q-4 0 -20 -2q-8 -2 -13 -2q-25 0 -24 16q-2 25 -17 31q-4 2 -4 8q0 12 31 47q27 31 84 96q12 16 41 52l12 16q8 14 15 20q8 14 8 17q10 10 10 20t-8 11q-72 37 -144 86q-63 39 -112 84q-158 127 -246 321q-92 201 -92 426zM434 928 q0 -332 166 -566q165 -235 397 -235h2q233 0 396 211q162 213 170 590q0 203 -39 347t-121 245q-173 213 -406 213t-399 -238q-166 -236 -166 -567zM516 928q0 358 152 614q138 109 331 109q197 0 342 -183q72 -92 107 -222t35 -316q-8 -346 -154 -543q-135 -178 -330 -178 t-331 201q-152 217 -152 518z" />
<glyph unicode="R" horiz-adv-x="1703" d="M41 31q0 -68 26.5 -89.5t90.5 -21.5q90 10 192 14q94 0 187 -14q66 0 93 27.5t27 83.5q0 94 -32 110q-4 4 -17 19l-4 6q-10 10 -14 22q-12 31 -25 113q0 6 -2 14v7q0 -14 -18 -19q47 16 104 31q10 4 29 8q18 2 29 6q18 4 55 17q39 10 74 10q10 0 28 -62q94 -80 115 -104 q10 -51 10 -80q8 20 17 27q-33 -14 -46.5 -39t-13.5 -72v-18q2 -18 2 -31q12 -35 43 -51.5t90 -24.5h68q88 14 174 14q23 -2 33 -4q53 -6 78 -6q43 0 116 13q55 0 76 14t21 76q0 16 -19 61q-76 90 -117 96q-4 0 -18 15q-4 0 -14 -2q-49 -4 -82 -9q-78 125 -213 408l2 -6 q2 -8 2 -15q0 -18 -10 -32q18 12 49 35q35 23 53 36q172 127 272 271q111 160 111 321q0 311 -156 469q-152 158 -364 219q-211 61 -426 62q-215 -2 -371 -12q-94 0 -186 14q-63 0 -91 -24.5t-28 -90.5q6 -68 27.5 -101.5t64.5 -37.5q-10 0 -24 -10q18 -51 30 -213 q8 -139 8 -295q0 -45 -2 -121q-2 -104 -2 -152q-2 -399 -18 -569q-12 -129 -27 -182q29 4 43 4q-100 0 -100 -135zM123 31q0 53 18 53q16 0 35 51q16 53 31 217q16 166 18 561q0 47 2 152q2 76 2 121q0 158 -8 301q-16 184 -35 233q-23 63 -41 66q-18 2 -22 59q0 31 31 31 q94 -14 194 -14q158 10 369 12q207 0 403 -57q190 -53 328 -199q133 -139 133 -412q0 -137 -96 -274q-94 -133 -254 -252q-14 -10 -43 -31q-33 -23 -53 -37q-29 -16 -29 -37q0 -12 12 -28q141 -217 217 -305q74 -86 113 -113q43 -27 57 -27q16 -2 51 -55q8 -16 9 -20 q0 -8 -23 -9q-70 -12 -108 -12q-23 0 -78 6q-18 4 -29 4q-90 0 -184 -14h-60q-45 4 -53 16q0 6 -2 17v10q0 29 14 37q18 8 29 24q0 29 -18 66q-25 47 -121 188q-66 96 -96 97q-41 0 -97 -15q-18 -6 -55 -14q-12 -4 -29 -8q-16 -4 -28 -8q-68 -18 -107 -31q-39 -12 -39 -59 v-11q2 -10 2 -16q14 -100 31 -137q14 -39 31 -52l16 -16l6 -6q8 -8 8 -53q0 -29 -32 -29q-94 14 -195 14q-104 -4 -194 -14q-31 0 -31 29zM465 897q2 -70 2 -162q4 -102 8 -153q2 -29 17 -50q4 -12 26 -12q16 0 29 4q262 94 483 283q225 190 225 385q0 109 -14 197 q-16 94 -80 170q-68 78 -196 124q-129 48 -369 64q-53 0 -66 -16q-18 -25 -20 -45v-7q-16 -137 -27 -243q-14 -172 -18 -512v-27zM518 602q20 0 31.5 -6t15.5 -25q-4 4 -8 19q-4 49 -8 147q0 90 -2 158v29q4 344 18 520q10 102 27 227v4q0 2 4 6q0 -16 -2 -16 q223 -12 342 -57q111 -39 164 -103q49 -57 61 -129q12 -88 13 -184q0 -162 -197 -322q-203 -174 -457 -268h-2z" />
<glyph unicode="S" horiz-adv-x="1656" d="M41 375q0 -143 84 -170q117 -113 311 -197q201 -88 445 -88q270 0 503 201q231 197 232 534q-6 236 -109 375q-92 129 -239 213q-131 70 -297 121q-160 47 -277 100q-51 20 -123 72q-37 18 -36 39q0 39 38 59q55 37 140 37q10 4 30 4q90 0 213 -86q152 -100 193 -215 q43 -121 151 -121q61 0 103 54q27 41 27 73q0 8 -3 21q-2 8 -2 14q-29 76 -51 144q-14 43 -35 129q-31 133 -141 133l-4 2q-16 2 -23 2l-2 2q0 2 -2 2q-203 123 -501 147v-12q-188 -2 -312 -90q-180 -98 -194 -381q0 -141 102 -254q88 -98 209 -166q131 -72 270 -112 q139 -45 254 -91q88 -6 162 -22q61 -123 62 -287q0 -131 -113 -229l2 -47q0 -47 2 -47l37 36q-113 -25 -173.5 -30.5t-78.5 -5.5q-129 0 -222 34.5t-163 106.5q-152 150 -180 287q-6 163 -135 163h-2q-137 0 -138 -178q0 -66 -6 -131q-8 -66 -8 -145zM123 375q0 74 8 137 q6 68 6 139q0 96 56 97q53 0 55 -93q31 -160 203 -333q80 -84 187 -125t257 -41q6 0 20 2l-4 -2q111 0 248 114q141 123 141 291q0 135 -79 236q-82 104 -195 149q-133 53 -262 92q-131 39 -252 107q-109 61 -190 149q-80 86 -80 197q12 231 153 311q139 80 353 82v2 q238 -25 393 -139q6 0 16 -2l4 -2q8 0 29 -4q55 0 70 -70q16 -68 36 -135q14 -47 47 -133q0 -4 3 -8q2 -8 2 -13q0 -10 -11 -24q-14 -20 -37 -21q-50 0 -73 66q-47 139 -226 256q-150 100 -258 100q-29 0 -43 -4q-104 0 -174 -51q-73 -48 -73 -125q0 -59 71 -109 q72 -53 138 -79q139 -61 286 -103q158 -47 279 -115q129 -74 215 -190q86 -119 92 -328q0 -299 -203 -471q-211 -180 -450 -180q-227 0 -412 82q-184 78 -301 192q-45 14 -45 99z" />
<glyph unicode="T" horiz-adv-x="1835" d="M41 1518q0 -23 14 -62q41 -78 119 -78h2q123 0 180 115q37 63 152 109q129 53 217 69q6 0 12 2h6q-33 0 -49 11.5t-16 54.5q2 -4 6 -39l2 -8q10 -102 16 -269q0 -221 -2 -409q-2 -63 -2 -99q-12 -399 -32 -548q-18 -197 -37 -258q23 59 37 59q-98 0 -99 -137 q0 -68 27 -89.5t94 -21.5q18 2 66 6l45 4h12q63 4 92 4q100 0 203 -14q66 0 93.5 27.5t27.5 83.5q0 139 -94 145q14 0 26 6q-20 45 -37 197q-20 156 -20 545q0 346 8 510q10 186 20 260q6 29 11 39q0 -41 -15.5 -50.5t-52.5 -9.5h6q6 -2 13 -2q90 -14 215 -59 q117 -41 157 -113q55 -121 187 -121q63 0 110 56q33 33 33 82q0 27 -18 63q-43 29 -107 59q-51 125 -72 230q-33 106 -167 106l-127 -4q-221 -10 -363 -16q-59 -4 -188 -4q-189 0 -363 14h-6l-2 2h-2h-57q-76 0 -129 -135q-10 -39 -54 -107q-45 -72 -82 -139 q-10 -18 -13 -30.5t-3 -36.5zM123 1518q0 16 6 26q43 78 80 137q47 80 61 127q20 76 52 76h57h2l2 -2h2q178 -14 367 -14q131 0 192 4q86 4 369 16q57 2 119 4q70 0 88 -51q25 -72 84 -153q70 -94 100 -148l2 -4q6 -10 6 -20q0 -16 -12 -29q-20 -27 -49 -27q-80 0 -113 76 q-55 98 -203 154q-147 51 -237 63q-6 0 -15 2h-10q-14 0 -14 -4q-4 -10 -10 -45q-10 -80 -21 -276q-8 -164 -8 -506q0 -397 20 -555q18 -168 43 -219q23 -55 43 -56q18 -2 19 -63q0 -29 -33 -29q-106 14 -209 14q-31 0 -98 -4h-12l-45 -4q-47 -4 -66 -6q-33 0 -33 29 q0 55 17 55q16 0 39 53t43 217q20 152 32 557q0 35 2 101q2 190 2 411q-6 170 -16 277l-2 18q-4 27 -6 31q0 4 -17 4h-8q-10 -2 -16 -2q-98 -16 -242 -76q-147 -59 -194 -147q-33 -70 -107 -70h-2q-29 0 -43 29q-8 20 -8 29z" />
<glyph unicode="U" horiz-adv-x="1777" d="M41 1851q12 -139 100 -139q-16 0 -32 -8q18 -51 30 -213q8 -139 8 -297q0 -43 -2 -119q-2 -104 -2 -151q-2 -92 -6 -189q0 -6 -4 -106q-2 -72 -6 -127h6v43v-37q4 -348 123 -471q111 -123 307 -123q170 10 361 90q162 68 348 117q-41 2 -76 2q0 39 -2 70q14 -27 33 -27 q-61 0 -85 -33t-24 -106q0 -63 28 -87t91 -24q123 14 190 14q70 0 191 -14q61 0 90 25.5t29 85.5q0 143 -101 143q16 0 33 -59q-20 70 -33 258q-6 66 -9 188.5t-3 362.5q4 410 23 596q14 139 34 186q-18 -6 -43 -6q53 0 76 34.5t23 110.5q0 59 -29 86t-94 27q2 -2 4 -2 q-119 -14 -191 -15q-72 0 -190 15q-2 0 -6 2h-8q-104 0 -105 -115q6 -70 27.5 -102.5t64.5 -36.5q-12 4 -24 43q18 -70 31 -268q8 -66 8 -275q0 -45 -2 -127q-2 -113 -2 -166v-86q-2 -92 -2 -188q2 -80 2 -205q-1 -12 -58 -20q-109 -41 -241 -76q-115 -33 -211 -39 q-51 0 -82 5t-47 15q-25 43 -29 367h-10q2 20 2 68q0 115 2 182q2 410 26 598q18 137 39 174q-16 -4 -30 -4q100 0 100 143q0 49 -57 98q-4 2 -15 7q-49 20 -73 20q-92 -14 -189 -14q-86 0 -188 14q-63 0 -91 -27.5t-28 -87.5zM123 1853q0 31 31 31q106 -14 194 -14 q100 0 195 14q12 0 35 -12l2 -2q20 -14 20 -29q0 -61 -18 -61q-25 0 -43 -43q-27 -51 -47 -219q-25 -186 -27 -586q-2 -68 -2 -184q0 -104 2 -150h6q4 -305 59 -348q25 -20 66 -29.5t117 -9.5q106 6 229 41q115 31 248 78q113 37 113 98q0 125 -3 205q0 96 3 188v86 q0 53 2 166q2 82 2 127q0 215 -9 283q-16 180 -34 233q-23 63 -41 66q-18 2 -23 59q0 31 23 31h6l4 -2q123 -14 194 -15q74 0 195 15q4 0 10 2q23 0 23 -31q0 -63 -17 -63q-18 0 -34 -47q-20 -49 -39 -224q-18 -182 -23 -587q0 -244 3 -368t9 -192q14 -160 39 -219 q23 -53 43 -53q18 0 19 -61q0 -29 -33 -29q-125 14 -195 14t-194 -14q-33 0 -33 29q0 57 27 57t47 88q4 14 4 33q-14 0 -31 -6q-176 -47 -354 -119q-176 -74 -332 -84q-156 0 -246 96q-96 106 -100 416v37v39h-2q4 72 6 153q4 84 6 185q0 47 2 153q2 76 2 119q0 160 -8 303 q-16 182 -35 234q-20 61 -39 63q-20 0 -24 59z" />
<glyph unicode="V" horiz-adv-x="1843" d="M41 1870q0 -25 10 -51q59 -104 119 -105q-4 0 -10 -18q47 -70 110 -226q68 -158 219 -608q31 -94 89 -266q23 -68 43 -133q43 -131 120 -393q41 -166 168 -166q94 0 168 159q6 18 21 58q12 39 37 106q2 6 6 19q25 80 43 125l4 4q27 113 90 319q47 92 98 221 q135 459 199 627q59 172 94 232q-6 -80 -12 -80q43 0 125 104q14 14 17 31.5t3 36.5q0 55 -27.5 74.5t-88.5 19.5q-43 -8 -91 -8q-31 -2 -90 -2h-112q-63 0 -103 8q-133 0 -133 -94q-4 -14 -4 -43q0 -59 25.5 -85t83.5 -26q-20 0 -27 -2v-20q0 -39 -18 -162v-2 q-39 -197 -173 -574q-39 -111 -65 -198l-25 -74q-23 -70 -32 -94h69q4 0 13 4q4 4 6 4q-6 14 -11 31q-29 82 -41 118q-6 20 -30 93q-10 33 -33 100q-162 434 -201 596q-28 117 -28 169q0 9 2 17q2 6 2 8q-8 -27 -35 -26q53 0 78.5 23.5t25.5 84.5q0 27 -8 60 q-14 51 -41.5 71.5t-87.5 20.5q-43 -6 -125 -6q-55 -2 -129 -2q-92 0 -194 14q-66 0 -89.5 -14.5t-23.5 -79.5zM123 1870q0 12 24 12q106 -14 201 -14q76 0 131 2q84 0 129 6q35 0 43 -31q6 -25 6 -39q0 -27 -22 -26q-35 0 -47 -43q0 -2 -2 -13q-2 -14 -2 -22q0 -61 30 -191 q41 -174 203 -606q16 -49 33 -96q18 -57 31 -92q12 -39 37 -111q12 -37 14 -43q23 -53 33 -61q16 0 34 55q10 25 33 94l25 74q27 88 65 199q137 399 174 585q20 127 21 179q0 39 -6 51q-16 53 -49 53q-27 0 -27 29q0 16 4 24q0 31 43 31q41 -8 111 -8h112q61 0 92 2 q47 0 95 8q28 0 28 -11q0 -13 -6 -20q-36 -71 -56 -71h-1q-20 0 -55 -50q-37 -53 -103 -215q-72 -178 -201 -571q-61 -190 -96 -276q-58 -146 -76 -207q-2 0 -16 -45l-4 -15q-18 -45 -43 -125l-6 -18q-25 -68 -37 -107q-14 -39 -21 -57q-39 -104 -90 -104q-66 0 -88 104 q-51 178 -123 397q-20 66 -43 134q-57 172 -88 266q-143 430 -221 614q-74 174 -119 240q-37 55 -57 55t-43 53q-4 10 -4 21z" />
<glyph unicode="W" horiz-adv-x="2367" d="M41 1876q0 -4 2 -14t2 -19q93 -149 147 -149h1q-16 0 -25 -2q29 -49 82 -205q74 -223 194 -625q88 -264 127 -395q23 -72 64 -223q29 -102 49 -170q43 -164 180 -164q123 0 203 219h-37q18 88 60 277q31 143 32 151q66 297 109 530q-2 -12 -14 -20q-14 -14 -15 -14 q-47 0 -94 28q33 -117 92 -331l37 -140q29 -125 66 -280q37 -156 65 -281q53 -135 172 -135q104 6 164 162q8 43 29 131q14 57 18 84q10 45 31 123q12 14 16 22q31 115 62 244q39 115 86 235q121 369 194 568q57 164 80 205q-18 6 -31 6q33 0 123 112q8 12 11.5 27.5 t3.5 32.5q0 55 -27 74.5t-92 19.5q-41 -8 -86 -8q-31 -2 -90 -2q-96 0 -170 14q-63 0 -93 -24.5t-40 -81.5v-17q-2 -14 -3 -14q0 -117 109 -117q-16 0 -29 -4q2 -6 2 -25q0 -49 -20 -172q-35 -184 -170 -575q-37 -102 -51 -166q-10 -35 -19 -70q-12 -43 -18 -67q43 26 91 26 h3l18 -22q6 -2 7 -10q-37 137 -123 460l-21 80q-70 307 -129 615q-18 27 -41 39q-47 159 -128 159h-1q-84 0 -133 -161q-27 -20 -37 -52q-31 -238 -96 -536q-12 -55 -74 -334q-24 -108 -49 -221q25 18 57 18q25 0 54 -16q-6 14 -15 33q-8 18 -14 32q-20 98 -47 191 q-150 442 -180 606q-25 117 -25 176q0 8 2 21q2 10 2 12q-8 -20 -37 -21q49 0 74 25t25 80q0 25 -6 55q0 39 -32 61.5t-77 22.5l-29 -12l2 -2q-23 -2 -110 -2h-131q-27 0 -72 4q-57 12 -104 16q-59 0 -86 -21.5t-27 -76.5zM123 1876q0 16 27 16q61 -6 92 -14q41 -6 88 -6 h131q59 0 83.5 1t45.5 3q10 4 20 10l6 2q8 0 9 -12q6 -25 6 -45q0 -23 -17 -23q-33 0 -45 -51q0 -4 -2 -14q-2 -16 -2 -29q0 -72 27 -192q33 -176 182 -617q27 -74 45 -141l31 -111q14 -43 24 -43q13 0 23 47l123 553q70 330 98 545q6 53 29 98q23 43 59 43q37 0 58 -38 q20 -37 32 -95q61 -301 129 -579q94 -385 144 -576q2 -16 16 -30l4 -3q10 0 19 33q16 61 24 84l15 56q18 78 49 159q139 414 172 588q22 120 22 181v5q0 37 -6 52q-16 59 -49 59q-27 0 -27 35v10q2 8 2 12q6 33 43 33q78 -14 179 -14q61 0 92 2q49 0 92 8q29 0 29 -12 t-4 -19q-37 -72 -52 -71q-16 0 -41 -50q-27 -49 -86 -215q-70 -188 -194 -571q-66 -199 -88 -283q-23 -80 -62 -202l-2 -6q0 -6 -14 -58q-16 -61 -31 -119q-4 -18 -20 -75q-14 -61 -25 -99q-33 -100 -88 -102q-63 0 -92 78l-129 516q-74 299 -131 514q-8 31 -19 31l-4 -2 q-8 -12 -12 -31q-45 -244 -109 -527q-78 -352 -112 -528h4q-27 -55 -70 -55q-76 0 -100 102q-8 31 -45 156q-43 154 -70 239q-45 150 -127 398q-127 422 -194 626q-63 176 -90 222q-25 41 -45 41q-23 0 -66 86q0 2 -2 8q-2 4 -2 6z" />
<glyph unicode="X" horiz-adv-x="1882" d="M41 12q0 -63 23.5 -77.5t85.5 -14.5q12 2 40 4q35 4 56 6q49 4 78 4q23 0 92 -6l33 -2q39 -4 61 -6q51 -6 70 -8q84 0 127 68q31 55 30 86q0 45 -27.5 71.5t-74.5 26.5q14 0 16 -2q2 -4 2 -12q0 35 35 116q53 131 266 445q-10 -8 -28 -9q-18 0 -33 9q197 -313 237 -437 q31 -76 31 -120v-4q6 10 23 10q-104 0 -105 -99q10 -2 23 -2q20 -78 52 -112.5t79 -34.5q23 4 123 12q14 0 28 2q33 2 60 4q68 4 90 4q98 0 197 -14q57 0 83.5 19.5t26.5 74.5q0 27 -18 60q-59 88 -90 106q-14 8 -62 62q-55 66 -160 221q-82 119 -313 512q-18 29 -18 51 q0 18 14 39q219 412 315 559q102 53 136 66q23 12 30 12q10 8 35 32.5t53 71.5q18 45 19 60q0 53 -26.5 72.5t-84.5 19.5q-98 -14 -196 -14q-45 0 -117 6q-78 6 -119 14q-45 0 -74.5 -17.5t-54.5 -54.5q-25 -39 -25 -77q0 -78 82 -105q10 -2 13 -14q-6 0 -6 2q0 -29 -15 -72 q-29 -92 -188 -317q18 -16 33 -17v6l-5 15q-158 240 -186 332q-20 53 -20 86q0 -6 -5 -11q-8 -4 -18 -4q43 0 68.5 29t25.5 72q0 33 -24 75q-49 72 -129 72q-51 -10 -123 -16q-16 0 -33 -2q-68 -2 -94 -2q-100 0 -199 14q-90 0 -106 -98q0 -47 3 -61.5t15 -26.5 q78 -84 121 -84q-2 -6 -4 -17q41 -25 127 -92q96 -172 301 -584q6 -8 6 -20q0 -6 -8 -12q-254 -459 -363 -635q-129 -94 -164 -115q-23 -35 -30 -39q-33 -10 -101 -104q-18 -45 -18 -58zM127 25q4 4 4 6q33 55 51 63q12 2 68 64q39 41 170 219q109 147 362 536q25 29 25 62 q0 31 -19 61q-205 350 -301 498q-86 135 -137 192q-43 43 -55 43q-18 0 -53 50q-4 6 -4 34q2 23 18 23q100 -14 205 -14q29 0 98 2q16 2 33 2q72 6 127 16q31 0 51 -33q12 -18 12 -32q0 -18 -16 -19q-35 -2 -49 -39q-6 -8 -6 -28q0 -39 24 -113q35 -104 197 -350 q33 -47 49 -58q23 0 57 52q164 236 199 340q18 61 18 96q0 33 -8 43q-20 39 -59 49q-20 6 -21 25q0 16 13 34q20 33 51 33q39 -8 121 -14q74 -6 123 -6q102 0 202 14q23 0 23 -10q0 -4 -8 -21q-16 -27 -30.5 -42t-21.5 -19q-18 0 -53 -37q-39 -37 -143 -172 q-100 -131 -320 -467q-27 -43 -26 -82q0 -45 30 -94q215 -369 316 -514q104 -158 166 -230q57 -66 82 -79q25 -14 61 -78q6 -8 6 -17q0 -12 -22 -12q-100 14 -203 14q-23 0 -96 -4l-60 -4q-14 -2 -28 -2q-100 -8 -123 -12q-37 0 -51 29t-15 38q0 16 23 17q37 0 55 45 q4 16 4 31q0 49 -35 147q-45 133 -245 455q-18 29 -37 28q-20 0 -39 -28q-223 -328 -275 -459q-41 -104 -41 -147q0 -18 7 -27q14 -41 57 -41q20 0 20 -16q0 -14 -18 -43q-16 -29 -51 -29q-23 2 -74 8l-55 6q-35 2 -39 2q-72 6 -94 6q-35 0 -88 -4q-20 -2 -52 -6 q-29 -2 -39 -4q-22 0 -22 9q0 5 4 14z" />
<glyph unicode="Y" horiz-adv-x="1878" d="M41 1833l10 -23q45 -92 82 -118q20 -18 64 -76q43 -41 133 -150q72 -150 233 -585l43 -101q59 -139 86 -202q10 -20 10 -39q0 8 5 10l-27 -53q-96 -176 -139 -242q-33 -49 -58 -74q0 -4 -2 -6q-29 -6 -92 -72q-14 -12 -18 -26.5t-4 -40.5q0 -18 2 -29.5t10 -23.5 q16 -37 35.5 -49.5t62.5 -12.5q6 0 53 4q47 6 54 6h10q53 4 82 4q37 0 98 -10q27 -4 66 -10q37 -6 51 -8q88 0 129 71q14 23 17 40.5t3 41.5q0 49 -23.5 78t-76.5 29q14 0 21 10v4q0 59 38 172q49 158 258 551q231 428 324 582q98 162 139 213q-10 16 -12 16q27 0 115 105 q10 16 12 27.5t2 27.5q0 96 -108 96q-39 -4 -99 -14l-12 -2q-43 -6 -84 -6q-51 0 -109 8l-53 4q-53 6 -67 6q-94 0 -125 -80q-14 -25 -15 -63q0 -53 26 -83t79 -30q-12 0 -21 4v-8q2 -8 2 -12q0 -84 -41 -234q-63 -168 -272 -508q12 -23 18 -22q18 0 29 -2q-4 4 -4 8 q-8 16 -10 22q-213 430 -266 586q-49 121 -50 193q-4 -29 -34 -29q110 0 110 115q0 8 -2 20q-2 16 -2 23q-25 100 -139 100q-43 -8 -119 -12q-76 -6 -125 -6q-53 0 -76 4q-39 4 -92 12q-37 0 -86 -27q-27 -29 -38 -50t-11 -54zM123 1851q0 10 12 19q20 12 33 12 q53 -10 90 -12q25 -4 86 -4q49 0 129 6q78 4 123 12q41 0 49 -31q0 -4 2 -16q2 -8 2 -12q0 -35 -28 -35q-41 0 -48 -49q0 -78 54 -223q55 -166 268 -590q2 -6 10 -23q4 -10 10 -20q23 -37 41 -37q20 0 54 65q217 389 278 574q45 135 45 207v16q-2 12 -2 14q-14 61 -55 68 q-29 0 -29 31q0 18 6 30q13 31 50 31q23 -2 61 -6q25 -2 53 -4q63 -8 117 -8q55 0 98 8q37 6 101 14q22 0 22 -13q0 -9 -4 -15q-33 -63 -43 -64q-14 0 -51 -47q-49 -59 -146 -223q-100 -168 -325 -584q-215 -399 -264 -565q-43 -131 -43 -197q0 -25 4 -33q16 -61 53 -63 q23 0 22 -25q0 -25 -10 -41q-14 -30 -47 -30h-2q-14 2 -49 8q-41 6 -62 10q-72 10 -112 10q-29 0 -94 -4h-7q-6 0 -51 -4q-45 -6 -51 -6q-14 0 -20 16q-4 6 -4 17q0 10 4 14q31 43 45 45t39 25t71 90q49 76 146 250q4 8 14 30q10 18 14 29q2 6 2 21q0 33 -16 71 q-27 63 -86 203l-43 100q-162 373 -238 514q-92 172 -139 236q-53 76 -78 94q-27 23 -59 88z" />
<glyph unicode="Z" horiz-adv-x="1779" d="M41 51q0 -6 2 -16q2 -12 2 -21q18 -53 50 -80.5t85 -27.5q111 8 241 12t327 4q287 -6 573 -6q51 0 77.5 6t43.5 23q29 18 69 80q10 33 21 59q39 115 51 145q8 0 43 -2l43 -2q61 57 70 142q0 143 -135 143q-37 0 -66 -14.5t-59 -46.5q-23 -29 -47 -50q-76 -63 -185 -102 q-94 -33 -221 -59q-104 -18 -178 -25q-35 -2 -68 -4h-16q-72 0 -107 2q-33 0 -75 -2h-33q37 0 50 -12.5t13 -51.5q0 4 2 7q76 147 207 354q152 242 223 360q125 254 271 525q92 115 293 331q53 78 53 123q0 109 -125 109q-31 0 -154 -2q-45 -2 -98 -2q-123 -4 -352 -8h-320 q-98 0 -104 16q-94 0 -201 -123q-8 -16 -31 -61q-20 -37 -28 -56q-29 -51 -66 -100q-39 -51 -39 -119q10 -110 117 -110h2q61 0 127 59q29 31 64 74q43 51 209 104q135 45 309 45q39 0 121 -4q6 -2 10 -2q29 -8 41 -12q-53 0 -53 59q0 2 -3 2q-111 -207 -194 -338 q-57 -92 -158 -254q-6 -10 -59 -94q-102 -168 -283 -444q-143 -217 -311 -422q-41 -53 -41 -111zM123 51q0 31 22 60q160 195 316 428q193 295 284 446q53 84 60 94q100 162 158 254q104 166 196 342q12 23 12 37q0 23 -18 23q-16 4 -23 6q-18 4 -22 6q-70 6 -137 6 q-184 0 -336 -49q-195 -68 -246 -131q-18 -23 -59 -68q-35 -35 -68 -35t-37 33q0 37 23 66q45 61 71 110q8 18 29 56q23 45 31 61q45 80 82 80q10 -16 151 -16h320q233 4 354 8q53 2 94 2q125 2 156 2q43 0 43 -27t-37 -73q-178 -240 -297 -426q-137 -215 -270 -437 q-72 -119 -223 -360q-123 -193 -211 -361q-4 -8 -11 -34q0 -27 19 -27h31q43 2 75 2q35 -2 109 -2h18q33 2 70 4q88 6 190 27q113 23 232 61q123 45 211 117q23 18 55 59q31 33 64 33q53 0 53 -57q-6 -51 -43 -86q-63 -61 -96 -105q-27 -37 -74 -110q-31 -45 -51 -58 q-16 -14 -72 -14q-287 0 -573 6q-199 0 -330 -4t-242 -12q-37 0 -49 39q0 4 -2 14q-2 6 -2 10z" />
<glyph unicode="[" horiz-adv-x="438" d="M41 -248h356v242h-123v1886h123v242h-356v-2370zM123 -166v2206h192v-78h-122v-2050h122v-78h-192z" />
<glyph unicode="\" horiz-adv-x="972" d="M41 1886l653 -1919h238l-651 1919h-240zM156 1804h65l596 -1755h-63z" />
<glyph unicode="]" horiz-adv-x="438" d="M41 -6v-242h356v2370h-356v-242h123v-1886h-123zM123 -88h123v2050h-123v78h192v-2206h-192v78z" />
<glyph unicode="_" horiz-adv-x="1325" d="M41 4v-219h1243v219h-1243zM123 -78h1079v-55h-1079v55z" />
<glyph unicode="`" horiz-adv-x="428" d="M41 1958l94 -250q72 -160 152 -160q100 0 100 111q0 37 -25 104l-71 195h-250zM160 1876h73l54 -141q18 -49 18 -76q0 -29 -18 -29q-39 0 -74 105z" />
<glyph unicode="a" horiz-adv-x="1740" d="M41 319q0 -53 25.5 -72.5t87.5 -19.5q59 4 174 9h6q49 0 153 -9h13q47 0 73.5 13.5t38.5 46.5q16 25 17 61q0 43 -22.5 69.5t-65.5 26.5q-6 0 -13 7q12 -6 15 -21q0 31 28 76q-12 -27 -43 -27h631q-27 0 -37 25q27 -53 31 -82q0 8 8 16l2 2v2q-70 -23 -69 -129 q4 -27 30.5 -50t67.5 -32q14 -4 49 -4q55 4 166 9h6q37 0 139 -7q25 -2 35 -2q47 0 88 41q25 59 25 103l-14 16q-49 72 -101 72q2 0 8 8q-20 4 -84 29q-66 133 -184 438l-8 8l-266 531q-48 69 -100 69h-1h-14q-16 -2 -31 -2h-35h-32h-160q-113 4 -164 6q-33 0 -56.5 -27.5 t-37.5 -101.5q-10 10 -10 27v-19q18 -109 206 -125h46q0 -33 -48 -90q-78 -117 -170 -301q-143 -248 -204 -336t-93 -116q2 -2 7 -6q2 -4 4 -5q-23 0 -46.5 -16t-58.5 -57q-12 -18 -12 -54zM123 319q0 8 2 13q20 33 33 33q12 0 45 30q37 33 104 131q72 104 209 344 q94 188 166 293q61 90 61 144q-8 70 -122 75q-117 6 -129 54v8q0 6 2 10q6 10 18 10q51 -2 164 -6h162h32h35q14 0 31 2h14q14 0 29 -26l270 -541l8 -8q125 -256 183 -346q66 -102 98 -133q33 -29 47 -29q16 0 31 -37l2 -4q0 -6 -6 -17q-10 -10 -23 -10q-10 0 -37 2 q-104 6 -141 6h-6q-111 -4 -166 -8q-25 0 -35 2q-25 4 -28 15q0 33 16 39q12 4 31 18q12 16 12 43q-4 37 -37 109q-10 27 -39 26h-631q-18 0 -28 -16q-39 -78 -39 -123q6 -35 31 -45q18 -10 43 -15q12 0 12 -14q0 -12 -6 -20q-8 -18 -39 -19l-17 2q-104 6 -153 6h-6 q-115 -4 -174 -8q-29 0 -29 10zM561 672q0 -14 21 -15h522q23 0 22 15q0 18 -2 20q-12 27 -39 78l-4 6q-10 14 -26 47q-14 25 -29 47q-80 195 -156 310q-12 16 -22 16t-19 -14q-16 -27 -45 -82q-25 -43 -34 -64q-20 -39 -23 -41q-41 -78 -65 -121q-16 -29 -44 -73 q-6 -12 -12 -23q-31 -51 -41 -84q-4 -12 -4 -22zM582 739q61 0 61 -67v-2q8 27 35 67q6 10 12 23q27 45 43 74q20 37 60 108q10 20 28 55q12 35 37 111q27 78 41 117q-23 -111 -51 -111q-18 0 -43 19q68 -104 147 -299q10 -16 29 -50q20 -35 31 -49q4 -8 16 -33 q20 -39 29 -57q-12 2 -13 27q1 67 60 67h-522z" />
<glyph unicode="b" horiz-adv-x="1705" d="M41 1452q6 -57 27.5 -85t70.5 -32q-2 0 -8 -2l-2 -2q16 -27 29 -114q10 -82 10 -207v-62q-2 -39 -2 -76q-10 -252 -25 -331q-20 -156 -32 -193q18 86 34 86q-49 0 -70.5 -25.5t-29.5 -86.5q0 -45 27.5 -73t87.5 -28q14 0 30 2q100 6 138 6h84q29 -2 90 -2h10h6 q16 -2 68 -2q178 0 254 -2q76 0 127 2t90 6q373 92 485 299q123 86 125 166q-2 186 -149 293q-125 90 -324 129q27 -14 36 -30.5t9 -53.5q-16 -33 -45 -43q303 92 303 258q0 37 -31 107q-33 66 -164 125q-106 43 -317 67q-84 10 -242 11q-117 0 -315 -11h-55h-56 q-57 0 -159 8q-66 0 -90.5 -19t-24.5 -85zM123 1456q0 18 29 19q106 -8 163 -9h56h57q199 10 313 11q150 0 232 -11q195 -20 297 -61q96 -41 121 -86q23 -49 22 -70q0 -113 -239 -178q-12 -2 -19 -12q0 -12 10 -19q184 -35 303 -118q113 -82 115 -226q-2 -106 -104 -221 q-100 -113 -435 -162q-39 -4 -86 -6t-120 -2q-76 2 -254 2q-47 0 -62 2h-12h-10q-59 0 -88 2h-86q-41 0 -146 -6l-24 -2q-31 0 -31 14q2 35 18 35q18 0 37 35q20 35 41 137q16 96 27 346q0 37 2 78v62q0 133 -10 219q-18 113 -41 147q-25 39 -49 41q-23 2 -27 39zM451 1143 q0 -16 2 -31q0 -22 52 -22h5q176 0 288.5 8t190.5 24q156 35 156 131q0 80 -103 115q-98 33 -510 39q-33 0 -43 -29q-8 -20 -18 -75q-10 -45 -20 -160zM461 879q0 -133 2 -194.5t8 -100.5q16 -113 37 -150q14 -33 31 -47q10 -8 53 -8q229 6 369 31q139 29 202 67 q63 39 92 103q16 47 35 131q-4 57 -16 98q-12 47 -64 90q-51 43 -159 74q-106 31 -301 49h-121q-53 0 -125 6q-41 0 -41 -16v-64q-2 -23 -2 -69zM500 946q74 -6 129 -6h116q172 -14 283 -45q86 -23 131 -59q31 -25 37 -50q8 -20 12 -67v-2q-14 -70 -28 -105q-20 -41 -60 -65 q-49 -31 -176 -58q-141 -23 -352 -28q-2 -2 -2 -8q-6 6 -8 16q-14 33 -29 127q-6 37 -8 96.5t-2 186.5q0 45 2 65v68q0 -66 -45 -66zM510 1171q25 0 25 -53q-3 11 -3 21q0 6 3 16q8 100 16 131q6 37 14 64q-6 -25 -33 -25q395 -6 484 -35q47 -10 47 -37q0 -39 -90 -51 q-76 -14 -187.5 -22.5t-275.5 -8.5z" />
<glyph unicode="c" horiz-adv-x="1755" d="M41 874q0 -299 262 -514q249 -202 603 -202h3q135 0 326 30q195 27 309 88q98 55 98 115q0 29 25 103q14 41 33 94q10 33 12 37q0 2 2 10v10q0 49 -39 84q-53 29 -84 29h-2q-53 0 -86 -36t-45 -104l-2 33q-66 -88 -192 -155q-129 -74 -246 -74q-186 0 -363 133 q-170 127 -170 311q0 190 140 330q139 135 317 135q2 0 19 2h22q137 0 264 -53q141 -55 223 -154q54 -73 113 -73h2h17q45 0 73.5 24.5t34.5 65.5q0 27 -2 51q-2 12 -2 18q-47 63 -70 144q-10 39 -37 78q-33 37 -96 55q-168 70 -307 88q-164 14 -287 14q-152 0 -305 -55 q-150 -51 -276 -150q-123 -92 -205 -225q-82 -135 -82 -287zM123 874q0 127 70 244q72 117 184 203q119 90 254 137q139 51 278 51q119 0 277 -14q137 -18 291 -84q39 -10 59 -31q16 -23 20 -45q25 -88 68 -149q0 -4 2 -10q2 -12 2 -25q-4 -16 -26 -16h-17q-25 0 -47 39 q-92 115 -260 182q-143 59 -295 59h-22q-16 -2 -19 -2q-211 0 -375 -160q-164 -164 -164 -387t203 -377q200 -149 409 -149h3q131 0 285 84q156 88 229 192l6 23q10 37 51 37h2q12 0 33 -12q8 -8 8 -19v-2l-2 -4q-18 -49 -41 -121q-28 -93 -28 -125q0 -22 -50 -41 q-109 -57 -288 -82q-178 -30 -306 -30h-8q-328 0 -555 184q-231 188 -231 450z" />
<glyph unicode="d" horiz-adv-x="1677" d="M41 328q0 -63 24.5 -82t88.5 -19q23 2 77 2q27 -2 84 -2h43h52q29 0 75 2q20 2 54 4q23 2 26 3q434 27 742 217q330 207 329 475q-6 197 -114 327q-100 119 -265 187q-154 59 -344 84q-199 20 -385 22h-10q-78 0 -92 -2q-12 -2 -64 -2h-92q-35 0 -92 4q-61 0 -86.5 -22.5 t-25.5 -81.5q12 -104 86 -113q-6 0 -21 4l-8 4q14 -41 20 -120q8 -82 9 -170q0 -27 -2 -76q-2 -68 -3 -101q-10 -252 -22 -331q-16 -86 -29 -109h2q25 10 39 10q-51 0 -73.5 -29.5t-22.5 -84.5zM123 328q0 33 14 32q12 0 31 31q14 25 37 135q14 100 24 344q0 33 2 103 q2 49 2 76q0 92 -8 178q-8 98 -26 145q-18 35 -31 39q-16 2 -21 37q0 18 29 18q57 -4 94 -4h92q61 0 76 2q12 2 80 2h10q180 -2 377 -22q178 -20 322 -78q141 -57 231 -164q90 -109 96 -276q0 -225 -290 -404q-295 -180 -711 -205q-4 0 -25 -2q-31 -2 -49 -4q-42 -2 -69 -2 h-52h-43q-55 0 -79 2q-61 0 -86 -2q-27 0 -27 19zM451 879q0 -141 1 -197.5t7 -95.5q6 -96 22 -150q0 -6 6 -18q2 -8 29 -8q311 18 541 172q221 154 221 342q-8 281 -229 366q-217 86 -500 92q-47 0 -53 -22q-7 -16 -11 -41q-14 -53 -22 -154v-16q-10 -156 -12 -270z M514 492q27 0 37 -9.5t12 -33.5q-16 53 -22 145q-6 37 -7.5 92t-1.5 193q2 111 13 266v14q10 105 20 144q4 20 8 32q-2 -35 -24 -35q264 -6 469 -86q172 -70 178 -292q0 -150 -186 -273q-207 -139 -496 -157z" />
<glyph unicode="e" horiz-adv-x="1630" d="M41 328q0 -63 23.5 -82t89.5 -19q86 6 170 6h176h147q92 -2 172 -2q53 0 225 -2q102 0 226 -2q63 0 96 39l6 6q16 12 29 19q35 43 69 74q12 12 27 20q4 4 16 10q18 14 31 23q45 27 45 104q-4 55 -31.5 80t-87.5 25q-33 0 -104 -31q-27 -12 -70 -29q-6 -4 -8 -4 q-113 -51 -317 -69q-207 -18 -318 -19q-6 0 -35 2h-36q-20 0 -31 17q-18 41 -19 110v277q0 41 3 59q0 39 2 55q0 -57 -58 -57h391h19q123 -4 196 -8q63 -2 78 -25q43 -78 115 -78h4q61 0 93 30t32 77v8q-2 6 -2 8q-14 57 -14 117q0 59 14 109q0 6 2 14v6q0 51 -32 76.5 t-87 25.5h-2q-29 0 -47 -9t-35 -25q-6 -6 -18 -13q-49 -39 -121 -55q-92 -16 -221 -16h-346q45 0 45 -62q2 53 10 107q4 16 6 35q4 29 8 38q2 39 8 103q2 10 3 16q4 -106 6 -106q18 0 82 -2q35 0 79 -2q66 0 209 -9h13q141 -10 221 -22q90 -12 131 -39q63 -47 137 -47h12 q49 0 76 22q25 16 31 33t6 41q0 18 -22 60q-4 4 -9 14q-53 37 -86 70q-27 29 -88 79l-6 4q-35 23 -72 29q-35 10 -69 10h-12q-46 0 -52 -2q-203 0 -405 -6h-6q-287 -4 -428 -4q-94 0 -170 8q-63 0 -89 -22.5t-26 -81.5q6 -57 28.5 -85t71.5 -28q-8 8 -14 88q14 -47 27 -200 q10 -72 10 -183q0 -27 -2 -69q-2 -59 -2 -88q-6 -236 -25 -334q-14 -135 -33 -191q18 88 37 88q-45 0 -71.5 -30.5t-26.5 -83.5zM123 328q0 33 16 32q16 0 35 33q25 45 41 137q20 115 27 347q0 27 2 90q2 45 2 69q0 117 -10 195q-18 111 -41 143q-25 35 -48 39q-20 0 -24 35 q0 18 29 18q80 -8 174 -8q145 0 436 4q219 6 438 6q2 2 17 2h12q23 0 49 -8q27 -6 45 -16q51 -41 84 -74q45 -45 84 -72l4 -4q4 -6 4 -10t-4 -6q-8 -8 -27 -8h-12q-49 0 -90 31q-49 33 -166 53q-115 16 -227 24h-19q-145 8 -206 9q-45 2 -80 2q-63 2 -82 2q-55 0 -74 -25 q-18 -25 -25 -47q-4 -10 -8 -43q-2 -18 -6 -37q-8 -49 -12 -121q0 -23 37 -22h346q145 0 237 18q88 18 156 70l6 4q14 12 19 16q10 10 24 11h2q37 0 37 -21v-4q-2 -4 -2 -6q-14 -55 -14 -119q0 -63 14 -127l2 -2v-4q0 -25 -43 -25h-4q-25 0 -41 31q-29 66 -147 72 q-70 4 -195 8h-23h-393q-25 0 -24 -21q-2 -16 -2 -55q-2 -20 -2 -63v-277q0 -98 26 -147q31 -61 105 -62h36q29 -2 35 -2q113 0 326 19q217 20 340 75q45 16 82 35q49 23 69 23q35 0 37 -27q0 -25 -12 -35q-16 -12 -41 -28q-18 -10 -39 -31q-41 -35 -69 -72q-23 -14 -37 -28 t-39 -15q-123 2 -226 2q-172 2 -225 2q-80 0 -172 2h-147h-176q-86 0 -172 -6q-29 0 -29 19z" />
<glyph unicode="f" horiz-adv-x="1538" d="M41 1444q6 -57 28.5 -85t71.5 -28q-8 8 -14 88q14 -47 27 -200q10 -82 10 -205v-56q-2 -37 -2 -71q-2 -10 -2 -37v-23q-8 -203 -23 -303q-12 -68 -22 -96l6 2q27 12 37 12q-43 0 -70 -30.5t-27 -83.5q0 -57 26 -79t87 -22q59 4 164 9h12q39 0 88 -7q25 -2 60 -4 q27 -4 37 -4q114 0 114 99q0 51 -21 82q-22 30 -57 34h4q-4 8 -14 45q-14 55 -18 176q0 33 -4 99v10q-2 16 -3 35.5t-1 68.5q0 43 2 62v59q0 -63 -58 -63l297 -2q59 0 197 -6l18 -2q63 -4 78 -23q37 -80 115 -80h2q125 0 125 105q0 6 -2 10v6q-14 72 -15 119q0 49 15 112 q0 6 2 11v6q0 104 -117 104h-4q-57 0 -94 -43v-4q-55 -41 -127 -55q-86 -18 -224 -19l-247 4q45 0 45 -61q2 49 10 113q2 8 6 34q4 29 8 41q2 39 8 103q2 10 3 16q4 -106 8 -106q16 0 73 -2q33 0 74 -2q94 -4 191 -13q104 -10 188 -26q86 -16 125 -41q59 -45 133 -45h14 q53 0 76 22q27 12 32 27.5t5 48.5q0 45 -43 80q-45 35 -74 63q-57 53 -94 80q-23 18 -72 31q-35 10 -69 10h-15h-6q-6 -2 -8 -2q-279 0 -395 -2h-395q-90 0 -170 8q-63 0 -89 -22.5t-26 -81.5zM123 1448q0 18 29 18q82 -8 174 -8h395q117 2 395 2q2 0 8 2h6h15q23 0 49 -8 q29 -6 43 -16q33 -25 86 -74q39 -37 84 -72q8 -6 8 -12t-4 -8q-8 -8 -27 -8h-14q-47 0 -88 30q-61 35 -154 54q-104 20 -196 28q-100 8 -197 13q-41 2 -73 2q-57 2 -74 2q-57 0 -76 -25q-18 -25 -25 -47q-4 -10 -8 -47q-4 -23 -6 -37q-8 -55 -12 -125q0 -23 37 -22l247 -5 q152 0 240 21q90 18 160 70q12 10 18 20q10 10 27 10h4q35 0 35 -22v-2q-2 -4 -2 -6q-14 -68 -15 -121q0 -51 15 -127v-2q2 -4 2 -6q0 -23 -43 -23h-2q-27 0 -39 31q-31 66 -150 71l-22 2q-135 6 -197 7l-297 2q-25 0 -24 -19v-55q-2 -20 -2 -66q0 -55 1 -75.5t3 -38.5v-6 q4 -66 4 -93q2 -135 22 -200q18 -59 35 -78q25 -20 35 -23q14 -4 14 -34q0 -18 -30 -19q-16 2 -33 4q-39 2 -60 4q-55 6 -96 6h-12q-104 -4 -164 -8q-29 0 -29 19q0 33 15 32q8 0 28 27q12 31 31 123q16 127 25 315v25q0 18 2 27q0 37 2 75v62q0 131 -10 217 q-18 111 -41 143q-25 35 -48 39q-20 0 -24 35z" />
<glyph unicode="g" horiz-adv-x="1792" d="M41 889q0 -279 264 -475q250 -184 604 -185q147 0 338 41q199 39 316 95q92 63 92 110v31q-14 14 -21 24q0 154 2 220.5t9 101.5q8 74 24 96q-10 -10 -27 -10q84 0 109 115q0 29 -17.5 57.5t-52.5 38.5q-16 8 -55 8q-8 0 -45 -2q-25 0 -45 -2h-88h-90q-57 0 -86 4 q-66 0 -94.5 -22.5t-28.5 -79.5q12 -96 78 -107v25q-2 43 -2 80q10 -45 16 -164q17 -58 19 -199q-8 -82 -9 -188q0 12 -18 18q-63 -16 -100 -24q-4 0 -17 -2q-59 -8 -100 -11q-188 0 -371 119q-160 102 -160 279v20q-2 16 -2 19q0 160 113 262q124 116 306 116h3q14 0 31 2 h29q117 0 225 -28q121 -31 254 -121q45 -57 110 -57h19q90 0 104 88q0 6 2 12v6q0 39 -20 68q-33 43 -47 73q-25 63 -99 109q-180 70 -319 84q-137 12 -285 12q-301 0 -575 -168q-293 -178 -293 -489zM123 889q0 264 254 420q252 155 528 155h4q141 0 277 -12 q133 -14 291 -76q45 -29 59 -67q16 -37 55 -88q6 -8 6 -21v-4q-2 -4 -2 -6q-2 -14 -22 -14h-19q-31 0 -51 32q-158 106 -293 144q-109 30 -237 30h-8h-29q-16 -2 -31 -2q-213 0 -364 -139q-139 -127 -140 -321q0 -2 2 -19v-20q0 -221 197 -349q207 -131 418 -131 q45 2 112 11q10 2 15 2q57 12 110 26q78 23 78 62q0 104 8 184q-4 164 -20 223q-14 68 -35 90q-16 18 -37 27q-16 4 -18 33q0 16 35 16q31 -4 92 -4h90h90q20 2 45 2q37 2 45 2q18 0 27 -4q14 -2 14 -12q-6 -39 -27 -39q-29 0 -43 -27q-20 -27 -36 -129q-6 -39 -8.5 -110.5 t-2.5 -237.5q8 -18 21 -37v-4q0 -16 -45 -37q-111 -51 -297 -88q-186 -39 -322 -39q-330 0 -555 168q-231 170 -231 410z" />
<glyph unicode="h" horiz-adv-x="1640" d="M41 328q0 -63 23.5 -82t89.5 -19l34 2q98 6 138 7q55 0 161 -9h11q63 0 88.5 21.5t25.5 79.5q0 118 -96 118h-2q16 0 33 -86q-16 61 -25 189q-12 68 -12 207q0 6 2 55v68v61q0 39 2 55v45q-4 -47 -15.5 -72.5t-35.5 -25.5q43 -2 94 -2q78 -2 94 -2h191h164q55 0 165 4 q-45 0 -51 59v-4q0 -78 -2 -125q-6 -213 -20 -331q-16 -90 -27 -117q25 18 51 18q-51 0 -73.5 -29.5t-22.5 -84.5t27.5 -78t87.5 -23h12q109 8 160 9q45 0 147 -7l27 -2q66 0 89 20.5t23 80.5q0 61 -22.5 89.5t-75.5 28.5q14 0 33 -6q-12 29 -25 107q-12 74 -12 215 q0 6 2 53v62q4 258 21 352q12 92 24 112q-18 -14 -41 -14q96 0 96 119q0 53 -26.5 77.5t-87.5 24.5q-98 -10 -172 -10q-61 0 -170 10q-61 0 -89 -22.5t-28 -83.5q16 -100 86 -109h-6q4 -6 10 -30v-5q4 -18 4 -46.5v-106.5q0 47 58 47q-39 2 -84 2q-70 2 -84 2h-168 q-127 0 -189 -2h-92q-74 -2 -90 -2q51 0 51 -55q4 129 15 170q2 20 6 26l-4 -2q-6 -2 -11 -2q84 10 84 119q0 100 -116 100q-76 -8 -170 -8t-170 8q-63 0 -89 -22.5t-26 -81.5q12 -104 88 -113q-10 0 -23 6q14 -39 23 -118q8 -86 8 -179q0 -27 -2 -73q-2 -63 -2 -95 q-10 -236 -24 -333q-8 -72 -23 -111q25 16 49 16q-94 0 -94 -116zM123 328q0 35 12 34q12 0 27 33q18 45 28 133q16 100 25 342q0 31 2 97q2 47 2 73q0 96 -8 187q-12 104 -31 145q-18 37 -37 39q-16 2 -20 37q0 18 29 18q80 -8 174 -8t174 8q31 0 30 -18q0 -33 -12 -37 q-10 0 -31 -16q-18 -18 -30 -68q-12 -45 -17 -190q0 -27 31 -27q14 0 90 2h94q61 2 187 2h166q14 0 84 -2q45 0 84 -2q27 0 26 35q0 90 -1 122.5t-7 53.5q-16 55 -31 70q-20 20 -37 22q-14 4 -18 33q0 20 31 20q113 -10 174 -10q74 0 176 10q29 0 29 -20q0 -37 -15 -37 q-18 0 -30 -29q-18 -31 -35 -139q-16 -98 -21 -364v-62q-2 -47 -2 -53q0 -150 12 -227q14 -98 35 -136q23 -35 39 -34q16 0 17 -37q0 -18 -29 -19l-23 2q-109 6 -153 6q-49 0 -168 -8h-6q-31 0 -31 19q0 33 14 32q12 0 25 33q14 31 33 135q14 123 20 342q2 47 2 127v17 q-4 10 -33 10q-111 -4 -163 -4h-164h-189q-16 0 -94 2q-51 0 -94 2q-25 0 -29 -10l-2 -4q-2 -6 -2 -11q-2 -18 -2 -59v-61v-68q-2 -49 -2 -55q0 -147 12 -219q10 -94 35 -138q18 -35 39 -34q16 0 16 -37q0 -18 -30 -19h-6q-115 8 -168 8q-43 0 -144 -6q-14 0 -30 -2 q-29 0 -29 19z" />
<glyph unicode="i" horiz-adv-x="653" d="M41 328q0 -63 24.5 -82t86.5 -19q59 4 163 9h13q55 0 170 -9q63 0 88.5 21.5t25.5 79.5q0 118 -96 118h-2q18 0 33 -88q-16 61 -25 187q-12 72 -12 209q0 8 2 57v68q2 233 20 350q12 84 25 112q-20 -14 -39 -14q39 0 66.5 32t27.5 89q0 100 -116 100q-76 -8 -170 -8 q-92 0 -172 8q-59 0 -86 -22.5t-27 -81.5q12 -104 88 -113q-10 0 -23 6q14 -39 23 -118q8 -86 8 -179q0 -27 -2 -73q-2 -63 -2 -95q-10 -240 -24 -335q-8 -68 -23 -113q29 18 49 18q-94 0 -94 -114zM123 328q0 33 12 32q12 0 27 31q18 51 28 135q14 100 25 344q0 31 2 97 q2 47 2 73q0 96 -8 187q-12 104 -31 145q-18 37 -37 39q-16 2 -20 37q0 18 27 18q82 -8 176 -8t174 8q31 0 30 -18q0 -39 -12 -39q-16 0 -33 -29q-16 -29 -34 -139q-18 -119 -21 -362v-68q-2 -49 -2 -57q0 -147 12 -222q10 -92 35 -135q18 -33 39 -32q16 0 16 -37 q0 -18 -30 -19h-6q-115 8 -168 8h-13q-104 -4 -163 -8q-27 0 -27 19z" />
<glyph unicode="j" horiz-adv-x="989" d="M41 70q0 -55 57 -99q34 -22 80 -22h4q82 8 166 37q63 20 146 53q96 41 163 88q59 39 146 74q20 0 63 37q27 16 35 39.5t8 72.5q-14 90 -32 113q0 2 -5 14q-2 14 -8 76q0 14 -2 31q-8 72 -14 299q-8 86 -8 221q0 84 8 125q6 78 22 104q-8 -6 -24 -6q59 0 80.5 27.5 t21.5 93.5q0 100 -114 100q-80 -8 -172 -8q-90 0 -170 8q-68 0 -97.5 -22.5t-29.5 -81.5q12 -102 94 -113h-19q16 -41 25 -114q6 -45 6 -189v-70q-2 -45 -2 -86q-6 -217 -20 -315v-2q-14 -117 -23 -149q-6 -27 -12 -37q-14 -16 -23 -41q-47 -51 -102 -76q-74 -39 -133 -55 q-51 -14 -68 -33q-47 -37 -47 -94zM123 70q0 18 18 30q10 10 37 17q72 23 148 61q74 37 137 109q6 16 16 30q10 12 27 66q12 51 24 164q14 100 21 323q0 41 2 86v72q0 152 -6 199q-14 102 -35 145q-25 37 -41 39q-20 4 -25 37q0 18 41 18q82 -8 175 -8q94 0 176 8 q29 0 28 -18q0 -39 -20 -39q-25 0 -43 -29q-25 -35 -37 -139q-8 -47 -8 -137q0 -137 8 -225q6 -231 14 -304q6 -90 13 -118q8 -29 16 -41q10 -12 18 -72q0 -33 -14 -43q-18 -18 -27 -18q-106 -43 -174 -88t-149 -80q-35 -14 -117 -43l-24 -9q-66 -23 -144 -32q-20 0 -37 10 q-18 12 -18 29z" />
<glyph unicode="k" horiz-adv-x="1611" d="M41 328q0 -63 23.5 -82t89.5 -19l34 2q98 6 138 7q55 0 161 -9h11q33 0 49 4q82 27 82 97q-14 110 -99 110h-2q6 0 19 -4q-8 12 -10 35q-14 49 -15 188q0 -6 -16 -8q8 8 41 29q16 12 45 35q4 4 16 14q25 20 68 43q25 18 55 35q0 -20 -19.5 -26.5t-52.5 -6.5q-12 0 -20 2 q195 -201 262 -291q51 -47 51 -67q4 31 31 37q-104 -20 -104 -164q29 -43 108 -60q16 -2 51 -2q29 2 123 2h127q55 0 76 -2q41 0 80 2h35q67 46 67 101q0 29 -22 67q-68 66 -109 66q-2 0 -12 12q-31 20 -125 119q-125 88 -291 233q-8 37 -20 111l-4 25q-2 4 -7 8 q-16 18 -26 28q-6 10 -12 27q8 -14 8 -37q0 -10 2 -18q223 172 348 258q102 68 135 80l-2 4q-4 6 -6 6l6 -2q18 0 88 33q8 4 33 14q29 20 35 35.5t6 42.5q0 35 -43 78q-44 28 -80 28h-2q-45 -6 -98 -6q-20 0 -52 -2h-41h-45q-43 2 -71 2q-37 0 -90 4q-6 2 -19 2 q-59 0 -117 -41q-33 -53 -32 -80q0 -47 29.5 -74.5t84.5 -27.5q-31 4 -30 39q0 -27 -84 -94q-113 -113 -447 -352l10 -5h33q25 -23 35 -49v17q-4 66 -4 172q0 121 12 184q10 86 25 106q-8 -6 -25 -6q47 0 72.5 27t38.5 84q0 45 -24.5 71.5t-67.5 26.5q-18 2 -43 2 q-88 -8 -170 -8q-94 0 -170 8q-63 0 -89 -22.5t-26 -81.5q12 -104 92 -113q-6 0 -22 4q12 -37 24 -118q6 -45 6 -185v-160q-8 -238 -26 -358q-12 -63 -23 -88q0 2 2 8q4 8 6 8q-14 -8 -36.5 -35.5t-22.5 -78.5zM123 328q0 14 5 22t7 10q12 0 31 31q18 49 31 135 q18 119 26 344v162q0 147 -6 195q-14 109 -33 145q-20 37 -39 39q-18 2 -22 37q0 18 29 18q80 -8 174 -8q84 0 174 8q18 0 32 -2q16 0 17 -10q-6 -35 -29 -35q-27 0 -43 -28q-27 -33 -39 -142q-12 -68 -12 -196q0 -109 4 -174v-29q4 -8 12 -19h2q12 0 39 21q340 246 455 360 q109 113 109 152q0 41 -50 43q-35 0 -34 20q0 6 10 21q25 18 53 18q8 0 16 -2q59 -4 97 -4q29 0 71 -2h45h41q31 2 52 2q53 0 102 6q14 0 29 -12q10 -6 10 -12t-6 -10q-4 -2 -6 -5q-39 -29 -50 -28l-6 2q-6 0 -43 -17q-39 -16 -147 -88q-111 -76 -352 -260q-35 -27 -35 -47 q0 -6 4 -10q6 -12 18 -31l2 -2q8 -8 25 -26q2 -2 4 -7q8 -12 23 -28l4 -6q172 -215 295 -342q94 -96 139 -129q43 -27 57 -27q16 0 43 -33q6 -8 6 -16q0 -10 -12 -21h-25q-29 -2 -59 -2q-23 2 -80 2h-127q-96 0 -125 -2q-27 0 -39 2q-27 4 -36 13q0 43 36 49q33 6 37 39 q0 35 -67 120q-72 94 -271 299q-23 23 -37 23q-10 0 -10 -2q-14 -8 -22 -16q-41 -23 -70 -45l-16 -15q-29 -23 -41 -31q-43 -31 -51 -38q-8 -8 -9 -50q0 -158 17 -208q10 -51 35 -76q20 -16 36 -17q16 0 19 -32q0 -8 -17 -13q-10 -2 -30 -2h-6q-115 8 -168 8q-43 0 -144 -6 q-14 0 -30 -2q-29 0 -29 19z" />
<glyph unicode="l" horiz-adv-x="1542" d="M41 328q0 -57 25.5 -79t91.5 -22q41 2 139 9h22q53 0 84 -3h13q246 -4 375 -4q125 -2 380 -2q94 6 146 74q20 25 35 43q6 8 14 21l8 8q16 16 37 30q37 27 59 54q20 14 25.5 31.5t5.5 50.5v14q-2 8 -2 10q-12 90 -113 90h-14q-100 0 -166 -75q-20 -16 -135 -54 q-139 -51 -291 -51h-96h-100q-16 0 -25 -4q6 0 6 -4q-10 27 -20 129v4q-6 43 -6 164q0 6 2 53v64q2 217 22 348q14 80 31 108q-10 -8 -29 -8q53 0 76 28.5t23 92.5q0 29 -19.5 49.5t-58.5 42.5q-27 8 -60 8q-37 -2 -106 -6q-41 -2 -103 -2h-69q-16 0 -53 2q-9 2 -17 2 q12 0 25 2q-63 0 -100 -26.5t-37 -77.5q16 -115 94 -115q-16 8 -31 80q10 -37 23 -188l2 -27q4 -92 4 -152q0 -27 -2 -73q-2 -63 -2 -95q-6 -244 -23 -329q-16 -88 -29 -111q25 10 39 10q-100 0 -100 -114zM123 328q0 33 18 32q14 0 33 31q14 25 37 135q18 100 25 344 q0 31 2 97q2 47 2 73q0 63 -4 158l-3 29q-16 115 -30 143q-18 35 -35 39q-16 0 -21 37q0 18 21 18q4 -2 8 -2h14q43 -4 58 -4h69q63 0 107 2q66 4 104 6q18 0 33 -4q20 -6 21 -14q0 -39 -17 -39q-23 0 -41 -29q-23 -37 -41 -139q-23 -123 -24 -362v-64q-2 -47 -2 -53 q0 -129 6 -174q10 -111 24 -148q6 -23 25 -39q16 -10 72 -10h100h96q164 0 318 55q147 53 170 78q41 47 104 47h14q27 0 31 -16q0 -2 2 -8v-8q0 -18 -6 -25q-29 -29 -49 -43q-31 -20 -49 -43q-18 -18 -31 -37q-10 -14 -31 -39q-31 -39 -84 -43q-254 0 -378 2q-119 0 -377 4 h-6q-33 2 -91 2h-22q-98 -6 -139 -8q-33 0 -33 19z" />
<glyph unicode="m" horiz-adv-x="2070" d="M41 1432q27 -84 100 -115q4 0 23 -6q41 -8 61 -13q25 -2 51 -16q12 -12 17 -31q14 -35 14 -110q0 -123 -2 -217v-54q0 -131 -3 -209.5t-11 -123.5q-12 -160 -27 -201q10 102 17 102q-55 0 -80 -26.5t-25 -87.5q0 -53 26.5 -77t94.5 -24q57 4 100 4h103h43q16 -2 63 -6 q113 0 113 101q0 113 -94 120q10 0 16 2q-18 29 -27 105q-14 86 -14 221q0 6 2 49v60v112q0 76 6 127q-18 -37 -39 -43q-12 0 -39 2q-12 2 -24 2q12 -16 31 -41q55 -72 92 -123q49 -68 151 -202q29 -39 78 -107q31 -41 55 -74q51 -66 66 -88q49 -45 88 -45q49 0 90 60 q92 129 240 350q39 57 119 172t118 172q-27 -16 -43 -16h-12q-51 31 -51 71l-2 -22q-8 -92 -15 -142q-10 -63 -10 -174q0 -139 -3 -222t-9 -128q-4 -63 -19 -100q47 14 76 14q-10 2 -20 2l-6 2q-63 0 -87 -26.5t-24 -83.5q0 -63 23.5 -82t89.5 -19q61 4 176 9q43 0 147 -7 l21 -2q70 0 92 20.5t22 80.5q0 59 -22.5 87.5t-75.5 28.5q18 0 35 -96q-10 39 -21 191q-16 104 -16 340q0 133 5 217t16 131q12 78 30 96h-33l7 -2q70 0 97.5 28.5t27.5 90.5q0 100 -109 100q-39 -6 -111 -6t-102 6q-23 2 -49 2q-59 0 -84 -26q-129 -143 -277 -351 q-100 -150 -245 -342q25 27 55 27q23 0 51 -21l-24 33q-150 193 -222 291q-113 158 -247 315q-4 18 -17.5 30.5t-38.5 29.5q-6 8 -30.5 9t-112.5 1q-94 -4 -121 -6q-41 0 -86 4q-39 4 -100 8h-6q-61 0 -87 -24.5t-26 -87.5zM123 1444q0 18 29 18h6q57 -4 94 -8q53 -4 98 -4 q27 2 119 6q96 0 102 -2q16 -12 19 -22q129 -150 258 -328q117 -160 250 -330q6 -6 10 -6q6 0 12 8q145 193 246 342q131 188 262 336q10 6 31 6q20 0 37 -2q35 -6 114 -6q74 0 117 6q20 0 21 -18q0 -37 -25 -37l-6 2q-25 0 -45 -27q-29 -27 -51 -135q-10 -49 -16.5 -136 t-6.5 -228q0 -244 17 -353q16 -106 32 -135t35 -29q16 0 16 -34q0 -18 -30 -19q-16 2 -25 2q-104 6 -147 6q-115 -4 -176 -8q-29 0 -29 19q0 29 10 28l6 -2q2 0 4 -2q10 0 29 25q20 39 31 133q6 47 9 132t3 228q0 117 10 187q6 47 15 129l2 18q0 8 -13 15h-6q-8 0 -20 -13 q-53 -78 -121 -176t-121 -176q-98 -150 -242 -354q-8 -18 -20 -19q-10 0 -25 15q-14 20 -63 86q-25 33 -55 73q-49 68 -78 107q-102 135 -152 203q-37 51 -92 122q-18 25 -31 41q-23 29 -36 29q-4 -4 -9 -29q-6 -55 -6 -137v-112v-60q-2 -43 -2 -49q0 -154 17 -235 q16 -104 38 -138q25 -37 45 -37q18 -2 19 -38q0 -18 -29 -19q-43 4 -55 6h-53h-103q-45 0 -102 -4q-37 0 -37 19q0 33 23 32q23 0 47 31q25 31 43 135q8 45 12 129t4 219v54q2 94 2 217q0 100 -20 143q-20 51 -56 70q-35 18 -73 24q-31 4 -72 17q-33 14 -45 49z" />
<glyph unicode="n" horiz-adv-x="1783" d="M41 1446q29 -94 111 -117l10 -2q45 -10 71 -14q27 -4 64 -19q10 -6 16 -26q10 -25 11 -58q0 -10 -2 -26q-2 -23 -3 -33q-4 -45 -7 -111.5t-3 -171.5q0 -127 -4 -206.5t-12 -124.5q-14 -76 -31 -101q4 2 14 2q-106 0 -106 -114q0 -53 26.5 -77t96.5 -24q57 4 100 4h103h55 q31 -4 67 -6q63 0 88 25.5t25 81.5q-20 121 -113 121q6 0 9 -3q-14 23 -21 89q-8 31 -8 141q0 80 6 196q0 27 2 66q2 53 2 78q2 47 6 110l4 50q-8 -31 -34 -46q-12 0 -49 3l-19 2q25 -33 125 -144l37 -41q82 -88 244 -258q59 -61 92 -94q115 -119 157 -162q20 -20 70 -71 q52 -52 70 -72v-62q8 0 45 2h43h-27q2 -8 4 -14q18 -12 80 -12q8 0 25 4q12 2 18 2q47 14 77 35.5t40 34.5q-10 57 -10 147q0 102 2 158q0 106 2 160q2 53 2 126q2 246 22 388q10 53 31 77q-8 -8 -25 -8q102 0 103 119q0 53 -26.5 77.5t-90.5 24.5q-29 -4 -76 -8h-6 q-18 -4 -65 -4q-92 0 -172 8q-59 0 -87 -22.5t-28 -77.5q0 -117 108 -117q-12 0 -18 2q18 -27 31 -110q12 -94 12 -199q0 -25 -2 -66q-2 -59 -2 -86q-2 -39 -2 -108q0 -37 -4 -86q0 18 25.5 27.5t58.5 9.5q6 -2 14 -5t12 -10q-12 8 -39 35q-31 35 -92 99q-57 61 -82 90 q-100 102 -194 206q-129 133 -187 197q-80 84 -129 141q-4 18 -18 31.5t-41 30.5q-23 6 -133 12q-16 0 -43 2h-31q-12 0 -28 -2h-19q-39 0 -110 6l-37 2q-61 6 -84 9q-66 0 -91.5 -24t-25.5 -89zM123 1458q0 18 29 19q23 -2 84 -9l36 -2q74 -6 117 -6h19q16 2 28 2h31 q25 -2 41 -2q84 -2 100 -6q16 -12 19 -22q49 -61 145 -160q57 -63 186 -197q94 -104 195 -207l70 -75q74 -80 104 -115q31 -31 45 -41q2 -2 8 -4q16 0 17 41q4 53 4 90q0 68 2 106q0 27 2 86q2 43 2 68q0 113 -12 211q-16 104 -45 145q-25 33 -50 33q-27 0 -26 35 q0 18 29 18q82 -8 176 -8q53 0 75 4l13 2q47 4 65 6q29 0 29 -20q0 -37 -21 -37q-25 0 -43 -27q-25 -37 -43 -139q-23 -127 -24 -373q0 -72 -2 -122q-2 -53 -2 -162q-2 -55 -2 -160q0 -76 6 -119q-16 -12 -47 -18h-4q-16 -4 -23 -4q-29 0 -39 12l-4 4q-6 6 -12 10h-2h-2 l-4 -2v13q-20 23 -82 84q-57 59 -82 84q-45 45 -142 145q-90 94 -106 111q-23 25 -76 79q-119 123 -168 177l-37 41q-94 104 -116 135q-20 31 -35 30q-10 -10 -12 -28q0 -14 -5 -56q-2 -45 -6 -110q0 -25 -2 -78q-2 -39 -2 -66q-6 -117 -6 -198q0 -123 10 -158 q12 -98 41 -127q23 -25 51 -24q25 0 31 -45q0 -18 -28 -19q-39 2 -64 6h-61h-103q-45 0 -102 -4q-39 0 -39 19q0 33 24 32q25 0 50 29q27 37 47 135q10 45 14 126t4 222q0 104 3 169t7 110q0 12 2 35q2 18 3 28q0 53 -17 90q-20 51 -59 70q-35 12 -82 23q-23 4 -66 14l-10 2 q-37 10 -49 49z" />
<glyph unicode="o" horiz-adv-x="1822" d="M41 889q0 -279 264 -475q250 -184 604 -185q356 0 609 185q264 197 264 475q0 94 -86 176q-80 170 -205 297q-125 86 -277 135q-153 49 -305 49q-150 0 -303 -49q-145 -47 -276 -135q-123 -86 -205 -207q-84 -127 -84 -266zM123 889q0 115 70 221q72 104 184 184 q121 82 254 125q139 45 278 45q143 0 281 -45q139 -45 254 -125t184 -184q72 -106 72 -221q0 -240 -232 -410q-229 -168 -559 -168t-555 168q-231 170 -231 410zM403 881q0 -203 150 -351q150 -145 358 -145q211 0 357 131q145 133 153 365q0 125 -35.5 214t-107.5 152 q-156 131 -367 131q-209 0 -358 -145q-150 -145 -150 -352zM485 881q0 172 125 293q123 122 301 122t314 -110q57 -53 85.5 -126t28.5 -177q-6 -193 -127 -305q-125 -111 -301 -111q-178 0 -301 123q-125 123 -125 291z" />
<glyph unicode="p" horiz-adv-x="1536" d="M41 328q0 -63 24.5 -82t86.5 -19q59 4 163 9h13q55 0 170 -9q63 0 88.5 21.5t25.5 79.5q0 78 -37 94q-4 4 -24 16q-4 4 -6 8q-4 8 -15 46l-2 8v4l-2 2q0 -29 -26 -43q35 8 90 18q406 72 641 215q264 172 264 357q0 213 -152 321q-135 98 -317 135q-158 37 -373 37 q-188 0 -329 -6q-90 0 -170 8q-59 0 -86 -22.5t-27 -81.5q12 -104 88 -113q-10 0 -23 6q14 -39 23 -118q8 -86 8 -179q0 -27 -2 -73q-2 -66 -2 -97q-2 -225 -16 -335q-4 -39 -4 -41q-8 -115 -17 -140q20 88 43 88q-45 0 -71.5 -30.5t-26.5 -83.5zM123 328q0 33 16 32 q16 0 31 31q12 25 29 133q14 115 16 346q0 31 2 97q2 47 2 73q0 96 -8 187q-12 104 -31 145q-18 37 -37 39q-16 2 -20 37q0 18 27 18q82 -8 176 -8q141 6 327 6q201 0 357 -34q166 -33 284 -121q119 -88 119 -256q0 -147 -225 -287q-225 -137 -613 -205q-59 -10 -96 -18 q-35 -10 -35 -37v-6q2 -6 2 -11q16 -68 29 -86q10 -18 27 -30q6 -4 10 -6q8 -6 10 -9q8 -6 8 -30q0 -18 -30 -19h-6q-115 8 -168 8h-13q-104 -4 -163 -8q-27 0 -27 19zM430 862q2 -43 2 -100q4 -66 8 -96q4 -20 15 -31q8 -8 22 -8q16 0 27 4q233 59 436 174q203 121 203 239 q0 129 -109 226q-106 102 -485 116q-49 0 -60 -10q-16 -16 -18 -26q-8 -49 -25 -154q-14 -117 -16 -317v-17zM477 709q23 0 35 -17q4 -4 8 -12q-2 33 -6 84q0 55 -2 98v17q2 193 16 307l11 65q8 59 12 82q0 -6 -4 -14v-14q338 -12 432 -95q82 -74 82 -166q0 -84 -162 -167 q-193 -111 -420 -168h-2z" />
<glyph unicode="q" horiz-adv-x="2039" d="M41 889q0 -164 98 -309q92 -139 246 -224q37 -25 111 -57q84 -37 147 -59q-39 0 -49 18t-10 55q0 8 6 24.5t14 27.5q-10 -10 -24 -23q-25 -25 -43 -39q-8 -6 -35 -29t-39 -30q-59 -66 -60 -97q0 -25 16.5 -46t26.5 -31q-18 10 -24 47q0 -49 23.5 -66.5t78.5 -17.5h25 q23 2 37 2q33 35 119 35q123 -4 221 -17q61 -8 145 -20q61 -10 80 -13h6q102 -14 131 -14q4 0 10 2h9q8 0 63 21q18 6 35 12q4 2 49 22q47 23 72 33q66 31 116 56q156 72 243 118.5t114 63.5q-66 0 -98.5 -5t-79.5 -22q-51 -14 -90 -24q0 104 -150 104q-106 -61 -305 -68 q-141 0 -247 7.5t-204 23.5q29 -12 33 -41q4 -4 4 -12q0 -66 -45 -66h14q27 -2 78 -2q356 0 609 185q264 197 264 475q0 94 -86 176q-80 170 -205 297q-125 86 -277 135q-154 49 -305 49q-150 0 -303 -49q-145 -47 -276 -135q-123 -86 -205 -207q-84 -127 -84 -266zM123 889 q0 115 70 221q72 104 184 184q121 82 254 125q139 45 278 45q143 0 281 -45q139 -45 254 -125t184 -184q72 -106 72 -221q0 -240 -232 -410q-229 -168 -559 -168q-49 0 -73 2h-19q-37 0 -37 -16q0 -12 2 -18q4 -7 33 -11q102 -16 210 -23t253 -7q211 6 324 67q47 0 47 -26 l2 -13q0 -14 2 -14q-14 -10 -47 -27q-18 -8 -58 -26q-31 -16 -57 -29q-25 -10 -76 -35q-23 -8 -43 -18q-12 -6 -33 -15q-29 -12 -32 -12h-9q-6 -2 -10 -2q-29 0 -123 14h-2q-70 10 -76 13q-117 16 -151 20q-100 12 -229 17q-111 0 -152 -35q-8 0 -18 -2h-13q-20 0 -20 10 q-2 14 -17 18q-2 2 -2 4q0 10 27 31q12 8 41 33l35 27q20 16 47 43l18 18l2 2q10 6 11 12q0 8 -9 9q-55 20 -129 53q-66 29 -100 51q-139 76 -221 199q-84 125 -84 264zM403 881q0 -203 150 -351q150 -145 358 -145q211 0 357 131q145 133 153 365q0 125 -35.5 214 t-107.5 152q-156 131 -367 131q-209 0 -358 -145q-150 -145 -150 -352zM485 881q0 172 125 293q123 122 301 122t314 -110q57 -53 85.5 -126t28.5 -177q-6 -193 -127 -305q-125 -111 -301 -111q-178 0 -301 123q-125 123 -125 291z" />
<glyph unicode="r" horiz-adv-x="1558" d="M41 328q0 -63 24.5 -82t86.5 -19q59 4 163 9h13q55 0 170 -9q63 0 88.5 21.5t25.5 79.5q0 78 -37 94q-4 4 -24 16q-4 4 -6 8q-4 8 -15 46l-2 8v4l-2 2q0 -31 -26 -43q41 10 92 18q10 2 26 6q18 2 25 5q10 2 25 4q14 2 24 4q39 8 72 8q8 0 27 -35q78 -74 102 -106 q2 16 2 41l2 4q14 23 29 26q-70 -27 -70 -102v-19q2 -18 2 -34q10 -23 44 -39.5t85 -16.5h55l19 2q98 6 141 7q53 -6 101 -7q53 0 104 7q53 0 74.5 14t21.5 74q0 27 -30 69q-59 53 -101 60q-4 0 -24 10q-27 12 -82 57q-50 37 -191 182q14 -25 15 -40q0 -33 -25 -52 q18 8 31 15q37 18 61 28q164 88 248 172q113 117 113 228q0 211 -154 321q-137 98 -328 135q-164 37 -379 37q-193 0 -333 -6q-90 0 -170 8q-59 0 -86 -22.5t-27 -81.5q12 -104 88 -113q-10 0 -23 6q14 -39 23 -118q8 -86 8 -179q0 -27 -2 -73q-2 -66 -2 -97 q-2 -225 -16 -335q-4 -39 -4 -41q-8 -115 -17 -140q20 88 43 88q-45 0 -71.5 -30.5t-26.5 -83.5zM123 328q0 33 16 32q16 0 31 31q12 25 29 133q14 115 16 346q0 31 2 97q2 47 2 73q0 96 -8 187q-12 104 -31 145q-18 37 -37 39q-16 2 -20 37q0 18 27 18q82 -8 176 -8 q141 6 331 6q201 0 363 -34q174 -33 295 -121q121 -90 121 -256q0 -82 -88 -170q-84 -80 -228 -156q-61 -29 -86 -41q-27 -8 -26 -24q0 -7 10 -17q145 -150 196 -188q68 -55 101 -70q39 -16 51 -16q18 -2 47 -35q8 -8 8 -12q0 -6 -20 -7q-49 -6 -98 -6q-47 0 -97 6 q-45 0 -147 -6l-19 -2h-53q-39 0 -47 8q0 6 -2 13v6q0 16 12 22q14 2 27 15q0 14 -16 41q-25 31 -111 116q-55 59 -86 60q-43 0 -86 -10l-25 -5q-14 -2 -24 -4q-6 -2 -25 -4q-20 -4 -29 -6q-61 -10 -94 -18q-37 -8 -37 -37v-6q2 -6 2 -11q16 -68 29 -86q10 -18 27 -30 q6 -4 10 -6q8 -6 10 -9q8 -6 8 -30q0 -18 -30 -19h-6q-115 8 -168 8h-13q-104 -4 -163 -8q-27 0 -27 19zM430 862q2 -43 2 -100q4 -66 8 -96q4 -18 15 -29q6 -8 24 -8q14 0 25 2q233 59 436 174q203 121 203 239q0 66 -15 121q-12 57 -71 105q-61 49 -176 78 q-115 28 -332 38q-49 0 -60 -10q-16 -16 -18 -26q-8 -49 -25 -154q-14 -117 -16 -317v-17zM479 711q31 0 39 -21q2 -2 2 -10q-2 33 -6 84q0 55 -2 98v17q2 193 16 307l11 65q8 59 12 82q0 -6 -4 -14v-14q213 -10 313 -37q96 -25 146 -62q37 -27 43 -59q12 -49 12 -103 q0 -84 -162 -167q-193 -109 -414 -166h-6z" />
<glyph unicode="s" horiz-adv-x="1515" d="M41 539q0 -115 88 -136q109 -70 283 -122q182 -53 393 -54q238 0 446 123q223 137 224 363q-8 164 -109 260q-92 86 -221 133q-119 47 -264 76q-158 33 -250 61q-70 25 -113 45q-16 -4 -16 -8q0 4 18 6q55 23 127 23q12 2 33 2q82 0 201 -54q126 -54 161 -120 q41 -86 140 -86q55 0 86 30q39 35 39 80q0 4 -2 17q-2 12 -2 16l-17 29q-23 45 -35 67q-20 49 -28 74q-27 100 -140 100q-2 0 -8 2h-8q-4 2 -8 2q-152 74 -373 86q-209 -2 -348 -57q-178 -70 -191 -266q0 -102 105 -189q66 -51 190 -104q78 -31 240 -70q141 -29 231 -53 q80 -23 142 -76q45 -37 45 -86q0 -63 -86 -106q10 -61 16 -62l45 43q-109 -27 -172 -35t-86 -8q-121 0 -205 20.5t-147 65.5q-127 84 -148 156q-10 125 -133 125q-131 0 -131 -141q0 -51 -6 -101q-6 -37 -6 -71zM123 539q0 41 6 84t6 88q0 59 49 59q47 0 52 -57 q27 -98 182 -207q72 -53 168 -78t231 -25q6 0 19 3l-5 -3q98 0 224 72q127 74 127 178q0 82 -72 148q-70 61 -174 92q-119 33 -238 55q-137 31 -225 66q-106 45 -172 94q-72 53 -72 121q8 143 138 192q127 49 317 52q209 -12 354 -87q10 0 19 -2h12q8 -2 14 -2q49 0 62 -43 q16 -45 33 -84q14 -29 43 -81q0 -2 2 -7q2 -4 2 -6q0 -10 -11 -16q-12 -12 -32 -12q-48 0 -66 41q-45 86 -203 157q-135 61 -233 62q-25 0 -39 -2q-90 0 -156 -31q-65 -29 -65 -78q0 -37 63 -68q66 -31 123 -49q113 -33 258 -63q145 -31 252 -72q115 -43 193 -117t84 -202 q0 -182 -183 -291q-190 -111 -405 -111q-201 0 -371 49q-172 53 -272 121q-39 8 -39 60z" />
<glyph unicode="t" horiz-adv-x="1675" d="M41 1245q0 12 22 27q16 -78 42 -111t65 -33q111 0 162 76q35 37 133 62q104 33 199 43q4 0 10 2h8q-31 0 -49.5 7t-18.5 36q4 0 11 -11q6 -53 12 -157q0 -133 -2 -250q-2 -41 -2 -64q-14 -260 -27 -329q-14 -80 -28 -107q23 6 34 6q-45 0 -71.5 -30.5t-26.5 -83.5 q0 -63 25.5 -82t91.5 -19q16 2 49 2q33 2 49 2q70 4 96 5q49 0 160 -7l27 -2q66 0 89 20.5t23 80.5q0 118 -96 118h-2q18 0 33 -6q-14 27 -31 109q-16 109 -16 330q0 209 8 307q2 25 4 55q6 76 12 102q2 2 6 9q4 4 5 4q0 -31 -15.5 -38t-52.5 -7h6q6 -2 12 -2q72 -6 199 -37 q96 -23 133 -62q49 -82 168 -82q61 0 98 37q23 20 31 37t8 43q0 20 -22 66q-57 61 -99 98q-43 41 -61 76q-33 74 -154 74q-188 -6 -438 -13q-55 -2 -172 -2q-174 0 -328 8h-4q80 0 80 2h-135q-70 0 -119 -96q-14 -27 -43 -57q-35 -41 -71 -84q-18 -18 -22.5 -32.5 t-4.5 -39.5zM123 1245q0 10 6 17q10 12 21 24q33 41 51 62q39 45 55 77q18 47 45 48h53q0 -2 2 -3h2q154 -8 330 -8q119 0 174 2q250 6 438 13q61 0 80 -31q18 -39 76 -96q53 -49 90 -90q6 -8 6 -15q0 -10 -10 -18q-16 -16 -45 -17q-72 0 -100 47q-47 59 -183 95 q-150 35 -215 39q-6 0 -14 2h-6q-14 0 -14 -2q-2 -2 -7 -19q-2 -6 -2 -10q-6 -33 -16 -145l-2 -25q-8 -100 -8 -313q0 -240 18 -344t39 -136q18 -35 39 -34q16 0 16 -37q0 -18 -28 -19l-23 2q-111 6 -166 6q-25 0 -94 -4h-6q-16 0 -49 -2q-33 0 -49 -2q-31 0 -31 19 q0 33 16 32q14 0 35 33q16 27 39 133q16 88 29 344q0 23 2 64q2 119 2 254q-4 78 -14 170l-3 6q-4 23 -6 25q0 4 -14 4h-10q-8 -2 -13 -2q-94 -10 -217 -48q-131 -35 -176 -90q-31 -43 -96 -43q-29 0 -39 17q-8 12 -8 18z" />
<glyph unicode="u" horiz-adv-x="1624" d="M41 1450q12 -106 98 -117q-14 0 -33 82q14 -55 23 -190q8 -86 8 -181q0 -25 -2 -69q-2 -66 -2 -96q-4 -68 -6 -115q0 -49 -8 -143q0 -12 -2 -35h8v59v-24q4 -240 123 -322q100 -76 272 -76q141 6 320 56q141 41 313 71q-35 2 -72 2q0 55 2 92q10 -2 33 -2 q-61 0 -82.5 -27.5t-21.5 -90.5q0 -57 25.5 -79t88.5 -22q82 8 170 8t172 -8q115 0 115 101q0 59 -22.5 89.5t-75.5 30.5q16 0 31 -6q-14 29 -23 103q-4 41 -7 115.5t-3 217.5q4 254 20 353q12 90 27 112q-16 -14 -43 -14q59 0 77.5 27.5t18.5 93.5q0 53 -28.5 76.5 t-108.5 23.5q12 -2 24 -2l-22 -2q-104 -6 -152 -6q-45 0 -149 6l-23 2l-6 2h-6q-57 0 -78.5 -23.5t-21.5 -76.5q0 -119 94 -119q-18 0 -29 2q12 -27 23 -119q6 -39 6 -161v-78q-2 -63 -2 -103v-53q-2 -57 -2 -119q2 -49 2 -125q0 13 -39 19q-123 -29 -219 -47 q-123 -20 -195 -23q-90 0 -121 12q-14 33 -14 226h-4v12v115q2 236 23 375q14 55 32 77q-12 -12 -30 -12q98 0 98 121q0 41 -64 90q-47 18 -73 18q-98 -10 -172 -10q-61 0 -170 10q-115 0 -115 -104zM123 1454q0 18 29 19q113 -10 174 -11q74 0 176 11q12 0 33 -11 q18 -8 18 -16q0 -39 -16 -39q-25 0 -39 -27q-25 -37 -43 -135q-23 -123 -25 -360v-115v-94h6q4 -186 53 -215q23 -12 60 -17.5t104 -5.5q86 4 207 25q88 16 223 47q102 25 103 61q0 78 -2 127q0 59 2 117v53q0 39 2 103v78q0 133 -6 174q-16 119 -33 145q-18 39 -37 41 q-18 0 -18 37q0 18 18 18h6l4 -2l19 -2q106 -6 155 -6t160 8h17q4 0 8 2q20 0 20 -18q0 -39 -14 -39q-18 0 -31 -31q-18 -33 -35 -137q-16 -100 -20 -365q0 -147 3 -224t7 -120q14 -102 35 -135q20 -33 39 -33q16 0 16 -38q0 -18 -28 -19q-88 8 -177 8q-90 0 -174 -8 q-29 0 -28 19q0 37 22 36q25 0 43 54q4 8 4 20q-14 0 -28 -4q-152 -27 -318 -74q-162 -45 -299 -51q-139 0 -221 60q-86 66 -90 256v24v23h-2q4 57 4 94q2 47 6 115q0 31 2 96q2 47 2 71q0 98 -8 189q-12 109 -31 145q-18 37 -35 37q-18 4 -22 39z" />
<glyph unicode="v" horiz-adv-x="1683" d="M41 1462q0 -23 10 -47q59 -80 113 -80q-4 0 -6 -8q39 -43 96 -135q76 -123 195 -371q27 -39 59 -88q33 -51 59 -90q74 -205 107 -307q37 -119 155 -119q86 0 154 107q6 14 21 38q6 16 24 50q14 27 14 28q25 53 39 74q-2 -4 -2 -6q16 41 66 129q10 18 20 39q45 80 88 178 q121 254 179 346q53 90 81 119q-8 4 -10 4q39 0 109 68q20 18 25 35.5t5 33.5q0 49 -28.5 69.5t-85.5 20.5q-43 -6 -78 -6h-84h-100q-41 0 -99 4q-61 0 -92 -16t-31 -59q-4 -14 -4 -41q0 -53 26 -76t81 -23q-18 0 -29 86q-4 -16 -4 -69q0 -25 -16 -90q-25 -115 -150 -418 q-18 -14 -53 -47l-6 -4q-16 -33 -31 -62q-14 -31 -20 -43q27 14 53 14q6 0 18 -2t13 -2q-27 53 -43 88q-10 23 -29 60q-23 45 -31 61q-143 262 -176 363q-25 61 -25 90q0 2 5 6q-12 -39 -39 -39q49 0 75.5 22.5t26.5 75.5q0 23 -12 56q-14 41 -38 55t-79 14q-53 -4 -115 -4 h-116q-88 0 -176 8q-68 0 -88.5 -13t-20.5 -77zM123 1462q0 8 22 8q90 -8 181 -8h116q63 0 117 4q31 0 39 -18q6 -14 6 -25q0 -16 -20 -16q-31 0 -43 -27q0 -2 -2 -6q-2 -10 -2 -16q0 -35 28 -117q33 -102 183 -375q16 -31 30 -61q18 -37 27 -55q8 -16 29 -60q12 -25 16 -35 l8 -10q16 -25 23 -27q16 0 30 33q6 12 21 43q14 29 31 62q18 41 59 123q129 260 156 360q18 74 18 111q0 25 -4 32q-16 33 -45 33q-25 0 -25 17q0 10 4 16q0 18 39 18q57 -4 101 -4h100h84q39 0 84 6q27 0 27 -8q0 -6 -7 -10q-33 -45 -51 -45q-20 0 -49 -31 q-37 -37 -92 -133q-61 -102 -182 -352q-51 -111 -86 -172l-4 -8q-48 -84 -64 -119q-2 0 -18 -37q-16 -27 -39 -78q0 -2 -15 -29q-18 -33 -24 -49q-12 -23 -19 -35q-37 -63 -82 -63q-59 0 -77 63q-51 123 -111 246l-47 99q-51 104 -72 149q-115 238 -198 379 q-63 104 -107 149q-33 33 -53 33q-18 0 -39 33q-2 6 -2 12z" />
<glyph unicode="w" horiz-adv-x="2154" d="M41 1466q0 -4 2 -10q2 -12 2 -24q90 -109 139 -109q-6 0 -18 4h-4q29 -35 71 -121q78 -158 175 -385q49 -76 112 -178q6 -16 43 -127q35 -109 62 -180q41 -117 166 -117q61 0 120.5 51.5t102.5 147.5h-56q39 156 70 268q47 123 98 279q-8 -16 -18 -25l-10 -12 q-33 0 -90 26l-4 2q31 -74 81 -219q16 -41 35 -92q27 -76 78 -217l39 -109q47 -96 160 -96q96 0 153 113q31 74 43 113q6 12 13 30q8 27 14 39q6 20 10 31q8 20 23 51q25 53 37 82q41 98 77 172q121 254 172 348q47 92 72 123q-10 -2 -29 -2q37 0 109 76q14 16 18.5 30.5 t4.5 30.5q0 51 -25 70.5t-88 19.5q-43 -6 -78 -6h-82q-92 0 -158 8q-57 0 -85.5 -21.5t-38.5 -68.5v-24q0 -51 24.5 -78t79.5 -27q-14 0 -27 4q-4 2 -4 9q0 -23 -18 -91v-2q-33 -113 -150 -348q-31 -63 -47 -104q-2 -4 -4 -13q-18 -49 -31 -73q38 28 91 28h4l18 -22l2 -4 q4 -6 4 -8q-29 78 -86 237l-43 119q-72 211 -115 358q-23 -10 -43 -16q-43 156 -116 156q-76 0 -121 -62q-31 -47 -39 -94q-29 -152 -86 -326q-58 -174 -111 -342q25 27 58 27q25 0 53 -23q-4 12 -12 29q-10 27 -15 39l-2 6q-23 53 -41 86q-131 264 -159 367q-20 61 -21 98 q0 2 2 6l2 4q-12 -35 -41 -35q47 0 72 19.5t25 77.5q0 18 -7 43q0 73 -103 73h-3l-19 -8h-4q-20 -2 -100 -2h-117q-23 0 -65 4h-4q-31 4 -90 9q-61 0 -85 -18.5t-24 -74.5zM123 1466q0 10 24 11q55 -4 82 -9q49 -4 80 -4h117q92 0 117 2l18 7l6 2q6 0 6 -9q6 -14 7 -26 q0 -14 -15 -15q-29 0 -41 -32q0 -2 -2 -9q-2 -10 -2 -16q0 -41 25 -121q29 -106 164 -381q14 -29 34 -73q4 -6 7 -13q4 -14 16 -41q6 -18 10 -28q14 -27 23 -27q12 0 20 31q53 168 111 342q61 195 88 336q6 29 26 61q20 27 54 27q33 0 51 -25q18 -23 31 -59 q43 -147 114 -359q86 -238 129 -354q2 -8 15 -20l4 -2q10 0 16 22q12 25 31 74q2 8 4 12q23 53 45 98q125 252 156 365q20 78 20 113q0 25 -6 32q-14 37 -45 37q-23 0 -23 23v12q6 20 39 20q68 -8 162 -8h82q39 0 84 6q25 0 25 -8q0 -6 -4 -10q-31 -45 -46 -45 q-14 0 -36 -31q-27 -33 -78 -133q-63 -115 -174 -352q-53 -111 -80 -176q-12 -31 -41 -92q-8 -18 -17 -37q-4 -12 -12 -35q-8 -16 -18 -49q-6 -12 -10 -25q-8 -27 -39 -102l-2 -4q-29 -63 -78 -64q-59 0 -84 47q-78 213 -115 320q-78 213 -119 317q-10 20 -16 21l-4 -2 q-6 -6 -10 -19q-51 -180 -99 -327q-70 -217 -102 -326h4q-25 -35 -61 -35q-68 0 -91 66q-18 41 -61 143q-25 59 -43 100q-43 100 -115 246q-104 244 -174 387q-49 98 -82 137q-20 25 -41 25q-20 0 -57 53q0 2 -2 6z" />
<glyph unicode="x" horiz-adv-x="1718" d="M41 313q0 -59 20.5 -72.5t83.5 -13.5q14 2 43 2q29 2 43 2q45 4 72 5q41 0 117 -7q33 -2 96 -6q18 -2 21 -2q63 0 106 43q41 51 41 84q0 41 -28.5 66.5t-71.5 25.5q10 0 12 -2q12 -10 12 -39q0 16 27 52q37 68 237 268q-10 -8 -26 -8q-12 0 -27 8q172 -193 207 -262 q23 -39 23 -56q0 8 6 21q6 16 22 16q-102 0 -102 -94q0 -8 12 -35q10 -23 14 -35q41 -53 119 -53q2 0 13 2q61 4 124 6q92 6 136 7q57 0 168 -9h12q57 0 80.5 14.5t23.5 73.5q0 12 -8 34t-20 36q-47 47 -80 64q-18 6 -58 38q-49 37 -141 136q-80 80 -280 317h-9h4 q203 209 281 279q92 82 121 100q20 10 26 10q10 4 35 20.5t51 49.5q6 16 15 31q10 25 10 30q0 59 -23.5 73.5t-82.5 14.5q-84 -8 -179 -8q-63 0 -104 4q-78 4 -109 8q-37 0 -62.5 -12t-51.5 -37q-31 -45 -31 -76q0 -72 86 -94q4 0 8 -4q-14 8 -14 29q0 -6 -10 -27 q-25 -57 -162 -184l2 -2q16 -8 20 -8q0 6 -2 12q-133 137 -161 197q-14 23 -15 30q0 -20 -10 -30q-8 -8 -18 -9q45 0 69.5 26t24.5 67q0 31 -33 75q-41 47 -113 47q-18 -2 -75 -8l-37 -2q-47 -2 -115 -2q-96 0 -180 8q-84 0 -103 -84q0 -49 4.5 -64.5t24.5 -27.5 q76 -53 104 -53q2 -2 3 -10q35 -29 112 -109q86 -92 271 -307q-6 10 -7 16q0 12 2 19q-225 -236 -323 -328l-8 -6q-106 -98 -138 -125q-25 -20 -30 -25q-37 -6 -101 -73q-2 -8 -8 -27q-8 -20 -8 -31zM123 313q0 2 2 9q4 2 4 6q31 33 47 37q8 2 55 34l7 4q39 33 151 138 q119 113 328 329q20 20 20 39q0 23 -16 39q-184 215 -270 307q-84 86 -123 119q-39 27 -52 27q-12 0 -47 31q-4 4 -4 22q4 12 17 12q88 -8 184 -8q70 0 119 2l41 4q51 2 73 6q29 0 46 -20q12 -12 12 -20q0 -10 -17 -11q-31 -4 -43 -24q-6 -6 -6 -19q0 -23 23 -67 q33 -66 176 -217q31 -31 45 -37q18 0 51 32q147 141 178 209q18 41 19 62q0 18 -8 26q-18 23 -54 29q-18 4 -18 14q0 8 10 23q20 20 47 20q31 -4 109 -8q43 -4 110 -4q94 0 183 8q20 0 20 -6q0 -2 -4 -6l-4 -6q-14 -16 -26.5 -25.5t-18.5 -11.5q-14 0 -49 -25 q-41 -27 -129 -106q-90 -80 -287 -287q-25 -31 -25 -53q0 -27 29 -55q184 -221 283 -320q100 -104 149 -141q49 -39 74 -49q25 -14 55 -47q6 -6 6 -13q0 -6 -20 -6h-6q-123 8 -176 8q-43 0 -140 -6q-63 -2 -125 -6q-10 -2 -12 -2q-31 0 -47 19l-4 8q-8 12 -8 14q0 12 20 12 q35 0 49 27q4 8 4 18q0 31 -30 93q-41 78 -221 280q-18 18 -33 19q-18 0 -35 -19q-205 -205 -248 -282q-37 -63 -37 -93q0 -12 6 -16q12 -25 52 -25q18 0 18 -10t-16 -26q-18 -18 -47 -19q-10 0 -23 2q-61 4 -92 6q-80 6 -121 6q-31 0 -80 -4q-12 -2 -39 -2t-41 -2 q-20 0 -20 4z" />
<glyph unicode="y" horiz-adv-x="1716" d="M41 1417l20 -22q41 -51 80 -74q16 -8 54 -45q35 -8 116 -35q70 -119 207 -414q72 -111 115 -184q2 0 4 -2q0 18 8 25q-2 -2 -12 -17l-6 -8q-72 -90 -125 -147q-31 -33 -49 -43q0 -2 -2 -2q-37 -8 -89 -54q-18 -10 -22 -25.5t-4 -41.5q0 -10 2 -18.5t8 -28.5 q16 -31 35.5 -42.5t58.5 -11.5q23 2 49 2q39 2 48 2h10q49 4 76 5q41 0 92 -7q31 -2 33 -4q49 -4 73 -6q82 0 109 47q18 20 23 36.5t5 41.5q0 45 -24.5 70.5t-73.5 25.5q14 0 21 -6q6 -4 6 -16q0 31 31 88q51 109 229 332q162 213 289 360q76 90 123 129q-6 8 -9 8 q25 0 101 68q16 16 20 28.5t4 34.5q0 49 -26.5 69.5t-77.5 20.5h-4q-70 -4 -94 -8q-39 -6 -78 -6q-25 0 -78 2q-14 2 -23 2q-25 2 -80 6q-12 2 -24 2q-86 0 -121 -59q-14 -25 -14 -61q0 -45 24.5 -73t77.5 -28q-16 2 -27 25v-4q0 -31 -30 -92q-45 -96 -242 -340q10 -8 16 -9 q6 0 19 -2l4 -2l6 -12q-2 8 -10 18q-2 4 -4 9q-188 262 -238 358q-39 63 -39 98q-4 -49 -41 -49q53 0 81 24.5t28 80.5q0 6 -2 16q-2 12 -2 21q-27 81 -130 81h-3q-31 -4 -109 -8q-12 0 -24 -2q-59 -2 -86 -2q-49 0 -70 2h-8q-45 4 -76 8q-20 0 -40.5 -4t-37.5 -16 q-29 -39 -40 -61.5t-11 -53.5zM123 1452q0 4 12 10q10 8 29 8q33 -4 82 -8q23 -2 78 -2q27 0 88 2q8 2 26 2q80 4 111 9q37 0 45 -19q0 -4 2 -10q2 -4 2 -8q0 -23 -27 -23q-37 0 -41 -29q0 -51 48 -139q47 -96 241 -364q0 -2 2 -4q6 -6 6 -11q2 -4 11 -12q18 -23 36 -23 q16 0 48 39q203 254 252 357q39 84 38 127v18q-14 41 -51 43q-25 0 -24 19q0 12 4 20q12 19 45 19l22 -3q53 -4 80 -6q8 0 23 -2q57 -2 84 -2q43 0 88 6q29 4 90 9q20 0 20 -9q0 -6 -4 -10q-31 -39 -39 -39q-12 0 -45 -28q-51 -43 -131 -138q-127 -147 -293 -362 q-193 -244 -237 -348q-39 -80 -39 -123q0 -14 2 -19q16 -39 49 -41q20 0 21 -14q0 -16 -11 -27q-10 -16 -43 -16q-18 2 -67 6q-18 2 -33 4q-57 6 -100 6q-29 0 -82 -4h-11q-8 0 -45 -2q-25 0 -47 -2q-12 0 -18 8q-2 6 -2 11q0 8 2 10q25 25 41 29q14 0 35 14q20 10 65 55 q57 63 131 156q4 6 13 16q8 12 12 19q2 4 2 14q0 16 -14 43q-37 63 -117 186q-143 229 -213 320q-86 109 -125 145q-51 49 -70 58q-27 16 -55 55z" />
<glyph unicode="z" horiz-adv-x="1626" d="M41 340q0 -6 2 -18t2 -21q18 -41 48 -61.5t81 -20.5q98 4 216 6t296 2q340 -4 516 -4q39 0 61.5 4t36.5 13q37 20 72 55q20 23 51 53q4 4 11 10q23 23 75 56q70 53 76 118q0 63 -30.5 92t-98.5 29q-59 0 -108 -37q-4 -2 -19 -14q-18 -14 -24 -18q-55 -33 -164 -62 q-88 -20 -201 -35q-106 -14 -164 -16q-33 -2 -61 -4h-15q-63 0 -96 2q-35 0 -69 -2h-29q39 0 52 -14.5t13 -63.5q-6 -14 -10 -18q96 123 189 221l8 8q125 137 194 217q104 121 240 266q94 102 262 258q61 61 62 107q0 98 -121 98t-228 -2l-77 -2l-238 -4h-289q-88 0 -92 10 q-90 0 -182 -180q-12 6 -37 18q-8 4 -16 9q-16 -18 -56 -58q-47 -47 -47 -106q12 -96 115 -96q49 0 108 36q43 29 62 48q41 31 184 61q125 29 285 29q37 0 106 -4h15q4 0 14 -2q18 -4 25 -5q-27 0 -44.5 21.5t-17.5 46.5q0 12 6 27q-72 -94 -174 -207q-31 -35 -96 -107 q-66 -72 -98 -108q-127 -139 -254 -273q-129 -135 -279 -260q-49 -49 -49 -98zM123 340q0 18 20 35q154 129 285 266t256 274q33 37 98 109q66 72 97 106q94 102 178 213q10 14 10 23q0 14 -16 14q-14 2 -29 4q-10 2 -12 2h-11q-74 4 -112 5q-174 0 -303 -31 q-172 -39 -222 -80q-14 -14 -47 -37l-6 -4q-32 -22 -59 -22h-2q-31 0 -33 20q0 23 21 39q47 47 65 70q16 23 53 71q37 49 74 49q6 -10 135 -10h289q109 2 317 6q104 2 226 2q39 0 39 -16q0 -18 -33 -45q-172 -160 -268 -264q-139 -150 -242 -269q-66 -76 -201 -223 q-96 -100 -190 -223q-4 -4 -11 -23q0 -16 17 -16h29q33 2 67 2q33 -2 98 -2h17q31 2 63 4q59 2 170 17q102 12 209 36q119 31 191 72q23 16 49 37q27 20 57 20q47 0 47 -34q-2 -31 -39 -54q-59 -39 -86 -65q-29 -25 -65 -68q-23 -23 -47 -37q-20 -8 -64 -8q-176 0 -516 4 q-178 0 -297 -2t-217 -6q-33 0 -45 23q0 4 -2 8t-2 8z" />
<glyph unicode="{" horiz-adv-x="716" d="M41 952q0 -90 106 -172q39 -18 39 -39q14 -330 82 -577q168 -396 406 -494q-106 197 -193 570q-39 246 -47 522q-2 82 -108 164q-35 12 -35 28q0 18 39 39q100 88 102 160q8 272 47 504q88 399 197 610q-229 -100 -410 -543q-68 -242 -82 -555q-4 -23 -41 -43 q-102 -90 -102 -174zM123 952q0 53 72 109q68 53 71 104q16 336 80 580q66 244 150 301q-55 -133 -97 -375q-39 -229 -49 -514q-2 -47 -71 -100q-70 -55 -70 -103q0 -55 72 -98q70 -47 71 -98q8 -276 49 -504q42 -232 95 -363q-86 59 -148 293q-63 233 -80 561 q-2 53 -73 103q-72 49 -72 104z" />
<glyph unicode="|" horiz-adv-x="311" d="M41 -33h229v1919h-229v-1919zM123 49v1755h65v-1755h-65z" />
<glyph unicode="}" horiz-adv-x="714" d="M41 -330q236 98 408 494q63 240 79 577q4 20 39 39q106 82 107 172q0 86 -101 174q-39 23 -43 43q-14 348 -79 596q-172 399 -408 494q111 -215 193 -600q35 -219 45 -506q2 -70 104 -160q39 -20 39 -39q0 -16 -33 -28q-104 -84 -110 -164q-12 -285 -48 -494 q-86 -387 -192 -598zM219 -109q53 131 94 363q37 229 49 504q4 49 74 98q70 43 70 98q0 47 -70 103q-70 55 -74 100q-8 276 -47 514q-41 242 -96 375q86 -57 152 -301q63 -248 78 -580q4 -49 73 -104q70 -55 70 -109q0 -55 -72 -104t-74 -103q-14 -324 -77 -561 q-64 -236 -150 -293z" />
<glyph unicode="~" horiz-adv-x="882" d="M41 1298q111 231 231 408q12 20 23 20q25 0 59 -71q8 -12 23 -33q0 -2 2 -6q0 -33 32.5 -96.5t127.5 -223.5q6 -12 10 -18v92q23 78 39 78q74 0 149 186q61 29 105 60v37v18v14v342q-123 -326 -232 -510q-12 82 -22 82q-27 0 -58 70l-6 10q-20 35 -28 45q-51 74 -89 117 t-73 59v66q-23 -88 -39 -88q-78 0 -150 -84q-53 -66 -104 -162v-37v-16v-19v-340zM123 1624v14v19v16v17q41 78 86 131q41 53 86 53q55 0 121 -96v2q2 -2 6 -15q8 -12 31 -49l8 -12q70 -109 127 -109q43 0 86 52q41 51 86 133v-17v-14v-18v-17q-41 -78 -86 -131 q-43 -53 -86 -53q-53 0 -121 96v-2q-6 12 -6 14q-6 10 -12 21q-14 23 -25 39q-70 111 -129 110q-43 0 -86 -51q-47 -59 -86 -133z" />
<glyph horiz-adv-x="518" d="M41 1694q0 -131 55 -203q84 -96 144 -96q59 0 73.5 22.5t14.5 67.5q0 29 -29 88q6 -20 16 -72q2 -6 9 -35q-29 68 -66 68q96 0 160 72q59 61 59 163q0 100 -59 162q-63 72 -160 72q-182 0 -213 -225q-4 -29 -4 -84zM123 1694q0 47 4 71q18 156 131 156q59 0 98 -45 q39 -41 39 -107t-39 -108q-39 -45 -98 -45q-33 0 -59 14q16 -68 26 -92q20 -39 21 -53q0 -8 -6 -8q-33 0 -76 61q-41 57 -41 156z" />
<glyph horiz-adv-x="520" d="M41 1769q0 -98 61 -163q63 -72 158 -72q-37 0 -65 -68q4 20 14 68q6 23 8 35q-29 -63 -29 -84q0 -47 26 -68.5t65 -21.5q61 0 141 94q59 76 59 207q0 53 -4 82q-31 225 -215 225q-94 0 -158 -72q-61 -63 -61 -162zM123 1769q0 63 41 107q39 45 96 45q115 0 133 -156 q4 -25 4 -69q0 -103 -43 -158q-43 -61 -75 -61q-8 0 -9 8q0 12 23 53l4 16q16 47 22 76q-27 -14 -59 -14q-57 0 -96 45q-41 45 -41 108z" />
<glyph horiz-adv-x="817" d="M41 1694q0 -131 55 -203q84 -96 144 -96q59 0 73.5 22.5t14.5 67.5q0 29 -29 88q6 -20 16 -72q2 -6 9 -35q-29 68 -66 68q96 0 160 72q59 61 59 163q0 100 -59 162q-63 72 -160 72q-182 0 -213 -225q-4 -29 -4 -84zM123 1694q0 47 4 71q18 156 131 156q59 0 98 -45 q39 -41 39 -107t-39 -108q-39 -45 -98 -45q-33 0 -59 14q16 -68 26 -92q20 -39 21 -53q0 -8 -6 -8q-33 0 -76 61q-41 57 -41 156zM338 1696q0 -131 59 -207q80 -94 142 -94q59 0 73.5 22.5t14.5 67.5q0 29 -29 88q6 -20 16 -72q2 -6 9 -35q-29 68 -66 68q96 0 160 72 q59 61 59 163q0 100 -59 162q-63 72 -160 72q-184 0 -215 -225q-4 -29 -4 -82zM420 1696q0 45 4 69q18 156 133 156q59 0 98 -45q39 -41 39 -107t-39 -108q-39 -45 -98 -45q-33 0 -59 14q16 -68 26 -92q20 -39 21 -53q0 -8 -6 -8q-33 0 -76 61q-43 55 -43 158z" />
<glyph horiz-adv-x="817" d="M41 1769q0 -98 61 -163q63 -72 158 -72q-37 0 -65 -68q4 20 14 68q6 23 8 35q-29 -63 -29 -84q0 -47 26 -68.5t65 -21.5q61 0 141 94q59 76 59 207q0 53 -4 82q-31 225 -215 225q-94 0 -158 -72q-61 -63 -61 -162zM123 1769q0 63 41 107q39 45 96 45q115 0 133 -156 q4 -25 4 -69q0 -103 -43 -158q-43 -61 -75 -61q-8 0 -9 8q0 12 23 53l4 16q16 47 22 76q-27 -14 -59 -14q-57 0 -96 45q-41 45 -41 108zM340 1769q0 -96 61 -163q66 -72 156 -72q-39 0 -63 -68q4 20 14 68q6 23 8 35q-29 -63 -29 -84q0 -47 26 -68.5t65 -21.5q57 0 141 94 q57 70 57 205q0 55 -4 84q-31 225 -215 225q-90 0 -156 -72q-61 -68 -61 -162zM422 1769q0 63 41 107q39 45 94 45q115 0 133 -156q4 -25 4 -71q0 -103 -41 -156q-45 -61 -75 -61q-8 0 -9 8q0 12 23 53l4 16q16 47 22 76q-27 -14 -61 -14q-55 0 -94 45q-41 45 -41 108z" />
<glyph unicode="&#xa3;" horiz-adv-x="1513" d="M41 45q0 -41 25 -74q49 -55 100 -55q207 12 450 21q145 0 268.5 -4.5t245.5 -12.5q111 0 154 96q23 55 35 101l2 6q16 57 27 78q16 86 45 176q8 2 28 4q20 4 33 6q12 20 15.5 34.5t3.5 37.5q0 16 -5 37q-4 12 -4 14q-35 86 -121 86q-125 0 -178 -109q-66 -100 -180 -125 q-156 -33 -350 -34q-6 0 -6 -15v6q2 6 2 11q25 127 43 190q27 106 26 225q0 6 2 21q2 8 3 8h-7h312l-70 234h-281q-18 74 -36 129q-20 70 -21 153q0 86 43 168q20 47 72 90q37 37 61 43q31 6 94 6q39 0 76 -18l4 12q0 8 -10 35q-55 -88 -55 -190q0 -68 78 -117 q82 -205 206 -205q123 0 205 205q78 49 78 117q0 88 -37 157q-74 174 -250 275q-176 100 -385 100q-219 0 -381 -119q-143 -96 -202 -233h-6q-63 -166 -70 -324q0 -102 24 -200q14 -49 23 -84h-88l70 -234h63q-2 -10 -2 -29q0 -174 -45 -329q-51 -164 -111 -305 q-10 -10 -13 -25.5t-3 -40.5zM123 45q0 14 4 18q63 145 119 330q49 172 49 352q0 43 -10 111h-72l-20 70h79q-25 115 -45 186q-23 90 -22 178q4 115 47 244h2q57 147 197 250q139 102 331 102q188 0 344 -90q154 -88 217 -237q29 -57 29 -123q0 -98 -59 -170 q-57 -70 -142 -70q-86 0 -143 70q-59 72 -59 170q0 76 41 145q25 35 24 45q-4 6 -51 27q-59 27 -111 26q-61 0 -110 -8q-37 -8 -96 -59q-70 -53 -97 -121q-49 -98 -49 -201q0 -90 25 -176q27 -88 49 -188h285l20 -70h-201h-92q12 -70 12 -111q0 -102 -24 -204 q-25 -90 -45 -203q0 -4 -2 -14v-11q0 -68 88 -67q209 4 366 37q152 33 236 166q31 66 106 65q31 0 43 -29l3 -6q2 -12 2 -20q0 -18 -9 -31q-31 -59 -57 -98q-33 -45 -53 -99q-14 -33 -31 -90q-23 -68 -33 -92q-23 -47 -75 -47q-125 8 -248 12t-271 4q-244 -6 -450 -20 q-16 0 -33 22q-8 10 -8 25z" />
<glyph unicode="&#xad;" d="M41 489h1034v228h-1034v-228zM123 571v64h870v-64h-870z" />
<glyph unicode="&#x2000;" horiz-adv-x="1144" />
<glyph unicode="&#x2001;" horiz-adv-x="2288" />
<glyph unicode="&#x2002;" horiz-adv-x="1144" />
<glyph unicode="&#x2003;" horiz-adv-x="2288" />
<glyph unicode="&#x2004;" horiz-adv-x="762" />
<glyph unicode="&#x2005;" horiz-adv-x="572" />
<glyph unicode="&#x2006;" horiz-adv-x="381" />
<glyph unicode="&#x2007;" horiz-adv-x="381" />
<glyph unicode="&#x2008;" horiz-adv-x="286" />
<glyph unicode="&#x2009;" horiz-adv-x="457" />
<glyph unicode="&#x200a;" horiz-adv-x="127" />
<glyph unicode="&#x2010;" d="M41 489h1034v228h-1034v-228zM123 571v64h870v-64h-870z" />
<glyph unicode="&#x2011;" d="M41 489h1034v228h-1034v-228zM123 571v64h870v-64h-870z" />
<glyph unicode="&#x2012;" d="M41 489h1034v228h-1034v-228zM123 571v64h870v-64h-870z" />
<glyph unicode="&#x2013;" horiz-adv-x="1106" d="M41 489h1024v228h-1024v-228zM122 571v64h862v-64h-862z" />
<glyph unicode="&#x2014;" horiz-adv-x="2130" d="M41 489h2048v228h-2048v-228zM203 571v64h1724v-64h-1724z" />
<glyph unicode="&#x202f;" horiz-adv-x="457" />
<glyph unicode="&#x205f;" horiz-adv-x="572" />
<glyph unicode="&#x25fc;" horiz-adv-x="1556" d="M0 0v1556h1556v-1556h-1556z" />
</font>
</defs>
</svg>
