<?xml version="1.0" standalone="no"?>
<!DOCTYPE svg PUBLIC "-//W3C//DTD SVG 1.1//EN" "http://www.w3.org/Graphics/SVG/1.1/DTD/svg11.dtd" >
<svg xmlns="http://www.w3.org/2000/svg">
<metadata></metadata>
<defs>
<font id="boltontitlingboldregular" horiz-adv-x="1161" >
<font-face units-per-em="2048" ascent="1638" descent="-410" />
<missing-glyph horiz-adv-x="819" />
<glyph horiz-adv-x="0" />
<glyph horiz-adv-x="682" />
<glyph unicode=" "  horiz-adv-x="819" />
<glyph unicode="&#x09;" horiz-adv-x="819" />
<glyph unicode="&#xa0;" horiz-adv-x="819" />
<glyph unicode="!" horiz-adv-x="452" d="M41 176q0 -72 55 -125q47 -49 131 -49q82 0 131 49q53 53 54 125q0 70 -54 123q-51 51 -131 51q-82 0 -131 -51q-55 -53 -55 -123zM57 1317q0 -8 2 -49v-58l56 -872q4 2 49 24q57 29 65 31q8 0 74 -28q6 -2 49 -23q0 199 21 455q16 190 26 413q0 39 2 82v68 q0 242 -32 356q-61 188 -131 189q-80 0 -134 -185q-47 -133 -47 -403z" />
<glyph unicode="&#x22;" horiz-adv-x="579" d="M41 1712q4 -121 31.5 -164t85.5 -43q59 0 83.5 41t24.5 166v166h-225v-166zM313 1712q6 -123 32 -165t85 -42q55 0 82 42t27 165v166h-226v-166z" />
<glyph unicode="#" d="M41 446h332l-56 -344h121l56 344h124l-53 -344h121l55 344h379v115h-362l16 113h346v114h-329l57 365h-123l-55 -365h-127l59 365h-125l-55 -365h-381v-114h365l-19 -113h-346v-115zM508 561l16 113h131l-18 -113h-129z" />
<glyph unicode="$" horiz-adv-x="1310" d="M41 268q0 -86 45 -98q139 -121 403 -156l-28 -245h106l27 235h86q197 0 395 127q195 127 195 336q-12 256 -215 344q-168 82 -361 119l19 170q74 -25 137 -64q80 -41 125 -98l33 -33q25 -23 57 -22q72 0 72 61q0 2 -2 8q-2 8 -2 11q-6 31 -35 92q-20 35 -33 94 q-12 43 -68 63q-12 4 -20 7q-37 8 -47 14q-72 31 -201 49l27 258h-103l-24 -246q-8 0 -19 2q-41 4 -61 7v-5q-4 0 -25 2h-24q-143 0 -264 -49q-156 -63 -156 -256q0 -57 15.5 -99t47.5 -77q76 -72 181 -96q49 -25 120 -43q31 -8 97 -23l14 -4l-45 -442q-109 23 -170 74 q-70 92 -102 194l-2 2q-16 27 -25 49q-23 84 -96 84q-74 0 -74 -77v-76v-99v-94zM369 1067q0 35 37 43q72 20 131 25q36 -1 69 -9l-18 -176q-2 0 -33 8q-35 8 -41 11q-57 20 -102 49q-43 25 -43 49zM612 197l50 432q45 -10 102 -27q10 -4 18 -6q68 -33 119 -80 q33 -45 35 -117q0 -96 -78 -153q-41 -29 -80 -42.5t-84 -13.5q2 0 -12 0q-23 0 -47 5q-17 2 -23 2z" />
<glyph unicode="%" horiz-adv-x="1331" d="M41 977q0 -131 109 -234q104 -98 256 -98q154 0 258 98q106 98 106 234q0 104 -27 170h7q86 -4 124 -4q84 0 203 22l-1026 -1163h117l1075 1217l-6 -5q6 0 12 9q4 6 8 10v6l33 53h-33v39v-2q-6 -16 -13 -26.5t-25 -10.5h-41l-9 -18q-160 -53 -295 -53q-171 0 -380 86v-9 q-57 8 -88 9q-152 0 -256 -97q-109 -104 -109 -233zM285 975q0 96 28 172q24 61 90 61t89 -59q33 -74 34 -174q0 -111 -37 -170q-35 -57 -83 -57q-43 2 -82 63q-39 63 -39 164zM563 322q0 -133 107 -234q104 -94 256 -94q150 0 256 94q109 104 108 234q0 131 -106 233 q-104 96 -258 96t-256 -96q-106 -100 -107 -233zM805 322q0 96 29 170q24 61 92 61t88 -57q31 -74 33 -174q0 -98 -37 -172q-33 -55 -82 -56q-49 4 -84 62q-39 66 -39 166z" />
<glyph unicode="&#x26;" horiz-adv-x="1671" d="M41 655q0 -98 33 -188q92 -262 372 -385q168 -70 326 -70q113 0 240 35q2 0 8 2h4q8 0 14 21q25 -66 82 -66q123 12 217 12q113 0 238 -12q31 0 43 5t12 30q0 16 -14 33q-55 76 -94 75q-23 0 -111 91q4 -2 4 -7q0 4 12 11q66 51 86 73q39 39 39 76q-18 35 -20 123 q-2 43 -2 125q0 55 -49 55q-4 0 -11 -2q-10 -2 -14 -2h-6q-55 -16 -55 -78v-18q-20 -88 -103 -195q0 -10 -2 -16l4 -6q-2 4 -8 12q-8 10 -12 17q-27 37 -80 110q-51 72 -78 109q-86 115 -219 313q-25 37 -63 96q-14 25 -23 35q-47 72 -78 121q0 4 -2 6t-2 6q0 2 12 2 q35 8 109 8q78 0 147 -14q131 -25 226 -90q31 -31 71 -31l21 4q37 25 37 45q0 10 -23 45q-2 4 -6 9q-55 47 -106 120q-2 2 -11 15q-16 23 -26 28q-16 18 -72 23q-37 8 -74 10t-92 2q-152 0 -274 -41h-15q-20 0 -32 23q-4 8 -19 31q-2 6 -14 24q-25 33 -33 45q-2 4 -2 8 q-20 47 -33 74q-2 8 -8 25q-6 14 -6 22q0 2 2 6v2q12 23 43 35q4 4 14 4q23 0 53 -20q51 -35 64 -62q6 -6 6 -16v-2q-2 -4 -2 -6q-8 -16 -8 -49t10 -51q14 -25 17 -27q20 -25 51 -25q16 0 37 6q51 25 53 68q6 49 41 78q49 33 78 92q20 31 20 55q0 29 -20 56q-4 12 -7 16 q-37 70 -112 109q-59 32 -131 32q-16 4 -56 4q-55 0 -104 -12q-248 -74 -291 -235q-10 -25 -10 -86q0 -131 90 -301q14 -29 14 -43q0 -12 -14 -23q-184 -117 -260 -322q-43 -111 -43 -217zM401 831q0 121 56 207q12 16 22 25q2 0 2 -8l2 -8q16 -14 21 -17q23 -18 28 -24 q14 -29 37 -86q2 -6 9 -19q201 -311 276 -438q33 -57 74 -127q47 -82 61 -109q6 -6 6 -18q0 -6 -20 -6h-45q-137 0 -264 84q-147 104 -213 286q-51 137 -52 258z" />
<glyph unicode="'" horiz-adv-x="307" d="M41 1712q0 -121 25.5 -164t87.5 -43q61 0 86.5 42t25.5 165v166h-225v-166z" />
<glyph unicode="(" horiz-adv-x="440" d="M41 969q0 -385 82 -684q110 -350 276 -424q-98 180 -157 497q-47 283 -47 611t47 604q57 315 157 504q-166 -76 -276 -428q-82 -299 -82 -680z" />
<glyph unicode=")" horiz-adv-x="440" d="M41 -121q166 74 278 416q80 287 80 694q0 408 -80 694q-115 344 -278 416q98 -186 160 -504q47 -276 47 -606t-47 -606q-62 -318 -160 -504z" />
<glyph unicode="*" horiz-adv-x="462" d="M41 1485l18 -17q-10 0 -10 -2q27 0 133 58q6 -119 49 -119q35 0 52 119q90 -57 110 -58l6 2h23q0 25 -35 88q-23 31 -78 82q55 51 78 82q35 49 35 74l-19 18h-14q-23 0 -106 -59q-16 121 -52 121q-43 0 -49 -123q-88 61 -106 61h-17l-18 -20q0 -16 37 -72q16 -29 74 -82 q-57 -53 -74 -79q-37 -57 -37 -74z" />
<glyph unicode="+" d="M41 557h483v-432h117v432h479v113h-479v436h-117v-436h-483v-113z" />
<glyph unicode="," horiz-adv-x="450" d="M41 160q0 -63 57 -115q45 -47 127 -47q2 0 4 -4q4 -4 9 -8v-4q0 -14 -21 -60q-20 -41 -20 -61q0 -18 10 -24.5t16 -6.5q44 1 107 64q41 41 61 116q18 45 19 107v22q-2 16 -2 21q-23 162 -183 162q-76 0 -129 -48q-55 -45 -55 -114z" />
<glyph unicode="-" d="M41 557h1079v113h-1079v-113z" />
<glyph unicode="." horiz-adv-x="452" d="M41 461q0 -70 57 -115q51 -47 129 -47q76 0 129 47q55 49 56 115q0 70 -56 114q-53 48 -129 48q-78 0 -129 -48q-57 -43 -57 -114z" />
<glyph unicode="/" horiz-adv-x="937" d="M41 49h131l725 1759h-131z" />
<glyph unicode="0" horiz-adv-x="1691" d="M41 944q0 -391 256 -665q252 -276 549 -277q299 0 553 252q252 258 252 690q0 436 -260 686q-264 256 -545 256t-539 -278q-266 -268 -266 -664zM442 864q0 6 2 37v39q16 319 111 543q91 215 281 217q201 0 305 -207q94 -182 94 -455v-47q-2 -29 -2 -51 q-20 -346 -129 -551q-100 -197 -268 -209q-176 0 -283 211q-111 201 -111 473z" />
<glyph unicode="1" horiz-adv-x="954" d="M41 1251q0 -29 55 -67q14 -12 54 -13q4 0 14 3q8 2 12 2q31 0 47 14q4 4 13 10q2 0 4 2q39 27 67 39q37 14 82 41q2 2 4 2q10 0 15 -2q16 -4 16 -10v-180v-179q0 -49 2 -102v-86q0 -236 -14 -344q-18 -152 -47 -203q-23 -41 -39 -43q-55 -4 -78 -88v-6q-2 -6 -2 -10 q0 -43 69 -43q72 12 140 16q39 0 77 2h60q78 0 125 -2q43 0 110 -8q6 0 19 -2q68 0 67 53q0 35 -18 55.5t-45 20.5q4 -2 6 -2q-12 0 -20 -2q-8 0 -19 22q-29 41 -51 187q-10 74 -15.5 200.5t-5.5 333.5q0 104 5 189q0 168 2 258q0 176 2 256q2 76 2 164q18 41 18 67 q0 74 -61 76h-8q-6 2 -11 2q-27 0 -63 -14l-2 -2q-25 -20 -41 -46q-33 -59 -84 -139l-4 -6q-8 -10 -23 -29q-47 -61 -82 -96q-72 -72 -149 -110q-27 -16 -37 -23q-94 -57 -125 -86q-18 -18 -29 -37q-10 -10 -12 -17t-2 -18z" />
<glyph unicode="2" horiz-adv-x="1517" d="M41 1364q6 -281 248 -414q25 -12 33 -14q6 -4 22 -12q68 -25 141 -25q244 0 320 137q2 0 2 6h4q10 16 10 41q0 88 -88 88q-33 0 -57 -26q-72 -51 -172 -51q-41 0 -78 22q-45 31 -66 60q-37 66 -36 157q0 111 102 207q104 94 238 94q68 0 124 -8q39 -8 105 -53 q78 -49 106 -109q57 -96 58 -219q-12 -92 -51 -166q-35 -66 -93 -145q-14 -12 -20 -21q-55 -51 -86 -75q-37 -35 -115 -88q-20 -10 -49 -27q-23 -12 -33 -18l-2 -3q-213 -135 -319 -272q-117 -137 -203 -326q-12 -8 -12 -32q0 -10 12 -35l2 -4q23 -35 57 -35l60 2 q274 14 405 18q158 0 280 -3t257 -11q78 0 102 59q4 8 6 11q23 49 33 84q16 61 27 82q23 53 55 90q41 55 60 100q10 12 10 39q0 25 -6 37q-17 47 -66 47q-92 0 -133 -78q-92 -139 -283 -162q-203 -20 -481 -24q-12 0 -18 8q10 0 10 -16q0 4 4 10l4 4q98 119 268 215 q152 84 336 199q168 102 283 231q119 125 119 317q0 139 -62 287h-6q-68 143 -235 240q-174 102 -404 102q-297 0 -510 -145q-219 -147 -219 -377z" />
<glyph unicode="3" horiz-adv-x="1628" d="M41 502q0 -188 195 -346q188 -158 479 -158q154 0 295 59q147 57 276 156q127 111 209 252q90 117 92 235q0 135 -27.5 241t-80.5 200q-125 193 -365 248q-10 0 -14 2q2 10 8 16q96 102 166 164q92 82 188 164q45 53 47 86q0 63 -59 63q-199 -12 -489 -16q-139 0 -258 4 t-240 12q-35 0 -57 -29q-12 -12 -23 -30l-6 -8q-72 -127 -174 -236q-31 -31 -35 -82q0 -68 57 -67q88 0 156 90q53 63 250 82q80 10 215 10q55 0 143 -8h8q8 -2 15 -2q12 0 14 -2l-10 8q0 -2 -17 -8l-2 -3q-125 -129 -182 -182q-104 -88 -209 -172q-43 -39 -43 -90 q0 -57 51 -57q61 0 95 16q37 16 75 16q184 0 310 -135q98 -117 98 -252q0 -39 -8 -71q-2 -184 -131 -330q-127 -139 -328 -139q-145 0 -244 92q-100 92 -100 209v26q-2 18 -2 21q0 66 29 111q29 31 84 59q80 39 79 88v22q-6 35 -26 43q-31 18 -111 19q-76 -2 -121 -27 q-272 -104 -272 -364z" />
<glyph unicode="4" horiz-adv-x="1595" d="M41 444q0 -41 20.5 -59t69.5 -29h830q27 0 45 -2q-4 0 -5 -28q-2 -100 -12 -131q-10 -20 -24 -27q-29 -12 -50 -23q-37 -14 -86 -96q0 -31 23 -45q23 -16 43 -16q72 12 139 16q31 0 78 2h53q63 0 123 -8q37 -4 90 -10l33 -4q70 0 70 57q-8 57 -31 72q-20 12 -33 22 q-14 12 -35 51q-20 43 -32 136q0 12 8 20q8 14 31 14h71q94 0 94 84v68q0 84 -94 84h-86q-37 0 -41 6q-6 25 -6 49q-2 39 -2 127q0 96 2 150q2 72 6 215t4 215q2 150 6 456q-8 0 -10 9q-12 63 -76 65q-96 -6 -145 -90q-219 -324 -481 -635q-234 -276 -529 -610 q-51 -45 -61 -105zM406 578q4 0 4 -13q0 12 6 21q123 166 280 350q125 143 285 360q8 12 37 35h-8q-10 0 -11 -31q-2 -63 -2 -192v-195q2 -35 2 -75q2 -63 2 -78q2 -49 3 -135q0 -29 -13 -33h-45l-522 -12q-4 0 -10 -2h-8z" />
<glyph unicode="5" horiz-adv-x="1550" d="M41 426q0 -252 207 -356q211 -106 491 -107q307 0 545 213q225 207 225 465v21q-2 14 -2 18q0 166 -54 293t-165 223q-227 199 -534 199q-166 -6 -297 -52q-6 -2 -19 -2q2 0 2 -6q4 14 4 58q-2 18 -2 53v41v47q-2 6 -2 27q0 -6 15 -7q88 6 264 7q150 0 338 -11 q8 -4 26 -4h2q35 0 60 2q47 0 80 62q41 78 129 168q25 25 24 53q0 12 -6 29l-2 4q-29 29 -88 28q-8 -4 -22 -12q-25 -10 -33 -16q-18 -12 -39 -17q-139 -14 -258 -14q-20 0 -76 4q-51 2 -84 2q-172 8 -475 33v-4h20q-8 4 -18 4l-10 2q-27 0 -47 -21q-16 -20 -17 -47 q4 -88 13 -176q10 -76 10 -176q0 -98 -10 -172q-8 -84 -13 -174q-2 -29 -2 -90q0 -84 90 -84q31 0 76 31q33 31 127 79q66 37 150 37q41 0 79 -6q166 -20 277 -141q113 -117 115 -316q0 -203 -109 -317q-117 -117 -281 -141h-59q-137 0 -235 82q-92 84 -93 200 q0 184 174 224h5q66 10 65 77q0 76 -80 76q-14 0 -30 2h-25q-168 0 -283 -84q-139 -96 -143 -311z" />
<glyph unicode="6" horiz-adv-x="1609" d="M41 817q0 -426 246 -633q260 -215 639 -215v2q-20 0 -31 -2h16q227 2 443 197q215 197 215 469q0 166 -54.5 284.5t-162.5 204.5q-221 168 -525 168q-53 0 -73 -26q-143 -182 -334 -338q-2 -2 -12 -2q4 -4 4 -13q12 186 90 322q82 135 192 238q111 100 221 157 q55 33 146 76q31 16 37 18q68 0 92 43q8 20 8 31q0 78 -106 78q-182 0 -379 -107q-186 -102 -344 -260q-143 -152 -242 -342q-86 -166 -86 -350zM469 565q0 80 25.5 144.5t80.5 126.5q115 127 271 127q164 0 272 -82q113 -131 113 -316q0 -186 -113 -319q-110 -80 -272 -80 q-158 0 -268 153q-109 147 -109 246z" />
<glyph unicode="7" horiz-adv-x="1464" d="M41 1444q0 -25 10 -35q23 -33 70 -33q106 0 153 92q68 104 316 117q74 8 213 8q90 0 233 -12q23 0 23 -6q0 -4 -4 -6q-158 -299 -418 -760q-225 -377 -348 -731v-6q-2 -6 -2 -9q0 -20 10 -36q12 -29 57 -29q72 10 133 10q57 0 134 -10q4 0 12 -2h8q72 0 84 74 q96 463 287 893q180 416 399 827q12 18 12 39q0 55 -69 55q-35 0 -49 -6q-76 -2 -224 -2q-39 0 -114 2q-78 2 -117 2q-94 2 -311 12q-102 4 -152 6h-4h-8q-41 0 -88 -24q-51 -31 -68 -74q-29 -86 -65 -151q-8 -14 -25 -41q-41 -72 -70 -111q-12 -12 -15 -24.5t-3 -28.5z" />
<glyph unicode="8" horiz-adv-x="1556" d="M41 565q0 -268 215 -418q207 -150 506 -149q297 0 524 172q229 180 230 412q0 166 -111 303q-109 170 -289 262q-35 6 -35 10q0 -16 -10 -16l21 14q27 14 38 25q82 63 142 135q63 72 63 174q0 162 -166 285q-157 120 -405 120q-240 0 -410 -125q-172 -129 -172 -303 q4 -156 51 -233q51 -78 101 -115q53 -39 88 -51q-4 4 -4 10q-2 2 -4 2q-154 -109 -250 -219q-123 -133 -123 -295zM381 573q0 137 70 263q76 150 184 149q12 0 74 -18l30 -11q82 -31 187 -96q98 -63 170 -147q57 -66 57 -181q-18 -207 -127 -286q-115 -76 -260 -84 q-80 0 -142.5 25.5t-117.5 78.5q-111 117 -123 266v19q-2 12 -2 22zM494 1511q0 92 79 158q76 66 189 66q88 -2 182 -70q94 -59 94 -154q0 -115 -43 -198q-41 -51 -110 -58q-92 0 -244 86q-147 80 -147 170z" />
<glyph unicode="9" horiz-adv-x="1560" d="M41 1272q0 -10 2 -33t2 -35q0 -322 248 -483q248 -168 498 -168q51 0 73 27q29 88 70 137q43 49 147 119q4 6 13 6q-4 4 -4 12q-18 -150 -105 -260q-82 -113 -205 -207q-109 -90 -227 -151q-37 -18 -96 -50q-61 -29 -84 -41h-2l-13 -4q-70 -27 -79 -37q-10 -25 -11 -34 q1 -74 107 -74q184 0 391 102q203 104 373 262q166 147 280 340q51 88 76 172t25 181q0 428 -205 628q-211 213 -580 215q-219 0 -469 -190q-225 -182 -225 -434zM362 1376q0 119 87 209q96 96 245 96q45 0 70 -6q199 -25 270 -178q70 -166 82 -250q2 -10 8 -47q4 -37 6 -47 q0 -2 3 -12v-15q0 -31 -11 -65q-23 -37 -133 -82q-98 -57 -225 -64q-322 0 -391 365q-2 18 -4 31q-6 45 -7 65z" />
<glyph unicode=":" horiz-adv-x="452" d="M41 162q0 -70 57 -115q49 -45 129 -45q76 0 129 45q55 51 56 115q0 66 -56 114q-57 48 -129 48q-78 0 -129 -48q-57 -43 -57 -114zM41 1020q0 -72 57 -117q53 -43 129 -43q70 0 129 43q55 51 56 117q0 61 -56 117q-57 45 -129 45q-78 0 -129 -47q-57 -49 -57 -115z" />
<glyph unicode=";" horiz-adv-x="452" d="M41 160q0 -63 57 -115q45 -47 127 -47q2 0 4 -4q4 -4 9 -8v-4q0 -14 -21 -60q-20 -41 -20 -61q0 -18 10 -24.5t16 -6.5q44 1 107 64q41 41 61 116q18 45 19 107v22q-2 16 -2 21q-23 162 -183 162q-76 0 -129 -48q-55 -45 -55 -114zM41 1016q0 -63 57 -115q51 -45 127 -45 q74 0 129 43q57 51 58 117q0 63 -58 117q-55 45 -129 45t-129 -45q-55 -49 -55 -117z" />
<glyph unicode="=" d="M41 408h1079v106h-1079v-106zM41 612h1079v107h-1079v-107z" />
<glyph unicode="?" horiz-adv-x="1398" d="M41 1513q0 -88 70 -155q68 -63 163 -64q94 0 168 64q72 70 72 155q0 66 -33 113q53 31 133 45q20 4 60 4q59 0 108 -20q78 -33 125 -127q33 -70 33 -180q0 -47 -6 -103q-25 -213 -103 -276q-76 -59 -178 -111q-90 -41 -170 -131q-61 -70 -61 -258q0 -23 2 -61 q2 -51 2 -72q100 55 115 57q14 0 121 -51q0 268 83 332q96 57 213 82q123 23 244 108q121 78 152 391q0 10 2 31q2 23 2 35q0 227 -150 385q-168 180 -483 180q-31 8 -102 8q-152 0 -328 -69q-254 -104 -254 -312zM348 176q0 -66 55 -125q55 -49 134 -49q84 0 133 49 q55 53 55 125q0 70 -55 123q-51 51 -133 51q-76 0 -131 -51q-57 -61 -58 -123z" />
<glyph unicode="@" horiz-adv-x="1658" d="M41 858q0 -358 225 -604q227 -252 549 -252q164 0 299 68q168 84 285 225q-213 0 -342 -59q-90 -51 -242 -52q-248 0 -393 166q-145 213 -146 508q0 279 146 479q141 197 393 197q250 0 399 -199q156 -199 156 -477q0 -135 -47 -260q0 -2 -2 -6q-4 -6 -4 -12v-2 q-23 -37 -43 -46h29q-18 -53 -46 -53q-14 0 -28 27q-18 31 -23 90q0 33 -2 51v53q2 55 2 101q2 76 2 100v96q4 10 6 31q0 6 3 21q0 29 -21 41q-88 51 -207 77q-104 25 -203 25q-180 0 -366 -117q-10 -4 -13.5 -12t-3.5 -23q0 -27 27 -51q37 -25 59 -24q18 0 31 12 q96 78 260 78q49 -2 111 -13q27 0 53 2h12q14 -37 17 -65q0 -18 -39 -18h-31q-14 4 -39 4q-213 0 -368 -60q-162 -63 -162 -282q0 -174 180 -232q74 -25 170 -24q106 0 199 30q43 14 80 15q29 0 55 -11q37 -18 92 -36q63 -43 150 -58q100 0 172 70q70 70 106 158 q41 88 59 180q20 84 21 143q0 352 -242 606q-246 252 -561 252q-317 0 -549 -254q-225 -250 -225 -604zM606 649q0 80 70 142q75 61 270 63l4 -2q12 -2 19 -6q2 -2 2 -12q0 -6 -4 -39q-2 -20 -4 -39q0 -51 -2 -72q-2 -23 -3 -61q-4 -43 -24 -56l-19 -12q-8 -6 -16 -8 q-76 -37 -141 -37q-41 0 -76 18q-76 43 -76 121z" />
<glyph unicode="A" horiz-adv-x="2095" d="M41 45q0 -25 15.5 -33t52.5 -8q129 10 235 12q100 0 219 -12q61 0 76 41q10 18 10 45q0 47 -39 47q-25 6 -47 21q-20 12 -24 49q0 68 49 180q2 14 10 14h829q18 -2 27 -26q45 -119 47 -164q0 -29 -12 -49q-18 -18 -31 -25q-35 -18 -35 -88q8 -25 56 -43q16 -2 53 -2 q117 10 223 12q92 0 234 -12q33 0 53 29q12 29 12 43l-6 12q-35 74 -63 74q-18 0 -43 35q-45 53 -125 206q-70 125 -240 541l-10 17l-355 847q-35 59 -63 60q-10 -2 -55 -2q-35 0 -50 -2h-38q-109 0 -211 2q-129 0 -215 8q-31 0 -48 -31q-6 -10 -6 -28q0 -4 2 -11v-6 q18 -92 189 -104q129 -6 139 -95q0 -74 -76 -213q-82 -137 -219 -462q-182 -381 -272 -539q-96 -162 -133 -203q-31 -39 -41 -39q-23 0 -66 -67q-8 -14 -8 -31zM670 598q0 8 2 18v13q18 55 53 127q31 72 74 153q18 41 67 146q31 68 49 108q53 125 105 230v6q2 0 2 -6l2 -7 q88 -154 205 -483q14 -29 51 -96q10 -16 20 -35q23 -53 56 -147q2 -4 2 -25q0 2 -2 2h-686v-4z" />
<glyph unicode="B" horiz-adv-x="2048" d="M41 1835q6 -84 57 -86q23 -6 45 -53q31 -55 54 -226q14 -106 14 -337v-101q-2 -63 -2 -119q-12 -377 -37 -540q-29 -166 -53 -211q-12 -37 -25 -37q-39 0 -51 -80q0 -51 72 -51q127 12 219 12h115q34 -2 112 -2h2h12h15q16 -2 82 -2q96 0 248 -4q27 0 86 -2q96 0 159.5 4 t112.5 12q449 76 586 264q137 176 143 363q-6 244 -160 373q-152 131 -405 194q4 0 4 -6q4 4 6 4q332 106 332 303q0 45 -31 121q-35 80 -172 148q-143 66 -397 100q-115 16 -305 16q-164 0 -410 -16h-74q-25 2 -73 2q-96 0 -213 10q-37 0 -52.5 -10t-15.5 -43zM524 1341 q10 166 25 248q12 80 24 115q6 27 31 27q526 -6 658 -60q119 -45 118 -158q0 -131 -184 -180q-94 -25 -243.5 -37t-377.5 -12q-49 0 -49 10q-2 24 -2 47zM537 924q0 72 2 108q2 35 2 103h28q18 -2 35 -2q84 -6 127 -9h156q254 -25 387 -75q129 -43 201 -109q59 -59 77 -131 t21 -145q-20 -125 -47 -201q-35 -96 -111 -148q-74 -57 -258 -104q-182 -35 -473 -47q-41 0 -53 6q-18 14 -33 66q-29 61 -49 229q-6 66 -9 168t-3 291z" />
<glyph unicode="C" horiz-adv-x="2113" d="M41 940q0 -387 311 -661q309 -272 746 -273q172 0 413 43q244 41 383 121q84 35 84 78q0 59 33 186q31 100 57 164q0 4 3 10q2 2 2 6q0 23 -23 41q-25 25 -59 25h-4q-70 0 -91 -84l-8 -16q-96 -145 -286 -261q-195 -118 -360 -118h-3q-268 0 -522 211q-256 207 -256 516 q0 334 207 571q207 188 473 189h51q190 0 379 -82q211 -92 327 -256q39 -61 82 -62h23q55 0 61 45q0 20 -2 43q-2 10 -2 17q-68 104 -90 213q-8 23 -33 43q-20 47 -86 86q-213 96 -387 116q-166 23 -366 23q-186 0 -377 -74q-182 -72 -338 -203q-158 -131 -248 -294 q-94 -172 -94 -363z" />
<glyph unicode="D" horiz-adv-x="2013" d="M41 55q0 -33 13.5 -42t49.5 -9q31 2 111 2q33 -2 107 -2h55h67q33 0 93 4q29 2 30 2q59 4 68 6q557 43 942 328q395 291 395 653q-12 274 -135 451q-119 170 -311 266q-178 88 -430 123q-236 35 -488 37q-4 4 -22 4q-92 0 -111 -6h-24q-41 -2 -70 -2h-121q-70 0 -121 8 q-63 0 -63 -57q6 -78 47 -82q10 -4 18 -49q25 -55 37 -220q10 -113 10 -278q0 -43 -2 -121q-2 -109 -2 -158q-12 -369 -34 -538q-25 -156 -44 -205l-2 -4q-10 -31 -16 -31q-47 0 -47 -80zM524 924q2 197 17 448q12 172 28 244q4 33 13 61q6 14 43 15q354 -6 645 -144 q272 -125 289 -553q0 -285 -283 -516q-291 -236 -692 -268q-12 0 -13 -2q-6 10 -8 22l-2 7q-16 66 -26 229q-6 61 -8.5 149.5t-2.5 307.5z" />
<glyph unicode="E" horiz-adv-x="1947" d="M41 55q0 -33 14.5 -42t53.5 -9q127 10 223 10h33q100 -2 196 -2q123 0 379 -4h41q131 0 440 -2q74 -2 150 -2q45 0 69 29q25 29 48 49q43 57 90 111q25 29 49 43q10 8 31 28q18 18 24 23q25 16 25 73q-6 63 -74 64q-35 0 -104 -39q-72 -39 -105 -51q-145 -84 -436 -119 q-289 -27 -424 -27q-23 0 -49 2h-45q-80 4 -113 80q-33 78 -33 224v434q0 68 2 100q0 61 2 88q0 4 7 4h516q129 -2 282 -12q135 -6 170 -92q27 -66 80 -66h4q82 0 82 62q0 2 -2 6q-2 6 -2 8q-18 102 -18 197q0 90 18 184q0 2 2 10q2 4 2 6q0 59 -74 60h-4q-39 0 -53 -27 q-8 -14 -27 -29q-84 -78 -194 -104q-109 -27 -305 -27h-453q-23 0 -22 9q6 125 14 184l6 45q8 59 14 82q8 53 27 94q12 -2 76 -2q94 -4 213 -4q154 -4 291 -14q141 -8 297 -39q131 -25 206 -78q57 -53 134 -53h16q39 0 53 18q14 14 14 27q0 12 -14 30l-6 9q-63 61 -106 114 q-70 78 -115 117q-18 20 -66 35q-45 14 -75 14h-17q-21 0 -29 -4q-317 0 -563 -8q-256 -8 -573 -8q-117 0 -225 14q-37 0 -52.5 -12.5t-15.5 -44.5q6 -80 57 -80q18 0 41 -23q29 -51 51 -243q16 -111 17 -304q0 -33 -2 -110q-4 -88 -4 -139q-8 -381 -37 -541 q-25 -168 -51 -229q-12 -16 -23 -17q-49 0 -49 -80z" />
<glyph unicode="F" horiz-adv-x="1826" d="M41 1821q6 -80 57 -80q18 0 41 -23q29 -51 51 -243q16 -121 17 -336q0 -37 -2 -97q-2 -82 -2 -118q-2 -14 -2 -41q-2 -14 -2 -43q-12 -322 -33 -492q-23 -147 -39 -184q-6 -29 -12 -29q-45 0 -45 -80q0 -51 65 -51q121 10 227 12q33 0 107 -6l16 -2q37 -4 90 -10l33 -4 q68 0 68 53q0 78 -39 80q-14 8 -31 29q-18 27 -41 100q-22 101 -28 322q0 84 -9 155q-2 37 -2 180q0 68 2 103v86q0 6 7 6l391 -6q109 0 282 -10q139 -10 172 -80q27 -82 78 -82h4q80 0 80 59v6q-2 6 -2 11q-18 102 -18 196q0 98 18 187q0 6 2 14v4q0 59 -72 59h-4 q-37 0 -55 -30q-10 -14 -22 -25q-84 -72 -197 -106q-127 -27 -307 -27l-326 4q-23 0 -22 10q8 131 14 193l6 47q8 59 14 84q8 53 27 94q12 -2 80 -2q59 -2 192 -6q129 -6 256 -19q135 -16 254 -45q123 -33 191 -79q57 -51 133 -52h18q27 0 47 17q10 4 13.5 12t3.5 20 q0 14 -17 37q-59 53 -110 111q-49 63 -113 117q-25 25 -69 34q-41 14 -72 15h-16q-18 0 -25 -2h-285q-201 -2 -229 -2q-154 -2 -516 -2q-113 0 -225 14q-37 0 -52.5 -12.5t-15.5 -44.5z" />
<glyph unicode="G" horiz-adv-x="2160" d="M41 940q0 -387 311 -661q309 -272 746 -273q178 0 426 64q256 59 395 139q74 51 74 88l-6 10q-2 8 -11 27q-4 12 -10 26q0 238 3 358t9 183q16 152 45 193q12 29 35 28q45 0 62 82q0 25 -33 47q-14 10 -47 11l-90 -5l-31 -2q-41 -2 -115 -2h-118q-59 0 -119 7 q-41 0 -57.5 -10.5t-16.5 -41.5q6 -68 43 -78q12 -2 35 -28q25 -37 41 -131q24 -114 26 -350q-6 -86 -9 -155t-3 -136q0 -45 -84 -70q-76 -29 -141 -43q-43 -8 -162 -16q-270 0 -528 200q-127 96 -188.5 224.5t-61.5 302.5v33q-2 25 -2 28q0 293 174 490q195 211 459 211 q18 0 41 2h36q182 0 316 -47q164 -51 370 -218q31 -61 89 -61h20q47 0 59 47l2 8v9q0 27 -12 47q-45 70 -69 135q-25 68 -89 121q-213 98 -391 118q-166 23 -366 23q-371 0 -713 -250q-344 -252 -344 -684z" />
<glyph unicode="H" horiz-adv-x="1964" d="M41 55q0 -33 14.5 -42t53.5 -9q133 12 225 12q109 0 227 -12q66 0 66 51q0 86 -43 88q-14 0 -33 41q-25 49 -43 205q-12 117 -12 342q0 12 2 88v105v100q0 61 2 92v10q2 10 2 17q0 -16 14 -17q84 0 248 -4q78 -2 246 -2q143 0 215 2q72 0 215 4q18 0 18 9v-21 q0 -131 -2 -201q-8 -367 -29 -534q-18 -154 -43 -225q-2 -18 -6 -19q-43 0 -43 -80q0 -51 64 -51q127 12 227 12q102 0 227 -12q70 0 70 51q0 86 -47 88q-12 0 -29 41q-27 43 -45 205q-16 127 -16 352q0 31 2 82q2 70 2 99q2 373 25 569q23 170 47 211q6 33 14 33 q47 0 47 84q0 57 -70 57q-109 -14 -227 -14q-98 0 -227 14q-63 0 -64 -57q6 -68 41 -76q18 -8 33 -29q23 -25 37 -100q8 -27 10 -79t2 -192q0 -27 -12 -26q-76 0 -219 4q-72 2 -217 2q-164 0 -244 -4h-6q-152 -4 -236 -4q-14 0 -14 16q4 209 18 293q14 90 37 129 q14 -14 23 -14q39 2 39 82q0 57 -66 57q-113 -14 -227 -14q-117 0 -225 14q-37 0 -52.5 -12.5t-15.5 -44.5q6 -78 51 -82q14 -2 27 -49q20 -41 41 -220v-12q10 -162 10 -278q0 -35 -2 -117q-4 -94 -4 -150q-8 -348 -31 -536q-14 -129 -39 -205q-2 -35 -8 -35q-45 0 -45 -82z " />
<glyph unicode="I" horiz-adv-x="667" d="M41 55q0 -33 14.5 -42t50.5 -9q121 10 228 12q109 0 227 -12q66 0 66 51q0 86 -45 86q-14 0 -31 39q-25 45 -43 205q-12 117 -12 344q0 12 2 90v105q2 371 24 567q23 174 45 211q10 33 19 33q41 0 41 86q0 57 -66 57q-113 -14 -227 -14q-115 0 -228 14q-66 0 -65 -57 q6 -78 51 -82q14 -2 27 -49q20 -41 41 -220v-12q10 -162 10 -278q0 -35 -2 -117q-4 -94 -4 -150q-8 -348 -31 -540q-14 -129 -39 -205q-4 -33 -8 -33q-45 0 -45 -80z" />
<glyph unicode="J" horiz-adv-x="1110" d="M41 -346q0 -39 33 -68q28 -22 64 -22h3q109 16 195 53q66 27 184 82l2 2q82 37 203 125q98 78 217 135q10 0 47 35q16 14 21.5 33.5t5.5 58.5q-16 106 -29 121q-8 16 -18 55q-4 25 -11 111q-2 41 -4 71q-10 141 -18 480q-10 137 -10 352q0 145 8 213q18 170 45 209 q16 35 35 35q55 0 55 86q0 57 -70 57q-109 -14 -227 -14q-114 0 -227 14q-43 0 -61.5 -12.5t-18.5 -44.5q6 -78 55 -82q14 -2 33 -49q25 -53 43 -222q10 -70 10 -309q0 -41 -2 -110q-2 -94 -2 -136q-10 -342 -27 -510q-16 -178 -32 -249q-14 -72 -29 -97q-23 -29 -27 -55 q-70 -96 -168 -158q-113 -68 -188 -94q-35 -12 -57 -31q-33 -27 -33 -65z" />
<glyph unicode="K" horiz-adv-x="1923" d="M41 55q0 -33 14.5 -42t53.5 -9q133 12 225 12q109 0 227 -12q31 0 45 2q43 12 43 45q-6 78 -51 78q-10 0 -29 18q-27 31 -41 107q-18 92 -18 321q0 53 6 62q10 16 62 55q6 6 38 37q33 31 39 37q43 41 88 74q10 10 41 30q0 -6 -4 -8t-10 -2q16 0 27 -24q254 -291 356 -441 q84 -143 84 -205q-2 -31 -31 -36q-66 -12 -65 -111q16 -25 67 -37q18 -2 58 -2q35 2 161 2h168q74 0 105 -2q43 0 82 2h37q34 32 34 58q0 25 -14 40q-47 66 -80 66q-14 0 -57 33q-55 51 -178 198q-129 158 -385 537q-25 37 -37 57q-2 4 -19 27q-14 21 -18 25q-8 12 -25 51 q-2 0 -2 2q0 20 37 53q330 301 459 408q4 4 12 10q143 113 178 127q6 6 15 10q16 14 20 14l8 -4q18 0 99 58q16 10 16 32q0 25 -22 43q-27 25 -56 25q-47 -4 -131 -8q-47 -2 -123 -2q-88 0 -153 2q-106 4 -144 10q-47 0 -94 -43q0 -2 -6 -14q-10 -25 -10 -35 q0 -20 18.5 -36.5t48.5 -16.5q41 -2 41 -45q0 -57 -135 -222q-139 -168 -592 -565q-18 -25 -24 -24l2 -5q-4 4 -4 11v41q-4 104 -4 276q0 184 10 307q18 168 51 211q14 33 33 33q55 0 63 76q0 47 -45 47q-20 4 -45 4q-127 -14 -227 -14q-117 0 -225 14q-37 0 -52.5 -12.5 t-15.5 -44.5q6 -78 55 -82q12 -2 29 -49q20 -47 41 -222q10 -70 10 -303v-110q-2 -74 -2 -142q-12 -369 -35 -538q-18 -145 -39 -207q-12 -33 -24 -33q-8 -4 -21.5 -23.5t-13.5 -56.5z" />
<glyph unicode="L" horiz-adv-x="1832" d="M41 55q0 -51 72 -51q119 10 209 12h51q35 -2 67 -2q227 -8 502 -8q162 -2 498 -2q86 6 131 80l10 14q20 31 29 45q8 14 14 23q16 27 23 35q25 29 63 65q43 41 64 70q18 12 18 55v12q-2 8 -2 17q-10 47 -70 47h-16q-96 0 -158 -84q-25 -35 -213 -113q-186 -82 -407 -86 h-123h-131q-63 0 -80 11q-16 16 -23 47q-18 55 -32 229q-6 70 -7 270q0 31 2 84q2 70 3 99q2 369 28 567q29 172 51 209q16 35 31 35q49 0 49 86q0 29 -45 47q-29 10 -53 10q-63 -8 -137 -10q-55 -4 -137 -4h-89q-10 2 -22 2q-49 4 -74 6q-2 0 -2 2q-59 0 -59 -57 q6 -78 45 -82q14 -4 29 -45q16 -45 36 -220v-12q10 -162 11 -278q0 -35 -2 -117q-4 -94 -5 -150q-10 -387 -32 -538q-31 -190 -47 -228q-12 -12 -21 -12q-49 0 -49 -80z" />
<glyph unicode="M" horiz-adv-x="2525" d="M41 1810q25 -76 76 -96q47 -18 98 -26q55 -16 90 -37q41 -29 62 -95q14 -37 20 -88t6 -131q0 -199 -2 -344v-80q0 -213 -5 -342t-17 -204q-20 -150 -52 -201q-20 -37 -41 -37q-55 0 -55 -78q0 -31 15.5 -42t58.5 -11q55 6 133 6h135h68q27 -6 71 -10q66 0 66 53 q0 84 -47 86q-14 4 -39 45q-29 49 -51 209q-16 131 -17 367q0 12 2 80v90v178q0 129 7 215q0 18 -2 22q4 0 16 -36l20 -31q76 -127 138 -225q14 -23 43 -70q100 -164 155 -250q37 -61 109 -174q49 -80 65 -109q72 -104 84 -135q29 -33 54 -33q23 0 49 37l2 2q53 92 57 103 q170 297 258 454q78 137 201 353q78 135 117 202q-4 10 -7 11l3 -2q6 0 8 2l-4 -49q-10 -119 -19 -181q-14 -121 -14 -295q0 -211 -4 -347t-10 -220q-14 -152 -39 -199l-2 -12q0 -10 -3 -10q-6 2 -10 2l-8 2q-45 0 -45 -74q0 -33 14.5 -42t51.5 -9q121 10 227 12 q96 0 225 -12q70 0 70 51q0 82 -49 82q-10 0 -23 33q-20 37 -41 205q-20 178 -20 549q0 221 7 357t21 214q25 158 62 201q20 33 33 33l8 -3q37 0 50 18.5t13 61.5q0 57 -55 58q-39 -6 -148 -11q-57 0 -90.5 2.5t-56.5 6.5q-23 6 -55 6q-39 0 -56 -21q-180 -240 -348 -534 q-190 -332 -319 -535h4h6q-129 195 -324 514q-180 295 -335 512q-8 35 -39 47q-6 6 -31 7.5t-115 1.5q-129 -4 -160 -9q-55 0 -118 4h-4q-29 2 -82 11q-24 4 -47 6q-70 0 -70 -62z" />
<glyph unicode="N" horiz-adv-x="2152" d="M41 1833q25 -80 86 -98q39 -12 100 -27q53 -12 103 -33q47 -27 63 -96q20 -51 21 -133q0 -16 -2 -43q-2 -37 -2 -53q-6 -70 -9.5 -172.5t-3.5 -270.5q0 -205 -6 -335t-16 -207q-27 -154 -62 -201q-20 -35 -41 -35q-61 0 -61 -78q0 -31 16.5 -42t63.5 -11q55 6 133 6h133 h80l16 -2l66 -8q39 0 53 12t14 43q-14 96 -67 96q-29 0 -47 27q-31 41 -49 188q-10 57 -11 244q0 152 9 314q0 41 2 102q2 82 2 123q4 66 6 143q4 82 6 115q0 4 2 12q0 8 2 12q2 0 8 -36q41 -61 205 -279q127 -164 322 -405q41 -51 79 -101q170 -213 242 -301 q84 -102 90 -110q90 -111 121 -148v-33h33q-2 0 -4 2h-4q16 -23 20 -22q18 -20 62 -21q16 0 40 6q37 8 56.5 22.5t25.5 20.5q-8 98 -8 199q0 164 4 250q0 174 2 254q2 53 2 98q2 74 2 97q2 393 31 583q25 164 53 209q14 33 33 33q55 0 55 82q0 59 -67 59q-74 -12 -102 -16 q-57 -4 -95 -4q-119 0 -231 14q-63 0 -64 -57q0 -78 60 -78q23 0 43 -43q31 -49 55 -217q18 -137 19 -328q0 -33 -3 -111q-4 -84 -4 -131q-2 -61 -2 -168q-2 -74 -6 -143q0 -37 8 -37q4 -2 4 -4q-35 27 -57 64q-16 23 -72 92q-104 137 -157 207q-25 33 -150 190l-106 135 q-39 51 -125 158q-74 92 -119 152q-98 121 -184 245q-8 35 -39 47q-12 6 -105 15l-39 2q-23 0 -55 2h-39q-16 0 -39 -2h-22q-53 0 -150 6q-57 6 -123 12l-34 4q-39 0 -54.5 -11t-15.5 -46z" />
<glyph unicode="O" horiz-adv-x="2199" d="M41 940q0 -387 311 -661q309 -272 746 -273q434 0 749 273q311 276 312 661q0 186 -97 363q-96 168 -247 294q-150 129 -338 203q-193 74 -379 74t-377 -74q-182 -72 -338 -203q-158 -131 -248 -294q-94 -172 -94 -363zM461 928q0 311 188 536q189 224 451 224 q264 0 461 -203q92 -94 137 -229.5t45 -327.5q-12 -354 -195 -555q-184 -197 -448 -197t-451 219q-188 223 -188 533z" />
<glyph unicode="P" horiz-adv-x="1824" d="M41 55q0 -33 14.5 -42t50.5 -9q121 10 228 12q109 0 227 -12q66 0 66 51q0 63 -19 72q-2 2 -10 8q-10 8 -16 15q-14 2 -31 16q-18 47 -33 149v13q-2 8 -2 10q0 27 25 33q61 16 127 30q510 104 811 326q305 227 305 473q0 279 -164 418q-170 150 -385 199q-225 59 -471 59 q-244 -2 -430 -12q-115 0 -228 14q-66 0 -65 -57q6 -78 51 -82q14 -2 27 -49q20 -41 41 -220v-12q10 -162 10 -278q0 -35 -2 -117q-4 -94 -4 -150q-2 -373 -23 -542q-18 -168 -37 -221q-6 -16 -14 -17q-49 0 -49 -78zM498 899v25q4 330 18 495q14 131 33 242q2 10 14 27l4 4 q17 8 58 8q477 -25 620 -174q133 -152 133 -340q0 -178 -254 -355q-258 -178 -563 -270q-12 -4 -29 -4h-10q-10 14 -14 39q-4 43 -8 145q0 92 -2 158z" />
<glyph unicode="Q" horiz-adv-x="2199" d="M41 940q0 -211 113 -401q109 -211 299 -346q51 -41 133 -84l20 -11q100 -51 156 -75q-8 0 -8 14q-4 -2 -9 -2q-4 -6 -28 -37q-33 -37 -60 -64q-35 -33 -96 -94q-45 -43 -45 -63q0 -14 5 -21.5t9 -9.5q10 -4 11 -10q0 -39 51 -39q4 0 18 2q20 2 33 2q53 53 188 53 q143 -4 297 -24q178 -29 297 -52q124 -24 165 -24h3q8 0 19 2h10q10 2 94 47q25 12 86 47q51 29 68 37q27 14 51 29q68 39 100 57q76 55 113 90q-8 0 -20 8q-10 6 -21 13q0 67 -95 67h-3q-143 -100 -416 -112q-182 0 -321.5 11t-280.5 38q-16 -2 -21 -13v15q-2 10 -2 18 q0 4 23 4q4 0 12 -2q6 -2 10 -2h54q39 -2 45 -2q434 0 749 273q311 276 312 661q0 186 -97 363q-96 168 -247 294q-150 129 -338 203q-193 74 -379 74t-377 -74q-182 -72 -338 -203q-158 -131 -248 -294q-94 -172 -94 -363zM461 928q0 311 188 536q189 224 451 224 q264 0 461 -203q92 -94 137 -229.5t45 -327.5q-12 -354 -195 -555q-184 -197 -448 -197t-451 219q-188 223 -188 533z" />
<glyph unicode="R" horiz-adv-x="1855" d="M41 55q0 -33 14.5 -42t50.5 -9q121 10 228 12q109 0 227 -12q66 0 66 51q0 63 -19 72q-2 2 -10 8q-10 8 -16 15q-14 2 -31 16q-18 47 -33 149q0 4 -2 13v10q0 27 27 33q47 12 125 30q14 4 34 9q18 4 33 8q45 8 66 14q51 12 108 12q31 0 92 -84q115 -137 140 -180 q20 -25 20 -43q-6 -6 -16 -8q-33 -8 -33 -59v-13q2 -12 2 -20q12 -33 86 -33h74q115 12 213 12q18 -2 26 -2q70 -8 101 -8q47 0 129 12q29 0 40 5.5t11 27.5q0 14 -16 37q-55 61 -78 64q-16 0 -58 22q-57 37 -124 105q-86 76 -256 262l-2 8q-6 25 -7 37q0 8 21 12 q23 14 72 43l40 25q190 113 308 249q121 145 121 285q0 272 -168 418q-170 147 -396 199q-233 59 -483 59q-250 -2 -434 -12q-115 0 -228 14q-66 0 -65 -57q6 -78 51 -82q14 -2 27 -49q20 -41 41 -220v-12q10 -162 10 -278q0 -35 -2 -117q-4 -94 -4 -150q-2 -373 -23 -542 q-18 -168 -37 -221q-6 -16 -14 -17q-49 0 -49 -78zM498 899v25q4 330 18 495q14 131 33 242q2 10 14 27l4 4q17 8 58 8q287 -16 426 -62q143 -41 223 -114q70 -66 88 -152q16 -94 16 -186q0 -178 -254 -355q-260 -180 -561 -270q-14 -2 -28 -2h-13q-10 14 -14 37 q-4 43 -8 145q0 92 -2 158z" />
<glyph unicode="S" horiz-adv-x="1798" d="M41 391q0 -100 68 -119q150 -117 358 -190q219 -78 494 -78q291 0 544 178q252 178 252 480q-10 217 -117 335q-111 121 -260 191q-178 76 -336 112q-158 39 -335 101q-92 35 -156 76q-70 39 -70 82q0 61 72 100q82 47 195 47q18 4 49 4q123 0 293 -94q203 -111 254 -236 q29 -80 110 -80q39 0 60 27q20 18 20 41q0 4 -2 14q-2 8 -2 13q-10 23 -21 45q-25 55 -36 88q-23 61 -43 127q-23 88 -105 88q-25 4 -35 4q-2 0 -6 2q-8 2 -12 2q-195 115 -494 137v-4q-236 0 -403 -82q-180 -86 -195 -325q0 -117 103 -211q88 -80 231 -150 q164 -74 299 -104q188 -49 309 -90q127 -43 219 -140q88 -90 89 -211q0 -152 -158 -262q-119 -106 -215 -106l14 10q-63 -10 -96 -10q-168 0 -292 38t-214 117q-195 164 -229 310q-2 112 -90 112h-2q-90 0 -91 -121q0 -70 -6 -131q-12 -59 -12 -137z" />
<glyph unicode="T" horiz-adv-x="2009" d="M41 1501q0 -4 12 -12l2 -2q27 -66 74 -66h2q100 0 148 78q53 80 215 133q154 55 278 74q8 0 16 2h13q-8 0 -8 16q6 -16 10 -47q10 -78 20 -264q0 -127 -1 -231.5t-3 -169.5q-2 -61 -2 -99q-16 -381 -37 -536q-25 -156 -49 -203q-16 -39 -24 -39q-43 0 -43 -80 q0 -33 13 -42t50 -9q10 0 23 2q63 2 108 6q14 0 23 2q74 2 106 2q111 0 246 -12q68 0 67 51q0 86 -47 88q-14 0 -30 41q-29 43 -47 205q-23 147 -23 535q0 330 8 491q14 207 23 266q4 25 12 41q0 -14 -8 -14h8q10 -2 18 -2q121 -14 275 -61q166 -49 223 -138q47 -86 156 -86 q49 0 78 33q22 19 22 43q0 20 -16 41q-25 35 -90 113l-29 32q-70 76 -94 144q-25 65 -124 65h-3q-41 -2 -221 -6q-227 -6 -357 -12q-74 -4 -225 -4q-223 0 -432 14h-4h-4h-68q-51 0 -84 -90q-16 -45 -70 -117q-25 -31 -65 -94q-14 -23 -27 -41q-10 -10 -12 -18t-2 -23z" />
<glyph unicode="U" horiz-adv-x="1939" d="M41 1829q6 -82 53 -82q14 -4 23 -47q23 -49 41 -219q10 -117 10 -293q0 -41 -2 -117q-2 -102 -2 -149q-2 -51 -4 -107q-4 -66 -4 -70q-2 -51 -4 -106q-4 -66 -5 -70h5v-14v-35q4 -315 127 -424q106 -100 307 -100q193 10 397 82q199 68 416 117q4 6 6 6h-6 q-12 -68 -29 -68q-57 0 -57 -82q0 -31 14 -42t51 -11q147 14 228 14q80 0 229 -14q63 0 63 53q0 86 -47 86q-12 0 -28 39q-25 45 -43 205q-6 74 -10.5 195.5t-4.5 343.5q6 410 27 569q23 170 43 211q10 31 18 31q45 0 45 86q0 57 -57 57q-4 -2 -8 -2q-147 -14 -227 -14 q-84 0 -228 14h-4q-4 2 -10 2q-51 0 -51 -57q6 -80 49 -82q14 -2 27 -49q20 -43 41 -220q8 -66 8 -272q0 -43 -2 -123q-2 -113 -2 -164v-84q-2 -88 -2 -182q2 -78 2 -199q0 -42 -115 -71q-180 -51 -291 -76q-154 -31 -266 -37q-82 0 -127 8t-72 25q-57 43 -61 344h-6v119 q0 113 2 178q4 395 28 565q25 160 54 205q16 31 28 31q47 0 47 84q0 27 -39 51q-29 16 -55 16q-123 -12 -227 -12q-94 0 -228 12q-66 0 -65 -55z" />
<glyph unicode="V" horiz-adv-x="2019" d="M41 1845q0 -14 6 -30q37 -66 76 -66q18 0 47 -14q41 -55 137 -260q106 -215 260 -594q29 -74 90 -234q49 -119 64 -158q74 -188 145 -385q31 -118 125 -118h2q76 0 131 116q8 18 25 58q10 27 22 51q23 53 29 70q2 4 10 28q25 66 39 92l8 23q11 20 13 20q27 90 92 240 q51 98 115 246q164 414 235 555q80 160 119 205q29 39 43 39q31 0 88 75q10 8 13 17.5t3 19.5q0 39 -63 39q-57 -8 -109 -8q-37 -2 -108 -2h-133q-80 0 -129 8q-76 0 -76 -49q-6 -10 -6 -33q0 -51 55 -51q25 0 37 -39q4 -8 4 -39q0 -45 -25 -168q-43 -186 -202 -565l-15 -35 q-45 -106 -63 -158q-14 -35 -31 -73q-25 -63 -37 -90q-2 -37 -8 -37q-8 6 -25 43q-37 82 -59 147q-33 84 -78 187q-193 430 -235 583q-35 127 -35 180q0 8 2 19q2 8 2 10q10 23 31 23q53 0 53 51q0 20 -10 45q-8 29 -24.5 39t-53.5 10q-51 -6 -150 -6q-66 -2 -153 -2 q-113 0 -236 14q-35 0 -46 -6t-11 -33z" />
<glyph unicode="W" horiz-adv-x="2637" d="M41 1851q0 -2 2 -8q4 -8 4 -14q72 -100 103 -100q16 0 34 -31q31 -43 103 -211q123 -305 227 -606q92 -225 152 -387q33 -90 96 -275l37 -110q37 -117 143 -117q78 0 129 106h-18q57 240 125 482q88 332 127 514q0 6 4 10q-6 0 -13 -12q35 -109 115 -365q31 -104 41 -135 q61 -207 152 -502q37 -94 133 -94q82 2 129 117q10 35 32 108q16 45 21 64q16 55 37 112q18 49 18 62q43 127 72 215q35 98 104 256q160 408 228 555q10 25 16 37q61 141 82 170q18 37 29 37q20 0 80 77q12 12 12 35q0 25 -14.5 32t-49.5 7q-49 -8 -106 -8q-35 -2 -109 -2 q-115 0 -209 14q-37 0 -52 -12t-23 -43v-14q-2 -10 -2 -13q0 -57 55 -57q23 0 35 -43q6 -12 6 -41q0 -51 -27 -174q-39 -174 -200 -569q-43 -94 -62 -156l-12 -41q-20 -61 -33 -96q6 -12 10 -13l2 -2q-8 8 -8 13q-106 350 -168 563q-84 272 -153 561q-14 55 -43 100 q-37 49 -88 49q-59 0 -95 -55q-29 -61 -32 -104q-33 -197 -117 -529q-33 -117 -105 -383l-41 -153q0 -16 -2 -27q-2 0 -2 12l-2 13q-8 23 -18 53q-10 31 -19 53q-25 78 -53 142q-174 420 -215 593q-29 113 -29 183q0 10 2 24q2 8 3 13q10 31 26 30q25 0 36 9.5t11 35.5 q0 25 -8 49q0 33 -41 33l-10 -4q-4 -2 -10 -4t-11 -4q-33 -2 -147 -2h-154q-39 0 -100 4q-8 0 -39 6q-41 4 -72 8q-61 0 -61 -41z" />
<glyph unicode="X" horiz-adv-x="2066" d="M41 37q0 -23 12.5 -28t42.5 -5q76 4 107 8q66 4 102 4q29 0 109 -4q20 -2 47 -4q61 -4 145 -14h8q49 0 82 37q27 35 27 59q0 41 -51 41q-31 0 -43 29q-4 4 -4 12q0 31 43 133q63 123 323 440q10 18 25 19q10 0 22 -19q236 -317 287 -436q41 -92 41 -133q0 -18 -4 -43 q-20 -4 -43 -4q-49 0 -49 -43q0 -16 18 -51q20 -41 84 -41q82 10 178 14q74 4 76 4q82 4 107 4q113 0 237 -12q31 0 43 5t12 30q0 12 -12 31q-53 70 -82 84q-27 12 -90 73q-63 57 -194 222q-121 147 -371 497q-31 43 -31 78q0 27 25 66q270 340 375 450q125 131 165 164 q39 33 60 33q8 6 28.5 22.5t43.5 46.5q12 29 12 35q0 37 -56 37q-117 -14 -237 -14q-55 0 -141 6q-93 6 -142 14q-55 0 -82 -45q-20 -27 -20 -49q0 -35 41 -47q37 -6 59 -41q4 -4 4 -25q0 -29 -22 -86q-43 -104 -230 -321q-27 -41 -41 -41q-10 6 -45 47q-188 238 -227 334 q-27 70 -27 100q0 10 3 14q12 23 38 27q20 0 32.5 12.5t12.5 28.5t-20 47q-35 45 -84 45q-61 -10 -149 -16l-43 -2q-84 -2 -111 -2q-123 0 -240 14q-41 0 -47 -47q0 -29 1 -37t7 -16q55 -55 84 -56q8 0 37 -24q6 -4 13 -10q63 -63 157 -187q166 -217 355 -481q16 -23 16 -45 q0 -20 -21 -45l-8 -10q-328 -408 -422 -510q-139 -162 -196 -213q-2 -2 -6 -7q-53 -47 -64 -49q-33 -8 -78 -73q-2 -4 -8 -17q-6 -10 -6 -14z" />
<glyph unicode="Y" horiz-adv-x="2058" d="M41 1821l6 -13q41 -68 80 -94q29 -20 88 -88q51 -59 160 -225q90 -137 278 -500q29 -55 56 -104q72 -137 98 -189q16 -37 16 -59q0 -4 -2 -6q-6 -14 -20 -39q-6 -10 -10 -19q-125 -207 -173 -272q-51 -39 -77 -51q-20 -18 -35 -21q-25 -2 -68 -49q-10 -10 -10 -33 q0 -18 6 -28q8 -16 17.5 -21.5t29.5 -5.5q82 4 121 8h16q63 4 101 4q49 0 131 -10q74 -8 131 -18q57 0 82 41q18 23 18 55q0 49 -55 49q-29 2 -41 49v19q0 61 49 184q57 154 309 543q285 434 383 567q106 152 168 213q31 41 43 41q20 0 72 72q8 12 8 28q0 39 -53 39 q-10 0 -31 -2q-59 -6 -90 -12q-55 -6 -110 -6q-53 0 -138 6q-92 10 -137 10q-63 0 -80 -45q-8 -16 -8 -41t13.5 -39t41.5 -14q31 -2 43 -45q0 -2 2 -12v-15q0 -66 -53 -190q-66 -174 -323 -584q-29 -23 -43 -22q-12 0 -29 24q-2 -2 -6 -4t-6 -4q-2 4 -4 25q-4 20 -7 24 q-254 430 -313 569q-59 137 -59 207q4 25 28 25q59 0 60 57q0 6 -2 15q-2 12 -2 18q-16 51 -88 51q-63 -8 -144 -10q-94 -6 -149 -6q-70 0 -101 2q-25 2 -79 10l-27 4q-20 0 -53 -16q-29 -23 -29 -47z" />
<glyph unicode="Z" horiz-adv-x="1941" d="M41 76q0 -6 2 -15q2 -10 2 -16q25 -57 86 -57q123 10 269.5 13t404.5 3l221 -2q303 -4 455 -4q68 0 96 16q33 20 68 64q4 6 12 20q53 90 74 119q33 23 110 66q53 37 60 102q0 84 -89 84q-51 0 -94 -41q-16 -18 -51 -47l-8 -8q-102 -68 -242 -109q-145 -41 -270 -61 q-158 -18 -221 -23q-53 -2 -80 -2q-20 -2 -25 -2q-86 0 -125 2q-41 0 -90 -2h-37q4 0 4 -4q2 4 5 12q2 10 4 13q137 209 247 346q23 31 107 141q100 135 156 211q154 215 319 424q127 162 346 412q53 55 53 90q0 53 -75 53q-49 0 -189 -2l-108 -2q-141 -4 -416 -8h-379 q-152 0 -162 16q-63 0 -135 -90q-23 -41 -67 -115l-9 -12q-45 -59 -73 -90q-33 -35 -33 -84q6 -55 67 -55q45 0 97 41q53 45 71 65q55 55 279 121q178 47 387 47q78 0 160 -6q4 -2 18 -4q20 -4 35 -8v4q0 -12 -10 -23q-117 -184 -232 -330q-47 -66 -157 -211 q-66 -88 -99 -131q-94 -127 -282 -366l-52 -66q-188 -231 -370 -413q-35 -35 -35 -76z" />
<glyph unicode="[" horiz-adv-x="362" d="M41 -162h281v127h-146v1944h146v127h-281v-2198z" />
<glyph unicode="\" horiz-adv-x="940" d="M41 1808l725 -1759h133l-727 1759h-131z" />
<glyph unicode="]" horiz-adv-x="362" d="M41 -35v-127h281v2198h-281v-127h147v-1944h-147z" />
<glyph unicode="_" horiz-adv-x="1406" d="M41 -27v-104h1325v104h-1325z" />
<glyph unicode="`" horiz-adv-x="321" d="M41 1878l80 -176q49 -115 110 -115q49 0 50 51q0 27 -27 84l-70 156h-143z" />
<glyph unicode="a" horiz-adv-x="1898" d="M41 336q0 -35 61 -35q70 4 205 8h6q57 0 185 -6l16 -2q53 0 70 29q10 14 10 35q0 41 -39 41q-20 4 -43 12q-16 2 -20 20q0 39 43 103q4 6 12 6h741q18 0 25 -15q37 -63 41 -94q0 -12 -4 -20q-4 -2 -11 -4q-10 -6 -18 -8q-37 -8 -37 -68q8 -29 55 -35q14 -2 43 -2 q74 4 205 8q43 0 170 -6l39 -2q29 0 45 16q16 23 17 45l-9 9q-27 49 -57 49q-14 0 -41 20q-47 31 -111 92q-68 94 -215 371l-10 8l-315 523q-31 39 -58 39h-16q-23 -2 -37 -3h-41h-37h-192q-131 2 -193 7q-31 0 -45 -23q-4 -10 -4 -24v-13q18 -63 176 -71q115 -2 123 -52 q0 -47 -67 -120q-86 -102 -199 -287q-178 -252 -246 -332q-70 -86 -117 -125q-29 -23 -38 -22q-18 0 -62 -46q-6 -8 -6 -26zM608 692q2 0 2 -12q0 2 2 6v6q16 37 45 76l11 14q37 51 55 80q51 72 104 158q23 31 52 78q27 41 43 63v4q6 0 8 -8q84 -104 180 -297q45 -66 68 -94 q6 -10 14 -21q27 -41 37 -61q-2 0 -2 -4q0 12 -2 12h-617z" />
<glyph unicode="b" horiz-adv-x="1857" d="M41 1440q6 -53 57 -60q18 -2 39 -32q23 -31 45 -131q12 -94 13 -209q0 -20 -2 -60q-2 -53 -3 -76q-8 -231 -30 -329q-29 -102 -47 -127q-10 -20 -21 -21q-23 0 -33 -13t-16 -46q0 -39 63 -39q18 0 89 4q78 2 112 2h101q34 -2 104 -2h12h13q18 -2 73 -2q211 0 301 -2 q88 0 143.5 2t102.5 6q408 53 529 164q129 123 131 233q-2 154 -150 242q-135 82 -364 119q8 -6 8 -16v-5q305 74 305 199q0 20 -23 66l-8 14q-33 51 -158 96q-111 37 -356 60q-90 12 -272 12q-135 0 -371 -10h-70h-63q-70 0 -193 8q-35 0 -48 -9.5t-13 -37.5zM481 1135 l6 51q8 78 15 100l4 19q10 39 16 49q6 16 29 16q477 -6 596 -39q100 -25 100 -86q0 -78 -162 -102q-94 -14 -228 -22.5t-333 -8.5q-41 0 -41 -2q-2 13 -2 25zM494 881q0 43 2 65v64q0 -8 20 -9q86 -6 150 -6h141q221 -18 348 -47q115 -25 180 -67q53 -39 66 -76 q12 -35 16 -86q-14 -63 -37 -117q-27 -51 -98 -90q-66 -33 -231 -63q-176 -25 -430 -27q-39 0 -48 2q-12 8 -28 39q-23 33 -43 135q-4 39 -6 102.5t-2 180.5z" />
<glyph unicode="c" horiz-adv-x="1914" d="M41 877q0 -268 285 -459q279 -184 669 -185q152 0 373 31q221 25 346 80q74 31 74 62q0 25 33 116l18 43q27 61 33 76q0 2 2 6v6q0 27 -25 41q-33 16 -51 17h-2q-66 0 -86 -56l-4 -18q-80 -92 -258 -176q-174 -78 -326 -78q-242 0 -471 141q-227 141 -227 344t182 357 q187 151 425 151h3h19q18 2 28 2q172 0 340 -57q188 -63 293 -170q37 -47 78 -47h18q53 0 60 39q0 18 -4 35q-2 8 -2 12q-57 66 -82 143q-10 27 -31 51q-25 25 -82 39q-188 63 -346 82q-150 14 -328 15q-176 0 -336 -52q-145 -39 -305 -135q-139 -84 -225 -205 q-88 -119 -88 -251z" />
<glyph unicode="d" horiz-adv-x="1822" d="M41 344q0 -27 13.5 -35t45.5 -8q29 2 101 2q31 -2 94 -2h51h60q33 0 83 2q23 2 60 4q27 2 31 2q500 25 845 203q356 180 357 414q-6 170 -121 288q-106 104 -283 164q-172 59 -385 78q-231 20 -446 23h-12q-84 0 -99 -4h-84h-108q-45 0 -115 4q-31 0 -43 -10.5t-12 -36.5 q6 -51 43 -58q6 -4 18 -26q20 -37 29 -131q10 -68 10 -170q0 -27 -2 -76q-2 -68 -2 -99q-12 -233 -31 -327q-20 -94 -37 -125l-6 -8t-10 -9q-45 0 -45 -59zM481 881q2 88 11 225l4 51q10 97 24 146v2q4 20 12 32q2 8 39 9q332 -6 580 -91q242 -76 254 -331q0 -172 -250 -310 q-256 -145 -623 -163q-12 0 -12 -7q-4 8 -4 11q-20 51 -27 145q-6 37 -7 91t-1 190z" />
<glyph unicode="e" horiz-adv-x="1767" d="M41 344q0 -27 13.5 -35t47.5 -8q102 6 203 6h207h174q109 -2 203 -2q63 0 266 -2q119 0 264 -2q39 0 64 18q20 16 43 29q25 27 80 70q18 16 41 28q25 8 53 27q27 14 26 59q-6 49 -69 50q-27 0 -90 -23q-35 -14 -86 -31q-10 -4 -11 -4q-139 -51 -395 -71 q-254 -18 -381 -19q-6 0 -43 2h-43q-70 0 -100 47q-27 47 -27 131v269q0 39 2 59q0 37 4 53v-2h463h13q152 -4 243 -8q123 -6 154 -57q23 -43 70 -43h4q79 0 79 48q0 3 -2 7q-2 2 -2 4q-16 55 -16 119q0 63 16 113q0 4 2 10l2 4q0 45 -71 45h-2q-23 0 -45 -14q-2 -2 -15 -11 q-6 -6 -12 -10q-74 -45 -174 -63q-111 -16 -274 -17h-410q-16 0 -16 -4q2 53 10 111q2 6 8 35t10 41q4 14 23 36q20 16 67 17q23 0 97 -2q41 0 96 -2q78 0 235 -6q27 -2 27 -3q100 -6 268 -22q135 -20 187 -51q53 -31 116 -31h17q31 0 45 10t16 14.5t2 12.5q0 6 -10 18 q-4 8 -8 15q-35 20 -92 65l-9 6l-8 6q-63 47 -96 68h-2q-31 14 -57 19q-33 10 -64 10h-14q-21 0 -27 -2q-254 0 -510 -6q-344 -4 -514 -5q-111 0 -203 9q-63 0 -63 -47q6 -55 55 -56q18 -4 35 -30q27 -29 45 -127q12 -63 12 -185q0 -27 -2 -69q-2 -59 -2 -86 q-8 -227 -32 -344q-18 -72 -46 -113q-8 -18 -18 -19q-47 0 -47 -59z" />
<glyph unicode="f" horiz-adv-x="1658" d="M41 1432q6 -55 55 -56q18 -4 35 -30q27 -29 45 -127q12 -70 12 -207v-58q-2 -37 -2 -71q-2 -10 -2 -31v-23q-10 -190 -30 -301q-16 -78 -33 -112q-8 -12 -10 -13q-43 0 -43 -59q0 -43 59 -43q72 4 195 8h12q45 0 112 -6q29 -2 41 -2q47 -4 70 -4q61 0 61 41q0 53 -38 59 q-10 2 -29 19q-10 8 -27 45q-4 12 -8 18q-20 62 -22 187q0 45 -7 100q-2 16 -3 35.5t-1 70.5q0 41 4 62v55v-6l351 -2q76 0 229 -6l27 -2q125 -6 155 -58q20 -41 70 -41h2q78 0 78 46q0 4 -2 10v2q-16 66 -17 121q0 53 17 112q0 4 2 11v2q0 49 -68 49h-6q-33 0 -49 -21 q-6 -8 -16 -14q-76 -47 -181 -66q-104 -18 -276 -18l-293 4q-16 0 -16 -4q2 57 10 117q4 12 8 35q6 33 10 43q4 14 23 36q20 16 71 17q20 0 89 -2q37 0 86 -2q111 -2 229 -13q74 -6 217 -24l12 -2q111 -18 172 -51q55 -31 117 -31h16q33 0 48 10q16 8 16 31q0 18 -21 33 q-55 35 -98 67q-59 47 -102 74q-29 14 -60 18q-33 10 -65 11h-15h-8q-8 -2 -10 -2q-328 0 -465 -3h-467q-106 0 -203 9q-63 0 -63 -47z" />
<glyph unicode="g" horiz-adv-x="1957" d="M41 891q0 -248 287 -422q274 -166 667 -166q162 0 383 39q229 37 357 86q68 37 67 59v13l-6 6q-12 16 -18 29q0 141 3 214.5t7 112.5q18 90 41 113q12 18 29 18q43 0 59 60q0 31 -37 39q-10 6 -37 6q-10 0 -53 -2q-31 0 -55 -2h-107h-106q-70 0 -107 4q-66 0 -65 -45 q6 -45 39 -54q16 -2 32 -20q18 -16 35 -78q23 -62 23 -207q-8 -78 -9 -180q0 -23 -75 -35q-61 -16 -125 -26q-74 -8 -148 -11q-238 0 -481 123q-217 115 -217 318v18q-2 16 -2 19q0 178 156 292q170 131 411 131q18 0 39 3h31q152 0 284 -29q166 -39 336 -137q33 -35 76 -35 h21q43 0 55 35q0 4 2 10v4q0 20 -16 37q-45 51 -62 78q-16 43 -82 80q-174 59 -350 75q-160 12 -328 13q-336 0 -641 -156q-313 -156 -313 -430z" />
<glyph unicode="h" horiz-adv-x="1779" d="M41 344q0 -27 13.5 -35t47.5 -8l39 2q117 6 166 6q63 0 199 -8h6q63 0 63 43q0 63 -47 64q-10 0 -24 20q-23 39 -37 123q-12 72 -12 211q0 6 2 51v68v59q0 39 2 55q0 6 2 19l2 6q0 -23 8 -23q51 -2 113 -2q92 -2 110 -2h221h193q66 0 192 4q14 0 17 7v-9q0 -76 -4 -121 q-6 -207 -25 -329q-23 -100 -37 -127l-2 -6q0 -8 -2 -9q-43 0 -43 -59q0 -43 62 -43h6q139 8 198 8q51 0 181 -6l28 -2q37 0 48.5 9t11.5 34q0 63 -45 64q-10 0 -27 20q-20 33 -35 121q-14 90 -14 217q0 20 2 51q2 43 2 62q4 256 20 350q20 100 39 125q6 18 15 18 q43 0 43 60q0 47 -60 47q-119 -10 -209 -11q-70 0 -202 11q-63 0 -64 -49q14 -47 43 -54q16 -2 31 -18q14 -14 29 -55q8 -18 9 -49t1 -115q0 -6 -8 -6q-45 2 -99 2q-80 2 -98 2h-197q-147 0 -219 -2h-110q-91 -2 -109 -2q-8 0 -8 -3q4 129 18 179q8 39 27 53q12 12 23 12 q38 6 38 57q0 48 -65 48q-92 -8 -203 -9q-111 0 -203 9q-63 0 -63 -47q6 -51 47 -58q16 -4 25 -26q18 -31 34 -131l3 -11q8 -94 8 -168q0 -23 -2 -73q-4 -57 -4 -93q-8 -221 -29 -327q-14 -94 -31 -123v-2q-6 -14 -10 -14q-41 0 -41 -62z" />
<glyph unicode="i" horiz-adv-x="616" d="M41 344q0 -27 13.5 -35t45.5 -8q66 4 185 8h22q63 0 199 -8h6q63 0 63 43q0 63 -47 64q-12 0 -24 18q-23 37 -37 121q-12 74 -12 213q0 8 2 55v66q2 217 22 348q18 100 37 125q10 18 19 18q16 0 28 16.5t12 45.5q0 45 -65 45q-92 -8 -203 -9q-109 1 -205 9q-61 0 -61 -47 q6 -51 47 -58q16 -4 25 -26q18 -31 34 -131l3 -11q8 -94 8 -168q0 -23 -2 -73q-4 -57 -4 -93q-8 -225 -29 -329q-14 -94 -31 -125l-2 -4q-4 -10 -8 -11q-41 0 -41 -59z" />
<glyph unicode="j" horiz-adv-x="1009" d="M41 94q0 -31 37 -51q23 -12 55 -12q92 10 174 32q113 29 168 50q94 31 182 80q51 33 189 81l8 2q14 0 41 21q18 8 24.5 22.5t6.5 42.5q-14 66 -29 84q-6 6 -16 31q-10 47 -15 111q-8 70 -14 295q-10 86 -10 217q0 88 8 129q12 88 39 123q14 20 29 20q31 0 41 14.5 t10 47.5q0 45 -60 45q-96 -8 -209 -9q-106 1 -202 9q-76 0 -76 -47q10 -51 51 -58q12 -2 33 -28q25 -43 35 -132q8 -43 8 -188v-70q-2 -45 -2 -84q0 -16 -2 -24q-8 -219 -21 -287q-14 -102 -30 -155q-18 -47 -25 -56q-18 -16 -25 -31q-59 -59 -147 -96q-96 -39 -172 -59 q-41 -8 -51 -21q-33 -18 -33 -49z" />
<glyph unicode="k" horiz-adv-x="1746" d="M41 344q0 -27 13.5 -35t47.5 -8l39 2q117 6 166 6q63 0 199 -8h6q27 0 41 2q43 10 43 39q-12 57 -49 57q-14 0 -31 11q-20 16 -29 61q-18 53 -18 195v26l4 4q25 18 51 33q16 8 56 33l16 12q31 23 78 41q23 12 43 23q0 -6 -17 -7q10 0 27 -16q231 -193 317 -289 q74 -70 74 -98q0 -10 -22 -14q-66 -8 -66 -86q18 -18 68 -25q14 -2 47 -2q33 2 147 2h150q68 0 94 -2q33 0 76 2h30q33 20 33 45q0 14 -12 33q-41 41 -72 41q-16 0 -55 22q-51 33 -160 123q-158 137 -346 330q-16 20 -31 35q-11 13 -36 33q-10 14 -19 32q2 -2 2 -10 q0 12 27 25q84 51 84 53q256 158 329 199q109 61 170 84q29 16 37 16l9 -2q12 0 69 29q6 2 10 4q16 6 20.5 12t4.5 20q0 12 -25 33q-27 18 -51 19q-55 -6 -119 -6q-23 0 -61 -3h-47h-53q-49 2 -84 3q-45 0 -117 4q-10 2 -16 2q-39 0 -80 -25q-2 -2 -4 -8q-16 -25 -17 -31 q0 -45 68 -45q33 0 33 -18q0 -33 -119 -127q-133 -109 -537 -348q-18 -16 -28 -17h6l2 -2v-2v25q-4 63 -4 170q0 125 12 186q14 96 41 125q12 20 31 20q47 0 61 54q0 41 -45 41q-16 2 -41 2q-106 -8 -205 -9q-111 0 -203 9q-63 0 -63 -47q6 -51 49 -58q18 0 27 -2 q16 -31 37 -158q8 -43 8 -184v-158q-12 -217 -33 -329q-18 -96 -33 -123l-4 -4q-12 -12 -20 -13q-8 -4 -19.5 -19t-11.5 -40z" />
<glyph unicode="l" horiz-adv-x="1665" d="M41 344q0 -25 14.5 -34t50.5 -9q63 4 173 8h18q68 0 106 -2h19q283 -4 432 -4q147 -2 446 -2q76 4 117 51l37 37q14 18 35 35q25 23 53 37q23 12 53 37l11 8q18 12 18 43q0 4 -2 10t-2 8q-6 41 -64 41h-16q-86 0 -139 -53q-29 -25 -191 -70q-182 -53 -368 -53h-113h-119 q-55 0 -71 6q-14 14 -17 27q-16 27 -30 137q-4 43 -5 164q0 6 2 51v64q2 219 27 346q16 86 45 127q12 18 27 18q47 0 47 62q0 23 -45 39q-18 6 -43 6q-51 -4 -125 -6q-51 -2 -125 -3h-82q-18 0 -68 5h-18q-2 0 -4 2q-53 0 -53 -47q12 -57 45 -58q10 -4 22 -26 q14 -20 35 -129q0 -18 2 -27q4 -90 4 -152q0 -27 -2 -73q-2 -63 -2 -93q-6 -227 -29 -327q-25 -98 -41 -125q-10 -16 -16 -17q-49 0 -49 -59z" />
<glyph unicode="m" horiz-adv-x="2287" d="M41 1423q20 -45 72 -65q57 -12 90 -17q37 -6 80 -22q33 -14 51 -57q22 -35 22 -120v-7q0 -119 -2 -211v-52q0 -135 -4 -211.5t-14 -119.5q-18 -94 -45 -121q-20 -20 -37 -21q-49 0 -49 -59q0 -23 13 -33t52 -10q70 4 121 4h121h61q16 -4 68 -4q61 0 61 41q0 59 -47 65 q-14 0 -37 25q-23 29 -38 123q-18 88 -19 223q0 6 2 49v58v108q0 84 6 139h-2q-2 -2 -4 -2q6 0 15 -20q16 -18 49 -51q57 -63 96 -107q119 -131 180 -198q33 -37 90 -103q49 -51 66 -72q68 -72 69 -81q31 -25 54 -25q25 0 45 27q137 162 284 344q31 39 142 170 q109 133 139 170q6 6 8 6h2q-4 8 -4 14q-2 -8 -6 -43q-8 -63 -14 -100q-12 -66 -13 -185q0 -141 -3 -221t-11 -125q-10 -82 -33 -116q0 -8 -2 -15q-4 2 -8 2l-8 2q-43 0 -43 -55q0 -27 13 -35t46 -8q76 4 207 8q49 0 172 -6l31 -2q37 0 50 9t13 34q0 61 -47 62q-8 0 -20 14 q-20 31 -33 123q-18 119 -18 338q0 129 6 214t16 134q25 96 53 119q14 20 31 20l6 -2q63 0 64 59q0 45 -54 45q-49 -6 -135 -6q-51 0 -78.5 1t-52.5 3q-23 4 -49 5q-33 0 -51 -13q-154 -141 -314 -330q-109 -135 -286 -331h4q4 0 6 -2q-197 207 -297 319q-139 160 -299 318 q-2 12 -35 28q-4 4 -26.5 5t-104.5 1q-115 -4 -139 -6q-53 0 -109 4h-4q-29 2 -102 9h-19q-61 0 -61 -52z" />
<glyph unicode="n" horiz-adv-x="1947" d="M41 1440q23 -55 80 -68q51 -12 90 -16q55 -10 92 -23q39 -16 57 -55q14 -33 15 -76q0 -10 -2 -24q-2 -23 -2 -35q-4 -43 -7.5 -106.5t-3.5 -166.5q0 -137 -4 -211.5t-18 -119.5q-20 -84 -49 -121q-4 -2 -6 -4q-18 -14 -33 -15q-57 0 -57 -59q0 -43 73 -43q66 4 121 4h119 h72q37 -4 75 -4q37 0 49.5 9t12.5 34q-8 70 -64 70q-20 0 -43 16q-29 29 -41 111q-10 31 -10 147q0 92 8 193q0 25 2 63q2 51 2 76q10 113 13 160q0 4 -4 4q6 0 14 -21q20 -25 104 -100q53 -49 80 -74q135 -123 287 -250q43 -35 117 -100q115 -96 176 -148q45 -37 104 -86 q60 -51 80 -69v-27q2 0 16 2h15h-4l8 -6q6 -6 8 -6q16 -12 57 -12q8 0 25 2l10 2q53 8 80 22q-8 43 -8 135q0 100 2 156q0 104 2 158q2 49 2 119q2 233 29 358q18 92 45 123q12 18 31 18q49 0 49 60q0 47 -62 47q-8 0 -28 -4q-45 -4 -62 -6q-29 -2 -90 -3q-106 0 -205 9 q-61 0 -61 -45q0 -57 57 -58q20 0 41 -24q27 -35 45 -129q14 -78 14 -201q0 -23 -2 -66q-2 -57 -2 -84q-2 -39 -2 -104q0 -25 -4 -63q0 -6 -2 -21q0 -16 12 -16v-2q-12 8 -38 28q-10 10 -15 13q-4 4 -117 104q-41 37 -88 78q-78 66 -229 201q-137 115 -219 192 q-92 76 -166 150q-4 12 -37 32q-33 6 -127 9q-23 0 -47 2h-37q-16 0 -35 -2h-18q-51 0 -137 6q-20 2 -39 2q-76 6 -103 8q-35 0 -49 -10.5t-14 -38.5z" />
<glyph unicode="o" horiz-adv-x="1994" d="M41 891q0 -248 287 -422q274 -166 667 -166q395 0 672 166q287 176 287 422q0 119 -90 231q-92 109 -228 185q-135 78 -305 125q-166 45 -336 45q-168 0 -336 -45q-158 -43 -305 -125q-137 -78 -225 -185q-88 -111 -88 -231zM424 883q0 186 168 321q163 137 405 137 t418 -122q80 -59 120 -140.5t40 -195.5q-12 -211 -172 -334q-168 -123 -406 -123q-236 0 -405 135q-168 135 -168 322z" />
<glyph unicode="p" horiz-adv-x="1656" d="M41 344q0 -27 13.5 -35t45.5 -8q66 4 185 8h22q63 0 199 -8h6q63 0 63 43t-22 51q-2 2 -16 11q-4 2 -11 6q-14 8 -20 20q-12 16 -29 74q0 2 -2 8v4q0 8 19 10q49 10 110 19q449 63 731 201q281 147 281 303q0 178 -152 270q-143 88 -346 121q-188 35 -424 35 q-221 0 -387 -7q-109 1 -205 9q-61 0 -61 -47q6 -51 47 -58q16 -4 25 -26q18 -31 34 -131l3 -11q8 -94 8 -168q0 -23 -2 -73q-4 -57 -4 -93q-2 -201 -19 -331q-20 -104 -31 -123q-6 -14 -14 -15q-47 0 -47 -59zM457 864v17q2 176 18 305q4 27 14 80q4 23 13 67q2 2 8 6l6 4 q12 7 55 7q434 -16 557 -109q119 -86 119 -199q0 -104 -225 -211q-221 -104 -512 -167q-10 -2 -25 -2h-8q-6 4 -10 16q-2 16 -4 45q-2 35 -4 45q0 53 -2 96z" />
<glyph unicode="q" horiz-adv-x="2019" d="M41 891q0 -141 104 -275q102 -125 271 -198q61 -33 121 -51q84 -31 157 -54q-12 0 -12 17v12q-10 -10 -27 -23q-20 -18 -55 -40q-29 -18 -43 -29q-16 -10 -45 -29q-43 -37 -43 -51q0 -8 5 -15.5t9 -11.5q8 0 9 2q0 -32 46 -32h3h18q16 2 27 2q45 35 170 35 q152 -4 268 -17q51 -6 176 -20q74 -10 90 -13q18 -2 25 -2q96 -12 127 -12q4 0 12 2h8q6 0 62 18l24 9q14 6 29 10q74 29 111 41q25 10 73 29q49 20 66 26q66 29 102.5 48.5t48.5 27.5q-43 0 -86 2q0 49 -88 49q-131 -59 -374 -65q-168 0 -293 6t-250 22q-14 0 -19 -4v8 q0 -10 19 -10h20q29 -2 88 -2q395 0 672 166q287 176 287 422q0 119 -90 231q-92 109 -228 185q-135 78 -305 125q-166 45 -336 45q-168 0 -336 -45q-158 -43 -305 -125q-137 -78 -225 -185q-88 -111 -88 -231zM424 883q0 186 168 321q163 137 405 137t418 -122 q80 -59 120 -140.5t40 -195.5q-12 -211 -172 -334q-168 -123 -406 -123q-236 0 -405 135q-168 135 -168 322z" />
<glyph unicode="r" horiz-adv-x="1681" d="M41 344q0 -27 13.5 -35t45.5 -8q66 4 185 8h22q63 0 199 -8h6q63 0 63 43t-22 51q-2 2 -16 11q-4 2 -11 6q-14 8 -20 20q-12 16 -29 74q0 2 -2 8v4q0 6 21 10q43 8 108 19q8 2 35 6q16 2 31 4q12 2 28 4q14 2 27 4q51 10 98 10q31 0 86 -53q94 -76 125 -110q16 -6 17 -11 h-7q-4 -2 -10 -2q-29 -12 -28 -47v-10q2 -10 2 -18q14 -23 79 -23h64l27 2q115 6 165 6q59 -6 115 -6q61 0 119 6q27 0 38 5t11 26q0 16 -20 33q-43 39 -70 41q-6 0 -33 6q-16 4 -20 6q-29 12 -113 66q-51 33 -203 159l-26 23q-2 -2 -2 -4q4 -2 12 -2q18 8 72 28q18 6 32 13 q170 74 273 155q113 94 112 187q0 178 -151 270q-145 88 -359 121q-195 35 -432 35q-225 0 -391 -7q-109 0 -205 9q-61 0 -61 -47q6 -51 47 -58q16 -4 25 -26q18 -31 34 -131l3 -11q8 -94 8 -168q0 -23 -2 -73q-4 -57 -4 -93q-2 -201 -19 -331q-20 -104 -31 -123 q-6 -14 -14 -15q-47 0 -47 -59zM457 864v17q2 176 18 305q4 27 14 80q4 23 13 67q2 2 8 6l6 4q12 7 55 7q248 -8 385 -37q127 -27 197 -72q68 -43 76 -88q18 -51 18 -111q0 -104 -225 -211q-223 -106 -510 -167h-25h-8q-8 6 -12 14q-2 16 -4 45q-2 35 -4 45q0 53 -2 96z" />
<glyph unicode="s" horiz-adv-x="1632" d="M41 549q0 -70 65 -82q119 -68 322 -117t442 -49q262 0 492 111q229 115 229 307q-8 137 -108 215q-94 76 -236 119q-135 41 -303 69q-188 33 -301 62q-57 16 -141 47q-57 18 -58 41q0 33 58 51q74 31 178 31q16 2 43 2q113 0 268 -60q173 -61 226 -141q29 -53 98 -53 q37 0 53 16q25 16 25 37q0 2 -2 10t-2 11q-8 12 -23 32q-23 33 -33 52q-10 16 -26 55l-11 22q-16 59 -96 60q-8 0 -16 2h-15q-8 2 -16 2q-174 72 -424 84q-229 -2 -383 -51q-166 -55 -178 -211q0 -80 94 -142q86 -51 209 -94q98 -31 270 -63q98 -16 279 -54q113 -27 197 -86 q74 -55 73 -122q0 -86 -135 -152q-106 -66 -190 -66l14 13q-63 -12 -92 -13q-154 0 -265.5 24t-193.5 73q-172 96 -203 184q-2 76 -86 76t-84 -84q0 -41 -6 -82q-8 -39 -8 -86z" />
<glyph unicode="t" horiz-adv-x="1820" d="M41 1237q0 -12 18 -35q17 -24 62 -24h4q88 0 131 51q47 47 195 80q147 35 251 45q2 0 13 2h12q-8 0 -8 10q2 -2 4 -12l6 -15l2 -20q12 -80 14 -137q0 -131 -2 -248q-2 -41 -2 -62q-16 -242 -34 -327q-20 -92 -41 -121q-12 -20 -21 -21q-45 0 -45 -59q0 -27 13.5 -35 t48.5 -8q20 2 59 2q39 2 59 2q82 4 117 4q61 0 197 -6l24 -2q35 0 48.5 9t13.5 34q0 63 -47 64q-10 0 -27 22q-25 35 -39 121q-20 96 -20 330q0 205 8 303q10 111 18 159q4 8 10 19l2 6q0 -12 -8 -12h8q10 -2 17 -2q66 -4 250 -37q141 -31 198 -84q41 -55 138 -55 q43 0 69 20q23 18 23 39q0 10 -15 31q-29 29 -110 92q-63 53 -82 86q-27 43 -117 43q-225 -6 -518 -12q-63 -2 -205 -2q-209 0 -387 8h-2q25 0 25 2h-93q-43 0 -73 -60q-23 -33 -62 -69q-23 -23 -32 -33q-33 -35 -50 -49q-12 -10 -15 -17.5t-3 -19.5z" />
<glyph unicode="u" horiz-adv-x="1759" d="M41 1438q6 -53 51 -60q10 0 19 -24q23 -27 34 -133q10 -68 11 -179q0 -25 -2 -71q-2 -63 -2 -92q0 -18 -5 -66q-2 -29 -4 -47q0 -61 -6 -115h4v2v-24q4 -201 119 -271q51 -31 116.5 -46t155.5 -15q166 6 361 51q209 47 375 72v4q0 8 -2 14q-8 -35 -27 -35q-31 0 -41 -14 t-10 -49q0 -25 12 -34t47 -9q100 8 203 8q104 0 209 -8q59 0 59 43q0 66 -45 66q-10 0 -26 18q-20 37 -35 121q-4 43 -7 116.5t-3 215.5q4 256 22 348q20 106 37 125q6 20 14 20q43 0 43 62q0 25 -12 35t-49 10l2 -2l-23 -2q-127 -6 -186 -7q-55 0 -180 7l-25 2h-4 q-4 2 -8 2q-45 0 -45 -45q0 -59 43 -60q12 -2 22 -29q16 -18 35 -124l2 -9q8 -37 8 -163v-78q-2 -51 -2 -99q0 -18 -2 -51q-2 -61 -2 -114q4 -47 4 -123q0 -19 -100 -35q-152 -29 -264 -47q-164 -18 -238 -21q-74 0 -118 4t-66 13q-43 27 -49 215h-4v63v113q2 221 26 356 q16 78 45 111q8 16 27 16q47 0 47 62q0 18 -39 41q-27 12 -49 12q-119 -10 -207 -10q-74 0 -203 10q-63 0 -63 -47z" />
<glyph unicode="v" horiz-adv-x="1828" d="M41 1448q0 -12 6 -25q37 -43 70 -43q18 0 45 -26q59 -53 121 -142q82 -111 233 -366q2 -4 51 -90q55 -92 88 -152q72 -125 129 -235q27 -76 117 -76q66 0 119 74q6 12 22 30q4 10 25 45q12 23 18 33q29 51 48 76q12 24 14 24l2 3q51 84 84 131q51 74 102 170 q145 268 213 368q66 72 105 96q25 25 43 25q23 0 76 47q16 12 16 31q0 18 -15.5 26.5t-41.5 8.5q-55 -6 -101 -6h-98h-119q-51 0 -117 4q-70 0 -69 -35q-6 -10 -6 -25q0 -41 55 -41q18 0 31 -22q2 -4 2 -17q0 -33 -23 -100q-35 -113 -180 -371q-6 -8 -21 -26 q-33 -43 -49 -68l-24 -41q-23 -39 -37 -61q-6 -18 -12 -19q-4 2 -13 19l-4 6l-16 29q-25 41 -37 61q-6 12 -25 43q-27 49 -41 72q-182 274 -213 360q-32 74 -32 101q0 8 4 14l2 4q6 8 22 8q51 0 52 41q0 14 -13 35q-6 18 -20.5 25.5t-46.5 7.5q-61 -4 -138 -4h-137 q-104 0 -211 8q-35 0 -45 -5t-10 -30z" />
<glyph unicode="w" horiz-adv-x="2385" d="M41 1452q0 -2 2 -4q4 -8 4 -14q66 -66 92 -66q16 0 31 -18q33 -23 92 -101q74 -125 205 -403q61 -100 137 -240q23 -41 41 -78q53 -106 82 -155q31 -78 129 -78q78 0 125 84h-20q20 57 63 170q29 76 43 113q61 158 117 333q0 -8 2 -12q-4 0 -12 -8q49 -100 139 -305 l24 -60q76 -176 113 -254q35 -59 121 -59q76 0 112 76q39 70 52 104q6 10 12 31q12 27 18 39q10 23 15 35q31 51 69 127q23 49 95 170q123 221 204 340q61 100 86 124q16 25 27 25q25 0 70 49q14 12 14 29q0 35 -57 35q-55 -6 -99 -6h-96q-109 0 -188 8q-63 0 -72 -43v-17 q0 -45 51 -45q20 0 33 -26q4 -4 4 -17q0 -29 -25 -102q-41 -119 -182 -350q-8 -16 -8 -19q-35 -70 -45 -100q-6 -8 -8 -12q-23 -35 -33 -50q6 -6 12 -6l4 -6l-12 12q-51 106 -149 324q-68 168 -136 369q-18 18 -43 30q-27 68 -77 68q-53 0 -84 -37q-31 -41 -35 -70 q-31 -129 -105 -323q-35 -88 -88 -223q-10 -27 -43 -111v-12q-2 4 -4 12l-4 10q-16 35 -22 56q-6 12 -27 47l-25 39q-162 274 -190 366q-29 74 -29 109q0 6 4 14q2 4 2 6q6 12 21 13q20 0 31.5 8t11.5 28q0 18 -8 35q0 27 -39 27l-15 -6l-6 -2q-4 -2 -6 -2h-133h-137 q-27 0 -51 2h-41q-31 6 -99 10q-33 0 -45 -8t-12 -29z" />
<glyph unicode="x" horiz-adv-x="1871" d="M41 330q0 -20 9 -24.5t42 -4.5q16 2 49 2q31 2 47 2q57 4 93 4q47 0 139 -6l74 -4q47 -2 63 -2q49 0 74 22q29 29 28 46q0 36 -45 36h-2q-33 0 -45 17q2 0 2 -4q0 25 39 75q53 78 287 271q12 12 25 12q10 0 24 -14q209 -199 252 -266q35 -51 35 -76q0 -4 -2 -4 q-12 -12 -35 -13q-49 0 -49 -39q0 -4 8 -18l10 -20q23 -25 76 -25q14 0 61 2q70 4 103 4q111 6 162 6q63 0 202 -8h13q29 0 40 5t11 26q0 10 -16 30q-41 39 -74 54q-27 6 -82 43q-61 41 -174 137q-96 80 -334 309q-25 18 -25 35q0 16 21 33q195 168 338 278q84 63 147 101 q4 2 6 4q37 18 45 18q8 4 28 14.5t40 28.5q2 4 8 15q8 12 8 14q0 23 -10 28t-41 5q-100 -8 -213 -9q-78 0 -129 5q-88 4 -129 8q-45 0 -74 -29q-18 -25 -18 -39q0 -31 41 -39q35 -6 51 -22v-8q0 -16 -18 -48q-39 -66 -205 -194q-25 -25 -43 -25q-6 2 -29 21l-8 8 q-164 139 -201 203q-25 35 -24 53l2 2q8 12 31 16q45 0 45 35q0 8 -19 31q0 2 -4 6q-29 29 -74 29q-25 -2 -92 -8l-43 -2q-57 -2 -139 -3q-111 0 -215 9q-39 0 -45 -35q0 -27 2 -36t12 -11q47 -33 72 -33q10 0 47 -25q39 -23 141 -110q98 -88 318 -299q12 -8 12 -21 q0 -6 -16 -18q-254 -217 -385 -320q-137 -104 -179 -131q-47 -31 -61 -34q-25 -4 -76 -48l-6 -12q-4 -12 -4 -16z" />
<glyph unicode="y" horiz-adv-x="1869" d="M41 1427l10 -12q39 -41 76 -57q20 -10 76 -53q43 -33 145 -140q82 -86 246 -309q96 -119 139 -180q12 -12 12 -27q-2 -2 -10 -12q-10 -10 -16 -19q-80 -86 -150 -149q-49 -41 -73 -51q-16 -8 -31 -8q-25 -4 -64 -37q-10 -6 -10 -29q0 -8 4 -20q12 -23 45 -23q27 2 56 2 q45 2 55 2l18 2q57 2 88 2q47 0 117 -6q39 -4 96 -6q14 -2 23 -2q57 0 70 22q20 16 20 43q0 41 -49 41q-25 2 -37 25q2 2 2 6q0 39 41 107q51 96 277 333q223 236 344 353q94 92 151 131q29 25 37 24q12 0 63 41q12 8 14.5 14.5t2.5 16.5q0 35 -51 35h-6q-72 -4 -103 -10 h-14q-55 -4 -88 -4q-25 0 -88 2l-35 2q-29 2 -92 6q-19 2 -31 2q-51 0 -74 -31q-8 -14 -8 -35q0 -41 51 -41q25 -2 37 -24v-11q0 -39 -43 -112q-59 -98 -293 -340q-25 -31 -39 -31q-12 0 -24 17q-2 0 -4 2q-2 4 -6 10q-6 6 -7 8q-229 260 -286 354q-49 76 -50 119q4 6 23 6 q55 0 55 45q0 4 -2 11q-2 12 -2 16q-18 37 -80 37q-37 -4 -129 -8l-37 -2q-74 -2 -98 -2q-63 0 -90 2h-6q-49 4 -90 8q-33 0 -49 -13q-29 -23 -29 -43z" />
<glyph unicode="z" horiz-adv-x="1761" d="M41 356q0 -4 2 -10q2 -10 2 -14q20 -37 80 -37q115 4 259 5t347 1q401 -4 608 -4q37 0 54.5 2t29.5 6q29 14 64 43q31 29 74 62l2 2q18 14 77 49l21 12q57 33 59 72q0 63 -82 63q-41 0 -82 -24q-37 -23 -57 -35q-80 -41 -215 -68q-129 -25 -244 -37q-27 -2 -53 -4 q-102 -8 -145 -10q-35 -2 -74 -4h-20q-76 0 -117 2q-41 0 -78 -2h-35q6 0 6 -16q2 6 4 10q141 145 224 217q137 121 239 217q129 127 283 260q104 94 313 256q53 39 53 64q0 43 -73 43q-143 0 -267 -2q-123 -2 -372 -7h-340q-142 1 -152 11q-55 0 -114 -56l-25 -26 q-29 -33 -39 -43q-20 -23 -68 -62l-4 -4q-35 -25 -34 -61q6 -43 63 -43q41 0 84 24q47 27 68 43q59 39 247 72q147 31 353 31q45 0 131 -4h14q2 0 16 -2q18 -2 33 -5q-6 0 -6 11q0 -2 -4 -2q-2 -2 -4 -2q-82 -92 -207 -205q-74 -72 -229 -211l-15 -14q-184 -164 -286 -252 q-174 -150 -332 -254q-37 -25 -37 -58z" />
<glyph unicode="{" horiz-adv-x="604" d="M41 952q0 -63 98 -125q74 -37 76 -77q14 -315 94 -553q104 -270 254 -338q-78 154 -143 420q-43 219 -55 485q-4 63 -101 117q-70 35 -69 73q0 37 69 78q94 63 98 117q12 293 56 496q68 281 145 432q-147 -66 -256 -346q-80 -248 -94 -570q-2 -41 -76 -82 q-96 -66 -96 -127z" />
<glyph unicode="|" horiz-adv-x="208" d="M41 49h127v1759h-127v-1759z" />
<glyph unicode="}" horiz-adv-x="610" d="M41 -141q152 66 262 338q76 225 94 553q6 43 74 77q98 66 98 125q0 61 -94 127q-70 41 -74 82q-18 315 -96 553q-113 295 -264 363q82 -141 152 -430q47 -244 55 -498q4 -51 96 -117q72 -39 72 -78q0 -41 -70 -73q-94 -55 -98 -117q-16 -285 -60 -496q-63 -264 -147 -409 z" />
<glyph unicode="~" horiz-adv-x="886" d="M41 1522q80 121 147 194q43 45 82 45q57 0 133 -100q8 -12 17 -21q14 -18 22 -28q0 -18 58 -115v43q68 -51 116 -51q57 0 119 57q70 74 111 142v22v16v15v104q-78 -129 -148 -198q-39 -43 -82 -43q-59 0 -129 94q-33 47 -45 61q-12 12 -30 35q-14 20 -23 25v8 q-63 49 -119 49q-59 0 -118 -61q-51 -49 -111 -138v-24v-15v-18v-98z" />
<glyph horiz-adv-x="456" d="M41 1673q0 -102 55 -168q61 -68 111 -67q23 0 28 8t5 24q0 23 -29 64q-6 8 -12 29q10 10 28 10q78 0 133 49t56 125q0 74 -56 123q-53 51 -133 51q-154 0 -178 -174q-8 -27 -8 -74z" />
<glyph horiz-adv-x="458" d="M41 1747q0 -76 59 -125q53 -49 129 -49q18 0 29 -8q-2 -10 -8 -23q-4 -6 -4 -8q-29 -45 -29 -64q0 -33 33 -32q49 -1 112 67q55 66 56 170q0 45 -8 72q-25 174 -181 174q-78 0 -129 -51q-59 -49 -59 -123z" />
<glyph horiz-adv-x="808" d="M41 1673q0 -102 55 -168q61 -68 111 -67q23 0 28 8t5 24q0 23 -29 64q-6 8 -12 29q10 10 28 10q78 0 133 49t56 125q0 74 -56 123q-53 51 -133 51q-154 0 -178 -174q-8 -27 -8 -74zM393 1675q1 -107 58 -170q59 -68 108 -67q23 0 28 8t5 24q0 23 -29 64q-6 10 -12 31 q14 8 31 8q82 0 133 49q53 47 53 125q0 76 -53 123q-51 51 -133 51q-158 0 -183 -174q-6 -27 -6 -72z" />
<glyph horiz-adv-x="808" d="M41 1747q0 -76 59 -125q53 -49 129 -49q18 0 29 -8q-2 -10 -8 -23q-4 -6 -4 -8q-29 -45 -29 -64q0 -33 33 -32q49 -1 112 67q55 66 56 170q0 45 -8 72q-25 174 -181 174q-78 0 -129 -51q-59 -49 -59 -123zM395 1747q0 -72 58 -125q53 -49 127 -49q20 0 30 -10 q-4 -10 -8 -19q-4 -8 -4 -10q-29 -45 -29 -64q0 -33 33 -32q43 -1 111 67q55 57 55 168q0 47 -8 74q-25 174 -180 174q-76 0 -127 -51q-57 -53 -58 -123z" />
<glyph unicode="&#xa3;" horiz-adv-x="1628" d="M41 70q0 -20 14 -41q29 -31 60 -31l51 2q334 14 481 18q178 0 317.5 -3t290.5 -11q82 0 115 57q20 45 39 95q4 10 6 16q18 51 29 66q27 57 59 92q41 47 72 98q12 18 12 43q0 16 -6 35q-23 47 -76 47q-102 0 -147 -76q-92 -125 -260 -151q-188 -31 -426 -35q-78 0 -78 39 v22q25 111 53 191q31 102 31 209q0 35 -8 82h75h273l-43 118h-334l-8 27q-29 98 -43 139q-29 82 -29 162q0 94 53 184q29 59 107 109q55 41 102 53q57 8 127 8q49 0 123 -24q41 -8 43 -13q0 -6 -24 -16q-53 -80 -54 -160q0 -104 78 -182q72 -74 187 -74q113 0 186 74 q78 78 78 182q0 68 -39 133q-76 147 -264 242q-190 90 -420 90q-229 0 -404 -102q-168 -96 -235 -240h-2q-59 -137 -64 -264q0 -98 27 -180q12 -33 29 -99q6 -20 14 -49h-98l43 -118h82q8 -41 8 -82q0 -170 -56 -336q-59 -158 -137 -314q-10 -8 -10 -32z" />
<glyph unicode="&#xad;" d="M41 557h1079v113h-1079v-113z" />
<glyph unicode="&#x2000;" horiz-adv-x="1049" />
<glyph unicode="&#x2001;" horiz-adv-x="2099" />
<glyph unicode="&#x2002;" horiz-adv-x="1049" />
<glyph unicode="&#x2003;" horiz-adv-x="2099" />
<glyph unicode="&#x2004;" horiz-adv-x="699" />
<glyph unicode="&#x2005;" horiz-adv-x="524" />
<glyph unicode="&#x2006;" horiz-adv-x="349" />
<glyph unicode="&#x2007;" horiz-adv-x="349" />
<glyph unicode="&#x2008;" horiz-adv-x="262" />
<glyph unicode="&#x2009;" horiz-adv-x="419" />
<glyph unicode="&#x200a;" horiz-adv-x="116" />
<glyph unicode="&#x2010;" d="M41 557h1079v113h-1079v-113z" />
<glyph unicode="&#x2011;" d="M41 557h1079v113h-1079v-113z" />
<glyph unicode="&#x2012;" d="M41 557h1079v113h-1079v-113z" />
<glyph unicode="&#x2013;" horiz-adv-x="1106" d="M41 557h1024v113h-1024v-113z" />
<glyph unicode="&#x2014;" horiz-adv-x="2130" d="M41 557h2048v113h-2048v-113z" />
<glyph unicode="&#x202f;" horiz-adv-x="419" />
<glyph unicode="&#x205f;" horiz-adv-x="524" />
<glyph unicode="&#x25fc;" horiz-adv-x="1484" d="M0 0v1485h1485v-1485h-1485z" />
</font>
</defs>
</svg>
