<?xml version="1.0" standalone="no"?>
<!DOCTYPE svg PUBLIC "-//W3C//DTD SVG 1.1//EN" "http://www.w3.org/Graphics/SVG/1.1/DTD/svg11.dtd" >
<svg xmlns="http://www.w3.org/2000/svg">
<metadata></metadata>
<defs>
<font id="boltontitlingregular" horiz-adv-x="952" >
<font-face units-per-em="2048" ascent="1638" descent="-410" />
<missing-glyph horiz-adv-x="819" />
<glyph horiz-adv-x="0" />
<glyph horiz-adv-x="682" />
<glyph unicode=" "  horiz-adv-x="819" />
<glyph unicode="&#x09;" horiz-adv-x="819" />
<glyph unicode="&#xa0;" horiz-adv-x="819" />
<glyph unicode="!" horiz-adv-x="352" d="M41 154q0 -63 39 -109q39 -45 96 -45t96 45t39 109q0 63 -39 108q-41 45 -96 45t-96 -45q-39 -45 -39 -108zM55 1327q0 -8 2 -51v-57l43 -859q66 41 76 43q10 0 84 -38q0 197 16 426q17 219 25 428q0 39 2 84v69q0 238 -29 359q-39 174 -90 174t-92 -170 q-37 -141 -37 -408z" />
<glyph unicode="&#x22;" horiz-adv-x="458" d="M41 1735q2 -111 20.5 -150t57.5 -39q37 0 53 38t16 151v141h-147v-141zM270 1735q2 -111 20.5 -150t57.5 -39q37 0 53.5 38t16.5 151v141h-148v-141z" />
<glyph unicode="#" d="M41 459h285l-47 -355h57l47 355h152l-46 -355h58l47 355h317v63h-311l21 170h290v64h-282l49 374h-60l-49 -374h-151l49 374h-59l-48 -374h-319v-64h311l-20 -170h-291v-63zM389 522l21 170h153l-20 -170h-154z" />
<glyph unicode="$" horiz-adv-x="1077" d="M41 250q0 -68 25 -78q127 -125 356 -160l-23 -250h45l23 242q27 -2 92 -2q162 0 324 127q154 121 153 324q-8 246 -166 331q-152 84 -323 125l20 230q76 -29 148 -76q74 -49 110 -109q2 -4 13 -14q8 -8 14 -16q16 -18 35 -19q37 0 37 39v6q-2 6 -2 11q-6 33 -27 83 q-18 45 -31 105q-6 31 -43 45q-35 10 -59 25q-63 31 -184 49l22 262h-45l-20 -256q-6 0 -17 2q-33 4 -49 6v-2q-4 0 -31 2h-30q-117 0 -215 -47q-121 -61 -121 -238q0 -100 49 -161q57 -70 143 -95q45 -25 101 -43q37 -12 114 -32l-45 -508q-115 37 -178 125q-63 90 -92 172 q-14 37 -23 71q-12 51 -61 52q-39 0 -39 -54v-78v-100v-96zM272 1071q0 51 50 70q59 20 114 24q43 0 86 -14l-20 -231q-66 16 -90 24q-51 20 -93 53q-47 35 -47 74zM479 147l45 506q72 -20 129 -41q68 -41 109 -92q35 -49 37 -135q0 -113 -76 -180q-72 -63 -152 -64h-10 q-27 0 -57 4q-17 2 -25 2z" />
<glyph unicode="%" horiz-adv-x="1095" d="M41 977q0 -127 84 -221q82 -94 203 -94q119 0 202 94q84 94 84 221q0 139 -96 235q111 -39 207 -38q106 0 238 49l-887 -1223h41l905 1245l2 2q2 0 2 2l2 2v4l10 19h-10v4q-4 -4 -10 -4h-21l-6 -12q-147 -61 -266 -62q-133 0 -301 78v-4q-53 16 -96 16q-119 0 -203 -92 q-84 -94 -84 -221zM203 975q0 111 26 188q25 78 97 78t96 -76q27 -80 29 -190q0 -123 -33 -189q-37 -72 -90 -71q-51 4 -88 78t-37 182zM481 305q0 -127 84 -221q84 -90 203 -90t203 90q84 94 84 221q0 125 -84 219q-82 92 -203 92q-119 0 -203 -92q-84 -94 -84 -219z M643 305q0 111 27 184q26 78 98 78t96 -75q27 -76 29 -187q0 -115 -35 -190q-35 -72 -88 -72q-53 4 -90 78q-37 78 -37 184z" />
<glyph unicode="&#x26;" horiz-adv-x="1384" d="M41 647q0 -98 27 -184q78 -262 303 -381q137 -70 268 -70q94 0 199 35q4 0 8 2h6q23 0 31 -18q16 -29 49 -29q98 14 186 14q102 0 203 -14q23 0 22 12q0 8 -6 17q-37 68 -61 67q-25 0 -109 99q-6 4 -6 14q0 12 21 33q51 49 69 73q27 27 27 52q-14 37 -16 131 q-2 35 -3.5 59.5t-1.5 71.5q0 29 -18 28q-4 0 -8 -2q-8 -2 -12 -2h-2q-29 -10 -29 -49l2 -24q-20 -100 -92 -215q-16 -27 -27 -27l-6 4q-2 4 -8 12q-8 12 -13 19q-47 84 -131 225q-70 113 -186 324q-39 72 -74 135q-8 18 -24 45q-29 55 -39 76q-2 2 -2 4l-2 4q-6 8 -6 22 q0 20 28 27q31 8 97 8q70 0 129 -14q117 -29 200 -101q18 -25 45 -24l13 4q16 10 16 20t-16 37q-57 61 -93 129q-16 27 -28 39q-12 14 -51 17q-47 12 -136 12q-123 0 -225 -39q-6 -4 -20 -4q-29 0 -47 37q-8 14 -21 41l-8 14q-20 37 -27 51q-8 23 -30 84q-2 6 -3 6 q-12 39 -12 54q0 4 2 8v6q12 33 45 51q8 8 25 8q25 0 57 -26q47 -41 62 -70q8 -16 8 -31v-6q-2 -4 -2 -8q-8 -14 -8 -45q0 -25 8 -39q6 -18 10 -22q10 -18 27 -19q10 0 22 6q33 16 35 47q4 61 41 99q35 31 61 86q12 25 13 45q0 25 -13 45q-4 12 -6 16q-33 66 -86 101 q-51 30 -104 30q-14 4 -45 4q-41 0 -84 -12q-197 -68 -230 -223q-8 -25 -8 -82q0 -129 74 -299q14 -35 14 -53q0 -27 -22 -45q-147 -115 -211 -318q-35 -115 -35 -215zM303 827q0 137 51 228q14 27 29 37q15 0 29 -27q12 -23 41 -72q10 -18 20 -39q10 -23 21 -41 q137 -256 233 -450l18 -41q74 -154 95 -201q8 -12 8 -33q0 -33 -37 -32h-18q-10 -2 -21 -2q-123 0 -235 94q-131 111 -191 307q-43 139 -43 272z" />
<glyph unicode="'" horiz-adv-x="229" d="M41 1735q0 -111 17.5 -150t56.5 -39t56 39t17 150v141h-147v-141z" />
<glyph unicode="(" horiz-adv-x="313" d="M41 969q0 -403 68 -709q63 -303 163 -369q-68 168 -106 447q-41 293 -41 631t41 626q39 276 106 451q-98 -68 -163 -371q-68 -303 -68 -706z" />
<glyph unicode=")" horiz-adv-x="315" d="M41 -88q98 68 166 371q68 305 67 708q0 403 -67 707q-68 303 -166 370q68 -174 106 -450q41 -289 41 -627t-41 -629q-38 -276 -106 -450z" />
<glyph unicode="*" horiz-adv-x="360" d="M41 1511l2 -4q4 0 4 -2q20 0 111 90q4 -152 22 -151q16 0 25 151q84 -90 106 -90l6 2l2 2q0 10 -24 47q-25 37 -80 103q51 59 80 100q25 35 24 47l-2 2l-4 2q-25 0 -108 -90q-8 152 -25 152q-18 0 -22 -154q-92 92 -111 92l-4 -2l-2 -4q0 -10 25 -45q27 -43 79 -100 q-55 -61 -79 -100q-25 -37 -25 -48z" />
<glyph unicode="+" d="M41 571h408v-444h57v444h405v64h-405v448h-57v-448h-408v-64z" />
<glyph unicode="," horiz-adv-x="350" d="M41 137q0 -59 39 -98q39 -41 94 -41q4 0 25 -18q8 -8 8 -25q0 -20 -21 -72q-16 -35 -16 -53q0 -4 2 -4q33 0 76 57h2q29 35 47 109q12 53 12 102v21q-2 16 -2 20q-14 141 -133 141q-55 0 -96 -40q-37 -39 -37 -99z" />
<glyph unicode="-" d="M41 571h870v64h-870v-64z" />
<glyph unicode="." horiz-adv-x="352" d="M41 446q0 -59 39 -98q41 -41 96 -41t96 41q39 39 39 98t-39 99q-41 41 -96 41t-96 -41q-39 -39 -39 -99z" />
<glyph unicode="/" horiz-adv-x="743" d="M41 49h65l596 1755h-65z" />
<glyph unicode="0" horiz-adv-x="1402" d="M41 944q0 -387 209 -668q209 -276 450 -276q244 0 453 254q207 256 209 690q0 434 -215 686q-220 256 -447 256t-442 -278q-217 -274 -217 -664zM336 862q0 6 2 37v41q12 336 94 569q80 236 260 238q180 0 277 -225q82 -188 82 -482v-49q-2 -29 -2 -51 q-18 -365 -111 -580q-92 -217 -246 -229q-160 0 -260 231q-96 215 -96 500z" />
<glyph unicode="1" horiz-adv-x="776" d="M41 1260q0 -23 35 -48q8 -10 35 -10q4 0 10 2q8 2 12 2q14 0 25 11l10 10q2 0 4 2q31 27 64 45q12 6 40 24q7 5 23 15q6 6 18 6q14 0 21 -4q23 -8 24 -33v-186v-183q0 -51 3 -106v-88q0 -238 -13 -359q-14 -158 -41 -217q-25 -53 -51 -55q-31 -4 -45 -70v-4q-2 -4 -2 -8 q0 -18 35 -18q41 8 119 14h18q74 4 98 4q68 0 109 -2q47 -2 110 -10q33 0 33 29q0 49 -22 49q-2 -2 -4 -2q-4 0 -9 -2q-18 0 -43 36q-27 45 -45 203q-10 76 -14 204t-4 349q0 106 2 193q0 174 2 266q0 180 2 262t2 176q14 35 14 64q0 47 -30 49l-6 2h-9q-18 0 -43 -10 q-16 -16 -26 -37q-25 -51 -68 -131l-10 -21q-45 -74 -90 -133q-53 -68 -131 -119q-90 -63 -133 -106q-10 -10 -23 -37q-6 -8 -6 -18z" />
<glyph unicode="2" horiz-adv-x="1255" d="M41 1376q6 -268 199 -403q20 -12 26 -15q6 -4 19 -12q55 -23 110 -22q197 0 254 131q2 2 2 8q2 6 2 8h2q2 6 2 16q0 63 -51 64q-18 0 -35 -18q-63 -61 -159 -62q-41 0 -76 27q-35 25 -57 57h-3q-41 80 -40 188q0 125 94 232q96 104 217 104q59 0 108 -8q35 -8 99 -59 q70 -53 96 -121q51 -98 51 -240q-8 -90 -45 -180q-39 -88 -82 -153q-43 -55 -92 -105q-51 -55 -100 -92q-31 -18 -66 -45l-2 -2q-176 -135 -268 -275q-98 -139 -172 -336q-4 -4 -4 -16q0 -10 8 -27q12 -23 28 -22q184 14 396 20q131 0 238.5 -3t215.5 -13q51 0 68 47 q16 37 31 92q14 61 26 90q18 51 47 99q29 43 50 98q6 8 6 29q0 18 -4 28q-10 29 -35 29q-66 0 -94 -65q-82 -156 -256 -179q-168 -23 -412 -26q-16 0 -25 8q-4 0 -4 10q0 8 13 29q90 131 235 229q117 80 283 205q133 100 235 231q94 121 94 310q0 127 -47 268h-2 q-57 147 -196 250q-143 102 -332 102q-242 0 -420 -143q-176 -145 -176 -367z" />
<glyph unicode="3" horiz-adv-x="1349" d="M41 489q0 -182 156 -335q156 -156 393 -156q121 0 241 59q127 59 230 156q104 98 174 223q72 127 74 258q0 137 -22.5 241.5t-67.5 194.5q-102 190 -293 246q-31 6 -31 29q2 20 14 35q61 80 142 168q102 111 157 168q31 37 33 69q0 37 -27 37q-172 -12 -415 -16 q-121 0 -220.5 4t-201.5 14q-18 0 -33 -20q-12 -14 -20 -35q-72 -145 -152 -250q-20 -25 -25 -66q0 -43 27 -43q68 0 115 82q49 74 229 95q66 10 184 10q47 0 129 -8q25 -4 33 -7l2 -4q0 -8 -18 -36q-76 -98 -160 -191q-76 -82 -176 -178q-31 -31 -31 -72q0 -35 25 -35 q45 0 69 17q35 18 74 18q166 0 279 -147q88 -125 88 -277q0 -35 -6 -78q-2 -193 -117 -350q-113 -156 -293 -155q-133 0 -223 104q-92 104 -92 234v26q-2 18 -2 23q0 80 30 129q23 35 78 67q55 31 55 68v20q-4 20 -10 25q-23 14 -84 14q-57 -2 -94 -24q-217 -100 -217 -351z " />
<glyph unicode="4" horiz-adv-x="1320" d="M41 428q0 -51 55 -63h703q25 0 39 -3q16 0 16 -53q-2 -113 -12 -145q-12 -33 -31 -43q-6 -2 -18 -10q-16 -8 -25 -13q-25 -10 -59 -80q0 -10 10 -18q10 -12 22 -12q39 6 117 14h19q74 4 96 4q55 0 106 -8q27 -2 72 -10q16 -2 33 -4q33 0 33 30q-2 43 -15 54 q-16 12 -28 24q-18 14 -37 60q-18 43 -31 149q0 18 10 39q12 25 45 25h62q57 0 57 61v70q0 59 -57 59h-74q-53 0 -55 27q-6 29 -7 57q-2 39 -2 131q0 98 2 154q2 98 5 221q2 123 4 221q2 145 6 440q-4 0 -8 33q-6 41 -43 43q-70 -6 -107 -80q-188 -338 -409 -653 q-242 -344 -449 -631q-35 -35 -45 -90zM309 555q0 25 10 37q115 188 240 360q127 179 240 369q2 4 18 25q6 6 12 14q4 8 11 8q12 0 12 -57q-2 -66 -2 -199v-199q2 -37 2 -79q2 -63 2 -80q2 -49 2 -138q0 -57 -31 -61h-39l-442 -12q-4 0 -10 -2h-6q-18 0 -19 14z" />
<glyph unicode="5" horiz-adv-x="1282" d="M41 412q0 -242 164 -344q170 -104 405 -105q250 0 449 211q182 201 182 459v20q-2 14 -2 19q0 326 -178 512q-186 197 -438 196q-135 -6 -246 -51q-8 -4 -23 -4q-20 0 -20 25q4 14 4 53q-2 18 -2 57v41v45q-2 6 -2 31q0 20 35 20q76 6 225 7q133 0 293 -11q6 -4 16 -4h2 q27 0 47 2q31 0 52 49q37 86 112 181q14 16 14 34q0 6 -2 17l-2 2q-14 18 -49 18q-27 -14 -41 -24q-18 -14 -41 -21q-111 -16 -223 -16q-18 0 -65 4q-43 2 -70 2q-197 12 -383 31v-2q-8 0 -12 2t-11 2l-8 2q-10 0 -20 -10q-10 -14 -10 -31q4 -88 12 -180q8 -82 8 -183 q0 -98 -8 -180q-8 -88 -12 -178q-2 -29 -3 -90q0 -61 58 -62q20 0 51 29q20 23 111 84q57 39 137 39q35 0 71 -6q147 -20 246 -152q100 -127 103 -342q0 -223 -99 -346q-102 -127 -250 -151q-18 -2 -53 -2q-127 0 -213 92q-88 92 -88 225q0 207 170 256h2q35 6 35 53 q0 51 -45 51q-12 0 -25 3h-22q-135 0 -227 -80q-106 -92 -111 -299z" />
<glyph unicode="6" horiz-adv-x="1333" d="M41 813q0 -424 201 -631q205 -213 503 -213v2q4 0 7 -2h4q186 2 362 195q174 190 174 463q0 164 -44 280.5t-132 200.5q-178 166 -430 166q-35 0 -45 -17q-129 -193 -287 -348q-8 -12 -26 -12q-16 4 -17 16q10 195 80 342q72 147 166 250q94 104 193 168q76 53 159 99 q45 0 66 30l2 4q2 12 2 17q0 51 -70 51q-152 0 -309 -105q-162 -109 -287 -264q-129 -164 -202 -344q-35 -84 -52.5 -168t-17.5 -180zM358 555q0 166 99 295q102 139 245 139q145 0 246 -129q100 -127 101 -305q0 -182 -101 -309q-101 -129 -246 -129q-143 0 -245 170 q-98 166 -99 268z" />
<glyph unicode="7" horiz-adv-x="1208" d="M41 1458q0 -14 4 -20q12 -25 41 -25q74 0 111 82q61 119 284 133q63 8 183 8q80 0 198 -12q41 0 41 -31q0 -10 -6 -22q-117 -256 -354 -754q-186 -389 -293 -768v-4q-2 -4 -2 -6q0 -12 6 -25q6 -16 29 -16q61 10 114 10q49 0 115 -10q4 0 10 -2h6q39 0 50 53 q82 479 243 924q147 414 340 854q6 12 6 26q0 29 -34 29q-27 0 -37 -4q-66 -4 -195 -4q-33 0 -98 2q-66 2 -98 2q-45 2 -207 10q-104 6 -185 10h-4h-6q-35 0 -65 -22q-37 -25 -48 -59q-23 -86 -57 -162q-41 -88 -82 -160q-10 -12 -10 -37z" />
<glyph unicode="8" horiz-adv-x="1286" d="M41 555q0 -262 172 -410q172 -147 416 -147t430 172t186 401q0 180 -88 326q-88 150 -235 229q-43 23 -43 37q0 8 6 8q23 16 43 37q66 59 116 133q49 72 50 162q0 156 -133 273q-131 118 -330 118q-195 0 -334 -122q-139 -123 -139 -291q4 -152 41 -226q41 -74 80 -110 q41 -37 67 -49q12 -2 12 -15q0 -4 -10 -18q-119 -96 -211 -221q-96 -127 -96 -287zM283 563q0 141 63 283q72 166 176 166q12 0 78 -25q6 -2 16 -6q74 -33 164 -100q82 -63 148 -158q55 -80 55 -205q-20 -231 -119 -313q-98 -82 -231 -92q-139 0 -236 116q-104 129 -112 289 v23q-2 18 -2 22zM379 1528q0 106 76 182q72 72 174 72q80 -4 168 -76q88 -74 88 -178q0 -109 -39 -193q-39 -86 -111 -98q-84 0 -219 92q-137 92 -137 199z" />
<glyph unicode="9" horiz-adv-x="1290" d="M41 1280q0 -10 2 -33t2 -35q0 -317 199 -477q205 -168 409 -168q31 0 43 17q27 94 62 143q35 51 127 125q10 12 28 12q14 -2 15 -14q-16 -156 -92 -281q-76 -127 -177 -219q-100 -98 -196 -157q-66 -41 -156 -95l-4 -2h-2q-53 -18 -63 -30q-6 -12 -7 -21q0 -49 70 -49 q152 0 322 102q170 104 313 264t231 345q43 86 62.5 170t19.5 178q0 428 -168 628q-174 211 -473 213q-182 0 -385 -190q-182 -172 -182 -426zM268 1389q0 135 80 233q86 104 223 104q41 0 64 -6q178 -27 244 -196q63 -172 71 -264l13 -99q0 -2 2 -14v-14q0 -29 -11 -56 q-23 -55 -120 -121q-96 -63 -203 -69q-287 0 -352 399q-10 61 -11 103z" />
<glyph unicode=":" horiz-adv-x="354" d="M41 139q0 -59 39 -98q41 -41 98 -41q55 0 96 41q39 39 39 98t-39 99q-41 41 -96 41q-57 0 -98 -41q-39 -39 -39 -99zM41 1020q0 -59 39 -98t98 -39q57 0 96 39t39 98q0 57 -39 98q-39 43 -96 43t-98 -43q-39 -41 -39 -98z" />
<glyph unicode=";" horiz-adv-x="354" d="M41 137q0 -59 39 -98q39 -41 94 -41q4 0 25 -18q8 -8 8 -25q0 -20 -21 -72q-16 -35 -16 -53q0 -4 2 -4q33 0 76 57h2q29 35 47 109q12 53 12 102v21q-2 16 -2 20q-14 141 -133 141q-55 0 -96 -40q-37 -39 -37 -99zM41 1018q0 -59 39 -98q41 -41 94 -41q57 0 98 41t41 98 q0 55 -41 98q-41 41 -98 41q-55 0 -96 -41q-37 -39 -37 -98z" />
<glyph unicode="=" d="M41 418h870v57h-870v-57zM41 629h870v57h-870v-57z" />
<glyph unicode="?" horiz-adv-x="1153" d="M41 1530q0 -84 51 -141q53 -59 125 -60q74 0 127 60q53 59 53 141q0 70 -39 121q55 43 142 65q18 4 55 4q55 0 100 -22q72 -37 117 -142q31 -74 31 -196q0 -49 -6 -109q-20 -233 -95 -303q-72 -68 -155 -114q-78 -45 -137 -129q-47 -68 -48 -250q0 -6 3 -43v-52 q66 41 75 43q10 0 82 -38q0 264 84 325q90 63 187 86q100 23 198 107q94 80 119 383q0 6 2 32v33q0 221 -119 377q-137 178 -397 178q-27 8 -84 8q-119 0 -270 -69q-201 -98 -201 -295zM301 154q0 -61 41 -109q39 -45 96 -45q59 0 99 45q39 45 38 109q0 63 -38 108 q-42 45 -99 45q-55 0 -96 -45q-41 -47 -41 -108z" />
<glyph unicode="@" horiz-adv-x="1372" d="M41 860q0 -352 184 -604t447 -252q133 0 246 68q115 68 202 184q-150 0 -231 -57q-82 -57 -215 -58q-221 0 -350 211q-129 213 -129 510q0 299 129 510t350 211t356 -211t135 -510q0 -150 -43 -282l-4 -7q-2 -2 -2 -6v-6q-4 -14 -6 -16h2q-29 -109 -68 -109q-25 0 -43 43 q-20 45 -22 107v49v59q2 88 2 205v107q4 10 6 30q0 6 2 21q0 12 -6 18q-80 49 -170 76q-86 25 -166 25q-152 0 -301 -115q-4 -4 -4 -14q0 -14 16 -31q20 -20 37 -21q6 0 13 6q90 86 233 86q43 -2 98 -12q59 -10 72 -37q10 -25 14 -55q0 -47 -53 -47q-20 0 -31 2q-10 2 -30 2 q-176 0 -305 -59q-125 -57 -125 -265q0 -160 141 -215q68 -25 137 -24q82 0 162 33q41 14 76 14q31 0 55 -12q43 -25 80 -39q47 -39 117 -56q76 0 131 66q53 63 88 154q35 90 49 180q14 86 14 143q0 354 -198 604q-199 252 -461 252t-447 -252q-184 -252 -184 -604zM473 647 q0 94 68 162q70 70 243 72l2 2q2 0 7 -2q12 -4 18 -7q14 -6 14 -40q-2 -18 -6 -80q0 -51 -2 -74t-2 -62q-2 -61 -31 -79q-4 -4 -16 -13q-12 -8 -18 -10q-70 -39 -127 -39q-45 0 -74 23q-76 51 -76 147z" />
<glyph unicode="A" horiz-adv-x="1744" d="M41 20q0 -18 33 -18q96 10 200 14q94 0 189 -14q33 0 43 29q6 14 6 35q0 23 -12 22q-25 6 -49 25q-27 18 -33 71q0 70 43 199q8 29 31 29h702q31 -2 43 -45q37 -117 41 -177q0 -45 -14 -67q-16 -20 -33 -31q-18 -12 -19 -63q2 -12 31 -23q12 -4 39 -4q88 10 191 14 q86 0 198 -14q16 0 25 18q8 16 8 25l-2 8q-18 59 -35 60q-18 0 -53 47t-109 215q-70 160 -202 557l-9 16l-301 875q-18 43 -32 43q-10 -2 -50 -2q-27 0 -39 -2h-36q-92 0 -179 2q-113 0 -182 8q-14 0 -20 -17q-4 -6 -4 -16q0 -4 2 -8v-6q12 -74 141 -84q127 -10 137 -123 q0 -86 -67 -232q-76 -160 -185 -473q-152 -387 -231 -557q-80 -166 -117 -215q-35 -47 -51 -47q-12 0 -35 -53q-4 -10 -4 -21zM528 588q0 18 4 39q14 55 48 135l24 63l37 95q66 172 98 260q57 156 88 235q8 23 21 23q10 0 24 -25q84 -186 175 -500q10 -27 32 -88 q25 -63 27 -67q4 -12 10 -25q27 -74 39 -108q2 -6 2 -35q1 -25 -24 -25h-582q-23 0 -23 23z" />
<glyph unicode="B" horiz-adv-x="1703" d="M41 1860q4 -61 29 -64q29 -6 55 -67q27 -61 45 -240q12 -119 12 -350v-103q-2 -66 -2 -123q-8 -391 -30 -561q-20 -162 -46 -223q-20 -55 -41 -55q-16 0 -20 -56q0 -24 32 -24h3l24 2q117 10 164 10h96q8 0 50 -2q24 0 47 -2h2h10h14q14 -2 68 -2q115 0 283 -4 q80 0 133 4t96 12q369 74 483 260q113 182 115 359q-2 233 -127 362q-123 129 -336 195q-12 4 -12 26q6 16 20 23q266 100 267 287q0 43 -25 112q-29 76 -135 140q-109 63 -330 100q-96 16 -256 16q-152 0 -348 -18h-64q-20 2 -61 2q-92 0 -182 12q-33 0 -33 -28zM406 1352 q8 164 22 260q8 70 21 121q8 45 47 45q455 -6 567 -62q113 -51 113 -186q0 -156 -172 -211q-84 -27 -211 -40t-322 -13q-63 0 -63 37q-2 24 -2 49zM416 924q0 76 2 112q2 37 2 105q0 24 42 24h3l33 -2q76 -6 106 -8h133q211 -25 334 -78q121 -53 178 -119q55 -63 72 -147 q12 -68 16 -158q-16 -129 -39 -213q-29 -98 -102 -164q-72 -66 -225 -110q-145 -39 -408 -51q-47 0 -59 14q-20 20 -35 76q-25 68 -41 241q-6 70 -9 175.5t-3 302.5z" />
<glyph unicode="C" horiz-adv-x="1759" d="M41 940q0 -387 256 -661q256 -272 618 -273q143 0 349 43q203 41 319 123q55 25 55 57q0 53 31 185q29 123 47 178q0 4 2 8v4q0 14 -10 25q-16 16 -35 16h-4q-45 0 -55 -53l-8 -33q-82 -156 -254 -280q-172 -127 -318 -127q-233 0 -456 223q-225 223 -226 553 q0 330 183 567q182 238 415 238q4 0 23 2h22q166 0 330 -88q184 -98 289 -271q23 -53 51 -53h18q25 0 29 23q0 18 -2 38q-2 6 -2 13q-51 104 -74 221q-10 39 -24 65q-14 27 -66 48q-178 100 -321 120t-308 21q-154 0 -311 -74q-154 -72 -280 -203q-129 -129 -205 -295 q-78 -172 -78 -360z" />
<glyph unicode="D" horiz-adv-x="1673" d="M41 31q0 -29 31 -29q27 4 94 4q29 -2 90 -2h47q16 -2 57 -2q6 0 76 6q10 2 21 2q55 4 61 6q465 43 791 332q324 289 323 651q-8 274 -108 449q-98 168 -256 264q-154 90 -359 125q-203 35 -417 37q-2 2 -11 2q-76 0 -90 -4q-33 -4 -84 -4h-102q-61 0 -105 8 q-33 0 -32 -31q4 -55 22 -59q16 -4 35 -66q18 -57 31 -233q8 -139 8 -289q0 -45 -2 -123q-2 -113 -2 -162q-8 -381 -29 -559q-23 -168 -39 -217q-23 -51 -35 -51q-16 0 -16 -55zM406 924q2 248 14 462q10 170 24 252v4q4 35 11 62q8 35 59 35q309 -8 555 -150 q244 -139 256 -592q0 -303 -246 -553q-250 -248 -602 -280q-27 0 -31 16q-2 6 -6 19q-2 8 -2 10q-14 78 -24 242q-6 61 -7 153t-1 320z" />
<glyph unicode="E" horiz-adv-x="1619" d="M41 31q0 -29 33 -29q96 12 190 12h27q86 -2 168 -2q96 0 332 -4h24q113 0 379 -2q57 -2 121 -2q27 0 43 21q12 16 41 49q29 51 78 114q23 31 43 50q12 12 41 43l6 6q12 12 12 55q-2 41 -41 41q-25 0 -78 -37q-55 -37 -90 -53q-129 -90 -377 -123q-221 -31 -362 -31 q-6 0 -39 2h-41q-84 4 -117 101q-28 77 -28 228v11v447q0 70 2 102q0 63 2 90q0 31 26 31h438q111 -2 242 -12q129 -8 164 -113q14 -51 45 -51h4q47 0 47 39v4q-2 4 -2 8q-16 111 -16 205q0 88 16 190q0 4 2 11v6q0 33 -41 32h-2q-18 0 -26 -14q-6 -10 -19 -26l-8 -9 q-76 -84 -174 -112q-100 -31 -264 -31h-385q-41 0 -41 37q6 129 14 194q4 33 4 37q8 68 12 94q6 43 27 76q20 39 82 39q82 -4 180 -4q133 -4 250 -14q125 -12 252 -41q121 -29 186 -84q43 -51 99 -51h14q23 0 31 12q4 4 4 10q0 8 -10 23q-51 59 -93 116q-55 76 -94 119 q-12 16 -49 29q-33 12 -55 12h-15q-12 0 -16 -4q-272 0 -487 -8t-486 -8q-100 0 -192 14q-33 0 -33 -31q4 -57 27 -57q27 -4 53 -62q27 -55 45 -233q12 -111 12 -315q0 -41 -2 -115q-2 -98 -2 -141q-8 -395 -31 -562q-20 -158 -45 -221q-23 -53 -39 -53q-18 0 -18 -55z" />
<glyph unicode="F" horiz-adv-x="1517" d="M41 1845q4 -57 27 -57q27 -4 53 -62q27 -55 45 -233q12 -119 12 -348v-101q-2 -66 -2 -122q-2 -14 -2 -43q-2 -14 -2 -41q-8 -332 -27 -510q-18 -145 -34 -197q-18 -45 -31 -45q-16 0 -17 -55q0 -29 33 -29q90 10 195 14q31 0 94 -6l12 -2q33 -4 80 -10l25 -4q33 0 33 29 q0 51 -17 57q-14 6 -37 37q-20 29 -39 127q-20 90 -26 323q0 51 -4 152v6q-2 31 -3 63.5t-1 124.5q0 70 2 105v88q0 33 26 33l332 -6q66 0 217 -11l25 -2q131 -12 166 -114q14 -51 45 -52h2q47 0 47 37v6q-2 4 -2 9q-16 111 -17 204q0 94 17 193q0 6 2 10v6q0 35 -39 35h-4 q-18 0 -29 -18l-4 -6q-10 -18 -18 -27q-76 -80 -177 -113q-97 -30 -256 -30h-10l-276 4q-41 0 -41 39q8 135 14 200q4 29 4 33q8 80 12 104q6 43 27 76q20 39 84 39q57 -2 164 -6q119 -6 219 -20q117 -16 219 -46q113 -37 170 -86q43 -49 98 -49h17q20 0 29 13q4 2 4 12 t-9 20q-43 47 -94 115q-43 61 -94 119q-16 20 -49 28q-33 12 -55 13h-15q-12 0 -16 -2h-244q-172 -2 -196 -2q-131 -2 -439 -2q-98 0 -192 14q-33 0 -33 -31z" />
<glyph unicode="G" horiz-adv-x="1800" d="M41 940q0 -387 256 -661q256 -272 618 -273q147 0 357 64q213 61 330 141q51 39 51 61l-2 7q-12 29 -23 59q0 248 3 372t9 191q14 160 41 209q16 43 48 43q25 0 30 61q0 12 -16 23q-8 6 -29 6q-31 -2 -100 -6q-35 -2 -101 -2h-100q-53 0 -102 6q-39 0 -39 -24 q4 -49 20 -56q18 -6 41 -41q20 -35 39 -145q21 -115 23 -363q-6 -86 -8.5 -158.5t-2.5 -140.5q0 -61 -86 -98q-70 -31 -122 -43q-45 -10 -142 -20q-236 0 -463 213q-111 102 -165 240t-54 323v33q-2 27 -2 30q0 311 156 520q170 225 403 226q6 0 35 2h33q154 0 272 -49 q152 -61 326 -232q23 -55 57 -55h19q25 0 26 24q0 4 2 11v6q0 16 -6 35q-41 76 -61 143q-18 63 -68 109q-178 100 -321 120t-308 21q-307 0 -591 -250q-283 -252 -283 -682z" />
<glyph unicode="H" horiz-adv-x="1632" d="M41 31q0 -29 33 -29q102 14 192 14q100 0 195 -14q33 0 33 29q0 61 -19 63q-20 0 -43 56q-25 61 -39 219q-12 121 -12 356q0 12 2 92v107v102q0 63 2 94q0 4 2 15q2 4 2 8q2 14 33 14q70 0 209 -4q68 -2 209 -2q121 0 182 2q59 0 182 4q35 0 37 -14v-25q0 -133 -2 -205 q-8 -393 -25 -555q-16 -156 -34 -219q-16 -53 -29 -53q-14 0 -14 -55q0 -29 32 -29q98 14 195 14q94 0 195 -14q33 0 32 29q0 61 -18 63q-20 0 -43 56q-25 59 -39 219q-14 115 -14 366q0 12 2 86v101q4 408 22 589q18 174 39 224q16 47 35 47q16 0 16 61q0 31 -32 31 q-94 -14 -195 -14q-88 0 -195 14q-33 0 -32 -31q2 -47 20 -53q16 -6 39 -37q18 -25 35 -115q8 -31 9 -84t1 -200q0 -53 -31 -54q-63 0 -186 5q-61 2 -184 2q-139 0 -207 -4h-6q-129 -5 -199 -5q-35 0 -35 43q4 221 19 308q14 84 34 110q20 27 33 27q14 2 15 59q0 31 -33 31 q-94 -14 -195 -14q-100 0 -192 14q-33 0 -33 -31q4 -57 22 -59t41 -66q18 -49 35 -233q8 -143 8 -301q0 -45 -2 -121q-2 -104 -2 -152q-8 -365 -26 -555q-14 -154 -33 -217q-16 -53 -29 -53q-14 0 -14 -57z" />
<glyph unicode="I" horiz-adv-x="534" d="M41 31q0 -29 31 -29q90 10 194 14q100 0 195 -14q33 0 33 29q0 61 -19 61q-20 0 -43 53q-25 59 -39 220q-12 121 -12 358q0 12 2 92v109q4 406 23 587q18 174 38 224q16 47 35 47q14 0 15 63q0 31 -33 31q-94 -14 -195 -14q-100 0 -194 14q-31 0 -31 -31q4 -57 22 -59 t41 -66q18 -49 35 -233q8 -143 8 -301q0 -45 -2 -121q-2 -104 -2 -152q-8 -362 -26 -559q-14 -154 -33 -217q-16 -51 -29 -51q-14 0 -14 -55z" />
<glyph unicode="J" horiz-adv-x="907" d="M41 -383q0 -29 18 -47q16 -16 43 -16q86 16 158 51q72 37 158 84q86 53 166 127q82 80 192 145q8 0 31 27q16 18 16 73q-12 100 -20 113q-8 18 -19 68q-8 45 -14 192q-6 88 -16 461v29q-8 141 -9 364q0 150 9 223q16 176 41 224q23 47 49 47q22 0 22 58v5q0 31 -32 31 q-94 -14 -195 -14t-195 14q-45 0 -45 -31q4 -55 27 -59q20 -2 45 -66q25 -66 39 -233q8 -74 8 -322v-112q-2 -74 -2 -140q-10 -379 -22 -526q-16 -201 -29 -262q-14 -82 -29 -107q-12 -27 -18 -53q-66 -109 -152 -174q-90 -68 -164 -100q-27 -10 -43 -25q-18 -18 -18 -49z " />
<glyph unicode="K" horiz-adv-x="1599" d="M41 31q0 -29 33 -29q102 14 192 14q100 0 195 -14q23 0 33 4q18 6 18 21q-2 53 -20 53q-20 0 -41 26q-25 31 -39 123q-18 96 -19 336q0 70 10 80q10 16 56 62q23 23 61 67q2 4 4 6q33 39 76 76q14 14 27 25q0 2 10 2q18 0 41 -35q221 -334 301 -483q74 -141 74 -195 q-2 -51 -41 -64q-39 -8 -39 -79q8 -14 39 -21q14 -4 45 -4q31 4 137 4h141q63 0 90 -2q33 0 64 2h29q14 16 14 35q0 12 -6 25q-29 55 -49 55q-18 0 -64 41q-51 55 -153 207q-113 168 -328 555q-20 37 -31 57q-21 37 -31 53q-14 20 -24 53q-4 6 -4 17q0 33 39 74 q295 328 391 421q129 123 164 144q41 27 49 26l6 -4q12 0 61 56q6 4 7 12q0 12 -11 22q-18 18 -32 19q-39 -4 -113 -8q-39 -2 -105 -2q-76 0 -129 2q-92 4 -125 10q-31 0 -59 -31q-10 -25 -10 -35q0 -31 37 -30q55 -6 55 -72q0 -61 -121 -244q-123 -180 -504 -583 q-29 -33 -43 -33l-4 2q-8 8 -12 29v45q-4 106 -4 282q0 207 12 320q16 176 43 227q20 45 49 45q25 0 31 55q0 18 -18 19q-14 4 -35 4q-106 -14 -195 -14q-100 0 -192 14q-33 0 -33 -31q4 -55 25 -59q20 -2 43 -66q20 -57 36 -233q8 -74 9 -316v-112q-2 -76 -2 -146 q-8 -381 -29 -559q-18 -158 -35 -217q-18 -51 -33 -51q-4 -4 -9 -17.5t-5 -37.5z" />
<glyph unicode="L" horiz-adv-x="1521" d="M41 31q0 -29 35 -29q90 10 180 14h45q31 -2 55 -2q195 -8 426 -8q137 -2 420 -2q61 6 94 70q6 14 17 30q10 16 16 31q10 20 35 62q25 39 55 69q31 31 54 70q8 8 8 39v12q-2 8 -2 14q-2 25 -35 25h-17q-72 0 -114 -74q-23 -41 -191 -127q-166 -86 -352 -90h-106h-111 q-63 0 -80 19q-20 20 -29 61q-16 68 -26 240q-6 72 -6 280q0 10 2 86v103q2 397 26 587q23 174 45 224q23 47 45 47q18 0 19 63q0 12 -23 23q-18 8 -34 8q-57 -8 -117 -10q-47 -4 -119 -4h-78q-8 2 -18 2q-42 4 -62 6q-4 0 -8 2q-23 0 -22 -31q4 -57 22 -59t39 -62 q16 -57 33 -233q8 -143 8 -301q0 -45 -2 -121q-2 -104 -2 -152q-10 -412 -29 -559q-23 -172 -41 -217q-18 -51 -37 -51q-18 0 -18 -55z" />
<glyph unicode="M" horiz-adv-x="2109" d="M41 1839q16 -61 51 -78q25 -12 78 -28q47 -14 82 -39q39 -31 63 -113q10 -37 16.5 -93t6.5 -140q0 -201 -2 -351v-84q0 -221 -4 -354t-15 -213q-20 -164 -49 -217q-27 -49 -51 -49q-27 0 -27 -53q0 -29 43 -29q41 2 113 6h115q51 0 59 -2q4 0 33 -4l27 -4q33 0 32 29 q0 61 -20 63q-23 4 -49 57q-27 55 -45 224q-16 135 -17 381q0 12 2 81v95v182q0 135 6 223q4 39 11 47q14 0 41 -49q27 -51 98 -190l37 -72q33 -63 112 -223l56 -107q33 -66 102 -198l47 -93q59 -111 70 -139q16 -23 27 -22q12 0 24 28q180 381 268 572q80 174 183 389 q2 8 86 184q14 20 22 21l6 -4q14 -6 15 -23q-6 -104 -19 -238q-12 -131 -12 -299q0 -236 -3 -371.5t-9 -213.5q-14 -166 -35 -215q-18 -39 -31 -39q-4 2 -6 2l-6 4q-12 0 -12 -49q0 -29 32 -29q90 10 195 14q90 0 192 -14q35 0 35 29q0 57 -18 57q-20 0 -39 47 q-23 53 -37 219q-18 166 -18 570q0 229 6 370.5t18 221.5q25 172 58 219q25 41 49 41l8 -2q26 0 26 53q0 35 -22 35q-35 -6 -129 -11q-55 0 -83 2t-46 9q-16 4 -41 4q-23 0 -33 -11q-154 -250 -291 -544q-137 -291 -274 -553q-6 -12 -12 -13q-6 0 -13 11q-135 248 -276 532 q-125 250 -287 531q-6 25 -22 34q-4 4 -23.5 4.5t-89.5 0.5q-106 -4 -133 -9q-61 0 -109 6q-27 2 -73 11q-19 2 -37 4q-33 0 -33 -31z" />
<glyph unicode="N" horiz-adv-x="1792" d="M41 1862q16 -63 55 -80q37 -14 84 -27q43 -10 90 -37q43 -29 68 -112q16 -55 16 -146q0 -14 -2 -47t-2 -53q-4 -74 -7 -179.5t-3 -273.5q0 -215 -5 -350t-16 -213q-25 -166 -53 -217q-27 -47 -53 -47q-29 0 -29 -53q0 -29 43 -29q45 2 115 6h113q55 0 69 -2q8 -2 29 -4 q16 -2 41 -4q33 0 33 29q-6 73 -34 73h-1q-33 0 -57 39q-31 47 -46 205q-10 59 -10 254q0 137 6 324q0 41 2 106q2 84 2 125q6 180 13 268q2 31 12 47q14 0 39 -49q43 -84 172 -285q98 -156 270 -415q2 -2 88 -133q127 -193 187 -281q39 -57 104 -154q55 -83 78 -118v-17h6 q2 0 2 2h2q14 -23 17 -22q12 -20 43 -21q8 0 22 2l8 2q23 6 35 16.5t17 14.5q-6 72 -7 193q0 168 2 258q0 178 3 260q2 55 2 100q2 78 2 101q2 412 26 604q23 172 47 223q20 45 47 45q25 0 25 59q0 33 -33 33q-25 -4 -61 -10q-2 0 -25 -4q-37 -6 -84 -6q-102 0 -196 14 q-31 0 -31 -31q0 -55 29 -55t55 -55q29 -55 49 -234q14 -139 14 -340q0 -43 -2 -112q-2 -94 -2 -136q-2 -63 -2 -174q-2 -80 -6 -147q0 -66 -18 -66q-6 4 -8 9q-27 27 -50 65q-47 76 -155 246l-39 61q-72 109 -109 168q-37 57 -108 166q-72 111 -185 283q-14 23 -22 35 q-88 137 -160 260q-6 25 -22 34q-10 6 -101 13h-10q-18 0 -47 2h-33q-14 0 -33 -2h-18q-57 0 -131 8q-41 4 -105 12q-16 2 -28 4q-33 0 -33 -28z" />
<glyph unicode="O" horiz-adv-x="1832" d="M41 940q0 -387 256 -661q256 -272 618 -273q360 0 621 273q256 274 256 661q0 188 -78 360q-80 170 -205 295q-125 129 -282 203q-156 74 -312 74q-154 0 -311 -74q-154 -72 -280 -203q-129 -129 -205 -295q-78 -172 -78 -360zM352 928q0 332 166 567q167 238 400 238 t405 -213q82 -100 121 -245t39 -347q-8 -377 -170 -590q-162 -211 -395 -211t-400 235q-166 233 -166 566z" />
<glyph unicode="P" horiz-adv-x="1515" d="M41 31q0 -29 31 -29q90 10 194 14q100 0 195 -14q33 0 33 29q0 45 -9 53l-6 6l-16 16q-16 12 -31 52q-16 37 -31 137v14q-2 10 -2 13q0 47 37 59q43 14 109 31q432 109 680 329q250 225 250 465q0 274 -132 412q-135 145 -317 199q-190 57 -395 57q-207 -2 -365 -12 q-100 0 -194 14q-31 0 -31 -31q4 -57 22 -59t41 -66q18 -49 35 -233q8 -143 8 -301q0 -45 -2 -121q-2 -104 -2 -152q-2 -395 -18 -561q-14 -164 -31 -217q-18 -51 -35 -51q-18 0 -18 -53zM383 897v27q4 340 18 512q10 106 27 243v7q2 20 21 45q12 16 65 16q420 -27 541 -188 q119 -162 119 -367q0 -195 -226 -385q-221 -188 -483 -283q-12 -6 -31 -6q-18 0 -24 12q-14 25 -17 52q-4 51 -8 153q0 92 -2 162z" />
<glyph unicode="Q" horiz-adv-x="1832" d="M41 940q0 -225 92 -426q88 -195 246 -321q49 -45 113 -84q72 -49 143 -86q8 0 8 -11q0 -10 -10 -20q0 -2 -8 -17q-6 -6 -15 -20l-12 -16q-29 -35 -41 -52q-57 -66 -84 -96q-31 -35 -31 -47q0 -6 4 -8q14 -6 17 -31q0 -16 24 -16q4 0 13 2q16 2 20 2q47 55 170 55 q129 -4 254 -27q109 -20 252 -53l21 -4q92 -18 118 -18q4 0 13 2h8q10 2 74 43q20 12 61 41t70 47q29 20 30 22q80 55 97 66q37 27 53 43q-2 0 -2 22l-2 23q0 43 -54 43q-129 -100 -360 -113q-156 0 -274.5 12.5t-239.5 39.5q-31 6 -35 18q-4 16 -4 27q0 31 43 30q4 0 10 -2 t8 -2h43q35 -2 41 -2q360 0 621 273q256 274 256 661q0 188 -78 360q-80 170 -205 295q-125 129 -282 203q-156 74 -312 74q-154 0 -311 -74q-154 -72 -280 -203q-129 -129 -205 -295q-78 -172 -78 -360zM352 928q0 332 166 567q167 238 400 238t405 -213q82 -100 121 -245 t39 -347q-8 -377 -170 -590q-162 -211 -395 -211t-400 235q-166 233 -166 566z" />
<glyph unicode="R" horiz-adv-x="1540" d="M41 31q0 -29 31 -29q90 10 194 14q100 0 195 -14q33 0 33 29q0 45 -9 53l-6 6l-16 16q-16 12 -31 52q-16 37 -31 137q0 6 -2 16v11q0 47 39 59t107 31q12 4 28 8t29 8q37 8 55 14q55 14 97 15q31 0 96 -97q96 -141 121 -188q18 -37 18 -66q-10 -16 -28 -24 q-14 -8 -15 -37v-10q2 -10 2 -17q8 -12 53 -16h60q94 14 184 14q10 0 29 -4q55 -6 78 -6q39 0 108 12q23 0 23 9q0 4 -8 20q-35 53 -52 55q-14 0 -57 27q-39 27 -113 113q-76 88 -217 305q-12 16 -12 28q0 20 29 37q20 14 53 37q29 20 43 31q160 119 254 252q96 137 96 274 q0 272 -133 412q-137 145 -328 199q-197 57 -403 57q-211 -2 -369 -12q-100 0 -194 14q-31 0 -31 -31q4 -57 22 -59t41 -66q18 -49 35 -233q8 -143 8 -301q0 -45 -2 -121q-2 -104 -2 -152q-2 -395 -18 -561q-14 -164 -31 -217q-18 -51 -35 -51q-18 0 -18 -53zM383 897v27 q4 340 18 512q10 106 27 243v7q2 20 21 45q12 16 65 16q240 -16 369 -64q129 -47 196 -124q63 -76 80 -170q14 -88 15 -197q0 -195 -226 -385q-221 -188 -483 -283q-12 -4 -29 -4q-23 0 -26 12q-14 20 -17 50q-4 51 -8 153q0 92 -2 162z" />
<glyph unicode="S" horiz-adv-x="1492" d="M41 375q0 -84 45 -99q117 -115 301 -192q184 -82 412 -82q240 0 450 180q203 172 203 471q-6 209 -92 328q-86 117 -215 190q-121 68 -279 115q-147 41 -286 103q-66 27 -138 79q-72 49 -71 107q0 78 73 127q70 51 174 51q14 4 44 4q109 0 258 -100q178 -117 225 -256 q23 -66 74 -66q23 0 36 21q10 14 11 24q0 4 -2 13q-2 4 -2 8q-33 86 -48 133q-20 68 -36 135q-14 70 -70 70q-20 4 -29 4l-4 2q-10 2 -16 2q-156 115 -393 139v-2q-213 -2 -353 -82q-141 -80 -153 -311q0 -111 80 -197q82 -88 190 -149q121 -68 252 -107q129 -39 262 -92 q113 -45 195 -149q80 -100 80 -236q0 -168 -142 -291q-136 -114 -246 -114h-2l5 2q-14 -2 -21 -2q-150 0 -257 41t-187 125q-172 174 -203 333q-2 92 -55 93q-55 0 -56 -97q0 -72 -6 -139q-8 -63 -8 -137z" />
<glyph unicode="T" horiz-adv-x="1671" d="M41 1518q0 -8 8 -29q14 -29 43 -29h2q74 0 107 70q47 88 194 147q143 59 242 76q6 0 16 2h9q16 0 16 -4q2 -4 6 -31l2 -18q10 -106 16 -277q0 -221 -2 -411q-2 -66 -2 -101q-12 -406 -32 -557q-20 -164 -43 -217t-39 -53t-17 -55q0 -29 33 -29q18 2 66 6l45 4h12 q68 4 98 4q102 0 209 -14q33 0 33 29q0 61 -19 63q-20 0 -43 56q-25 51 -43 219q-20 158 -20 555q0 342 8 506q10 197 21 276q6 35 10 45q0 4 14 4h10q8 -2 15 -2q90 -12 237 -63q147 -55 203 -154q33 -76 113 -76q29 0 49 27q12 12 12 29q0 10 -6 20l-2 4q-31 53 -100 148 q-59 82 -84 153q-18 51 -88 51q-61 -2 -119 -4q-283 -12 -369 -16q-61 -4 -192 -4q-189 0 -367 14h-2l-2 2h-2h-57q-31 0 -52 -76q-14 -47 -61 -127q-37 -59 -80 -137q-6 -10 -6 -26z" />
<glyph unicode="U" horiz-adv-x="1613" d="M41 1853q4 -59 25 -59q18 -2 38 -63q18 -51 35 -234q8 -143 8 -303q0 -43 -2 -119q-2 -106 -2 -153q-2 -100 -6 -185q-2 -82 -6 -153h2v-39v-37q4 -309 100 -416q90 -96 246 -96q156 10 332 84q178 72 354 119q16 6 31 6q0 -18 -4 -33q-20 -88 -47 -88t-27 -57 q0 -29 33 -29q125 14 195 14t194 -14q33 0 33 29q0 61 -19 61q-20 0 -43 53q-25 59 -38 219q-6 68 -9.5 192t-3.5 368q4 406 23 587q18 174 39 224q16 47 34 47q16 0 17 63q0 31 -23 31q-6 -2 -10 -2q-121 -14 -194 -15q-72 0 -195 15l-4 2h-6q-23 0 -23 -31q4 -57 23 -59 q18 -2 41 -66q18 -53 35 -233q8 -68 8 -283q0 -45 -2 -127q-2 -113 -2 -166v-86q-2 -92 -2 -188q2 -80 2 -205q0 -61 -113 -98q-133 -47 -248 -78q-123 -35 -229 -41q-76 0 -117 9t-65 30q-55 43 -60 348h-6q-2 45 -2 150q0 117 2 184q2 399 27 586q20 168 47 219 q18 43 43 43q18 0 18 61q0 14 -20 29l-2 2q-23 12 -35 12q-94 -14 -195 -14q-88 0 -194 14q-31 0 -31 -31z" />
<glyph unicode="V" horiz-adv-x="1679" d="M41 1870q0 -10 4 -21q23 -53 43 -53t57 -55q45 -66 119 -240q78 -184 221 -614q31 -94 88 -266q23 -68 43 -134q72 -219 123 -397q23 -104 88 -104q51 0 91 104q6 18 20 57q12 39 37 107l6 18q25 80 43 125l4 15q14 45 16 45q18 61 76 207q35 86 97 276q129 393 200 571 q66 162 103 215q35 49 55 50q20 0 57 71q6 6 6 19q0 12 -28 12q-47 -8 -94 -8q-31 -2 -93 -2h-112q-70 0 -111 8q-43 0 -43 -31q-4 -8 -4 -24q0 -29 27 -29q33 0 49 -53q6 -12 6 -51q0 -51 -21 -179q-37 -186 -174 -585q-39 -111 -65 -199l-25 -74q-23 -70 -32 -94 q-18 -55 -35 -55q-10 8 -33 61q-2 6 -14 43q-25 72 -37 111q-12 35 -31 92q-16 47 -33 96q-162 432 -203 606q-30 125 -30 187q0 12 2 26q2 10 2 13q12 43 47 43q23 0 22 26q0 14 -6 39q-8 31 -43 31q-45 -6 -129 -6q-55 -2 -131 -2q-94 0 -200 14q-25 0 -25 -12z" />
<glyph unicode="W" horiz-adv-x="2203" d="M41 1876q0 -2 2 -6q2 -6 2 -8q43 -86 66 -86q20 0 45 -41q27 -45 90 -222q68 -205 194 -626q82 -248 127 -398q27 -86 70 -239q37 -125 45 -156q25 -102 100 -102q43 0 70 55h-4q35 176 113 528q63 283 108 527q4 18 12 31l4 2q10 0 19 -31q57 -215 131 -514l129 -516 q29 -78 92 -78q55 2 88 102q10 37 25 99q16 57 20 75q14 57 31 119q14 51 14 58l2 6q39 123 62 202q23 84 88 283q125 383 194 571q59 166 86 215q25 49 41 50q14 0 52 71q4 6 4 19q0 12 -29 12q-43 -8 -92 -8q-31 -2 -92 -2q-100 0 -178 14q-37 0 -43 -33q0 -4 -3 -12v-10 q0 -35 27 -35q33 0 49 -59q6 -14 6 -52q0 -61 -22 -186q-33 -174 -172 -588q-31 -82 -49 -159l-15 -56q-8 -23 -24 -84q-8 -33 -19 -33l-4 3q-14 14 -16 30q-49 190 -144 576q-68 279 -129 579q-12 57 -32 95t-56 38h-2q-37 0 -59 -43q-23 -45 -29 -98q-29 -215 -98 -545 l-123 -553q-10 -47 -22 -47q-10 0 -25 43l-31 111q-18 68 -45 141q-150 440 -182 617q-27 121 -27 192q0 12 2 29q2 10 2 14q12 51 45 51q16 0 17 23q0 20 -6 45q0 12 -8 12l-7 -2q-10 -6 -20 -10q-20 -2 -45 -3t-84 -1h-131q-47 0 -88 6q-31 8 -92 14q-27 0 -27 -16z" />
<glyph unicode="X" horiz-adv-x="1718" d="M41 12q0 -10 22 -10q10 2 39 4q31 4 52 6q53 4 88 4q23 0 94 -6q4 0 39 -2l55 -6q51 -6 74 -8q35 0 51 29q18 29 18 43q0 16 -20 16q-43 0 -57 41q-6 8 -7 27q0 43 41 147q51 131 275 459q18 29 39 28q18 0 37 -28q201 -322 245 -455q35 -98 35 -147q0 -14 -4 -31 q-18 -45 -55 -45q-23 0 -23 -17q0 -10 15 -38q14 -29 51 -29q23 4 123 12q14 0 28 2l60 4q74 4 96 4q102 0 203 -14q22 0 22 11q0 9 -6 18q-37 63 -61 78q-25 14 -82 79q-61 72 -166 230q-100 145 -315 514q-31 49 -31 94q0 39 26 82q219 336 320 467q104 135 143 172 q35 37 54 37q6 4 20 19.5t31 41.5q8 16 8 21q0 10 -23 10q-100 -14 -202 -14q-49 0 -123 6q-82 6 -121 14q-31 0 -51 -33q-12 -18 -13 -34q0 -18 21 -25q39 -10 59 -49q8 -10 9 -43q0 -35 -19 -96q-35 -104 -199 -340q-35 -51 -57 -52q-16 10 -49 58q-162 246 -197 350 q-24 71 -24 110q0 23 6 31q14 37 49 39q16 0 16 19q0 14 -12 32q-20 33 -51 33q-55 -10 -127 -16q-16 0 -33 -2q-70 -2 -98 -2q-104 0 -205 14q-16 0 -18 -23q0 -29 4 -34q35 -49 53 -50q12 0 55 -43q51 -57 138 -192q96 -147 301 -498q18 -31 18 -61q0 -33 -25 -62 q-254 -389 -362 -536q-131 -178 -170 -219q-55 -61 -68 -64q-18 -8 -51 -63q0 -2 -4 -6q-4 -8 -4 -13z" />
<glyph unicode="Y" horiz-adv-x="1714" d="M41 1851l2 -6q33 -66 59 -88q25 -18 78 -94q47 -63 139 -236q76 -141 238 -514l43 -100q59 -139 86 -203q16 -39 16 -71q0 -14 -2 -21q-4 -10 -14 -29q-10 -23 -14 -30q-96 -174 -146 -250q-47 -68 -71 -90q-25 -23 -39 -25t-45 -45q-4 -4 -4 -14t4 -17q6 -16 20 -16 q6 0 51 6q45 4 52 4h6q66 4 94 4q41 0 113 -10q20 -4 61 -10q35 -6 49 -8q35 0 49 30q10 16 11 41q0 25 -23 25q-37 2 -53 63q-4 8 -4 33q0 66 43 197q49 166 264 565q225 416 326 584q96 164 145 223q37 47 51 47q10 0 43 64q4 6 4 14q0 14 -22 14q-63 -8 -101 -14 q-43 -8 -98 -8q-53 0 -117 8q-29 2 -53 4q-38 4 -61 6q-37 0 -50 -31q-6 -12 -6 -30q0 -31 29 -31q41 -6 55 -68q0 -2 2 -14v-16q0 -72 -45 -207q-61 -184 -278 -574q-33 -65 -53 -65h-1q-18 0 -40 37q-6 10 -11 20q-8 16 -10 23q-213 424 -268 590q-53 145 -53 223 q6 49 47 49q29 0 28 35q0 4 -2 12q-2 12 -2 16q-8 31 -49 31q-45 -8 -123 -12q-80 -6 -129 -6q-61 0 -86 4q-37 2 -90 12q-12 0 -33 -12q-12 -8 -12 -19z" />
<glyph unicode="Z" horiz-adv-x="1615" d="M43 41q2 -10 2 -14q12 -39 49 -39q111 8 242 12t330 4q287 -6 573 -6q55 0 72 14q20 12 51 58q47 74 74 110q33 43 96 105q37 35 43 86q0 57 -53 57q-33 0 -64 -33q-33 -41 -55 -59q-88 -72 -211 -117q-119 -39 -231 -61q-102 -20 -191 -27q-37 -2 -70 -4h-18 q-74 0 -109 2q-33 0 -75 -2h-31q-18 0 -18 27q6 27 10 34q88 168 211 361q152 242 223 360q133 221 270 437q119 186 297 426q37 47 37 73q0 27 -43 27q-31 0 -156 -2q-41 0 -94 -2q-121 -4 -354 -8h-320q-141 0 -151 16q-37 0 -82 -80q-8 -16 -31 -61q-20 -37 -28 -56 q-27 -49 -72 -110q-23 -29 -23 -66q4 -33 37 -33t68 35q41 45 59 68q51 63 246 131q152 49 336 49q68 0 137 -6q4 -2 23 -6q6 -2 22 -6q18 0 19 -23q0 -14 -13 -37q-92 -176 -196 -342q-57 -92 -158 -254q-6 -10 -59 -94q-92 -152 -285 -446q-156 -233 -316 -428 q-22 -28 -22 -57q0 -7 2 -13z" />
<glyph unicode="[" horiz-adv-x="274" d="M41 -166h192v78h-122v2050h122v78h-192v-2206z" />
<glyph unicode="\" horiz-adv-x="743" d="M41 1804l598 -1755h63l-596 1755h-65z" />
<glyph unicode="]" horiz-adv-x="274" d="M41 -88v-78h192v2206h-192v-78h123v-2050h-123z" />
<glyph unicode="_" horiz-adv-x="1161" d="M41 -78v-55h1079v55h-1079z" />
<glyph unicode="`" horiz-adv-x="227" d="M41 1876l53 -141q35 -104 74 -105q18 0 18 29q0 27 -18 76l-53 141h-74z" />
<glyph unicode="a" horiz-adv-x="1576" d="M41 319q0 -10 29 -10q59 4 174 8h6q49 0 153 -6l17 -2q31 0 39 19q6 8 6 20q0 14 -12 14q-25 4 -43 15q-25 10 -31 45q0 45 39 123q10 16 28 16h631q29 0 39 -26q33 -72 37 -109q0 -27 -12 -43q-18 -14 -31 -18q-16 -6 -16 -39q4 -10 28 -15q10 -2 35 -2q55 4 166 8h6 q37 0 141 -6q27 -2 37 -2q12 0 23 10q6 10 6 17l-2 4q-14 37 -31 37q-14 0 -47 29q-33 31 -98 133q-57 90 -182 346l-9 8l-270 541q-14 27 -29 26h-14q-16 -2 -31 -2h-35h-32h-162q-113 4 -164 6q-12 0 -18 -10q-2 -4 -2 -10v-8q12 -47 129 -54q115 -6 123 -75 q0 -53 -62 -144q-72 -104 -166 -293q-137 -240 -209 -344q-68 -98 -104 -131q-33 -31 -45 -30q-12 0 -33 -33q-2 -4 -2 -13zM479 672q0 10 4 22q10 33 41 84q6 10 13 23q27 45 43 73q25 43 65 121q2 2 23 41q10 20 34 64q29 55 46 82q8 14 18 14t22 -16q76 -115 156 -310 q14 -23 29 -47q16 -33 26 -47l5 -6q27 -51 38 -78q2 -2 2 -20q1 -15 -22 -15h-522q-20 0 -21 15z" />
<glyph unicode="b" horiz-adv-x="1542" d="M41 1456q4 -37 27 -39q25 -2 49 -41q23 -35 41 -147q10 -86 10 -219v-62q-2 -41 -2 -78q-10 -250 -27 -346q-20 -102 -41 -137q-18 -35 -37 -35q-16 0 -18 -35q0 -14 31 -14l24 2q104 6 146 6h86q29 -2 88 -2h10h12q14 -2 62 -2q178 0 254 -2q74 0 121 2t86 6 q334 49 434 162q102 115 104 221q-2 143 -115 226q-119 84 -303 118q-10 6 -10 19q6 10 19 12q239 66 239 177q0 21 -22 71q-25 45 -121 86q-102 41 -297 61q-82 10 -232 11q-115 0 -313 -11h-57h-56q-57 0 -163 9q-29 0 -29 -19zM369 1143q10 115 20 160q10 55 19 75 q10 29 43 29q412 -6 510 -39q102 -35 102 -115q0 -96 -156 -131q-78 -16 -190.5 -24t-288.5 -8q-57 0 -57 22q-2 15 -2 31zM379 879q0 47 2 69v64q0 16 41 16q72 -6 125 -6h121q195 -18 301 -49q109 -31 159 -74q51 -43 64 -90q12 -41 16 -98q-18 -84 -34 -131 q-29 -63 -93 -103q-63 -39 -202 -67q-139 -25 -369 -31q-43 0 -53 8q-16 14 -31 47q-20 37 -37 150q-6 39 -8 100t-2 195z" />
<glyph unicode="c" horiz-adv-x="1591" d="M41 874q0 -262 231 -450q227 -184 555 -184q129 0 314 30q180 25 289 82q49 18 49 39q0 31 28 127q23 72 41 121l2 4v2q0 10 -8 19q-20 12 -33 12h-2q-41 0 -51 -37l-6 -23q-74 -104 -229 -192q-154 -84 -285 -84q-211 0 -412 149q-202 153 -202 375q0 225 163 389 q164 160 375 160q2 0 19 2h22q152 0 295 -59q168 -68 260 -182q23 -39 47 -39h17q23 0 26 16q0 12 -2 25q-2 6 -2 10q-43 61 -67 149q-4 23 -21 45q-20 20 -59 31q-154 66 -291 84q-158 14 -277 14q-139 0 -278 -51q-135 -47 -254 -137q-113 -86 -184 -203 q-70 -117 -70 -244z" />
<glyph unicode="d" horiz-adv-x="1513" d="M41 328q0 -18 27 -19q25 2 86 2q25 -2 79 -2h43h52q27 0 69 2q18 2 49 4q20 2 25 2q416 25 711 205q291 178 291 404q-6 168 -97 276q-90 106 -231 164q-143 57 -322 78q-197 20 -377 22h-10q-68 0 -80 -2q-14 -2 -75 -2h-93q-37 0 -94 4q-29 0 -28 -18q4 -35 20 -37 q12 -4 31 -39q18 -47 26 -145q8 -86 9 -178q0 -27 -2 -76q-2 -70 -3 -103q-10 -244 -24 -344q-23 -111 -37 -135q-18 -31 -31 -31q-14 0 -14 -32zM369 879q2 115 12 270v16q8 101 22 154q4 25 11 41q6 22 49 22h4q283 -6 500 -92q221 -86 229 -366q0 -188 -221 -342 q-229 -154 -541 -172q-27 0 -28 8q-6 12 -7 18q-16 53 -22 150q-6 39 -7 95t-1 198z" />
<glyph unicode="e" horiz-adv-x="1466" d="M41 328q0 -18 29 -19q86 6 172 6h176h147q92 -2 172 -2q53 0 226 -2q102 0 225 -2q25 0 39 15q14 14 37 28q29 37 69 72q20 20 39 31q25 16 41 28q12 10 12 35q-2 27 -36 27q-20 0 -70 -23q-37 -18 -82 -35q-123 -55 -340 -75q-213 -18 -326 -19q-6 0 -34 2h-37 q-74 0 -105 62q-26 47 -26 140v7v277q0 43 2 63q0 39 2 55q0 20 24 21h394h22q125 -4 195 -8q119 -6 147 -72q16 -31 41 -31h4q43 0 43 25v4l-2 2q-14 63 -14 127q0 63 14 119q0 2 2 6v4q0 20 -37 21h-2q-14 0 -24 -11q-4 -4 -19 -16l-6 -4q-68 -51 -156 -70 q-92 -18 -237 -18h-346q-37 0 -37 22q4 72 12 121q4 18 6 37q4 33 9 43q6 23 24 47q18 25 74 25q18 0 82 -2q35 0 80 -2q61 0 206 -9h19q113 -8 227 -24q117 -20 166 -53q41 -31 90 -31h12q18 0 27 8q4 2 4 6t-4 10l-4 4q-39 27 -84 72q-33 33 -84 74q-18 10 -45 16 q-27 8 -49 8h-12q-15 0 -17 -2q-219 0 -438 -6q-291 -4 -436 -4q-94 0 -174 8q-29 0 -29 -18q4 -35 25 -35q23 -4 47 -39q23 -33 41 -143q10 -78 10 -195q0 -25 -2 -69q-2 -63 -2 -90q-6 -231 -27 -347q-16 -92 -41 -137q-18 -33 -35 -33q-16 0 -16 -32z" />
<glyph unicode="f" horiz-adv-x="1374" d="M41 1448q4 -35 25 -35q23 -4 47 -39q23 -33 41 -143q10 -86 10 -217v-62q-2 -39 -2 -75q-2 -8 -2 -27v-25q-8 -188 -25 -315q-18 -92 -31 -123q-20 -27 -28 -27q-14 0 -15 -32q0 -18 29 -19q59 4 164 8h12q41 0 96 -6q20 -2 60 -4q16 -2 33 -4q31 0 30 19q0 31 -14 34 q-10 2 -35 23q-16 18 -35 78q-20 65 -22 200q0 27 -4 93v6q-2 18 -3 38.5t-1 75.5q0 45 2 66v55q0 18 24 19l297 -2q61 0 197 -7l22 -2q119 -6 150 -71q12 -31 39 -31h2q43 0 43 23q0 2 -2 6v2q-14 76 -15 127q0 53 15 121q0 2 2 6v2q0 23 -35 22h-4q-16 0 -27 -10 q-6 -10 -18 -20q-70 -51 -160 -70q-88 -20 -239 -21l-248 5q-37 0 -37 22q4 70 12 125q2 14 6 37q4 37 9 47q6 23 24 47q18 25 76 25q16 0 74 -2q33 0 73 -2q96 -4 197 -13q92 -8 197 -28q92 -18 153 -54q40 -30 85 -30h3h15q18 0 26 8q4 2 4 8t-8 12q-45 35 -84 72 q-53 49 -86 74q-14 10 -43 16q-27 8 -49 8h-14h-7q-6 -2 -8 -2q-279 0 -395 -2h-395q-92 0 -174 8q-29 0 -29 -18z" />
<glyph unicode="g" horiz-adv-x="1628" d="M41 889q0 -240 231 -410q225 -168 555 -168q135 0 322 39q186 37 297 88q45 20 45 37v4q-12 18 -21 37q0 166 2.5 237.5t8.5 110.5q16 102 37 129q14 27 43 27q20 0 26 39q0 10 -14 12q-8 4 -27 4q-8 0 -45 -2q-25 0 -45 -2h-90h-90q-61 0 -92 4q-35 0 -35 -16 q2 -29 18 -33q20 -8 37 -27q20 -23 35 -90q17 -59 21 -223q-8 -80 -9 -184q0 -39 -77 -62q-53 -14 -111 -26q-4 0 -14 -2q-68 -8 -113 -11q-211 0 -418 131q-196 126 -196 347v22q-2 16 -3 19q0 195 140 321q152 139 364 139q14 0 31 2h29q133 0 245 -30q135 -37 293 -144 q19 -32 50 -32h2h18q20 0 22 14q0 2 3 6v4q0 12 -7 21q-39 51 -55 88q-14 39 -59 67q-158 61 -291 76q-135 12 -277 12q-279 0 -532 -155q-254 -156 -254 -420z" />
<glyph unicode="h" horiz-adv-x="1476" d="M41 328q0 -18 29 -19q16 2 30 2q100 6 144 6q53 0 168 -8h6q31 0 31 19q0 37 -17 37q-20 0 -39 34q-25 43 -35 138q-12 72 -12 219q0 6 2 55v68v61q0 41 2 59q0 4 2 11l2 4q4 10 29 10q43 -2 94 -2q78 -2 94 -2h189h164q53 0 163 4q29 0 33 -10v-17q0 -80 -2 -127 q-6 -219 -20 -342q-18 -104 -33 -135q-12 -33 -25 -33q-14 0 -14 -32q0 -18 31 -19h6q119 8 168 8q45 0 153 -6l23 -2q29 0 29 19q0 37 -17 37q-16 0 -39 34q-20 37 -34 136q-12 78 -13 227q0 6 2 53v62q4 266 21 364q16 109 35 139q12 29 30 29q14 0 15 37q0 20 -29 20 q-102 -10 -176 -10q-61 0 -174 10q-31 0 -31 -20q4 -29 18 -33q16 -2 37 -22q14 -14 31 -70q6 -20 7 -53t1 -123q0 -35 -26 -35q-39 2 -84 2q-70 2 -84 2h-166q-125 0 -187 -2h-94q-76 -2 -90 -2q-31 0 -31 27q4 145 17 190q12 49 31 68q20 16 30 16q12 4 13 37q0 18 -31 18 q-80 -8 -174 -8t-174 8q-29 0 -29 -18q4 -35 20 -37q18 -2 37 -39q18 -41 31 -145q8 -90 8 -187q0 -27 -2 -73q-2 -66 -2 -97q-8 -242 -24 -342q-10 -88 -29 -133q-14 -33 -27 -33q-12 0 -12 -34z" />
<glyph unicode="i" horiz-adv-x="489" d="M41 328q0 -18 27 -19q59 4 163 8h13q53 0 168 -8h6q31 0 31 19q0 37 -17 37q-20 0 -39 32q-25 43 -35 135q-12 74 -12 222q0 8 2 57v68q2 244 21 362q18 111 34 139q16 29 33 29q12 0 13 39q0 18 -31 18q-80 -8 -174 -8t-176 8q-27 0 -27 -18q4 -35 20 -37q18 -2 37 -39 q18 -41 31 -145q8 -90 8 -187q0 -27 -2 -73q-2 -66 -2 -97q-10 -244 -24 -344q-10 -84 -29 -135q-14 -31 -27 -31q-12 0 -12 -32z" />
<glyph unicode="j" horiz-adv-x="825" d="M41 70q0 -16 18 -29q16 -10 37 -10q78 10 144 32l24 9q82 29 117 43q82 35 149 80q68 45 175 88q8 0 26 18q14 10 14 43q-8 59 -18 72q-8 12 -16 41q-6 29 -13 118q-8 72 -14 304q-8 88 -8 225q0 90 8 137q12 104 37 139q18 29 43 29q20 0 20 39q0 18 -28 18 q-82 -8 -176 -8q-92 0 -174 8q-41 0 -41 -18q4 -33 24 -37q16 -2 41 -39q20 -43 35 -145q6 -47 6 -199v-72q-2 -45 -2 -86q-6 -223 -20 -323q-12 -113 -25 -164q-16 -53 -27 -66q-10 -14 -16 -30q-63 -72 -137 -109q-76 -39 -148 -61q-27 -6 -37 -17q-18 -12 -18 -30z" />
<glyph unicode="k" horiz-adv-x="1447" d="M41 328q0 -18 29 -19q16 2 30 2q100 6 144 6q53 0 168 -8h6q20 0 31 2q16 4 16 13q-2 33 -19 32q-16 0 -36 17q-25 25 -35 76q-16 51 -17 208q0 41 9 50q8 8 51 38q12 8 41 31l16 15q29 23 70 45q8 8 22 16q0 2 11 2q14 0 36 -23q199 -205 271 -299q68 -86 67 -120 q-4 -33 -37 -39q-37 -6 -36 -49q10 -8 36 -13q12 -2 39 -2q29 2 125 2h127q57 0 80 -2q31 0 60 2h24q12 10 12 21q0 8 -6 16q-27 33 -43 33q-14 0 -57 27q-45 33 -139 129q-123 127 -295 342l-4 6q-14 16 -23 28q-2 4 -4 7q-17 18 -25 26l-2 2q-12 18 -18 31q-4 4 -4 10 q0 20 35 47q242 184 352 260q109 72 147 88q37 16 43 17l7 -2q10 0 49 28q2 2 6 5q6 4 6 10t-10 12q-14 12 -29 12q-49 -6 -102 -6q-20 0 -52 -2h-40h-46q-43 2 -71 2q-37 0 -96 4q-8 2 -17 2q-29 0 -53 -18q-10 -14 -10 -21q0 -20 34 -20q49 -2 50 -43q0 -39 -109 -152 q-115 -115 -455 -360q-27 -20 -39 -21h-2q-8 10 -12 19v29q-4 66 -4 174q0 129 12 196q12 109 39 142q16 29 43 28q23 0 29 35q0 10 -16 10q-14 2 -33 2q-90 -8 -174 -8q-94 0 -174 8q-29 0 -29 -18q4 -35 22 -37t39 -39q18 -37 33 -145q6 -47 6 -195v-162q-8 -225 -26 -344 q-12 -86 -31 -135q-18 -31 -31 -31q-2 -2 -7 -10t-5 -22z" />
<glyph unicode="l" horiz-adv-x="1378" d="M41 328q0 -18 33 -19q41 2 139 8h23q57 0 90 -2h6q258 -4 377 -4q125 -2 378 -2q53 4 84 43q20 25 31 39q12 18 31 37q18 23 49 43q20 14 49 43q6 6 6 25v8q-2 6 -2 8q-4 16 -30 16h-15q-63 0 -104 -47q-23 -25 -170 -78q-154 -55 -318 -55h-96h-100q-55 0 -72 10 q-18 16 -24 39q-14 37 -25 148q-6 45 -6 174q0 6 2 53v64q2 240 24 362q18 102 41 139q18 29 41 29q16 0 17 39q0 8 -21 14q-14 4 -33 4q-39 -2 -104 -6q-43 -2 -106 -2h-70q-14 0 -57 4h-15q-4 0 -8 2q-20 0 -20 -18q4 -37 20 -37q16 -4 35 -39q14 -29 31 -143l2 -29 q4 -94 4 -158q0 -27 -2 -73q-2 -66 -2 -97q-6 -244 -25 -344q-23 -111 -37 -135q-18 -31 -33 -31q-18 0 -18 -32z" />
<glyph unicode="m" horiz-adv-x="1906" d="M41 1444q12 -35 45 -49q41 -12 72 -17q39 -6 73 -24q35 -18 56 -70q20 -43 20 -143q0 -123 -2 -217v-54q0 -135 -4 -219t-12 -129q-18 -104 -43 -135t-47 -31q-23 0 -23 -32q0 -18 37 -19q57 4 102 4h103h53q12 -2 55 -6q29 0 29 19q0 37 -18 38q-20 0 -45 37 q-23 33 -39 138q-16 82 -17 235q0 6 2 49v60v112q0 82 6 137q4 25 9 29q14 0 36 -29q12 -16 31 -41q55 -72 92 -122q49 -68 152 -203q29 -39 78 -107q31 -41 55 -73q49 -66 64 -86q14 -14 24 -15q12 0 21 19q143 205 241 354q53 78 121 176t121 176q12 12 20 13h7 q12 -6 12 -15l-2 -18q-8 -82 -15 -129q-10 -70 -10 -187q0 -143 -3 -228t-9 -132q-10 -94 -31 -133q-18 -25 -28 -25q-2 2 -5 2l-6 2q-10 0 -10 -28q0 -18 29 -19q61 4 176 8q43 0 147 -6q8 0 25 -2q31 0 31 19q0 35 -17 34q-18 0 -35 29q-16 29 -32 135q-16 109 -17 353 q0 141 6.5 228t16.5 136q23 109 51 135q20 27 45 27l6 -2q25 0 25 37q0 18 -21 18q-43 -6 -116 -6q-80 0 -115 6q-16 2 -37 2q-20 0 -31 -6q-131 -147 -262 -336q-100 -150 -246 -342q-6 -8 -12 -8q-4 0 -10 6q-133 170 -250 330q-129 178 -258 328q-2 10 -19 22 q-6 2 -102 2q-92 -4 -119 -6q-45 0 -98 4q-37 4 -94 8h-6q-29 0 -29 -18z" />
<glyph unicode="n" horiz-adv-x="1619" d="M41 1458q12 -39 49 -49l10 -2q43 -10 66 -14q47 -10 82 -23q39 -18 59 -70q16 -37 17 -90q0 -10 -2 -28q-2 -23 -3 -35q-4 -45 -7 -109.5t-3 -169.5q0 -141 -4 -222t-14 -126q-20 -98 -47 -135q-25 -29 -49 -29q-25 0 -25 -32q0 -18 39 -19q57 4 102 4h103h61 q25 -4 64 -6q29 0 28 19q-6 45 -30 45q-29 0 -52 24q-29 29 -41 127q-10 35 -10 158q0 82 6 198q0 27 2 66q2 53 2 78q4 66 7 110q4 41 4 56q2 18 12 28q14 0 35 -30q23 -31 116 -135l37 -41q49 -53 168 -177q53 -55 76 -79q16 -16 107 -111q96 -100 141 -145q25 -25 82 -84 q62 -61 82 -84v-13l4 2h2h2q6 -4 12 -10l4 -4q10 -12 39 -12q6 0 23 4h4q31 6 47 18q-6 43 -6 119q0 104 2 160q0 109 2 162q2 51 2 122q2 246 25 373q18 102 43 139q18 27 43 27q20 0 20 37q0 20 -29 20q-18 -2 -65 -6l-12 -2q-23 -4 -76 -4q-94 0 -176 8q-29 0 -29 -18 q0 -35 27 -35q25 0 49 -33q29 -41 45 -145q12 -98 12 -211q0 -25 -2 -68q-2 -59 -2 -86q-2 -39 -2 -106q0 -37 -4 -90q0 -41 -17 -41q-6 2 -8 4q-14 10 -45 41q-31 35 -104 115q-70 76 -70 75q-100 102 -194 207q-129 133 -187 197q-96 98 -145 160q-2 10 -19 22 q-16 4 -100 6q-16 0 -41 2h-31q-12 0 -28 -2h-19q-43 0 -117 6l-36 2q-61 6 -84 9q-29 0 -29 -19z" />
<glyph unicode="o" horiz-adv-x="1658" d="M41 889q0 -240 231 -410q225 -168 555 -168t559 168q231 170 232 410q0 115 -72 221q-70 104 -184 184q-115 80 -254 125q-138 45 -281 45q-139 0 -278 -45q-133 -43 -254 -125q-113 -80 -184 -184q-70 -106 -70 -221zM322 881q0 207 149 352t358 145q211 0 367 -131 q72 -63 107.5 -152t35.5 -214q-8 -231 -153 -365q-145 -131 -357 -131q-209 0 -358 145q-150 147 -149 351z" />
<glyph unicode="p" horiz-adv-x="1372" d="M41 328q0 -18 27 -19q59 4 163 8h13q53 0 168 -8h6q31 0 31 19q0 25 -9 30q-2 2 -10 9q-4 2 -10 6q-16 12 -27 30q-12 18 -28 86q0 4 -3 11v6q0 27 35 37q37 8 97 18q387 68 612 205q225 139 225 287q0 168 -119 256t-284 121q-152 34 -346 34h-11q-186 0 -327 -6 q-94 0 -176 8q-27 0 -27 -18q4 -35 20 -37q18 -2 37 -39q18 -41 31 -145q8 -90 8 -187q0 -27 -2 -73q-2 -66 -2 -97q-2 -231 -16 -346q-16 -109 -29 -133q-14 -31 -31 -31q-16 0 -16 -32zM348 862v17q2 201 17 317q16 104 24 154q2 10 19 26q10 10 59 10q379 -14 485 -116 q109 -96 109 -226q0 -119 -203 -239q-203 -115 -436 -174q-10 -4 -27 -4q-14 0 -22 8q-10 10 -15 31q-4 31 -8 96q0 57 -2 100z" />
<glyph unicode="q" horiz-adv-x="1658" d="M41 889q0 -139 84 -264q82 -123 221 -199q35 -23 100 -51q74 -33 129 -53q8 0 9 -9q0 -6 -11 -12l-2 -2l-18 -18q-27 -27 -47 -43l-35 -27q-29 -25 -41 -33q-27 -20 -27 -31q0 -2 3 -4q14 -4 16 -18q0 -10 20 -10h13q10 2 18 2q41 35 152 35q129 -4 229 -17 q35 -4 152 -20q6 -2 75 -13h2q94 -14 123 -14q4 0 11 2h8q4 0 32 12q20 8 33 15q20 10 43 18q51 25 76 35q27 12 57 29q39 18 58 26q33 16 47 27q-2 0 -2 14l-2 13q0 27 -47 26q-113 -61 -324 -67q-145 0 -253 7t-210 23q-29 4 -33 11q-2 6 -2 18q0 16 37 16h19q25 -2 73 -2 q330 0 559 168q231 170 232 410q0 115 -72 221q-70 104 -184 184q-115 80 -254 125q-137 45 -281 45q-139 0 -278 -45q-133 -43 -254 -125q-113 -80 -184 -184q-70 -106 -70 -221zM322 881q0 207 149 352t358 145q211 0 367 -131q72 -63 107.5 -152t35.5 -214 q-8 -231 -153 -365q-145 -131 -357 -131q-209 0 -358 145q-150 147 -149 351z" />
<glyph unicode="r" horiz-adv-x="1394" d="M41 328q0 -18 27 -19q59 4 163 8h13q53 0 168 -8h6q31 0 31 19q0 25 -9 30q-2 2 -10 9q-4 2 -10 6q-16 12 -27 30q-12 18 -28 86q0 4 -3 11v6q0 29 37 37q33 8 95 18q8 2 28 6q18 2 25 4q10 2 24 4t25 5q43 10 86 10q31 0 86 -60q86 -86 111 -116q16 -27 16 -41 q-12 -12 -27 -15q-12 -6 -12 -22v-6q2 -6 2 -13q8 -8 47 -8h53l19 2q102 6 147 6q49 -6 97 -6q49 0 98 6q20 0 20 7q0 4 -8 12q-29 33 -47 35q-12 0 -51 16q-33 14 -100 70q-52 38 -197 188q-10 10 -10 17q0 16 26 24q25 12 86 41q143 76 228 156q88 88 88 170 q0 166 -121 256q-121 88 -295 121q-158 34 -352 34h-11q-190 0 -331 -6q-94 0 -176 8q-27 0 -27 -18q4 -35 20 -37q18 -2 37 -39q18 -41 31 -145q8 -90 8 -187q0 -27 -2 -73q-2 -66 -2 -97q-2 -231 -16 -346q-16 -109 -29 -133q-14 -31 -31 -31q-16 0 -16 -32zM348 862v17 q2 201 17 317q16 104 24 154q2 10 19 26q10 10 59 10q217 -10 332 -38q115 -29 176 -78q59 -47 72 -105q14 -55 14 -121q0 -119 -203 -239q-203 -115 -436 -174q-10 -2 -25 -2q-18 0 -24 8q-10 10 -15 29q-4 31 -8 96q0 57 -2 100z" />
<glyph unicode="s" horiz-adv-x="1351" d="M41 539q0 -51 39 -60q100 -68 272 -121q170 -49 371 -49q215 0 405 111q182 109 183 291q-6 129 -84 202q-78 74 -193 117q-106 41 -252 72q-145 31 -258 63q-57 18 -123 49q-63 31 -63 66q0 51 65 80q66 31 156 31q14 2 39 2q98 0 233 -62q158 -71 203 -157 q18 -41 66 -41q20 0 33 12q10 6 10 16q0 2 -2 6t-2 7q-29 53 -43 81q-16 39 -33 84q-12 43 -62 43q-6 0 -14 2h-12q-8 2 -19 2q-145 74 -354 87q-190 -2 -317 -52q-129 -49 -138 -192q0 -68 72 -121q66 -49 172 -94q88 -35 225 -66q119 -23 238 -55q104 -31 174 -92 q72 -66 72 -148q0 -104 -127 -178q-125 -72 -223 -72l4 3q-12 -2 -19 -3q-135 0 -231 25t-168 78q-156 109 -182 207q-4 57 -52 57q-49 0 -49 -59q0 -45 -6 -88t-6 -84z" />
<glyph unicode="t" horiz-adv-x="1511" d="M41 1245q0 -6 8 -18q10 -16 39 -17q66 0 96 43q45 55 176 90q123 37 218 48q4 0 12 2h10q14 0 14 -4q2 -2 7 -25l2 -6q10 -92 14 -170q0 -135 -2 -254q-2 -41 -2 -64q-12 -256 -29 -344q-23 -106 -39 -133q-20 -33 -35 -33q-16 0 -16 -32q0 -18 31 -19q16 2 49 2 q33 2 49 2h6q70 4 94 4q55 0 166 -6l23 -2q29 0 29 19q0 37 -17 37q-20 0 -39 34q-20 31 -39 136q-18 104 -18 344q0 213 8 313l2 25q10 113 16 145q0 4 3 10q4 16 6 19q0 2 14 2h6q8 -2 15 -2q66 -4 215 -39q135 -35 182 -95q29 -47 100 -47q29 0 45 17q10 8 10 18 q0 6 -6 15q-37 41 -90 90q-57 57 -76 96q-18 31 -79 31q-188 -6 -439 -13q-55 -2 -174 -2q-176 0 -330 8h-2t-2 3h-53q-27 0 -45 -48q-16 -33 -55 -77q-18 -20 -51 -62q-10 -12 -21 -24q-6 -6 -6 -17z" />
<glyph unicode="u" horiz-adv-x="1460" d="M41 1454q4 -35 22 -39q16 0 35 -37q18 -37 31 -145q8 -90 8 -189q0 -25 -2 -71q-2 -66 -2 -96q-4 -68 -6 -115q0 -37 -4 -94h2v-23v-24q4 -190 90 -256q82 -59 221 -60q137 6 299 51q166 47 318 74q14 4 28 4q0 -12 -4 -20q-18 -53 -43 -54q-23 0 -22 -36q0 -18 28 -19 q84 8 174 8q88 0 177 -8q29 0 28 19q0 39 -16 38q-18 0 -39 33q-20 33 -35 135q-4 43 -7 120t-3 224q4 264 20 365q16 104 35 137q12 31 31 31q14 0 14 39q0 18 -20 18q-4 -2 -8 -2h-17q-111 -8 -160 -8t-155 6l-19 2l-4 2h-6q-18 0 -18 -18q0 -37 18 -37q18 -2 37 -41 q16 -27 33 -145q6 -41 6 -174v-78q-2 -63 -2 -103v-53q-2 -57 -2 -117q2 -49 2 -127q-1 -36 -103 -61q-135 -31 -223 -47q-121 -20 -207 -25q-68 0 -104.5 5.5t-58.5 17.5q-49 29 -54 215h-6v94v115q2 238 25 360q18 98 43 135q14 27 39 27q16 0 16 39q0 8 -18 16 q-20 10 -33 11q-102 -10 -176 -11q-61 0 -174 11q-29 0 -29 -19z" />
<glyph unicode="v" horiz-adv-x="1519" d="M43 1450q20 -33 39 -33q20 0 53 -33q43 -45 107 -149q84 -141 198 -379q20 -45 72 -149q47 -98 47 -99q59 -123 111 -246q18 -63 78 -63q45 0 81 63q6 12 19 35q6 16 24 49q14 27 15 29q23 51 39 78q16 37 18 37q16 35 64 119l4 8q35 61 86 172q121 250 182 352 q55 96 92 133q29 31 49 31q18 0 52 45q6 4 6 10q0 8 -27 8q-45 -6 -84 -6h-84h-100q-43 0 -101 4q-39 0 -39 -18q-4 -6 -4 -16q0 -16 25 -17q29 0 45 -33q4 -8 4 -32q0 -37 -18 -111q-27 -100 -156 -360q-41 -82 -59 -123q-16 -33 -31 -62q-14 -31 -21 -43q-14 -33 -30 -33 q-6 2 -23 27l-8 10q-4 10 -16 35q-20 43 -29 60q-8 18 -27 55q-14 31 -30 61q-150 272 -183 375q-28 79 -28 115v2q0 6 2 16q2 4 2 6q12 27 43 27q20 0 20 16q0 10 -6 25q-8 18 -39 18q-53 -4 -117 -4h-116q-90 0 -181 8q-22 0 -22 -7t2 -13z" />
<glyph unicode="w" horiz-adv-x="1990" d="M41 1466l2 -2q2 -4 2 -6q37 -53 57 -53t41 -25q33 -39 82 -137q70 -143 174 -387q72 -145 115 -246q18 -41 43 -100q43 -102 61 -143q23 -66 91 -66q37 0 61 35h-4q33 109 102 326q47 147 99 327q4 12 10 19l4 2q6 0 16 -21q41 -104 119 -317q37 -106 115 -320 q25 -47 84 -47q49 0 78 64l2 4q31 76 39 102q4 12 10 25q10 33 18 49q8 23 13 35q8 18 16 37q29 61 41 92q27 66 80 176q111 238 174 352q51 100 78 133q23 31 37 31t45 45q4 4 4 10q0 8 -25 8q-45 -6 -84 -6h-82q-94 0 -162 8q-33 0 -38 -20v-12q0 -23 22 -23q31 0 45 -37 q6 -8 6 -32q0 -35 -20 -113q-31 -113 -156 -365q-23 -45 -45 -98q-2 -4 -4 -12q-18 -49 -31 -74q-6 -23 -16 -22l-4 2q-12 12 -15 20q-43 117 -129 354q-72 211 -114 359q-12 37 -31 59q-18 25 -51 25t-53 -27q-20 -33 -27 -61q-27 -141 -88 -336q-58 -174 -111 -342 q-8 -31 -20 -31q-8 0 -23 27q-4 10 -10 28q-12 27 -16 41q-2 6 -6 13q-20 45 -35 73q-135 274 -164 381q-25 80 -25 121q0 6 2 16q2 6 2 9q12 33 41 32q14 0 15 15q0 12 -6 26q0 8 -7 9l-6 -2l-18 -7q-25 -2 -117 -2h-117q-31 0 -80 4q-27 4 -81 9q-25 0 -25 -11z" />
<glyph unicode="x" horiz-adv-x="1554" d="M41 313q0 -4 20 -4q14 2 41 2t39 2q49 4 80 4q41 0 121 -6q31 -2 92 -6q12 -2 23 -2q29 0 47 19q16 16 16 26t-18 10q-39 0 -51 25q-6 4 -7 16q0 29 37 93q43 78 248 282q16 18 35 19q14 0 33 -19q180 -203 221 -280q31 -61 31 -93q0 -10 -5 -18q-14 -27 -49 -27 q-20 0 -20 -12q0 -2 8 -14l4 -8q16 -18 47 -19q2 0 13 2q61 4 124 6q96 6 140 6q53 0 176 -8h6q20 0 20 6t-6 13q-31 33 -55 47q-25 10 -74 49q-49 37 -149 141q-98 98 -283 320q-29 29 -28 55q0 23 24 53q197 207 287 287q88 80 129 106q35 25 49 25q6 2 18.5 11.5 t26.5 25.5l4 6q4 4 4 6q0 6 -20 6q-88 -8 -183 -8q-68 0 -110 4q-78 4 -109 8q-27 0 -47 -20q-10 -14 -10 -23q0 -10 18 -14q35 -6 54 -29q8 -8 8 -26q0 -20 -19 -62q-31 -68 -178 -209q-33 -33 -51 -32q-14 6 -45 37q-143 152 -176 217q-23 45 -23 67q0 12 6 19 q12 20 43 24q16 0 17 11q0 8 -12 20q-16 20 -45 20q-23 -4 -74 -6l-41 -4q-49 -2 -119 -2q-96 0 -184 8q-12 0 -17 -12q0 -18 4 -22q35 -31 48 -31q12 0 51 -27q39 -33 123 -119q86 -92 270 -307q16 -16 16 -39q0 -18 -20 -39q-209 -217 -328 -329q-113 -104 -151 -138 l-6 -4q-47 -33 -56 -34q-16 -4 -47 -37q0 -4 -4 -6q-2 -6 -2 -9z" />
<glyph unicode="y" horiz-adv-x="1552" d="M41 1452l2 -4q29 -39 55 -55q18 -8 70 -58q39 -37 125 -145q70 -90 213 -320q80 -123 117 -186q14 -27 14 -43q0 -10 -2 -14q-4 -6 -12 -19q-8 -10 -13 -16q-74 -92 -131 -156q-45 -45 -65 -55q-20 -14 -35 -14q-16 -4 -41 -29q-2 -2 -2 -10q0 -4 2 -11q6 -8 18 -8 q23 2 47 2q37 2 46 2h10q53 4 82 4q43 0 100 -6q14 -2 33 -4q49 -4 67 -6q33 0 43 16q10 10 11 27q0 14 -21 14q-33 2 -49 41q-2 4 -2 19q0 43 39 123q45 104 237 348q166 215 293 362q80 94 131 138q33 29 45 28q8 0 39 39q4 4 4 10q0 8 -20 9q-61 -4 -90 -9q-45 -6 -88 -6 q-27 0 -84 2q-14 2 -23 2q-27 2 -80 6l-22 3q-33 0 -45 -19q-4 -8 -4 -20q0 -18 24 -19q37 -2 51 -43v-18q0 -43 -38 -127q-49 -102 -252 -357q-31 -39 -47 -39q-18 0 -37 23q-8 8 -11 12q0 4 -6 11q-2 2 -2 4q-195 268 -241 364q-47 88 -47 139q4 29 40 29q27 0 27 23 q0 4 -2 8q-2 6 -2 10q-8 18 -45 19q-31 -4 -111 -9q-18 0 -26 -2q-61 -2 -88 -2q-55 0 -78 2q-49 4 -82 8q-18 0 -29 -8q-12 -6 -12 -10z" />
<glyph unicode="z" horiz-adv-x="1462" d="M41 340q0 -4 2 -8t2 -8q12 -23 45 -23q98 4 217 6t297 2q340 -4 516 -4q43 0 64 8q25 14 47 37q37 43 65 68q27 27 86 65q37 23 39 54q0 34 -44 34h-3q-31 0 -57 -20q-27 -20 -49 -37q-72 -41 -191 -72q-106 -25 -209 -36q-111 -14 -170 -17q-33 -2 -63 -4h-17 q-66 0 -98 2q-35 0 -67 -2h-29q-16 0 -16 16q6 18 10 23q94 123 190 223q135 147 201 223q102 119 242 269q96 104 268 264q33 27 33 45q0 16 -39 16q-121 0 -226 -2q-209 -4 -317 -6h-289q-129 0 -135 10q-37 0 -74 -49t-53 -71q-18 -23 -65 -70q-20 -16 -21 -39 q2 -20 33 -20q29 0 61 22l6 4q33 23 48 37q49 41 221 80q129 31 303 31q39 0 113 -5h10q2 0 12 -2q14 -2 29 -4q16 0 16 -14q0 -8 -10 -23q-84 -111 -178 -213q-31 -35 -97 -106q-66 -72 -98 -109q-125 -137 -256 -274t-285 -266q-20 -16 -20 -35z" />
<glyph unicode="{" horiz-adv-x="454" d="M41 952q0 -55 72 -104t73 -103q16 -328 80 -561q62 -234 148 -293q-53 131 -95 363q-41 227 -49 504q-2 51 -71 98q-72 43 -72 98q0 47 70 103q70 53 71 100q10 285 49 514q41 242 97 375q-84 -57 -150 -301q-63 -244 -80 -580q-4 -51 -71 -104q-72 -55 -72 -109z" />
<glyph unicode="|" horiz-adv-x="147" d="M41 49h65v1755h-65v-1755z" />
<glyph unicode="}" horiz-adv-x="454" d="M41 -109q86 57 149 293q63 238 78 561q2 53 74 103q72 49 72 104q0 53 -70 109q-70 55 -74 104q-14 332 -77 580q-66 244 -152 301q55 -133 96 -375q39 -238 47 -514q4 -45 74 -100t70 -103q0 -55 -70 -98q-70 -49 -74 -98q-12 -274 -49 -504q-41 -232 -94 -363z" />
<glyph unicode="~" horiz-adv-x="718" d="M41 1624q39 74 86 133q43 51 86 51q59 0 129 -110q10 -16 25 -39q6 -11 12 -21q0 -2 6 -14v2q68 -96 121 -96q43 0 86 53q45 53 86 131v17v18v14v17q-45 -82 -86 -133q-43 -51 -86 -52q-57 0 -127 109l-8 12q-23 37 -31 49q-4 12 -6 15v-2q-66 96 -121 96q-45 0 -86 -53 q-45 -53 -86 -131v-17v-16v-19v-14z" />
<glyph horiz-adv-x="354" d="M41 1694q0 -99 41 -156q43 -61 76 -61q6 0 6 8q0 14 -21 53q-10 25 -26 92q27 -14 59 -14q59 0 98 45q39 43 39 108q0 66 -39 107q-39 45 -98 45q-113 0 -131 -156q-4 -25 -4 -71z" />
<glyph horiz-adv-x="356" d="M41 1769q0 -63 41 -108q39 -45 96 -45q33 0 60 14q-6 -29 -23 -76l-4 -16q-23 -41 -23 -53q0 -8 9 -8q32 0 75 61q43 55 43 158q0 45 -4 69q-18 156 -133 156q-57 0 -96 -45q-41 -43 -41 -107z" />
<glyph horiz-adv-x="653" d="M41 1694q0 -99 41 -156q43 -61 76 -61q6 0 6 8q0 14 -21 53q-10 25 -26 92q27 -14 59 -14q59 0 98 45q39 43 39 108q0 66 -39 107q-39 45 -98 45q-113 0 -131 -156q-4 -25 -4 -71zM338 1696q0 -103 43 -158q43 -61 76 -61q6 0 6 8q0 14 -21 53q-10 25 -26 92 q27 -14 59 -14q59 0 98 45q39 43 39 108q0 66 -39 107q-39 45 -98 45q-115 0 -133 -156q-4 -25 -4 -69z" />
<glyph horiz-adv-x="653" d="M41 1769q0 -63 41 -108q39 -45 96 -45q33 0 60 14q-6 -29 -23 -76l-4 -16q-23 -41 -23 -53q0 -8 9 -8q32 0 75 61q43 55 43 158q0 45 -4 69q-18 156 -133 156q-57 0 -96 -45q-41 -43 -41 -107zM340 1769q0 -63 41 -108q39 -45 94 -45q35 0 62 14q-6 -29 -23 -76l-4 -16 q-23 -41 -23 -53q0 -8 9 -8q30 0 75 61q41 53 41 156q0 47 -4 71q-18 156 -133 156q-55 0 -94 -45q-41 -43 -41 -107z" />
<glyph unicode="&#xa3;" horiz-adv-x="1349" d="M41 45q0 -14 8 -25q16 -23 33 -22q207 14 450 20q147 0 270.5 -4t248.5 -12q53 0 75 47q10 25 33 92q16 57 31 90q20 53 53 99q27 39 57 98q8 12 9 31q0 8 -2 20l-2 6q-12 29 -43 29q-76 0 -107 -65q-84 -133 -235 -166q-158 -33 -367 -37q-88 0 -88 67v11q2 10 2 14 q20 113 45 203q25 102 25 204q0 41 -13 111h92h201l-20 70h-285q-23 100 -49 188q-25 86 -25 176q0 102 49 201q27 68 97 121q59 51 96 59q49 8 111 8q51 0 110 -26q47 -20 51 -27q0 -10 -24 -45q-41 -70 -41 -145q0 -98 59 -170q57 -70 144 -70q84 0 141 70q59 72 59 170 q0 66 -28 123q-63 150 -218 237q-156 90 -344 90q-193 0 -331 -102q-139 -102 -197 -250h-2q-43 -129 -47 -244q0 -88 22 -178q20 -72 45 -186h-79l20 -70h72q10 -68 10 -111q0 -180 -49 -352q-55 -184 -119 -330q-4 -4 -4 -18z" />
<glyph unicode="&#xad;" d="M41 571h870v64h-870v-64z" />
<glyph unicode="&#x2000;" horiz-adv-x="1034" />
<glyph unicode="&#x2001;" horiz-adv-x="2068" />
<glyph unicode="&#x2002;" horiz-adv-x="1034" />
<glyph unicode="&#x2003;" horiz-adv-x="2068" />
<glyph unicode="&#x2004;" horiz-adv-x="689" />
<glyph unicode="&#x2005;" horiz-adv-x="517" />
<glyph unicode="&#x2006;" horiz-adv-x="344" />
<glyph unicode="&#x2007;" horiz-adv-x="344" />
<glyph unicode="&#x2008;" horiz-adv-x="258" />
<glyph unicode="&#x2009;" horiz-adv-x="413" />
<glyph unicode="&#x200a;" horiz-adv-x="114" />
<glyph unicode="&#x2010;" d="M41 571h870v64h-870v-64z" />
<glyph unicode="&#x2011;" d="M41 571h870v64h-870v-64z" />
<glyph unicode="&#x2012;" d="M41 571h870v64h-870v-64z" />
<glyph unicode="&#x2013;" horiz-adv-x="1106" d="M41 571h1024v64h-1024v-64z" />
<glyph unicode="&#x2014;" horiz-adv-x="2130" d="M41 571h2048v64h-2048v-64z" />
<glyph unicode="&#x202f;" horiz-adv-x="413" />
<glyph unicode="&#x205f;" horiz-adv-x="517" />
<glyph unicode="&#x25fc;" horiz-adv-x="1474" d="M0 0v1475h1475v-1475h-1475z" />
</font>
</defs>
</svg>
