<?xml version="1.0" standalone="no"?>
<!DOCTYPE svg PUBLIC "-//W3C//DTD SVG 1.1//EN" "http://www.w3.org/Graphics/SVG/1.1/DTD/svg11.dtd" >
<svg xmlns="http://www.w3.org/2000/svg">
<metadata></metadata>
<defs>
<font id="boltonshadowedregular" horiz-adv-x="1013" >
<font-face units-per-em="2048" ascent="1638" descent="-410" />
<missing-glyph horiz-adv-x="819" />
<glyph horiz-adv-x="0" />
<glyph horiz-adv-x="682" />
<glyph unicode=" "  horiz-adv-x="819" />
<glyph unicode="&#x09;" horiz-adv-x="819" />
<glyph unicode="&#xa0;" horiz-adv-x="819" />
<glyph unicode="!" horiz-adv-x="405" d="M41 139q0 57 37 98.5t94 41.5t97 -41t40 -99q0 -57 -40 -98t-97 -41t-94 42t-37 97zM49 1116v96q0 86 7 179.5t22.5 172t41 127t58.5 48.5q53 -2 92 -160q29 -119 29 -328v-135h-8q-8 -207 -25 -391q-16 -217 -16 -385l-27 14q-39 20 -51 21q-12 0 -47 -21 q-18 -10 -33 -18zM141 0q35 -35 86 -35q55 0 96.5 41t41.5 96q0 35 -14.5 56.5t-47.5 52.5l-20 20l12 -12q39 -39 39 -98q0 -57 -39 -97t-96 -40q-31 0 -56 12zM147 336q35 20 48 20q12 0 47 -18q27 -12 32 -16q0 170 17 387q0 6 4 53q10 102 17 180t7 121q0 31 -4 33l7 -2 v71v68q0 174 -16.5 283.5t-65.5 179.5q45 -6 86 -158q27 -104 26 -328v-135q0 -102 -18 -313q-4 -55 -6 -78q-18 -203 -19 -385q-16 6 -47 23q-27 12 -37 12t-41 -19q-10 -6 -32 -18z" />
<glyph unicode="&#x22;" horiz-adv-x="532" d="M41 1577v129l2 2h147v-129q0 -92 -13 -132t-56 -40q-39 0 -58 31q-23 37 -22 139zM137 1382h2q14 -27 54 -26q33 0 51 30q18 31 18 140v129h-41v-105q0 -90 -13 -130t-56 -40q-10 0 -15 2zM272 1706h150v-129q0 -92 -13.5 -132t-56.5 -40q-37 0 -55 31q-23 37 -23 139 v129zM369 1382q4 -2 12 -2q35 0 53 31t19 139v105h39v-129q0 -90 -13.5 -130t-56.5 -40q-39 -1 -53 26z" />
<glyph unicode="#" horiz-adv-x="1032" d="M41 420v55h289l12 98h-219v31h223l4 27h-309v57h317l48 340h61l-51 -340h41l41 285h51l-41 -285h59l49 340h62l-51 -340h41l41 285h51l-41 -285h190v-57h-291l-20 -156h41l16 129h291v27h45v-58h-291l-12 -98h221v-55h-315l-49 -326h-58l37 268h-59l-47 -323h-60l4 31h9 l47 323h112l2 27h-149l-47 -326h-60l39 268h-192v31h196l5 27h-283zM387 475h41l16 129h113l4 27h-153zM477 475h64l14 98h-66zM569 39l4 31h9l47 323h317v27h45v-58h-315l-47 -323h-60z" />
<glyph unicode="$" horiz-adv-x="1187" d="M41 231v248q0 47 41 47q31 0 45 -19.5t27 -55.5q6 -25 12 -33q18 -61 67.5 -130t110.5 -106q-41 41 -77 98.5t-52 104.5q-12 16 -22 66l2 2q33 0 47 -20.5t26 -61.5q6 -18 11 -29q29 -78 92 -158l18 -20q25 -12 49 -19l41 416q-63 18 -100 41q-27 6 -68 35q-33 23 -51 27 l8 -2q23 -14 58 -21q16 -10 55 -23q29 -8 45 -14l31 -12h4q14 -6 26 -8l2 20l-10 2q-14 4 -41 10q-115 31 -188.5 61t-118.5 83q-51 57 -51 145q0 160 121 215q96 43 215 43h61v2q12 -4 39 -4t27 -4l20 234h45l-22 -236q35 -6 73 -12l15 174h45l-19 -184l11 -3 q55 -16 104 -37.5t55 -50.5q8 -35 29 -86q20 -51 27 -86v-12q0 -35 -35 -35q-20 0 -37 19l-27 26q-25 35 -60.5 55.5t-86.5 37.5l-16 -162q92 -29 208 -84q78 -37 122 -115t44 -186q0 -184 -153 -293q-158 -115 -324 -115h-90l-4 -26h2h2l-2 -29h-6h-2l-19 -162h-45l19 174 q-12 2 -51 16.5t-75 29t-62.5 29.5t-26.5 23q0 -6 26.5 -16t68.5 -23.5t79 -22.5t45 -11l4 24q-68 10 -134.5 28.5t-122.5 45.5t-91 63.5t-35 81.5zM270 977q0 -10 15.5 -41t23.5 -31q10 0 10 37q0 43 49.5 63.5t112.5 20.5h21q14 -2 16 -2l2 25q-41 14 -86 14 q-72 -6 -118 -23.5t-46 -62.5zM381 903q0 -16 10 -33v-2q6 -2 19 -6l6 -2q10 -2 39 -10q27 -6 47 -10l12 145q-57 -6 -95 -22.5t-38 -59.5zM483 135h72l39 397l-4 3q-14 2 -15 4l3 24q72 -18 129 -37h2h2l-15 8q-16 7 -47 19t-54.5 22.5t-31.5 12.5q-10 2 -39 10l-2 -25h4 q6 0 6 -2l-2 -24q-4 2 -6 2zM510 -68l2 2l4 33q23 -2 92 -2q166 0 324 115q154 109 153 293q0 31 -9 76t-23.5 87t-33 70.5t-38.5 28.5q78 -39 122 -117t44 -184q0 -186 -154 -295q-164 -115 -323 -115q-68 0 -92 2l-23 -219h-45l22 225h-22zM549 823l12 -2q37 -8 49 -12 l6 -2v6l17 162h-10q-6 0 -7 2l2 22q72 -20 148 -67l6 -4q-27 23 -55 37q-76 47 -148 67l-2 -20q4 -2 6 -2l-2 -29h-6h-2zM592 133h2l39 387q23 -6 63 -18l4 -2q39 -12 45 -13l13 -12q37 -47 37 -123q0 -86 -60.5 -148.5t-142.5 -70.5zM911 1012q53 -27 77 -78t40 -125 q2 -10 2 -14v-13q0 -33 -37 -32q-12 0 -31.5 14t-25.5 27l2 -9q33 4 33 37v12l-2 9q-14 59 -28.5 108t-29.5 64z" />
<glyph unicode="%" horiz-adv-x="1187" d="M41 883q0 117 82 198q84 84 203 84q6 0 51 -5t45 -7q164 -70 301 -70q20 0 58 2t82 8.5t82 17.5t46 30l4 8h21q4 0 6 2l6 2v-4h8l-8 -14v-2q0 -4 -6 -5l-2 -2l-72 -90q6 0 14.5 1t12.5 5l-25 -30l-6 -2q-6 -2 -18 -2l-236 -295q-14 -39 -63 -88q-25 -25 -39 -41 l-471 -588h-41l440 551q-37 -14 -92 -15q-10 0 -40 9.5t-62.5 20.5t-56 21.5t-23.5 12.5l-4 -2q63 -29 129 -29q115 0 200 84q84 84 84 203q0 127 -94 215q66 -18 137.5 -31.5t122.5 -13.5q14 0 51 2q6 0 27 2l63 82q-127 -45 -237 -45q-88 0 -203 35q94 -88 94 -215 q0 -119 -84 -203q-86 -86 -202 -86q-119 0 -203 86q-82 82 -82 203zM168 -63l313 393q14 80 82 147q37 41 86 62l406 510q-2 -2 -23 -9l-4 -2l-24 -6l24 33q4 0 12 4q10 2 25 6l18 6l7 13h20q12 0 12 4v-6h11l-11 -19q0 -4 -2 -4t-4 -2h-2l-409 -512q6 0 14 2q33 2 45 2 q119 0 203 -84t84 -201q0 -115 -84 -198q-82 -82 -203 -82q-119 0 -201 82q-84 84 -84 196l-270 -335h-41zM199 883q0 -80 26.5 -147.5t77.5 -88.5q-2 4 -8 12q-14 18 -19 27q-37 66 -36 166q0 49 4 89t17 76t38 57.5t63 21.5q23 0 35 -6l4 -3q-29 35 -79 35q-72 0 -97 -69 q-27 -68 -26 -170zM293 819q0 -111 43 -170l-2 -2q57 4 84.5 74t27.5 164q0 55 -6 107t-24 71q-70 0 -99 -74q-25 -74 -24 -170zM612 1030q96 -86 97 -213q0 -25 -2 -29l170 211h2q-14 -2 -58 -2q-102 0 -209 33zM641 272q0 -78 25.5 -146.5t76.5 -84.5q-14 16 -24 37 q-37 66 -37 166q0 45 5 86t18.5 76.5t39 56t62.5 20.5q17 0 37 -6q-29 35 -80 35q-72 0 -98 -70q-25 -70 -25 -170zM678 -4q59 -31 129 -31q121 0 203 82q84 84 84 201q0 66 -26 116t-79 103q72 -39 115 -106.5t43 -149.5q0 -119 -84 -203q-82 -82 -203 -82q-14 0 -44 5.5 t-62.5 13.5t-54 20t-21.5 27v4zM737 207q0 -37 23 -101q14 -47 14 -65v-6q0 -2 2 -2v4q59 4 86 73.5t27 159.5q-4 119 -27 172v2q-70 0 -98 -71q-27 -66 -27 -166z" />
<glyph unicode="&#x26;" horiz-adv-x="1503" d="M41 580q0 100 33 194q66 184 209 289q23 16 22 41q0 16 -12 47q-76 150 -76 270q0 57 8 74q33 141 230 203q51 10 84 10q16 0 45 -4l-4 16q51 0 104 -28q37 -20 70.5 -63.5t33.5 -84.5q0 -29 -14 -52.5t-43 -53.5q-27 -29 -41 -51.5t-16 -51.5q-4 -18 -22.5 -33.5 t-37.5 -15.5q-16 0 -30.5 24.5t-14.5 53.5q0 10 4 27q4 10 5 14v12q0 6 -3.5 14.5t-7.5 8.5t-8 -4q-16 -8 -29.5 -21.5t-13.5 -25.5v-13q0 -31 20.5 -79t38.5 -80q2 0 3 -3q10 2 57 13q29 6 52.5 11t23.5 7q0 35 20.5 69t56.5 79q33 37 48.5 61.5t15.5 48.5q0 20 -20.5 61.5 t-36.5 49.5l24 -12q37 -20 71 -63.5t34 -82.5q0 -31 -14.5 -54.5t-43.5 -53.5q-27 -29 -41 -50.5t-16 -52.5q6 0 17.5 -2t27.5 -5t36.5 -6t24.5 -3q33 -2 50.5 -15.5t29.5 -37.5q10 -16 52 -66q29 -33 44 -53.5t15 -32.5q0 -10 -19 -16l-12 -7q-8 0 -16 5l35 -27 q-68 33 -136 47q-55 14 -129 14q-57 0 -90.5 -6t-33.5 -26q0 -6 6 -17q4 -8 4 -10l30 -55q6 -12 35 -56l37 -61q59 -98 119.5 -193.5t105.5 -162.5q49 -72 66 -101q31 47 55.5 94.5t24.5 79.5l-4 25q0 33 28 43h2q8 0 13 2q4 2 12 2q16 0 16 -29v-61q0 -6 2 -37l3 -14v-6 q6 -92 18 -117q0 -14 -16.5 -32.5t-47.5 -47.5q-29 -25 -42 -39t-13 -27q0 -8 6 -12q31 -35 60.5 -60.5t36.5 -25.5q0 4 -39 47q-6 4 -6 13q0 16 13 31.5t44 39.5q29 25 43 41.5t14 32.5q-14 37 -16 117l-2 47q0 33 28 43h2q6 0 13 2q4 2 10 2q18 0 18 -27v-63q0 -6 2 -37 l3 -14v-7q4 -86 16 -116q0 -20 -17.5 -41t-52.5 -49q-47 -41 -47 -56q0 -6 4 -10l2 -2l19 -21q6 -8 11 -14t7 -6h-6q-4 0 -6 2l6 -12q2 -4 6 -10q6 -12 6 -19q0 -4 -45 -4q-33 0 -80 2t-71 2q-27 2 -29 2q-6 0 -37 -2q-68 -8 -104 -8q-37 0 -61.5 6t-32.5 21q-10 16 -29 16 h-12q-115 -35 -197 -35q-127 0 -270 66q-227 109 -303 344q-25 78 -25 166zM301 741q0 -113 43 -247q33 -104 92.5 -186.5t138.5 -121.5q-119 94 -174 265q-43 127 -43 249q0 61 12.5 114.5t39.5 88.5l18 25v4q-6 6 -16 22q-16 25 -27 25q-14 0 -33 -35q-51 -82 -51 -203z M379 55l2 2q78 -61 182.5 -97t198.5 -36q31 0 92 17q70 16 104 16h13q18 0 37 -20q20 -23 43 -23q102 12 186 12q10 0 63 -4q86 -4 121 -4q41 0 41 6q0 29 -29.5 54.5t-37.5 25.5q-16 0 -27 6q6 -6 13.5 -17t7.5 -18q0 -6 -43 -6q-25 0 -59 2t-64 4q-53 2 -60 2 q-12 0 -53 -4q-66 -6 -98 -6q-31 0 -53.5 5t-30.5 20q-8 14 -31 14h-16q-100 -33 -197 -33q-78 0 -158 20.5t-147 61.5zM389 1448q0 -18 15.5 -59t29.5 -72l19 -31q14 -35 36.5 -67.5t45.5 -32.5h2h4v-2q-16 16 -32.5 50t-30 70.5t-23 66.5t-9.5 36v12q8 23 28 38.5t42 15.5 q10 0 25 -3h2l-4 3q-12 10 -23 18q-33 25 -57 25q-18 0 -44 -18.5t-26 -37.5v-12zM430 645q0 -119 43 -248q4 -10 24.5 -49t48 -85t48 -76.5t27.5 -30.5l2 4q76 -35 147 -35h37q37 0 37 33q0 29 -25.5 78t-66.5 118q-20 35 -31 52q-98 178 -234 407q-4 14 -10 14 q-8 0 -16 -19.5t-15.5 -52t-11.5 -62t-4 -48.5zM578 1087q0 -14 6 -24l4 -6q27 -41 82 -137q41 -72 55 -97q102 -178 184 -295q35 -49 80 -125q47 -76 72 -106l4 -4q6 0 18 12l2 2q-29 43 -61.5 94.5t-54.5 87.5q-88 133 -185 295l-6 11q-18 35 -30 53q-12 20 -37 57 q-39 53 -56.5 85t-17.5 54q0 18 29 25q25 8 96 8q74 0 129 -14q37 -6 84 -21.5t59 -27.5q-135 104 -329 104q-59 0 -93 -6t-34 -25zM1053 1126v7q27 -2 41 -13.5t32 -38.5l2 -2q8 -14 46 -57q31 -37 47 -59.5t16 -32.5q0 -12 -16 -19l-13 -4q-6 0 -22.5 10.5t-34.5 22.5 q-25 16 -27 16l-4 -4h6h7l12 4q16 6 16 19q0 14 -45 59q-29 29 -46 50.5t-17 41.5z" />
<glyph unicode="'" horiz-adv-x="272" d="M41 1579v129h147v-129q0 -92 -13 -131t-58 -39q-39 0 -58 31q-18 31 -18 139zM113 1391v2l2 2q2 -2 20 -2q35 0 53 30q18 31 19 140v110h24v-129q0 -88 -14 -130t-59 -42q-6 0 -25.5 7t-19.5 12z" />
<glyph unicode="(" horiz-adv-x="368" d="M41 879q0 358 65 643q66 274 164 336q-68 -152 -106 -408q-41 -274 -41 -571t41 -572q43 -272 106 -403q-98 57 -164 332q-66 285 -65 643zM147 862q0 295 41 572l5 30q23 152 48 234t87 123q-63 -143 -105 -406q-41 -276 -41 -571q0 -297 41 -572q41 -264 105 -405 q-20 14 -37 31l2 -4q-66 147 -105 395q-41 276 -41 573z" />
<glyph unicode=")" horiz-adv-x="374" d="M41 -78q66 145 104 406q41 264 41 571q0 303 -41 571q-39 262 -104 412q98 -63 166 -338q68 -272 67 -643q0 -371 -67 -645q-16 -70 -53 -140.5t-84 -146.5q-29 -43 -29 -49v2zM100 -123q2 4 17 47q4 10 12 34l8 24h2q53 84 92 256q68 276 68 643q0 365 -68 643 q-16 63 -37.5 113.5t-52.5 107.5q-29 57 -37 82l-2 6q-2 4 -2 6q98 -61 166 -336q68 -279 68 -645q0 -367 -68 -643q-68 -274 -166 -338z" />
<glyph unicode="*" horiz-adv-x="423" d="M43 1370q0 10 25 43q35 45 79 90q-37 37 -70.5 78t-33.5 55l2 4l4 2q14 0 113 -81v2l-2 6q-8 6 -21.5 16t-21.5 19q14 -6 43 -29q4 129 20 129t25 -137q8 8 18 16l6 4q-2 6 -2 31q6 41 15 41q8 0 18 -47q39 33 55 33l7 -5q0 -12 -25 -43q-33 -45 -80 -92 q10 -10 28.5 -30.5t37 -44t29 -39t10.5 -21.5l-3 -2h-6q-37 0 -47 -18.5t-10 -49.5t-12 -30q-12 0 -19 65q0 4 2 11q4 43 6 77l-26 27q-8 -137 -25 -137q0 2 -28.5 6t-47.5 8l-2 4q0 10 25 41l6 6l16.5 16.5t10.5 12.5v41q-94 -82 -113 -82h-4zM244 1483q37 41 75.5 77.5 t55.5 36.5l6 -4q0 -12 -25 -43q-33 -45 -80 -92q12 -12 31 -33.5t35 -42t27.5 -37t11.5 -22.5l-8 -4q-12 0 -43 24l2 3q4 -2 8 -3l8 5q0 10 -24 43q-33 47 -80 92z" />
<glyph unicode="+" horiz-adv-x="1032" d="M41 520v58h405v407h60v-407h35v354h45v-354h323v-58h-403v-403h-60v350h-325v29h325v24h-405zM528 59v31h13v406h403v26h47v-55h-405v-408h-58z" />
<glyph unicode="," horiz-adv-x="376" d="M41 137q0 57 38 98t93 41q57 0 95 -36.5t38 -104.5v-37q0 -27 -10 -59.5t-29 -79.5q-23 -57 -22 -70l2 -6q-43 -57 -74 -57q-2 0 -2 4q0 8 5 25.5t20 56.5q12 39 12 43q0 12 -12.5 19.5t-36.5 15.5q-29 8 -35 14q29 -16 61 -16q-10 10 -12 10q-57 0 -94 42t-37 97z M197 -190q0 -4 2 -5q2 0 14 19q14 23 25.5 36t21.5 13l-4 2q27 37 44 95.5t17 115.5v41q-8 80 -49 115q29 -16 48.5 -51t19.5 -78v-41q0 -43 -11.5 -90.5t-31 -87t-44 -64.5t-50.5 -25q-2 0 -2 5z" />
<glyph unicode="-" d="M41 520v58h868v-58h-868zM100 479v23h838v35h35v-58h-873z" />
<glyph unicode="." horiz-adv-x="372" d="M41 139q0 57 37 98.5t94 41.5t97 -41t40 -99q0 -57 -40 -98t-97 -41t-94 42t-37 97zM117 10q33 -27 80 -26q57 2 96 43t39 98q0 39 -19.5 66.5t-31.5 39.5q39 -39 38 -98q0 -59 -38.5 -98t-98.5 -39q-37 0 -65 16v-2z" />
<glyph unicode="/" horiz-adv-x="837" d="M41 47l596 1593h65l-596 -1593h-65zM135 -16l12 32l584 1563h66l-596 -1595h-66z" />
<glyph unicode="0" horiz-adv-x="1529" d="M41 854q0 352 215 604q219 252 442 252v4q227 0 447 -231q215 -229 215 -627q0 -389 -209 -627q-205 -229 -453 -229q-238 0 -450 252q-207 250 -207 602zM334 780q0 -250 96 -454q68 -141 156 -187q-51 53 -99 148q-96 199 -96 454v72q12 309 94 518q80 213 260 215 q4 0 27 -3t45.5 -7t39.5 -10t17 -10l-2 -5q-78 72 -184 72q-176 -2 -260 -215q-43 -113 -68.5 -244t-25.5 -272v-72zM467 694q0 -250 96 -454q4 -10 14.5 -30t20.5 -38t19.5 -31.5t15.5 -13.5h-2q25 -6 59 -6q154 12 248 209q49 104 79 240.5t30 285.5v92q0 270 -82 436 q-33 68 -58.5 90.5t-85.5 22.5q-180 0 -260 -215q-43 -115 -68.5 -244t-25.5 -272v-72zM520 18h2q115 -61 234 -61q248 0 452 229q207 231 209 627q0 395 -215 625l-12 12q-37 41 -64.5 66.5t-52.5 33.5q45 -14 94.5 -57t106.5 -104q215 -229 215 -623q-2 -395 -209 -629 q-205 -229 -453 -229q-160 0 -307 110z" />
<glyph unicode="1" horiz-adv-x="874" d="M41 1147q0 31 28.5 55.5t90.5 61.5q33 20 41 26q72 47 129 108.5t92 125.5l12 20q4 8 29 53q33 63 52.5 85t53.5 22h13q31 -6 30 -45q0 -6 -4 -23q-8 -23 -8 -37v-157q0 -33 -2 -62q-2 -127 -2 -178v-418q0 -381 20 -501q10 -86 35 -155t45 -69q4 0 9 4l2 3l-2 2 q-27 45 -41.5 144t-18.5 222q-4 209 -4 322v415l6 240v160q14 29 15 55q0 12 -3 12h25q31 -6 31 -45q0 -27 -15 -57v-162q-2 -25 -2 -114v-367q-2 -27 -2 -102v-72q0 -100 2 -209t7.5 -217.5t18.5 -183t34 -74.5h-2q-6 -2 -11 -2q-2 0 -4 2v-12q0 -12 -20.5 -17.5 t-56.5 -5.5q-29 0 -103 4q-55 4 -72 4h-55t-61 -4q-8 0 -43 -4q-47 -6 -70 -6q-37 0 -37 12v12q8 35 18.5 47.5t26.5 18.5q16 8 26.5 17.5t22.5 33.5q25 47 41 197q12 104 13 323v459q-14 -6 -52 -37q-31 -25 -49 -36t-30 -11h-23q-23 0 -36 7t-27 24l-4 4h34q16 4 25 12 l14 10q27 23 62 41l61 37h-4q12 4 18 4q2 0 2 2t-9 12.5t-15 12.5q-12 4 -21 4q-25 0 -59.5 -20.5t-79.5 -53.5q-39 -29 -45 -28q-6 0 -12 -2t-12 -2q-27 0 -47.5 18t-20.5 35zM311 -43q2 6 2 10l4 -4q86 12 132 12q39 2 79 2q82 0 111 -2q47 -4 111 -12q31 0 30 27v12 q2 0 11 -2q10 -2 16 -2q14 0 20.5 -8t6.5 -35t-33 -27q-63 8 -111 13q-27 2 -108 2q-39 0 -86 -2q-31 -6 -105 -11q-35 -2 -45 -4q-35 0 -35 17v12v2z" />
<glyph unicode="2" horiz-adv-x="1386" d="M41 1251q0 203 174 334q176 129 420 129q195 0 332 -90q12 -8 42.5 -41t65.5 -73t62.5 -75.5t27.5 -37.5h2q45 -123 45 -244q0 -176 -94 -283q-94 -113 -235 -211q-143 -100 -283 -184q-33 -20 -74 -50t-80.5 -63.5t-65.5 -65.5t-26 -54q0 -10 7.5 -13.5t19.5 -3.5h37 l10 -4q2 2 47 49q53 55 94 92t97 74l141 92q2 2 61 41l80 56q135 92 234 211q96 109 96 280q0 6 -4 49t-9 86t-14.5 77t-19.5 34h-2q-51 117 -162 203q16 -6 33 -21q12 -8 43 -42t67.5 -77t61 -73.5t24.5 -34.5h2q47 -131 48 -246q0 -172 -97 -280q-98 -119 -233 -211 l-80 -56q-59 -39 -62 -41l-141 -92q-115 -74 -196 -164q170 6 266 21q178 23 256 162q35 61 92 61q18 0 28.5 -16.5t10.5 -36.5q0 -29 -13.5 -56.5t-41.5 -68.5q-35 -55 -45 -82q-8 -16 -25 -70q-18 -66 -39.5 -102.5t-64.5 -36.5h-13q-70 4 -162 8q-25 2 -41 2 q-47 2 -239 2q-18 0 -90 -6q-68 -6 -113 -9t-86 -3q-66 0 -104.5 10t-38.5 35q0 29 16 69t41 79.5t47.5 71.5t57.5 79l14 20q90 123 268 248l2 2q16 12 31 23q90 63 133 106q66 66 99.5 111t74.5 125q18 37 30.5 80t12.5 80q0 39 -7 87t-20.5 93t-33 76.5t-41.5 38.5l-19 6 q-33 6 -108 6q-121 0 -215 -94q-96 -96 -97 -209q0 -92 39 -162h13q96 0 159 55q16 16 37 17q49 0 49 -58v-14h-2q-4 -4 -6 -16q-57 -117 -252 -117q-100 0 -159 45q-94 59 -145.5 151.5t-51.5 210.5zM188 -29l2 -2q35 4 68 6q16 0 29 2q10 0 47 3q18 0 45 2q23 0 63 2 q74 4 115 4q229 0 455 -17q41 0 59.5 29t34.5 88l4 12q10 45 26.5 81t43.5 85q33 57 49 92q6 10 6 27v6q6 2 31 2q18 0 28.5 -15.5t10.5 -35.5q0 -31 -14.5 -59.5t-43.5 -69.5q-37 -51 -45 -76q-10 -23 -22 -71q-18 -68 -39 -102t-64 -34q-174 14 -454 15q-37 0 -134 -8 q-117 -10 -172 -11q-59 0 -94 10.5t-35 34.5zM231 1227q0 -14 3.5 -43t8.5 -57.5t13 -49t16 -20.5h2q2 -4 12.5 -13.5t28 -22.5t24.5 -18.5t11 -9.5l2 -2q-4 6 -11 15.5t-9 9.5h-2q-41 72 -41 172q0 117 94 211t215 94q76 0 104.5 -6t69.5 -31q-14 8 -49 31q-51 31 -72 37 q-35 8 -110 8q-119 0 -215 -96q-94 -94 -95 -209zM315 840l2 2l7 -4q59 -37 99 -54.5t95 -17.5q94 0 175 35t81 98h2q2 6 2 19q0 57 -51 57h-2q-16 -2 -16 -4v-13q0 -18 -2 -18h-2q-49 -133 -259 -133q-29 0 -80 9t-51 24z" />
<glyph unicode="3" horiz-adv-x="1478" d="M41 440q0 227 215 322q37 16 94 18q47 0 70.5 -6t23.5 -26v-23q0 -16 -17 -32.5t-52 -41.5q-51 -35 -60 -51q-33 -39 -32 -117v-47q0 -76 46 -152.5t120 -115.5q-47 18 -77 97t-30 132v47q0 74 31 117q8 14 59 49q37 25 55.5 41.5t18.5 32.5v8q43 -2 57.5 -11t14.5 -44 q0 -16 -20.5 -34.5t-59.5 -45.5q-47 -31 -56 -45q-31 -43 -30 -115v-49q0 -111 84 -201q49 -18 102 -18q182 0 295 143q66 82 94.5 178.5t28.5 208.5q0 59 -15.5 101.5t-48.5 103.5q-20 37 -28 54l-17 18q-61 25 -129 25q-27 0 -69 -15q-43 -16 -74 -16q-25 0 -25 31 q0 23 29 34t66 11q16 0 44.5 -2.5t56.5 -7.5t50.5 -13t26.5 -20q-8 23 -36 39t-65 26t-70.5 15.5t-58.5 5.5q-27 0 -69 -15q-43 -16 -74 -16q-23 0 -23 31q0 35 29 63q84 72 176 164q61 59 127 133h-82q-104 0 -196 -25.5t-119 -64.5q-49 -76 -115 -76q-29 0 -28 39l6 21 l-13 6q41 18 68 61q29 41 122 66.5t202 25.5h92q63 0 86.5 3t23.5 16v4q-2 2 -2 4l-2 4q-8 2 -35 6q-61 6 -129 6h-88q-100 0 -198.5 -25.5t-126.5 -64.5q-29 -39 -53.5 -57.5t-61.5 -18.5q-27 0 -27 39q2 37 25 60q16 20 65 104q49 82 81 127t59 45q172 -14 422 -14 q223 0 417 14q29 0 29 -18q0 -16 -19.5 -45t-48 -62t-50 -53t-60.5 -57l-14 -15q-14 -14 -48 -45q-53 -49 -78.5 -78.5t-25.5 -52.5q0 -25 35 -37q4 0 10 -2h4q4 0 8 6q2 8 9 15q47 57 108.5 121.5t108.5 105.5q6 4 41 39l16 16q43 41 55 68h23q51 0 51 -37q0 -27 -31 -57 l-155 -156q-10 -10 -37 -35q-47 -45 -75 -75.5t-36 -55.5q119 -66 185 -182q90 -156 90 -393q0 -121 -74 -236q-68 -111 -174 -203q-100 -88 -230 -143q-117 -51 -241 -51q-238 0 -393 139q-154 139 -154 305zM362 20q143 -113 361 -112q109 0 240 53q125 51 229 141 q102 90 172 203q74 115 74 234q0 236 -92 395q-12 23 -35 54.5t-48.5 61t-52 49t-49.5 19.5q12 0 29.5 -16.5t34 -39t27 -38.5t26.5 -43q92 -162 92 -397q0 -55 -19.5 -114.5t-54.5 -119.5q-68 -111 -174 -203q-106 -88 -229 -143q-121 -51 -240 -51q-158 0 -288 65z" />
<glyph unicode="4" horiz-adv-x="1449" d="M43 389q0 23 12.5 46.5t30.5 37.5q20 27 31 39q125 156 192 246l221 289q236 307 412 593q16 27 50 51.5t61 24.5q33 0 39 -41q4 -31 6 -30q-2 -45 -2 -203t-2 -203l-7 -203q-2 -68 -6 -198v-144q0 -86 2 -116q0 -41 10.5 -58.5t49.5 -17.5q-2 4 -2 37q-2 14 -2 116v68 q0 55 2 74q0 156 2 198q4 131 6 199q2 45 2 203q0 16 -2 71v62q0 41 5 65.5t20 26.5q20 -2 29 -16.5t16 -34.5q4 -16 8 -17q-2 -53 -2 -67q-2 -98 -2 -135q0 -158 -2 -203l-13 -406v-141q0 -104 2 -104h9q59 0 59 -56v-61q0 -55 -59 -55h-62q-53 0 -53 -60q8 -86 25.5 -128 t58.5 -72q8 -4 17 -23.5t9 -34.5q0 -27 -32 -26l-49 6q-14 2 -54 6q-51 6 -104 6q-27 0 -55.5 -1t-61.5 -3q-57 -4 -117 -12q-8 0 -20 8t-12 16q35 61 61 74l35 16q31 31 39 55.5t12 84.5h-631q-49 10 -53 49h684l-2 6q-2 39 -18 39q-12 2 -39 2h-703q-51 8 -51 55zM313 502 q0 -14 19 -15l45 2l6 7q90 135 238 325q29 35 69.5 91.5t80.5 118t66.5 112.5t26.5 76q0 20 -18 20q-12 -4 -31 -27q-6 -10 -12 -16q-100 -154 -240 -334q-10 -12 -41 -49q-47 -55 -76.5 -92t-60.5 -79t-51.5 -80t-20.5 -60zM479 492l348 8q33 0 33 55v125q0 23 -2 61 q-2 55 -2 82v172h-2q-82 -119 -166 -223q-96 -119 -209 -280zM842 -82q0 12 10 29l2 4q6 2 29 2h30q59 6 117 6q53 0 105 -6l55 -6q20 -4 51 -6q33 0 33 26q-2 25 -10.5 38t-24.5 28q-33 29 -45 59q-6 14 -18.5 55t-12.5 76q0 29 12.5 47.5t41.5 18.5h63q55 0 55 53v66v2v6 h15q59 0 59 -54v-63q0 -55 -59 -55h-62q-27 0 -40 -16.5t-13 -43.5q8 -86 25.5 -128t58.5 -72q29 -20 29 -45q0 -39 -60 -39h-10q-8 2 -14 2l-56 6q-63 6 -104 6q-39 0 -82 -2l-33 -2q-63 -6 -119 -12q-29 0 -28 20z" />
<glyph unicode="5" horiz-adv-x="1409" d="M41 389q0 184 109 270q92 74 227 74h49q45 0 45 -47q0 -45 -33 -49h-2q-170 -43 -170 -234q0 -119 86 -202q8 -8 31 -23q23 -16 31 -24l-6 6q-90 90 -91 209q0 186 170 233h2q35 4 35 47v2q4 -2 27 -2q45 0 45 -47q0 -43 -35 -47h-2q-170 -47 -170 -233q0 -109 70 -185 q53 -18 106 -18q88 0 164 37t135 104q98 111 99 315q0 188 -99 310q-27 33 -81 45t-111 12q-59 0 -110.5 -25.5t-110.5 -70.5q-59 -43 -78 -43q-51 0 -56 51l-16 -18q20 4 66 41q47 41 82 61q59 35 135 35q16 0 48 -2t65.5 -8.5t62 -17.5t39.5 -27q-14 27 -49 45t-77 29.5 t-80 16.5t-63 5q-59 0 -110 -26.5t-115 -74.5q-55 -41 -72 -41q-57 0 -57 60q0 125 14 239q8 57 9 164q0 39 -13 142q-12 111 -12 153q0 76 29 76l4 -2h4l6 -2q6 0 15.5 -1t9.5 -3v2q37 -4 104 -10q186 -20 277 -21h135q125 0 184 6t80 27q16 10 43 18q25 0 39 -8t14 -26 q0 -16 -20.5 -47t-59.5 -83q-41 -51 -47 -65q-20 -45 -51 -45q-18 -2 -43 -2h-2q-4 0 -12 2l-6 2q-125 8 -293 8h-111h-35l-35 2q-35 0 -56 -5t-21 -19q0 -8 2 -19v-6v-82q0 -8 -2 -31v-36q0 -25 4 -39.5t16 -14.5q6 0 23.5 4t17.5 7v24q-2 14 -2 51v80q-2 6 -2 27 q0 20 35 20q31 0 78 2q25 2 34 2h111q20 0 61 2q59 2 89 2q84 0 143 -14l8 -2q6 -2 8 -2h2q41 0 61.5 8t37.5 39q45 88 112 164l6 6q6 4 25 12l6 2q23 0 39 -8t16 -24q0 -18 -24.5 -57.5t-57 -79t-62.5 -70.5t-34 -33q-18 -2 -47 -2h-2q-4 0 -12 2l-4 2q-201 10 -295 10 h-111q-14 0 -65 -2q-20 -2 -41 -2h-6q-35 0 -35 -18q0 -10 2 -23v-6v-74v-2v-2q102 20 160 21q248 0 438 -178q178 -172 178 -467q0 -10 2 -19q2 -8 2 -18q0 -236 -184 -418q-193 -190 -449 -190q-240 0 -405 92q-162 92 -162 315zM279 31q168 -84 387 -84q252 0 448 190 q182 180 182 418v37q0 293 -178 465q-43 43 -43 47q2 0 17.5 -11.5t30 -23.5t37 -31.5t30.5 -25.5q178 -172 178 -467v-37q0 -236 -182 -418q-199 -193 -449 -192q-236 0 -405 96q-30 19 -53 37z" />
<glyph unicode="6" horiz-adv-x="1468" d="M41 733q0 168 68 318q78 172 202 313q131 143 287 240q156 96 309 96l4 4q72 0 72 -47q0 -14 -36 -36t-105 -52q-68 -33 -92 -47q-100 -63 -191 -154q-96 -96 -168 -227q-6 -12 -20.5 -48t-28.5 -80t-23.5 -86t-9.5 -71q0 -37 19 -41q14 0 30 16q8 8 15 13q14 143 76 258 q72 137 165 225q94 94 193 154q39 23 121 59q57 25 81.5 40t24.5 34h6q70 0 70 -47q0 -20 -21.5 -33.5t-50.5 -13.5q-88 -43 -185 -107.5t-167 -134.5q-94 -94 -166 -227q-29 -49 -47 -113q16 16 57 70q55 70 92 107.5t66 37.5q254 0 428 -149q176 -152 176 -439 q0 -248 -174 -420q-172 -174 -362 -176h-6q-4 0 -7 2v-2q-299 0 -503 193q-199 186 -199 571zM358 502q0 -33 18.5 -86.5t50.5 -110.5t73 -104t84 -70h-2q-33 27 -63 71t-53.5 94t-36.5 94t-13 71q0 147 96 268q100 125 246 125q39 0 91 -9t62 -30q-18 41 -85.5 61.5 t-123.5 20.5q-143 0 -245 -127q-98 -119 -99 -268zM436 23v2q4 -2 49 -18.5t106.5 -37t115 -34t77.5 -13.5q20 0 21 10v2l4 -2h2h6q188 2 361 177q176 176 176 419q0 285 -176 437q-16 16 -17 20q4 0 38 -25.5t52 -41.5q176 -147 176 -437q0 -246 -176 -422 q-90 -90 -180 -132t-188 -42h-6v-2q-252 0 -441 140zM487 410q0 -53 40 -146.5t102 -154.5q35 -12 73 -13q145 0 246 117q100 113 101 283q0 164 -101 276l-12 12l2 4q-49 18 -107 19q-143 0 -245 -127q-98 -119 -99 -270z" />
<glyph unicode="7" horiz-adv-x="1333" d="M41 1325q0 20 10 37q14 25 39 65.5t43 75.5q8 20 23 64q27 78 55.5 118.5t89.5 40.5h2h2q106 0 277 -10q78 -4 118 -6q76 0 99 -2t100 -2h96q14 0 68 2q23 2 31 2q6 2 36 2q35 0 35 -26q0 -8 -4 -25q-182 -375 -344 -776q-158 -395 -244 -840q-8 -49 -49 -49h-16 q-51 8 -111 8q-16 0 -53 -4q-33 -4 -47 -4q-25 0 -38 8t-13 29v12q104 340 293 696q14 27 59 115q68 125 115 219l22 43q45 86 68 129q55 109 80 154q-12 0 -25 2q-51 2 -74 2h-88q-10 0 -53 -2q-16 -2 -35 -2h-6q-227 -16 -285 -121q-41 -78 -108 -78q-18 0 -32.5 11.5 t-14.5 29.5v2v2h-2q53 8 88 74q57 104 284 121q25 2 31 2q45 2 62 2h88q8 0 51 -2q66 -4 94 -4q41 0 41 6q0 27 -41 27q-94 12 -201 12h-88q-137 0 -240.5 -31t-135.5 -94q-41 -78 -111 -78q-41 0 -41 43zM373 -35l4 2v-12q0 -16 7 -27.5t24 -11.5q76 10 116 10 q37 0 115 -10h12q41 0 49 49q86 449 244 840q164 412 342 776q6 10 6 25q0 23 -37 22h-36h-2q0 -2 -3 -2q-180 -377 -337 -776q-162 -414 -244 -842q-10 -47 -49 -47h-17q-78 10 -116 10q-27 0 -56 -4q-6 0 -22 -2z" />
<glyph unicode="8" horiz-adv-x="1409" d="M41 516q0 150 94 262q12 14 38 38t71 63q55 49 84.5 77.5t29.5 36.5q-8 6 -26.5 21.5t-44 38t-51 50t-37.5 50.5q-43 70 -43 203q0 150 139 264q139 111 332 111l4 -9q199 0 330 -106q133 -109 133 -246q0 -41 -18.5 -88t-50.5 -89t-68.5 -75t-71.5 -47q-6 0 -6 -8 q0 -29 22 -29q16 0 44 16.5t59.5 43t57 52t38.5 40.5q49 66 49 147q0 141 -133 250h-2q94 -47 149.5 -128t55.5 -165q0 -78 -43 -138t-123 -132q-8 -6 -25 -16q-18 -12 -24 -19q90 -63 153 -160q88 -137 88 -295q0 -207 -188 -364q-186 -156 -430 -156t-414 133 q-172 133 -172 373zM287 487q10 -152 110 -262q2 -2 14.5 -13t30 -26.5t27.5 -23.5t14 -8l-2 -4q-6 4 -18 20q-6 10 -10 12q-100 115 -111 262v41q0 57 17.5 128t50 134.5t76.5 104.5t96 41q14 0 94 -29q6 -2 47 -24q37 -20 58.5 -31.5t23.5 -11.5q0 2 -21 18 q-74 49 -146.5 84t-113.5 35q-102 0 -172 -150q-66 -133 -65 -256v-41zM342 51l2 2q170 -129 406 -129q244 0 430 156q188 158 188 364q0 158 -88 295q-43 63 -97.5 121t-105.5 70q27 -6 57.5 -44t65.5 -89q4 -6 8 -13q88 -137 88 -295q0 -211 -186 -366 q-186 -156 -430 -156q-193 0 -338 84zM383 1401q0 -41 37 -99.5t96 -78.5q-35 12 -55.5 59t-20.5 78q0 96 74 166q72 66 172 65q4 0 26.5 -3t44 -8t40 -13t18.5 -19v2q-29 14 -70 41q-37 23 -59 33t-55 10q-98 0 -173 -68.5t-75 -164.5zM408 401q10 -150 110 -264l6 -6 q51 -14 103 -14q131 0 235 82q45 35 84 114.5t39 171.5q0 109 -57 185q-2 2 -23 22q-31 31 -53.5 54.5t-22.5 29.5v2q-43 25 -101 47.5t-79 22.5q-106 0 -176 -150q-66 -133 -65 -256v-41zM510 1313q0 -43 23.5 -77t60.5 -56.5t77 -33.5t70 -11q37 0 66 25.5t47 66.5 t27.5 86t9.5 84q0 31 -13.5 75t-35.5 52l-6 2q-45 18 -91 18q-92 0 -161 -65q-74 -68 -74 -166z" />
<glyph unicode="9" horiz-adv-x="1419" d="M41 1167q0 231 180 387q199 174 385 175q299 -2 473 -193q168 -180 168 -573q0 -162 -80 -314q-88 -162 -233 -313q-141 -143 -313 -240q-12 -8 -55.5 -24.5t-96.5 -34t-94 -28.5t-62 -11q-12 0 -12 6v-6q-68 0 -68 45q0 16 14.5 25.5t53.5 21.5h2q80 35 181.5 98.5 t174.5 128.5q43 37 109 115q-37 0 -91 8.5t-111.5 24.5t-107.5 44t-77 64q18 -27 61 -46t93.5 -30.5t97.5 -15.5t76 -4q25 0 44 27.5t40 75.5q14 33 20 41l31.5 31.5t42.5 45.5l24 88q-18 0 -42.5 -15t-49 -38.5t-42 -43t-21.5 -25.5q-10 -12 -27 -54q-18 -45 -34.5 -68.5 t-41.5 -23.5q-205 0 -411 152q-197 147 -197 436q0 14 -2 29q-2 16 -2 32zM268 1268q0 -141 57.5 -257t137.5 -159q-94 88 -129 285q-10 68 -10 92q0 123 79 211q84 96 222 96q102 0 182 -41l4 -2q-41 39 -103.5 61.5t-134.5 22.5q-135 0 -225 -96q-80 -88 -80 -213z M358 -43h2h148q84 43 172 94q168 92 313 238q139 143 232 313q82 150 82 318q0 385 -170 573q-33 35 -74 68q78 -43 145 -115q170 -184 170 -574q0 -166 -82 -315q-88 -168 -233 -313q-143 -147 -313 -240q-172 -92 -322 -92q-29 0 -46 16.5t-24 28.5zM393 1186 q0 -25 10 -92q2 -16 15.5 -58.5t32 -89.5t34 -78.5t23.5 -31.5l-2 -2q55 -16 112 -17q111 0 211 62q72 43 102 77.5t30 81.5v27l-7 43q-2 8 -6 35q-12 66 -26.5 118t-47.5 132q-20 53 -41.5 70.5t-74.5 25.5q-37 4 -62 4q-143 0 -225 -94q-78 -90 -78 -213z" />
<glyph unicode=":" horiz-adv-x="403" d="M41 1024q0 55 39 96t94 41q57 0 97 -40t40 -97q0 -59 -39 -99t-98 -40q-57 0 -95 40t-38 99zM47 139q0 57 37 98.5t94 41.5t97 -41t40 -99q0 -57 -39.5 -98t-97.5 -41q-57 0 -94 42t-37 97zM135 883h2q27 -14 62 -15q57 0 96 40t39 98q0 59 -39 98l-12 12q37 -18 57 -52 t20 -75q0 -59 -38.5 -98t-98.5 -39q-51 0 -88 31zM139 0h2q27 -14 60 -14q57 0 96 41t39 98q0 14 -8.5 33.5t-20.5 46.5q-10 18 -10 20t2 2t25 -22q39 -39 38 -99q0 -59 -38.5 -98t-98.5 -39q-51 0 -86 31z" />
<glyph unicode=";" horiz-adv-x="405" d="M41 1028q0 57 38 98t91 41h2q57 0 98 -42t41 -97t-41 -98t-98 -43q-55 0 -93 42t-38 99zM43 143q0 57 38 98.5t93 41.5q57 0 95 -37t38 -105v-37q0 -8 -7 -40.5t-17.5 -72.5t-20.5 -67.5t-16 -27.5l4 -5q-43 -57 -74 -57q-2 0 -2 4q0 8 5 25.5t20 56.5q12 39 12 43 q0 2 -29 17q-31 14 -37 18q6 -2 23 -4q25 -2 31 -6l-6 4q-14 12 -19 12q-57 0 -94 42t-37 97zM141 885q25 -12 56 -13q57 0 98 41t41 99q0 57 -41 98l-10 10q35 -14 56 -52t21 -75q0 -57 -40.5 -98t-96.5 -41q-49 0 -84 31zM225 -199q0 16 25 37q25 20 24 37v-6 q25 31 43.5 93.5t18.5 115.5v41q-10 78 -47 110q29 -12 52.5 -48t23.5 -81v-37q0 -57 -15 -100q-4 -18 -20.5 -47t-37 -57.5t-37.5 -47t-26 -18.5q-4 0 -4 8z" />
<glyph unicode="=" horiz-adv-x="1017" d="M41 420v55h868v-55h-868zM41 631v57h868v-57h-868zM106 373v24h834v33h37v-57h-871zM106 584v24h834v33h37v-57h-871z" />
<glyph unicode="?" horiz-adv-x="1273" d="M41 1393q0 182 199 268q145 63 272 63q61 0 84 -8q258 0 395 -162q119 -137 119 -342v-61q-27 -279 -123 -350q-47 -37 -94 -56.5t-113 -42.5q-119 -37 -176 -75q-84 -59 -84 -295q-16 8 -31 16q-35 18 -47 19q-10 0 -43 -19q-25 -16 -34 -20v86q0 162 47 227 q33 43 69.5 71.5t96.5 63.5q82 49 124 86q74 63 95 277q6 55 6 102q0 113 -31 176q-18 41 -35.5 55.5t-62.5 14.5q-51 0 -106.5 -18.5t-90.5 -45.5q39 -45 39 -110q0 -76 -53 -129.5t-127 -53.5q-72 0 -125 54q35 -10 61 -10q74 0 127.5 55t53.5 127q0 4 -3.5 22.5 t-9.5 36.5q-14 51 -26 51l-4 -2q39 29 92 47.5t104 18.5q20 0 58 -12q29 -10 43 -11h2q-29 29 -71 45.5t-83 16.5q-53 0 -102.5 -18.5t-96.5 -47.5q39 -45 39 -110q0 -72 -53 -127.5t-127 -55.5t-124 54.5t-50 128.5zM305 137q0 53 41 96t96 43q53 0 54 19q0 10 -11 29l-2 4 q2 0 6 2h7q14 0 79 -31l5 -2q0 240 82 295q84 55 190 80q104 23 197 96q43 33 80.5 130t37.5 218v62q0 203 -120 342q-31 33 -58 55q68 -37 125 -100q119 -137 119 -342v-62q-25 -279 -119 -348q-45 -35 -92 -55.5t-121 -44.5q-119 -39 -172 -76q-84 -55 -84 -295 q-4 2 -35 18q-33 16 -45 17q-12 0 -49 -23l-6 -4q70 -41 70 -123q0 -57 -40 -98t-98 -41q-55 0 -96 43t-41 96zM453 -27l12 -12q41 -41 96 -41q57 0 98 41t41 98t-41 99q-25 25 -57 35q33 -39 33 -93q0 -57 -41 -98t-98 -41q-20 0 -39 6z" />
<glyph unicode="@" horiz-adv-x="1503" d="M41 881q0 354 184 602q184 252 447 252q262 0 461 -252q199 -248 198 -602q0 -68 -17.5 -156t-45.5 -166q-31 -88 -87.5 -153.5t-129.5 -65.5q-35 0 -67 14.5t-75 44.5q-35 23 -53 33q-20 14 -55 14t-115 -22q-84 -25 -125 -25q-100 0 -184 50l4 2q55 -170 149 -265 q74 -29 148 -28q137 0 219 57q76 55 221 57q-20 6 -63 35q-41 25 -66.5 36t-52.5 11q-41 0 -117 -22q-82 -25 -125 -25q-63 0 -121.5 20.5t-95.5 59.5q0 -2 2 -2h6q61 -27 138 -27q39 0 125 27q78 23 110 23q33 0 53 -15q12 -6 45 -26q49 -33 85 -50.5t69 -17.5 q80 0 135 65.5t87 158.5t45.5 180.5t13.5 134.5q0 356 -199 604q-2 2 -16 20q-39 49 -69 80t-52 35q45 -6 97 -58.5t112 -127.5q199 -250 198 -603q0 -63 -14 -141q-14 -82 -49 -178q-35 -92 -89.5 -155.5t-127.5 -63.5q-35 8 -64 20q-88 -117 -200 -180q-115 -66 -246 -65 q-264 0 -447 249q-184 250 -184 607zM195 879q0 -297 129 -510q8 -14 41.5 -48t76.5 -75q37 -35 37 -37v-2q-29 23 -51 50.5t-47 70.5q-129 221 -129 508q0 299 129 510q125 211 348 210q57 0 120.5 -12t82.5 -43q-31 47 -112 71.5t-148 24.5q-219 0 -348 -211t-129 -507z M326 815q6 10 28.5 24.5l67.5 43.5q41 25 57.5 36t16.5 17q0 2 -7 2q-16 16 -16 31q0 20 24.5 37.5t62.5 29t77 17.5t63 6q10 0 37 -6q41 -6 62 -6h20q-57 57 -164 57q-70 0 -138 -24.5t-107 -63.5q-6 -6 -13 -6q-6 0 -24.5 12t-18.5 22l-2 -8q-25 -113 -26 -221zM367 1079 q139 102 286 103q76 0 166 -23q14 -4 44 -13t59.5 -22.5t50 -29t20.5 -29.5q0 -10 -2 -25q-4 -14 -4 -28v-103q-2 -33 -2 -204v-107q0 -51 17.5 -99t46.5 -48l5 2t7 2l6 -13q-20 39 -20 105q0 18 -3 39v12v57q0 70 3 156v49v103q2 10 4 24q2 18 4 27q2 2 4 2q8 0 28.5 -11.5 t32.5 -19.5q6 -6 6 -18q0 -10 -2 -21q-4 -16 -4 -31v-104q-2 -35 -2 -205l2 -59q2 6 2 8h-2l6 14v6q0 4 2 7q43 133 43 284q0 299 -135 510q-45 72 -95 97.5t-132 25.5q-221 0 -350 -211q-57 -94 -92 -209zM471 662q0 -49 24.5 -95.5t65.5 -60.5q2 0 6 -3t6 -5v2 q-45 49 -45 123q0 92 70 161q66 66 227 74q-2 23 -10 31t-29 8q-174 -2 -245 -74q-70 -70 -70 -161zM487 43h2q117 -59 240 -59q111 0 217.5 51t179.5 137q53 12 123 12q-86 -117 -202 -182q-115 -66 -246 -65q-176 0 -314 106zM559 946q66 14 160 15q10 0 31 -3 q18 -2 28 -2q53 0 53 48v2v6l-2 -2q-33 6 -55 6q-133 0 -215 -70zM602 575q0 -16 6 -47.5t15 -31.5q68 0 128 35.5t64 105.5q0 41 2 61q2 18 2 72v33q-104 -16 -160.5 -75.5t-56.5 -152.5z" />
<glyph unicode="A" horiz-adv-x="1896" d="M41 18q0 23 16.5 45.5t22.5 22.5q16 0 49 43q39 53 117 195q119 221 233 503q8 18 13 29q125 311 172 401q68 133 67 211v13q-100 10 -123 61q8 -2 58 -8q45 -4 53 -6q-16 25 -47 36t-84 21q-61 12 -93 27.5t-36 50.5q0 4 -2 6t-2 6q0 31 57 31q16 0 59 -2q61 -4 91 -4 q31 0 77 -2q51 -2 103 -2q8 0 18 2h17h36q10 0 29 2h16q12 0 20.5 -7t16.5 -32l301 -797l9 -12q133 -365 202 -510l4 -8q57 -119 92 -175.5t66 -56.5q18 0 35 -53l2 -6q0 -37 -31 -37q-147 10 -198 10q-16 0 -76 -6q-72 -10 -105 -10t-49 6q-35 8 -35 31q0 20 21.5 42.5 t36.5 33.5q12 18 12 61l-2 12q-4 35 -9 61.5t-9 26.5h-2h-619q-18 0 -32.5 -26.5t-24 -64.5t-13.5 -70.5t-4 -42.5q2 -33 18.5 -48.5t45.5 -29.5q31 -14 31 -29q0 -57 -50 -57q-100 12 -188 12q-94 -4 -203 -12q-33 0 -33 16q0 12 5 19l12 24q33 2 49 2q55 4 86 4 q18 0 70 -4q55 -6 82 -6q41 0 64.5 11.5t23.5 41.5q0 12 -9.5 18.5t-27.5 14.5q-20 6 -27 10l-2 2q0 -53 -49 -53q-127 10 -191 10q-94 -2 -198 -12q-35 0 -35 14zM424 172q2 -27 20.5 -55.5t32.5 -28.5q10 0 10 21q0 2 -2 6v10q0 6 4.5 39t13.5 71.5t23.5 66.5t32.5 28h682 v2v6q-4 16 -16.5 28.5t-26.5 12.5h-702q-16 0 -29.5 -27.5t-23 -66.5t-14.5 -72t-5 -41zM528 541q0 -18 23 -19h45l4 -4q0 4 2 6q16 61 43 123q35 78 62 148q57 135 98 237q10 20 14 31q31 68 49.5 117t18.5 84q0 43 -37 43q-12 0 -21 -21l-6 -16q-18 -47 -35 -82l-12 -31 q-2 -6 -18 -45q-12 -29 -17 -39l-98 -233q-14 -39 -31 -74l-30 -68q-53 -111 -54 -157zM694 524h439q25 0 24 21q0 23 -3 34t-11 29q-4 10 -10 27q-12 33 -37 84q-35 76 -49 121q-10 29 -39 96q-31 74 -46.5 118t-15.5 74v-4q-10 -29 -37 -94q-18 -43 -22 -53 q-55 -137 -99 -238q-14 -33 -43 -96q-39 -82 -51 -119zM1067 1595q10 0 23 2h16q25 0 39 -38l301 -795l8 -14q125 -342 203 -506q57 -125 93 -182.5t69 -57.5q16 0 34 -51l2 -8q0 -12 -10 -25.5t-22 -13.5q-119 12 -199 12q-25 0 -80 -6q-61 -8 -92 -8q-33 0 -57 6 q-29 6 -31 20q0 25 2 31v-2q84 8 176 12q12 0 53 -4q63 -8 97 -8q37 0 59.5 9t22.5 30l-2 8q-20 51 -37 51q-31 0 -59.5 44t-80.5 149l-22 47q-76 152 -203 508l-8 12z" />
<glyph unicode="B" horiz-adv-x="1861" d="M41 1686q0 27 31 26q72 -8 184 -8h35q23 -2 26 -2h66q180 14 346 14q170 0 256 -14q186 -27 307 -76t158 -141q23 -59 23 -105q0 -168 -267 -260q-23 -8 -22 -18q0 -8 9 -16.5t19 -14.5q8 -2 25 -6q12 -2 14 -4q6 8 21 14q264 90 264 258q0 39 -25 103q-4 12 -23.5 42.5 t-27.5 30.5q86 -47 124 -105t38 -126q0 -170 -266 -258h-2q102 -49 182 -123q129 -123 129 -330q0 -74 -30.5 -156.5t-86.5 -168.5q-115 -176 -481 -240q-66 -12 -231 -12q-29 2 -136 2h-147q-55 0 -70 2h-22h-2l4 6h-25h-24q-16 0 -33 2h-16h-97q-6 0 -43 -4 q-78 -6 -112 -6q-31 0 -49.5 4t-18.5 14q4 51 21 51q29 0 48 66t38 188q12 82 21 213t9 297v207q0 111 -3 205t-14 184t-35 147.5t-62 61.5q-27 2 -27 56zM195 -68q0 8 4 21q90 6 137 6h96q16 0 51 -4q27 -4 35 -4q2 0 6 2h2l6 4h3h28q12 -2 66 -2q43 0 135 -2q96 -2 147 -2 q145 0 228 14q371 68 483 236q117 170 117 327q0 123 -45 212t-131 159q63 -37 129 -96q129 -123 129 -328q0 -160 -115 -328q-113 -164 -485 -233q-70 -14 -228 -14q-29 2 -135 2h-149q-53 0 -66 2h-31q-10 2 -49 2h-145q-16 0 -66 -6q-57 -6 -84 -6q-35 0 -54 9t-19 29z M406 1167q0 -32 59 -32h4v30l2 4q8 152 21 234q2 23 4 31q6 63 17 91.5t44 28.5q262 -6 401.5 -16t165.5 -39l6 -6q-27 31 -67 49q-109 51 -569 57q-37 0 -48 -40q-4 -18 -12 -66l-6 -45q-14 -90 -22 -234v-47zM414 592q0 -55 3 -98t11 -103v-6q8 -70 15.5 -120t19.5 -89 t32.5 -62.5t51.5 -23.5q-4 6 -9.5 18.5t-5.5 16.5q-20 53 -34.5 162.5t-18.5 212.5q-2 43 -2 282q0 74 2 103t2 92q0 23 45 22l13 -2q92 -10 129 -10h131l2 8q205 -25 332 -71q43 -16 98 -47q-57 51 -162 94q-80 29 -162 48t-172 19h-133l-27 2q-49 4 -96 9h-12 q-45 0 -45 -25q0 -63 -2 -92l-2 -37q-2 -49 -2 -68v-157q-2 -45 -2 -78zM553 1133q299 4 451 47q172 49 172 190q0 51 -19 88l-2 2q-133 33 -516 39q-35 0 -45 -41q-12 -33 -23 -110q-8 -57 -18 -215zM555 496q0 -55 3 -98.5t11 -102.5q14 -135 37 -201q236 12 363 45 q137 37 219 93.5t112 154.5q37 109 37 219q0 61 -12 119q-4 8 -10 23.5t-18.5 40t-22.5 42t-17 17.5l-4 -4q-27 12 -43 18q-68 29 -154.5 51.5t-176.5 22.5h-134q-8 0 -45 4q-57 6 -84 6q-55 0 -55 -20q0 -63 -2 -92q-2 -31 -2 -103v-158q-2 -45 -2 -77z" />
<glyph unicode="C" horiz-adv-x="1906" d="M41 860q0 180 76 328q78 152 202 268q125 113 283 182q162 70 313 70q170 0 308 -20q37 -4 95 -18.5t116.5 -35t107.5 -46t70 -54.5q8 -14 24.5 -48t33 -74t28.5 -78t12 -58v-45q-4 -23 -31 -23h-16q-6 0 -29.5 21.5t-52.5 52.5t-53.5 60.5t-32.5 46.5l2 -5l-12 7l-12 6 q-168 80 -332 80h-47q-233 0 -416 -215q-182 -219 -182 -517q0 -297 225 -503q53 -53 139 -78t168 -25q143 0 318 117q92 59 163.5 127t89.5 129l9 29q10 49 55 49h4q14 0 30.5 -11.5t16.5 -23.5v-12q-10 -27 -23.5 -75t-25.5 -100.5t-20.5 -93.5t-8.5 -59q0 -31 -55 -55 q-117 -74 -319 -111q-211 -39 -349 -39q-360 0 -616 250t-256 600zM352 846q0 -299 226 -504q72 -63 120 -96l-2 2q-27 23 -55 49q-225 201 -225 504q0 297 182 516q182 215 418 215h47q164 0 326 -80q53 -27 86 -49q-63 53 -148 92q-164 82 -332 82h-45q-233 0 -415 -215 q-182 -217 -183 -516zM537 70l2 2q201 -115 444 -115q133 0 344 39q55 10 120.5 27.5t124 40t95.5 47t37 49.5q0 29 9 83t25.5 109.5t37 92t41.5 36.5h4q16 0 30.5 -10t14.5 -27v-12q-10 -25 -23.5 -73t-26 -100t-20.5 -94t-8 -63q0 -29 -55 -53q-117 -74 -320 -110 q-209 -37 -348 -37q-299 0 -528 168zM1675 1483l13 -13q45 -16 62 -35.5t30 -66.5q4 -18 28 -82q23 -57 35 -92t12 -61q0 -33 -26 -33h-19q-25 0 -51 51v2l-6 10q18 4 19 21v45q-20 39 -46 123q-27 94 -51 131z" />
<glyph unicode="D" horiz-adv-x="1810" d="M41 29q0 49 14 49q16 0 37 45q18 57 39 199q12 88 21.5 217t9.5 288q0 109 2 138t2 122q0 90 -2 145.5t-6 117.5q-10 129 -23.5 197.5t-42.5 74.5q-6 2 -14 19.5t-8 33.5q0 33 32 33q41 -8 105 -8h100q47 0 84 4t92 4q96 0 193.5 -9t234.5 -28q190 -27 357 -115 q158 -86 256 -239q51 -78 79.5 -182.5t28.5 -225.5q0 -328 -323 -592q-326 -264 -791 -303q-12 -2 -44 -4t-60 -2q-53 -4 -54 -4h-4h-55h-47h-70q-49 -2 -53 -2q-45 0 -67.5 5t-22.5 22zM182 -68q0 29 2 29h135q14 0 35 -2h13h57h6q59 2 101 5t47 7q461 37 786 301 q326 264 326 590q0 119 -29 224.5t-80 183.5q-16 25 -33.5 49t-41 54t-47 51.5t-40.5 23.5q29 -4 65 -28.5t68.5 -60.5t60 -74t48.5 -68q51 -78 79.5 -183.5t28.5 -224.5q0 -328 -323 -590q-326 -262 -791 -301q-12 0 -82 -6q-59 -6 -73 -6h-56q-8 2 -47 2h-90q-20 0 -49 -2 h-33q-43 0 -43 26zM410 567q0 -49 4 -129q2 -20 2 -28q2 -16 4 -66q4 -111 18.5 -151.5t65.5 -40.5q-14 72 -25 215v12q-4 100 -4 143v277q0 242 12 422q2 16 2 55q2 70 6.5 115t16.5 57l-4 -4q0 4 2 14q4 37 17.5 57.5t54.5 20.5q311 -8 553 -135q2 -2 10 -6t10 -6 q-39 35 -80 55q-27 14 -90 38.5t-143 48t-155 40t-130 16.5q-82 0 -94 -41q-8 -39 -12 -55q-10 -49 -25 -225v-2q-16 -225 -16 -420v-277zM553 467q0 -47 4 -125q2 -25 2 -31q4 -76 12 -147q291 49 510 244q246 225 246 501q0 51 -11 129t-30.5 155t-47.5 127t-58 50h2 q-29 14 -85.5 33.5t-133 41t-147.5 35t-122 13.5q-84 0 -94 -39q-6 -20 -10 -57v-4q-14 -76 -25 -228q-12 -205 -12 -422v-276z" />
<glyph unicode="E" horiz-adv-x="1769" d="M41 1686q0 31 31 30q111 -16 192 -16q184 0 486 10q4 0 59 4q115 8 189.5 12.5t136.5 4.5q96 0 102 -13l2 -4q2 2 16 2h15q55 0 96 -34.5t90 -96.5l12 -14q6 -8 39 -43q31 -31 48.5 -52.5t17.5 -27.5q0 -25 -37 -25h-14q-18 0 -49 11q4 0 8 -4t6 -7l12 -12 q-51 23 -123 37q-117 25 -252 37q-160 12 -250 12h-180q-51 0 -75.5 -26.5t-32.5 -75.5l-6 -37q-2 -10 -5 -35q-6 -41 -7 -56.5t-3 -43.5l-6 -62h281q160 0 261 26.5t177 102.5q4 4 12 17q20 29 39 28h2q41 0 41 -30v-13q-14 -80 -14 -174q0 -98 14 -184v-12q0 -33 -47 -33 h-4q-10 0 -26.5 12t-16.5 33v6q-57 0 -160 8q-74 6 -104 6h-439q-18 0 -25 -31.5t-7 -80.5q0 -18 2 -60v-30v-404q0 -150 26 -215h62q145 0 360 25q154 20 252 56t217 105q51 33 80 33q41 0 43 -37q0 -33 -6 -44t-29 -27l-18 -15l-49 -49q-23 -23 -64 -80q-31 -45 -52 -66.5 t-44 -21.5q-227 0 -283 2q-55 2 -221 2q-88 2 -135 2q-164 4 -221 5h-197q-20 0 -67 -3q-57 -4 -80 -4q-35 0 -54.5 5.5t-19.5 17.5q0 49 16 49q18 0 39 49q20 49 43 201q12 82 21.5 212t9.5 296q0 96 2 123t2 110q0 102 -4 192.5t-15.5 171.5t-34 134t-58.5 57 q-25 0 -25 52zM180 -37l4 4q-2 -6 -2 -30q0 -27 33 -27q127 10 191 10h196q51 0 166 -2q123 -4 190 -4h222q49 0 108 -2q57 -2 80 -2q63 0 99 8t53 33v2q47 72 100 125l43 43q12 10 37.5 45t25.5 59q0 29 -45 29q-12 0 -31.5 -14.5t-40 -34t-39 -40t-32.5 -36.5 q-16 -23 -45 -61q-37 -55 -55 -68q-8 -6 -19 -16q-23 -20 -45 -21q-223 0 -278 2t-222 2h-356q-37 2 -133 2h-61q-82 0 -144 -6zM401 997l2 -24v-27v-495q0 -131 22.5 -210.5t90.5 -97.5q-8 16 -18 43q-31 68 -31 217v498q2 20 2 80q0 29 29 29h438q31 -2 96 -2 q86 -2 136.5 -7.5t84.5 -19.5q-45 55 -141 61q-31 2 -41 2q-141 10 -201 11h-438q-18 0 -24.5 -14.5t-6.5 -43.5zM422 1237q0 -29 9 -45t32 -16h22l-8 -7q4 49 6 93q2 27 6 75v6q4 37 11 62l2 12q2 8 4 25q10 59 30.5 90t79.5 31h76q94 0 175 -3.5t180 -11.5 q133 -10 229 -29.5t168 -56.5q-4 4 -21 17q-63 53 -184 80q-104 20 -240.5 32.5t-263.5 16.5q-84 0 -104 2t-76 2q-53 0 -76.5 -26.5t-32.5 -76.5q0 -4 -6 -61q-10 -88 -12 -139q0 -6 -2 -25q-4 -31 -4 -47zM1423 862q23 6 23 31v12q-18 96 -19 185q0 29 1.5 54t7.5 52 t17 44t30 17h2q41 0 41 -30v-13q-16 -109 -17 -174q0 -74 17 -188v-12q0 -35 -47 -35h-4q-12 0 -28.5 14.5t-16.5 36.5v6h-7zM1473 1620q8 -8 30 -16q18 -6 23 -11q43 -47 94 -108q8 -10 33 -37q35 -37 52 -58.5t17 -31.5q0 -18 -34 -19h-15q-55 0 -98 45l-12 13l-2 -2 q16 -6 34 -6h15q35 0 35 22q0 8 -16.5 27.5t-49.5 54.5q-29 31 -37 41q-4 6 -14 20.5t-20.5 27.5t-20.5 25.5t-14 12.5z" />
<glyph unicode="F" horiz-adv-x="1671" d="M41 1683q0 31 31 31q115 -16 192 -16q31 0 176 2q174 2 262 2h443q2 2 14 2h15q16 0 53 -13.5t51 -23.5q47 -51 94 -108q10 -14 43 -48q29 -31 44.5 -49t15.5 -28q0 -23 -29 -23h-19q-16 0 -51 10q12 -10 13 -14q-2 -2 -5 -2q-6 0 -45 18q-33 14 -43 17q-100 27 -219 43 t-221 18q-106 4 -164 6q-72 0 -94.5 -46t-30.5 -136q-2 -31 -4 -45q-6 -41 -10 -125l176 -2q174 0 266 27q37 10 87.5 43.5t109.5 81.5q33 25 35 24h2h2q37 0 37 -33v-12q-16 -109 -17 -178q0 -74 17 -188v-13q0 -33 -47 -33h-2q-10 0 -26.5 12.5t-16.5 33.5v12q-6 2 -27 6 q-131 10 -242 12l-332 4q-27 0 -26 -30v-80q-2 -14 -2 -97q0 -119 1 -149.5t5 -44.5q2 -55 2 -117q0 -94 4 -166.5t14.5 -133t31 -98.5t50.5 -44q16 -6 17 -53q0 -27 -33 -27l-49 6q-14 2 -53 6q-51 6 -105 6q-92 -4 -194 -12q-33 0 -33 27q0 25 2 26q78 8 147 13 q57 0 109 -9l55 -6q29 -4 49 -6q35 0 35 27q0 29 -5 37t-17 16q-18 10 -31 29q-23 29 -41 116q0 4 -6 27q-14 53 -23.5 100t-9.5 93q0 47 12 75l-4 -10q0 61 -2 117q-2 6 -2 24q-2 14 -2 170v97q2 14 2 80q0 29 27 28l329 -4q113 -2 242 -12q43 -2 84 -19q-45 53 -143 62 q-131 10 -242 12l-332 4q-27 0 -26 -28v-78q-2 -27 -2 -97q0 -109 4 -170l4 -96q4 -121 9 -197.5t14.5 -140t28.5 -102.5t50 -45q16 -6 17 -53q0 -25 -33 -25l-49 6q-14 2 -54 6q-51 6 -104 6q-94 -2 -197 -12q-33 0 -32 27q0 49 16 49q12 0 31 41q16 45 35 178 q16 133 24 467q0 20 2 39q2 16 2 35v205q0 113 -2 203.5t-13 178t-35 143.5t-62 60q-25 0 -25 51zM428 1198q0 -31 41 -35l20 -2l-6 -2q2 35 4 80q2 76 6.5 128t17.5 97t40 71t72 26q14 -2 71 -2q70 0 92 -3q115 -4 222 -16l28 -4q121 -16 204 -35.5t118 -54.5l-19 18 q-68 51 -170 80q-111 33 -228.5 44t-278.5 18q-70 2 -95 4q-53 0 -77.5 -25.5t-32.5 -77.5l-4 -32q-10 -72 -14.5 -121t-8.5 -135q-2 -12 -2 -21zM1321 842q20 8 20 30v13q-14 88 -14 186q0 27 1 51.5t6 53t16.5 48t29.5 19.5h6q39 0 38 -31v-12q-16 -109 -15 -178 q0 -74 15 -188v-13q0 -35 -46 -35h-2q-14 0 -20 9.5t-10 23.5q-8 25 -19 25zM1380 1612q14 0 30.5 -9.5t25.5 -17.5q27 -31 73 -86q6 -8 19 -22q8 -8 35 -39q33 -33 50 -53.5t17 -32.5q0 -23 -33 -23h-16q-55 0 -98 45l-13 10q16 -6 37 -6h15q33 0 32 25q0 10 -16 30.5 t-49 53.5q-29 33 -35 41q-43 51 -74 84z" />
<glyph unicode="G" horiz-adv-x="1955" d="M41 852q0 389 281 621q279 229 591 229q170 0 308 -21q80 -12 162.5 -38.5t158.5 -71.5q18 -10 42 -43t45.5 -76t34.5 -82t13 -61v-19q-2 -20 -24 -20h-19q-2 0 -20.5 12t-42 30.5t-42 36t-22.5 27.5l-4 10q-92 49 -182 72t-197 23h-69q-236 0 -404 -205 q-156 -186 -155 -473v-62q0 -324 219 -512l12 -12q150 -82 303 -82q45 0 104.5 9.5t116 27.5t93 47t36.5 66q0 29 4 102q6 109 7 170q0 115 -6.5 196t-16.5 134q-14 80 -29.5 118.5t-48.5 49.5q-2 0 -10 14t-8 29q0 27 39 26q49 -6 102 -6h100q18 0 82 6q66 4 93 4 q35 0 53 -6t18 -20q-6 -57 -30 -58q-29 0 -48.5 -39.5t-30 -100t-14.5 -123t-6 -134.5l-2 -12q-4 -39 -8 -86t-4 -96q0 -59 8 -112.5t27 -90.5l2 -4q0 -25 -51 -58q-119 -74 -332 -129q-219 -57 -357 -57q-360 0 -616 250t-256 600zM350 848q0 -330 219 -514q41 -37 99 -74 l6 -2l-19 12l-6 4q-10 8 -12 11q-219 188 -219 512v61q0 285 155 471q170 207 404 207h70q152 0 272 -45q49 -16 96 -38.5t76 -51.5q-45 45 -106.5 76.5t-133.5 58.5q-125 45 -270 45h-72q-231 0 -403 -207q-156 -186 -156 -473v-53zM545 72q193 -113 440 -113q139 0 356 55 q53 12 121 35t127.5 48.5t97 51t37.5 44.5l-2 4v2l-2 6q-12 23 -22 53q0 295 2 344q2 78 7 145.5t15.5 124t30 92t45.5 35.5q16 0 25 25h45q18 0 32.5 -6t14.5 -19q-6 -57 -31 -57q-39 0 -57.5 -56.5t-30.5 -170.5q-6 -49 -10 -170v-2q-6 -47 -10 -91t-4 -102 q0 -63 8 -116.5t28 -86.5l2 -6q0 -23 -51 -55q-117 -74 -329 -129q-215 -55 -357 -55q-301 0 -524 168zM1638 1497l19 -8q41 -25 65.5 -52.5t38.5 -66.5q4 -10 23 -47q23 -41 34 -67.5t11 -47.5v-12q-2 -20 -25 -20h-18q-12 0 -33 28q-16 20 -22 21h-7q-2 0 -2 2l-2 -6 q23 4 25 24v17q0 20 -13.5 57t-33 77t-36.5 69.5t-24 31.5z" />
<glyph unicode="H" horiz-adv-x="1769" d="M41 1686q0 30 29 30h2q111 -16 192 -16q14 0 53 4q72 8 105 8t51.5 -6t18.5 -20q0 -31 -4.5 -40.5t-14.5 -15.5q-16 -8 -29 -22q-18 -18 -34 -99q-2 0 -10.5 -75.5t-8.5 -133.5q0 -51 8.5 -80.5t26.5 -29.5h27l2 -8q0 94 2 153.5t9 114.5t25.5 90t49.5 41q6 0 32 12 q31 16 43 17q18 0 19 -29q0 -29 -7 -43t-24 -31q-18 -20 -31.5 -40.5t-21.5 -63.5q-14 -68 -19 -219q29 2 99 2l63 2q111 2 144 2h184q20 -2 92 -2h92q31 0 31 49v172q0 84 -21.5 147.5t-60.5 75.5q-14 4 -18 47q0 31 32 31q127 -16 197 -16q10 0 49 4q74 8 105 8 q33 0 51 -6t18 -21q0 -53 -14 -53q-20 0 -37 -43q-20 -47 -39 -205q-18 -178 -22 -536v-172q0 -115 3 -215.5t13 -183.5t30.5 -133t51.5 -50q18 -2 18 -55q0 -27 -32 -27q-133 10 -193 10q-4 0 -33 -2q-70 -6 -108 -6q-39 0 -63.5 5t-24.5 20q0 49 14 49q16 0 31 49 q16 59 35 197q10 88 17 214t7 289v123h-80q-20 -2 -92 -2h-197q-33 0 -69 2h-35h-104q-20 0 -54 2h-32q-53 0 -54 -34q-2 -25 -2 -86v-271q0 -113 3 -208t12.5 -177t29 -132t49.5 -56q20 0 21 -55q0 -27 -35 -27q-100 12 -196 12q-8 0 -37 -2q-72 -8 -111 -8q-35 0 -56.5 6 t-21.5 19q0 23 23.5 31.5t64.5 8.5q16 0 33 -2h29q16 0 57 -4q68 -6 98 -6q33 0 52.5 6t19.5 19q0 29 -5 40t-19 21q-25 16 -37 45q-25 55 -39 203q-12 109 -13 322v272q0 8 -2 29q-2 27 -2 34q0 27 9.5 42.5t33.5 15.5q23 -2 105 -2h104q23 -2 105 -2h288q41 0 100.5 1 t59.5 3v33q-2 8 -22.5 12t-57.5 4q-33 0 -98 -4q-37 -2 -43 -2h-393q-23 2 -105 2q-14 0 -45 2h-41q-49 0 -51 -14l-2 -11q-2 -6 -2 -10v-358q0 -111 3 -205t11.5 -178t26.5 -137.5t49 -53.5q18 -2 19 -55q0 -27 -31 -27q-127 10 -197 11q-2 0 -24 -3q-31 -2 -58.5 -4 t-52.5 -2q-39 0 -63.5 5.5t-24.5 19.5q0 51 12 51q23 0 35 56.5t27 187.5q10 82 17 209t7 295q0 106 2 133t2 114q0 96 -3 183.5t-11 169.5t-25.5 135t-46.5 57q-20 2 -20 56zM1276 -29q57 8 147 9q10 0 50 -5q70 -6 102 -6q35 0 55.5 6.5t20.5 18.5q0 29 -5.5 40t-17.5 19 q-25 14 -39 45q-23 43 -41 201q-14 115 -14 334v170q2 346 25 534q0 6 2 15q14 123 28.5 178t42.5 55q0 4 25.5 17.5t44.5 13.5q25 0 24 -29q0 -55 -18 -55t-35 -43q-23 -59 -39 -203q-16 -133 -20 -536v-170q0 -127 3 -219.5t11 -174.5t27.5 -133t52.5 -55q20 0 21 -55 q0 -27 -33 -27q-106 12 -197 12q-10 0 -53 -4q-68 -6 -98 -6q-33 0 -52.5 6t-19.5 19v28z" />
<glyph unicode="I" horiz-adv-x="618" d="M41 1671q0 31 29 31q115 -16 196 -16q14 0 53 4q72 8 105 8t51.5 -6t18.5 -21q0 -55 -15 -55q-18 0 -35 -43q-23 -63 -38 -205q-16 -133 -21 -532v-187q0 -125 2 -211t10.5 -170t27.5 -136t50 -52q4 0 4 2l-2 4l-8 16q-20 45 -37 199q-12 121 -12 328v178q4 354 22 536 q12 121 28.5 182.5t43.5 61.5q10 0 10 17q2 29 17 43q33 0 32 -29q0 -57 -16 -57q-27 0 -43 -63.5t-29 -182.5q-18 -166 -22 -535v-182q0 -113 3 -209t13 -178t28.5 -133t49.5 -51q20 0 21 -56q0 -24 -31 -24h-2q-127 10 -197 10q-6 0 -37 -2q-72 -6 -106 -6q-37 0 -58.5 5 t-21.5 17v2l-10 9q127 10 184 10q12 0 57 -4q70 -4 101 -4q35 0 53 4t18 16q0 55 -18 55q-6 0 -14 2h-4v-2v-4q2 -12 2 -26q0 -27 -31 -27q-127 10 -197 10q-92 -2 -194 -12q-29 0 -29 27q0 49 12 49q23 0 34 52t26 177l2 14v3q12 111 19 225.5t7 275.5q0 106 2 133t2 115 q0 96 -3 183t-11 169t-25.5 135.5t-46.5 57.5q-20 2 -20 55z" />
<glyph unicode="J" horiz-adv-x="1034" d="M41 -340q0 27 16.5 43t44.5 27q82 31 164 90q84 59 152 160q6 25 18 53q18 43 29 86q16 80 31 239q10 96 17 213t7 265v401q0 66 -6 134.5t-18.5 128t-28.5 96t-37 38.5q-6 0 -15 17.5t-9 31.5q0 16 10 26.5t35 10.5v-12q119 -16 196 -16q10 0 49 4q74 8 105 8 q33 0 51 -6t18 -21q0 -55 -22 -55q-39 0 -58.5 -61.5t-31.5 -184.5q-8 -51 -8 -202v-150q0 -104 5 -226t11 -282q4 -74 6 -117q0 -12 2 -69q4 -68 8 -104t21 -60q4 -16 11 -52t7 -67q0 -37 -12 -49q-35 -35 -119 -84q-74 -45 -104 -74q-82 -68 -144.5 -102.5t-179.5 -87.5 h-2q-51 -20 -89 -32.5t-71 -12.5q-27 0 -43 13t-16 42zM166 -428l2 2q8 -43 63 -43q51 0 121 28.5t152 69.5l26 15l13 6q84 45 166 117q20 18 84 53q76 45 116.5 81t40.5 87q-6 41 -12 62.5t-12 37.5q-10 29 -19 64q-8 41 -14 172q-4 82 -14 364q0 39 -2 82t-3 68 q-4 82 -4 110v152q0 117 9 203q14 129 31.5 187t58.5 58q24 0 24 54q0 30 -46 30h-3h-14q-2 -41 -23 -41q-39 0 -59.5 -63.5t-30.5 -181.5q-8 -86 -8 -201v-152q0 -74 3 -180t7 -225q2 -35 2 -43q0 -27 2 -88q4 -137 11.5 -213t25.5 -109v-2q6 -25 12.5 -53.5t6.5 -56.5 q0 -39 -15 -54q-29 -35 -127 -92q-68 -43 -96 -65q-82 -72 -166 -117q-72 -39 -155.5 -74t-153.5 -49z" />
<glyph unicode="K" horiz-adv-x="1738" d="M72 1710q111 -16 192 -16q70 0 197 16q20 0 35.5 -4t15.5 -18q-2 -51 -31 -52q-41 0 -60.5 -62.5t-31.5 -187.5q-10 -129 -10 -288v-123q0 -23 2 -86q0 -8 2 -43v-37v-10q0 -4 3 -16.5t7 -12.5h4q10 0 45 31q-2 31 -2 131v119q0 104 4.5 194t14.5 169t31.5 127t54.5 48 q10 0 33 10q20 8 28 9q4 0 19 -2q6 -2 12 -2h6q18 0 19 -17q-6 -49 -31 -49q-27 0 -51 -43q-27 -47 -43 -209q-10 -133 -11 -291v-123q322 311 426 455q121 168 121 223q0 31 -14.5 44.5t-40.5 21.5q-35 12 -35 29q0 27 21.5 44t46.5 17q66 -10 125 -10q18 -2 73 -2h58 q88 0 106 2q10 0 37 2q39 4 53 4q29 0 45.5 -7t16.5 -28q0 -20 -15.5 -32.5t-38.5 -22.5q-14 -6 -14 -8l-4 4q-20 0 -53 -23.5t-99 -81.5q-49 -43 -59 -51q-121 -104 -393 -383q-39 -39 -39 -68q0 -27 37 -75q16 -25 22 -33q12 -25 33 -51q186 -309 326 -504q16 -23 30 -43 q70 -94 104 -132t73 -50q-51 51 -146 180q-106 145 -325 504q-16 25 -27.5 44t-26.5 46q-4 6 -6 10h-18q-8 10 -18.5 31.5t-10.5 34.5q0 29 39 67q303 303 393 381q82 74 135.5 113t79.5 39l6 -2q2 0 19 10q29 16 49 25.5t37 9.5q6 0 24.5 -12.5t18.5 -22.5 q0 -18 -14.5 -29.5t-38.5 -21.5q-16 -8 -17 -11l-4 2q-31 0 -72 -31.5t-129 -109.5l-12 -12q-90 -82 -158 -148q-10 -10 -47 -45q-41 -35 -76.5 -68.5t-70.5 -70.5t-56.5 -67.5t-21.5 -49.5q0 -14 9 -30.5t18 -30.5l2 -2l30 -49l37 -49q219 -358 326 -504q10 -14 53 -72 q39 -47 54.5 -68.5t15.5 -25.5h-2h-2q0 -4 2 -6l6 -6q8 -8 8 -21q0 -16 -16 -33h-90q-23 2 -91 2h-141q-35 0 -102 -4q-39 -2 -54 -2q-51 0 -65 25q0 35 11 49t32 27q18 10 26.5 20t10.5 33q0 51 -74 180q-53 94 -237 350q-43 -33 -76 -69q-6 -8 -35 -37l-33 -33 q-45 -43 -55 -55q-10 -10 -10 -74q0 -109 2 -181.5t11 -132t30.5 -94t56.5 -34.5q6 0 13 -11.5t7 -23.5q0 -14 -11 -24.5t-38 -10.5q-94 12 -194 12q-10 0 -51 -4q-68 -6 -101 -6q-35 0 -54.5 6t-19.5 19q0 23 26 30.5t65 7.5q14 0 34 -2h21q18 0 74 -6q74 -6 104 -6 q66 0 66 23q-2 47 -21 47q-33 0 -50 33.5t-30 103.5q-18 86 -18 305q0 63 10 74q6 8 55 57l31 31q8 8 29 31q47 49 76 73l2 2q16 10 24 19v2q-8 8 -22 24q-14 20 -27 21q-12 0 -12 -4q-8 -8 -37 -36t-50.5 -47.5t-44 -39.5t-36.5 -33q-16 -16 -31 -33q-10 -12 -22 -24 q-10 -10 -11 -72q0 -113 2 -183.5t11.5 -130t30 -94t55.5 -34.5q6 0 13 -11.5t7 -23.5q0 -14 -11 -24.5t-38 -10.5q-127 10 -197 10q-2 0 -24 -2q-31 -2 -58.5 -4t-52.5 -2q-39 0 -63.5 5t-24.5 20q0 18 4 26.5t12 18.5q16 20 27 49q20 66 37 199q25 188 25 503v398 q0 66 -6.5 134.5t-17.5 126.5t-27.5 95t-35.5 39q-22 4 -22 51q0 35 31 35zM1124 -70q0 29 2 29h2h2h7q86 4 131 4h143q25 0 64 -2h26h90q14 14 15 31q0 10 -7 22l-6 9q-2 8 -6 8q29 -18 43 -19q8 0 32 -22.5t24 -48.5q0 -16 -15 -31h-92q-18 2 -90 2h-143q-16 0 -54 -2 q-51 -4 -73 -4q-37 0 -61.5 5t-33.5 19z" />
<glyph unicode="L" horiz-adv-x="1650" d="M41 39q0 49 18 49t37 45q23 55 41 199q23 172 29 506q0 106 2 133t2 114q0 94 -3 182.5t-12.5 170.5t-24.5 135t-40 57q-20 0 -20 51q0 20 6 24.5t22 4.5l-10 -8q47 -8 80 -8q18 -2 80 -2q41 0 117 6q16 0 53 6t55 6q27 0 43 -8q23 -10 23 -23q0 -55 -19 -55 q-20 0 -43 -43q-25 -49 -45 -203q-20 -152 -24 -532v-316q0 -31 4 -98v-12q0 -12 2 -45q8 -125 24.5 -182.5t69.5 -61.5q-16 35 -23.5 91.5t-11.5 152.5q-6 49 -6 112v314q4 385 25 534q18 131 35.5 188.5t52.5 57.5q-2 0 -2 2q0 6 26.5 20.5t46.5 14.5q25 0 25 -29 q0 -55 -19 -55q-23 0 -45 -43q-27 -47 -45 -203q-20 -162 -24 -534v-316q0 -63 6 -110q6 -119 22 -197h197q61 0 145 17.5t166 46t145.5 63.5t86.5 68q42 69 112 69h2h17q37 0 37 -24v-23q0 -27 -17.5 -50.5t-52.5 -55.5q-41 -39 -51 -58q-8 -10 -25 -41q-33 -59 -62.5 -95 t-70.5 -36h-211q-61 0 -137 2h-72q-109 0 -171 1t-148 5q-53 0 -105 3q-33 2 -100 2q-80 -4 -180 -13q-35 0 -35 27zM168 -63q0 25 2 26h2q49 8 137 8q66 0 101 -2l215 -6q47 -2 211 -2h419q59 6 93 64l12 18q10 14 22 39q43 76 88 117q16 14 43 53q31 43 46 43h16 q33 0 35 -25v-24q0 -27 -23.5 -66t-56.5 -79t-60.5 -69.5t-31.5 -29.5q-8 -12 -21 -27q-23 -33 -41 -48t-49 -15h-418q-164 0 -211 2l-215 6q-33 2 -100 2q-80 -4 -180 -12q-35 0 -35 27z" />
<glyph unicode="M" horiz-adv-x="2279" d="M41 1673q0 31 33 31q68 -6 108 -12q47 -6 109 -6q2 0 10 2q63 6 125 6h86q35 0 49 -35q141 -225 285 -483q61 -115 137 -244l141 -240q8 -8 13 -8q6 0 12 8l12 13q-72 119 -121 206l-116 209q-121 215 -271 459q41 0 53.5 -6t20.5 -31q158 -242 289 -479l86 -154 q14 -25 45 -80q37 -61 43 -73q115 201 240 442l20 41q39 80 74 147.5t80 142.5t85 124t64 49q27 0 41 -6q31 -8 129 -8q23 0 66 4q31 2 45 2q41 0 41 -25q0 -53 -27 -53l-8 2q-37 0 -60.5 -57.5t-46.5 -178.5q-12 -70 -18 -196q-6 -125 -6 -338q0 -362 18 -520 q12 -117 29.5 -178.5t46.5 -61.5q20 0 20 -51q0 -27 -36 -27q-137 10 -193 10q-94 -2 -190 -12q-35 0 -35 27q0 43 12 43l6 -4q25 0 41.5 43t24.5 109.5t12 131t6 136.5q2 55 2 342q0 70 2 98l-123 -234q-20 -39 -49 -94q-82 -160 -86 -166q-18 -35 -55 -106 q-45 -92 -69.5 -136t-35.5 -44q-6 0 -16 10t-14 22l-31 58q16 33 88 172q10 18 45 86l135 258q27 51 74 141q25 47 43 82l117 227v11q6 55 8 106v6q0 12 -14 19l-4 2q-12 0 -25 -17q-20 -39 -49 -94q-82 -160 -86 -166l-135 -258q-6 -10 -45 -86q-43 -86 -88 -174 q-16 -31 -54 -106q-45 -90 -69.5 -134.5t-36.5 -44.5q-8 0 -27 19q-2 12 -67 129q-8 16 -41 70q-41 70 -50 86q-27 51 -36 67.5t-23 41t-61 106.5q-4 6 -25 41q-29 49 -74 129q-27 49 -39 69q-2 -12 -2 -59v-391q0 -121 3.5 -219.5t14.5 -182.5t33.5 -139t59.5 -61 q20 0 20 -56q0 -28 -30 -28h-2q-10 2 -37 6q-10 2 -23 4q-6 2 -59 2h-115q-14 0 -47 -2q-35 -4 -51 -4q-27 0 -41 6t-14 22q0 10 2 23.5t4 13.5h61q14 2 62 2h53q6 0 29 -2q45 -6 69 -6q25 0 40 5t15 20q0 29 -6 40t-20 21q-29 18 -45 49q-27 45 -45 203q-16 143 -17 344 v328q0 109 6 203v12l-4 8q-16 29 -30.5 50.5t-24.5 21.5q-14 0 -18 -41q-6 -88 -6 -203v-324q0 -119 3 -220t14 -188t33.5 -140.5t57.5 -53.5q20 -2 21 -59q0 -23 -31 -23q-8 0 -23 2q-12 2 -16 2q-2 0 -12 5q-6 2 -9 2h-176q-20 0 -59 -5q-35 -2 -49 -2q-47 0 -47 25 q0 49 26 49q37 0 60.5 62.5t40.5 179.5q8 49 14 192q6 123 6 322v397q0 131 -12 181.5t-70 82.5q-27 10 -43 43l-10 -20q6 -6 21.5 -11t27.5 -5q10 0 10 6t-24 20q-25 16 -82 33q-53 16 -82 34.5t-41 63.5zM1731 -30.5q2 12.5 4 12.5h16v-2h2q4 0 6 2q31 2 105 2q2 0 26 -2 q35 -2 61.5 -4.5t51.5 -2.5q39 0 63.5 5.5t24.5 19.5q0 49 -18 49q-29 0 -47.5 61.5t-30.5 180.5q-16 180 -17 516q0 211 7 340q4 76 13 152.5t24.5 139t36 102.5t46.5 40l4 -2h5l8 -2q10 0 41 8q35 10 49 10q27 0 26 -24q0 -53 -26 -53l-8 2q-25 0 -50 -37 q-33 -45 -57 -197q-12 -70 -18 -196q-6 -125 -6 -338q0 -344 18 -519q12 -119 28.5 -178t47.5 -59q18 0 18 -51q0 -27 -35 -27q-111 12 -192 12q-94 -4 -197 -12q-32 0 -32 25q0 14 2 26.5z" />
<glyph unicode="N" horiz-adv-x="1933" d="M41 1692q0 26 31 26h2l129 -12q86 -8 131 -8h131q76 0 99.5 -7.5t35.5 -35.5q49 -84 160 -238q20 -25 65 -90l35 -51q78 -106 105 -150q74 -102 108 -151q25 -35 109 -152q55 -76 104 -147q6 -10 26.5 -40t48.5 -65.5t50.5 -60.5t30.5 -25q4 0 6 7q0 2 -2 4 q-76 115 -197 282q-70 100 -129 183q-63 88 -86 120q-4 8 -24 33q-29 35 -51.5 64.5t-32.5 50.5q-27 35 -55.5 76t-70.5 102t-70 103t-52 81h12q31 -4 43 -9t19 -28q45 -76 157 -235q18 -25 38 -53.5t42 -57.5q25 -35 47 -67l19 -25q51 -68 63 -86l37 -51q66 -94 135 -191 q41 -55 43 -61q72 -100 123 -172q0 4 2 12q4 66 4 111v156q0 92 2 118q2 27 2 111q0 203 -14 309q-18 133 -39.5 198.5t-64.5 65.5q-29 0 -29 50q0 31 31 30q115 -16 196 -16q51 0 86 8q4 0 23 4q35 6 51 6q43 0 43 -28q0 -53 -25 -54q-27 0 -49 -41q-25 -45 -45 -204 q-25 -170 -28 -547q0 -59 -3 -80q-2 -20 -2 -105v-233q-2 -29 -2 -123v-113q0 -27 4 -73q2 -37 3 -49q0 -63 -52 -82l-6 -2q-12 -2 -24 -2q-16 0 -26.5 7t-18.5 19q-6 10 -11 10h-6l-6 -2v17l-6 -8l-74 98q-37 49 -86 117q-18 25 -24 32q-37 51 -60.5 83t-62.5 87 q-20 29 -41 57.5t-49 67.5q-18 27 -48 64l-12 18q-16 27 -61 91.5t-78 105.5q-10 23 -38 60.5t-71 94.5q-14 18 -22 29q-39 59 -74 111q0 -33 -2 -88q0 -70 -2 -127.5t-4 -89.5q-2 -23 -2 -101q0 -57 -4 -168q-2 -82 -2 -125v-135q0 -135 26.5 -228t81.5 -93 q12 0 24.5 -20.5t12.5 -41.5q0 -33 -35 -33q-43 8 -69 9q-37 4 -68 4h-117q-14 0 -45 -2q-37 -4 -55 -4q-25 0 -40 6t-15 20q0 23 17.5 31t49.5 8h35q23 -2 33 -2h55q55 0 68 -2q2 0 12 -2q31 -4 47 -4q20 0 31.5 5t11.5 19q-6 66 -37 66q-8 0 -21.5 3t-15.5 7l7 -30 q0 -25 -33 -25q-12 2 -38 5t-32 3h-180q-20 0 -64 -4q-33 -2 -49 -2q-45 0 -45 25q0 49 29 49q41 0 64.5 58t41.5 181q20 117 21 512q0 211 2 254q4 106 10 160q0 37 2 47t2 43q0 51 -7 86t-23 82q-37 6 -73 20.5t-50 45.5q57 -20 78 -21q8 0 8 4q0 8 -32 23.5t-75 25.5 l-24 7q-53 14 -78 29.5t-37 60.5zM483 416q0 -135 28 -227.5t81 -92.5h2v-2q-18 37 -25 47q-2 20 -8 68l-6 59q-10 51 -10 99v135q0 49 4 153q4 90 4 140q0 78 2 100q2 23 2 111q0 43 2 129q2 70 2 79q0 68 -9 96.5t-36 28.5q-8 -12 -12 -43l-2 -20q-10 -127 -10 -223 q0 -88 -3 -111q-2 -23 -2 -100v-49l-2 -127q-2 -96 -2 -115v-135zM1591 -72q6 2 13 2q33 0 45 20.5t12 61.5q0 18 -2 54q-2 47 -2 67v234q0 33 2 174q2 31 2 63v101q0 66 2 79q4 397 25 547q18 127 38.5 186.5t55.5 59.5q12 6 34.5 15.5t43.5 9.5q33 0 32 -29q0 -53 -26 -53 q-23 0 -45 -41q-25 -45 -47 -205q-20 -156 -25 -547q-2 -14 -2 -80v-100q0 -35 -2 -101q-4 -90 -4 -137v-231q0 -27 2 -70q4 -33 4 -51q0 -45 -17.5 -66.5t-64.5 -21.5q-23 0 -33 7t-22 24q-2 6 -6 10h-2h-7v14l-2 2z" />
<glyph unicode="O" horiz-adv-x="1980" d="M41 858q0 180 76 328q78 152 202 268q125 113 283 182q16 8 48 14.5t102 16.5q72 12 112.5 20.5t50.5 18.5l-2 -2q150 0 312 -70q158 -70 282 -182q123 -113 205 -268q80 -156 80 -326q0 -354 -258 -600q-258 -250 -621 -250q-360 0 -616 250t-256 600zM348 850 q0 -303 166 -516q74 -96 162 -148q-45 43 -94 103q-166 213 -166 516q0 301 166 516q164 215 399 215q16 0 58 -5t91.5 -14.5t82 -23.5t32.5 -31v-4q-143 123 -332 123q-233 0 -399 -215q-166 -217 -166 -516zM500 750q0 -303 166 -517q32 -42 63 -71q84 -37 184 -37 q233 0 396 190q80 96 125 234.5t45 306.5q0 354 -160 535q-10 12 -43 45q-92 45 -211 45q-236 0 -399 -215q-166 -215 -166 -516zM535 78q223 -168 528 -168q360 0 618 246t258 600q0 174 -79 327q-82 160 -203 271q-82 74 -166 123q53 -41 82 -68q125 -113 205 -270 q78 -158 77 -328q0 -354 -256 -602q-254 -246 -618 -246q-250 0 -442 113z" />
<glyph unicode="P" horiz-adv-x="1648" d="M41 1679q0 33 22 33l3 -2h4l6 -2q115 -16 196 -16q49 0 158 6q131 6 205 6q213 0 393 -51q188 -51 320 -178q131 -125 131 -375q0 -221 -250 -422q-250 -203 -680 -299q-16 -4 -25 -6q-59 -12 -90 -26.5t-31 -47.5v-25q16 -88 31 -123.5t53 -66.5q8 -8 9 -47 q0 -27 -31 -27q-127 10 -197 10q-92 -2 -194 -12q-29 0 -29 25q0 47 16 47q27 0 39.5 54t26.5 185v5q12 139 16 507q0 106 2 134q2 27 2 114q0 96 -3 183.5t-11 169t-25.5 135t-46.5 57.5q-20 2 -20 55zM168 -63q0 6 1 16t3 12l6 2q25 2 29 2q63 4 100 6h19q10 0 45 -4 q72 -6 104 -6q35 0 55.5 6t20.5 19q0 23 -6 35t-21 24q-25 25 -39 53v2q-12 29 -20 59t-8 64v25q0 35 35.5 51t87.5 27q18 4 20 4q422 94 680 299q252 203 252 422q0 246 -131 377q-23 20 -68 57q70 -43 144 -111q131 -125 131 -374q0 -219 -252 -422q-250 -205 -676 -299 q-10 -4 -33 -9q-53 -10 -84 -26.5t-31 -48.5v-23q8 -49 22.5 -82t35.5 -65q20 -29 27.5 -47.5t7.5 -44.5q0 -27 -33 -27q-90 10 -182 10q-86 0 -209 -10q-33 0 -33 27zM383 668q0 -106 9 -150.5t40 -44.5h25q-2 4 -2 12q-10 57 -11 142v170q2 197 8.5 317.5t20.5 237.5l4 45 q0 6 2 33q4 57 20.5 84.5t73.5 27.5q106 -6 188.5 -24.5t176.5 -49.5q63 -20 94 -28l-8 2q-129 123 -516 145q-47 0 -63.5 -12t-20.5 -43q-8 -74 -25 -227q-16 -180 -16 -465v-172zM522 573q0 -2 2 -34q2 -43 4 -43h-4q229 86 424 233q225 172 226 350q0 190 -119 334 q-25 12 -68 25.5t-95 27t-105.5 21.5t-98.5 8q-53 0 -86 -14.5t-37 -44.5q-8 -70 -24 -228q-14 -152 -19 -465v-170z" />
<glyph unicode="Q" horiz-adv-x="1998" d="M41 868q0 180 76 328q78 152 202 268q125 113 283 183q160 69 309 69h4q150 0 312 -69q158 -70 282 -183q123 -113 205 -268q80 -156 80 -326q0 -354 -258 -600q-258 -250 -621 -250q-57 0 -84 3h-18q-43 0 -43 -25q0 -18 4 -23.5t19 -11.5q18 -6 30 -12l19 -6l6 -8 q4 25 43 24h12q27 -2 84 -2q362 0 621 246q258 250 258 602q0 172 -80 328q-49 96 -123 182t-162 156q90 -51 174 -130q129 -119 205 -268q78 -150 78 -327q0 -350 -256 -601q-111 -106 -236 -160.5t-288 -78.5q10 0 22 2h21q27 0 67 -4q27 -2 37 -2q233 14 361 104 q35 0 45 -18.5t10 -46.5q2 -14 4 -15q-12 -10 -55 -39q-51 -35 -129 -79q-14 -10 -48 -31q-63 -41 -99 -62.5t-56 -25.5h-23q-49 0 -139 20q-100 20 -252 49q-68 10 -126 17.5t-116 7.5q-61 0 -109 -11.5t-73 -37.5q-8 0 -18 -2q-6 -2 -15 -2q-12 0 -29.5 21.5t-17.5 27.5 q0 12 33 43l14 14q25 23 47.5 46.5t40.5 47.5q8 8 21 27q10 12 12 14l6 7q10 14 17 26l6 6q-16 6 -41 21.5t-35 25.5q39 -27 78 -43q4 4 4 7q0 10 -8 10q-57 29 -133 73t-125 82q-158 115 -246 293q-90 180 -90 387zM354 852q0 -303 166 -516q43 -55 88 -100.5t78 -51.5 q-16 2 -38.5 30t-51.5 67l-2 4q-166 213 -166 516q0 301 166 516q164 215 397 215q8 0 53.5 -9.5t92.5 -21.5t82.5 -23.5t35.5 -17.5l-2 -2q-143 125 -333 125q-233 0 -400 -215q-166 -217 -166 -516zM520 741q0 -301 166 -516q35 -38 62 -67q74 -33 174 -33q233 0 395 190 q80 96 125 234.5t45 306.5q0 176 -40 315.5t-120 219.5l-39 39q-94 43 -203 43q-233 0 -399 -216q-166 -217 -166 -516zM608 -336q0 12 33 43l-4 2q43 18 125 19q113 0 254 -25q35 -6 133 -27q94 -20 155.5 -30.5t104.5 -10.5h21q10 2 71 37l2 2q53 33 129 80q72 43 129 80 q25 20 56.5 37.5t54.5 17.5q31 0 31 -36v-17q2 -8 2 -10q0 -16 -5.5 -22.5t-19.5 -14.5q-18 -10 -27 -16q-16 -10 -32 -23q-39 -29 -77 -54.5t-82 -53t-80 -46t-58 -22.5h-23q-43 0 -139 20q-57 12 -123 25l-129 25q-124 24 -244 24h-10q-39 0 -69.5 -9t-63.5 -24 q-47 -20 -70 -20q-12 0 -21 12.5t-18 28.5z" />
<glyph unicode="R" horiz-adv-x="1701" d="M41 1677q0 31 29 31q115 -16 196 -16q53 0 174 6q119 6 195 6q213 0 403 -51q199 -53 328 -178q133 -127 133 -375q0 -123 -96 -250q-94 -119 -252 -227q-4 -2 -25 -15q-45 -27 -73.5 -47t-28.5 -37q0 -10 12 -22q129 -184 196.5 -263t149.5 -128q-33 31 -67 67 q-82 90 -215 279l22 -2q-12 12 -12 24q0 18 33 41t80 47l12 8q158 109 252 230q98 123 98 248q0 246 -135 377q-27 27 -61 53q80 -47 139 -105q133 -129 133 -374q0 -123 -96 -250q-96 -123 -291 -252l-57 -37q-29 -16 -29 -35q0 -12 12 -24q133 -188 215 -279q4 -4 21 -16 q33 -23 52 -43.5t19 -42.5q0 -4 -16 -7.5t-41 -6.5t-44.5 -4t-31.5 -1t-39 4q-43 4 -67 4q-20 0 -70 -4q-70 -6 -115 -6h-63q-23 0 -39 3t-16 9v27q0 16 6 24.5t18 16.5q20 14 21 27q0 16 -19 45q-20 41 -117 166q-16 -2 -41.5 -7.5t-46.5 -11.5l-30 -6q-18 -2 -39 -6 t-35 -10q-2 0 -33 -7q-51 -12 -74.5 -24t-23.5 -47v-23q12 -86 27.5 -125t50.5 -61q10 -10 12 -19.5t2 -35.5q0 -27 -33 -27q-27 4 -58.5 4h-117.5q-117 2 -181.5 5t-64.5 18q0 23 2 28q53 2 123 6q8 2 25 2q10 0 49 -4q70 -6 102 -6q35 0 55.5 6t20.5 19q0 27 -9 44t-28 40 q-27 31 -42 63.5t-15 89.5v23q0 41 37 53q53 14 75.5 20.5t90.5 20.5q35 12 74.5 19.5t70.5 7.5q-47 47 -86 47q-25 0 -96 -25h-2l-31 -6q-8 -2 -24 -4q-72 -14 -109 -27q-31 -12 -49.5 -27.5t-18.5 -33.5v-25q16 -88 31 -123.5t53 -66.5q8 -8 9 -47q0 -27 -31 -27 q-127 10 -197 10q-92 -2 -194 -12q-29 0 -29 27q0 47 16 47q27 0 39.5 54t26.5 185v5q12 139 16 507q0 106 2 134q2 27 2 114q0 96 -3 183.5t-11 169t-25.5 135t-46.5 57.5q-20 2 -20 55zM391 674q0 -96 9.5 -145.5t41.5 -49.5q18 0 19 8v7q-10 92 -10 141v170q0 279 18 467 q4 47 8 84q12 158 37 182q4 10 14 10q2 0 9 -2q8 -2 14 -2q14 0 29 8l-5 -2q244 -12 369 -57l10 -2q43 -14 76 -27.5t35 -23.5q-2 12 -22.5 26.5t-47 27.5t-52 22.5t-58.5 21.5q-29 8 -63 17.5t-81 19.5t-95 17t-87 7q-55 0 -89 -14t-38 -47q-8 -74 -24 -227 q-16 -180 -17 -465v-172zM528 582q0 -37 4 -74q223 80 422 233q225 176 226 351q0 33 -3 84t-11.5 107t-27 96t-46.5 40h-2q-37 16 -66 25q-14 4 -53 14t-92.5 21.5t-110.5 19.5t-100 8q-61 0 -78 -20q-14 -20 -19 -43q-8 -70 -24 -227q-14 -158 -19 -465v-170zM1083 -45 q0 4 2 12l2 -4h15h22q111 12 185 12q27 0 71 -6q23 -4 33 -4q33 0 82 6t49 15q0 4 -5 15t-9 15l4 -2q23 -8 29 -8q14 -8 36.5 -26.5t22.5 -40.5q0 -4 -16.5 -7.5t-41 -6.5t-44 -4t-29.5 -1q-14 0 -41 4q-43 4 -66 4q-25 0 -81 -6q-66 -6 -103 -6h-61q-23 2 -39.5 5t-16.5 9 v25z" />
<glyph unicode="S" horiz-adv-x="1626" d="M41 346q0 76 8 123q6 59 6 129q0 88 56 88q55 0 55 -84q31 -145 203 -305q10 -10 39 -29q33 -25 47 -39l-25 25q-174 164 -203 307q0 23 4.5 28t18.5 5q27 0 38 -18.5t17 -65.5q8 -66 61.5 -142.5t139.5 -160.5q18 -8 46 -18.5t69 -22.5t81.5 -20.5t71.5 -8.5q41 0 60 13 l-5 -3q115 0 248 107q141 111 142 264q0 76 -37 155t-101 99q-139 49 -262 84q-111 31 -205 72t-163 98q16 -10 20 -12q14 -10 18 -13q115 -57 252 -98q10 -2 31 -8q115 -31 187.5 -56.5t123.5 -60.5q-53 51 -141 82q-117 45 -262 86q-137 41 -252 98q-127 70 -197.5 144 t-70.5 174t41 173t110 107q23 8 71 22.5t105 31.5l177 20v2q229 -18 393 -127h10q6 -2 8 -2h27q25 0 51.5 -44t51 -105.5t38.5 -114.5t14 -65q0 -14 -17 -27.5t-32 -13.5q-10 0 -41.5 25.5t-31.5 33.5l2 2l8 2q-43 102 -147.5 165.5t-200.5 63.5q-49 0 -100.5 -8 t-95.5 -27.5t-71.5 -52t-27.5 -77.5q0 -29 32.5 -54.5t82 -45t101.5 -34t113 -30.5q12 -2 33 -8q145 -39 281 -105q139 -72 215 -172q43 -55 67.5 -132t24.5 -165q0 -272 -203 -430q-205 -162 -448 -162q-229 0 -414 74q-184 74 -301 176q-45 12 -45 88zM268 121l4 2 q92 -72 246 -133q188 -74 412 -74q242 0 452 162q203 160 203 430q0 90 -24.5 166t-67.5 131q-43 53 -90 96t-94 57q18 -6 39.5 -28.5t50.5 -57.5q12 -14 14 -18q43 -57 67.5 -133t24.5 -164q0 -272 -202 -430q-205 -162 -451 -162q-219 0 -412 72q-84 33 -172 84zM365 1436 q0 -53 69 -99q6 -4 23 -12h-2q-35 35 -35 68q0 45 26.5 77.5t70.5 52t94.5 28t97.5 8.5q104 0 280 -105l12 -6q-78 61 -181 107.5t-169 46.5q-49 0 -99 -8.5t-93 -28t-68.5 -52t-25.5 -77.5zM1231 1495q2 -2 6 -2h6q43 0 65.5 -49t45.5 -144q12 -53 22 -82.5t23 -41.5 q2 -2 2 -7q0 -16 -15.5 -28.5t-31.5 -12.5q-23 0 -47.5 14.5t-24.5 37.5v-6q14 0 27.5 12t13.5 26q0 18 -9 44t-26 61q-12 29 -16 39q-20 59 -37 123z" />
<glyph unicode="T" horiz-adv-x="1820" d="M41 1382q0 10 15.5 39t47.5 80q35 55 54.5 90t25.5 58q23 67 48 67h1h62h2h2q190 -12 367 -12h98q16 0 70 2l26 2q82 2 187 8q211 10 301 10q45 0 69.5 -24.5t52.5 -77.5q27 -53 50 -80q31 -39 55 -74l6 -6q23 -29 35 -47t12 -33q0 -20 -19.5 -35.5t-39.5 -15.5 q-37 0 -53.5 11.5t-34.5 37.5q-16 23 -31.5 37.5t-44.5 24.5q-4 0 -6 2q-147 45 -238 55h-22q-12 0 -20.5 -25.5t-13.5 -70.5t-7 -92t-4 -107q-8 -217 -9 -461q0 -358 19 -503q14 -119 33.5 -182.5t52.5 -67.5q20 0 20 -55q0 -27 -32 -27q-113 12 -209 12q-18 0 -80 -6 q-76 -8 -109 -8q-66 0 -65 24q0 25 2 31q33 4 57 4q31 0 78 2q25 2 35 2q6 0 37 -2q80 -6 116 -6q41 0 64.5 5t23.5 18q0 33 -5 43t-17 16q-25 14 -39 47q-25 47 -43 201q-20 154 -20 504q0 342 8 458q2 45 2 64q4 123 11 178t32 55h24q70 -8 171.5 -34.5t164.5 -63.5 q-27 27 -78 52.5t-113.5 46t-118.5 32.5t-89 12h-25q-20 0 -30.5 -81.5t-14.5 -212.5q-6 -180 -6 -461q0 -358 19 -504q14 -117 34.5 -183.5t51.5 -66.5q20 -2 20 -55q0 -27 -35 -27q-139 10 -209 10q-27 0 -112 -6q-84 -6 -109 -6q-33 0 -33 27q0 49 17 49q16 0 39 47 t43 197q14 82 23 211t9 292q0 109 2 148t3 317q0 80 -11 178q-121 -33 -220 -80t-130 -104q-33 -63 -104 -63h-2q-20 0 -36 16t-16 37v2v6q39 6 47.5 11t20.5 30q0 2 10 21q47 82 195 135q37 14 108 32q59 14 87 27.5t28 36.5v6q-2 6 -2 8q0 4 -16 4h-23 q-41 -4 -108.5 -21.5t-137 -46t-123 -63t-73.5 -71.5q-33 -63 -107 -64h-2q-20 0 -34.5 16.5t-14.5 36.5zM1507 1616q63 -2 78 -49q16 -37 50 -87t83 -116q37 -51 49.5 -68.5t12.5 -23.5q0 -20 -21.5 -35.5t-42.5 -15.5q-70 0 -104 55l-2 2q6 -2 24 -2t40 15.5t22 35.5 q0 18 -22.5 50t-65.5 81q-16 18 -21 25q-57 74 -80 133z" />
<glyph unicode="U" horiz-adv-x="1751" d="M41 1712q0 27 29 27q139 -10 196 -10q8 0 49 4q70 6 107 6q43 0 69.5 -8.5t26.5 -30.5q0 -53 -18 -53q-25 0 -43 -39q-25 -43 -47 -201q-20 -156 -25 -530q-2 -20 -2 -89v-153q0 -61 2 -62h4q2 -180 23.5 -251.5t79.5 -88.5l-7 -26q-37 74 -41 293h-6v303q4 365 29 530 q18 127 35.5 184.5t52.5 57.5q6 0 14 12q16 27 35 27q14 0 31 -10q20 -14 20 -27q0 -55 -18 -55q-25 0 -43 -39q-25 -45 -47 -197q-20 -145 -25 -532q-2 -20 -2 -88v-152q0 -66 2 -65h6q4 -172 25 -250h35q25 -2 30 -2q55 0 111.5 8t128.5 26q10 2 29 7q59 14 112.5 28.5 t102.5 32.5t83 42t34 50v432q0 113 2 144t2 125v147q0 66 -6.5 132.5t-17.5 122.5t-27.5 91t-34.5 37q-20 4 -25 53q0 31 23 31h12q86 -14 192 -14q190 0 207 16q23 0 23 -31q0 -55 -17 -55q-16 0 -34 -43q-20 -41 -39 -205q-18 -170 -23 -534q0 -291 2 -338 q2 -68 8.5 -140.5t16.5 -134t26.5 -98.5t38.5 -37q18 0 19 -57q0 -25 -33 -25q-133 10 -195 10q-4 0 -30 -2q-39 -4 -64.5 -5t-48.5 -1q-39 0 -61.5 5.5t-22.5 17.5v12q-55 -16 -143 -47q-123 -43 -201 -63.5t-154 -20.5q-152 0 -239 82q74 -29 162 -29q135 0 329 74 q33 12 121 37q90 25 140.5 42t58.5 32l6 18q0 6 2 12v9q0 10 -8 10q-4 0 -21 -6q-199 -45 -354 -105q-197 -74 -332 -74q-156 0 -246 86q-94 90 -98 375v142q0 233 12 376q2 27 3 115q0 98 -3.5 187.5t-12.5 170t-25.5 132t-42.5 55.5q-20 4 -25 55zM1253 -41q0 31 2 31 l7 -2q74 6 147 6q10 0 47 -4q72 -6 103 -6q37 0 56 6t19 18q0 55 -18 55q-31 0 -50.5 63.5t-31.5 180.5q-6 49 -10 170q-4 197 -4 342q4 352 22 535q14 125 30.5 185t45.5 60q0 4 17.5 18.5t33.5 14.5q2 0 4 -2h4q33 0 33 -26q0 -57 -16 -58q-18 0 -35 -43q-20 -37 -39 -203 q-18 -170 -23 -534q0 -291 2 -340q2 -68 8.5 -141.5t16.5 -135t26.5 -98.5t39.5 -37q18 0 18 -55q0 -27 -33 -27q-106 12 -194 13q-10 0 -47 -4q-72 -6 -105 -7q-35 0 -55.5 6.5t-20.5 18.5z" />
<glyph unicode="V" horiz-adv-x="1816" d="M41 1706q0 6 45 6q23 0 55.5 -1t75.5 -5q41 -2 49 -2h129q18 0 58 4q41 4 59 4q27 0 42 -7t15 -24v-6q0 -6 2 -12q2 -14 2 -18q0 -23 -22 -23q-23 0 -37 -23.5t-14 -50.5q0 -51 30 -172q47 -182 205 -553q8 -23 23.5 -65.5t42.5 -116.5q8 -20 14 -39l8 -24q2 -8 8 -25 q14 -41 26.5 -63.5t25.5 -22.5q12 0 24 16l-8 19q-12 27 -21.5 52.5t-19.5 53.5q-4 12 -11 31.5t-20 54.5q-12 35 -17 49.5t-13 36.5q-160 377 -203 551q-31 123 -31 172q0 31 13.5 51.5t37.5 20.5q23 0 23 24v3q6 4 29 8h4q25 0 37 -18.5t12 -45.5q0 -25 -23 -24 q-25 0 -38 -20.5t-13 -51.5q0 -55 29 -172q31 -131 205 -551q14 -33 28 -76l2 -8l31 -80q4 10 14 37q12 37 21 59l18 54q31 88 47 129q143 360 174 528q20 102 21 164q0 39 -15.5 64.5t-39.5 25.5q-27 0 -27 29t15.5 39t41.5 10q14 0 47 -2q35 -4 54 -4h205h4q63 8 84 8 q35 0 34 -10q0 -33 -24.5 -53.5t-40.5 -28.5q-33 0 -63.5 -53.5t-84.5 -174.5q-2 -4 -6 -14q-72 -158 -202 -518q-39 -113 -97 -252q-49 -111 -76 -184l-8 4l-6 -19q0 -2 -6 -18q-6 -14 -8 -18l-19 -56q-4 -12 -22 -59t-23 -60l-37 -104q-39 -94 -92 -94q-35 0 -51 20.5 t-35 73.5l-61 178q-20 61 -58 160q-2 10 -6 18q-8 25 -35.5 103t-38 109.5l-23.5 70.5t-30 86q-131 362 -221 559q-61 129 -104 197.5t-74 68.5q-10 0 -27.5 21.5t-17.5 48.5zM889 -57q33 6 57.5 48t46.5 111q10 33 33 82q18 45 31 78q16 31 28 74q6 29 15 37v-2 q43 117 76 188q35 78 96 250q121 336 201 518q55 125 89.5 184.5t67.5 59.5q16 0 37 31q10 0 31 2q37 4 49 4q29 0 29 -11q0 -25 -18.5 -44t-41.5 -31l-4 -4q-33 0 -68.5 -59.5t-89.5 -182.5q-72 -158 -200 -520q-53 -154 -99 -250q-20 -47 -35.5 -88t-37.5 -99 q-4 -12 -15 -40q-2 -2 -6 -19q-10 -33 -25.5 -69.5t-35.5 -86.5l-8 -16q-6 -14 -21 -53q-27 -70 -50.5 -108t-57.5 -38q-51 0 -74 54z" />
<glyph unicode="W" horiz-adv-x="2369" d="M41 1706q0 12 27 12l24 -2l43 -4q14 -2 25 -4q41 -6 92 -6h131q74 0 102.5 2t44.5 10l7 2q10 0 13 -17.5t3 -31.5q0 -23 -18 -22q-23 0 -36.5 -27t-13.5 -62q0 -57 27 -174q41 -172 182 -559q35 -88 43 -129q4 -14 9.5 -32.5t13.5 -43t17 -43t16 -18.5q16 0 24 43v6 q0 4 2 6h2q-2 2 -6 23q-2 6 -2 8q-29 86 -45 129q-137 367 -182 559q-27 117 -27 174q0 53 17.5 66.5t56.5 13.5q47 2 65 17l7 2q6 0 10 -19.5t4 -34.5q0 -20 -19 -20q-20 0 -33.5 -25.5t-13.5 -56.5q0 -59 27 -176q41 -174 172 -533l14 58q16 66 23 96q4 12 4 16 q4 16 31 129l16 66q72 305 98 493q6 51 27.5 91.5t60.5 40.5q35 0 55.5 -34t32.5 -87q59 -266 129 -527l3 -6q41 -160 69 -256q10 -33 29 -106q18 -80 31.5 -122t29.5 -59l4 -4q10 0 17 29q4 27 12 35q-25 86 -74 274l-45 164q-70 262 -129 529q-4 12 -9 28.5t-9 28.5l6 2 q8 2 18 2q35 0 54.5 -33t35.5 -88q29 -133 91 -375q27 -102 39 -153l30 -123q6 -29 29 -103q6 -16 6 -18q12 49 39 104q139 373 172 535q20 100 20 168q0 41 -14 61.5t-39 38.5q-29 18 -28 37v17q4 16 22.5 22t48.5 6q25 0 82 -6q49 -4 68 -4h92l8 2q59 6 80 6q33 0 33 -10 q0 -31 -19.5 -52.5t-34.5 -29.5q-23 0 -47 -48t-65 -155l-17 -39q-33 -82 -192 -518q-20 -57 -38.5 -106t-42 -117t-42 -122t-33.5 -103l-14 -52l-4 -16q-8 -29 -10 -35l-27 -82q-12 -49 -21.5 -80.5t-21.5 -60.5q-35 -80 -84 -82q-31 0 -56.5 18.5t-35.5 51.5 q-53 178 -119 432l-8 35q-27 84 -41 149l-68 -276q-16 -70 -20 -80q-29 -117 -39 -160l-55 -239h4q-31 -51 -70 -52q-61 0 -90 62q10 0 37 28q23 23 29 23h-5l56 240q10 43 39 159q4 10 20 80q10 43 39 160q6 27 12 55l49 215q-2 6 -8 31q-14 49 -22 73.5t-19 24.5 q-4 0 -9 -9t-7 -21q-23 -106 -74 -322q-25 -104 -37 -158l-55 -239l-14 -64q-10 -47 -23.5 -111.5t-15.5 -64.5h2q-27 -51 -68 -51q-70 0 -100 94l-111 356q-12 41 -49 140q-49 139 -78 223q-33 94 -59 176q-98 293 -135 389l-10 27q-47 121 -73 167t-54 46l-7 6 q-25 16 -44 37.5t-19 48.5zM1536 -55q55 10 82 94q18 55 39 139q16 78 33 125q29 104 77 242q59 178 88 256l27 73q35 94 74 199q74 207 92 250q53 135 79.5 188.5t47.5 53.5q2 0 8 8q10 14 19 14h6q10 0 39 4q37 2 55 2q27 0 27 -8q0 -25 -15.5 -43t-38.5 -35l-4 -4 q-14 0 -39 -45q-25 -41 -88 -196q-4 -10 -28 -78q-25 -61 -41 -109l-9 -20q-74 -197 -114 -314q-16 -45 -38 -110.5t-44 -136.5q-47 -145 -66 -197q0 -6 -5 -28.5t-12 -47t-15.5 -51.5t-10.5 -35q-2 -6 -6 -29q-10 -39 -19.5 -72.5t-23.5 -66.5t-34.5 -55.5t-45.5 -24.5 q-57 0 -86 62z" />
<glyph unicode="X" horiz-adv-x="1869" d="M41 10q0 18 22.5 41t36.5 35q12 4 68 55q53 53 172 203q127 154 362 485q25 29 25 60q0 29 -18 55q-186 291 -301 451q-10 12 -33 47q-68 94 -101.5 132t-58.5 38q-12 0 -34.5 30.5t-22.5 51.5q0 16 18 16q121 -16 207 -16q25 0 92 6q82 8 117 8q51 0 80.5 -12.5 t29.5 -42.5q0 -8 -22 -21q-23 -10 -36 -22.5t-13 -34.5q0 -31 22 -102q35 -94 197 -320q27 -35 36 -42t29 -7l-4 2q0 2 -2 2q-129 180 -176 263t-47 159q0 25 13.5 37t35.5 22q25 10 25 19v2l16 4q25 0 46.5 -18.5t21.5 -43.5q0 -6 -23 -16q-23 -12 -37 -24.5t-14 -34.5 q0 -35 27 -105q35 -88 141 -246q133 176 181 258t48 158q0 31 -16 47.5t-45 30.5q-27 14 -27 22q0 23 20.5 42.5t43.5 19.5q59 -6 135 -13.5t111 -7.5q8 0 47 5q51 2 84.5 5t58.5 3q35 0 35 -6q0 -23 -15.5 -37.5t-48.5 -34.5q-37 -20 -51 -35q-41 -35 -141 -158 q-98 -119 -320 -424q-25 -39 -24 -73q0 -43 28 -84q219 -342 316 -469q104 -141 166 -207q51 -57 82 -76q6 0 36.5 -30.5t30.5 -55.5q0 -4 -45 -4q-33 0 -80 2t-71 2q-27 2 -29 2q-39 0 -129 -8q-88 -8 -125 -8q-57 0 -88 13t-31 46q0 16 23 17q25 0 42 19t17 48 q0 41 -35 135q-39 102 -178 314q-223 -297 -272 -414q-41 -100 -41 -135q0 -29 18.5 -45.5t42.5 -16.5q23 0 23 -14q0 -20 -22.5 -42.5t-49.5 -22.5q-18 2 -58 6t-77 7t-72 5t-55 2q-23 0 -80 -4h-6q-8 -2 -41 -2h-4q-27 -4 -41 -4q-27 0 -27 8t12.5 25.5t20.5 27.5h18l31 2 q29 2 37 2q27 0 100 -8q86 -8 121 -8q53 0 83 13.5t30 47.5q0 14 -21 15q-31 0 -61 -17q-25 -14 -47 -14q-14 2 -82 8q-35 2 -49 4q-80 6 -133 6q-29 0 -84 -6q-61 -6 -92 -6q-25 0 -25 6zM511 90q19 -18 44 -18q-2 2 -2 16q0 35 41 135q47 113 274 416q23 23 23 31t-10 18 q-18 27 -35 27q-23 0 -37 -27q-227 -305 -277 -418q-40 -98 -40 -133q0 -29 19 -47zM1081 887q0 37 27 76q209 287 319 423q68 78 106 118t67.5 60.5t59.5 29t87 14.5q20 0 20 -13q0 -14 -20.5 -37.5t-38.5 -35.5q-12 0 -53 -35q-39 -33 -144 -160q-117 -143 -317 -424 q-29 -41 -29 -74q0 -43 31 -84q207 -326 315 -469q2 -2 15 -20q90 -123 141 -183.5t92 -78.5q12 -6 41 -35t29 -51q0 -6 -43 -6q-25 0 -57.5 2t-65.5 4q-47 2 -61 2q-35 0 -125 -8q-94 -6 -138 -6q-51 0 -78.5 9t-27.5 32v4v4l-6 4q43 6 135 12q127 6 156 6q10 0 69 -4 q82 -4 115 -4q41 0 41 6q0 23 -26.5 50.5t-43.5 37.5q-20 10 -80 74q-53 53 -166 207q-109 143 -315 469q-31 43 -31 84z" />
<glyph unicode="Y" horiz-adv-x="1857" d="M41 1681q0 12 15.5 21.5t27.5 9.5q59 -8 92 -12q16 -2 88 -2q16 0 76 2q20 2 45 2h6q82 4 123 10q18 0 33.5 -7t15.5 -19v-27q0 -33 -28 -33q-41 0 -48 -45q0 -66 54 -203q59 -154 268 -534q12 -31 28.5 -54.5t34.5 -23.5q4 0 7 2l6 2l4 6h-2q-51 104 -139 273 q-113 213 -140 284q-23 55 -37 104.5t-14 84.5q0 59 45 59q27 0 31 29h12q31 0 49.5 -11.5t18.5 -39.5q0 -33 -31 -33q-39 0 -45 -43q0 -78 51 -205q59 -150 227 -461q2 0 9 12q231 377 282 523q43 127 43 188v29q-6 27 -19 38t-34 19q-16 6 -23.5 12.5t-7.5 20.5 q0 53 56 53q39 0 118 -8q78 -6 111 -6q63 0 98 8l11 2q31 4 61 6q16 0 29 2q25 0 24 -10q0 -20 -12 -36.5t-31 -31.5q-6 -6 -6 -8q-14 0 -51 -43q-35 -35 -148 -201q-156 -240 -325 -528q-211 -365 -264 -516q-43 -123 -43 -178q0 -35 14 -49.5t39 -24.5q18 -8 18 -14v6 q-4 10 -4 31q0 57 41 178q53 162 264 516q190 322 328 528q86 135 128 189.5t67 54.5q6 12 37.5 22.5t60.5 10.5q31 0 31 -13q0 -20 -12.5 -36.5t-28.5 -28.5q-6 -6 -7 -6q-10 0 -51 -43q-35 -41 -143 -203q-106 -162 -326 -528q-217 -367 -266 -516q-41 -125 -41 -179 q0 -39 14.5 -55t40.5 -29q25 -12 25 -24q0 -63 -59 -64q-6 0 -68 11q-100 16 -158 16q-23 0 -73 -2q-12 -2 -25 -2q-12 -2 -51 -2q-4 0 -13 -2q-20 -2 -28 -2q-16 0 -25.5 6t-9.5 22q0 12 10 23l6 6q8 2 29 2q12 0 25 2q51 2 73 2q53 0 96.5 -4t79.5 -14q8 -2 11 -2 q20 -4 32 -6h7q59 0 59 63q0 16 -31 31q-27 10 -35 22v-2q0 -33 -21.5 -47t-55.5 -14q-29 0 -82 12q-4 0 -13 2q-51 8 -110 8t-100 -4l-50 -6q-10 -2 -49 -2q-27 0 -26 29q0 25 16 37t45 24q18 8 25 15q27 16 71 79q2 2 19 25q27 31 51 64.5t49 72.5t42 76t17 63 q0 37 -14 68q-2 6 -24.5 52t-43 90t-39 80t-24.5 48q-143 305 -240 467q-16 29 -32 56q-63 111 -100.5 162t-84.5 83q-31 25 -57 80z" />
<glyph unicode="Z" horiz-adv-x="1757" d="M41 33q0 33 20 53q178 201 316 387q74 98 221 313q20 33 64 95q31 45 83 123q82 117 132 190q111 166 182 283h-31q-80 0 -168 -12.5t-172 -34t-147.5 -51t-94.5 -64.5q-25 -31 -61.5 -61.5t-65.5 -30.5q-35 0 -34 22q0 4 4 19q4 20 4 30l-2 19l6 6l6 6q43 41 59 61 q55 61 246 119q141 45 336 45q6 0 29 -2q41 -2 63 -2q47 0 47 10q0 16 -14 21.5t-35 7.5q-12 0 -12 2q-70 6 -139 6q-80 0 -168 -12t-173 -33.5t-148.5 -51.5t-92.5 -64l-2 -2q-39 -43 -67.5 -67t-57.5 -24q-37 0 -37 27q0 23 19.5 54.5t52.5 74.5q20 27 24 35t13 20 q37 68 68.5 113t60.5 47q10 -14 151 -18h324q39 2 176 2q29 0 123 2l45 2h6q37 0 55 2q92 2 197 2q43 0 43 -27q0 -23 -39 -65q-160 -193 -297 -387q-80 -113 -246 -361l-24 -37l-111 -166q-59 -92 -112 -161q-100 -141 -211 -326q-2 -6 -6.5 -17.5t-4.5 -21.5q0 -18 19 -18 h49l6 12q86 150 213 326q109 152 221 325q18 31 88 133q6 10 45 66l136 197q111 160 297 387q18 18 28 38h45q43 0 43 -24q0 -25 -37 -68q-160 -193 -297 -387q-152 -211 -270 -397q-23 -37 -108 -166q-86 -129 -113 -166q-102 -152 -184 -287h61q45 0 88 5q76 4 202 26.5 t220 52.5q68 20 122 46t87 59l55 55q31 31 64 31q53 0 53 -51q-4 -35 -37 -72t-80 -80q-18 -16 -22 -20q-6 -8 -17 -27q-45 -70 -81.5 -104.5t-96.5 -34.5h-289q-86 0 -192 2h-96q-276 0 -334 -2q-129 -4 -240 -13q-23 0 -37 16.5t-14 39.5zM176 -72l4 2q82 6 207 11h21 q55 2 317 2q78 0 195 -2q63 -2 94 -2h289q59 0 90.5 26.5t74.5 89.5q20 33 33 49q8 10 25.5 30t45 51.5t47 56t19.5 28.5l7 2q8 2 18 2q51 0 51 -47q0 -20 -11 -43.5t-30 -40.5q-70 -57 -98 -92q-8 -12 -25 -37q-45 -70 -77.5 -98.5t-92.5 -28.5h-288q-86 0 -193 2h-96 q-276 0 -334 -2q-129 -4 -240 -12q-16 0 -24 9.5t-12 23.5q-6 20 -17 20z" />
<glyph unicode="[" horiz-adv-x="327" d="M41 -150v2003h190v-67h-122v-1864h24v1845h123v50h31v-68h-123v-1827h67v-72h-190zM94 -168h162v51h31v-69h-193v18z" />
<glyph unicode="\" horiz-adv-x="835" d="M41 1640h63l596 -1593h-61zM160 1577h39l596 -1593h-64l-12 32h22z" />
<glyph unicode="]" horiz-adv-x="327" d="M41 -78h123v1827h-70v18h70v19h-123v67h190v-2003h-190v72zM94 -168h162v1985h31v-2003h-193v18z" />
<glyph unicode="_" horiz-adv-x="1193" d="M41 -76h1077v-55h-1077v55zM72 -141h1061v43h20v-56h-1081v13z" />
<glyph unicode="`" horiz-adv-x="274" d="M41 1708h74l55 -129q16 -53 16 -72q0 -23 -16 -22q-35 0 -74 94l-53 129h-2zM143 1675h19l53 -129q18 -45 18 -67q0 -25 -18 -25q-14 0 -31 16h-2h8q18 0 19 25q0 23 -19 68z" />
<glyph unicode="a" horiz-adv-x="1308" d="M41 344q0 305 182 391q184 86 449 86q18 0 49 -4q25 -2 35 -2q78 0 78 74q0 6 -6.5 33.5t-8.5 27.5h-6q-41 0 -104 13q-35 8 -50 8q-215 0 -342 -127q0 -6 -14 -6q-18 0 -40.5 13t-33.5 28h15q4 -2 18 -2t14 6q127 127 342 127q39 -2 102.5 -11.5t100.5 -21.5 q-27 37 -98 49q-92 14 -148 14q-217 0 -337 -127q0 -6 -17 -6q-29 0 -56.5 23.5t-27.5 48.5q0 12 8 20q219 170 443 170q113 0 246 -34q133 -33 251 -111q0 -2 2 -8q4 -12 5 -23v-16q-2 -2 -2 -14v-45q-4 -82 -5 -154l-2 -45q-4 -152 -4 -250q0 -188 13.5 -278.5 t66.5 -112.5q8 -4 19.5 -28.5t11.5 -41.5q0 -14 -35 -14q-18 2 -41 2q-23 2 -41 4q-16 2 -86 2q-16 0 -49 4t-49 4q-29 0 -41 -12q-8 -8 -39 -23q-8 -4 -14 -6q-115 -45 -234 -45q-84 0 -168 25.5t-141 68.5q31 -14 45 -18q96 -39 203 -39q27 0 79 6t105 19.5t90 30t37 36.5 l2 29q0 4 2 6t2 6q0 8 -8 8t-25.5 -9t-48.5 -27q-39 -25 -47 -27q-115 -45 -239 -45q-102 0 -205 37q-203 78 -203 313zM303 389q0 -72 23.5 -111.5t81.5 -97.5l16 -16q2 -2 4 -2l2 -2q-82 70 -82 196q0 141 101 242q102 98 362 104q4 0 6 -2l2 -2q-6 20 -20.5 26.5 t-32.5 6.5q-260 -2 -360 -102q-102 -102 -103 -240zM401 319q0 -104 62 -176q35 -10 61 -10q78 0 187 60q59 35 77.5 64.5t18.5 88.5q2 10 2 14q4 47 4 76v111q0 14 2 28q2 16 2 33q2 18 2 56v2v-2q-147 -8 -221 -13q-6 -6 -31 -30q-37 -33 -63 -60q-102 -98 -103 -242z M885 -35q0 4 10 8l4 2q6 2 43 2q6 -2 70 -2q43 0 65.5 -2t55.5 -6h2q33 -4 45 -6q35 0 34 16q0 14 -11 39t-19 29q-45 6 -66 129q-14 76 -14 258q0 66 4 189q2 82 2 108q0 133 2 156v22q0 6 2 17v6v33q0 18 8 18t29 -16q8 -8 8 -9q0 -2 2 -6q6 -12 6 -22v-21q-2 -6 -2 -12 q0 -10 -2 -23q-2 -12 -2 -22q-2 -23 -2 -156q0 -94 -2 -127q0 -18 -2 -37q-4 -82 -4 -133q0 -80 2 -143.5t10 -118.5t25.5 -90t44.5 -39q6 -2 20.5 -26.5t14.5 -40.5t-35 -17q-25 4 -84 12q-16 2 -84 3q-66 0 -123 9t-57 19z" />
<glyph unicode="b" horiz-adv-x="1355" d="M41 1686q0 24 32 24h3q49 -6 106 -6h105q2 0 24 2q29 2 41 2q29 0 47.5 -8t18.5 -29q-2 -51 -6 -51q-2 0 -5.5 -26.5t-6.5 -69.5t-4 -83t-3 -87q-2 -80 -6 -197q0 -43 29 -43q20 0 24 2q2 53 2 199q0 109 3.5 185.5t11.5 76.5q4 0 6 37l29 4q41 0 40 -35q-2 -31 -8 -65 q-4 -27 -6 -52.5t-4 -74.5q-2 -14 -2 -93q0 -104 -2 -141q33 20 117 21q100 0 197.5 -37t185.5 -107q172 -135 172 -413q0 -274 -176 -449q-174 -172 -445 -172h-72l9 4h-31h-96q-14 -2 -54 -2h-34q-18 0 -62 -2h-65q-47 0 -73 6t-26 21q6 27 12.5 38t16.5 19q8 6 15.5 16.5 t13.5 36.5q14 43 26 203q14 166 21 494q0 115 2 145q2 31 2 129q0 106 -2 191t-10.5 163t-26.5 125t-47 47q-12 0 -25.5 17.5t-13.5 34.5zM174 -59q2 2 2 10q2 12 4 12h56q14 -2 98 -2q33 0 65 2l23 2h131v-2h18h56q268 0 442 172q178 172 178 451q0 274 -172 411q-6 6 -6 9 q4 0 34 -22.5t40 -31.5q172 -135 172 -413q0 -276 -178 -449q-174 -172 -443 -172h-37q-10 2 -34 2h-142l-24 -2q-43 -2 -56 -2q-18 0 -61 -2h-64q-49 0 -75.5 5t-26.5 22zM379 467q0 -190 16.5 -272t73.5 -93q-20 33 -27 101q-12 111 -12 225q0 178 2 213t2 158v96 q0 2 2 10q2 12 2 17q0 2 11 14q14 14 14 18v4q88 57 153 58q53 0 112.5 -10.5t72.5 -34.5q-20 41 -95 62.5t-139 21.5q-10 0 -38.5 -6.5t-61.5 -18.5t-56.5 -28.5t-27.5 -36.5q0 -4 -2 -17q-2 -8 -2 -10v-471zM504 383q0 -166 6 -228.5t27 -62.5q145 10 251 105 q49 47 83 147t34 229q0 51 -5 116t-14 122t-23.5 94t-33.5 37h-4q-63 23 -135 23q-12 0 -39.5 -6.5t-60.5 -17.5t-55.5 -27.5t-26.5 -36.5q0 -4 -2 -11q0 -6 -2 -10v-473z" />
<glyph unicode="c" horiz-adv-x="1148" d="M41 582q0 248 176 424q176 172 377 172q188 0 307 -111q6 -8 35 -37q25 -25 39 -42t14 -30q0 -41 -16.5 -59t-52.5 -35q-39 -20 -58 -35q-2 -2 -12 -10q-33 -31 -54.5 -48t-33.5 -17q-16 0 -25.5 14t-9.5 31q0 29 5 47t11 33q6 14 7 18q0 16 -31 59l-8 11q-8 10 -15 18 l6 -6q-18 8 -59 8q-92 0 -151.5 -49t-96.5 -137q-27 -70 -37 -148q-6 -57 -6 -114q4 -78 50.5 -180.5t117.5 -163.5q47 -20 105 -21q88 0 168.5 42t119.5 108q33 57 56 57q18 0 34.5 -19.5t16.5 -50.5q0 -29 -18.5 -61.5t-26.5 -32.5q-80 -98 -178 -160q-102 -63 -219 -63 q-252 0 -394 170q-143 174 -143 418zM262 602q6 -133 115 -285q35 -45 64.5 -76.5t50.5 -31.5h4q-76 57 -130.5 165.5t-60.5 196.5q0 121 30 221.5t101 172.5q59 55 154 55q49 0 88 -19l-12 7q-20 20 -51 29.5t-68 9.5q-96 0 -156 -56q-57 -57 -86 -131q-31 -76 -37 -147 q-6 -57 -6 -111zM344 41q127 -98 318 -98q113 0 221 67q98 57 178 156l14 16q6 10 19.5 39t13.5 43q0 31 -16.5 49.5t-34.5 18.5q-10 0 -10 -2l2 -6l2 -11q2 -10 2 -16q0 -18 -14.5 -53t-24.5 -45l-4 -2q-76 -94 -179 -160q-102 -68 -219 -68q-152 0 -264 64zM817 731l2 -2 v2q0 6 20.5 23.5t49.5 37t54.5 36t37.5 20.5q41 16 41 82q0 20 -37 57l-12 12l-33 33q-8 8 -15 14.5t-22 16.5q41 -25 82 -59q4 -4 29 -27l12 -12l12 -13q37 -33 37 -55q0 -41 -16.5 -60.5t-50.5 -35.5q-37 -18 -56 -35q-29 -27 -41 -35l-37 -31l-4 -2q-12 -8 -16 -8 q-14 0 -19.5 7.5t-11.5 19.5q-4 12 -6 14z" />
<glyph unicode="d" horiz-adv-x="1355" d="M41 543q0 236 133 430q127 182 365 182q33 0 58.5 -8t61.5 -25q14 -6 31 -14l19 -8q29 -12 47 -19.5t30 -7.5q14 0 20.5 15.5t6.5 37.5q0 78 2 97q2 18 2 84v98q0 96 -27.5 161.5t-72.5 65.5q-16 0 -30.5 18.5t-14.5 37.5q0 28 35 28h2q27 -2 73 -10q68 -10 107 -10 q49 0 63 8q12 4 60 12h12q29 0 29 -35l-6 -55q-2 -6 -3 -43v-203q0 -150 -2 -209t-2 -319v-180q0 -129 2 -217t12.5 -174t33 -138.5t61.5 -52.5h2h2q0 4 -2 6t-2 6q-27 47 -43 203q-12 111 -12 328v178q0 106 4 330q2 158 2 205v204q0 35 6 70l2 12l41 4q29 0 29 -34l-7 -56 q-2 -6 -2 -43v-73q0 -94 -2 -130q-2 -154 -6 -534v-176q0 -219 13 -328q6 -59 30 -149q12 -45 13 -56v-6q0 -2 2 -2q-4 2 -19 2q-8 0 -22 -20q-20 -25 -31 -25q-27 0 -37 2t-59 2q-29 -2 -97 -2q-27 0 -47 2h-10q-8 0 -35 -6l-18 -12q-82 -41 -131 -59.5t-97 -18.5 q-12 0 -53 7t-83 18.5t-73.5 28t-31.5 34.5l-2 -10q80 -43 172 -43q55 0 112.5 22.5t141.5 69.5q4 4 6 4q-8 51 -27 51q-8 0 -21.5 -7t-41.5 -26q-16 -12 -17 -12q-113 -63 -209 -63q-178 0 -313 155q-135 158 -135 400zM266 676q0 -47 6 -72q18 -207 99 -311q43 -55 98 -86 q-25 23 -45 47q-78 102 -98 311q-2 10 -2 72q0 156 79 250q96 117 222 117q31 0 75.5 -7.5t51.5 -21.5q-10 33 -70.5 50t-108.5 17q-125 0 -227 -116q-80 -94 -80 -250zM385 592q0 -27 4 -72q8 -92 30.5 -154.5t59.5 -136.5l10 -20l7 -12q25 -25 61 -25h41q70 0 137.5 50 t67.5 118v98q0 76 6 230q4 92 6 151q0 25 -15.5 75t-25.5 50l4 4q-51 10 -86 10q-125 0 -227 -116q-80 -94 -80 -250zM928 -31q6 2 16 2h19q0 -2 45 -2q12 0 57 2h55h27q14 -2 18 -2q10 -2 39 -2q14 0 31 19q17 22 35 22h2q33 0 41 -31l2 -6q0 -14 -15.5 -31.5t-27.5 -17.5 q-27 0 -37 2t-59 2q-29 -2 -99 -2q-6 0 -24 -2q-29 -2 -43 -2q-37 0 -59.5 11t-22.5 38z" />
<glyph unicode="e" horiz-adv-x="1146" d="M89 818q48 112 138 192q173 155 336 155h2q115 0 209 -61q25 -16 53.5 -41t58 -54.5t48 -59t18.5 -52.5v-12q-10 -27 -16 -33l-133 -125v-2q-8 -6 -105 -88q-31 -25 -63.5 -53.5t-40.5 -34.5q-23 -20 -62 -53q-78 -68 -119.5 -108t-41.5 -58q0 -23 33.5 -53.5t66.5 -49.5 l-18 13q-43 31 -43 57q0 12 12 27l8 10l4 6l98 92l17 17q45 39 86 75l209 185v2l133 125q6 6 12 14t6 16v13q0 23 -18 49q-51 78 -123 129l12 -13q25 -16 56.5 -40.5t59.5 -53t46.5 -57.5t18.5 -53v-13q-8 -20 -19 -30l-133 -125v-2l-209 -185q-20 -18 -53 -45 q-80 -68 -125 -110.5t-45 -65.5q0 -20 24 -43l13 -12q76 -35 159 -35q72 0 128.5 42t93.5 110q8 18 33.5 37.5t48.5 19.5q53 0 53 -51q0 -14 -4 -31l-19 -43q-76 -123 -196 -197q-119 -75 -229 -75h-3q-217 0 -375 159q-149 155 -149 426q0 135 48 247zM238 582 q0 -41 9 -58.5t34 -38.5l20 -20l2 -2q-25 35 -24 88q0 150 55 291t227 141q35 0 70 -10q-31 41 -109 41q-174 0 -229 -144q-55 -137 -55 -288zM330 518q0 -8 4 -31v-6q37 37 129 119q139 125 190 184l4 4q14 14 23.5 26.5t9.5 27.5q0 16 -6 28l-2 7q-25 53 -37 73l2 -2 q-8 2 -35 2q-174 0 -227 -141q-55 -143 -55 -291zM352 23q115 -68 252 -68q113 0 234 80q61 39 114.5 92t83.5 115q16 29 17 61q0 16 -2 21h2q25 0 39 -16.5t14 -39.5q0 -35 -20.5 -72.5t-52.5 -73.5t-69.5 -67.5t-72.5 -54.5q-125 -80 -234 -80q-172 1 -305 103z" />
<glyph unicode="f" horiz-adv-x="956" d="M41 1038v13q6 39 21.5 68.5t50.5 29.5h37q45 0 60 7t15 34q0 66 -1 99.5t-5 78.5q-2 6 -2 14q-2 16 -6 37v6l-2 11q-2 8 -2 10q0 39 22 67q33 39 76 76t91 68t95.5 49t88.5 18q180 0 215 -151l10 -8l2 -4q2 -6 2 -11q0 -57 -31 -80q-18 -12 -43.5 -26t-66.5 -37 t-51.5 -29t-18.5 -10q-8 0 -20.5 7t-12.5 22v12v2v31q-6 -33 -6 -94q0 -4 2 -13l-2 -2v-98q0 -61 5 -78.5t28 -17.5q6 0 24 2q37 4 64 4q35 0 35 -29v-12q-2 -2 -2 -6t-2 -6t-2 -7q0 -4 -3.5 -12t-5.5 -12l-6 -19q-18 -43 -59 -43q-12 0 -43 2l-25 3l-24 2q-20 2 -43 2 t-30 -6.5t-7 -34.5v-285q0 -127 2 -224.5t8 -182.5t20.5 -138t36.5 -57q6 -2 16.5 -18.5t10.5 -28.5q0 -23 -31 -23q-49 6 -98 6h-195q-10 0 -36 -2q-39 -4 -56 -4q-41 0 -41 15v12q8 27 16.5 37t20.5 18q12 6 21.5 16.5t19.5 36.5q23 59 35 203q16 170 18 496v98 q-18 -2 -57 -2q-12 0 -21.5 10.5t-9.5 22.5v2q6 4 47 4q10 2 25 2h12h2q-8 31 -49 31h-6q-4 0 -45 -2q-43 -2 -57 -2q-31 0 -31 30zM190 -35q0 4 3 6q2 2 2 6l2 3q16 2 71 2h193q12 0 39 -2q33 -4 45 -5q23 0 35 6.5t12 22.5q-10 31 -31 45q-10 8 -18 18.5t-17 36.5 q-18 51 -28 213q-8 100 -9 330v289q0 27 7.5 34t29.5 7q43 -2 68 -6q14 -2 68 -2q25 0 38 12t25 39l2 8q2 8 9 31.5t9 23.5h23q33 0 33 -32v-13q-4 -4 -7 -18t-6 -23v-6q-6 -25 -22 -43t-43 -18q-12 0 -43 2l-25 2l-30 2q-18 2 -37 2q-20 0 -28.5 -6t-8.5 -35v-291 q0 -113 2 -180.5t6 -151.5q10 -123 24.5 -194.5t39.5 -71.5q4 0 15 -18.5t11 -30.5q0 -22 -28 -22h-3q-49 6 -98 6h-196q-8 0 -31 -2q-37 -2 -55 -2q-47 0 -48 14v12zM455 1178q0 -35 28 -35h15v2v227l2 2q-2 2 -2 17q0 53 22 127q10 33 10 43q0 16 -20 16q-18 0 -37 -25 q-18 -27 -18 -129q0 -8 2 -18l-2 -2v-225zM674 1323v12q0 10 34.5 36t53.5 34l61 37q29 18 29 78q0 27 -14.5 57.5t-36.5 50.5l6 -4q43 -16 75.5 -58t32.5 -89q0 -59 -30 -78l-31 -19q-8 -4 -31 -18q-41 -25 -57 -41q-6 -8 -29.5 -19.5t-29.5 -11.5q-10 0 -21.5 9.5 t-11.5 23.5z" />
<glyph unicode="g" horiz-adv-x="1437" d="M41 766q0 170 149 289q150 119 371 119q188 0 307 -80q10 -6 19 -7q18 0 76 33q39 23 66.5 35t53.5 12q63 0 122 -32.5t59 -85.5q0 -16 -13.5 -41t-35 -49.5t-43 -41t-39.5 -16.5q-16 0 -25 19q12 -37 43 -91q23 -41 34 -71.5t11 -73.5q0 -168 -154 -291 q-136 -112 -322 -112h-3h-37l-31 4q-51 6 -78 6h-16q-12 -2 -20 -2q-6 -6 -7 -8q0 -4 19 -7q20 -2 33 -6l61 -12l258 -70q59 -12 74 -18l86 -25q39 -8 39 -37v-12q-4 -10 -8 -24l-3 -4l-6 -25q-2 -14 -12 -39t-14 -29q-20 -113 -154 -225q-137 -115 -338 -115 q-213 0 -332 88q-61 45 -100 101.5t-39 111.5v25q0 16 11.5 40t27.5 45.5t33.5 35.5t30.5 14h6q-12 12 -13 15l2 2q4 0 15 -2q18 -6 24 -7l-6 -4q10 6 10 13q0 12 -32.5 20t-79.5 16q-14 2 -15 3q-12 2 -30.5 18t-18.5 31q0 16 23.5 39.5t56.5 48t59.5 41t32.5 18.5 q20 14 35 31.5t15 23.5q0 14 -20.5 35t-68.5 58q-39 31 -60 51t-34 37q-55 78 -55 184zM260 -92q0 -37 27.5 -70t77.5 -65q-49 49 -52 98q0 23 16.5 43t45.5 47q33 33 33 43v2q27 12 26 39q0 4 -2 12l-2 6l2 -2q61 0 193 -32q29 -6 28 -6l25 -7q35 -10 45 -14q18 -4 31 -8 q10 -2 12 -4q49 -12 86 -25q-2 12 -8 25q-43 10 -150 41q-111 33 -182.5 49t-132.5 16l2 -4q2 -6 2 -10q0 -10 -16 -27q-8 -8 -9 -12v-2q-98 -49 -98 -133zM326 758q0 -82 38.5 -166t110.5 -119q-45 45 -69.5 115.5t-24.5 132.5q0 94 39 207q37 110 206 110h3q16 0 57 -7 t64 -13l-2 -2q-51 57 -175 57q-172 0 -208 -110q-39 -117 -39 -205zM340 -352q115 -61 289 -62q205 0 336 117q72 59 105.5 111.5t55.5 124.5q2 20 17 51q16 37 16 59v12v2q6 -2 19 -4q25 -6 38 -13t13 -26v-16q-8 -23 -19 -55l-18 -55q-4 -8 -6 -15q-18 -106 -154 -223 q-137 -117 -338 -117q-113 0 -207 26.5t-147 80.5v2zM377 -174q0 -39 29 -74q53 -20 139 -20q123 0 211 73q23 18 36 39t27 50q14 33 25 43l4 4l-68 18l-67 18q-115 35 -185 35h-16q-14 -2 -16 -2q2 -4 2 -10q0 -10 -17 -25q-10 -10 -10 -14v-2q-94 -45 -94 -133zM395 350 q0 -10 4 -24.5t11 -16.5l32 -10v6v6q2 12 21.5 17.5t48.5 7.5h10q35 -6 90 -10h9h41q186 0 327 110q152 121 152 295q0 119 -76 213q-12 16 -12 25q0 27 30 26q-27 39 -53 39q-29 0 -29 -28q0 -8 11 -25q76 -100 75 -213q0 -174 -151 -295q-137 -113 -326 -113h-37 q-8 0 -32 5q-49 6 -76 6h-21q-12 -2 -18 -2q-27 -2 -31 -19zM466 560.5q17 -64.5 52 -99.5q31 -6 60 -6q119 0 180 104q63 106 63 203q0 51 -12 122.5t-39 104.5q-31 6 -74 6q-172 0 -209 -110q-38 -110 -38 -204q0 -56 17 -120.5zM1229 860q10 6 26.5 25.5t33 44t28.5 46 t12 25.5q0 23 -33 62l-2 2q31 -12 67 -44t36 -65q0 -12 -14.5 -37.5t-37 -52t-46 -44t-37.5 -17.5q-27 0 -27 47q0 2 -6 8z" />
<glyph unicode="h" horiz-adv-x="1357" d="M43 1720q0 29 35 29q47 -6 104 -6h107q12 0 43 4q31 2 45 2q23 0 35 -6t12 -25l-6 -55q-2 0 -2 -29v-49q0 -158 -4 -219q-2 -82 -6 -213q0 -66 30 -66q8 0 17 5q2 2 4 2v22q4 131 6 213q2 27 4 66q2 49 2 71v131q0 10 2 39t4 29h6q6 2 13 2q6 0 12 2q43 0 43 -33 q-2 -20 -4 -37q-4 -25 -4 -49v-127q0 -59 -1 -99t-3 -97q-2 -70 -5 -107h3l2 2v-2q74 35 170 53.5t180 18.5q47 0 79.5 -9t65.5 -32q35 -27 49 -92q14 -76 15 -133v-303q0 -33 2 -39v-15q-8 -96 -8 -221v-74q6 -82 17 -129t42 -63q10 -4 20.5 -18.5t10.5 -26.5 q0 -20 -29 -21q-51 6 -88 7h-86q-49 0 -86 -7q-33 -6 -86 -12q-14 0 -37 11.5t-23 25.5q8 27 29 39q20 12 33 35q14 31 26.5 106.5t14.5 138.5q2 33 2 203l8 -8v-2v2v6v2v6h2v37q2 18 2 74v65q0 104 -9 138.5t-44 34.5h-59q-82 0 -152 -31t-70 -88v-13q-2 -2 -2 -12 q-2 -88 -6 -166q-2 -35 -2 -141v-105q0 -57 5 -117.5t15.5 -111.5t25 -83t34.5 -34q10 -2 26.5 -18t16.5 -35v-12q0 -14 -35 -14q-29 0 -39 2t-55 2q-29 -2 -98 -2q-18 0 -54 -2q-53 -2 -71 -3q-49 0 -77 6.5t-28 22.5q2 2 2 10q2 12 4 13h56q14 -2 98 -2q33 0 78 2 q27 2 39 2q20 0 39 -4q10 -2 39 -2q35 0 34 14v12q-8 23 -17 33t-21 16q-14 8 -24.5 20.5t-23.5 41.5q-20 59 -30 209v12q-4 49 -4 74v108q0 127 6 307q0 2 2 7v6v12q0 33 24.5 56.5t60.5 37t73.5 19.5t64.5 6h59q8 0 37 -4q27 -4 35 -4q12 0 12 6q0 4 -8 12q-41 29 -129 29 h-59q-78 0 -153 -32t-75 -85v-12q-8 -8 -12 -41t-4 -80q0 -37 2 -82t4 -82q2 -31 2 -35v-104q0 -133 21.5 -239.5t58.5 -110.5q6 0 24.5 -17.5t18.5 -36.5v-12q0 -12 -35 -12q-29 0 -39 2t-57 2q-29 -2 -98 -2q-14 0 -53 -2h-70q-49 0 -78 5t-29 19q4 27 11.5 37t17.5 19 q10 6 18.5 16t18.5 37q10 33 31 203q20 176 22 497v195q0 246 -10 356q-10 119 -31.5 187.5t-58.5 68.5q-12 0 -23.5 16.5t-11.5 32.5zM879 -53l2 4v4v-8q27 6 71 12q37 6 84 6h88q6 0 25 -2q33 -4 47 -4q23 0 36 6t13 21q-10 20 -33 37q-27 23 -38 55q-8 23 -14.5 58.5 t-6.5 78.5v76q0 125 8 221v8v12q-2 16 -2 31v301q0 76 -9 122t-36 83q68 -35 90.5 -89t22.5 -163v-301q0 -33 2 -39v-6v-2v-2v-2q-8 -92 -8 -219v-74q6 -82 17 -125t42 -65q12 -4 23.5 -18.5t11.5 -26.5q0 -18 -31 -19q-55 6 -86 6h-90q-43 0 -84 -6q-39 -6 -86 -12 q-16 0 -37.5 12t-21.5 29z" />
<glyph unicode="i" horiz-adv-x="604" d="M43 1149q0 23 35 22q4 0 22 -2q41 -4 68 -6h6q31 -2 100 -2h43q4 0 19 2q18 2 24 2q18 0 29.5 -7t11.5 -23q0 -10 -2 -37q0 -4 -2 -19v-186q0 -121 -2 -168q0 -29 -2 -57q-4 -123 -4 -201q0 -199 11.5 -284t54.5 -93q12 -2 24 -43l2 -8q0 -27 -49 -27h-33q-31 2 -41 2 h-98q-25 0 -67 -2q-37 -2 -58 -2q-45 0 -67.5 9.5t-22.5 35.5q6 20 12 29.5t17 15.5q18 12 28 35q14 27 27 119q10 102 10 303l8 -4q14 158 15 270q0 109 -18.5 182.5t-61.5 86.5q-8 2 -23.5 21.5t-15.5 35.5zM129 -14l2 -4q10 2 80 2q12 -2 90 -2h96q4 0 19 -2q29 -2 47 -3 q25 0 41 6.5t16 20.5l-2 8q-6 25 -12 33t-17 12q-16 10 -24 25q-14 23 -25 92q-12 98 -12 256q0 78 4 201q2 29 2 57q2 47 2 168v191l2 16q2 31 2 41v2h2q41 0 41 -31q0 -10 -2 -37q0 -4 -2 -18v-189q-2 -27 -2 -167q0 -63 -2 -156v-102q0 -190 10.5 -277.5t51.5 -95.5 q16 -2 24 -43l2 -8q0 -16 -14 -21.5t-39 -5.5q-16 0 -47 2q-16 2 -23 2h-188q-20 0 -53 -2q-20 -2 -27 -2q-37 0 -43 31zM147 1532q0 55 41.5 96t96.5 41t97 -41t42 -96t-41 -98t-98 -43q-55 0 -96.5 43t-41.5 98zM266 1376v2q31 -10 51 -10q55 0 97.5 41t42.5 98 q0 12 -6.5 30.5t-16.5 37.5q-8 20 -8 24v3q6 0 33 -27q41 -41 41 -98t-41 -98.5t-99 -41.5q-55 0 -94 39z" />
<glyph unicode="j" horiz-adv-x="577" d="M41 -260q0 10 10 27l8 12q141 162 142 350q0 66 8 199q8 135 8 202v123q0 82 -3 157t-13.5 138.5t-29.5 104.5t-50 45q-23 0 -23 37q0 27 37 26h10q49 -4 74 -4h141q2 0 15 2q23 2 39 2q37 0 37 -16q0 -33 -1 -48.5t-4 -43.5q-4 -33 -5 -56.5t-3 -72.5q-2 -57 -6 -154 l-2 -49q-4 -113 -4 -184q0 -215 4 -303.5t19 -131.5h2v2q2 0 4 -9t2 -17q0 -2 2 -12l2 -13v-6q0 -16 -9.5 -29.5t-15.5 -13.5q-96 -53 -151 -154q-55 -102 -164 -151l-21 -8q-2 -2 -6 -2q-53 0 -53 51zM113 -346l4 10h2h2q25 0 53.5 16.5t56 42t50 54t34.5 51.5q18 31 86 86 q45 35 68 59.5t23 51.5q-2 4 -3.5 14t-1.5 14q0 6 -2 17q-4 8 -4 14v-6q-8 27 -12 83t-8 154l-2 41q-4 94 -4 156q0 168 4 301t14 229q0 4 4 27q4 31 4 33h17q25 0 24 -19q0 -29 -1 -48t-5 -42q-4 -39 -5 -61.5t-3 -71.5q-2 -51 -6 -151v-70q-2 -43 -2 -78q0 -80 2 -164 t5 -155.5t5 -125t4 -63.5q12 -18 12 -39q0 -41 -4 -56t-18 -15q-94 -51 -150 -154q-12 -23 -34.5 -50.5t-50 -54t-56.5 -43t-53 -16.5q-14 0 -31.5 8.5t-17.5 20.5zM182 1505q0 57 41 101q4 4 42 24.5t50 20.5q4 0 4 -4v-2q55 0 96.5 -41t41.5 -99q0 -57 -41 -98t-97 -41 q-55 0 -96 41t-41 98zM303 1350h2q37 -39 94 -39q55 0 96.5 41t41.5 98q0 43 -25 79t-63 50l2 -2q41 -41 41 -98t-41 -98.5t-99 -41.5q-23 0 -49 11z" />
<glyph unicode="k" horiz-adv-x="1357" d="M41 1671v12q0 12 16 17q8 0 15 2l18 6q49 -6 107 -6h104q37 0 47 2l55 6q29 0 29 -35q-2 -31 -6 -55q0 -12 2 -27v-16v-207q-2 -35 -2 -209q0 -236 -2 -319q-2 -12 -2 -76v-74q0 -29 16 -28q8 2 23.5 10t15.5 10v43q0 63 2 76q4 188 6 319q2 59 2 209v250q0 6 2 23l3 10 v6q0 2 16 2l14 2h13q29 0 28 -35q0 -12 -4 -35q-2 -16 -2 -20v-461q0 -20 -2 -127l-2 -139v-68q139 121 184 179q49 59 49 92t-49 51q-31 10 -30 43v22q25 27 94 27q29 0 88 -4q66 -6 92 -6h96q20 0 60 4q27 2 37 2q29 0 28 -14v-13q0 -35 -32.5 -52t-69.5 -23q-6 -2 -6 -3 q-31 -14 -93 -61q-8 -6 -51 -42t-91 -80t-84 -87t-36 -67q0 -27 31 -76q145 -264 221 -375q61 -90 95 -130t63 -46q-39 35 -107 135q-70 102 -221 375q-31 57 -33 76q0 25 36 67.5t85 86.5t80 69.5t64 52.5q47 37 73.5 52.5t59.5 21.5q2 0 18 8q35 18 58.5 28.5t37.5 10.5 q16 0 17 -12v-13q0 -35 -33 -52t-70 -23l-6 -2q-27 -12 -92 -62q-12 -10 -55 -46t-89 -79t-82 -87t-36 -66q0 -20 31 -74q139 -254 221 -375q35 -49 63.5 -89t30.5 -40q-4 0 -13 4t-11 8l12 -24q6 -12 6 -23q0 -12 -33 -12q-37 0 -92 6q-47 6 -80 6q-94 -2 -190 -12 q-47 0 -47 27q0 35 22 34q25 0 31 25q0 45 -39 117q-37 72 -145 250q-14 -14 -43 -37q-29 -25 -41.5 -42.5t-12.5 -52.5v-36q2 -156 14.5 -234t57.5 -86q6 -2 17.5 -17.5t11.5 -25.5q0 -14 -37 -14q-27 0 -37 2t-62 2q-29 -2 -96 -2q-18 0 -61 -2h-64q-49 0 -75.5 5 t-26.5 21q0 2 6 25h55q14 -2 99 -2q35 0 82 2q25 2 36 2q23 0 39 -4q10 -2 39 -2q37 0 37 14q0 4 -2 6t-16 17q-33 31 -46.5 56.5t-21.5 84.5q-2 8 -4 29.5t-6 59.5t-7 73t-3 63q0 47 8 56q0 10 16.5 27.5t38 32.5t37.5 26.5t25 15.5q-25 41 -48 41q-35 0 -59.5 -18.5 t-36.5 -44t-17 -46t-9 -41.5v-2q2 -186 14 -269t57 -91q6 -2 17.5 -17.5t11.5 -25.5q0 -12 -37 -12q-27 0 -37 2t-59 2q-29 -2 -96 -2q-18 0 -62 -2h-65q-47 0 -73 5t-26 21q4 29 11.5 38t19.5 18q12 6 21.5 16t15.5 37q23 55 31 203q12 152 12 497v185q0 117 -2 217 t-9.5 196.5t-21.5 156.5t-41 60l-2 -2h-4l-16 -4q-6 0 -16.5 12.5t-10.5 28.5zM864 -59q0 20 2 20h6q92 10 170 10h41q25 -2 41 -2q20 -4 44 -8t42 -4q33 0 33 14q0 23 -5 34t-9 11t-4 -4q0 -16 35 -16q6 0 27.5 -25.5t21.5 -46.5q0 -14 -33 -14l-19 2q-53 4 -69 10 q-37 0 -123 -2q-63 -2 -98 -2q-47 0 -75 5t-28 18z" />
<glyph unicode="l" horiz-adv-x="624" d="M41 1657q0 31 29 31l6 20q49 -6 106 -6h105q37 0 47 2l55 6q29 0 29 -35q-2 -31 -6 -55q0 -12 2 -27v-16v-207q-2 -35 -2 -209v-145q2 -82 2 -117q0 -133 -6 -215q-2 -33 -2 -133v-125q0 -59 4 -126t12 -123t20.5 -90t28.5 -34q10 0 10 4q0 2 -4 11q-4 10 -8 18 q-14 53 -25 215v6q-4 66 -4 90v123q0 102 2 133t2 154v55l2 144q2 94 3 124q0 68 2 158v51v205v8q-2 8 -2 15q0 18 4 51q2 23 2 29q2 0 2 2h12q29 0 29 -35q0 -8 -4 -33q-2 -18 -2 -25v-247q0 -154 -3 -213q0 -47 -2 -131q0 -111 -1 -204t-5 -145q-2 -33 -2 -133v-125 q0 -59 4 -124.5t11.5 -121t20.5 -90t30 -36.5q10 -2 24.5 -17.5t14.5 -27.5q0 -14 -37 -15q-27 0 -37 2t-59 2q-29 -2 -97 -2q-16 0 -51 -2q-51 -2 -72 -2q-49 0 -76.5 6.5t-27.5 22.5v2q10 2 86 2q14 -2 98 -2q35 0 82 2q25 2 39 2q20 0 39 -4q10 -2 37 -2q37 0 37 14 q0 4 -2 6q-8 8 -15 21q-10 16 -24 18q-4 0 -4 2v-6q0 -4 4 -10q2 -6 2 -8q0 -12 -37 -13q-27 0 -37 3q-10 2 -59 2q-29 -2 -97 -2q-12 0 -49 -3h-71q-47 0 -76 5.5t-29 19.5q4 29 10.5 38t14.5 15q10 8 18 18.5t17 35.5q18 63 32 202q20 184 21 498v205q0 127 -2 225 t-10.5 182t-28 137.5t-51.5 53.5q-23 0 -31 45z" />
<glyph unicode="m" horiz-adv-x="2107" d="M43 1122q0 23 27 23q23 -2 36 -2q41 -4 64 -4h98h21q12 -2 22 -2l43 6q41 0 41 -35l-2 -23q0 -16 7.5 -34.5t21.5 -18.5q8 0 20 4l9 4v2v2v5h14q27 0 86 34q39 23 57 29q109 31 201 31q129 0 160 -6q23 -4 43 -23.5t49 -50.5q45 -51 61 -51h13l-25 24q8 -2 25 -10 q14 -8 22 -10h2l86 49q39 25 82 35q137 39 264 39q102 0 150.5 -28t68.5 -118q14 -76 15 -133v-303q0 -33 2 -39v-6v-2v-2q-8 -92 -8 -219v-74q6 -82 17 -129t42 -63q20 -14 33 -43q0 -33 -31 -33q-80 0 -86 2l-86 12q-51 0 -86 -6q-39 -6 -86 -12q-27 0 -42 14t-15 33 q0 23 22 26q25 6 41.5 38t24.5 81t11 105.5t3 117.5q0 37 -2 88v50l23 36v7v2v2v6h2v141q0 154 -25 228h-16q-92 0 -197 -41l-27 -11q-37 -18 -60.5 -46.5t-23.5 -67.5v-258q0 -39 2 -39h3q-2 -2 -3 -9v-2q-8 -90 -8 -219v-80q6 -88 16.5 -129t41.5 -57q12 -8 23 -22.5 t11 -26.5q0 -18 -30 -19q-45 6 -86 7h-86q-10 0 -54 -7q-70 -12 -104 -12q-33 0 -51.5 9.5t-18.5 29.5v12q27 4 35 7l31 6q41 6 86 6h86q55 0 89 4t34 18t-41 37q-20 10 -37 49q-8 23 -14 58t-6 78v73q0 127 8 219v2q0 6 2 9h-2q-2 6 -2 36v261q0 39 23.5 67.5t60.5 46.5 q39 8 94 27q43 12 69.5 18t59.5 6q8 0 33 -4q23 -2 28 -2q4 0 8 2q0 2 -14 13q-32 32 -107 32h-5q-43 0 -96.5 -10t-101.5 -29.5t-80 -51t-32 -74.5v-263q0 -10 1 -23t3 -13h2q-2 -2 -2 -13v-2q-10 -139 -10 -221v-74q6 -82 17.5 -128t42.5 -62q12 -8 22 -21.5t10 -25.5 q0 -18 -32 -19q-45 6 -87 6h-86q-45 0 -86 -6q-39 -6 -86 -12q-14 0 -36.5 12.5t-22.5 24.5q8 27 27 39q20 12 32 35q16 43 29 131q12 92 12 313v4v2v2v35q0 49 2 63t2 58q0 25 -2 67.5t-5 77.5t-8 61.5t-11 26.5h-12q-43 0 -97.5 -11t-102.5 -31.5t-79 -51.5t-31 -70v-170 q-2 -23 -2 -110v-129q0 -199 13.5 -284t64.5 -105q16 -4 29 -49l2 -7q0 -16 -13.5 -22t-35.5 -6q-14 0 -43 4q-25 2 -31 2h-96q-33 0 -82 -2q-35 -2 -53 -2q-41 0 -59.5 8t-18.5 33q0 12 2 12h45q27 -2 92 -2h98q10 0 33 -2q29 -4 43 -4q23 0 35 6t12 21l-2 10 q-6 20 -13 29.5t-18 19.5q-18 12 -28 31q-14 29 -31 104q-12 74 -14 258v129q0 37 2 78v35v172q0 41 32.5 72.5t83 52t102.5 30t87 9.5q10 0 31 -2q18 -4 24 -4q8 0 8 4q0 2 -4 6q-37 41 -116 41q-55 0 -136 -25q-84 -25 -127 -54.5t-43 -86.5v-170q-2 -23 -2 -111v-131 q0 -190 13.5 -281.5t62.5 -107.5q16 -6 29 -49l2 -8q0 -14 -12.5 -19.5t-34.5 -5.5q-14 0 -45 4q-23 2 -31 2h-191q-12 0 -40 -2q-25 -4 -37 -4q-23 0 -35 9.5t-12 31.5q4 20 10 30.5t14 20.5q14 16 25 39q12 27 22 125q8 72 8 307q0 86 9 201q2 51 2 64q0 121 -15.5 189.5 t-60.5 80.5q-10 2 -23.5 22.5t-13.5 38.5zM1630 -78q0 2 2 12l4 3q12 2 31 6q25 4 35 4q37 6 86 6q31 -2 47 -6l43 -6q29 -4 86 -4q33 0 33 36q-6 18 -31 37q-31 23 -41 51q-18 41 -22 138v73q0 127 8 220v14q-2 6 -2 37v303q0 145 -54 223q70 -16 98.5 -89t28.5 -179v-301 q0 -31 3 -37v-6v-2v-2q-8 -96 -9 -222v-79q2 -76 13.5 -123t42.5 -66q14 -8 24 -24.5t10 -28.5q0 -23 -30 -23q-57 0 -86 4l-43 7q-16 4 -47 6q-49 0 -86 -6q-39 -6 -86 -13q-14 0 -36 12.5t-22 24.5z" />
<glyph unicode="n" horiz-adv-x="1323" d="M43 1153q0 25 29 25h106q23 2 105 2h43q4 0 18 2q18 2 25 2q18 0 29.5 -7.5t11.5 -23.5v-35q0 -25 4 -37t16 -12h2q20 4 21 6v25q2 2 2 12q4 0 14 2q8 2 12 2q25 0 31 -20l31 12q41 18 65 27q96 23 191 36q53 6 86 7q80 0 139 -31t76 -103q10 -35 10 -79q0 -20 -4 -54 q-8 -72 -8 -196v-107q0 -33 2 -39v-209q0 -106 12 -188t45 -102q6 -4 15.5 -18.5t9.5 -26.5q0 -20 -29 -21q-51 6 -88 6h-86q-49 0 -86 -6q-33 -6 -86 -12q-14 0 -36.5 11t-22.5 26q6 18 13 26t21 15q27 12 39 32q23 37 37 131q12 84 12 318l-4 -2v-2v2v6v2v6q0 4 2 10v5 v127q0 127 -10 181t-53 54q-82 0 -172 -31q-14 -2 -25 -6l-12 -4q-51 -20 -77.5 -48t-26.5 -75v-90q0 -12 2 -43l2 -25q2 -14 2 -79v-140q0 -201 10 -285.5t47 -99.5q4 0 17.5 -22.5t13.5 -42.5q0 -16 -35 -17q-27 2 -74 7l-16 2q-25 2 -90 2q-27 0 -82 -4q-45 -4 -68 -5 q-33 0 -51 8.5t-18 30.5l24 2q20 2 43 2q29 2 98 3h91l16 -3q47 -4 74 -6q35 0 34 17q0 27 -8 40t-24 29t-23 27q-12 25 -20 98q-12 94 -13 256v135q0 68 -2 84l-2 25q-2 31 -2 43v90q0 47 27 75t78 48l30 10q35 18 84.5 24.5t92.5 6.5q4 0 28 -2q29 -2 39 -2q6 0 8 2 q0 2 -14 6q-33 27 -104 27q-35 0 -74 -5.5t-78 -17.5l-18 -6q-66 -12 -106 -45t-40 -88v-86q0 -53 2 -68v-12q4 -55 4 -72v-135q0 -188 10.5 -283.5t49.5 -103.5q6 -2 17 -26.5t11 -41.5q0 -14 -34 -14q-12 2 -43 4q-18 4 -31 4h-15q-27 2 -92 2h-96q-14 0 -41 -2 q-27 -4 -37 -4q-23 0 -35 9.5t-12 31.5q6 23 13.5 33t17.5 18q20 14 31 37q16 37 28 123q12 90 13 305q0 59 8 164q6 72 6 100q0 113 -19.5 184.5t-66.5 78.5q-10 2 -23.5 21.5t-13.5 37.5zM848 -48l8 -1q53 8 86 12q41 6 84 6h90q2 0 14 -2q33 -4 54 -4q23 0 37 6t14 21 q-10 20 -29 37q-20 23 -32 53q-16 57 -23 137q-6 41 -6 105v192v2v12q-2 6 -2 37v105q0 121 8 192q2 10 2 56q0 51 -9 94t-32 55l29 -16q35 -18 52 -64.5t17 -103.5q0 -18 -4 -56q-6 -86 -6 -190v-150v-2v-4v-194q0 -100 13.5 -186.5t43.5 -104.5q14 -12 25 -41 q0 -14 -13.5 -20.5t-35.5 -6.5q-12 0 -47 4q-16 2 -23 2h-86q-49 0 -86 -6q-33 -6 -86 -12q-12 0 -34.5 16t-22.5 20z" />
<glyph unicode="o" horiz-adv-x="1378" d="M41 580q0 246 174 419q174 175 420 175q250 0 424 -175q174 -174 174 -419q0 -244 -174 -416t-424 -172q-244 0 -420 172q-174 172 -174 416zM297 578q0 -195 100 -332q53 -76 113 -109q-37 31 -68 76q-98 135 -98 332q0 205 70 344q72 145 268 145q98 0 164 -35h-2 q-70 70 -211 70q-193 0 -264 -147q-72 -145 -72 -344zM385 35q131 -76 295 -76q250 0 424 172q176 176 176 416q0 244 -176 420q-33 35 -68 61q70 -41 127 -98q174 -174 174 -420t-174 -418q-178 -172 -424 -172q-196 0 -354 115zM403 506q0 -199 99 -334q2 -4 18 -22 q25 -29 25 -33v4q49 -23 102 -23q66 0 128.5 36t107.5 97q92 127 92 344q0 117 -28.5 226.5t-78.5 173.5q-51 18 -127 18q-197 0 -266 -143q-72 -154 -72 -344z" />
<glyph unicode="p" horiz-adv-x="1325" d="M41 1151q0 29 29 29t36 -2q8 -2 50 -2q23 2 86 2q12 0 45 8q51 12 73 12q41 0 41 -33q0 -4 -2 -16q-4 -25 -4 -33q0 -37 23 -37h28l7 -8q0 39 28 45q31 0 39 -14l43 31q33 25 67 40t72 15q213 0 338 -119q131 -119 131 -373q0 -250 -217 -454q-217 -205 -510 -240 q-41 -6 -41 -43l7 -55q2 -14 10 -37q12 -31 14 -62v-51q-2 -12 -30.5 -34.5t-68.5 -44t-77 -37t-53 -15.5q-31 0 -39 14.5t-8 51.5v151q0 41 6 94q2 35 6 107q10 176 10 270q0 150 -4 363q-2 78 -8 150.5t-16.5 131t-30 96.5t-47.5 38q-8 0 -20.5 21.5t-12.5 39.5zM272 -410 q23 4 56.5 21.5t69.5 41t59.5 43t23.5 25.5v52q-2 20 -12 53q-10 31 -12 45l-6 55q0 39 41 45q295 37 512 242t217 453q0 131 -37 232t-111 151l-6 6q51 -29 86 -64q131 -119 131 -368q0 -250 -217 -455q-217 -203 -512 -242q-41 -6 -41 -43q0 -31 4 -56.5t14 -45.5 q10 -23 13 -55v-52q-2 -16 -15.5 -26t-44.5 -25q-45 -23 -63 -39q-45 -43 -105 -43q-27 0 -34 8.5t-11 30.5v4v6zM397 780q0 -33 2 -75v-48v-477q0 -25 14.5 -42t39.5 -17h2q-4 16 -4 24v478q-2 31 -2 122v97q0 37 13 57t44 45q61 37 153 41q41 0 90.5 -7t55.5 -24 q-10 33 -74.5 50.5t-122.5 17.5q-35 0 -72.5 -8t-66.5 -25q-72 -37 -72 -112v-97zM512 698q0 -33 2 -75v-48v-440q16 8 47 23l8 4l56 31q80 49 146.5 121.5t96.5 154.5q37 102 37 178q0 170 -80 275l2 6q-41 14 -104 14q-82 -2 -146.5 -37t-64.5 -108v-99z" />
<glyph unicode="q" horiz-adv-x="1341" d="M41 526v49q12 266 152 437q139 166 344 166q70 0 131 -25q4 -2 28 -12q47 -18 80 -36t51 -36q10 0 11 35q0 6 -4 16q-4 8 -5 15q0 31 37 30q12 0 29 -2q12 -2 23 -2q2 2 55 2q25 0 78 -4h12h37q14 0 33 2q16 2 24 2q31 0 31 -26q-14 -45 -43 -45t-47 -41 q-12 -25 -21.5 -80.5t-9.5 -126.5v-352q0 -23 2 -109q2 -29 2 -66v-18q6 -100 6 -270q0 -129 10 -215v-21q0 -33 -21.5 -49t-64.5 -31q-53 -20 -67 -39q-39 -45 -80 -45q-37 2 -46 9.5t-9 27.5q0 53 12 137q6 51 8 80q2 14 6 54q-43 -18 -88 -30.5t-84 -12.5h-47 q-143 0 -252 86l11 4q84 -43 184 -43h47q29 2 71 9t81.5 21.5t67.5 37t28 50.5q0 31 -6 31q-4 0 -11.5 -6t-13.5 -12q-66 -43 -135.5 -70t-134.5 -27h-45q-195 0 -326 156q-131 162 -131 395zM264 555q0 -137 86 -248q10 -12 23.5 -27.5t30 -31t33 -27.5t24.5 -12l4 2 q-70 55 -109 137t-39 170v37q0 172 66 313q63 131 205 131q43 0 101.5 -15t84.5 -46q-41 49 -112.5 73.5t-122.5 24.5q-145 0 -209 -131q-66 -141 -66 -313v-37zM383 475q0 -84 28.5 -143.5t94.5 -147.5q55 -24 104 -24h4q82 0 177 63q43 29 43 111q0 61 -5 147 q-2 109 -2 164v209q0 39 -28 68l-4 4q-74 37 -142 37q-139 0 -204 -134q-66 -133 -66 -313v-41zM909 -406h2q27 8 70 44q31 25 55.5 38t59.5 17q16 2 29.5 23.5t13.5 41.5v21q-10 86 -11 215q0 90 -2 150.5t-6 111.5q-6 109 -6 197v159q0 88 2 109q2 31 6 94 q8 121 21.5 180.5t50.5 59.5q16 0 51 18q29 14 39 14q16 0 16 -28q-16 -47 -38 -47q-29 0 -48 -41q-20 -49 -30 -207q0 -63 -2 -84q-2 -20 -2 -109v-159q0 -23 2 -111q2 -31 2 -68v-18q6 -98 6 -264q0 -125 10 -217v-21q0 -33 -21.5 -48t-64.5 -32q-55 -18 -72 -39 q-39 -45 -79 -45q-35 2 -44.5 9.5t-9.5 27.5v6v2z" />
<glyph unicode="r" horiz-adv-x="974" d="M43 1133q0 23 35 22q4 0 22 -2q41 -4 68 -6h6q31 -2 100 -2q12 0 31 2h19h49q39 0 39 -25v-14q-2 -12 -2 -16q0 -29 12 -29h16q10 4 13 14q0 4 2 10v3h2q8 0 14 -3h6l2 3h2l6 6q18 12 43 32q31 25 54.5 35.5t66.5 10.5q80 0 134.5 -62.5t68.5 -157.5l-2 15v-6v-19 q0 -43 -26.5 -64.5t-80.5 -45.5q-37 -16 -60.5 -31t-35.5 -35q-14 -25 -49 -25q-39 0 -39 33v25q0 18 25 51t24 53v13q-53 -10 -89 -48.5t-36 -89.5v-387q0 -164 13 -258q6 -57 17 -86t34 -33q12 -2 26 -45l2 -8q0 -10 -10 -18t-20 -8l-25 2q-51 2 -67 2h-189q-12 0 -41 -2 q-20 -2 -33 -2q-43 0 -51 34h264q4 0 17 -2q33 -2 51 -2q27 0 42 5t15 22l-2 6q-8 27 -15 36t-17 13q-14 10 -23 25q-12 20 -22 94q-12 72 -13 252v387q0 51 40 95t93 44q25 0 31 -2q-18 29 -70 29q-51 0 -92 -45t-41 -94v-388q0 -199 11.5 -283.5t54.5 -92.5q12 -2 24 -43 l2 -9q0 -27 -49 -26h-32q-31 2 -41 2h-99q-25 0 -67 -2q-37 -2 -58 -2q-45 0 -67.5 9t-22.5 36q6 20 12.5 29.5t16.5 15.5q18 12 29 35q14 27 26 118q10 102 10 304q0 59 9 170q6 70 6 100q0 109 -18.5 182.5t-61.5 85.5q-8 2 -23.5 21.5t-15.5 36.5zM649 707 q0 10 12.5 26.5t32 33.5t37 28.5t27.5 15.5q47 10 89 39t42 72v18v4l-2 -2q-2 102 -68 160l-6 6q121 -59 121 -201v-4v-12q0 -43 -27.5 -65.5t-81.5 -47.5q-39 -14 -61.5 -27.5t-34.5 -33.5q-14 -25 -53 -25q-27 0 -27 15z" />
<glyph unicode="s" horiz-adv-x="1167" d="M41 223v248q0 47 41 47q31 0 45 -19.5t27 -56.5q6 -25 12 -32q23 -61 73 -131t111 -109q-109 109 -143 207q-2 2 -6 20q-4 16 -9.5 32.5t-11.5 23.5q29 -2 43.5 -24.5t26.5 -59.5q6 -20 8 -27q35 -98 127 -190q76 -29 176 -29h10q82 0 152 55q76 61 76 164q0 53 -16.5 87 t-45 53.5t-62.5 28.5t-91 21l-33 7q-90 16 -174 47.5t-131 72.5q23 -14 61 -24q47 -23 99.5 -38t142.5 -38q111 -27 162 -45h2h2q0 2 -20.5 17.5t-39.5 25.5q-53 16 -174 45l-22 4q-106 23 -197.5 62t-136.5 92q-51 57 -51 145q0 160 121 215q96 43 215 43h61v2 q47 -4 110.5 -13t126 -24.5t106.5 -37t50 -48.5q8 -35 29 -86q20 -51 27 -86v-12q0 -35 -35 -35q-20 0 -37 19l-23 20q-45 59 -134 93t-161 34q-66 0 -115.5 -22.5t-49.5 -63.5q0 -37 58 -55.5t150 -32.5l31 -4q109 -20 203 -67.5t158 -122.5q33 -39 52 -94.5t19 -118.5 q0 -184 -153 -293q-158 -115 -324 -115q-162 0 -285 43q-106 35 -169.5 75t-63.5 105zM176 78v2q74 -57 189 -92q139 -43 284 -43q160 0 324 114q153 110 153 293q0 116 -50 186q-50 72 -148 136q72 -61 107.5 -127t35.5 -160q0 -186 -153 -295q-158 -115 -324 -115 q-113 0 -220.5 27t-197.5 74zM268 979q0 -20 19.5 -42t48.5 -38v-4q-27 20 -27 49q0 41 50.5 64.5t113.5 23.5q57 0 139 -27.5t150 -66.5q-27 23 -70 45.5t-91 40.5t-94 29.5t-75 11.5q-59 0 -111.5 -21.5t-52.5 -64.5zM920 1018q18 -8 35.5 -36t31.5 -64.5t22.5 -68.5 t8.5 -44v-17q0 -34 -35 -34h-2q-12 0 -31.5 12t-19.5 22l2 7q37 0 37 34v13q-2 6 -15 51q-35 121 -34 125z" />
<glyph unicode="t" horiz-adv-x="866" d="M43 1157q0 4 2 10v11q4 23 25 30q94 37 184 189q88 150 111 278q4 33 41 33h45q33 0 42 -13.5t9 -43.5l-6 -68q-2 -2 -2 -61v-2q-2 -23 -5 -54.5t-2 -70.5q0 -51 7.5 -85t23.5 -34h12l13 14v6v13q0 170 2 192q2 29 2 68q2 6 2 14l6 49q0 25 -2 25h4q33 0 42 -15.5 t9 -46.5l-4 -49q0 -29 -1 -65.5t-3 -77.5l-2 -31v-35q-2 -8 -2 -16q0 -20 8 -21q4 0 10 3q14 2 27 2q16 0 33 -5q16 -4 24 -4q12 0 28.5 -7t16.5 -17v-12q0 -55 -42 -95.5t-64 -40.5q-25 0 -36 2t-21 9q-20 8 -45 12h-13q-29 0 -28 -19q-2 -4 -3.5 -14t-1.5 -14v-125 q-2 -14 -2 -68v-276q0 -123 2.5 -207t9.5 -163t23.5 -129t44.5 -54q4 -8 11.5 -26.5t7.5 -35.5q0 -31 -33 -30q-18 2 -25 2q-45 4 -73 4h-193q-66 -4 -100 -6q-23 0 -28 5t-5 21q18 70 35 74q16 4 29 49q12 51 20 191q14 176 14 491v225q-6 -2 -49 -2q-37 0 -37 13 q0 8 24.5 19t51.5 11h12q-6 27 -20 27h-35q-37 -6 -90 -6q-20 0 -30.5 15.5t-10.5 37.5zM219 -68l2 7q2 2 2 6v8q6 0 10 2q43 4 66 4h207q25 -2 67 -6l19 -2q33 0 33 26q-4 33 -9.5 45.5t-15.5 18.5q-10 8 -18.5 18.5t-16.5 34.5q-14 35 -26.5 134.5t-16.5 189.5 q-2 33 -2 172v407v23q-2 16 -2 29q0 27 7 41t28 14h16q25 -4 45 -12q12 -4 21.5 -6.5t36.5 -2.5q23 0 42 18.5t40 55.5l6 12q2 6 6 15q8 14 8 30q0 4 -2 7h2h2q14 0 31.5 -8.5t17.5 -20.5v-12q0 -14 -6 -29l-2 -2l-12 -25l-12 -18q-20 -31 -34 -43t-36 -12q-25 0 -36 2 t-21 6q-18 6 -43 10h-13q-27 0 -26 -14q0 -4 -2 -23l-2 -8v-123q-2 -14 -2 -67v-277q0 -125 2 -210t9 -160.5t23.5 -126t42.5 -54.5q6 0 14.5 -20.5t8.5 -36.5q0 -33 -33 -33l-20 2q-43 4 -72 6h-213q-25 -2 -68 -6l-18 -2q-35 0 -35 16z" />
<glyph unicode="u" horiz-adv-x="1329" d="M41 1141q0 23 20 22q10 0 23 -2q14 -2 27 -2h45q27 2 98 2q12 0 43 4q49 4 70 4q27 0 41 -5t14 -19q0 -31 -2 -31q-6 0 -10 -37t-7 -98q-2 -53 -6 -137q0 -12 -2 -45q-4 -111 -4 -176v-207h2q4 -242 74 -252h22q-33 55 -36 219h-2v207q0 94 3 175t9 181v25q2 55 5 80.5 t9 25.5q2 0 2 21h17q16 0 28.5 -7.5t12.5 -17.5q0 -33 -2 -33q-8 0 -9 -10q-2 -16 -6 -121q-2 -23 -2 -137q0 -53 -2 -133v-86v-203h2q0 -76 7 -132t26 -56q37 0 90 13t103.5 35.5t83 50.5t32.5 56v105q0 33 2 76l2 69v234q0 113 -20.5 192.5t-65.5 91.5q-6 10 -15 28.5 t-9 35.5q0 20 22 20q49 -4 90 -4h86q25 0 47 4q31 6 60 9q25 0 40 -15.5t15 -34.5q0 -12 -2 -28q-2 -18 -2 -31q-2 -14 -2 -133q-2 -49 -6 -143q0 -23 -2 -50q-4 -106 -4 -172q0 -190 2 -223q6 -104 27.5 -174t58.5 -76q16 -4 16 -78q0 -16 -24 -16q-8 0 -17 2h-18 q-39 0 -54 2q-27 2 -92 2q-115 0 -156.5 -3t-76.5 -13q-23 -6 -64 -21q-80 -27 -129 -39t-98 -12q-82 0 -141 53q43 -16 82 -16t89 10t101 26.5t97 34t104 38.5q18 8 41 16v2q2 0 2 2v12q0 25 -21 25q-12 0 -18 -8q-57 -20 -166 -62l-63 -22q-113 -43 -213 -43 q-94 0 -154 67q-55 66 -55 258v49q4 31 6 97q2 12 2 55q0 18 2 39v20v121q0 80 -4 148.5t-15.5 124t-31 89.5t-49.5 34q-20 0 -25 51zM928 -29q20 4 41 4h18h37q27 0 88 -4q53 -4 72 -4q47 0 47 17q0 45 -5 57t-18 20q-20 12 -32 29q-16 20 -29.5 88t-18.5 133q-2 31 -2 226 q4 258 7 362q2 23 2 86v49q0 6 2 17v8v47q59 0 59 -49v-37q-2 -6 -2 -23q0 -35 -2 -49t-2 -86q0 -10 -2 -92q-2 -131 -3 -202.5t-1 -141.5q0 -109 2 -150q6 -102 25.5 -171.5t60.5 -77.5q16 -4 16 -74q0 -18 -20 -19q-12 2 -41 7q-10 2 -49 2q-16 2 -31 2q-31 2 -62 2 q-49 0 -69 -2l-68 -6q-20 0 -20 18v14z" />
<glyph unicode="v" horiz-adv-x="1382" d="M41 1124q0 12 24.5 34t34.5 22q16 -4 39 -6l37 -7q27 -8 72 -8q10 0 43 2l37 2h18q66 4 92 6q29 0 42.5 -15t13.5 -42q0 -16 -23 -39q-14 -14 -21.5 -26.5t-7.5 -32.5q0 -33 13 -82q18 -72 114 -277q33 -61 52 -123q0 -2 2 -8q18 -59 32.5 -96t30.5 -37q8 0 14 12 q-14 35 -36 99q-14 51 -41 114.5t-66 147.5q-31 63 -43 91t-16 46q-10 66 -11 86q0 23 8.5 37t22.5 27q18 18 19 32q0 18 -2 21h2q31 0 43 -15.5t12 -46.5q0 -14 -21 -34q-16 -14 -23 -27.5t-7 -34.5q0 -29 12 -82q16 -74 115 -272q2 -6 12 -25q18 -33 28.5 -56.5 t10.5 -41.5v-6q14 29 31 78q20 59 41 104q14 29 40 84q51 109 74 168t23 111q0 59 -41 59q-31 0 -31 51v33q2 20 55 20q16 0 60 -2q45 -4 61 -4q59 0 86 2l86 7q8 0 19.5 -7.5t11.5 -15.5l-2 -10q-37 -68 -47 -68q-31 0 -103 -141q-18 -39 -69 -160q-49 -123 -78 -188 l-55 -129q-8 -16 -37 -88q-6 -16 -19 -45q-8 -23 -41 -84q-35 -63 -54 -106.5t-19 -74.5v-10q-27 -61 -68 -61q-59 0 -82 61q-33 96 -96 244q-14 35 -39 90q-43 102 -66 156q-106 258 -170 376l-14 29q-43 82 -65.5 117t-40.5 35q-12 0 -29 30zM676 -47h12q14 0 42 17.5 t28 43.5v6q41 88 114 265l111 258q29 66 70 164q59 143 82 186q37 72 59.5 105.5t40.5 33.5q10 0 43 62h18q20 0 32.5 -4.5t12.5 -20.5l-2 -6q-35 -72 -47 -72q-8 0 -30 -22q-27 -31 -70 -117q-49 -96 -152 -346q0 -2 -18 -46t-37 -87q-16 -43 -35.5 -87t-19.5 -46 q-8 -20 -27 -66q-49 -123 -86 -191.5t-72 -68.5q-20 0 -49 25q-14 14 -20 14z" />
<glyph unicode="w" horiz-adv-x="1830" d="M41 1135q0 27 31 26q10 -2 43 -2q25 0 78 -4q37 -2 45 -2q25 0 88 4t90 6h22q8 0 13.5 -17.5t9.5 -37.5v-4q0 -10 -19 -27q-16 -14 -26 -29.5t-10 -39.5q0 -10 8 -62q2 -16 2 -18q18 -98 123 -344q23 -45 30 -74q6 -23 16.5 -51.5t20.5 -28.5q12 0 19 31l-13 -4v6v6 q-2 10 -18 49l-10 27q-78 182 -105.5 267t-27.5 161q0 27 10 41t28 28q18 16 19 27q0 14 24 14h23q8 0 13 -16t10 -37v-4q0 -14 -21 -31q-16 -14 -25.5 -28.5t-9.5 -40.5q0 -37 8 -84q18 -92 111 -307q45 141 88 251q72 190 92 322q16 90 74 90q47 0 68 -82q31 -129 98 -332 q6 -14 24 -73q8 -27 21 -90q18 -80 31.5 -120t38.5 -40q12 0 26 14q-20 68 -84 252l-6 18q-45 129 -100 328l-2 6q-4 18 -9 31q2 2 13 2q47 0 67 -82q43 -180 99 -330q6 -14 15 -38.5t16.5 -44t12.5 -38t5 -26.5v6v2l4 8q78 197 104.5 282t26.5 163q0 31 -15.5 52t-35.5 21 q-18 0 -19 27v21q0 20 12.5 27t30.5 7h17q10 -2 12 -2l43 -6q47 -6 84 -6t63 6q25 6 68 13q2 0 16 -17q12 -14 17 -14v2q-16 -25 -25.5 -35t-19.5 -20q-10 -8 -14.5 -15.5t-14.5 -23.5q-14 -25 -61 -129q-12 -31 -27 -62l-31 -74q-6 -14 -20 -49q-12 -29 -21 -49l-47 -110 q-20 -45 -51 -162q-20 -68 -31 -103q-2 -6 -8 -32q-14 -45 -28.5 -92.5t-33 -91.5t-41 -72.5t-46.5 -28.5q-23 0 -52 33q-14 14 -18 14h-2q-68 199 -104 322l-37 135q0 -2 -23.5 -92.5t-53.5 -199t-55.5 -185t-35.5 -76.5h4q-25 -39 -72 -39t-67 45q14 2 45 24q20 14 26 15 h-4q37 145 98 325q12 33 25.5 74t27 87t23.5 97.5t10 81.5q0 47 -22 48q-6 0 -13.5 -7.5t-9.5 -15.5q-41 -178 -94 -326q0 -2 -18 -59q-4 -18 -20.5 -73.5t-28 -90.5t-21.5 -68.5t-12 -33.5h4q-25 -37 -72 -37q-27 0 -48 23.5t-37.5 60.5t-28 71.5t-29.5 98.5q-12 45 -16 59 q-20 68 -74 199l-19 47q-29 72 -73 207q-55 160 -90 231.5t-76 71.5q-4 0 -18.5 25.5t-14.5 46.5zM1202 -41l2 6q18 -45 70 -45q31 0 59.5 45t55 115t45 136.5t45.5 168.5q27 100 34 119l48 110l47 113q16 43 30.5 76t16.5 37l4 10q31 74 94 178q35 57 35 70q0 10 -12 10 t-43 -10q-49 -8 -77 -51t-61 -134q-23 -61 -34 -90l-5 -10q-18 -43 -32.5 -74.5t-34.5 -83.5l-47 -110q-12 -29 -29 -88q-10 -39 -14 -54q-4 -12 -13 -41q-6 -20 -10 -30l-16 -53l-2 -9q-12 -43 -26.5 -91t-34 -99t-44 -86t-49.5 -35h-2z" />
<glyph unicode="x" horiz-adv-x="1345" d="M41 35v22q0 16 14.5 27.5t22.5 15.5q18 0 45 25q35 25 117 123q66 78 245 323q16 23 17 43q0 16 -13 37q-150 231 -204 301q-20 27 -80 88q-49 51 -74 80t-25 43q0 12 21 13h188q35 0 91 4q45 2 59 2q37 0 55.5 -10.5t18.5 -36.5q0 -14 -7 -43q-8 -29 -8 -48q0 -23 8 -47 q4 -12 15.5 -38.5t29 -60.5t38 -60.5t34.5 -26.5h2q8 2 8 4v-16q-43 63 -71.5 119.5t-28.5 99.5q0 35 23 57q4 4 4 12v9q4 0 6 2h4q18 0 32.5 -16.5t14.5 -34.5q0 -14 -8 -39q-8 -31 -8 -50q0 -23 8 -49q2 -6 8 -19t13.5 -28.5t16.5 -28t13 -12.5h2q57 72 81 111t24 74 q0 18 -8.5 27t-22.5 22q-18 10 -27.5 22.5t-9.5 34.5q0 16 6 33.5t21 17.5h12q49 -4 102 -4q14 -2 60 -2h41q8 0 34 2q35 4 52 4q35 0 54 -10t19 -37q0 -4 -2 -6q-25 -33 -28 -33q0 8 -11 8q-18 0 -38.5 -17t-67.5 -71l-10 -10q-27 -29 -61 -65.5t-70.5 -85t-62 -93.5 t-25.5 -77q0 -33 20 -60q23 -33 74 -110q94 -145 147 -219t113 -130q8 -6 33 -22q33 -23 50 -40t17 -36q0 -14 -12 -26q-14 -12 -37 -13h-12q-59 8 -137 8q-23 0 -52 -2l-57 -2q-74 -2 -102 -6q-23 0 -38.5 21.5t-15.5 36.5q0 10 21 20q18 8 27.5 17.5t9.5 27.5q0 33 -15 68 q-18 63 -106 184l-2 -2q-96 -117 -134 -181.5t-38 -123.5q0 -23 12 -36t35 -24q25 -14 24 -24q0 -18 -19 -34.5t-36 -16.5h-12q-33 0 -117 8q-82 6 -110 6q-6 0 -31 -2q-37 -4 -57 -4q-47 0 -50 18v21v2l41 2q23 2 41 2q33 0 59.5 -1t57.5 -3l12 -2q27 -2 56 -2q37 0 43 -2 h12q14 0 33.5 16t19.5 35q0 16 -29 22q-12 4 -18 9l2 -3q0 -16 -21.5 -32.5t-35.5 -16.5h-56q-8 0 -30 2q-20 2 -25 2h-12q-39 2 -74 2q-25 2 -43 3q-6 0 -31 -3q-39 -4 -57 -4q-47 0 -47 19zM397 150q0 -14 16.5 -42t32.5 -28q2 0 5 2h2l4 2v2q-10 8 -11 35q0 37 15 67 q2 0 33 54q20 33 42.5 68.5t42 65.5t35 50t23.5 20l2 -2l-12 13q-14 18 -25 18q-16 0 -31 -20q-98 -123 -136 -184.5t-38 -120.5zM799 653q0 27 16 49q29 39 70 99q102 143 156.5 205.5t95.5 62.5q8 0 8 -6q0 -2 2 -2l4 4q10 6 17.5 14t7.5 19v2v6q29 0 42 -8t13 -37 q0 -10 -7 -19.5t-18 -15.5l-4 -4q-2 0 -2 4t-8 4q-18 0 -38.5 -17.5t-68.5 -70.5q-76 -86 -215 -280q-16 -23 -16 -50q0 -29 12.5 -53t42.5 -63q23 -31 27 -37q23 -33 55 -84q6 -8 6 -10q23 -35 66 -91q16 -25 27 -38q63 -88 101 -131.5t75 -59.5q8 -4 23.5 -24.5 t15.5 -36.5q0 -27 -48 -27h-4q-25 0 -69 4q-45 4 -70 4q-23 0 -84 -4q-66 -6 -94 -6q-57 0 -68 16l-6 13q-2 4 -6 10l-10 -10q18 4 63 8q10 2 31 4l55 2q31 2 56 2q78 0 137 -8h12q45 0 45 28q0 16 -12 36t-23 28q-20 10 -59 49q-31 31 -104 127q-8 10 -13 16 q-63 82 -215 318q-20 27 -20 59z" />
<glyph unicode="y" horiz-adv-x="1474" d="M43 1151q0 29 37 29q8 -8 28.5 -12.5t43.5 -6.5l12 -2q31 -8 80 -8q10 0 55 2q16 2 37 2h12q51 2 101 8q29 0 36 -19.5t7 -45.5q0 -18 -17 -19h-12q-10 0 -20.5 -5t-10.5 -15v-21q0 -31 35 -145q41 -131 209 -492l4 -8q12 -29 21.5 -43t19.5 -14q12 0 12 8q0 2 -4 16 q-166 360 -207 492q-35 115 -35 147v13q10 23 27 22h12q16 0 17 17v12q18 2 28 6q25 0 34 -20.5t9 -47.5q0 -16 -18 -16h-12q-10 0 -20.5 -6t-10.5 -16v-19q0 -33 35 -147q41 -125 172 -418q158 336 190 473q23 90 23 141q0 33 -15.5 55.5t-39.5 22.5q-27 0 -27 21 q0 25 15.5 43t31.5 18l2 18q29 0 39 -2t49 -2h19q16 0 30 -2q35 -2 43 -2q14 0 47 4q47 4 66 4q37 0 57.5 -11t20.5 -38q-25 -53 -43 -53q-20 0 -56 -41q-35 -41 -112 -188q-76 -150 -215 -498q-82 -147 -148 -369l-2 -8q-20 -72 -39.5 -132t-46 -119.5t-58.5 -97.5t-67 -38 q-8 2 -24.5 3t-26.5 1h-27q-23 0 -94 -8q-70 -6 -90 -6h-37q-12 2 -23.5 22.5t-11.5 34.5q0 18 23 33.5t41 19.5q88 10 174 74q14 10 34.5 31.5t43 51.5t41 61.5t24.5 58.5v18q0 23 -12 60l-4 12q-4 10 -4 14q-33 92 -56.5 159t-45.5 124q-113 307 -185 461l-2 6 q-61 129 -98 188.5t-78 73.5q-8 4 -25.5 31.5t-17.5 48.5zM309 -508q0 2 2 2v2l6 8q23 0 91 7q66 8 88 8h26q4 0 19 -2q20 -2 32 -2q49 0 62 24q90 150 153 369q66 225 148 368q139 342 215 498q66 125 100.5 177.5t67.5 52.5q2 0 12 12q16 18 31.5 29.5t32.5 11.5 q14 0 26 -13q12 -14 13 -32q-29 -53 -45 -54q-23 0 -56 -38q-39 -43 -110 -191q-78 -158 -215 -500q-84 -147 -148 -370l-2 -9q-23 -72 -43 -134t-47 -119.5t-58.5 -95.5t-66.5 -38h-6l-19 2q-18 2 -24 3h-27q-25 0 -110 -11l-23 -2q-27 -2 -53 -2h-37q-4 0 -19.5 16.5 t-15.5 22.5z" />
<glyph unicode="z" horiz-adv-x="1253" d="M41 14v17q0 27 40 78t114 135q57 66 73 88q47 70 131 190q51 70 62 86q72 102 141 197l10 16q16 27 30.5 49.5t29 44t28 39t17.5 17.5h-12q-111 0 -203 -31t-140 -80q-29 -33 -53 -52.5t-45 -19.5q-39 0 -51 37l12 9q18 0 36 13t46 46q4 6 8 10q43 53 136.5 82t205.5 29 h86v2v6q0 10 -16 14t-27 4h-86q-113 0 -205 -28.5t-139 -79.5q-23 -27 -48 -49.5t-46 -22.5q-23 0 -40 15.5t-17 42.5t21.5 66.5t51 79.5t56 68.5t35.5 28.5q10 -10 110 -10h240q47 0 160 4q63 2 104 2q55 2 178 2q33 0 33 -14q0 -18 -27 -45q-113 -139 -204 -283l-86 -129 q-78 -115 -105 -156q-78 -115 -139 -192q-14 -18 -47 -76q-51 -92 -84 -125q-2 -6 -6 -14q0 -16 14 -16h33q35 35 86 124q29 53 45 74q86 111 139 193q27 41 104 155q78 117 87 129q76 117 223 308h28q31 0 31 -17q0 -16 -24 -45q-35 -43 -72 -94t-81 -114.5t-66.5 -96.5 t-82.5 -123q-2 -4 -14 -22q-49 -74 -78 -115q-84 -121 -141 -195q-63 -84 -111 -161q6 -2 39 -3q20 0 148 33q70 14 143.5 47t120.5 80l43 43q29 31 49 31q41 -6 41 -45q0 -23 -11 -43.5t-32 -50.5q-33 -43 -39 -66q-18 -57 -50 -98t-83 -41q-119 0 -270 2h-144 q-49 0 -157 -4q-106 -2 -150 -2q-66 0 -101.5 5t-35.5 17zM135 -41q51 2 162 6q39 2 231 2h144q152 -2 270 -2q35 0 73 39t69.5 94.5t52 103.5t20.5 60q0 2 5 4t9 2q41 -6 41 -45q0 -23 -10 -42t-31 -46q-33 -43 -41 -69q-16 -57 -49.5 -100.5t-83.5 -43.5q-76 0 -268 2 q-27 0 -127 2h-18q-72 0 -193 -6q-94 -4 -125 -4q-59 0 -92 8t-39 31v4z" />
<glyph unicode="{" horiz-adv-x="530" d="M41 860q0 20 18.5 44t53.5 57t52 54t19 42q16 305 80 528q63 217 150 270q-59 -129 -99 -339q-39 -207 -49 -465q-2 -18 -18.5 -39t-50.5 -51q-35 -31 -53.5 -53.5t-18.5 -43.5q0 -10 9 -45t16 -35q6 0 6 58q0 18 17 38.5t54 55.5q37 33 53.5 52.5t18.5 37.5 q10 250 49 467q18 115 47 193.5t92 119.5q-57 -131 -98 -338q-39 -221 -49 -467q-2 -16 -19.5 -36.5t-50.5 -51.5q-37 -35 -55 -56t-18 -40q0 -23 9 -38t27 -36q31 -31 33 -55q10 -254 49 -457q39 -197 95 -325l2 -6q-86 51 -148 264q-63 213 -80 510q-2 23 -18 42t-53 48 q-35 31 -53.5 51.5t-18.5 44.5zM254 735q47 -29 68.5 -51t21.5 -49q10 -250 49 -459q37 -207 94 -328q-12 8 -31.5 22.5t-19.5 23.5l2 4q-51 129 -86 311q-39 201 -49 455q-2 37 -49 71z" />
<glyph unicode="|" horiz-adv-x="182" d="M41 47v1593h65v-1593h-65zM76 23v12h47v1585h18v-1597h-65z" />
<glyph unicode="}" horiz-adv-x="524" d="M41 -94v-2q57 137 92 327q37 211 49 457q2 23 19.5 42.5t52.5 45.5q37 29 54.5 49.5t17.5 42.5q0 20 -19.5 43t-54.5 56t-51.5 52t-18.5 36q-10 264 -47 465t-94 340q86 -53 149 -271q61 -215 78 -526q2 -20 19.5 -41t52.5 -55q35 -33 53.5 -56.5t18.5 -44.5 q0 -23 -18.5 -44t-55.5 -52q-35 -29 -52.5 -48.5t-19.5 -41.5q-16 -301 -78 -510q-61 -213 -147 -264zM111 1808q86 -53 149 -270q61 -215 78 -526q2 -20 19.5 -41t52.5 -56q37 -35 55 -57t18 -43q0 -23 -18.5 -44t-54.5 -52q-35 -29 -52.5 -48.5t-19.5 -41.5 q-16 -303 -78 -512q-63 -213 -147 -264q4 10 14 47q8 37 16.5 60.5t18.5 33.5l2 2q27 55 55 149q61 215 78 510q2 23 20.5 43.5t53.5 49.5q35 31 53 52t18 44q0 20 -18 42.5t-55 57.5q-33 29 -50.5 51.5t-19.5 40.5q-16 307 -78 529q-18 59 -37.5 102t-48.5 94 q-16 31 -24 47z" />
<glyph unicode="~" horiz-adv-x="808" d="M41 1470v50q45 72 86 120t86 48q55 0 123 -89v3q0 -2 2 -7l2 -6q4 -4 18 -24q6 -8 7 -9l18 -24q18 -27 44 -56.5t30 -29.5q0 6 -35 57q-8 14 -21 33q-16 29 -24 37v-2q-25 31 -43 49q43 -14 94 -82l6 -10q6 -8 17 -27q18 -29 31.5 -47t17.5 -18h12q12 0 41 14t59.5 38.5 t51 54.5t20.5 61v-54q-43 -70 -86 -118t-86 -48q-53 0 -123 89l-2 4q-2 4 -2 6l-2 14q-2 4 -12 19q-18 31 -33.5 52t-24.5 21h-12q-12 0 -41 -15t-59.5 -41t-51 -55.5t-20.5 -58.5v49q39 66 86 119l25 25q4 2 14 2t35 -10q-39 37 -76 36q-12 0 -41 -15t-59.5 -40.5 t-51 -55.5t-20.5 -59zM520 1368l2 6q39 -39 74 -39q12 0 41 15.5t59.5 41t51 54.5t20.5 57v53q-45 -82 -103.5 -137t-117.5 -55q-6 0 -27 4z" />
<glyph horiz-adv-x="411" d="M41 1540q0 102 31.5 155.5t101.5 53.5q57 0 97 -41t40 -98t-40 -98.5t-97 -41.5q-33 0 -61 17q10 -41 34 -92q14 -31 15 -43q0 -8 -8 -9q-33 0 -74 60l2 -2q-41 47 -41 139zM137 1468q27 -14 62 -14q57 0 97 42t40 97q0 16 -8.5 35t-18.5 41q-10 16 -10 21h2q4 0 31 -21 q39 -39 39 -98t-39 -99t-99 -40q-39 0 -59 14q10 -37 33 -86q14 -33 14 -47q0 -8 -6 -8q-22 -1 -47 24l6 -2l6 -2q6 0 6 8q0 14 -18 58q-23 47 -31 77z" />
<glyph horiz-adv-x="417" d="M41 1606q0 57 40 98t97 41q72 0 104.5 -53.5t32.5 -151.5q0 -94 -43 -141v2q-47 -59 -75 -60q-8 0 -9 9q0 2 12.5 32.5t20.5 47.5q-23 2 -43 6t-20 8t47 4q18 0 25.5 6t7.5 29q-29 -16 -60 -17q-57 0 -97 41t-40 99zM250 1309q0 14 26 45q15 16 23 26q43 47 43 142 q0 53 -12.5 101t-36.5 71q43 -18 63.5 -71.5t20.5 -123.5q0 -72 -38 -135.5t-81 -63.5q-8 0 -8 9z" />
<glyph horiz-adv-x="737" d="M41 1544q0 102 31.5 155.5t101.5 53.5q57 0 97 -41t40 -98t-40 -98t-97 -41q-33 0 -61 16q10 -41 34 -92q14 -31 15 -43q0 -8 -8 -8q-33 0 -74 59l2 -2q-41 47 -41 139zM150 1462q27 -14 61 -14q35 0 81 25.5t46 52.5v20q0 47 1 61.5t7 20.5q-2 4 -10 23q-12 25 -12 28 q6 0 28 -22q31 94 123 94q57 0 97 -41t40 -98t-40 -98t-97 -41q-33 0 -61 16q10 -41 35 -92q14 -31 14 -43q0 -8 -8 -8q-10 0 -33 28q-27 31 -41 31h-4q-18 14 -29 43q-41 -35 -92 -35q-55 0 -55 -18q0 -8 16 -35q27 -41 27 -66q0 -8 -6 -8q-8 0 -29 17q-18 16 -25 16h6 q6 0 7 8q0 14 -17 47q-23 51 -30 88zM446 1458q27 -14 62 -14q57 0 98 41t41 98q0 16 -18 59q-10 27 -11 33q0 4 3 4q6 0 34 -28q41 -41 41 -99q0 -57 -41 -98t-98 -41q-55 0 -55 -18q0 -8 16 -35q27 -41 27 -66q0 -8 -6 -8l-11 4q-18 6 -32.5 13.5t-14.5 13.5h2v2l-4 -4h2 h6q6 0 7 8q0 14 -17 47q-23 51 -31 88z" />
<glyph horiz-adv-x="741" d="M41 1602q0 57 40 98t97 41q72 0 104.5 -53.5t32.5 -151.5q0 -45 -11 -87t-32 -54l-4 -2q-47 -59 -75 -60q-8 0 -9 8q0 6 9 21q12 20 18 39l2 10q-20 8 -47 33q14 -8 47 -8h12q6 18 13 43q-29 -16 -60 -17q-57 0 -97 41t-40 99zM272 1282q0 2 11 18q10 18 17 34t7 30l-2 8 q43 47 43 141q0 20 -6 50q-6 27 -6 43v12l-14 35q-10 18 -11 22l2 2q6 0 31 -22q10 37 48 63.5t77 26.5q74 0 105.5 -54.5t31.5 -154.5q0 -72 -38 -136.5t-79 -64.5q-8 0 -8 8q0 6 8 21q12 20 19 39l2 10q-41 14 -41 19q0 6 39 6h12q6 18 12 43q-29 -16 -61 -17 q-12 0 -42 7.5t-30 15.5v-12q0 -72 -36.5 -135.5t-81.5 -63.5q-8 0 -9 6zM575 1284l5 8q6 25 15 45.5t17 28.5h-2q41 47 41 141q0 51 -11 97.5t-32 70.5q49 -16 70.5 -69.5t21.5 -130.5q0 -74 -35.5 -135.5t-80.5 -61.5q-8 0 -9 6z" />
<glyph unicode="&#xa3;" horiz-adv-x="1472" d="M41 41q0 31 17.5 76t52.5 119q41 84 51 118q49 158 49 320q0 88 -10 98l-6 6h-72l-19 66h80q-6 29 -22 90q-23 82 -35 137t-12 105q2 14 5 45.5t9 72.5t15.5 73t19.5 32h2q61 135 199 227q137 90 329 90q190 0 346 -80q143 -74 215 -217q27 -45 27 -112 q0 -88 -58.5 -152.5t-140.5 -64.5t-145 65q-59 63 -59 152q0 8 3 30.5t8 45t13 40t17 17.5h-7h-2q-84 0 -120.5 -10.5t-88.5 -51.5q-66 -45 -104.5 -128t-38.5 -165q0 -53 9.5 -97t31.5 -118l6 -24h178l21 -66h-293q14 -51 14 -98q0 -102 -26 -190l-11 -33q-16 -47 -25 -83 t-9 -69v-20q0 -18 17 -38t30 -20q10 0 10 15v22q12 55 35 140q18 76 27.5 124t9.5 109q0 37 -13 98h293l-4 17h55l21 -64h-291q12 -63 12 -100q0 -98 -26 -187q-20 -76 -43 -178q184 4 321 31q164 33 236 150q37 61 108 61q29 0 41 -29l2 -4q2 -6 2 -16q0 -23 -14 -46.5 t-39 -58.5l-12 -14q-39 -55 -53 -88q-2 -4 -6 -23q-10 -37 -19.5 -64.5t-25 -55t-37 -47t-48.5 -19.5h-12q-76 4 -198 8q-18 2 -35 2q-53 2 -271 2q-166 0 -448 -16q-12 0 -25.5 13.5t-13.5 29.5zM168 -43h12q70 4 164 8q23 2 39 2q25 0 72 2q84 4 131 4q219 0 272 -2 q121 -4 246 -12q41 0 60.5 21.5t33.5 64.5l14 39q31 104 84 174q6 8 27 41q25 39 39 58.5t24 19.5q29 0 41 -27l3 -6q2 -8 2 -18q0 -27 -19.5 -56.5t-46.5 -62.5q-20 -27 -30.5 -49.5t-20.5 -55.5q-25 -68 -51 -112q-12 -37 -32 -57.5t-56 -20.5h-13q-76 4 -198 8 q-18 2 -35 2q-53 2 -273 2q-223 -4 -450 -18q-12 0 -25.5 14t-13.5 31v2v2v2zM436 1171q0 -76 25 -159q25 -76 49 -172h47v-2q-6 18 -14 53q-4 6 -4 10l-19 68q-25 92 -24 159q0 82 37.5 163t107.5 130l16 13q55 39 80 43q35 6 111 6q6 0 20.5 -2t33 -4t32.5 -5.5t14 -7.5 l2 6q0 8 -18.5 17.5t-48 19t-54 14.5t-36.5 5q-78 0 -113 -8q-23 -4 -51.5 -21.5t-57 -41t-52 -50.5t-34.5 -49q-49 -104 -49 -185zM1077 1053q31 -12 68 -13q80 0 141 66q59 66 60 151q0 18 -12.5 62.5t-34 91.5t-51 82t-62.5 39q29 -4 60.5 -27.5t59 -56.5t50 -66.5 t35.5 -58.5q29 -53 28 -113q0 -88 -61 -153q-57 -63 -139 -64q-83 1 -142 60z" />
<glyph unicode="&#xad;" d="M41 520v58h868v-58h-868zM100 479v23h838v35h35v-58h-873z" />
<glyph unicode="&#x2000;" horiz-adv-x="941" />
<glyph unicode="&#x2001;" horiz-adv-x="1882" />
<glyph unicode="&#x2002;" horiz-adv-x="941" />
<glyph unicode="&#x2003;" horiz-adv-x="1882" />
<glyph unicode="&#x2004;" horiz-adv-x="627" />
<glyph unicode="&#x2005;" horiz-adv-x="470" />
<glyph unicode="&#x2006;" horiz-adv-x="313" />
<glyph unicode="&#x2007;" horiz-adv-x="313" />
<glyph unicode="&#x2008;" horiz-adv-x="235" />
<glyph unicode="&#x2009;" horiz-adv-x="376" />
<glyph unicode="&#x200a;" horiz-adv-x="104" />
<glyph unicode="&#x2010;" d="M41 520v58h868v-58h-868zM100 479v23h838v35h35v-58h-873z" />
<glyph unicode="&#x2011;" d="M41 520v58h868v-58h-868zM100 479v23h838v35h35v-58h-873z" />
<glyph unicode="&#x2012;" d="M41 520v58h868v-58h-868zM100 479v23h838v35h35v-58h-873z" />
<glyph unicode="&#x2013;" horiz-adv-x="1105" d="M41 520v58h954v-58h-954zM106 479v23h921v35h38v-58h-959z" />
<glyph unicode="&#x2014;" horiz-adv-x="2129" d="M41 520v58h1907v-58h-1907zM171 479v23h1841v35h77v-58h-1918z" />
<glyph unicode="&#x202f;" horiz-adv-x="376" />
<glyph unicode="&#x205f;" horiz-adv-x="470" />
<glyph unicode="&#x25fc;" horiz-adv-x="1177" d="M0 0v1178h1178v-1178h-1178z" />
</font>
</defs>
</svg>
