<?xml version="1.0" standalone="no"?>
<!DOCTYPE svg PUBLIC "-//W3C//DTD SVG 1.1//EN" "http://www.w3.org/Graphics/SVG/1.1/DTD/svg11.dtd" >
<svg xmlns="http://www.w3.org/2000/svg">
<metadata></metadata>
<defs>
<font id="boltonoutlineregular" horiz-adv-x="1116" >
<font-face units-per-em="2048" ascent="1638" descent="-410" />
<missing-glyph horiz-adv-x="1024" />
<glyph horiz-adv-x="0" />
<glyph horiz-adv-x="682" />
<glyph unicode=" "  horiz-adv-x="1024" />
<glyph unicode="&#x09;" horiz-adv-x="1024" />
<glyph unicode="&#xa0;" horiz-adv-x="1024" />
<glyph unicode="!" horiz-adv-x="516" d="M41 139q0 -90 61 -155q63 -66 156 -66q88 0 154 66q63 63 63 155t-63 156q-66 65 -154 65q-92 0 -156 -65q-61 -63 -61 -156zM59 1206q0 -6 2 -47v-53l52 -916q131 88 155 95q25 0 160 -82q0 233 16 508q15 194 25 395q0 35 2 76v65q0 231 -31 346q-72 219 -168 222 q-96 0 -174 -216q-39 -135 -39 -393zM121 139q0 59 39 99q41 41 98 41q55 0 96 -41q39 -39 39 -99q0 -59 -39 -98q-41 -41 -96 -41q-57 0 -98 41q-39 39 -39 98zM137 1204q0 242 37 371q43 156 94 156t92 -158q29 -109 29 -326v-65q-2 -39 -2 -74h-4q-10 -197 -25 -391 q-16 -209 -16 -387q-72 35 -84 35q-14 -4 -76 -39l-43 780v53q-2 39 -2 45z" />
<glyph unicode="&#x22;" horiz-adv-x="622" d="M41 1575q6 -147 43 -199.5t117 -52.5t115.5 51t35.5 203v211h-311v-213zM123 1577v129h147v-129q0 -102 -16 -137t-53 -35q-39 0 -57.5 36t-20.5 136zM270 1575q6 -147 43 -199.5t117 -52.5t116 51t36 203v211h-312v-213zM352 1577v129h148v-129q0 -102 -16.5 -137 t-53.5 -35q-39 0 -57.5 36t-20.5 136z" />
<glyph unicode="#" d="M41 336h272l-47 -324h223l48 324h-15l-45 -324h223l48 324h327v221h-299l-2 -10h301v221h-270l49 342h-225l-49 -342h14l49 342h-225l-47 -342h-330v-221h299l2 10h-301v-221zM123 418v57h291l20 154h-311v57h319l47 342h60l-49 -342h151l49 342h60l-49 -342h282v-57 h-291l-20 -154h311v-57h-317l-47 -324h-58l45 324h-151l-47 -324h-58l48 324h-285zM471 475h154l20 154h-153zM551 547l2 10h12l-2 -10h-12z" />
<glyph unicode="$" horiz-adv-x="1243" d="M41 481q2 -31 2 -71v-91v-88q0 -129 63 -143q111 -113 310 -143l-23 -238h209l23 215q6 2 18 2q190 0 371 131q188 133 188 363q-12 276 -213 373q-131 72 -270 104l4 35q18 -10 33 -29q63 -41 88 -78q8 -10 35 -37q45 -41 92 -41q119 0 119 117v12q-2 12 -3 13 q-10 47 -34 102q-14 31 -25 78q-12 63 -96 98q-37 14 -51 21q-41 25 -131 41l24 250h-211l-18 -222q-8 2 -37 2q-16 0 -37 3v-11q2 0 10 2h11q-141 0 -250 -51q-168 -74 -168 -289q0 -68 16 -115.5t53 -86.5q70 -78 174 -107q39 -20 107 -41q8 -4 29 -10q12 -2 22 -6 l-29 -291q-29 18 -43 59q-55 72 -79 138q-8 18 -19 55q-27 104 -141 104q-123 0 -123 -129zM123 236v86v90v71q0 47 39 47q49 0 61 -45q10 -39 23 -67q29 -78 92 -158q63 -78 178 -113l45 461q-78 20 -115 31q-55 16 -98 37q-84 20 -143 86q-49 55 -49 147q0 160 118 215 q98 43 218 43h30q27 -2 31 -2v2q43 -4 65 -6l21 234l-6 -4h45l-23 -238q121 -14 185 -43q29 -12 59 -23q37 -12 43 -38q12 -57 31 -95q16 -33 26 -77l2 -7v-8q0 -35 -36 -35q-18 0 -35 17q-12 12 -25 28q-37 53 -110 99q-72 45 -146 67l-20 -207q160 -35 321 -114 q158 -76 166 -301q0 -184 -153 -295q-162 -115 -322 -115q-66 0 -92 2l-23 -219h-45l23 225q-229 35 -357 148q-25 10 -24 74zM352 977q0 -35 47 -66q49 -33 93 -47q25 -8 90 -24l20 211l2 -2q-45 12 -86 12q-63 -6 -117 -23q-49 -14 -49 -61zM426 963q41 12 94 18 q-4 0 -6 8l-4 -49h6q-33 10 -72 37h-10q0 -12 -8 -14zM561 135l2 2q8 0 25 -2q33 -2 57 -2h10q80 0 152 57q76 61 76 164q-2 80 -39 121q-37 43 -109 84q-43 16 -129 37zM643 213q2 0 6 2l2 2l27 275q6 -2 18 -7q4 -2 6 -2q53 -33 76 -61q20 -27 21 -72q0 -61 -47 -98 q-45 -39 -99 -39h-10z" />
<glyph unicode="%" horiz-adv-x="1361" d="M41 -84h250l919 1149l-12 -6q23 12 47 41v16l76 121h-76v121q-23 -66 -102 -121h-58l-14 -25q-119 -41 -211 -41q-170 0 -383 111v-14q-6 -14 -14 -15q-154 0 -262 -108q-106 -106 -107 -258q0 -154 107 -260q109 -109 262 -109q150 0 260 109q109 109 108 260 q0 18 154 26q-66 70 -125 70v-41zM176 885q0 117 84 200q84 84 203 84q43 0 96 -16v6l2 -2q164 -70 301 -70q119 0 266 56l7 10h20q10 4 12 6v-6h11l-11 -16v-7q-2 -2 -6 -2h-2l-905 -1132h-41l887 1112q-129 -45 -238 -45q-90 0 -207 35q96 -86 97 -213q0 -119 -86 -203 t-203 -84q-119 0 -203 84t-84 203zM340 885q0 -98 37 -166t88 -72q53 0 90 66q35 57 35 172q-2 98 -29 172q-25 70 -96 69h-4q-72 0 -96 -71q-25 -70 -25 -170zM424 885q0 84 20 143q7 16 21 16q16 0 18 -14q23 -57 25 -147q0 -86 -23 -129q-6 -25 -14 -25q-10 -2 -20 -49 q-27 80 -27 205zM537 276q0 -150 108 -258q106 -106 260 -106t260 106q109 109 109 258q0 150 -109 259q-108 108 -260 108t-260 -108q-109 -109 -108 -259zM618 276q0 117 84 201t203 84t203 -84t84 -201q0 -115 -84 -198q-84 -84 -203 -84t-203 84t-84 198zM780 274 q0 -98 37 -165q37 -68 90 -72q53 0 88 65q35 70 35 172q-2 100 -29 170q-25 68 -96 68v4q-70 0 -98 -72q-27 -68 -27 -170zM862 272q0 84 21 140q6 18 22 18t19 -14q23 -57 24 -146q0 -76 -26 -133q-2 -20 -11 -20q-12 -4 -22 -49q-27 80 -27 204z" />
<glyph unicode="&#x26;" horiz-adv-x="1548" d="M41 592q0 -96 31 -193q86 -268 344 -395q154 -72 305 -72q96 0 211 33l2 2q-29 0 -41 25q39 -68 125 -68q102 12 182 13q92 0 199 -13q55 0 81.5 19.5t26.5 72.5q0 27 -18 60q-76 100 -131 100q-12 0 -55 70q14 -8 18 -20.5t4 -28.5q0 -10 -8 -35q45 37 76 76 q49 57 49 118q-12 29 -19 107q-2 41 -2 115q0 109 -100 108q-4 0 -8 -2q-8 -2 -13 -2h-14q-98 -29 -98 -131l2 -12q-18 -76 -78 -156q43 12 76 12l18 -22l-4 8l-6 8l-12 21q-72 113 -121 184q-74 109 -184 293q-49 82 -72 121l-21 36q-35 57 -49 86l2 -2v-4q4 -8 4 -20 q0 -39 -32 -55q25 6 75 6q55 0 111 -13q96 -18 164 -69q51 -45 115 -45l26 8q70 33 70 96q0 29 -35 86q-53 53 -86 107q-23 37 -43 53q-29 31 -96 37q-51 10 -146 10q-147 0 -262 -43q4 4 17 4q14 0 22 -6q-2 4 -10 18t-19 31q-4 8 -12 23q-8 12 -10 18q-2 4 -12 31t-15 39 q-10 20 -10 26l2 -2v-2l6 -6q-6 -6 -18 -6q6 0 8 -6q29 -16 39 -35v4l-2 4v6l-2 4q-8 -23 -8 -63q0 -45 16 -72q12 -31 20 -37q33 -47 91 -47q29 0 55 13q76 41 84 110q4 25 14 35q49 47 78 102q23 45 23 80t-23 80q0 2 -2 6v2q-49 90 -123 129q-63 39 -131 39q-18 4 -57 4 q-47 0 -107 -16q-246 -78 -285 -256q-12 -31 -12 -98q0 -137 82 -308q6 -6 6 -12q0 18 13 27q-170 -123 -242 -330q-39 -121 -39 -223zM125 594q0 94 35 194q66 184 209 289q23 16 22 41q0 14 -14 47q-74 154 -74 273q0 51 8 75q35 143 230 201q43 12 84 12q31 0 45 -4v-4 q51 0 104 -28q51 -27 86 -91q4 -8 6 -14q12 -20 13 -41q0 -18 -13 -41q-25 -45 -61 -80q-39 -35 -41 -88q-2 -27 -35 -43q-12 -6 -22 -6q-16 0 -27 17q-4 4 -10 18q-8 14 -8 37q0 27 8 41q0 2 2 6v6q0 12 -8 29q-14 27 -62 63q-31 25 -57 25q-16 0 -25 -6q-33 -14 -45 -47 v-7q-2 -4 -2 -6q0 -12 12 -47q2 -6 2 -8q18 -45 31 -74q10 -20 25 -49q16 -27 30 -49q18 -35 48 -35q14 0 20 4q98 35 225 35q88 0 135 -10q37 -2 52 -15q14 -10 30 -34q35 -57 93 -117q16 -23 16 -33q0 -12 -16 -18l-13 -4q-25 0 -45 22q-88 66 -200 90q-59 14 -130 15 q-66 0 -96 -9q-29 -6 -28 -24q0 -12 6 -21l6 -6q29 -51 61 -110q35 -57 74 -123q104 -174 184 -295q98 -147 133 -203q6 -10 19 -27l6 -4q12 0 27 25q70 100 92 194l-2 23q0 35 28 45h2q4 0 13 2q4 2 8 2q18 0 18 -26q0 -43 1 -66t3 -53q6 -86 19 -117q0 -23 -27 -47 q-20 -27 -67 -68q-20 -16 -21 -28q0 -10 6 -15q82 -88 109 -88q25 0 61 -61q6 -8 7 -17q0 -10 -23 -10q-106 12 -203 12q-82 0 -186 -12q-35 0 -49 27q-10 16 -31 16h-6q-4 -2 -8 -2q-109 -33 -199 -33q-131 0 -270 64q-227 111 -303 346q-27 80 -27 168zM385 756 q0 -121 43 -248q57 -176 190 -279q115 -86 236 -86q10 0 20 2h19q37 0 37 31q0 18 -8 29q-45 96 -113 219q-86 160 -234 410l-43 73q-12 23 -18 31q-14 27 -20 37v-2q-14 25 -31 24q-10 -4 -27 -34q-51 -82 -51 -207zM424 932q6 -10 14 -23q14 -25 25 -43q25 -37 41 -71 q135 -229 231 -408q88 -168 117 -223q-4 6 -4 14q0 51 45 51h-19q-10 -2 -20 -2q-98 0 -186 70q-113 86 -162 240q-39 111 -39 223q0 98 39 162q-12 -4 -19 -4q-32 0 -63 14z" />
<glyph unicode="'" horiz-adv-x="393" d="M41 1577q0 -150 36 -202t120 -52t119.5 52t35.5 202v211h-311v-211zM123 1577v129h147v-129q0 -100 -17 -136t-56 -36t-56.5 36t-17.5 136z" />
<glyph unicode="(" horiz-adv-x="579" d="M41 883q0 -385 70 -664q172 -430 428 -522q-129 223 -209 625q-41 262 -41 561t41 557q82 408 207 633q-254 -94 -426 -529q-70 -279 -70 -661zM121 881q0 365 67 641q68 276 166 338q-66 -152 -104 -408q-41 -264 -41 -569t41 -574q41 -260 104 -405v-2q-98 59 -166 334 q-68 276 -67 645z" />
<glyph unicode=")" horiz-adv-x="579" d="M41 -297q252 94 428 528q70 279 70 664q0 383 -70 661q-176 434 -428 529q129 -229 209 -633q39 -246 39 -557q0 -313 -39 -559q-80 -404 -209 -633zM223 -80q66 152 105 408q41 264 41 571q0 305 -41 569q-39 256 -105 408q98 -61 166 -338q68 -276 68 -641 q0 -369 -68 -645t-166 -338v6z" />
<glyph unicode="*" horiz-adv-x="524" d="M41 1339l49 -51q-43 0 -43 -2q29 0 117 -14q18 -41 98 -41q63 0 96 37q43 18 54 18l37 17l34 34q0 33 -41 127q-12 18 -30 43l8 11q14 20 20 30q43 96 43 129l-26 25l-27 27q-12 0 -72 18q-33 37 -96 37q-80 0 -98 -41q-55 -14 -70 -14l-26 -27l-27 -27q0 -25 39 -125 q12 -18 31 -43q-18 -25 -31 -43q-39 -100 -39 -125zM123 1374q0 10 24 41q35 45 82 92q-47 47 -82 92q-25 31 -24 41l2 5l4 2q17 0 111 -84q4 139 22 139q16 0 25 -137q86 82 108 82l4 -2l2 -3q0 -12 -24 -43q-31 -39 -80 -92q49 -51 80 -92q25 -33 24 -43l-2 -2l-6 -2 q-20 0 -106 82q-8 -137 -25 -137q-18 0 -22 137q-92 -82 -111 -82q0 2 -4 2z" />
<glyph unicode="+" d="M41 438h408v-405h221v405h405v221h-405v408h-221v-408h-408v-221zM123 520v58h407v407h58v-407h405v-58h-405v-405h-58v405h-407z" />
<glyph unicode="," horiz-adv-x="514" d="M41 137q0 -94 61 -155q63 -66 154 -66h-29q-20 10 -20 39q0 -10 -14 -39q-23 -59 -23 -86q0 -29 12.5 -47.5t27.5 -26.5t26.5 -10t17.5 -2q61 0 141 88q37 47 62 139q16 55 16 123v23q-2 18 -2 22q-29 219 -215 219q-86 0 -156 -65q-59 -66 -59 -156zM121 137q0 59 37 99 q41 41 96 40q119 0 133 -141q0 -4 2 -20v-21q0 -49 -12 -102q-18 -74 -47 -109h-2q-43 -57 -76 -57q-2 0 -2 4q0 18 16 53q20 51 21 72q0 16 -8 25q-20 18 -25 18q-55 0 -94 41q-39 39 -39 98z" />
<glyph unicode="-" d="M41 438h1034v221h-1034v-221zM123 520v58h870v-58h-870z" />
<glyph unicode="." horiz-adv-x="516" d="M41 139q0 -90 61 -155q63 -66 156 -66q88 0 154 66q63 63 63 155t-63 156q-66 65 -154 65q-92 0 -156 -65q-61 -63 -61 -156zM121 139q0 59 39 99q41 41 98 41q55 0 96 -41q39 -39 39 -99q0 -59 -39 -98q-41 -41 -96 -41q-57 0 -98 41q-39 39 -39 98z" />
<glyph unicode="/" horiz-adv-x="980" d="M41 -37h242l657 1759h-242zM160 45l596 1595h65l-596 -1595h-65z" />
<glyph unicode="0" horiz-adv-x="1566" d="M41 858q0 -322 227 -553q240 -387 514 -387q276 0 512 258q229 250 232 682q0 430 -238 680q-248 258 -506 258q-260 0 -506 -280q-236 -272 -235 -658zM125 858q0 352 215 604t442 252h4q229 0 447 -233q215 -227 215 -623q-2 -397 -211 -627q-209 -231 -453 -231 q-242 0 -450 252q-209 252 -209 606zM420 782q0 -256 94 -456q104 -209 262 -209q154 12 246 209t111 526q0 20 2 47v45q0 266 -82 436q-94 203 -277 203l-2 4q-180 -2 -260 -217t-92 -518v-37q-2 -27 -2 -33zM502 780q0 6 2 33v35q12 291 88 489q59 164 184 164 q131 0 203 -158q74 -160 74 -401v-43q-2 -27 -2 -47q-18 -356 -103 -563q-63 -86 -176 -92q-111 0 -182 163q-88 186 -88 420z" />
<glyph unicode="1" horiz-adv-x="940" d="M41 1151q0 -53 65 -107q14 -18 34 -22t53 -4q2 0 12 2h16q41 6 70 29l4 2l4 2q31 27 55 39q18 8 43 24q21 10 27 14q-8 -8 -25 -8q-6 0 -10 2q-25 12 -27 43v-163v-168q0 -45 3 -97v-80q0 -211 -13 -315q-12 -174 -33 -244q10 66 17 68q-74 -2 -121 -135v-10 q-2 -8 -2 -11q0 -53 30.5 -75.5t92.5 -22.5q49 6 117 12h14q70 4 98 4q29 0 92 -4h13q76 -4 110 -8q63 0 91 23.5t28 85.5q0 59 -40 93t-99 34q12 -2 31 -2q-18 0 -43 -2q39 0 59 -3q-16 33 -33 150q-8 68 -12 182.5t-4 308.5q0 96 2 175q0 18 2 116v125q0 59 2 127v111 q2 68 2 145q14 43 14 74q0 115 -106 127l-10 2h-11q-33 0 -80 -18q-23 -12 -61 -66q-51 -98 -76 -135q-37 -57 -84 -111q-43 -49 -112 -94q-92 -57 -142 -100q-18 -12 -37 -52q-14 -16 -17 -28t-3 -35zM117 1139q0 10 6 16q12 27 22 37q51 45 134 96q86 53 133 111 q55 66 88 123l2 4q47 80 76 133q14 27 24 33q25 10 43 10h8l6 -2q31 -2 31 -43q0 -25 -14 -55q0 -86 -2 -160t-2 -238v-243v-175q0 -203 4 -318.5t14 -182.5q18 -143 47 -185q23 -33 43 -32q4 2 8 2t7 2q23 0 22 -45q0 -27 -33 -27q-63 8 -110 10q-41 2 -109 2 q-49 0 -116 -6q-68 -6 -117 -12q-35 0 -35 16q0 2 2 6v4q14 61 43 64q27 4 51 51q27 51 41 197q12 109 12 325v80q-2 51 -2 97v167v170q-4 23 -24 29q-6 4 -21 4q-12 0 -18 -4l-10 -6q-41 -25 -64 -37q-33 -18 -61 -43l-13 -12q-8 -8 -24 -12q-4 0 -12 -3h-11q-27 0 -34 9 q-35 23 -35 43z" />
<glyph unicode="2" horiz-adv-x="1419" d="M41 1247q6 -287 235 -436q23 -14 39 -20q4 -2 13 -9q70 -29 149 -28q256 0 330 172q0 -2 -2 -13q-4 -14 -6 -26h6q16 66 16 98q0 139 -133 139q-53 0 -92 -41q-41 -33 -102 -32q-14 0 -31 12q-41 31 -60 65h3q-6 37 -7 89q0 84 70 153q70 70 160 70q61 0 92 -6 q27 -6 67 -39q47 -33 70 -80q43 -74 43 -178q-10 -72 -39 -131q-27 -59 -71 -125q-25 -29 -82 -86q-47 -43 -88 -74q-51 -29 -76 -47l-2 -2q-180 -127 -281 -264q-96 -123 -176 -308q-10 -12 -13 -24.5t-3 -36.5q0 -27 18 -64q43 -63 102 -63q209 14 396 18q133 0 235.5 -3 t214.5 -11q109 0 146 92q16 33 32 94q12 47 25 74q16 43 37 72q33 47 55 96q16 20 17 68q0 39 -11 57q-32 76 -110 76q-117 0 -166 -103q-66 -106 -195 -120q-152 -18 -401 -23q4 0 4 8q33 0 41 -18.5t8 -55.5q0 -10 -2 -20q82 106 211 186q143 90 287 189q141 96 250 225 q115 129 114 334q0 154 -71 326h-4q-63 129 -207 213q-158 106 -377 106q-270 0 -469 -145q-209 -156 -209 -400zM127 1247q0 203 174 332q176 129 420 129q190 0 332 -92q139 -90 198 -227h2q47 -129 47 -244q0 -172 -96 -281q-98 -117 -235 -211t-283 -184 q-143 -88 -233 -209q-12 -18 -13 -27q0 -8 4 -8q8 -8 25 -8q238 4 410 25q174 23 256 161q29 59 92 60l-4 4q27 0 34 -27q4 -8 5 -24q0 -18 -7 -27q-20 -51 -49 -92q-31 -45 -47 -88q-12 -27 -26 -84q-12 -47 -29 -84q-14 -43 -68 -43q-115 8 -218 11t-236 3 q-186 -2 -396 -18q-16 0 -28 20q-8 16 -8 25q0 10 4 14q76 178 172 305t270 248l2 2q25 18 66 43q43 31 100 84q45 41 92 96q41 57 82 140q39 76 47 162q0 129 -51 219q-27 63 -96 110q-63 47 -99 54q-37 6 -108 6q-121 0 -215 -95q-94 -94 -94 -208q0 -100 40 -172h3 q16 -27 55 -52q37 -25 76 -24q94 0 159 57q16 16 37 16q51 0 51 -57q0 -10 -2 -16h-2q-2 -6 -6 -15q-57 -119 -254 -118q-61 0 -110 20q-12 8 -19 10q-8 4 -24 13q-193 123 -199 366z" />
<glyph unicode="3" horiz-adv-x="1513" d="M41 449q0 -197 182 -367q178 -162 449 -162q131 0 274 60q139 59 250 155q115 100 190 223q80 133 87 275q0 137 -26 241.5t-77 196.5q-117 203 -344 264q33 -14 33 -61q0 -6 -4 -14q49 61 135 147q37 37 102 98q20 20 58 56q49 55 55 116q0 66 -27 92.5t-84 26.5 q-205 -12 -415 -12q-119 0 -218.5 3t-197.5 11q-61 0 -103 -49q-20 -27 -28 -47q-63 -117 -139 -209q-35 -39 -46 -107q0 -68 27 -97t82 -29q109 0 182 108q39 43 172 51q61 8 174 8q63 0 121 -6q-4 4 -4 6l-35 31v53q-88 -102 -155 -168q-55 -55 -170 -157 q-59 -53 -60 -127q0 -113 107 -113q70 0 108 25q16 6 35 6q131 0 213 -105q72 -88 72 -198q0 -27 -6 -62q-2 -154 -99 -276q-88 -111 -229 -111q-98 0 -166 70q-68 72 -67 156v24q-2 16 -3 21q0 43 17 71q10 16 47 33q100 63 100 135q0 12 -2 25q-6 59 -43 84q-20 16 -50 22 t-85 6q-76 -6 -125 -30q-264 -113 -264 -393zM115 451q0 227 217 319q39 20 92 23q37 0 55.5 -3.5t30.5 -11.5q10 -6 10 -22v-19q0 -33 -55 -61q-53 -27 -76 -62q-31 -43 -31 -116q0 -4 2 -21v-24q0 -115 93 -211q94 -96 223 -97q182 0 295 142q115 141 116 317q6 37 7 70 q0 139 -88 252q-111 135 -279 135q-37 0 -74 -17q-27 -14 -69 -14q-25 0 -25 31q0 39 31 65q80 68 174 160q80 78 162 172q18 25 18 33l-2 4q-8 4 -31 6q-61 6 -129 6q-119 0 -184 -8q-180 -18 -229 -86q-45 -74 -115 -74q-27 0 -27 39q6 39 27 60q84 96 154 227q6 12 18 33 q12 18 35 18q100 -8 199.5 -11t220.5 -3q211 0 415 12l-10 -4q25 0 25 -33q-2 -33 -31 -63q-51 -47 -154 -146l-6 -6q-72 -70 -141 -151q-8 -12 -12 -31q0 -20 30 -27q195 -53 293 -223q47 -82 69.5 -176t22.5 -219q-2 -119 -73 -234q-72 -115 -174 -202q-104 -90 -230 -142 q-129 -53 -241 -53q-236 0 -394 141q-156 141 -155 306z" />
<glyph unicode="4" horiz-adv-x="1484" d="M41 387q0 -70 30.5 -101.5t100.5 -43.5h709q23 0 34 -2q-61 0 -61 32q0 -70 -8 -102q4 4 10 4q-10 -6 -39 -18q-45 -16 -108 -127q0 -29 8 -50.5t28 -48.5q41 -31 84 -30q49 6 117 12h23q61 4 86 4q45 0 96 -6q35 -6 86 -12l23 -2q121 0 120 110q-6 90 -47 113 q-16 12 -26 20q-8 10 -15 25q-14 35 -22 108v-10q-6 -20 -27 -20h62q139 0 139 137v63q0 135 -139 136h-74q23 0 24 -41q-4 25 -4 38q-2 35 -2 117q0 88 2 137q4 129 9 396v6q4 324 8 485q-6 0 -13 -39q-14 100 -122 107q-117 -6 -179 -113q-186 -352 -403 -684 q-146 -158 -445 -469q-57 -57 -65 -131zM125 383q6 47 43 80l-8 8q248 311 448 573q223 291 410 594q37 70 106 72q37 -2 43 -39q6 -31 11 -31l-7 -399l-6 -399q-2 -51 -2 -142q0 -82 2 -116q0 -29 6 -54t58 -24h74q57 0 57 -53v-64q0 -55 -57 -55h-62q-33 0 -45 -23 q-10 -20 -10 -35q12 -96 31 -137q18 -39 36 -55q18 -14 31 -25q12 -8 14 -49q0 -27 -32 -26q-45 6 -105 12q-57 6 -106 6q-47 0 -115 -6t-117 -12q-10 0 -24 10q-10 8 -11 16q33 61 60 74l24 12t19 8q18 10 31 39q12 29 14 131q0 49 -18 50q-12 2 -37 2h-703q-53 8 -53 57z M387 500q0 -12 21 -13h6q6 2 10 2l442 11h39q31 0 31 55q0 80 -2 125q-2 59 -6 145v183q0 123 2 182q0 51 -12 51q-6 0 -11 -8q-25 -27 -30 -37l4 -4q-115 -174 -242 -334q-129 -162 -240 -326q-12 -14 -12 -32zM406 569q63 0 63 -67q0 -10 -6 -17q102 152 237 326t244 338 l8 10q8 10 19 23q-14 -14 -29.5 -19.5t-23.5 -5.5q-70 0 -70 33q-2 -61 -2 -182v-183q2 -33 2 -73q2 -59 2 -74q2 -43 2 -121q0 27 49 27q-18 -2 -37 -2l-442 -11q-4 0 -10 -2h-6z" />
<glyph unicode="5" horiz-adv-x="1445" d="M41 379q0 -270 205 -385q184 -104 446 -105q285 0 506 215q207 207 207 476v18q-2 14 -2 16q0 334 -203 525q-209 201 -498 202q-147 -6 -276 -53q4 2 10 2q61 0 62 -69q4 16 4 61q-2 16 -2 49v37v49v8q-2 8 -2 15q0 -66 -43 -66q74 6 221 6q94 0 270 -8q18 -6 39 -6h2 q31 0 53 2q74 4 119 92q33 70 101 146q35 47 34 86q0 29 -20 63q-39 51 -131 51q-47 -20 -74 -39q-4 -4 -8 -4q-94 -12 -207 -12q-20 0 -63 2q-45 2 -70 2q-242 16 -467 37v-10q63 0 94 -2q-8 6 -16 6l-8 2q-47 0 -97 -35q-35 -35 -34 -86q4 -84 12 -170q8 -72 8 -158 q0 -88 -8 -155q-8 -82 -12 -166q-2 -27 -3 -86q0 -139 140 -139q33 0 104 47q23 23 98 67q43 25 97 25q18 0 59 -4q92 0 195 -4q82 -137 84 -365q0 -170 -78 -260q-80 -92 -199 -111q-14 -2 -43 -2q-92 0 -158 62q-61 59 -61 145q0 125 98 152h-4q113 12 113 129 q0 129 -127 129q-12 0 -25 2h-22q-164 0 -279 -90q-137 -104 -141 -336zM125 373q4 186 111 272q92 74 227 74h22q12 -2 25 -2q45 0 45 -47q0 -43 -35 -47h-2q-170 -47 -170 -234q0 -119 86 -203q88 -84 213 -84q37 0 55 2q147 23 248 138q98 111 99 313q-2 193 -103 311 q-96 115 -246 138q-37 6 -71 6q-78 0 -140 -37q-88 -53 -110 -76q-33 -27 -49 -27q-57 0 -58 58q0 55 2 82q4 78 13 161q8 74 8 166t-8 166q-8 84 -13 166q0 16 11 27q10 10 20 10l8 -2q6 0 11 -2q4 -2 12 -2l12 -4v2q233 -18 381 -29q23 0 70 -2q45 -2 65 -2q125 0 223 14 q27 6 41 19q16 14 41 22q35 0 48 -18q6 -6 6 -14q0 -16 -15 -33q-74 -82 -112 -164q-20 -41 -52 -45q-20 -2 -47 -2h-2q-6 0 -18 4q-160 10 -293 10q-150 0 -225 -6q-37 0 -37 -20t2 -27v-43v-37v-51q0 -37 -4 -49q0 -23 20 -23q14 0 23 4q117 41 246 47q256 -2 438 -180 q178 -172 178 -467q0 -2 2 -16v-19q0 -238 -184 -415q-197 -190 -449 -191q-238 0 -405 94q-164 92 -164 314z" />
<glyph unicode="6" horiz-adv-x="1497" d="M41 745q0 -426 227 -634q262 -215 641 -215v2q-63 0 -104 4q23 -6 35 -6q217 6 417 200q199 197 199 479q0 330 -205 500q-197 170 -483 170q-86 0 -111 -47q-129 -176 -280 -309q14 14 43 14q55 -18 55 -69q6 154 70 274q63 121 151 209q86 86 178 141q76 49 136 76 q82 0 118 72q14 29 15 57q0 129 -152 129q-170 0 -352 -109q-168 -100 -305 -253q-133 -182 -217 -402q-39 -70 -57.5 -137.5t-18.5 -145.5zM127 743q0 88 16.5 163t51.5 155q78 170 202 313q127 145 285 240q162 96 309 96l10 -6q70 0 70 -47q0 -6 -4 -19q-23 -29 -68 -28 q-61 -27 -159 -86q-96 -57 -193 -154q-94 -94 -166 -227q-70 -131 -80 -312q0 -10 15 -12q20 0 28 12q160 141 287 314q8 14 43 14q254 0 430 -151q176 -147 176 -437q0 -248 -174 -419q-176 -174 -362 -177h-6h-7v-2q-297 0 -503 195q-201 193 -201 575zM438 512 q0 -94 99 -242q102 -154 245 -153l2 -4q145 0 246 116q100 115 100 281q0 164 -100 278q-100 117 -246 117q-143 0 -247 -125q-98 -117 -99 -268zM520 514q0 121 78 217t184 96t183 19q82 -137 82 -332q0 -197 -82 -334q-77 19 -183 19q-104 0 -178 118q-84 121 -84 197z " />
<glyph unicode="7" horiz-adv-x="1372" d="M41 1327q0 -41 16 -61q35 -61 111 -62q121 0 182 119q49 70 219 78q61 6 176 6q98 0 195 -10q-37 0 -37 53q0 10 2 16q-170 -375 -352 -759q-188 -324 -303 -648v-10q-2 -10 -2 -12q0 -27 14 -55q23 -63 109 -64q57 10 108 10q47 0 109 -10q4 0 12 -2h10q104 0 129 117 q84 434 240 823q152 385 336 768q16 27 16 64q0 106 -117 106q-39 0 -53 -2q-59 -4 -178 -4q-33 0 -98 2q-66 2 -99 2q-262 12 -389 18h-6h-6q-51 0 -109 -32q-63 -39 -81 -103q-18 -66 -54 -131q-18 -37 -61 -108l-14 -25q-16 -18 -20.5 -37.5t-4.5 -46.5zM119 1323 q0 23 10 35q39 61 82 145q35 70 57 148q8 33 47 55q39 23 68 23h6h6q129 -6 391 -19q33 0 99 -2t98 -2q129 0 195 4l-2 -2q10 2 36 2q35 0 35 -24q0 -14 -6 -25q-190 -395 -342 -776q-162 -403 -244 -840q-8 -49 -49 -49h-6q-6 2 -10 2q-66 10 -115 10q-53 0 -115 -10 q-23 0 -28 14q-6 12 -6 23q0 2 2 6v4q106 344 293 698q221 422 354 684q6 12 6 21q0 29 -41 29q-98 10 -199 10q-119 0 -184 -6q-221 -14 -283 -123q-37 -76 -110 -76q-29 0 -41 23q-4 6 -4 18z" />
<glyph unicode="8" horiz-adv-x="1449" d="M41 500q0 -279 203 -437q195 -152 467 -151q272 0 483 176q215 184 215 428q0 184 -100 340q-100 154 -271 238q4 -29 4 -41q0 -31 -13 -52.5t-36 -21.5q16 12 49 37l21 14q76 113 129 236q66 43 65 96q0 178 -163 313q-152 125 -381 125q-227 0 -387 -129 q-168 -137 -168 -330q4 -162 51 -243q49 -86 100 -125q53 -41 88 -58q-39 20 -39 64q0 14 19 47q-123 -90 -221 -211q-115 -143 -115 -315zM127 502q0 143 96 262q98 119 209 201q10 10 10 16q0 8 -12 14q-31 14 -65 45q-41 35 -80 101q-39 68 -43 202q0 154 137 265 q139 111 334 110l4 4q197 0 330 -108q133 -109 133 -248q0 -82 -50 -147q-49 -63 -116 -123q-14 -12 -43 -33q-6 0 -6 -8q0 -14 43 -33q145 -70 235 -207q88 -133 88 -295q0 -211 -186 -366q-188 -158 -430 -158q-244 0 -416 135t-172 371zM367 506q0 -4 2 -21v-20 q10 -147 110 -262q94 -106 236 -107v2q131 10 231 84t121 285q0 113 -55 186q-66 84 -150 142q-90 61 -162 90q-76 29 -94 28q-102 0 -176 -151q-63 -127 -63 -256zM446 506q0 109 56 221q43 104 102 104q10 0 66 -22q70 -27 145 -82q76 -53 129 -125q39 -51 39 -133 q-14 -166 -88 -225q-78 -60 -182 -66q-100 0 -172 80q-82 92 -92 209v20q-2 14 -3 19zM461 1382q0 -94 135 -178q137 -84 219 -84q70 12 111 90q39 76 39 172q0 94 -88 162t-166 70q-102 0 -174 -66q-76 -70 -76 -166zM543 1382q0 61 49 107q47 43 117 43q55 0 120 -53 q55 -39 56 -97q0 -76 -31 -137q-14 -39 -43 -45q-63 0 -170 72q-98 53 -98 110z" />
<glyph unicode="9" horiz-adv-x="1454" d="M41 1161q0 -10 2 -31q2 -20 2 -30q0 -332 231 -500q229 -168 459 -168q84 0 117 55q20 78 51 121q35 41 123 105q-16 -10 -43 -11q-55 23 -55 72q-16 -119 -80 -213q-70 -104 -160 -184q-96 -82 -184 -133l-29 -17q-82 -47 -108 -59h4q-106 -41 -121 -68q-18 -33 -19 -61 q0 -127 152 -127q170 0 360 104q182 98 332 252q152 156 246 334q47 90 69.5 174t22.5 180q0 428 -190 627q-197 219 -533 221q-211 0 -438 -194q-211 -182 -211 -449zM119 1161q0 229 182 387q201 174 385 174q299 -2 471 -194q170 -182 170 -572q0 -86 -19.5 -161.5 t-62.5 -153.5q-88 -166 -231 -313q-139 -143 -312 -240q-168 -94 -319 -94l2 2q-70 0 -70 45q0 10 7 18q10 14 63 29h2q63 31 158 86q102 61 196 143t174 201q78 115 93 252q0 10 -15 12q-16 0 -26 -12q-96 -72 -129 -113q-33 -43 -62 -129q-12 -14 -43 -14q-205 0 -411 152 q-199 147 -199 434q0 10 -2 30t-2 31zM350 1260q0 -37 10 -93q66 -362 353 -362q104 4 202 61q98 59 123 111q10 25 11 51v12q-2 10 -2 13l-13 92q-8 82 -71 239q-61 152 -244 181l-2 -2q-23 4 -64 4q-139 0 -223 -97q-80 -86 -80 -210zM434 1262q0 90 58 157q66 68 163 68 q34 0 52 -2q133 -18 180 -131q57 -145 65 -219l13 -86q0 -2 2 -9v-10q0 -12 -2 -16q-18 -33 -91 -74q-76 -47 -161 -51q-221 0 -271 295q-2 8 -2 10q-6 45 -6 68z" />
<glyph unicode=":" horiz-adv-x="516" d="M41 139q0 -90 61 -155q63 -66 156 -66q88 0 154 66q63 63 63 155t-63 156q-66 65 -154 65q-92 0 -156 -65q-61 -63 -61 -156zM41 1022q0 -94 61 -156q63 -66 156 -65q90 0 154 63q63 63 63 158q0 86 -61 154q-64 67 -156 67q-94 0 -156 -67q-61 -68 -61 -154zM121 139 q0 59 39 99q41 41 98 41q55 0 96 -41q39 -39 39 -99q0 -59 -39 -98q-41 -41 -96 -41q-57 0 -98 41q-39 39 -39 98zM121 1020q0 57 39 98q41 43 98 43t96 -43q39 -41 39 -98q0 -59 -39 -98t-96 -39q-59 0 -98 39t-39 98z" />
<glyph unicode=";" horiz-adv-x="516" d="M41 137q0 -94 61 -155q63 -66 154 -66h-29q-20 10 -20 39q0 -10 -14 -39q-23 -59 -23 -86q0 -29 12.5 -47.5t27.5 -26.5t26.5 -10t17.5 -2q61 0 141 88q37 47 62 139q16 55 16 123v23q-2 18 -2 22q-29 219 -215 219q-86 0 -156 -65q-59 -66 -59 -156zM41 1018 q0 -94 61 -156q66 -66 154 -65q94 0 156 65q63 63 63 156q0 90 -63 156q-62 65 -156 65q-86 0 -156 -65q-59 -66 -59 -156zM121 137q0 59 37 99q41 41 96 40q119 0 133 -141q0 -4 2 -20v-21q0 -49 -12 -102q-18 -74 -47 -109h-2q-43 -57 -76 -57q-2 0 -2 4q0 18 16 53 q20 51 21 72q0 16 -8 25q-20 18 -25 18q-55 0 -94 41q-39 39 -39 98zM123 1018q0 59 37 98q41 41 96 41q57 0 98 -41q41 -43 41 -98q0 -57 -41 -98t-98 -41q-53 0 -94 41q-39 39 -39 98z" />
<glyph unicode="=" d="M41 336h1034v221h-1034v-221zM41 547h1034v221h-1034v-221zM123 418v57h870v-57h-870zM123 629v57h870v-57h-870z" />
<glyph unicode="?" horiz-adv-x="1316" d="M41 1389q0 -109 74 -187q78 -78 184 -78t184 78t78 187q0 67 -2 94q20 -4 41 -4q12 2 37 2q35 0 63 -15q47 -23 78 -88q25 -55 25 -143q0 -39 -6 -92q-16 -172 -66 -219q-63 -55 -139 -95q-94 -49 -166 -141q-63 -76 -64 -276q0 -14 3 -107v-123q135 94 163 101 q25 0 158 -86q0 291 47 360q72 47 160 68q123 29 229 110q121 88 152 410q0 6 2 33v30q0 236 -139 396q-156 190 -447 190q-31 8 -96 8q-135 0 -303 -71q-250 -111 -250 -342zM125 1391q0 182 201 268q152 63 270 63q57 0 84 -8q258 0 395 -162q121 -139 121 -342v-28 q-2 -25 -2 -31q-25 -276 -119 -350q-96 -74 -198 -99t-187 -79q-84 -55 -84 -295q-70 35 -82 34q-14 -4 -75 -38v47q-2 33 -3 39q0 166 48 225q59 78 137 117q80 41 153 104q76 66 97 277q6 55 6 100q0 111 -31 178q-43 96 -117 129q-45 23 -100 23q-37 0 -57 -4 q-80 -18 -142 -60l2 2q39 -45 39 -110q0 -76 -53 -129t-127 -54q-72 0 -125 54q-51 51 -51 129zM301 137q0 -90 66 -155q66 -66 153 -66q90 0 156 66q63 63 63 155t-63 156q-66 65 -156 65q-88 0 -153 -65q-66 -66 -66 -156zM383 137q0 57 41 99q41 40 96 40q57 0 98 -40 q39 -39 39 -99q0 -59 -39 -98q-41 -41 -98 -41q-55 0 -96 41t-41 98z" />
<glyph unicode="@" horiz-adv-x="1538" d="M41 850q0 -381 201 -653q211 -285 514 -285q150 0 286 78q186 125 326 336q-279 0 -440 -72q-68 -43 -172 -43q-176 0 -279 172q-117 195 -117 467t117 465q102 172 279 172q178 0 288 -174q123 -193 123 -463q1 -132 -32 -238q-12 -20 -13 -49v8l-16 -39 q-29 -61 -35 -73h23q16 55 39 55q18 0 30 -6q-14 37 -14 74v51q-2 18 -2 55l2 55q2 113 2 148v96q2 4 2 17q2 14 2 18q0 6 2 20q0 59 -37 86q-94 63 -198 93q-94 27 -189 26q-178 0 -354 -135q-20 -14 -26.5 -32.5t-6.5 -43.5q0 -41 41 -88q53 -45 94 -45q25 0 38 7.5 t32 23.5q66 61 174 61h6q49 -4 80 -10q10 4 12 6q6 -8 6 -20q0 39 29 39q-12 0 -18 2q-14 2 -41 2q-199 0 -340 -68q-172 -74 -172 -338q0 -217 192 -291q80 -31 166 -30q94 0 191 39q25 8 47 8q12 0 16 -2q47 -25 74 -37q59 -49 153 -68q117 0 201 97q59 70 103 176 q37 104 51 194q16 104 16 156q0 385 -217 653q-227 283 -524 283q-303 0 -514 -285q-201 -272 -201 -651zM129 854q0 352 184 604t447 252q262 0 461 -252q199 -250 198 -604q0 -57 -14 -143q-14 -90 -49 -181q-35 -90 -88 -153q-55 -66 -131 -66q-70 16 -117 56 q-37 14 -80 39q-25 12 -55 12q-35 0 -76 -15q-80 -33 -162 -32q-70 0 -137 24q-141 55 -141 215q0 207 125 264q129 59 305 60q20 0 30 -2t31 -2q53 0 53 47q-4 31 -14 55q-12 27 -72 37q-55 10 -98 12q-143 0 -233 -86q-6 -6 -13 -6q-16 0 -37 21q-16 16 -16 30q0 10 4 15 q150 115 301 114q80 0 166 -24q90 -27 170 -76q6 -6 6 -18q-2 -14 -2 -21q-2 -20 -6 -31v-106q0 -117 -2 -205v-59v-49q2 -61 23 -107q18 -43 43 -43q39 0 67 109h-2q2 2 6 16v6q0 4 2 6l4 6q43 133 43 283q0 299 -135 510t-356 211t-350 -211t-129 -510q0 -297 129 -510 q129 -211 350 -211q133 0 215 58q82 57 231 57q-88 -117 -202 -184q-113 -68 -246 -68q-262 0 -447 252q-184 252 -184 604zM559 637q0 -96 76 -148q29 -23 74 -22q57 0 127 39q6 2 18 10t16 12q29 18 31 80q0 39 2 62t2 73q4 61 6 80q0 35 -14 41l-18 6q-4 2 -7 2l-2 -2 q-174 -2 -243 -71q-68 -68 -68 -162zM641 637q0 63 45 104q49 48 178 50v-3q-35 6 -35 39q-2 -18 -6 -82q0 -51 -2 -71q-2 -23 -2 -62v-18l-10 -10q-8 -4 -10 -6q-45 -29 -88 -29q-16 0 -29 6q-41 29 -41 82z" />
<glyph unicode="A" horiz-adv-x="1908" d="M41 14q0 -53 27.5 -75.5t91.5 -22.5q102 8 198 12q84 0 183 -12q96 0 123 78q12 25 12 61q0 102 -84 103q-4 2 -10 6q-4 2 -7 4q4 0 7 2q0 55 39 147q-13 -28 -48 -28h697q-20 2 -29 14q37 -98 37 -135q0 -8 2 -10l-6 -6q-61 -25 -62 -140q12 -61 91 -90q20 -6 65 -6 q100 10 188 12q80 0 193 -12q61 0 100 59q18 51 19 80l-8 23q-55 102 -111 102q4 0 10 13q-35 45 -98 180q-68 141 -203 506l-8 14l-299 793q-37 49 -60.5 69.5t-56.5 20.5q-16 -4 -41 -4q-29 0 -43 -3h-32q-92 0 -179 3q-139 4 -178 8q-35 0 -58.5 -32t-39.5 -101 q-12 8 -12 20l2 -10v-10q18 -131 217 -150q57 -2 61 -35q0 -68 -59 -168q-74 -143 -187 -438q-141 -328 -229 -498q-74 -137 -109 -182q10 -12 15 -12q-43 0 -109 -96q-8 -16 -10 -26.5t-2 -27.5zM119 18q0 10 4 19q23 49 35 49q16 0 51 41q37 47 117 197q82 156 233 505 q104 279 182 431q68 133 68 210q-8 102 -137 111q-129 10 -142 76v6l-2 6q0 10 4 17q6 14 21 14q41 -4 182 -8q86 -2 178 -2h37h39q39 0 49 2q14 0 33 -39l301 -795l8 -14q131 -354 203 -506q70 -147 109 -195q39 -45 55 -45q18 0 37 -51l2 -8q0 -6 -8 -23q-10 -16 -25 -16 q-119 12 -199 12q-92 -2 -190 -12q-27 0 -39 4q-29 6 -31 21q0 47 19 55q18 8 33 26q12 18 12 64q0 47 -39 160q-12 39 -43 41h-703l2 4q-23 0 -30 -27q-43 -117 -43 -180q6 -49 30 -66q27 -16 50 -22q12 0 12 -21q0 -18 -6 -30q-8 -27 -43 -27q-100 12 -191 12 q-94 -2 -202 -12q-33 0 -33 16zM606 530q0 -20 23 -20h581h4q25 0 25 22q0 25 -2 31q-27 66 -49 121q-27 66 -62 141q-90 289 -174 455q-12 23 -24 23t-21 -21q-18 -41 -63 -152q-6 -14 -25 -61q-66 -160 -98 -238l-8 -18q-41 -94 -56 -123q-33 -70 -47 -123q-4 -20 -4 -37z M629 592q59 0 59 -62v13q14 49 43 112t64 146q33 78 98 237q59 145 88 211q-22 -28 -53 -28h-2q-20 0 -47 20q82 -166 168 -444q39 -90 61 -144q14 -35 35 -84l12 -30q-2 0 -2 -7q0 60 57 60h-581z" />
<glyph unicode="B" horiz-adv-x="1867" d="M41 1686q6 -125 98 -136q-2 0 -6 -16q23 -49 37 -191q12 -106 12 -311v-92q-2 -59 -2 -111q-8 -348 -30 -499q-18 -137 -39 -180q12 -2 34 -3q-92 0 -102 -131q0 -53 28.5 -79.5t92.5 -26.5q109 8 186 12q61 0 92 -2q6 0 47 -2h50h4h10h10q16 -2 72 -2q117 0 280 -4 q86 0 143.5 3t102.5 13q414 80 537 271q123 186 129 372q-2 248 -154 390q-139 133 -364 194q25 -8 34 -23.5t9 -46.5q-12 -31 -37 -41q323 119 323 337q0 53 -30 135q-33 88 -172 167q-125 68 -357 101q-100 16 -268 16q-139 0 -352 -16h-58q-20 2 -63 2q-80 0 -178 10 q-66 0 -92.5 -21.5t-26.5 -88.5zM117 1686q0 27 33 26q98 -10 182 -10q41 0 61 -2h64q209 16 348 16q160 0 256 -16q217 -31 330 -90q109 -57 137 -127q25 -63 24 -103q0 -168 -266 -260q-16 -4 -22 -18q0 -18 14 -25q207 -57 334 -178q127 -119 129 -330q-2 -158 -115 -325 q-111 -164 -481 -236q-45 -8 -96.5 -11t-133.5 -3q-168 4 -282 4q-53 0 -68 2h-14h-10v2q-33 2 -97 2h-96q-82 -2 -188 -12q-35 0 -35 22q4 51 20 52q20 0 41 49q23 49 43 202q23 154 31 510q0 53 2 113v92q0 209 -12 320q-18 156 -47 217q-27 59 -56 61q-27 4 -30 56z M477 1229l6 -2v-45q0 -33 64 -33q195 0 321.5 12.5t208.5 34.5q172 53 172 193q0 121 -112 170q-113 49 -568 55q-37 0 -47 -41q-12 -43 -22 -111q-14 -86 -23 -233zM496 840q0 -178 3 -274.5t9 -157.5q16 -150 43 -222q14 -51 35 -67q12 -12 59 -13q254 8 406 48 q150 37 225 98q78 63 102 147q23 78 39 195q-2 72 -18 141q-16 72 -74 133q-59 63 -178 109q-123 47 -332 72h4h-133q-41 2 -117 8l-24 2q-45 0 -45 -23q0 -61 -2 -94t-2 -102zM539 975q47 -4 129 -8h12h131q193 -20 307 -66q100 12 150 25q43 -100 51 -207q10 -55 14 -123 q-12 -100 -37 -176q-18 -61 -75 -107q-66 -53 -193 -84q-152 -37 -389 -45q-2 -2 -2 -8q-6 10 -12 35q-23 61 -39 201q-4 61 -7.5 157.5t-3.5 268.5q0 68 3 98q2 35 2 98q0 -59 -41 -59zM543 1233q18 0 18 -47q-2 21 -2 41q8 121 21 225q8 57 20 100q-6 -18 -33 -18 q426 -6 535 -49q63 -27 63 -94q0 -84 -114 -115q-78 -23 -200 -33t-308 -10z" />
<glyph unicode="C" horiz-adv-x="1923" d="M41 866q0 -385 281 -659q281 -270 675 -270q156 0 363 38q215 39 344 121q98 59 98 125q0 49 29 187q31 96 49 129q0 4 2 12v12q0 49 -39 84q-41 35 -88 35h-4q-111 0 -135 -111l-4 -18q-70 -119 -223 -217q-152 -102 -273 -103q-205 0 -403 183q-197 178 -197 442 q0 268 164 463q154 186 352 186q4 0 23 2h22q143 0 293 -71q160 -76 254 -213q55 -90 123 -90h18q98 0 111 98q0 25 -2 51q-2 14 -2 21q-49 92 -76 200q-10 39 -33 80q-20 43 -104 78q-178 92 -344 115q-145 20 -318 20q-172 0 -344 -74q-172 -76 -305 -198 q-133 -125 -221 -293q-86 -172 -86 -365zM117 860q0 172 78 328q78 154 202 270q127 117 283 184q158 68 313 68q158 0 305 -18q143 -18 322 -109q53 -18 68 -43q14 -25 24 -59q23 -106 74 -201q0 -4 2 -12q2 -16 2 -33q-4 -23 -27 -23h-18q-27 0 -49 50q-104 158 -289 245 q-166 80 -330 80h-22q-18 -2 -23 -2q-233 0 -416 -215q-182 -217 -182 -516q0 -301 223 -504q225 -203 457 -203q143 0 318 117q176 117 256 256l8 31q10 47 55 47l-10 -12h4q20 0 35 -15q12 -8 12 -22v-4q-2 -4 -2 -6q-20 -55 -47 -162q-31 -119 -31 -166q0 -29 -55 -53 q-117 -74 -320 -111t-346 -37q-365 0 -618 248q-256 250 -256 602z" />
<glyph unicode="D" horiz-adv-x="1837" d="M41 20q0 -66 26.5 -87t90.5 -21q25 2 88 2h92q27 0 43 -2h61q4 0 80 6q76 4 88 6q492 41 832 320q354 293 354 659q-12 281 -121 449q-113 176 -286 268q-168 92 -388 123q-207 33 -409 35q-8 2 -29 2q-76 0 -104 -6q-12 -2 -70 -2h-102q-57 0 -99 8q-66 0 -93 -24.5 t-27 -90.5q16 -125 90 -131q-12 4 -29 49q18 -76 27 -246q8 -123 8 -256q0 -41 -2 -112q-2 -98 -2 -146q-8 -340 -29 -497q-14 -127 -33 -179q6 0 11 3q20 2 30 2q-98 0 -98 -132zM123 25q0 49 16 49t35 45q18 49 37 198q20 162 29 506q0 47 2 148q2 72 2 112q0 135 -8 263 q-12 158 -31 213q-18 57 -37 59q-18 4 -23 55q0 29 33 29q43 -8 105 -8h104q51 0 84 4t92 4q8 0 10 -2q207 -2 418 -35q201 -31 359 -117t256 -239q100 -156 108 -406q0 -328 -325 -592q-324 -262 -789 -303q-4 -2 -55 -6q-12 0 -29 -2q-70 -6 -74 -6v8h-59h-47h-90 q-66 0 -92 -4q-31 0 -31 27zM489 831q0 -207 1.5 -289.5t7.5 -140.5q10 -150 24 -221q0 -2 2 -8q6 -16 6 -18q6 -12 33 -13q352 31 600 256q246 225 246 504q-12 412 -256 539q-242 127 -553 135q-51 0 -59 -33t-13 -59l-2 -2q-14 -78 -24 -230q-8 -154 -13 -420zM557 225 q27 0 38 -9t13 -34q-2 12 -6 19q-14 68 -24 209q-4 53 -5.5 137t-1.5 287q2 225 15 415q10 150 24 224v6q4 27 8 43q-2 -29 -22 -29q291 -8 520 -127q203 -113 211 -467q0 -242 -219 -440q-227 -207 -551 -234z" />
<glyph unicode="E" horiz-adv-x="1783" d="M41 31q0 -66 26.5 -87.5t92.5 -21.5q106 10 186 10q82 0 193 -2q25 0 168 -2h190q59 -2 250 -2q113 0 250 -2q66 0 104 45q20 25 45 51q18 33 76 101l2 4l31 31q31 27 51 49q37 27 37 110q-2 117 -123 117q-41 0 -123 -45q-41 -25 -84 -45q-119 -74 -350 -104 q-207 -27 -350 -27q-6 0 -39 2h-41q-29 0 -41 39q-23 63 -23 188v406q0 61 2 92q0 18 2 47v33q0 -51 -55 -51h438h11q147 -4 225 -11q74 -2 92 -49q45 -100 123 -100h4q129 0 129 117v8q-2 6 -2 8q-16 98 -16 180q0 80 16 168q0 4 2 12v9q0 112 -121 112h-2h-2 q-63 0 -96 -51q-8 -12 -14 -18q-57 -57 -140 -80q-88 -27 -241 -27h-385q41 0 41 -49q6 113 14 170q4 39 10 86l4 27q4 23 19 43q4 -6 8 -6q20 0 90 -3q39 0 90 -2q117 -2 246 -12q125 -12 242 -37q92 -18 147 -57q70 -66 154 -66h14q59 0 86 33q20 16 25.5 29.5t5.5 40.5 t-31 74q-49 51 -90 102q-37 49 -98 115q-29 29 -86 47q-45 14 -78 14h-15q-28 0 -34 -2q-260 0 -472 -8q-215 -8 -483 -8q-98 0 -186 14q-66 0 -93.5 -24.5t-27.5 -88.5q6 -127 104 -131q-6 0 -16 -12q23 -45 37 -184q12 -98 12 -277q0 -39 -2 -102q-2 -90 -2 -129 q-8 -352 -31 -500q-18 -131 -39 -180q12 2 37 2q-100 0 -100 -133zM125 1679q0 29 33 29q92 -14 192 -14q270 0 486 8q215 8 485 8l10 -2q2 2 17 2h14q18 0 55 -10q35 -8 49 -25q45 -43 95 -108q43 -55 94 -107q10 -14 10 -20t-4 -10q-8 -12 -31 -13h-14q-55 0 -98 45 q-63 51 -185 76q-119 25 -252 37q-117 10 -252 14q-117 4 -180 6q-59 0 -82 -34q-20 -31 -26 -68q-8 -45 -19 -117q-6 -55 -14 -176q0 -35 41 -35h385q160 0 264 29q98 27 174 102q16 16 25 31q8 14 26 14h2q41 0 41 -30v-6q-2 -4 -2 -9q-16 -92 -16 -174q0 -84 16 -186 l2 -4v-6q0 -35 -47 -35h-6q-29 0 -43 45q-33 96 -166 104q-131 10 -239 13h-439q-27 0 -26 -29q-2 -23 -2 -80v-92v-406q0 -145 28 -219q35 -88 117 -92h41q33 -2 39 -2q147 0 360 27q252 35 379 112q35 14 88 50q50 32 78 32h2q39 0 39 -37q0 -39 -12 -51q-20 -20 -49 -45 q-25 -20 -43 -45q-51 -61 -80 -104q-16 -16 -21 -23q-16 -16 -20 -22q-14 -18 -43 -19q-307 4 -500 6q-127 2 -356 2h-195q-84 0 -190 -10q-33 0 -33 27q0 49 18 49t39 49q20 49 43 201t31 510q0 39 2 129q2 66 2 104q0 186 -12 287q-18 154 -47 211q-27 55 -51 55 q-23 0 -27 51z" />
<glyph unicode="F" horiz-adv-x="1681" d="M41 1671q6 -127 104 -131q-6 0 -16 -12q20 -45 37 -182q12 -106 12 -310v-90q-2 -57 -2 -108v-21q-2 -16 -2 -18q-2 -12 -2 -39q-8 -299 -27 -455q-14 -119 -30 -160q27 10 47 11q-98 0 -99 -131q0 -109 119 -109q102 8 193 12q45 0 94 -6q35 -6 86 -12l23 -2 q121 0 120 108q0 119 -73 131q4 0 6 3q-14 27 -27 86q-18 79 -24 278q0 72 -7 148q-2 35 -2 163q0 63 2 95v81q0 -53 -55 -53l330 -4q109 -2 237 -12q76 -6 95 -49q39 -100 123 -101h2q129 0 129 115v10q-2 6 -2 8q-16 98 -17 181q0 82 17 170q0 4 2 12v8q0 113 -121 113h-4 q-72 0 -101 -60l-2 -2l-6 -6q-63 -61 -141 -82q-85 -26 -233 -26h-11l-276 4q41 0 41 -49q8 119 14 176q4 39 12 98q2 20 2 21q4 23 19 43q4 -6 10 -7q59 -2 162 -6q90 -2 213 -16q102 -12 207 -41q82 -20 137 -60q69 -65 151 -65h2h17q55 0 84 33q20 14 25 29.5t5 41.5 q0 43 -32 76q-43 43 -88 98q-33 41 -99 115q-29 29 -86 47q-45 14 -78 15h-14q-20 0 -29 -2q-301 0 -428 -2q-131 -2 -438 -3q-94 0 -186 15q-66 0 -93.5 -24.5t-27.5 -88.5zM115 1673q0 29 32 29q94 -14 193 -14q307 0 438 2t441 2q4 2 16 2h14q18 0 56 -11q35 -8 49 -24 q45 -43 94 -109q43 -55 94 -106q8 -8 8 -19q0 -8 -4 -12q-8 -12 -28 -12h-17q-55 0 -98 45q-66 51 -170 78q-111 29 -219 41q-127 14 -219 16q-106 4 -164 6q-63 0 -86 -35q-20 -31 -27 -67q-8 -45 -18 -123q-6 -59 -15 -182q0 -35 41 -35l277 -4q162 0 266 28 q100 27 178 103q16 16 25 31q8 14 31 14h6q39 0 39 -31v-6q-2 -4 -2 -8q-16 -92 -17 -176q0 -84 17 -187l2 -6v-6q0 -33 -48 -33h-2q-31 0 -45 45q-33 96 -166 105q-133 10 -241 12l-332 4q-27 0 -27 -29v-79v-97q0 -82 1 -112.5t4 -59.5q6 -74 6 -141l-4 4q6 -209 24 -295 q18 -90 39 -115q23 -29 37 -34q16 -6 16 -52q0 -26 -30 -26h-2q-45 6 -105 12q-57 6 -106 6q-94 -2 -195 -12q-33 0 -33 27q0 49 15 49q12 0 30 41q18 43 37 178q16 125 27 465v37q0 25 2 39q0 51 2 110v92q0 207 -12 318q-18 154 -47 211q-27 55 -52 55q-23 0 -26 51z" />
<glyph unicode="G" horiz-adv-x="1964" d="M41 864q0 -385 281 -659q281 -270 675 -271q150 0 377 60q233 61 355 139q88 88 88 143l-11 25l-6 12q-4 12 -8 19q0 215 3 323.5t9 165.5q12 123 31 160q-12 -4 -25 -4q90 0 113 133q0 57 -55 94q-23 18 -76 19q-45 -2 -98 -6q-35 -2 -99 -3h-100q-49 0 -96 7 q-68 0 -97.5 -21.5t-29.5 -85.5q6 -115 80 -127q-2 0 -6 -4q18 -20 28 -72q19 -94 21 -342q-6 -78 -8.5 -144.5t-2.5 -129.5q0 -8 -32 -14q-76 -25 -113 -33q-45 -8 -127 -19q-207 0 -405 174q-190 164 -191 451v29q-2 25 -2 28q0 254 137 422q143 174 340 174q6 0 35 2h33 q135 0 244 -41q141 -51 286 -182q49 -82 125 -82h19q90 0 108 96q0 4 2 13v10q0 37 -14 68q-39 39 -57 69q-27 115 -101 193q-197 100 -356 121q-145 20 -318 20q-336 0 -643 -246q-313 -252 -313 -684zM119 860q0 391 282 619q283 227 592 227q158 0 305 -18 q143 -18 322 -109q49 -39 68 -98q18 -57 61 -129q6 -14 6 -31v-6q-2 -6 -2 -8q-4 -23 -24 -23h-19q-33 0 -55 49q-170 156 -326 211q-123 45 -272 45h-33q-29 -2 -35 -2q-236 0 -403 -205q-156 -190 -156 -473q0 -4 2 -28v-29q0 -168 54.5 -294t164.5 -218 q231 -195 463 -195q96 10 141 21q59 14 123 39q86 35 86 90q0 53 3 116.5t10 155.5l-2 -10q-2 225 -23 330q-18 98 -39 131q-20 33 -39 39q-16 6 -20 51q0 23 39 22q49 -6 100 -6h100q63 0 99 2q53 4 98 7q20 0 29 -7q16 -10 16 -20q-6 -57 -31 -57q-29 0 -47 -39 q-23 -41 -39 -191q-6 -61 -9 -174t-3 -338q10 -31 23 -53l2 -4q0 -23 -52 -55q-117 -74 -329 -129q-211 -55 -357 -56q-365 0 -618 248q-256 250 -256 602z" />
<glyph unicode="H" horiz-adv-x="1796" d="M41 47q0 -66 26.5 -87t92.5 -21q109 12 188 12q92 0 191 -12q66 0 92 24.5t26 83.5q0 135 -96 137q8 0 29 4q-16 39 -33 174q-12 104 -12 316q0 10 2 82v98v92q0 57 2 84q0 4 2 6q-4 -51 -47 -51q47 -2 104 -2q84 -2 103 -2q70 -2 211 -2q121 0 182 2q61 0 184 4 q-43 0 -47 62v-17q0 -119 -2 -184q-8 -348 -25 -496q-14 -137 -30 -184q27 10 49 10q-96 0 -96 -133q0 -108 116 -108h2q102 12 191 12q86 0 190 -12q66 0 92.5 24.5t26.5 83.5q0 135 -96 137q6 0 22 4h5q-16 41 -33 174q-12 111 -13 324q0 12 2 80v90q4 365 23 526 q14 131 33 183q-16 -8 -41 -9q53 0 75.5 33t22.5 105q0 59 -28.5 84.5t-92.5 25.5q-92 -14 -188 -14q-88 0 -189 14q-66 0 -93 -24.5t-27 -87.5q6 -113 80 -125q-2 0 -5 -2q10 -16 21 -74q6 -25 7 -71t1 -171q0 33 51 33q-41 2 -92 2t-92 2q-61 2 -186 2q-141 0 -211 -2 q-135 -4 -201 -6q47 0 47 -43q4 201 16 264q8 49 19 66q-8 -6 -19 -6q84 6 84 135q0 110 -118 110h-2q-92 -14 -189 -14q-98 0 -186 14q-66 0 -93.5 -24.5t-27.5 -87.5q6 -123 92 -133q-12 0 -24 -7q18 -49 30 -190q8 -127 8 -268q0 -39 -2 -107q-2 -96 -2 -139 q-8 -324 -26 -498q-16 -147 -29 -180q25 8 49 8q-96 0 -96 -133zM121 1696q0 28 31 28h2q92 -14 192 -14q102 0 197 14q33 0 32 -28q0 -53 -14 -56q-14 -2 -33 -24q-20 -23 -34 -98q-14 -76 -19 -281q0 -39 35 -39l20 -18q135 4 205 6t209 2q123 0 184 -2q123 -4 187 -6 q31 0 31 49q0 133 -1.5 182t-9.5 78q-14 78 -37 104q-20 27 -38 33q-16 6 -21 49q0 29 33 29q106 -14 196 -14q100 0 195 14q33 0 33 -29q0 -55 -17 -55q-18 0 -37 -43q-18 -45 -36 -203q-18 -166 -23 -536v-90q-2 -68 -2 -80q0 -221 12 -332q18 -152 39 -199q23 -49 41 -49 t19 -55q0 -27 -33 -27q-106 12 -197 12q-90 0 -194 -12q-33 0 -33 27q0 49 12 49q14 0 29 49q16 55 35 199q16 139 26 504q2 68 2 186v24q0 14 -34 15q-123 -4 -185 -4h-182q-141 0 -211 2l-209 6q-31 0 -35 -12q-2 -8 -2 -23q-2 -27 -2 -86v-92v-98q-2 -72 -2 -82 q0 -215 12 -324q14 -150 37 -199t41 -49t19 -55q0 -27 -33 -27q-100 12 -197 13q-82 0 -192 -13q-33 0 -33 27q0 51 12 51q14 0 29 49q16 49 31 199q16 152 24 504q0 43 2 139q2 70 2 109q0 143 -8 274q-12 156 -35 213t-43 59q-20 4 -24 56z" />
<glyph unicode="I" horiz-adv-x="698" d="M41 27q0 -66 26.5 -87.5t90.5 -21.5q102 8 192 12q90 0 189 -12q66 0 92 24.5t26 84.5q0 137 -100 137q20 0 31 2q-18 43 -31 172q-12 109 -12 317q0 10 2 84v99q4 362 22 524q14 131 33 182q-16 -8 -41 -8q96 0 96 139q0 111 -120 111q-92 -14 -189 -14q-96 0 -188 14 q-63 0 -91 -24.5t-28 -88.5q6 -123 92 -133q-12 0 -24 -6q18 -49 30 -191q8 -127 8 -268q0 -39 -2 -106q-2 -96 -2 -140q-8 -326 -26 -499q-16 -147 -29 -180q23 8 49 8q-96 0 -96 -131zM123 1675q0 29 31 29l10 2q94 -14 196 -14t197 14q33 0 33 -29q0 -57 -15 -57 q-16 0 -34 -43q-18 -45 -37 -203q-18 -166 -23 -534v-99q-2 -74 -2 -84q0 -217 13 -327q14 -150 36 -199q23 -49 41 -49t19 -55q0 -27 -33 -27q-100 12 -197 12q-94 -2 -194 -12q-31 0 -31 27q0 49 12 49t29 45q16 49 31 198q16 152 24 506q0 43 2 140q2 70 2 108 q0 143 -8 275q-12 156 -35 213t-43 59q-20 4 -24 55z" />
<glyph unicode="J" horiz-adv-x="1071" d="M41 -338q0 -59 45 -104q43 -35 104 -35q92 12 187 53q78 35 162 80q94 51 180 125q68 57 160 113q18 0 69 49q23 18 31 46.5t8 82.5q-18 47 -33 55v2q-6 63 -8 117q-8 66 -14 164q-10 203 -14 444q-8 127 -9 328q0 121 6 194q12 135 33 172h-22q57 0 80.5 34t23.5 106 q0 110 -119 110h-2q-92 -14 -188 -14q-97 0 -189 14q-70 0 -101.5 -24.5t-31.5 -90.5q16 -125 97 -131q-8 0 -19 -10q20 -55 33 -190q8 -66 8 -283v-100q-2 -68 -2 -127q-10 -338 -22 -471q-12 -150 -29 -232q-8 -49 -16 -69q-16 -25 -25 -58q-55 -84 -121 -125 q-76 -51 -145 -80q-49 -16 -74 -43q-43 -43 -43 -102zM121 -348q0 27 18 45q16 14 43 24q80 31 164 93q84 59 150 159q6 29 18 50q10 18 27 98q16 78 30 239q16 162 25 478q0 59 2 127v102q0 225 -8 293q-16 162 -39 213q-25 57 -45 59q-20 4 -25 56q0 28 42 28h3l-2 -10 q94 -14 195 -14q100 0 194 14q33 0 33 -29q0 -57 -22 -57q-25 0 -50 -43q-27 -49 -40 -203q-6 -76 -7 -203q0 -203 9 -331q0 -33 2 -64q8 -301 12 -381q6 -135 14 -174q10 -45 19 -61q10 -18 22 -105q0 -49 -16 -65q-20 -25 -31 -25q-106 -57 -194 -133q-86 -74 -166 -117 q-82 -43 -156 -73q-84 -35 -160 -48q-27 0 -43 15q-18 18 -18 43z" />
<glyph unicode="K" horiz-adv-x="1763" d="M41 25q0 -66 26.5 -87.5t92.5 -21.5q109 12 188 12q92 0 191 -12q43 0 59 6q78 25 78 101q-8 127 -103 127q8 0 21 -5q-10 16 -21 76q-16 88 -16 289q0 16 -12 18q6 8 37 37q8 6 16 15l16 16q37 35 54 55q31 31 67 62q12 12 56 41q0 -25 -19.5 -31t-52.5 -6h-25 q221 -301 295 -430q63 -96 64 -135q0 16 22 20q-102 -23 -102 -172q20 -57 106 -80q20 -4 64 -4q57 4 133 4h141q61 0 88 -2q47 0 90 2h39q61 53 62 113q0 25 -17 61q-70 94 -120 94q-2 0 -7 13l-2 4q-37 35 -143 176q-100 133 -324 500q-10 14 -30 47q-8 16 -27 47 q-2 2 -6 8q-12 16 -21 39q6 -8 7 -23q0 4 14 11q264 266 389 379q102 94 150 122q-6 10 -11 11l4 -2q29 0 136 67q23 16 28.5 33.5t5.5 42.5q0 43 -39 82q-53 37 -90 37q-37 -4 -110 -8q-37 -2 -103 -2q-74 0 -127 2q-90 4 -118 10q-68 0 -136 -62q-25 -55 -24 -80 q0 -49 29.5 -79.5t85.5 -30.5q-23 4 -23 18q0 -47 -106 -174q-125 -166 -494 -520q23 -8 33 -8l26 -14q16 -12 21 -35v39q-4 96 -4 254q0 174 10 282q16 141 35 176q-6 -2 -23 -2q49 0 76 31t37 98q0 102 -94 103q-12 2 -15 2q-23 2 -32 2q-100 -14 -189 -15q-98 0 -186 15 q-66 0 -93.5 -24.5t-27.5 -88.5q6 -123 94 -133q-12 0 -20 -8q18 -49 30 -191q8 -66 9 -278v-103q-2 -68 -2 -131q-8 -354 -29 -518q-14 -121 -31 -162q6 8 10 9q-14 -10 -37.5 -42t-23.5 -89zM123 27q0 20 5 32.5t9 16.5q14 0 33 45q18 49 37 198q20 162 29 506q0 63 2 131 v105q0 219 -9 287q-16 158 -36 213q-23 57 -43 59q-20 4 -25 55q0 29 33 29q92 -14 192 -14q90 0 197 14q6 0 28 -2l7 -2q18 0 18 -17q-6 -51 -31 -51q-29 0 -51 -41q-25 -45 -43 -207q-12 -100 -12 -290q0 -160 4 -256v-41q4 -14 12 -25l4 -2q12 0 43 31q381 367 504 528 q123 164 123 221t-55 64q-37 0 -37 28q0 10 10 31q29 29 59 29q43 -8 123 -12q53 -2 129 -2q66 0 105 2q74 4 112 8q12 0 33 -17q12 -8 13 -20q0 -8 -7 -12q-49 -49 -63 -50l-4 3q-10 0 -49 -23q-43 -25 -166 -133q-119 -104 -393 -381q-39 -39 -39 -68q0 -10 4 -14 q12 -33 24 -47l4 4q16 -20 31 -49q10 -18 31 -51q219 -358 325 -504q111 -147 154 -189q42 -36 61 -36h1q18 0 49 -52q6 -12 6 -22q0 -16 -15 -31h-28q-31 -2 -64 -2q-27 2 -88 2h-141q-76 0 -137 -4q-31 0 -45 4q-31 6 -39 21q0 66 39 73q39 8 39 56q0 49 -74 178 q-68 123 -299 438q-25 33 -41 33q-10 0 -10 -4q-12 -8 -27 -23q-43 -33 -76 -69q-33 -37 -67 -68q-31 -29 -58 -55q-10 -10 -10 -74q0 -219 19 -305q18 -88 38 -111q23 -25 41 -24q20 0 23 -47q0 -14 -19 -21q-8 -4 -30 -4q-100 12 -197 12q-82 0 -192 -12q-33 0 -33 27z " />
<glyph unicode="L" horiz-adv-x="1685" d="M41 31q0 -59 26.5 -84t94.5 -25q98 8 178 12q61 0 96 -2h19q281 -8 409 -8h422q100 6 162 103q8 12 25 41q6 10 10 16q16 29 33 51q18 29 38 47q43 39 66 74q16 14 20.5 33.5t4.5 52.5v16q-2 14 -3 17q-16 96 -116 96h-17q-115 0 -182 -104q-20 -27 -160 -86 q-150 -70 -315 -74h-107h-110q-18 0 -25 -6q-2 2 -2 8q-2 6 -2 8q-18 80 -24 205q-6 63 -7 248q0 10 3 80v92q4 371 24 524q18 139 39 176q-10 -2 -29 -2q57 0 79 33t22 106q0 59 -76 99q-45 12 -70 12q-57 -8 -114 -10h-19q-74 -4 -96 -4q-57 0 -76 2q-29 0 -76 6 q10 0 21 2q-139 0 -139 -113q8 -127 94 -133q-18 0 -29 -2q16 -41 29 -190q8 -127 8 -269q0 -39 -2 -106q-2 -96 -2 -139q-10 -367 -29 -498q-18 -141 -35 -178q25 4 39 4q-100 0 -100 -131zM115 31q0 49 18 49t37 45q23 49 43 199q23 152 31 505q0 43 2 140q2 70 2 108 q0 143 -8 275q-12 156 -31 211q-18 55 -37 57q-18 4 -22 55q0 29 22 29q4 -2 8 -2l-14 -2q49 -6 80 -6h80q27 0 96 4h22q59 2 117 10q16 0 35 -8q23 -10 22 -21q0 -57 -20 -57q-23 0 -45 -43q-27 -49 -47 -203q-20 -156 -25 -534v-92q-2 -70 -2 -80q0 -188 6 -254 q10 -156 27 -221q10 -41 27 -56q20 -16 82 -16h110h109q186 4 350 82q166 80 190 117q42 67 113 67h2h16q31 0 35 -22q0 -2 2 -13v-12q0 -27 -8 -35q-20 -31 -55 -63q-35 -33 -55 -64q-25 -37 -35 -55l-31 -55q-33 -57 -92 -62h-418q-205 0 -424 6q-37 2 -100 2 q-78 -2 -180 -12q-35 0 -35 27z" />
<glyph unicode="M" horiz-adv-x="2273" d="M41 1665q35 -106 102 -133q37 -16 88 -31q31 -6 58 -24q18 -16 30 -58q18 -57 19 -186q0 -184 -2 -322v-75q0 -197 -4 -315t-15 -187q-14 -123 -38 -168q12 -4 20 -4q-109 0 -109 -131q0 -57 29 -83t100 -26q61 4 111 4q43 2 113 2q41 0 47 -2t39 -6q12 0 26 -2 q68 0 94.5 25.5t26.5 83.5q0 133 -96 139q10 0 18 8q-25 49 -39 176q-14 129 -14 336q0 10 2 74v86v166q0 117 6 196q-6 -23 -30 -32q-12 0 -45 -2q-12 -2 -27 -3q25 -43 92 -161q27 -49 43 -76q37 -68 84 -150q47 -84 84 -151q25 -31 31 -37q70 -84 119 -145l28 -82 q41 -117 43 -129q63 -59 96 -60q29 0 49.5 16.5t49.5 55.5l69 133q145 283 199 387q176 344 266 516q-37 -22 -65 -22h-2l-11 6q-33 16 -32 55q-6 -92 -19 -209q-12 -125 -12 -282q0 -209 -3 -331t-9 -192q-12 -131 -29 -170q47 12 80 13q-12 2 -23 2l-6 2q-112 0 -112 -123 q1 -67 27 -89t91 -22q96 8 193 13q80 0 186 -13q68 0 94.5 24.5t26.5 84.5q0 133 -100 133q18 0 37 -6q-16 41 -33 176q-16 158 -17 508q0 203 6.5 328.5t16.5 195.5q18 129 43 166q-12 2 -35 2l8 -2q72 0 99.5 31.5t27.5 103.5q0 109 -108 109q-39 -4 -127 -8q-74 0 -109 6 q-25 6 -59 6q-61 0 -92 -31q-166 -248 -305 -518q-129 -252 -271 -498q33 29 58 29q20 0 53 -23q-150 213 -271 396q-137 295 -282 555q-14 49 -57 69q-6 10 -33 12.5t-123 2.5q-106 -4 -135 -9q-37 0 -90 5h-7q-43 6 -98 12l-16 2q-61 0 -90 -28.5t-29 -94.5zM123 1677 q0 29 33 29l-2 -6q49 -6 110 -12q49 -6 111 -7q33 4 133 7h89t24 -5q16 -10 22 -30q162 -254 287 -482q135 -246 276 -485q8 -8 13 -8q6 0 12 10q129 229 272 504q131 252 293 496q12 8 33 8q25 0 41 -4q20 -4 49 -6.5t80 -2.5q92 4 129 9q23 0 22 -27q0 -53 -26 -53l-8 2 q-25 0 -50 -37q-31 -43 -55 -197q-12 -72 -18 -199.5t-6 -336.5q0 -365 18 -516q18 -154 39 -197q18 -43 39 -43q18 0 18 -51q0 -27 -35 -27q-111 12 -192 13q-94 -2 -197 -13q-33 0 -32 27q0 43 12 43l4 -2q4 0 8 -2q12 0 31 35q20 47 35 196q6 70 9 194t3 337 q0 150 12 272q12 125 19 217q0 14 -15 21l-6 2q-10 0 -22 -19q-180 -348 -269 -522q-88 -174 -268 -522q-12 -27 -24 -27q-10 0 -27 21q-4 8 -62 110q-4 8 -10 19q-63 115 -147 264q-55 100 -170 301q-86 152 -135 239q-27 43 -41 43q-8 -12 -13 -43q-6 -82 -6 -202v-166 v-86q-2 -63 -2 -74q0 -213 14 -346q18 -147 48 -203q29 -51 49 -55q22 -4 22 -53q0 -31 -32 -31l-27 4q-29 4 -33 4q-8 2 -59 2h-115q-49 0 -111 -4q-43 0 -43 27q0 49 25 49q23 0 49 45q29 47 49 197q10 72 14.5 192.5t4.5 321.5v397q0 78 -6.5 128t-16.5 85 q-25 76 -63 100q-43 27 -80 35t-76 25q-35 14 -51 71z" />
<glyph unicode="N" horiz-adv-x="1955" d="M41 1683q35 -109 109 -135q47 -16 94 -28q41 -10 69 -27q20 -12 29 -53q12 -39 12 -109q0 -14 -2 -39q-2 -35 -2 -49q-4 -68 -7 -164t-3 -250q0 -193 -5 -312.5t-16 -186.5q-18 -125 -40 -168l4 -2q8 -2 12 -2q-111 0 -111 -129q0 -57 29 -83t100 -26q66 4 111 4 q43 2 113 2q49 0 61 -2q4 0 31 -4q27 -2 43 -4q66 0 92.5 26.5t26.5 86.5q-18 145 -117 145h10q-20 33 -33 152q-8 51 -8 219q0 123 6 291q0 39 2 96q2 78 2 115q6 160 13 237q-8 -20 -29 -31q-43 0 -74 -2q39 -72 176 -266q90 -129 271 -379q74 -100 149 -207 q104 -141 125 -170q29 -37 102 -137q41 -55 66 -88v-72q47 0 115 7q-8 0 -17 -2q-33 -2 -49 -3q2 -4 4 -4q10 -16 13 -16q25 -18 86 -18q12 0 38 6q8 0 13 2q49 14 78.5 38.5t38.5 37.5q-10 82 -11 206q0 152 2 234q0 55 2 123v112q2 49 2 90q2 70 2 91q2 371 27 538 q18 139 37 178q-8 -2 -25 -2q49 0 78 34t29 102q0 59 -28.5 84.5t-90.5 25.5q-59 -6 -96 -12q-31 -6 -70 -6q-98 0 -190 14q-61 0 -90 -23.5t-29 -87.5q0 -131 111 -131q-8 0 -17 -8q25 -47 39 -182q14 -121 14 -301q0 -37 -2 -101q-2 -86 -2 -122v-86q-2 -63 -2 -72 q0 -72 -6 -133q0 10 23.5 15t58.5 5q6 -2 16.5 -7t18.5 -13q-20 18 -43 49q-66 98 -195 283q-47 68 -108 151q-61 84 -109 152q-27 37 -92 129q-82 115 -115 159q-100 141 -151 222q-14 49 -60 73q-18 12 -147 19q-18 0 -49 2h-33q-14 0 -33 -2h-18q-53 0 -125 8 q-25 2 -62 6q-43 4 -73 8q-66 0 -92.5 -23.5t-26.5 -97.5zM125 1690q0 26 31 26h2q16 -2 67 -6q18 -2 66 -8q74 -8 133 -8h18q18 2 33 2h33q29 -2 47 -2q92 -2 111 -11q16 -10 22 -30q55 -90 160 -236q33 -45 115 -160q66 -92 92 -129q72 -100 215 -305q121 -172 194 -280 q27 -39 49 -60q4 -4 11 -6q18 0 18 60q4 82 4 133q0 100 2 157q0 37 2 123q2 66 2 103q0 182 -14 311q-20 158 -49 211q-27 49 -55 49q-29 0 -29 49q0 29 31 29q94 -14 196 -14q47 0 84 6t86 12q33 0 33 -29q0 -53 -27 -53q-25 0 -45 -41q-27 -49 -47 -203 q-20 -156 -24 -546q-2 -66 -6 -183q-2 -76 -3 -235v-234q0 -109 7 -174q-4 -4 -16.5 -12t-35.5 -14q-18 -6 -30 -7q-31 0 -43 19q-4 0 -19 20h-6h-6v17v-4q-25 33 -45 61q-74 98 -137 184l-15 19q-174 238 -260 356q-113 156 -270 379q-125 178 -172 258q-23 43 -39 43 q-8 -12 -12 -43q-6 -82 -13 -246q0 -37 -2 -114q-2 -57 -2 -97q-6 -168 -6 -292q0 -178 8 -232q18 -143 47 -186q25 -37 58 -37q31 0 37 -66q0 -27 -33 -26q-25 2 -45 4q-18 2 -27 4q-14 2 -67 2h-113q-47 0 -113 -4q-43 0 -43 26q0 47 27 48q27 0 53 43q27 43 51 196 q12 72 17.5 194t5.5 320q0 152 3 248t7 164q0 14 2 49q2 25 2 41q0 80 -16 133q-25 76 -68 100q-47 27 -88 35q-45 10 -86 25q-39 16 -55 74z" />
<glyph unicode="O" horiz-adv-x="1996" d="M41 854q0 -385 281 -659q281 -270 675 -271q397 0 676 271q283 274 283 659q0 195 -88 365q-86 168 -221 292q-135 125 -308 199q-172 74 -342 74q-172 0 -344 -74q-172 -76 -305 -199q-133 -125 -221 -292q-86 -172 -86 -365zM121 852q0 172 78 328q78 154 202 270 q127 117 283 184q157 68 313 68q154 0 310 -68q158 -68 282 -184q125 -115 205 -270q80 -154 80 -328q0 -352 -258 -602q-256 -248 -621 -248t-618 248q-256 250 -256 602zM434 844q0 -301 166 -516t399 -215t394 192q162 195 170 537q0 184 -39 314t-121 224 q-172 195 -406 195h2q-233 0 -399 -215t-166 -516zM514 844q0 330 150 565q138 84 333 84q201 0 344 -166q72 -82 106 -198.5t34 -282.5q-8 -309 -152 -486q-134 -163 -330 -163h-2q-195 0 -333 182q-150 193 -150 465z" />
<glyph unicode="P" horiz-adv-x="1679" d="M41 29q0 -66 26.5 -87.5t90.5 -21.5q102 8 192 12q90 0 189 -12q66 0 92 24.5t26 84.5q0 90 -36 108q-6 4 -21 19q-6 6 -12 22q-14 27 -23 96v11q-2 6 -2 8q0 -18 -20 -25l8 2q57 16 94 25q451 102 713 315q281 233 280 486q0 289 -155 434q-145 143 -355 201 q-193 55 -417 55q-207 0 -365 -12q-98 0 -186 14q-63 0 -91 -24.5t-28 -88.5q6 -123 92 -133q-12 0 -24 -6q18 -49 30 -190q8 -127 8 -269q0 -39 -2 -108q-2 -96 -2 -140q-2 -354 -18 -501q-12 -139 -27 -178q25 10 43 10q-100 0 -100 -131zM123 1677q0 29 31 29h-2 q94 -14 196 -14q174 10 365 10q213 0 397 -49q188 -53 320 -180q131 -127 131 -377q0 -219 -252 -422q-254 -205 -678 -299q-66 -16 -109 -31q-37 -12 -37 -53q0 -2 2 -12v-13q14 -90 31 -125q16 -33 29 -47l12 -12q8 -6 10 -8q10 -10 11 -49q0 -27 -33 -27q-100 12 -197 12 q-94 -2 -194 -12q-31 0 -31 27q0 49 18 49q16 0 35 45q16 45 33 198q16 152 18 510q0 43 2 140q2 70 2 108q0 143 -8 275q-12 156 -35 213t-43 59q-20 4 -24 55zM469 666q2 -57 10 -142q4 -27 17 -47q6 -12 24 -12t31 6q254 82 481 258t228 350q0 188 -119 334 q-119 147 -541 172l-4 2q-53 0 -66 -14q-14 -18 -18 -41q-8 -70 -25 -227q-14 -156 -18 -467v-172zM520 551q33 0 45 -29q-4 8 -4 15q-4 41 -8 131q0 82 -2 143v27q4 303 18 456q10 104 27 224h2v-15q375 -20 479 -141q100 -121 101 -281q0 -143 -195 -284 q-219 -166 -463 -246z" />
<glyph unicode="Q" horiz-adv-x="2062" d="M41 846q0 -229 100 -424q96 -190 271 -322q49 -39 118 -80q68 -43 168 -90q-37 0 -46 19.5t-9 52.5q0 10 8 35q-4 -8 -24 -35q-25 -31 -47 -57q-20 -20 -43 -45t-41 -41q-53 -76 -54 -101q0 -31 14.5 -49t22.5 -24q-14 6 -16 32q0 -90 106 -90q6 0 27 2q31 2 41 2 q37 49 135 50q129 -4 240 -23q115 -18 250 -47q109 -23 155 -23q8 0 17 2h12q14 2 106 50q29 16 80 49q33 20 54 32q82 49 126 80q88 74 140.5 123t68.5 68q-49 0 -120 -39q0 119 -162 119q-115 -90 -336 -103q-154 0 -269.5 10t-226.5 35q23 -12 25 -32q2 -2 2 -7 q0 -55 -39 -55q2 0 8 -2h8q29 -2 86 -2q397 0 676 270q283 274 283 660q0 195 -88 364q-86 168 -221 293t-308 199q-172 74 -342 74q-172 0 -344 -74q-172 -76 -305 -199q-133 -125 -221 -293q-86 -172 -86 -364zM123 848q0 172 78 328q78 154 202 270q127 117 283 184 q158 68 313 68q154 0 310 -68q158 -68 282 -184q125 -115 205 -270q80 -154 80 -328q0 -352 -258 -602q-256 -248 -621 -248q-55 0 -84 2q-2 0 -8 2h-10q-43 0 -43 -27q0 -12 4 -24q4 -10 35 -17l-4 9q117 -25 234.5 -35t279.5 -10q236 12 360 100q51 0 51 -39q4 -41 7 -41 q-16 -14 -54 -39q-66 -45 -125 -80q-35 -20 -92 -55q-20 -12 -41 -25q-55 -35 -71 -38h-9l-12 -3q-37 0 -139 21q-135 29 -250 47q-131 20 -252 25q-123 0 -170 -50q-4 0 -20 -2q-8 -2 -13 -2q-25 0 -24 15q-4 23 -15 28q-4 2 -4 7q0 12 31 43l43 43q23 25 41 45 q29 31 51 61q6 6 11 12q10 16 12 19q10 10 10 18q0 10 -8 10q-74 35 -146 78q-68 41 -110 74q-154 113 -248 293q-92 178 -92 385zM434 836q0 -301 166 -517q166 -215 399 -215t394 193q162 195 170 537q0 184 -39 314t-121 224q-172 195 -406 195h2q-233 0 -399 -215 t-166 -516zM514 836q0 330 150 565q138 84 333 84q201 0 344 -166q72 -82 106 -198.5t34 -282.5q-8 -309 -152 -486q-135 -164 -332 -164q-195 0 -333 183q-150 193 -150 465z" />
<glyph unicode="R" horiz-adv-x="1703" d="M41 37q0 -66 26.5 -87.5t90.5 -21.5q102 8 192 13q90 0 189 -13q66 0 92 24.5t26 84.5q0 90 -36 108q-6 4 -21 19q-6 6 -12 22q-14 27 -23 97q0 4 -2 10v8q0 -18 -20 -25l24 7q53 14 78 20q35 6 60 14l55 13q47 12 74 12q12 0 32 -55q86 -113 115 -162h8q6 18 23 33 q-66 -20 -66 -109v-18q2 -18 2 -31q23 -63 133 -72h66q98 12 176 13h6q72 -8 105 -9q55 0 116 11q55 0 76 14t21 76q0 14 -17 57l-2 4q-76 86 -115 88q-4 0 -22 15q-31 20 -96 88q-72 77 -213 274q6 -14 6 -29q0 -18 -12 -34q51 31 100 63q166 113 272 246q115 150 115 299 q0 287 -160 434q-150 143 -362 201q-199 55 -426 55q-211 0 -369 -12q-98 0 -186 14q-63 0 -91 -24.5t-28 -88.5q6 -123 92 -133q-12 0 -24 -6q18 -49 30 -190q8 -127 8 -269q0 -39 -2 -108q-2 -96 -2 -139q-2 -354 -18 -502q-12 -139 -27 -178q25 10 43 10 q-100 0 -100 -131zM117 1683q0 29 30 29q94 -14 197 -14q174 10 369 10q215 0 405 -49q195 -51 328 -180q135 -129 135 -377q0 -125 -98 -248q-100 -125 -254 -227l-58 -37q-29 -18 -38 -25q-27 -16 -27 -35q0 -12 12 -24l-2 -8q147 -205 217 -277q74 -76 113 -100 q39 -23 57 -27q16 -2 51 -49q0 -2 5 -6q4 -8 4 -12q0 -8 -23 -9q-57 -10 -108 -10q-33 0 -107 8q-82 0 -184 -12h-60q-47 4 -55 14q0 6 -2 17v8q0 27 14 33q20 8 27 24q0 29 -16 60q-23 41 -121 172q-63 84 -97 88q-41 0 -96 -14l-55 -13l-55 -12q-66 -16 -109 -31 q-37 -12 -37 -53v-10q2 -10 2 -15q14 -90 31 -125q16 -33 29 -47l12 -12q8 -6 10 -8q10 -10 10 -49q0 -27 -32 -27q-100 12 -197 12q-94 -2 -194 -12q-31 0 -31 27q0 49 18 49q16 0 35 45q16 45 33 199q16 152 18 510q0 43 2 139q2 70 2 108q0 143 -8 275q-12 156 -35 213 t-43 59q-20 4 -24 55zM469 674q2 -57 10 -142q2 -25 17 -45q6 -10 26 -10q16 0 29 4q254 82 481 258t228 351q0 98 -15 178q-14 86 -80 153q-63 66 -196 113q-129 45 -369 57l-4 4q-53 0 -66 -14q-14 -18 -18 -41q-8 -70 -25 -227q-14 -156 -18 -467v-172zM522 559 q37 0 45 -31q-4 8 -6 15q-4 41 -8 131q0 82 -2 143v27q4 303 18 456q10 104 27 224h2v-15q227 -12 344 -53q109 -35 164 -92q49 -49 59 -113q12 -80 13 -164q0 -143 -195 -284q-217 -168 -457 -244h-4z" />
<glyph unicode="S" horiz-adv-x="1656" d="M41 334q0 -135 86 -160q115 -102 311 -180q201 -80 443 -80q270 0 501 180q233 184 234 496q-6 221 -111 346q-92 119 -241 194q-135 68 -295 111q-162 45 -277 90q-53 23 -125 66q-33 12 -32 28q0 29 34 48q55 32 139 32h5q10 4 30 4q90 0 215 -79q154 -89 191 -189 q43 -115 151 -115q57 0 99 45q31 41 31 78q0 6 -3 19q-2 10 -2 16q-18 41 -51 131q-25 66 -35 117q-33 125 -145 125q-4 0 -10 2q-6 0 -10 2t-9 2q-203 115 -499 135v-10q-186 -2 -308 -82q-182 -90 -198 -354q0 -137 104 -240q88 -84 211 -149q117 -63 266 -105 q100 -27 256 -82q72 0 162 -4q59 -115 60 -268q0 -115 -111 -199q0 -59 2 -88l27 27q-162 -18 -242 -27q-129 0 -223 32t-166 97q-147 133 -176 254q-6 156 -137 156q-137 0 -138 -170q0 -57 -6 -117q-8 -59 -8 -135zM133 342q0 61 6 125q6 66 6 129q0 88 56 88q53 0 55 -84 q31 -145 203 -305q82 -78 188.5 -115t255.5 -37q6 0 19 2l-4 -2q113 0 247 105q141 111 142 264q0 123 -80 215t-195 135q-135 49 -264 84q-133 37 -252 96q-111 57 -192 136q-80 78 -80 178q12 213 153 282q141 72 353 74v2q233 -20 393 -129q12 0 20 -2t29 -6q53 0 68 -64 q16 -61 36 -122q18 -53 47 -121q0 -2 3 -8q2 -6 2 -11q0 -10 -11 -24q-14 -18 -37 -19q-51 0 -73 60l10 6q-45 123 -227 233q-147 92 -256 92q-29 0 -43 -4q-98 0 -174 -47q-74 -45 -74 -116q0 -51 72 -99q72 -47 137 -73q137 -53 284 -93q154 -41 281 -104 q129 -63 215 -172q86 -106 92 -295q0 -270 -203 -430q-211 -162 -450 -162q-223 0 -412 74q-184 74 -301 176q-45 14 -45 88z" />
<glyph unicode="T" horiz-adv-x="1835" d="M41 1391q0 -23 16 -64q37 -72 117 -72h2q123 0 178 107q35 55 152 96q133 51 219 64q6 0 12 2h6q-33 0 -49 10t-16 53q2 -6 8 -43q10 -61 16 -239q0 -201 -2 -373q-2 -59 -2 -90q-12 -356 -32 -496q-18 -135 -37 -178q25 4 37 4q-98 0 -99 -133q0 -66 27 -87.5t92 -21.5 q2 0 37 2q51 4 74 7h6q74 4 100 4q94 0 205 -13q66 0 92.5 25t26.5 84q0 135 -97 137q6 0 23 4h4q-20 43 -37 176q-18 147 -18 494q0 309 8 457q10 174 20 241q6 20 11 25q0 -33 -15.5 -41t-52.5 -8h8q8 -2 13 -2q80 -8 215 -56q115 -35 157 -98q57 -113 185 -113 q66 0 110 52q33 39 33 82q0 23 -14 57l-4 8q-39 59 -109 141q-49 57 -72 117q-33 100 -165 100q-240 -10 -490 -18q-59 -4 -188 -4q-175 0 -365 12q41 0 53 -22q-28 24 -59 24h-2h-57q-70 0 -129 -123q-10 -33 -52 -98q-35 -49 -80 -125q-14 -16 -17 -30.5t-3 -36.5z M125 1391q0 14 6 22q31 51 80 125q45 68 61 115q23 67 49 67h1h59h2h2l4 -10q190 -12 367 -12q131 0 192 4q262 10 486 18q70 0 88 -47q25 -63 84 -139q53 -68 98 -133l2 -4q6 -12 6 -19q0 -14 -12 -26q-20 -25 -49 -25q-78 0 -111 70q-55 88 -203 137q-152 51 -235 59 q-6 0 -15 2h-10q-14 0 -14 -4q-4 -8 -10 -43q-10 -72 -21 -250q-8 -147 -8 -458q0 -352 18 -504q18 -150 43 -199t43 -49t19 -55q0 -27 -33 -27q-113 12 -209 12q-31 0 -98 -4h-12q-66 -4 -109 -6q-33 0 -33 27q0 49 17 49q18 0 37 49q23 49 43 199q23 160 34 506q0 31 2 90 q2 174 2 377q-6 182 -14 251q-4 29 -10 46q0 4 -16 4h-9q-10 -2 -16 -2q-96 -12 -244 -68q-147 -55 -194 -133q-33 -63 -107 -64h-2q-27 0 -43 25q-8 16 -8 27z" />
<glyph unicode="U" horiz-adv-x="1777" d="M41 1688q16 -129 96 -136q-10 0 -26 -4q16 -41 28 -190q8 -127 8 -268q0 -39 -2 -107q-2 -96 -2 -139q-2 -92 -6 -166t-8 -201q0 -25 0 -24h4v47v-35q6 -330 125 -436q111 -111 305 -111q162 6 359 80q174 66 348 106q-39 4 -74 5v73q16 -18 31 -18q-59 0 -84 -33 t-25 -102q0 -61 28 -85t91 -24q109 12 190 12q84 0 191 -12q119 0 119 109q0 137 -101 137q20 0 31 2q-18 43 -31 172q-6 61 -9 172t-3 328q4 362 23 524q14 131 32 182q-16 -8 -41 -8q53 0 76 34t23 105q0 55 -29 83t-94 28q2 -2 4 -2q-100 -12 -191 -12q-88 0 -190 12 q-2 0 -6 2h-8q-55 0 -80 -28.5t-25 -84.5q8 -123 92 -133q-10 0 -22 -6q16 -53 29 -193q8 -59 8 -247q0 -43 -2 -117q-2 -102 -2 -150v-79q-2 -84 -2 -172q2 -72 2 -185q-1 -6 -56 -12q-141 -45 -243 -70q-131 -31 -211 -32q-98 0 -133 18q-23 41 -27 332h-6v55q0 104 2 166 q2 356 26 522q18 133 37 174q-12 -6 -28 -6q100 0 100 137q0 43 -59 97q-43 24 -81 24h-3q-98 -12 -191 -12q-80 0 -190 12q-63 0 -90 -26.5t-27 -83.5zM115 1692q0 26 28 26h2q115 -12 197 -12q96 0 197 12q16 0 34 -12q23 -16 23 -27q0 -55 -18 -55q-23 0 -41 -39 q-27 -49 -48 -199q-20 -154 -24 -532q-2 -61 -2 -168q0 -96 2 -137h6q4 -276 59 -318q25 -18 67 -26t118 -8q94 2 227 34q115 27 248 72l-2 -4q113 33 112 90q0 113 -2 184q0 86 2 170v80q0 47 3 150q2 74 2 117q0 195 -9 256q-16 158 -36 213q-23 57 -43 59q-20 4 -25 55 q0 29 22 29h7l4 -2q104 -12 194 -12t195 12q4 0 10 2q23 0 23 -29q0 -57 -17 -57q-18 0 -37 -43q-18 -45 -37 -203q-18 -166 -22 -534q0 -221 3 -334t9 -174q14 -150 37 -199t41 -49t18 -55q0 -27 -32 -27q-106 12 -195 12q-86 0 -194 -12q-33 0 -33 27q0 51 26 51 q29 0 50 78q4 14 4 30q-14 0 -31 -4q-168 -39 -356 -108q-180 -68 -332 -74q-156 0 -246 86q-94 96 -98 377v35v34h-2q4 66 6 142q4 82 6 168q0 43 2 139q2 70 2 108q0 145 -8 277q-12 156 -35 215q-20 55 -39 57q-18 4 -22 56z" />
<glyph unicode="V" horiz-adv-x="1843" d="M41 1698q0 -29 12 -53q59 -96 117 -97q-2 0 -6 -12l-2 -4q39 -51 110 -205q72 -150 217 -551q35 -92 84 -233q45 -125 48 -129q66 -178 122 -357q43 -153 164 -153h2q94 0 164 141q8 18 23 57q16 43 43 113q25 66 43 117q10 25 16 37q35 102 78 200q43 94 100 256 q135 420 199 580q59 84 92 113q-6 14 -10 14q45 0 123 96q14 16 18 31.5t4 34.5q0 55 -27.5 74.5t-88.5 19.5l-11 -2q-53 -6 -80 -6q-29 -2 -90 -2h-112q-63 0 -103 8q-133 0 -133 -92q-4 -14 -4 -41q0 -109 109 -109q-20 0 -27 2v-14q0 -41 -21 -148q-33 -164 -167 -518 q-18 -45 -50 -131q-16 -43 -18 -51q-33 -96 -55 -152h6q41 4 59 5q4 0 12 2l7 2l-2 6q-29 74 -50 131q-10 25 -34 96q-4 12 -29 78q-158 375 -201 541q-26 109 -26 148q0 9 2 18q2 4 2 6q-8 -31 -35 -31q53 0 78.5 24.5t25.5 81.5q0 20 -10 58q-14 49 -42 68.5t-85 19.5 q-45 -6 -125 -6q-55 -2 -129 -2q-86 0 -196 12q-63 0 -87 -14.5t-24 -77.5zM125 1702q0 10 25 10q115 -12 202 -12h129q84 0 129 6q35 0 43 -29q6 -20 6 -35q0 -25 -22 -24q-35 0 -47 -41q0 -2 -2 -12q-2 -12 -2 -21q0 -55 30 -172q41 -160 203 -551q16 -45 41 -110 q23 -59 23 -62l30 -86q6 -18 21 -55q23 -47 33 -55q16 0 34 49q25 66 56 153q20 59 65 179q141 373 172 530q20 117 21 162q0 35 -6 47q-14 49 -52 49q-25 0 -24 27q0 14 4 22q0 29 43 29q41 -8 111 -8h112h90q39 0 97 10q28 0 28 -11t-6 -18q-37 -63 -57 -63q-18 0 -53 -45 q-37 -49 -103 -197q-74 -166 -201 -518q-53 -150 -98 -250q-47 -106 -74 -186l-2 2q-4 -4 -22 -56q-20 -61 -43 -114q-27 -70 -43 -113q-12 -35 -19 -51q-39 -94 -92 -94q-66 0 -86 94q-57 182 -123 362q-86 242 -129 365q-145 395 -221 557q-78 168 -117 219q-37 49 -59 49 q-18 0 -41 49q-4 8 -4 19z" />
<glyph unicode="W" horiz-adv-x="2367" d="M41 1708q0 -6 2 -14q2 -12 2 -21q98 -139 148 -139h-23q27 -41 80 -186q49 -123 194 -566q76 -205 127 -360q70 -211 115 -356q43 -154 178 -154q123 0 209 215h-41q35 156 90 377q59 236 111 487q-2 -12 -14 -20q-16 -18 -17 -19q-47 0 -94 29q66 -221 129 -465 q86 -315 131 -473q51 -127 172 -127q102 2 164 152q10 35 27 90q14 49 20 69q16 66 31 109q8 31 12 47l4 12q16 47 55 166q4 12 5 14q25 78 88 252q137 381 192 519q53 137 82 186l-6 2q-18 2 -25 2q35 0 121 102q16 23 17 60q0 55 -26 74.5t-91 19.5h-6q-53 -8 -82 -8 q-29 -2 -90 -2q-92 0 -172 12q-66 0 -93.5 -22.5t-37.5 -79.5q0 -8 -3 -17v-12q0 -113 107 -113q-12 0 -25 -4v-16q0 -43 -20 -152q-29 -147 -168 -520q-27 -63 -53 -153q-20 -78 -37 -125q38 26 75 26h3l24 -10q14 -10 17 -21q-59 211 -144 525q-68 252 -129 524 q-16 63 -43 109q-48 75 -125 75h-2q-82 0 -131 -79q-29 -49 -39 -121q-23 -178 -96 -486q-74 -303 -123 -504q23 20 57 21q25 0 54 -16q-18 55 -29 96q-14 53 -49 135q-145 391 -178 549q-25 104 -25 158q0 8 2 18q2 6 2 8q-10 -23 -37 -22q49 0 74 23.5t25 78.5q0 20 -6 51 q0 35 -33 58.5t-76 23.5l-27 -12h4q-25 -2 -114 -2h-131q-41 0 -76 6t-100 12q-113 0 -113 -96zM125 1708q0 14 27 14q53 -6 92 -12q41 -6 88 -6h131q59 0 83.5 1t45.5 3q12 4 18 8l6 2q8 0 9 -10q6 -25 6 -41q0 -20 -19 -20q-31 0 -43 -50q0 -4 -2 -12q-2 -14 -2 -24 q0 -59 25 -177q37 -162 184 -559q27 -68 45 -129q10 -35 31 -100q12 -39 24 -39q14 0 23 43l-4 -2l74 301q23 94 49 201q72 293 100 493q6 49 29 93q20 38 57 38h2q35 0 56 -36q23 -39 34 -86q59 -264 129 -529q84 -313 144 -524q4 -14 14 -27l4 -4q10 0 19 31q18 59 36 129 q18 72 50 147q139 373 172 535q22 108 22 163q0 40 -6 52q-16 53 -49 53q-25 0 -25 33v8q2 8 2 12q6 29 43 29q84 -12 179 -12h90q37 0 92 10q28 0 28 -11q0 -12 -4 -18q-37 -63 -51 -63q-12 0 -39 -45q-25 -41 -88 -197q-74 -178 -194 -518q-49 -139 -86 -256 q-35 -117 -62 -188q0 -6 -14 -52q-14 -43 -31 -108q-18 -74 -43 -158q-33 -90 -88 -94q-63 0 -92 72l-129 467q-86 311 -131 467q-10 29 -19 28l-4 -4q-10 -12 -12 -26q-43 -213 -109 -480q-57 -240 -110 -479h4q-27 -51 -68 -51q-76 0 -100 94q-39 121 -117 358 q-68 205 -125 363q-133 401 -196 567q-63 164 -88 203q-25 37 -47 37q-23 0 -66 78q0 2 -2 8q-2 4 -2 6z" />
<glyph unicode="X" horiz-adv-x="1882" d="M41 4q0 -61 23.5 -75.5t85.5 -14.5q20 2 61 4q16 2 33 4q45 4 80 4q45 0 125 -6q43 -4 49 -6q57 -4 82 -8q82 0 125 61q33 53 32 86q0 51 -26.5 74t-75.5 23q10 0 12 -3q6 -6 6 -18q0 31 35 102q53 117 266 402q-10 -8 -28 -8q-14 0 -31 10q193 -283 238 -397 q29 -70 28 -105q0 4 2 4q6 10 19 10q-102 0 -103 -98q0 -23 25 -76q38 -67 126 -67h3q23 4 123 12q14 0 28 2q104 6 150 6q92 0 199 -12q55 0 81.5 19.5t26.5 72.5q0 -14 -20 -29q-51 143 -90 187q-23 14 -62 59q-59 61 -160 199q-119 160 -313 465q-16 23 -16 39t12 28 q197 274 315 420q100 119 133 148q25 12 35 12q10 8 35 30.5t53 65.5l2 4q16 43 17 56q0 53 -26.5 72.5t-84.5 19.5q-98 -14 -196 -15q-45 0 -117 7q-72 6 -121 12q-43 0 -71.5 -38t-53.5 -118q-27 6 -27 12q0 -37 20.5 -63.5t63.5 -36.5q10 -2 13 -12q-8 2 -8 8 q0 -27 -15 -63q-31 -86 -186 -285q16 -14 26 -14v4q-2 8 -2 14q-150 207 -184 299q-20 47 -20 74q0 -6 -5 -15q-8 -4 -20 -4q45 0 70.5 28t25.5 69q0 -6 -26 -15q-47 156 -127 156q-35 -8 -125 -14l-35 -3q-68 -2 -90 -2q-100 0 -199 15q-80 0 -108 -92q0 -43 4 -61.5 t18 -31.5q81 -77 118 -77h1q0 -4 -2 -17q39 -35 129 -164q104 -145 299 -448l2 -2q2 -4 2 -8q0 -2 -6 -7q-242 -338 -363 -485q-106 -135 -166 -194q-29 -35 -34 -37q-29 -8 -97 -95l-2 -4q-16 -43 -16 -55zM129 23q4 4 4 6q33 51 49 57t68 57q47 47 172 201 q121 147 362 485q25 29 25 58t-18 55q-215 330 -302 453q-94 135 -137 174q-41 39 -57 39t-53 45q-4 6 -4 33q6 20 20 20q100 -14 203 -14q47 0 129 6q92 6 129 14q33 0 51 -29q12 -18 12 -30q0 -16 -18 -17q-31 -4 -47 -37q-6 -8 -6 -26q0 -35 24 -103q35 -94 197 -319 q35 -45 49 -55q23 0 57 47q164 213 199 307q18 55 18 88q0 29 -8 39q-20 33 -59 43q-20 6 -21 22q0 14 13 33q18 29 51 29l8 6q45 -6 121 -12q74 -6 123 -6q102 0 203 14q23 0 22 -10q0 -4 -4 -13q-4 -4 -4 -6q-16 -23 -30.5 -37t-20.5 -18q-18 0 -54 -35q-37 -31 -143 -157 q-100 -119 -319 -424q-27 -39 -27 -76q0 -41 31 -84q207 -326 315 -469q115 -152 166 -207q55 -57 80 -74q27 -16 61 -69q6 -8 6 -17q0 -10 -22 -10q-106 12 -203 12q-45 0 -154 -6t-151 -12q-37 0 -51 26q-14 25 -15 35q0 14 21 15q37 0 55 41q6 12 6 28q0 45 -34 133 q-45 121 -246 414q-18 27 -37 27q-20 0 -39 -27q-223 -297 -274 -416q-41 -94 -41 -135q0 -16 4 -24q18 -37 57 -37q20 0 21 -15q0 -14 -19 -39q-17 -26 -49 -26h-2q-47 6 -131 12q-86 6 -133 6q-35 0 -88 -4q-39 -2 -93 -6q-22 0 -22 7q0 5 4 14z" />
<glyph unicode="Y" horiz-adv-x="1878" d="M41 1679l10 -24q43 -80 84 -109q23 -16 64 -69q51 -63 133 -207q86 -147 233 -461q16 -33 35 -72q70 -150 94 -202q8 -16 8 -31q0 10 7 16q-10 -25 -25 -47q-98 -162 -141 -219q-35 -47 -58 -68q0 -2 2 -4q-33 -4 -96 -67q-16 -14 -20 -27.5t-4 -42.5q0 12 12 23 q18 -74 37.5 -104t60.5 -30q23 2 53 5q29 2 52 4h6q61 4 88 4q49 0 100 -8q8 -2 74 -11l43 -6q86 0 125 66q23 31 22 80q0 53 -23.5 78.5t-76.5 25.5q10 0 18 4q2 0 3 2q0 51 36 152q51 147 258 499q217 367 324 527q98 147 137 192l-2 4q-4 12 -6 13q29 0 113 96 q16 25 16 57q0 94 -108 94q-57 -2 -109 -12q-39 -8 -86 -8q-43 0 -109 6q-41 6 -106 10h-14q-96 0 -125 -73q-14 -27 -15 -64q0 -51 26 -80.5t79 -29.5q-14 0 -21 10v-6q2 -6 2 -11q0 -59 -41 -161q-53 -147 -272 -508q12 -18 18 -19q18 0 27 -2q-2 2 -6 10q-2 4 -4 11l-4 8 q-209 383 -267 530q-47 109 -47 168q-2 -31 -34 -30q110 0 110 110q0 8 -2 21q-2 14 -2 22q-23 94 -137 94q-45 -6 -123 -12q-16 0 -31 -2q-66 -2 -92 -2q-57 0 -80 2q-39 4 -90 12q-41 0 -84 -24q-49 -51 -49 -103zM121 1690q0 8 12 14q16 12 31 12q53 -10 88 -12 q25 -2 86 -2q49 0 129 6q78 6 125 12q41 0 49 -26q0 -4 2 -15q2 -8 2 -12q0 -31 -31 -31q-41 0 -47 -45q0 -72 54 -202q61 -156 270 -535q2 -6 10 -18l12 -19q23 -35 43 -35t56 60q219 358 278 522q45 127 45 190v15q-2 10 -2 12q-14 59 -57 61q-29 0 -29 29q0 16 6 29 q12 26 47 26h3l8 -14q10 0 57 -4q10 -2 55 -6q72 -6 117 -6q55 0 98 8q49 10 101 12q22 0 22 -11q0 -9 -4 -15q-33 -57 -45 -58q-14 0 -51 -43q-45 -47 -145 -200q-106 -162 -326 -531q-209 -352 -266 -514q-43 -123 -43 -180q0 -23 4 -31q16 -55 55 -59q23 0 23 -23 t-11 -37q-14 -26 -47 -26h-2l-37 4q-41 6 -73 10q-72 10 -111 10q-29 0 -94 -4h-6l-105 -6q-14 0 -20 14q-4 6 -4 15q0 10 4 14q31 41 45 43q12 2 39 23q25 18 71 84q53 74 146 227q6 12 18 37l8 16q4 6 4 19q0 31 -16 65q-49 109 -129 277q-150 317 -240 467 q-88 152 -141 215q-51 66 -80 86q-29 23 -59 79z" />
<glyph unicode="Z" horiz-adv-x="1779" d="M41 55q0 -6 2 -16q2 -14 2 -21q35 -102 133 -102q106 8 226 10t341 2h7q381 -4 569 -4q49 0 74.5 6.5t42.5 20.5q35 23 71 74q47 66 74 98q29 35 84 80q61 53 72 137q0 139 -135 139q-63 0 -123 -55q-16 -20 -47 -45q-80 -57 -185 -92q-102 -33 -221 -54 q-104 -18 -180 -24q-35 -2 -68 -4h-16q-74 0 -109 2q-33 0 -75 -2h-31q37 0 50 -13.5t13 -54.5l-2 -2q96 164 209 326q8 12 47 67q117 170 176 263q133 201 271 393q150 211 293 381q55 78 55 121q0 106 -125 106q-31 0 -154 -2q-45 -2 -98 -2q-115 -2 -352 -6 q-180 0 -283 -2h-37q-104 4 -110 18q-92 -2 -195 -117q0 -2 -35 -61l-24 -43q-27 -43 -64 -90q-41 -51 -41 -117q12 -106 119 -106q57 0 123 53q29 27 66 67q45 49 206 95q135 41 314 41q61 0 125 -7l12 -2q18 -4 35 -8q-27 0 -40 18.5t-13 43.5v10q-88 -154 -195 -309 q-47 -70 -109 -158q-61 -88 -108 -158q-117 -170 -285 -403q-158 -213 -309 -383q-43 -53 -43 -109zM121 51q0 27 22 53q164 180 316 388q137 184 284 405q72 104 215 317q109 160 197 314q12 18 12 33q0 20 -18 20q-33 10 -43 12q-70 6 -137 6q-188 0 -336 -45 q-193 -57 -246 -116q-25 -29 -59 -60q-32 -30 -66 -30h-2q-33 0 -37 30q0 31 23 58q49 63 71 100q31 49 62 104q43 72 82 74l-2 -8q10 -14 149 -18h320q201 4 354 6q53 2 94 2q125 2 156 2q43 0 43 -25t-37 -67q-156 -190 -295 -387q-150 -213 -270 -396 q-106 -162 -221 -325q-113 -162 -209 -326q-6 -10 -11 -33q0 -25 19 -24h31q43 2 75 2q35 -2 111 -2q8 0 88 6t191 24q113 18 231 56q121 37 209 104q25 23 55 55q31 31 64 31q53 0 53 -53q-6 -49 -43 -80q-70 -57 -98 -92q-27 -33 -74 -98q-31 -39 -51 -54q-18 -12 -72 -12 q-287 0 -576 6q-203 0 -329.5 -3t-241.5 -11q-37 0 -49 35q0 4 -2 12q-2 6 -2 10z" />
<glyph unicode="[" horiz-adv-x="438" d="M41 -233h356v235h-123v1700h123v233h-356v-2168zM123 -152v2005h192v-69h-122v-1864h122v-72h-192z" />
<glyph unicode="\" horiz-adv-x="980" d="M41 1722l659 -1759h240l-657 1759h-242zM160 1640h65l596 -1595h-63z" />
<glyph unicode="]" horiz-adv-x="438" d="M41 2v-235h356v2168h-356v-233h123v-1700h-123zM123 -80h123v1864h-123v69h192v-2005h-192v72z" />
<glyph unicode="_" horiz-adv-x="1325" d="M41 4v-219h1243v219h-1243zM123 -78h1079v-55h-1079v55z" />
<glyph unicode="`" horiz-adv-x="432" d="M41 1788l100 -240q72 -147 150 -147q100 0 100 106q0 33 -24 101l-74 180h-252zM164 1706h74l53 -129q18 -45 18 -70t-18 -24q-41 0 -74 94z" />
<glyph unicode="a" horiz-adv-x="1384" d="M41 346q0 -293 258 -391q117 -43 233 -43q131 0 263 49q37 12 69 39q10 8 35 20q0 2 2 5q-37 0 -61.5 17t-24.5 52v-4l-2 -4l-4 -39q0 6 18 8q16 -72 39 -103.5t60 -31.5q25 2 61 2h72q55 0 78 -2q18 -2 55 -6l29 -4q63 0 92.5 22.5t29.5 75.5q0 12 -8 39q0 4 -2 8 q-31 86 -78 99q4 0 7 -2q-10 23 -17 69q-10 63 -14 246q6 190 6 297q0 47 2 102v49q2 8 2 23q2 14 2 20v7q2 8 2 28q0 84 -53 109q45 0 45 -35q-147 102 -309 147q-141 37 -269 37h-3q-252 0 -500 -194q-18 -18 -23.5 -35.5t-5.5 -44.5q0 -47 49 -103q29 -29 68 -40 q23 -10 49 -11q35 0 65.5 15.5t30.5 40.5q93 77 254 77h4q66 -4 135 -14q39 -2 45 -10q12 -20 13 -45q0 12 8 12q-4 0 -19 2q-10 0 -20 2q-18 2 -53 2q-287 0 -486 -94q-229 -102 -229 -465zM125 344q0 305 182 391q188 86 451 86q29 0 43 -2l43 -6q78 0 78 72q-2 37 -23 80 q-18 39 -102 55q-86 16 -148 18q-217 0 -342 -127q0 -6 -14 -6q-10 0 -19 4q-25 10 -43 25q-23 23 -22 43q0 14 6 22l4 2q219 170 443 170q113 0 245 -34q127 -33 248 -111q0 -2 2 -2q6 -6 6 -27v-18v-12q-2 -18 -6 -43q-2 -33 -2 -156q0 -51 -2 -213l-2 -84q4 -190 14 -260 q12 -74 29 -100q14 -25 35 -31q18 -6 26 -49q6 -12 7 -19q0 -16 -35 -16l-15 2q-49 6 -69 8q-25 2 -86 2h-68q-43 0 -69 -4q-16 0 -23 12q-6 12 -6 27l4 39q0 2 2 6v6q0 12 -8 12q-8 -2 -25 -12q-27 -14 -47 -31q-18 -16 -47 -26q-117 -45 -235 -45q-102 0 -205 37 q-205 80 -205 315zM399 385q0 -145 113 -221q53 -33 111 -33q80 0 186 59q10 4 27 19l6 4q14 12 18 16q31 23 37 56q4 23 8 63q2 27 2 90q0 70 2 109l6 61q2 20 3 58q0 57 -21 63q-18 8 -35 8v-6q-260 -2 -362 -104q-100 -100 -101 -242zM481 391q0 106 78 184q86 78 303 80 q2 0 10 -4q-37 2 -36 15q0 -33 -2 -52q-2 -14 -3 -30q0 -16 -2 -31v-61q-2 -43 -2 -50q0 -35 -4 -88l-6 -55h-2q-6 -6 -27 -18q-8 -8 -18 -13q-82 -49 -147 -49q-31 0 -66 21q-76 51 -76 151z" />
<glyph unicode="b" horiz-adv-x="1398" d="M41 1663q25 -59 52.5 -87t70.5 -28q-14 0 -31 4q18 -49 27 -184q8 -127 8 -268q0 -43 -2 -119q-2 -104 -2 -152q-10 -369 -21 -503q-12 -127 -24 -174q10 2 33 2q-51 -6 -95 -125l-2 -2q0 -72 29 -94.5t92 -22.5q16 2 33.5 3t56.5 1q33 -2 99 -2q16 0 61 2q6 0 31 2h28 q16 2 31 2q6 0 35 -2h33h30q14 -2 41 -2q303 0 502 197q201 199 201 507q0 317 -203 478q-197 156 -432 161q-147 0 -191 -55q-8 -8 -28 -12q57 0 57 -39l4 176q2 102 4 146q0 18 2 63q0 49 2 63q-36 -67 -72 -67h-1q37 0 88 131q0 70 -31 94.5t-98 24.5q-27 -4 -39 -4 q-16 2 -47 2h-105q-53 0 -100 6q-33 0 -68 -14q-41 -16 -50 -38t-9 -71zM119 1675q0 16 12 21q14 8 27 8q49 -6 106 -6h105q31 0 47 -2q16 0 47 4q41 0 41 -33q-2 -53 -6 -53q-2 0 -6 -25q-2 -25 -7 -114q-2 -88 -6 -324q0 -43 29 -43q53 6 84 37t131 31q213 -6 383 -144 q172 -137 172 -414q0 -276 -178 -448t-445 -172h-37h-34v2q-6 0 -33 2h-35h-33q-27 -2 -30 -2q-18 0 -35 -2q-43 -2 -53 -2q-63 0 -97 2q-43 0 -61.5 -1t-36.5 -3q-33 0 -33 16q2 6 2 10q12 53 27 56q16 4 31 55q14 47 26 203q10 133 21 493q0 47 2 154q2 76 2 119 q0 143 -8 274q-12 160 -35 211q-16 43 -45 43q-25 0 -41 47zM469 469q2 -123 10 -225q12 -129 86 -140l31 -6q10 -2 31 -2q145 10 247 101q102 92 119 378q0 305 -94 390q-94 88 -240 88q-69 -1 -157 -58q-20 -12 -25 -30q0 -6 -2 -11q-2 -12 -2 -16v-49v-49q0 -37 -2 -131 q-2 -125 -2 -240zM545 926q63 45 114 45q113 0 187 -68q67 -69 67 -318v-7q-12 -240 -92 -320q-84 -74 -194 -80q-12 0 -19 2q-6 2 -16 2t-17 2q-10 6 -14 64q-4 63 -8 221q0 113 2 238v131v49v49q0 6 2 10q-2 -10 -12 -20z" />
<glyph unicode="c" horiz-adv-x="1224" d="M41 584q0 -272 164 -471q166 -201 457 -201q143 2 262 78q111 72 196 172l6 6q6 8 11 10q6 10 8 12q6 6 24 60q14 47 15 61q0 14 -2 27.5t-4 19.5q-21 105 -125 105q-61 0 -127 -96q-35 -51 -92 -76q-59 -29 -132 -33q-100 0 -178 111q-94 129 -100 237q0 47 6 103 q6 57 33 129q23 59 67 102q37 33 101 33q37 0 57 -15q37 -29 53 -53q14 -8 15 -12q0 35 26 53q-51 -25 -51 -151q0 -61 45 -99q14 -18 30.5 -23t43.5 -5q39 0 76 30q37 31 75 64q25 23 58 35q96 29 96 159q0 47 -63 117q-33 31 -50 49q-139 137 -364 138q-233 0 -436 -197 q-201 -201 -201 -479zM123 578q0 246 178 419q178 172 379 172q188 0 307 -112l43 -43l10 -8q37 -33 37 -56q0 -66 -41 -82q-35 -12 -82 -49q-16 -12 -55 -45q-12 -10 -25 -20q-10 -10 -20 -11q-12 0 -16 7q-18 16 -19 38q0 72 19 84q6 6 6 15q0 18 -31 61q-25 37 -72 70 q-43 31 -106 31q-98 0 -158 -56q-57 -53 -88 -129q-29 -70 -39 -147q-6 -61 -6 -115q10 -135 117 -283q106 -143 246 -143q90 4 163 39q78 37 127 111q29 55 56 55l-6 -4q41 0 49 -62q2 -4 2 -8q0 -6 -4 -24l-4 -13l-7 -18q-6 -14 -8 -16l-6 -9l-6 -8l-2 -2l-2 -2 q-76 -94 -178 -160q-100 -66 -219 -67q-252 0 -394 172q-145 176 -145 418z" />
<glyph unicode="d" horiz-adv-x="1394" d="M41 539q0 -276 156 -453q162 -186 376 -186q111 0 248 77q23 14 68 39q6 4 12 7q-10 -6 -23.5 -9.5t-19.5 -3.5q-43 0 -55 23q0 -35 47 -88q55 -37 94 -37q-18 4 -39 4q0 -2 129 -2q68 0 101 2q31 0 65 -2q18 -2 29 -2q41 0 94 51q31 61 31 98l-8 21q-33 80 -117 80 q14 0 20 2q-23 45 -35 178q-12 111 -12 319q0 12 2 82v97q4 379 6 534q2 104 2 203q0 25 2 24q2 23 7 72q0 121 -111 121h-8q-8 -2 -10 -2q-66 -8 -88 -19h-29q-41 0 -78 7q-39 6 -96 12q-33 0 -84 -29q-25 -20 -35 -43.5t-10 -62.5q49 -111 131 -111q-6 0 -8 -2 q14 -23 20 -88q6 -35 6 -152q0 -27 -2 -75q-2 -70 -2 -103q0 4 6 6q6 14 16.5 18.5t28.5 4.5q-8 0 -18 8l-25 12q-39 20 -57 29q-63 33 -143 35q-281 0 -435 -217q-150 -211 -149 -479zM121 541q0 240 135 430q129 184 365 184q66 -4 108 -27q31 -16 84 -43l-4 5 q33 -16 55 -17q12 0 17 4q14 14 14 49q0 33 2 103q2 49 2 76q0 129 -8 165q-16 100 -39 127q-25 27 -53 27q-31 0 -49 47q0 16 12 25q16 12 29 12q55 -6 90 -12q41 -6 90 -6q47 0 61 6q16 6 62 12q2 0 6 2h6q29 0 29 -35q-4 -39 -9 -57v-43q0 -98 -2 -203q-2 -156 -6 -534 v-97q-2 -70 -2 -82q0 -217 12 -327q14 -152 41 -207q25 -49 56 -49q29 0 41 -29l2 -6q0 -10 -13 -29q-18 -23 -30 -22q-10 0 -29 2q-37 2 -68 2q-33 -2 -98 -2q-47 0 -47 2q-25 0 -49 -4q-16 0 -35 18q-18 18 -18 31q-6 55 -27 55q-4 0 -8 -4q-20 -10 -72 -41 q-113 -65 -202 -65h-3q-178 0 -313 157q-135 158 -135 400zM344 662q0 -47 4 -74q23 -207 101 -307q80 -100 194 -117h21q16 -2 18 -2q100 0 168 82q37 49 37 88v98l2 -4q0 41 6 197q2 127 4 184q0 51 -12 78q-12 29 -51 67q-76 76 -187 76q-127 0 -225 -117 q-80 -94 -80 -249zM426 666q0 123 61 196q70 88 162 88q78 0 129 -51q23 -20 31 -39q6 -18 6 -47q-2 -57 -4 -184q-6 -156 -6 -197v-98q0 -18 -21 -39q-43 -51 -104 -51q-2 0 -14 2h-19q-80 12 -135 86q-68 92 -82 270q-4 23 -4 64z" />
<glyph unicode="e" horiz-adv-x="1220" d="M41 590q0 -160 43 -278.5t131 -209.5q180 -186 432 -186q139 2 277 90q135 82 219 223q2 2 8 13q6 10 6 12q10 18 14 31q8 20 9 59q0 88 -74 123q-12 10 -26.5 12t-35.5 2q-33 0 -86 -28q-51 -35 -69 -80q-27 -45 -64 -72q-33 -27 -86 -31q-117 0 -207 86q2 -6 3 -16 q-1 -13 -7 -25q113 111 201 185q53 45 119 102t119 103v4l108 100q16 14 41 76q0 2 2 14v12q0 43 -33 97q-76 109 -186 178q-113 72 -250 74q-195 0 -393 -179q-209 -186 -215 -491zM123 584q6 266 188 432q172 158 338 158q115 -2 209 -62q94 -57 162 -154q18 -27 18 -49 v-6q-2 -4 -2 -6q-8 -20 -18 -31l-133 -125v-2l-209 -178q-104 -88 -203 -184l2 -8q-20 -18 -20 -37q0 -20 24 -43q113 -109 264 -109q78 6 136 47q53 39 88 103q10 25 41 47q25 14 41 14q14 0 20 -4q33 -14 33 -51q0 -20 -4 -31q-2 -8 -8 -20l-13 -19q-74 -121 -194 -196 q-119 -74 -234 -76q-219 0 -375 162q-78 80 -114.5 183t-36.5 245zM317 592q0 -63 31 -100q18 -18 35 -19q16 0 31 14q63 63 164 150q82 70 159 158l4 2q12 16 25 28q8 8 8 25q0 18 -6 31q-29 68 -57 104q-31 39 -111 39q-172 0 -227 -141t-56 -291zM356 545q10 10 27 10 q14 0 29 -8q-12 16 -13 45q0 166 50 321q39 29 151 29q31 0 43 -6q23 -33 49 -90q-2 0 -2 2q0 23 17 33q-23 -23 -31 -33q-76 -86 -152 -148q-72 -59 -168 -155z" />
<glyph unicode="f" horiz-adv-x="1005" d="M41 1034q0 -35 20 -63q31 -49 93 -49q27 0 86 2q12 2 24 2q-35 0 -35 30v-55v-61q-2 -338 -18 -490q-12 -133 -29 -182h4q12 -4 19 -4q-61 -6 -109 -119v-12q-2 -8 -2 -13q0 -53 31 -75.5t92 -22.5q47 6 92 6h97h96q49 0 94 -6q61 0 91 30t30 105q-2 -8 -2 -16 q-33 104 -97 115q20 0 29 2q-14 51 -24 194q-8 147 -9 324q0 10 2 80v94v57v56q0 -33 -41 -39q-2 -2 -6 -2q6 0 33 -2q16 0 31 -2q49 -4 76 -5q49 0 88 31q37 35 49 72q2 4 2 6t2 4q4 6 8 23v4v2l12 37q0 2 2 12v12q0 23 -3 35t-15 29q-33 49 -96 49q-115 0 -195 -8 q55 0 55 -47q2 49 3 129v63l20 23q-20 6 -20 30q0 57 4 82q-14 -10 -31 -10q-23 0 -41 61q10 -66 10 -133v-4v-2v-4q-2 -4 -2 -6q0 -35 13.5 -65.5t35.5 -30.5q33 -16 66 -17q6 0 18 2q10 2 17 2q57 25 82 49q18 18 36 31q18 10 33 17q12 8 31 16q72 37 72 149q-1 18 -9 41 q-45 205 -292 205q-113 0 -263 -102q-92 -68 -151 -137q-41 -57 -41 -119q0 -16 6 -47q4 -16 4 -25q2 -25 6 -82q2 -31 2 -102q0 39 45 39q-12 2 -39 2h-34q-43 0 -86 -31q-39 -27 -50 -72q-6 -16 -14 -30l-2 -4q0 -8 -4 -29v-14q-2 -12 -2 -15zM123 1034q0 2 2 8v7 q4 16 4 22q4 4 12 31q4 18 19 31q16 14 37 14h34q25 0 37 -2q41 0 41 43q0 74 -2 106q-2 43 -6 88q-4 20 -6 33l-2 8q-2 14 -2 21q0 35 22 67q59 66 136 123q121 86 215 86q182 0 215 -149v-10q2 -4 2 -5q2 -6 2 -10q0 -59 -31 -78l-61 -30q-29 -14 -58 -43q-12 -12 -39 -25 q-2 0 -6 -2q-8 -2 -10 -2q-14 0 -27 16q-6 0 -6 15q0 2 2 6v4v2v6q0 66 -14 109q-16 47 -37 47q-20 0 -39 -27q-18 -27 -18 -129q0 -14 2 -16l-2 -2v-99q0 -80 -2 -127q0 -35 30 -34q80 8 191 8q20 0 28 -15q4 -6 5 -16v-6q-2 -6 -3 -8q-2 -6 -6 -15q-4 -8 -6 -14l-6 -18 l-6 -19q-6 -14 -23 -30q-14 -12 -36 -13q-45 0 -68 2l-68 6q-12 0 -24 -4q-10 -4 -10 -37v-55v-55v-94q-2 -70 -3 -80q0 -178 9 -330q12 -160 26 -211q16 -55 35 -59q20 -4 29 -43q0 -4 2 -8q0 -18 -35 -19q-49 6 -98 6h-97h-96q-49 0 -98 -6q-35 0 -35 16q0 2 2 7v4 q14 49 37 51q23 4 43 55q23 53 37 203q16 152 18 498v61v57q0 51 -49 52q-14 0 -26 -2q-57 -2 -82 -2q-14 0 -25 12q-6 10 -6 18z" />
<glyph unicode="g" horiz-adv-x="1472" d="M41 756q0 -129 72 -232q57 -88 161 -147q2 -2 7 -6q4 -6 8 -11q-2 6 -4 13q-4 12 -4 20q0 2 -2 6t-3 7q0 2 -8 6q-39 -25 -55 -37q-37 -27 -66 -56q-18 -16 -55 -45q-23 -16 -28 -33.5t-5 -41.5q0 -25 27 -74q47 -53 90 -57q14 -4 39 -9q20 -6 31 -8q-39 8 -109 21 q-20 2 -61 10q74 27 180 82q0 -2 -2 -2q-49 -18 -113 -82q-51 -57 -51 -133q0 -2 2 -17v-16q23 -158 176 -272q141 -104 381 -105q233 0 389 135q158 127 181 250q2 2 6 23q4 18 16 55l25 68q0 8 2 18v12q0 84 -99 119q-14 4 -49 12q-14 4 -35 9q-14 4 -30 8t-31 8 q-8 4 -41 12q-53 12 -119 29q-68 16 -121 29q-84 23 -217 51q23 -16 23 -39q-2 -47 -43 -57q6 2 20 2q12 2 19 2q33 -4 84 -9l12 -2h21q18 -2 20 -2q217 0 377 129q184 147 184 357q0 141 -92 264l2 -4q2 -16 2 -23q0 -25 -20 -45q-12 -10 -31 -10v-23l4 -4q2 -4 2 -6 q6 -84 94 -104q82 0 142 86q12 27 30 41q55 59 56 110q0 39 -25 74q-74 127 -238 127q-96 0 -188 -68q-6 -12 -10 -12q16 0 26 -8q-137 94 -354 94q-248 0 -420 -135q-182 -145 -182 -354zM131 756q0 168 152 288q150 119 368 119q188 0 307 -80q10 -6 19 -6q20 0 59 29 q66 51 140 51q117 0 170 -90q10 -14 10 -29q0 -25 -29 -49q-29 -25 -49 -63q-23 -43 -55 -43q-27 10 -31 49l-18 31q-39 61 -70 61q-10 0 -17 -4q-14 -10 -14 -23q0 -8 12 -24q76 -96 76 -213q0 -172 -153 -293q-141 -111 -328 -111q-2 0 -18 2h-21q-39 4 -96 13 q-20 -2 -49 -6q-27 -2 -31 -19q0 -23 14 -39q164 -37 244 -57q160 -41 240 -60q14 -4 18 -6q27 -6 80 -22q49 -14 84 -23q39 -12 39 -39v-6q-2 -6 -2 -10l-19 -55l-18 -56q-2 -10 -6 -12q-18 -106 -154 -223q-135 -117 -336 -117q-213 0 -334 88q-123 90 -141 211v12 q-2 12 -2 15q0 43 31 78q39 43 71 57q35 4 48 29l4 2q2 2 6 4l6 4q-23 4 -72 12t-71 14q-18 4 -37 27q-12 16 -13 25q0 8 5 12q35 25 59 49q25 25 59 49q8 4 23 15l28 20q37 25 46 39q0 2 2 6q2 2 2 4q0 4 -4 13q-2 4 -5 6q-8 10 -10 14l-12 12q-96 53 -152 133 q-55 80 -55 185zM338 -98q4 -66 84 -121t207 -55q123 0 211 73q88 74 88 146q0 23 -8 37q-119 35 -246 73q-123 39 -221 39l2 2q4 -12 4 -18q0 -25 -27 -39v-2q-90 -45 -94 -135zM403 754q0 -96 58 -197q59 -102 180 -108q129 0 190 104q66 106 66 201q-4 90 -39 202 q-37 117 -207 117l-2 -2q-172 0 -209 -110q-37 -111 -37 -207zM418 -96q4 55 94 82v4q27 29 27 88q0 -31 45 -66q27 0 63 -35q27 -8 51 -16q109 -33 162 -47q-18 12 -18 33q0 -41 -60 -82q-63 -55 -157 -55q-96 0 -160 40q-47 25 -47 54zM485 756q0 88 33 180q24 55 133 55 q106 0 127 -57q35 -104 37 -180q0 -74 -53 -156q-41 -66 -119 -66q-76 4 -111 66q-47 82 -47 158z" />
<glyph unicode="h" horiz-adv-x="1384" d="M41 1661q31 -121 117 -121q-10 0 -27 4q20 -49 33 -188q12 -113 12 -346v-88q-2 -55 -2 -105q-6 -330 -22 -489q-14 -137 -31 -187h33q-63 -6 -101 -125q0 -70 26.5 -93t94.5 -23q16 2 33.5 3t56.5 1q33 -2 98 -2q66 0 99 2q31 0 63 -2q25 -2 33 -2q66 0 91.5 18.5 t25.5 77.5v14q-2 12 -2 15q-45 104 -109 116q8 0 17 9q-16 47 -27 186q-4 47 -4 184q0 125 6 305v4q2 8 2 25q0 -6 -16 -10q4 4 10 6l4 2q23 8 61 20q37 12 37 13q39 8 105 8q57 0 82 -12q12 -25 12 -162q0 -86 -4 -137v-23v66h-2v-86v-2v-2v-5v-2q0 -123 -2 -180t-8 -121 q-8 -76 -23 -106q10 6 21 6q-61 -12 -89 -109q0 -57 64 -108q49 -23 82 -23q18 2 65 11l27 4q41 4 72 4h88q37 0 82 -6q119 0 118 129q-31 68 -77 92v2q2 4 2 6q-10 27 -17 111v30q-2 27 -2 43q0 100 8 217v5v4v12q-2 6 -2 31v34v35v35v195q0 90 -16 151q-29 98 -84 137 q-49 35 -111 50q-25 6 -81 6q-39 0 -93 -6q-104 -14 -204 -39q-43 -12 -86 -31q-53 -25 -82 -37q6 6 20 6l-2 4q49 -4 49 -18q2 61 4 196q2 100 4 154q2 68 2 131q0 -27 -17 -40t-62 -13q10 0 88 133q0 66 -32 92.5t-99 26.5q-41 -4 -58 -8q-8 -2 -26 -2h-107q-55 0 -98 6 q-63 0 -93 -25.5t-30 -93.5zM117 1681q0 29 35 29q47 -6 104 -6h106q31 0 46 2q14 4 45 8q43 0 43 -33q-4 -37 -7 -55v-31q0 -63 -2 -129q-2 -53 -4 -153q-2 -135 -4 -197q0 -57 17 -63q4 0 10 -2t8 -2q12 0 18 4q27 10 76 30q37 16 74 25q98 27 192 39q47 6 84 6 q45 0 64 -4q43 -8 82 -35q35 -23 51 -90q12 -51 12 -135v-193v-37v-34v-37q0 -31 2 -39v-6v-6v-2q-8 -117 -8 -220q0 -16 2 -45v-30q6 -92 23 -136q14 -39 37 -51t37 -39q0 -27 -33 -26q-49 6 -86 6h-86q-49 0 -86 -6t-86 -13q-16 0 -35 13q-23 12 -23 26q10 35 27 37 q20 4 35 37q16 37 28 129q6 43 9.5 117t3.5 198l-4 13v-2v2v2v2v6h2v16v19q4 53 4 141q0 193 -47 227q-37 31 -129 31q-78 0 -125 -10q-35 -10 -74 -25q-16 -6 -31 -10q-18 -6 -37 -18q-18 -12 -18 -58v-12v-12q-6 -180 -6 -307q0 -141 4 -191q10 -154 31 -209 q23 -55 45 -61q25 -6 43 -51l2 -7v-6q0 -14 -35 -14q-12 0 -33 2q-37 2 -65 2q-33 -2 -99 -2t-98 2h-61.5t-36.5 -4q-33 0 -33 27q8 49 27 51q18 4 36 55q20 57 35 203q16 162 23 497q0 49 2 105v88q0 238 -12 354q-16 164 -39 211q-16 43 -47 43q-25 0 -35 49z" />
<glyph unicode="i" horiz-adv-x="690" d="M41 1130q43 -113 106 -124h-10q14 -25 21 -109q2 -20 2 -78q-1 -100 -13 -266q0 -199 -10 -295q-10 -139 -18 -168q8 70 20 82q-57 -8 -86 -119q0 4 23 10q35 -141 94 -141q25 2 86 2h92h96q25 0 82 -4h6q41 0 82 31q25 25 30 44t5 52l-8 21q-41 90 -86 96q16 -2 27 -14 q-6 14 -13 65q-8 72 -12 244q6 305 6 426v157v21q4 23 4 70q0 66 -30.5 89t-98.5 23q-27 -4 -39 -4h-43q-63 0 -96 2q-66 4 -96 8q-66 0 -94.5 -24.5t-28.5 -96.5zM125 1147q0 27 35 27q33 -4 98 -9q35 -2 100 -2h43t45 4q41 0 41 -30q0 -39 -4 -58v-35v-155q0 -61 -2 -240 q-2 -170 -2 -184q4 -182 13 -256q8 -72 22 -96q12 -23 27 -25q14 -2 26 -47l2 -8q0 -10 -8 -17q-14 -10 -24 -10q-61 4 -93 4h-96h-92q-63 0 -90 -4q-12 0 -23 12q-8 10 -8 27q10 45 25 47q14 2 30 35q14 27 27 121q12 90 12 301h4q12 170 13 270q0 63 -4 86q-8 104 -31 142 q-23 37 -45 43q-27 6 -41 57zM150 1530q0 -92 63 -156q65 -65 153 -65h3q88 0 153 65q66 66 66 156t-66 156q-65 65 -153 65q-90 0 -156 -65q-63 -63 -63 -156zM231 1530q0 59 39 98q42 41 99 41q55 0 96 -41t41 -98t-41 -98t-96 -41q-57 0 -99 41q-39 39 -39 98z" />
<glyph unicode="j" horiz-adv-x="669" d="M41 -262q0 -133 135 -133q16 0 41 8l10 4l15 6q131 61 200 187q37 72 101 110q18 0 57 43q20 10 24.5 26.5t4.5 63.5q0 4 -2 8q-2 10 -2 15q0 57 -23.5 101t-55.5 71.5t-56.5 40t-34.5 16.5q0 -41 16 -66.5t37.5 -37t37 -14.5t23.5 -3q10 -4 26.5 -19t16.5 -40 q-4 10 -8 80l-2 18q-6 84 -12 314q2 76 4 221q4 141 4 160q4 113 6 145q0 10 6 16q2 20 2 62q0 53 -24.5 76.5t-85.5 23.5h-6q-37 -4 -58 -4h-65h-76q-25 0 -70 4q-70 0 -98.5 -26.5t-28.5 -84.5q10 -113 103 -116h-23q16 -33 29 -123q12 -80 12 -238v-55q-2 -35 -2 -66 q-16 -180 -16 -405q0 -160 -123 -297l-10 -14q-29 -39 -29 -78zM123 -260q0 12 10 27l10 12q139 160 140 350q0 221 16 401q0 31 2 68v57q0 166 -12 252q-18 117 -39 152q-20 37 -43 37q-20 0 -25 37q0 27 39 26l-4 2q45 -4 74 -4h76h67q23 0 68 4q25 0 24 -18q0 -29 -2 -41 q-6 -12 -6 -33q-2 -33 -6 -145q-2 -111 -6 -383l2 -25q8 -238 12 -295q6 -76 10 -104q0 -8 5 -13q2 0 2 5q6 -8 6 -31q0 -16 2 -29q0 -23 -4 -26q-14 -18 -21 -19q-94 -51 -149 -154q-55 -100 -164 -153q-12 -4 -21 -6q-2 -2 -10 -2q-53 0 -53 51zM190 1511q0 -92 64 -155 q66 -66 156 -66q88 0 153 66q66 66 66 155q0 90 -66 156q-65 66 -153 66q-90 0 -156 -66q-63 -63 -64 -156zM272 1511q0 59 39 99q42 41 99 41q55 0 96 -41t41 -99q0 -57 -41 -98t-96 -41q-57 0 -99 41q-39 39 -39 98z" />
<glyph unicode="k" horiz-adv-x="1394" d="M41 1688q0 -2 2 -13v-12q57 -111 129 -111l27 11l-11 -7q-33 0 -57 9q18 -49 27 -187q10 -133 10 -368v-84q-2 -51 -2 -99q0 -352 -12 -505q-8 -121 -27 -170h31q-66 -6 -107 -123l-2 -2q0 -72 28.5 -94.5t92.5 -22.5q16 2 33.5 3t56.5 1q33 -2 98 -2q63 0 99 2 q31 0 67 -2q18 -2 29 -2q63 0 91 19.5t28 76.5q0 6 -2 14t-2 15q-37 86 -95 94q14 -10 23 -96q-8 35 -14 151q-12 86 -15 226v22q0 -2 6 -8q16 16 27 25q25 20 35 30q-12 -6 -25 -6q-12 0 -18 -2q137 -217 180 -305q31 -45 31 -70q10 49 51 49q-57 0 -80.5 -25.5 t-23.5 -92.5q0 -109 133 -109q92 8 186 12q33 0 74 -4q16 -2 35 -4q39 -2 57 -4q66 0 92.5 18.5t26.5 77.5q0 20 -17 60q-74 92 -110 94q0 6 -2 14q-29 23 -101 125q-68 100 -217 369q-20 27 -20 37q0 8 35 26q135 139 196 185q47 39 72 49l8 4q6 4 8 4q27 0 107 68 q23 18 29 35.5t6 43.5v15q-2 10 -2 12q-16 43 -42 61.5t-67 18.5q-29 -4 -100 -4h-101q-27 0 -100 4h-6q-70 4 -103 8q-86 0 -145 -78v-28q-2 -18 -2 -23q0 -94 86 -123q-6 6 -6 23q0 -14 -31 -39q-55 -70 -248 -236l13 6q74 0 73 -53v72q0 47 2 72q4 223 4 225q4 242 5 311 v205q-2 31 -3 41q2 14 7 53q0 121 -111 121h-8q-8 -2 -10 -2q-39 -4 -60 -8q-8 -2 -26 -2h-105q-53 0 -100 6q-68 0 -94.5 -18.5t-26.5 -79.5zM123 1688q0 16 33 16l14 2q49 -6 106 -6h105q31 0 47 2q16 4 47 8q2 0 6 2h6q29 0 29 -35q-4 -41 -6 -57v-43v-203 q0 -156 -6 -534q-2 -27 -2 -76v-72q0 -29 18 -28q20 6 33 18q201 172 258 246q49 61 49 100q-10 29 -49 41q-31 12 -31 47v8q2 8 2 13q24 26 56 26h2q53 -8 104 -10q41 -2 111 -2h100q76 0 107 4q14 0 20 -14l2 -4v-7q0 -12 -8 -18q-43 -47 -57 -47t-43 -12q-27 -12 -93 -62 q-63 -49 -204 -192q-59 -61 -60 -86q0 -20 31 -74q147 -266 221 -375q74 -106 111 -141q39 -35 51 -35q16 0 43 -51q6 -12 6 -21q0 -14 -33 -14q-49 2 -88 6q-49 4 -84 4q-94 -2 -190 -12q-47 0 -47 27q0 37 22 36q25 0 31 25q0 39 -39 117q-45 94 -184 311q-25 41 -52 41 q-12 0 -30 -14q-20 -20 -33 -31q-12 -10 -33 -31q-27 -20 -30 -30q-2 -6 -3 -43q4 -170 15 -234q12 -74 26 -96q14 -23 31 -27q16 -2 25 -31q0 -2 2 -6t2 -6q0 -14 -37 -14q-10 0 -29 2q-37 2 -67 2q-33 -2 -97 -2q-63 0 -96 2q-43 0 -61.5 -1t-36.5 -3q-33 0 -33 16 q2 6 2 10q12 49 33 52q20 2 39 55q18 53 31 203q12 152 12 497q0 47 2 99v84q0 238 -10 374q-12 162 -35 213q-18 41 -37 41l-8 -2l-8 -2q-16 0 -29 41v6q-2 6 -2 7z" />
<glyph unicode="l" horiz-adv-x="710" d="M41 1663q31 -119 115 -119q-14 0 -31 4q18 -43 31 -186q10 -127 10 -336v-92q-2 -59 -2 -111q-6 -352 -21 -491q-14 -137 -30 -187q12 2 34 2q-59 -6 -98 -124q0 -70 27.5 -93.5t91.5 -23.5q16 2 33.5 3t56.5 1q33 -2 98 -2q63 0 99 2q31 0 67 -2q18 -2 29 -2 q63 0 91 19.5t28 76.5q0 6 -2 16t-2 15q-47 94 -113 96h37q-12 43 -23 201q-4 55 -4 215q0 43 2 123q2 113 2 166q2 66 4 221q4 242 4 313v205q-2 31 -2 41q2 14 7 53q0 121 -111 121h-8q-8 -2 -10 -2q-39 -4 -60 -8q-8 -2 -26 -2h-105q-53 0 -100 6q-66 0 -92.5 -22.5 t-26.5 -96.5zM123 1671q0 29 31 29l-4 6q49 -6 106 -6h104q31 0 48 2q16 4 47 8q2 0 6 2h6q29 0 29 -35q-4 -41 -7 -57v-43v-203q0 -156 -6 -534q0 -53 -2 -166q-2 -80 -2 -123q0 -166 4 -223q10 -158 25 -217q16 -59 37 -60q20 0 37 -35q0 -2 2 -6t2 -6q0 -14 -37 -14 q-10 0 -29 2q-37 2 -67 2q-33 -2 -97 -2q-63 0 -96 2q-43 0 -61.5 -1t-36.5 -3q-31 0 -31 26q8 49 25 52q16 4 34 55q16 49 33 203q16 162 23 497q0 51 2 111v92q0 227 -12 344q-14 162 -37 211q-16 43 -43 43q-23 0 -33 47z" />
<glyph unicode="m" horiz-adv-x="2127" d="M41 1120q37 -115 106 -127h-8q12 -29 19 -106q2 -23 2 -86q0 -80 -10 -260q0 -231 -9 -316q-6 -55 -18 -86q4 2 12 2q-43 -14 -67 -114q0 4 22 10q35 -141 100 -141q25 4 80 4h92h97q43 0 86 -6q51 0 86 32q23 16 28 40t5 54l-9 21q-35 88 -80 96q4 0 13 -4q-8 18 -19 74 q-10 63 -14 242q4 139 6 237v172q0 10 4 23h13q47 25 92 37q76 20 116 20q35 0 54 -12q32 -44 32 -215v-11q0 -20 -2 -55q-2 -47 -2 -65v-17v-18v-4v30l23 23q-25 -47 -25 -143h2q0 -154 -12 -222q-10 -80 -20 -104q12 4 18 4q-61 -12 -88 -109q0 -47 59 -106q49 -25 86 -25 q53 6 93 13q31 6 71 6h88q37 0 80 -6q66 0 93.5 27.5t27.5 101.5q-31 68 -78 92v2q2 4 2 6q-10 27 -16 111v30q-2 27 -2 43q0 100 8 217v5q0 68 119 90h-131q10 -10 10 -43v34v35v35v80v72q0 10 2 14q12 16 33 25q33 14 67 26q61 18 123 19q41 0 62 -15q30 -38 30 -208v-11 v-51q-2 -31 -2 -59v-17v64h-2v-86v-4v-5q0 -117 -3 -189.5t-7 -113.5q-8 -74 -23 -104q12 4 19 4q-63 -12 -86 -111q0 -49 59 -104q49 -25 86 -25q53 6 92 13q29 6 68 6l14 -2q49 -6 64 -8q16 -4 33.5 -4h66.5q61 0 88 30.5t27 106.5q-31 68 -78 92v2q2 4 2 6 q-10 27 -16 111v30q-2 27 -2 43q0 100 8 217v5v4v12q-2 6 -2 31v34v35v35v195q0 88 -17 149q-43 172 -182 201q-35 10 -114 10q-129 0 -285 -41q-45 -10 -103 -43q-6 -4 -43 -24t-45 -25q0 -2 -2 -4q29 0 43 -23q-12 18 -32 47q-51 76 -146 99q-25 8 -58.5 9t-121.5 1 q-113 -4 -221 -33q-47 -14 -101 -47q-25 -14 -73 -35q4 2 12 2q45 0 57 -39q-4 4 -4 9q0 10 2 20q0 72 -30.5 96.5t-98.5 24.5q-25 -4 -37 -4h-45q-66 0 -98 2q-49 0 -96 6q-66 0 -92.5 -23.5t-26.5 -97.5zM111 1135q0 29 30 28q49 -6 101 -6h100h45t45 4q41 0 41 -35 q-2 -12 -2 -24q0 -14 10 -39q6 -12 21 -12q12 0 20 4q41 14 84 41q41 25 80 37q100 29 201 30q78 0 108.5 -1t51.5 -7q63 -16 96 -68q2 -4 12 -18q12 -18 21 -29q10 -12 24 -12q12 0 41 14q31 16 88 50q45 27 84 34q147 39 264 39q68 0 97 -8q92 -18 120 -139 q12 -51 13 -135v-193v-37v-35v-36q0 -31 2 -39v-4v-2v-2q-8 -117 -8 -220q0 -16 2 -45v-30q6 -92 22 -136q14 -39 37 -51t37 -39q0 -35 -33 -34h-57.5t-28.5 4q-37 6 -86 12q-49 0 -86 -6q-33 -6 -84 -13q-16 0 -35 13q-23 16 -22 26q6 35 24 37q18 4 37 37q18 35 31 129 q6 43 9 116t3 197l-22 3v4v6v6h2v18v19q0 29 2 59v51q0 233 -60 281q-37 35 -114 35q-68 0 -148 -23q-23 -6 -74 -28q-41 -18 -67 -54q-16 -27 -16 -61v-72v-78v-36v-35v-37q0 -31 2 -39h2q-2 -2 -2 -8v-2q-8 -117 -9 -219q0 -16 2 -46v-30q6 -92 23 -135q14 -39 37 -52 q23 -12 37 -39q0 -27 -33 -26q-45 6 -86 6h-86q-47 0 -84 -6q-33 -6 -84 -12q-16 0 -35 12q-23 16 -22 26q10 35 26 37q18 4 37 37q18 35 31 129q12 96 12 314h-2v2v6v6v18v19q0 18 2 65q2 35 2 56q0 223 -53 278q-35 41 -115 41q-53 0 -137 -22q-59 -16 -111 -45 q-45 -25 -51 -48q-6 -20 -6 -47v-170q-2 -100 -6 -239q4 -188 14 -256q12 -70 29 -101q14 -27 31 -32q16 -6 28 -50l2 -8q0 -10 -6 -14q-8 -12 -24 -12q-45 6 -93 6h-96h-92q-61 0 -88 -4q-14 0 -25 12q-8 10 -8 27q10 43 25 49q14 6 26 39q14 39 23 125q10 102 10 305 q10 180 10 262q0 70 -4 94q-10 106 -30 139t-47 39q-25 6 -39 58z" />
<glyph unicode="n" horiz-adv-x="1388" d="M41 1116q41 -119 113 -125q-6 0 -11 -2q12 -25 19 -98q4 -23 4 -82q0 -98 -12 -258q0 -207 -13 -297q-10 -74 -20 -96h10q-55 -14 -80 -119q0 -45 21 -80q39 -51 98 -51q47 6 90 6q31 2 94 2q61 0 88 -2h7q47 -4 79 -8q63 0 93 22.5t30 75.5q0 27 -12 51q-31 84 -70 92 q8 -12 19 -84q-8 33 -15 146q-6 53 -10 248v150.5t-4 78.5q-2 33 -3 60.5t-1 87.5q4 31 31 38q4 2 18 7q14 6 17 6q6 2 20 6l18 4q80 23 132 23q43 0 57 -11q26 -32 26 -197v-12v-49q-2 -33 -2 -61v-10q-2 -10 -2 -25v-4v-2v-2v-4v-27v-102q2 -33 2 -43q0 -33 -3 -56.5 t-11 -72.5q-8 -72 -24 -101q4 -2 10 -2q-68 -12 -94 -108q0 -57 63 -109q47 -22 79 -22h3q18 2 66 10l26 4q41 4 72 4h88q37 0 82 -6q119 0 119 125q-29 66 -62 90v12q-12 37 -18 119q-4 33 -5 88t-1 199v2v4v12q-2 6 -2 31v35v35v34q0 106 6 183q4 25 4 65q0 68 -10 100 q-27 98 -99 140q-61 35 -112 45q-25 6 -82 6q-39 0 -93 -6q-104 -14 -204 -39q-43 -10 -82 -31q-27 -12 -64 -26q-8 -8 -14 -9q27 0 45 -18q16 -2 16 -14v6q2 8 2 32q0 66 -30.5 89.5t-98.5 23.5q-27 -4 -38 -4h-44q-33 0 -106 -4h-20q-16 -2 -21 -2q-10 0 -31 2 q-20 2 -28 2q-63 0 -89 -23.5t-26 -97.5zM115 1135q0 29 32 28q8 0 29 -2q20 -2 31 -2q4 0 22 2h21h6q70 4 98 4h43t45 4q41 0 41 -30v-25v-14q0 -37 9 -45q6 -6 14 -6q18 0 47 14q23 8 68 29q35 16 67 24q98 27 193 39q47 6 84 6q45 0 63 -4q41 -8 88 -35q43 -25 60 -90 q8 -27 8 -78q0 -35 -4 -55q-6 -82 -6 -192v-37v-35v-37q0 -31 2 -39v-6v-6v-2q0 -147 1 -203.5t5 -91.5q10 -94 24 -135q14 -39 31 -52q14 -12 27 -38q0 -27 -33 -27q-49 6 -86 6h-86q-49 0 -86 -6t-86 -12q-16 0 -35 12q-23 12 -23 27q10 35 31 36q23 4 43 37q23 35 37 129 q6 45 9 119t3 197l-16 2v-2v2v2v2v6v16v19q0 29 2 61v49q0 231 -59 273q-34 28 -102 28h-5q-63 0 -154 -24q-29 -8 -40 -12q-25 -8 -39 -15q-76 -31 -80 -112q0 -63 1 -93t3 -65q4 -37 4 -77v-144q4 -182 12 -256q8 -72 23 -99q12 -25 24 -30q14 -6 23 -49q6 -8 6 -19 q0 -16 -35 -16q-31 4 -88 8q-29 2 -92 2h-96q-47 0 -97 -6q-16 0 -24 14q-6 12 -6 27q10 43 26 49q18 6 37 39q18 35 31 125q12 92 12 305q12 164 13 262q0 68 -5 92q-8 102 -30 135q-20 33 -47 37q-23 2 -39 56z" />
<glyph unicode="o" horiz-adv-x="1439" d="M41 580q0 -279 199 -476q200 -196 476 -196h3q283 0 481 196q199 197 199 476q0 283 -199 477q-198 198 -481 198q-281 0 -479 -198q-199 -195 -199 -477zM125 580q0 246 174 419q174 175 420 175q250 0 424 -175q174 -174 174 -419q0 -244 -174 -416t-424 -172 q-244 0 -420 172q-174 172 -174 416zM381 578q0 -195 98 -334q98 -137 244 -148q78 0 136.5 33t107.5 100q47 66 69.5 149t22.5 197q-10 209 -76 349q-68 141 -264 141l-2 2q-193 0 -264 -145q-72 -145 -72 -344zM463 575q0 180 63 308q52 100 193 100q143 0 188 -94 q61 -127 70 -316q0 -98 -18.5 -168.5t-59.5 -128.5q-70 -98 -174 -98q-104 6 -178 113q-84 119 -84 284z" />
<glyph unicode="p" horiz-adv-x="1382" d="M41 1137q31 -139 117 -140q-10 0 -23 4q20 -43 33 -163q6 -63 9 -183t3 -350q-2 -174 -14 -373q-8 -70 -8 -180q0 -20 2 -41v-33q2 -10 14 -18q18 -127 115 -127q90 0 160 68q27 25 59 30q80 12 92 113v57q-2 53 -18 84q-4 12 -4 21q0 4 -3 24q-4 23 -4 27q0 -35 -30 -41 q319 39 559 266q242 233 241 512q0 289 -157 430q-150 141 -400 142q-119 -12 -190 -76q-39 -35 -59 -41q-4 2 -21 2q51 -6 51 -47v2q4 16 6 45q0 70 -30.5 94.5t-96.5 24.5q-84 -12 -100 -27q-2 6 -14 6q-63 0 -90 -2q-18 0 -54 2q-23 2 -32 2q14 0 26 2q-139 0 -139 -116z M123 1145q0 29 22 29q4 -2 9 -3q10 0 32 -2q31 -2 56 -2q27 2 88 2q47 0 59 7q12 6 62 12q41 0 41 -33q-2 -25 -7 -37q-2 -8 -2 -14q0 -31 23 -37q43 0 53 4l-2 2q33 8 88 55t141 56q213 0 340 -119q131 -119 131 -369t-217 -454q-219 -207 -512 -244q-41 -6 -41 -43l7 -55 q2 -23 12 -45q10 -23 12 -56v-53q-4 -33 -24 -35q-55 -10 -101 -51q-45 -43 -104 -43q-33 0 -39 14q-4 12 -8 50v30q-2 20 -2 41q0 106 8 174q10 141 14 381q0 233 -3 354t-9 187q-18 154 -43 196q-20 37 -49 37q-27 0 -35 64zM487 172q0 -33 25 -51q16 -8 29 -8q16 0 49 14 q59 29 123 68q68 43 116 88q86 84 125 188q37 102 37 176q0 147 -71 260q-66 109 -228 109q-88 -2 -153 -43l4 2q-16 -10 -37 -35q-18 -20 -19 -68v-219v-338v-75v-68zM537 193q12 0 20 -7q8 -6 8 -14v68v73v340q-2 90 -2 219q0 10 -2 13q9 10 21 18q51 29 112 29 q113 0 158 -70q57 -90 57 -217q0 -63 -32 -147q-31 -86 -103 -158q-49 -45 -104 -78q-41 -25 -119 -63q-8 -6 -14 -6z" />
<glyph unicode="q" horiz-adv-x="1398" d="M41 524q0 -264 152 -446q158 -188 387 -189h22q14 2 27 2q168 16 307 111q10 6 41 33q8 6 16 14q0 -25 -28.5 -33t-46.5 -8q-76 0 -76 55q-8 -115 -23 -213q-16 -98 -16 -184q0 -41 18 -67q14 -43 115 -52q74 0 143 76q23 20 60 23q43 6 90 55q28 38 28 87v15 q-2 10 -2 13q-10 63 -10 211q0 76 -2 144.5t-4 125.5q-6 139 -6 350q0 51 2 119q2 53 2 70q10 137 25 176q-12 -6 -27 -6q84 0 121 116l2 2q0 72 -29 94.5t-96 22.5q-16 -4 -47 -4q-2 0 -17 2h-16q-61 4 -94 4q-68 0 -72 -2q-2 0 -12 2q-12 2 -21 2q-63 0 -90.5 -23.5 t-27.5 -88.5q0 -47 18 -66q-10 16 -10 33q0 27 22.5 37t83.5 10q-10 4 -18 4q-2 2 -6 4q-4 4 -6 4q-68 39 -134 66q-74 30 -156 30h-5q-244 0 -410 -196q-156 -186 -172 -486v-24q-2 -20 -2 -25zM127 526q0 4 2 25v22q16 268 154 435q139 166 344 166q68 0 129 -25 q59 -23 121 -59l2 4q10 -4 28 -19q4 0 11 -4q10 0 10 35q0 4 -4 12t-4 21q0 31 36 30q14 0 33 -2q14 -2 19 -2q2 2 53 2q33 0 90 -4h18q16 -2 19 -2q37 0 55 4q35 0 35 -16q-2 -6 -2 -10q-12 -47 -41 -47q-27 0 -45 -41q-20 -49 -31 -209q0 -16 -2 -70q-2 -70 -2 -121 q0 -213 6 -354q4 -59 4 -112.5v-155.5q0 -137 13 -217q0 -2 2 -11v-8q0 -23 -13 -41q-14 -23 -30 -24q-78 -6 -117 -52q-41 -47 -80 -47q-41 2 -47 13q-6 8 -6 24q0 92 14 172q16 86 25 223q0 31 -6 31t-7 -4q-2 -2 -10 -8t-10 -8q-127 -84 -266 -97q-10 0 -25 -2h-20 q-195 0 -324 158q-131 162 -131 395zM362 555q0 -139 87 -248q98 -125 256 -153q49 0 98 22q43 20 88 49q43 29 43 111q-2 188 -6 313q-2 84 -2 209h-6q0 45 -33 72q-130 112 -250 112h-2q-141 0 -207 -133q-63 -129 -63 -313v-21q-2 -16 -3 -20zM451 578v20q0 201 55 348 q41 14 133 15q96 0 201 -93q4 -4 4 -10q0 -125 2 -209q4 -123 6 -311q0 -31 -6 -43q-35 -23 -78 -43q-23 -14 -53 -14q-121 20 -199 122q-67 85 -67 194q0 7 2 24z" />
<glyph unicode="r" horiz-adv-x="1056" d="M41 1133q43 -113 106 -125h-10q14 -25 21 -109q2 -20 2 -78q0 -100 -13 -266q0 -199 -10 -295q-10 -139 -18 -168q8 70 20 82q-57 -8 -86 -119q0 4 23 11q35 -141 94 -142q25 2 86 2h92h96q25 0 82 -4h6q41 0 82 31q25 25 30 44t5 52l-8 21q-41 90 -86 96q16 -2 27 -14 q-6 14 -13 65q-8 72 -12 244q0 141 2 209v16v160q0 14 6 26q10 14 25 23q14 10 20 10q-4 0 -4 13q0 8 6 14q-55 -57 -55 -123v-25q6 -112 119 -112h2q84 0 121 61q12 18 28 25q59 16 115 55q74 49 74 139v9v4v4q-2 141 -96 221q-94 78 -189 78q-106 0 -145 -41 q-25 -20 -66 -53q-4 -4 -12 -9q-4 -2 -6 -2q-6 0 -8 -2h10q51 0 61 -10t10 -45q0 2 5 14q0 70 -30 97.5t-95 27.5h-52q-27 -2 -47 -2q-63 0 -96 2q-66 4 -96 8q-66 0 -94.5 -24.5t-28.5 -95.5zM121 1145q0 27 35 26q33 -4 98 -8q35 -2 100 -2h49h50q43 0 43 -33l-2 -12 q-2 -10 -2 -12q0 -27 10 -27h18q12 8 21 13q10 4 26 18q6 4 31 25q29 23 41 32q23 20 92 21q72 0 135 -58q66 -57 68 -159v-2v-4v-5v-6q0 -47 -37 -71q-45 -31 -92 -43q-45 -12 -74 -60q-14 -25 -51 -24q-35 0 -39 32v23q0 35 35 70q14 20 14 39q0 69 -76 69h-2 q-25 0 -59 -20q-37 -23 -55 -52q-18 -27 -19 -67v-160v-225q4 -182 13 -256q8 -72 22 -96q12 -23 27 -25q14 -2 26 -47l2 -8q0 -10 -8 -17q-14 -10 -24 -10q-61 4 -93 4h-96h-92q-63 0 -90 -4q-12 0 -23 12q-8 10 -8 27q10 45 25 47q14 2 30 35q14 27 27 121q12 90 12 301 q12 170 13 270q0 63 -4 86q-8 104 -31 141t-45 43q-27 6 -41 58z" />
<glyph unicode="s" horiz-adv-x="1243" d="M41 477q2 -31 2 -71v-91v-88q0 -127 66 -143q84 -72 225 -117q147 -47 309 -47q190 0 371 131q188 133 188 363q-6 168 -90 264q-76 92 -186 143q-100 49 -219 74l-50 10q-90 18 -137 31q-33 10 -71 37h-11q0 -12 -8 -15q41 12 94 19q68 0 164 -45q111 -47 156 -113 q8 -10 35 -37q45 -41 92 -41q119 0 119 117v12q-2 12 -3 13q-10 47 -34 102q-14 31 -25 78q-12 63 -96 98q-37 14 -51 21q-63 29 -156 45q-82 12 -254 28v-10q2 0 10 2h11q-141 0 -250 -51q-168 -74 -168 -289q0 -68 16 -116t53 -86q72 -80 176 -109q86 -41 203 -66 q102 -20 180 -49q53 -33 78 -61q20 -27 21 -72q0 -61 -47 -98q-45 -39 -99 -39h-10q-137 0 -209 68q-80 80 -112 167q-8 18 -19 56q-27 104 -141 104q-123 0 -123 -129zM121 233v86v91v71q0 47 39 47q49 0 61 -45q10 -39 23 -67q35 -96 129 -195q90 -92 268 -92h10 q80 0 152 57q76 61 76 164q-2 80 -39 121q-37 43 -109 84q-92 31 -196 53q-117 25 -191 64q-84 20 -143 86q-49 55 -49 147q0 160 118 215q98 43 217 43h31q27 -2 31 -2v2q104 -12 160 -20q78 -12 135 -37q29 -12 59 -23q37 -12 43 -39q12 -57 31 -94q16 -33 27 -78l2 -6v-8 q0 -35 -37 -35q-18 0 -35 17q-12 12 -25 28h-6q-57 82 -186 138q-119 53 -203 53q-63 -6 -117 -23q-49 -14 -49 -61q0 -35 47 -66q49 -33 92 -47q90 -20 197 -43q106 -20 199 -67q94 -47 157 -123q66 -78 72 -213q0 -184 -154 -295q-162 -115 -321 -115q-150 0 -283 43 q-131 43 -209 111q-25 10 -24 73z" />
<glyph unicode="t" horiz-adv-x="948" d="M41 1163q6 -51 31 -84q39 -41 94 -41q66 0 100 9l2 2h6q6 -2 7 -2q-51 6 -52 43q0 -78 -2 -119v-137q-2 -344 -12 -490q-6 -164 -18 -217q18 53 41 55q-51 -2 -107 -143l-2 -2q0 -72 28.5 -94.5t94.5 -22.5q47 6 94 6q33 2 94 2t95 -2q47 0 96 -6q119 0 119 111 q-18 137 -91 143q16 0 25 2q-16 37 -29 176q-8 131 -8 291q0 12 2 92v113q0 92 2 135q0 31 2 66v55q0 4 2 16q2 4 2 10q0 -59 -55 -59h4q4 -2 6 -2q4 0 6 2q17 -22 94 -22h7q43 0 88 30q14 10 45 58q4 6 10 14q4 8 8 14q2 2 9 13q6 8 6 10q14 18 18 34.5t4 41.5v18 q-2 14 -2 16q-41 88 -129 88h2q-25 8 -51 9q-74 -2 -121 -15l-2 -2q53 0 53 -32l2 90q2 78 3 102v59q0 -4 -3 -6q2 4 7 37q2 27 4 37q0 31 -6 64q-12 81 -124 81h-3h-43q-111 0 -123 -102q-23 -117 -101 -250q-70 -125 -147 -153q-68 -29 -78 -99q0 -10 -2 -30 q-2 -10 -2 -13zM121 1167q0 10 2 27q4 27 27 35q96 35 184 186q88 154 110 281q4 33 41 33h43q41 0 47 -19q6 -20 7 -39q-2 -29 -4 -43v-6v-14v-64q0 -100 -3 -196q0 -49 29 -50q2 0 8 2h6q35 10 111 13q6 0 23 -4q16 -4 24 -4l2 -9q35 0 49 -26l2 -6v-9q0 -18 -8 -28 q-6 -10 -18 -27q-12 -16 -19 -26q-14 -27 -24 -37q-20 -14 -39 -15q-43 0 -53 6q-8 6 -47 13q-4 0 -11 2h-6q-29 0 -29 -17q-2 -14 -2 -30q-2 -39 -2 -123v-135v-113q-2 -80 -2 -92q0 -162 9 -297q12 -150 30 -199t37 -53q20 -4 23 -64q0 -26 -31 -26h-2q-49 6 -98 6h-97 h-96q-49 0 -98 -6q-35 0 -35 16q2 6 2 10q18 70 35 74q16 4 28 49q10 41 21 191q10 145 12 493v136q2 43 2 122q0 33 -22 39q-4 0 -13 2q-6 2 -10 2h-6q-4 -2 -6 -2q-31 -8 -90 -8q-18 0 -31 12q-8 16 -12 37z" />
<glyph unicode="u" horiz-adv-x="1400" d="M41 1120q10 -127 102 -131h-18q14 -23 27 -98q12 -68 12 -215v-53q-2 -33 -2 -64q-2 -27 -2 -55q-2 -47 -2 -58q-2 -23 -2 -47q-2 -39 -2 -49v-26v-25q0 -123 18 -197.5t55 -113.5q84 -98 219 -99q111 0 242 50q18 6 105 38q96 37 133 52q-8 -4 -19 -4q-63 0 -63 59v-2 l-2 -4q-8 -47 -8 -74q0 -100 108 -100q14 2 33 2q18 2 33 4q20 2 63 2q51 0 88 -2q68 -4 90 -8q111 0 111 100q0 150 -80 158q4 0 6 2q-10 14 -20 76q-4 37 -7.5 108.5t-3.5 208.5q4 258 7 363l2 75q2 43 2 58q0 8 2 12v49q0 39 -27 80q-33 51 -115 51l-22 -4q-31 -4 -41 -6 t-37 -2h-88q-43 0 -84 4q-59 0 -85 -19.5t-26 -82.5q6 -129 80 -142q-2 0 -2 -2l-2 -4q14 -25 25 -102q6 -35 7 -97.5t1 -234.5q-2 -39 -2 -49q-2 -72 -2 -99q-2 -33 -2 -102q0 -6 -33 -12q-57 -27 -90 -37q-33 -8 -92 -25h-2q-4 -2 -6 -2q-10 0 -37 2q-4 0 -19 2 q-2 6 -2 252v25q-2 45 -2 100q2 143 8 342v13q2 76 9 114q0 -29 -24 -45t-50 -16q57 0 70.5 23.5t13.5 88.5q0 45 -51 88q-18 14 -34 17.5t-42 3.5q-68 -8 -127 -8q-14 0 -68 -2q-23 -2 -30 -2h-23q-16 -2 -20 -2q-12 0 -33 2q-14 2 -19 2q-55 0 -78.5 -21.5t-23.5 -83.5z M121 1126q0 20 20 21q4 0 19 -2q20 -2 33 -2q4 0 20 2h25q8 0 30 2q53 2 68 2q59 0 131 8q16 0 25 -8q14 -8 14 -19q0 -31 -4 -30q-8 0 -8 -13q-2 -20 -7 -120q-2 -98 -6 -359q0 -94 2 -168v-39h2q4 -242 72 -251q43 -6 66 -7q6 0 14 2h6q43 12 100 27q37 10 105 43l-2 12 q80 37 80 86v101q0 27 2 98q0 10 2 49q0 180 -1 245.5t-9 102.5q-14 102 -37 135q-20 33 -41 39q-18 6 -23 66q0 18 23 18q45 -4 88 -4h88q27 0 55 4q23 4 55 7q29 0 41 -19q12 -18 13 -33v-37q-2 -8 -2 -24q0 -66 -2 -135q-2 -104 -7 -365q0 -147 3.5 -221t9.5 -111 q16 -90 37 -114q23 -27 39 -29q18 -2 18 -78q0 -18 -23 -18q-33 2 -92 6q-39 2 -92 2q-45 0 -67 -2l-68 -6q-23 0 -23 18q0 25 9 68q0 2 2 6v6q0 23 -19 23q-12 0 -20 -7q-57 -20 -142 -51q-43 -16 -86 -33q-117 -43 -213 -43t-157 70q-29 33 -42.5 94.5t-13.5 163.5v25v24 q2 39 7 97q4 57 6 112q0 31 2 64v55q0 156 -13 229q-18 102 -43 133t-45 31t-24 51z" />
<glyph unicode="v" horiz-adv-x="1443" d="M41 1110q41 -49 64.5 -69.5t48.5 -20.5q-14 0 -25 -2q23 -29 74 -133q66 -131 168 -373l12 -31q63 -158 90 -217q61 -141 94 -233q37 -121 158 -121h2q85 0 141 110q66 139 117 267q55 135 111 264q113 270 149 340q43 170 58 207q-18 -111 -29 -111q29 0 119 115l10 26 q0 43 -31 91q-44 34 -82 34h-2q-39 -2 -86 -6q-29 -2 -82 -2q-84 0 -139 6q-53 0 -82 -21.5t-39 -72.5v-22q-2 -16 -2 -21q0 -70 27.5 -101.5t87.5 -31.5q-41 0 -41 25q0 -25 -25 -91q-27 -76 -104 -235q-37 -72 -53 -129q-16 -53 -33 -88q37 12 61 12q8 0 33 -8 q-20 45 -33 92q-20 70 -55 139q-90 182 -109 256q-10 41 -10 64q0 -2 -2 -2q-4 -4 -12 -4q65 18 65 100q0 37 -8 57q-25 86 -133 86q-29 -4 -94 -8q-35 -2 -90 -2q-29 0 -54 6q-51 12 -86 17q-29 0 -98 -41q-51 -76 -51 -117zM123 1135q0 12 22 30q29 23 39 23q49 -8 74 -14 q31 -8 74 -9q59 0 96 2q55 4 92 7q43 0 51 -31q4 -10 4 -29q0 -20 -12 -27q-23 -10 -35 -38q-4 -8 -4 -31q0 -33 13 -82q18 -80 114 -277q31 -57 49 -122q18 -63 37 -105q16 -33 25 -37q10 0 26 35q18 37 39 98q18 55 50 117q84 170 108 246q29 86 29 117q0 57 -41 57 q-33 0 -33 51q0 2 2 14v19q6 23 35 22q59 -6 143 -6q55 0 86 2q47 4 86 7q10 0 23 -13q6 -6 6 -12l-2 -8q-33 -70 -47 -70q-10 0 -33 -24q-20 -25 -68 -117q-53 -109 -151 -346q-55 -129 -111 -265q-45 -111 -114 -264l2 -2q-27 -63 -68 -63q-61 0 -80 63q-43 115 -98 242 q-51 121 -105 246q-113 268 -172 381q-57 115 -86 147q-27 33 -36 33q-8 0 -29 33z" />
<glyph unicode="w" horiz-adv-x="1857" d="M41 1104q84 -123 121 -123q-20 0 -35 14q14 -14 51 -98q43 -92 150 -377q51 -119 88 -237q53 -160 84 -244q41 -129 155 -129q145 0 222 203h-48q35 119 70 215q59 166 98 338h2q8 2 15 2q0 -27 -28 -35t-46 -8q-35 0 -66 39q57 -170 103 -322q47 -154 121 -381h8 q37 -47 125 -47q90 0 143 115q53 135 92 262q23 80 82 260q102 246 142 344q35 82 53 117l-4 -2q-10 -2 -17 -2q-12 -8 -53 -121q0 53 4 109.5t8.5 95t8.5 67.5t6 39q18 0 55 -2t66 -4q-61 70 -105 70q-27 -4 -67 -13q-6 0 -13 -2q-25 -4 -45 -4q-18 0 -67 4h-7q-12 2 -38 4 q-31 4 -48 6q-37 0 -90 -47q-28 -49 -28 -72q0 -6 -2 -14v-10q0 -106 98 -106q-18 0 -29 6h-4q0 -25 -10 -80q-16 -92 -115 -340q-26 -69 -26 -85q0 -3 -9 -17q34 32 81 32h3q35 -18 41 -45q-55 172 -110 334q-55 160 -97 322q-45 143 -147 143q-121 0 -152 -160 q-18 -117 -90 -303q-67 -176 -112 -334q33 29 59 29q27 0 57 -25q-12 27 -16 43q-8 31 -31 88q-104 242 -118 324l-2 14q-6 43 -7 56h-4h-2q61 25 62 96q0 31 -29 104q-6 10 -24.5 24.5t-51.5 14.5h-6q-12 -2 -18 -2q-16 -2 -56 -6q-16 -2 -36 -4h-17q-47 -4 -67 -4 q-16 0 -62 4h-10q-18 2 -49 4q-27 4 -37 4q-45 0 -94 -45q-29 -53 -29 -96zM121 1120q0 12 12 25q12 14 25 14q53 -4 82 -6h6q53 -4 73 -4q41 0 93 6l32 4q33 4 56 6q6 0 14 2h6q4 0 6 -2q16 -43 17 -59q0 -14 -11 -21q-20 -6 -36 -34q-6 -12 -7 -41q0 -18 7 -68l2 -14 q18 -100 125 -344q18 -43 26 -74q8 -27 21 -55q10 -27 18 -27q10 0 19 31l-15 -4q41 145 113 327q72 186 94 320q16 90 74 90q47 0 67 -82q47 -184 99 -330q55 -158 110 -327q4 -10 13 -17q12 0 20 19q14 37 14 47q0 8 21 55q102 256 121 356q12 61 12 97q0 33 -6 41 q-16 35 -43 34q-18 0 -19 25v10q2 8 2 13q0 10 13 24q12 14 20 14q25 -2 68 -8l12 -2q43 -6 84 -6q39 0 64 6q23 6 65 13q10 0 25 -25q4 -8 10 -12q-2 4 -2 8q-39 -57 -49 -62q-8 -2 -27 -32q-20 -37 -59 -129q-18 -45 -49 -121l-93 -226q-45 -143 -80 -264 q-33 -115 -90 -256q-25 -63 -67 -63q-51 0 -74 47h-2q-45 137 -100 321q-39 133 -103 326q-6 16 -12 16q-8 0 -8 -4q-10 -10 -15 -22q-37 -156 -96 -326q-53 -156 -98 -323h4q-25 -39 -72 -39q-57 0 -80 71q-53 143 -84 246q-35 111 -90 246q-111 295 -149 379 q-47 100 -64 117q-12 12 -26 12q-10 0 -39 61z" />
<glyph unicode="x" horiz-adv-x="1411" d="M41 33q2 -10 2 -15q33 -94 100 -94q63 8 119 8q16 0 62 -2q45 -2 49 -2q25 -2 57 -4q49 -4 57 -4q2 0 9 -2h6q63 0 112 64q25 49 25 69q0 37 -24.5 69t-63.5 32q4 4 4 8q12 -4 12 -23q0 20 11 39q20 59 143 215q-18 -12 -35 -12q-18 0 -41 16q125 -168 146 -231 q10 -20 10 -39q0 18 12 25q6 6 14 6q-37 0 -60.5 -30t-23.5 -67q10 2 33 4q41 -145 109 -145h6q45 6 96 10q23 0 39 2q49 2 64 2q70 0 133 -8q2 0 8 -2h6q41 0 88 37q25 37 35 62.5t10 54.5q-51 72 -86 92q-25 18 -45 39q-33 31 -109 129q-88 121 -212 315q-6 6 -7 15v2 q143 203 207 274q53 59 70 68q-8 -6 -23 -6q-74 0 -73 43q49 -51 49 -52q23 0 125 60q6 8 13 25.5t7 35.5q0 16 -10 51q-47 78 -100 78q-63 -8 -129 -8q-55 0 -103 2q-69 4 -96 6q-2 0 -8 2h-11q-66 0 -94 -65q-14 -35 -14 -70q0 -53 16.5 -80.5t53.5 -42.5q6 -4 10 -10 q-12 6 -13 27q0 -8 -2 -15q-12 -39 -81 -117l6 3q14 2 20 2q31 0 51 -27q-68 100 -88 154q-10 31 -10 53q-4 -8 -8 -10q20 16 24.5 28.5t4.5 40.5q0 -6 -25 -14q-41 145 -111 145q-27 -6 -102 -6q-51 -2 -113 -2h-69q-20 0 -45 2h-27q-68 0 -96 -84l-2 -2q0 -37 18 -78 q63 -82 90 -86q-2 -2 -4 -6q27 -23 82 -96q57 -72 203 -297q-2 2 -2 8v10q-162 -225 -244 -323q-80 -92 -104 -113l4 -2l4 -2q-25 0 -78 -33q-29 0 -36 -23.5t-7 -70.5v-12zM129 41q0 12 4 12q23 33 35 33q14 0 45 25q37 31 115 122q80 96 245 326q16 20 17 41q0 18 -12 37 q-131 207 -207 303q-66 84 -97 111q-27 25 -36 24q-10 0 -31 51q-6 6 -6 13q2 6 2 10q4 12 12 12q6 0 27 -2q25 -2 45 -2h69h113q80 0 111 6q23 0 34 -18q10 -14 11 -31q0 -8 -4 -12q-12 -12 -19 -39q0 -39 12 -86q18 -57 99 -174q6 -10 16 -10q16 0 37 26q82 100 98 146 q6 25 6 39q0 20 -6 26q-14 20 -39 33q-23 12 -22 49q0 20 8 39q6 14 18 14h7l6 -2l10 -2q29 -2 98 -6q47 -2 105 -2q70 0 133 8q10 0 18 -24q6 -12 6 -23q0 -4 -2 -8q-20 -31 -26 -31l-4 4q0 6 -9 6q-12 0 -20 -4q-23 -12 -88 -86q-55 -63 -211 -280q-16 -23 -16 -51 q0 -31 20 -60q139 -217 215 -319q80 -104 119 -142q43 -39 61 -49q16 -8 45 -47q0 -12 -18 -31q-20 -14 -35 -14l-4 2h-6q-63 8 -135 8q-35 0 -109 -6q-51 -4 -96 -10h-6q-23 0 -35 18q-18 29 -18 41q0 14 10 15q27 6 41 26q6 6 6 25q0 27 -14 67q-23 68 -158 252 q-12 16 -25 17q-12 0 -28 -19q-133 -168 -158 -237q-14 -37 -14 -68q0 -25 8 -33q18 -27 47 -37q16 0 16 -18q0 -8 -10 -25q-19 -26 -43 -26h-2h-6q-4 2 -6 2q-8 0 -56 4q-31 2 -55 4q-82 6 -117 6q-59 0 -123 -8q-8 0 -14 21q0 2 -2 10q-2 6 -2 8z" />
<glyph unicode="y" horiz-adv-x="1523" d="M41 1110q51 -94 100 -113q12 -8 29 -39q35 -47 106 -188q72 -143 185 -455q29 -70 61 -163l10 -29q29 -86 41 -115q8 -16 9 -31q0 -2 -2 -4q-2 -6 -7 -16q-2 -2 -4 -6q-55 -94 -100 -129q-43 -31 -76 -43q-37 -14 -61 -17q-63 -8 -111 -71q-14 -12 -18 -25.5t-4 -40.5 q0 -25 12 -55q35 -74 94 -86q4 0 21 -2h22q35 0 84 6q57 8 100 8h13q8 2 16 2q23 0 43 -6q111 0 141 68q92 170 160 434q59 182 144 311q139 348 215 500q70 135 100 172q-2 12 -6 12q55 0 125 119q0 35 -6.5 55.5t-24.5 44.5q-59 47 -90 47q-76 -8 -152 -8q-53 0 -88 2 q-49 2 -90 6q-82 0 -119 -84q-12 -23 -12 -61q0 -100 107 -100q-16 0 -23 6q-2 0 -2 -4q0 -45 -20 -121q-33 -135 -187 -459q16 -8 31 -8q20 0 39 -6q-2 2 -2 4l-2 2q-2 4 -4 10l-4 8q-160 346 -205 482q-31 90 -31 123l2 2q-16 -45 -55 -45h6q4 -2 8 -3q-12 0 -29 -2 q59 0 93 26t34 75q0 10 -8 20q-12 68 -37.5 97.5t-85.5 29.5q-45 -8 -100 -10q-12 0 -25 -2q-51 -2 -73 -2q-33 0 -60 8q-12 4 -18 4q0 12 -32 15.5t-54 3.5q-25 0 -82 -43q-41 -61 -41 -111zM133 1128q0 16 19 37q12 16 20 17q4 0 4 -6q53 -8 80 -15q45 -10 80 -10 q25 0 80 2q12 2 24 2q55 2 101 10q31 0 37 -24q6 -25 6 -41q0 -18 -11 -19q-4 2 -8 2l-6 2h-6q-18 0 -27 -22v-6q-2 -6 -2 -10q0 -37 35 -148q41 -127 207 -489l6 -19q2 -6 6 -14q14 -33 31 -33q16 0 43 55q158 336 190 473q23 84 23 142q0 29 -4 39q-18 39 -53 39 q-25 0 -25 18q0 16 6 27q12 37 41 37l6 -3q35 -2 86 -6q35 -2 92 -2q76 0 156 8q10 0 25 -18q10 -12 10 -31q-25 -53 -43 -53q-20 0 -57 -39q-37 -43 -111 -190q-72 -143 -215 -502q-82 -143 -148 -369q-63 -223 -153 -370q-14 -27 -62 -27q-25 6 -49 6q-8 0 -16 -2h-12 q-33 0 -111 -10q-43 -6 -74 -6h-18q-12 2 -14 2q-18 4 -29 30q-6 14 -6 27q0 10 4 14q25 37 59 43q37 6 76 21q45 16 98 57q57 45 121 154q16 25 25 49v8q2 6 2 10q0 23 -13 60q-14 37 -51 141q-31 90 -61 166q-119 326 -187 461q-72 150 -112 203q-43 59 -68 67 q-27 10 -47 55z" />
<glyph unicode="z" horiz-adv-x="1323" d="M41 23q0 -8 2 -17v-12q31 -94 119 -94q78 4 172 6t235 2q145 -2 416 -2q98 0 152 80q41 57 59 120q10 31 35 60q51 39 51 121q0 113 -119 125q-45 0 -110 -54q-10 -10 -29 -28l-8 -8q-111 -82 -232 -111q-119 -31 -129 -31q-51 0 -73 2q-23 0 -52 -2h-22q41 0 55.5 -14 t14.5 -64q61 109 116 174q84 109 144 201q29 41 92 139q66 98 96 144q98 145 201 272q43 61 43 98q0 53 -26.5 76t-86.5 23q-94 0 -180 -2q-172 -4 -262 -6h-88q-82 -2 -150 -2q-72 0 -78 16q-80 -8 -163 -98q-4 -8 -23 -43q-14 -29 -23 -43q-16 -35 -43 -64 q-32 -34 -32 -81q0 -11 2 -19v-15q25 -70 65 -90q14 -10 29.5 -13t38.5 -3q47 0 90 33q31 25 68 65q29 29 104 60q63 24 168 24h8h35q23 -2 39 -2q4 -2 12 -4q8 0 19 -4q-59 0 -60 68q0 4 4 16q-61 -104 -119 -178q-63 -86 -141 -197q-76 -113 -192 -274q-90 -127 -209 -260 q-35 -43 -35 -90zM123 23q0 20 14 36q121 137 215 267q113 154 195 276q84 121 141 195t125 188q6 12 6 23q0 14 -12 14q-10 4 -19 4q-8 2 -12 4q-20 0 -43 2h-41q-133 0 -207 -31q-100 -41 -133 -79q-23 -29 -59 -58q-20 -14 -39 -14q-18 0 -27 6q-14 6 -24 31q0 2 -2 6 q-2 8 -2 10q0 16 12 29q31 37 53 80q8 14 23 43q18 35 22 43q29 47 56 49l6 14q10 -10 112 -10q68 0 150 2h88q135 4 264 6q86 2 180 2q31 0 31 -16t-25 -45q-109 -135 -206 -281q-88 -131 -187 -284q-82 -121 -141 -195q-66 -82 -129 -193q0 -2 -4 -12l-4 -12q0 -14 14 -14 h72h76q12 0 147 30q135 31 262 127l43 43q29 29 49 29q41 -2 41 -43q0 -39 -24 -62q-45 -47 -60 -98q-14 -51 -49 -98q-31 -45 -84 -45q-272 0 -416 2q-139 0 -232 -3t-177 -7q-25 0 -35 24q0 2 -2 6q-2 6 -2 9z" />
<glyph unicode="{" horiz-adv-x="720" d="M41 868q0 -86 109 -163q35 -14 36 -31q18 -311 82 -529q172 -358 410 -444q-115 201 -197 547q-39 207 -47 446q-2 82 -112 156q-31 10 -31 20q0 12 35 25q104 82 106 156q8 244 47 456q80 348 201 566q-236 -88 -412 -461q-66 -219 -84 -547q0 -12 -39 -33 q-104 -86 -104 -164zM123 868q0 45 72 99q72 53 73 94q16 307 80 528q63 221 150 273q-59 -129 -99 -340q-39 -211 -49 -467q-2 -43 -74 -92q-70 -49 -69 -93q0 -49 72 -92t73 -88q10 -250 49 -457q41 -211 95 -329l-2 -2q-86 53 -148 266q-63 219 -78 512q-2 49 -73 92 q-72 43 -72 96z" />
<glyph unicode="|" horiz-adv-x="311" d="M41 -37h229v1759h-229v-1759zM123 45v1595h65v-1595h-65z" />
<glyph unicode="}" horiz-adv-x="718" d="M41 -303q238 86 410 444q63 217 81 531q0 14 35 26q111 78 111 166q0 78 -105 164q-39 20 -38 33q-18 322 -82 545q-170 369 -410 458q119 -213 195 -561q39 -213 47 -456q4 -72 108 -156q35 -12 35 -25q0 -10 -31 -20q-109 -74 -112 -156q-12 -248 -49 -446 q-82 -352 -195 -547zM221 1860q88 -51 150 -273q63 -225 78 -528q4 -41 73 -94q72 -53 72 -99q0 -53 -72 -96q-70 -43 -73 -92q-14 -293 -78 -512q-61 -213 -148 -266v2q55 123 92 329q37 207 50 457q4 45 73 88q72 43 72 92q0 43 -72 93q-70 49 -73 92q-8 248 -48 467 q-35 207 -96 340z" />
<glyph unicode="~" horiz-adv-x="882" d="M41 1180q111 211 229 360q12 20 25 21q29 0 61 -64q6 -10 15 -24l8 -13q0 -47 170 -278v53q23 72 39 72q76 0 147 75q61 74 107 152v39v14v15v317q-111 -217 -230 -369q-12 -20 -24 -20q-27 0 -60 63q-16 23 -36 54q-115 250 -158 368v-155q-20 -76 -39 -76 q-74 0 -148 -76q-61 -72 -106 -152v-36v-17v-14v-309zM121 1475v12v14v15v14q45 74 86 121q43 49 86 49q57 0 121 -88v2q4 -2 6 -12q10 -14 39 -58q72 -98 129 -98q43 0 86 47q41 45 86 121v-15v-12v-14v-14q-45 -74 -86 -121q-43 -49 -86 -49q-53 0 -121 88v-2q-6 10 -6 12 l-2 2q-14 23 -37 55q-70 100 -129 101q-43 0 -86 -50q-41 -47 -86 -120z" />
<glyph horiz-adv-x="518" d="M41 1538q0 -122 57 -192q80 -88 142 -89q59 0 73.5 23t14.5 68q0 29 -29 88q12 -37 25 -117q-27 66 -66 65q90 0 156 66q63 63 63 156q0 92 -63 155q-66 66 -156 66q-182 0 -213 -211q-4 -27 -4 -78zM125 1540q0 43 4 66q18 141 131 141q57 0 98 -41q39 -39 39 -98 t-39 -99q-41 -41 -98 -41q-35 0 -61 15q16 -63 26 -86q20 -35 21 -49q0 -8 -6 -9q-33 0 -76 58l2 2q-41 51 -41 141z" />
<glyph horiz-adv-x="520" d="M41 1610q0 -92 63 -156q66 -66 156 -65q-39 0 -74 -68q23 86 33 115q-31 -68 -31 -84q0 -47 26 -68.5t65 -21.5q59 0 139 88q61 68 61 194q0 49 -4 76q-31 211 -215 211q-90 0 -156 -66q-63 -63 -63 -155zM123 1610q0 59 39 98q41 41 98 41q115 0 133 -141q4 -23 4 -64 q0 -94 -43 -143l4 -2q-43 -57 -75 -58q-8 0 -9 9q0 10 23 49q10 29 25 86q-27 -14 -62 -15q-57 0 -98 41q-39 39 -39 99z" />
<glyph horiz-adv-x="819" d="M41 1536q0 -123 57 -193q80 -88 142 -88q59 0 73.5 22.5t14.5 68.5q0 29 -29 88q12 -37 25 -117q-27 66 -66 65q90 0 156 66q63 63 63 156q0 92 -63 155q-66 66 -156 66q-182 0 -213 -211q-4 -27 -4 -78zM125 1538q0 43 4 66q18 141 131 141q57 0 98 -41q39 -39 39 -98 t-39 -99q-41 -41 -98 -41q-35 0 -61 15q16 -63 26 -86q20 -35 21 -49q0 -8 -6 -9q-33 0 -76 58l2 2q-41 51 -41 141zM340 1540q0 -126 61 -194q80 -88 140 -89q59 0 73.5 23t14.5 68q0 29 -29 88q12 -37 25 -117q-27 66 -66 65q90 0 156 66q63 63 63 156q0 92 -63 155 q-66 66 -156 66q-182 0 -213 -211q-6 -27 -6 -76zM424 1542q0 41 4 64q18 141 133 141q57 0 98 -41q39 -39 39 -98t-39 -99q-41 -41 -98 -41q-35 0 -61 15q16 -63 26 -86q20 -35 21 -49q0 -8 -6 -9q-33 0 -76 58l2 2q-43 49 -43 143z" />
<glyph horiz-adv-x="815" d="M41 1610q0 -92 63 -156q66 -66 156 -65q-39 0 -74 -68q23 86 33 115q-31 -68 -31 -84q0 -47 26 -68.5t65 -21.5q59 0 139 88q61 68 61 194q0 49 -4 76q-31 211 -215 211q-90 0 -156 -66q-63 -63 -63 -155zM123 1610q0 59 39 98q41 41 98 41q115 0 133 -141q4 -23 4 -64 q0 -94 -43 -143l4 -2q-43 -57 -75 -58q-8 0 -9 9q0 10 23 49q10 29 25 86q-27 -14 -62 -15q-57 0 -98 41q-39 39 -39 99zM338 1612q0 -92 63 -156q66 -66 154 -65q-41 0 -72 -68q23 86 33 115q-31 -68 -31 -84q0 -47 26 -68.5t64 -21.5q58 0 140 88q59 66 59 192q0 51 -4 78 q-31 211 -215 211q-88 0 -154 -66q-63 -63 -63 -155zM420 1612q0 59 39 98q41 41 96 41q115 0 133 -141q4 -23 4 -66q0 -94 -41 -141l2 -2q-45 -57 -75 -58q-8 0 -9 9q0 10 23 49q10 29 24 86q-27 -14 -61 -14q-55 0 -96 40q-39 39 -39 99z" />
<glyph unicode="&#xa3;" horiz-adv-x="1513" d="M41 37q0 -35 22 -70q43 -55 103 -55q238 14 448 18q152 0 269.5 -3t246.5 -11q111 0 152 90q0 2 2 6q23 51 33 84q8 23 22 60l9 18q20 43 41 70q35 43 63 96q14 18 17.5 33.5t3.5 40.5q0 23 -11 53q-31 78 -119 78q-123 0 -176 -99q-63 -88 -184 -112q-141 -29 -348 -33 q-6 0 -6 -20q0 2 2 8v6q23 106 41 170q29 109 28 209q0 6 7 18h-9h314l-74 228h-281q-14 49 -34 112t-21 137q0 74 41 146q20 45 72 80q39 33 63 39q31 6 94 6q37 0 80 -17v27q0 10 -8 33q-57 -82 -57 -183q0 -123 82 -208q84 -90 202 -91q115 0 201 91q82 86 82 208 q0 82 -37 150q-74 158 -252 252q-174 90 -383 90q-219 0 -376 -106q-147 -88 -205 -213h-6q-68 -172 -72 -304q0 -88 27 -184q4 -14 10 -33q4 -18 8 -32h-88l74 -228h63q-4 -12 -4 -18q0 -147 -47 -295q-51 -158 -107 -279q-18 -16 -18 -63zM125 37q0 12 4 16 q68 145 117 301q49 158 49 320q0 39 -10 100l-6 4h-72l-21 64h80q-29 115 -45 170q-23 80 -22 162q4 98 49 221h2q59 135 196 227q139 92 332 92q190 0 344 -80q152 -80 217 -215q29 -53 29 -112q0 -88 -59 -154q-57 -63 -142 -63q-84 0 -141 63q-59 66 -59 154q0 70 41 133 q25 31 24 39q-2 4 -49 26q-57 23 -111 23q-74 0 -110 -6q-37 -6 -96 -54q-70 -47 -97 -110q-49 -88 -49 -182q0 -82 25 -162q29 -86 49 -172h285l20 -64h-201h-92q12 -63 12 -100q0 -94 -24 -186q-25 -92 -43 -185q0 -4 -2 -12v-10q0 -61 88 -62q207 4 367 35 q154 31 235 150q31 59 107 59q31 0 43 -27q6 -12 6 -22q0 -18 -9 -29q-31 -57 -57 -92q-35 -45 -53 -88q-8 -16 -27 -66q-2 -8 -6 -18q-4 -8 -6 -19q-18 -49 -27 -65q-20 -43 -75 -43q-129 8 -248 11t-273 3q-211 -2 -448 -18q-18 0 -33 20q-8 10 -8 23z" />
<glyph unicode="&#xad;" d="M41 438h1034v221h-1034v-221zM123 520v58h870v-58h-870z" />
<glyph unicode="&#x2000;" horiz-adv-x="1042" />
<glyph unicode="&#x2001;" horiz-adv-x="2085" />
<glyph unicode="&#x2002;" horiz-adv-x="1042" />
<glyph unicode="&#x2003;" horiz-adv-x="2085" />
<glyph unicode="&#x2004;" horiz-adv-x="695" />
<glyph unicode="&#x2005;" horiz-adv-x="521" />
<glyph unicode="&#x2006;" horiz-adv-x="347" />
<glyph unicode="&#x2007;" horiz-adv-x="347" />
<glyph unicode="&#x2008;" horiz-adv-x="260" />
<glyph unicode="&#x2009;" horiz-adv-x="417" />
<glyph unicode="&#x200a;" horiz-adv-x="115" />
<glyph unicode="&#x2010;" d="M41 438h1034v221h-1034v-221zM123 520v58h870v-58h-870z" />
<glyph unicode="&#x2011;" d="M41 438h1034v221h-1034v-221zM123 520v58h870v-58h-870z" />
<glyph unicode="&#x2012;" d="M41 438h1034v221h-1034v-221zM123 520v58h870v-58h-870z" />
<glyph unicode="&#x2013;" horiz-adv-x="1106" d="M41 438h1024v221h-1024v-221zM122 520v58h862v-58h-862z" />
<glyph unicode="&#x2014;" horiz-adv-x="2130" d="M41 438h2048v221h-2048v-221zM203 520v58h1724v-58h-1724z" />
<glyph unicode="&#x202f;" horiz-adv-x="417" />
<glyph unicode="&#x205f;" horiz-adv-x="521" />
<glyph unicode="&#x25fc;" horiz-adv-x="1249" d="M0 0v1249h1249v-1249h-1249z" />
</font>
</defs>
</svg>
