<?xml version="1.0" standalone="no"?>
<!DOCTYPE svg PUBLIC "-//W3C//DTD SVG 1.1//EN" "http://www.w3.org/Graphics/SVG/1.1/DTD/svg11.dtd" >
<svg xmlns="http://www.w3.org/2000/svg">
<metadata></metadata>
<defs>
<font id="boltonlightitalicregular" horiz-adv-x="878" >
<font-face units-per-em="2048" ascent="1638" descent="-410" />
<missing-glyph horiz-adv-x="1024" />
<glyph horiz-adv-x="0" />
<glyph horiz-adv-x="682" />
<glyph unicode=" "  horiz-adv-x="1024" />
<glyph unicode="&#x09;" horiz-adv-x="1024" />
<glyph unicode="&#xa0;" horiz-adv-x="1024" />
<glyph unicode="!" horiz-adv-x="585" d="M41 106q0 -27 14 -51q23 -29 64 -28q45 0 86 34q45 35 53 84q4 10 4 27q0 29 -16 51q-25 31 -64 31q-45 0 -86 -37q-41 -31 -53 -86q-2 -8 -2 -25zM154 375q41 18 45 18q12 0 61 -22q43 188 94 356q78 258 113 387q78 299 78 461q0 129 -29 133q-39 0 -102 -119 q-72 -154 -135 -485z" />
<glyph unicode="&#x22;" horiz-adv-x="247" d="M41 1509q20 0 33 74l20 98h-18l-25 -108q0 -6 -2 -23q-4 -20 -4 -28q0 -12 -4 -13zM154 1509q20 0 32 74l21 98h-19l-24 -110q-6 -23 -6 -51q0 -10 -4 -11z" />
<glyph unicode="#" horiz-adv-x="925" d="M41 444h281l-119 -323h2l119 323h202l-116 -323l118 323h308l2 7h-310l74 204h281l2 7h-281l125 342h-2l-125 -342h-203l125 342h-4l-123 -342h-309v-7h307l-71 -204h-283v-7zM324 451l71 204h207l-74 -204h-204z" />
<glyph unicode="$" horiz-adv-x="1056" d="M41 186q0 -6 4 -10q100 -111 330 -145l-70 -221h-10l72 221q33 -2 108 -2q154 0 326 110q174 111 207 279q8 31 8 88q0 133 -92 184q-152 84 -308 119l82 258q82 -25 158 -80q66 -45 96 -106q2 -4 2 -11q8 -31 15 -47q4 27 10 27q20 0 20 22q-4 57 -10 84q-8 31 -8 88 q0 10 -18 17q-31 12 -54 24q-74 33 -190 48l74 233h8l-72 -238q-8 0 -22 5q-29 4 -48 6l-4 -4q-23 8 -69 8q-100 0 -207 -43q-121 -53 -152 -199q-8 -37 -8 -55q0 -39 21 -72q41 -57 108 -76q47 -27 86 -39q86 -25 131 -36l-164 -512q-133 41 -186 135q-47 80 -57 164 q-4 16 -8 69q0 20 -25 21q-18 0 -25 -17q-2 -18 -6 -32q-6 -37 -8 -50q-8 -27 -18 -79l-2 -13q-6 -23 -15 -61l-6 -29q-4 -12 -4 -33zM387 961q0 2 2 8v6q12 63 78 86q53 18 123 24q58 0 117 -20l-84 -260q-23 6 -41 10q-51 12 -66 19q-47 16 -88 53q-41 33 -41 74zM391 109 l166 516q109 -31 148 -45q70 -49 94 -95q20 -37 20 -82q0 -33 -8 -59q-29 -113 -123 -178q-98 -10 -172 -10q-12 0 -15 -25t-3 -41q0 4 3 9t5 5q-39 0 -80 2q-23 3 -35 3z" />
<glyph unicode="%" horiz-adv-x="1261" d="M41 27h33l1147 1142q-195 -76 -336 -75q-121 0 -277 61q113 -82 113 -201q0 -18 -8 -59q-25 -111 -121 -188q-94 -78 -199 -78q-104 0 -160 71q-37 53 -36 119q0 41 6 64q25 111 116 186q96 80 201 80q45 0 96 -21q16 -2 19.5 -3t3.5 -5q127 -53 252 -53q123 0 287 57 l4 9h12q-4 6 -10 12q-8 8 -8 16v-28h-21l16 18v-4q-2 14 -6 14q0 -2 13 -2zM299 793q0 -37 10 -78q31 -88 94 -90q63 0 121 75q57 72 76 183q16 66 16 133v24q-2 16 -2 21q-12 94 -104 94q-82 0 -135 -86q-43 -80 -64 -176q-12 -51 -12 -100zM487 209q0 39 7 59 q25 113 118 189q97 80 201 80q100 0 158 -74q39 -51 39 -123q0 -37 -6 -57q-25 -109 -119 -185q-94 -78 -201 -78q-98 0 -158 74q-39 51 -39 115zM592 182q0 -55 8 -80q29 -84 96 -88q66 0 121 76q57 76 78 182q14 70 14 129v27q-2 20 -2 23q-12 92 -104 92q-84 0 -135 -84 q-47 -86 -66 -176q-10 -45 -10 -101z" />
<glyph unicode="&#x26;" horiz-adv-x="1239" d="M41 467q0 -4 2 -23v-22q23 -223 203 -324q109 -61 235 -61q88 0 197 33q4 0 10 2h8q39 0 52 -35q2 -8 14 -8q104 12 186 12q96 0 197 -12v-13l-2 4t-2 5q-12 41 -23 41q-31 0 -108 104v10q-2 6 -2 8q0 23 34 54q33 25 78 65l4 2q27 16 27 27q0 63 10 123q14 84 25 119 l2 4v4q0 -10 10 -11q-4 0 -8 -2q-8 -2 -12 -2h2q-14 -6 -19 -24l-2 -25q-47 -100 -139 -205q-39 -33 -59 -32l-15 12q-8 10 -20 35q-31 84 -80 203q-63 147 -117 296q-10 31 -24 74q-12 41 -21 66q-20 53 -37 98v6l-2 4q0 4 -2 8v7q0 43 51 55q35 10 103 10q72 0 129 -16 q111 -27 188 -99q6 -12 16 -12l9 2q4 0 4 -2q0 8 -6 15q-41 55 -68 120q-2 10 -10 25l-4 6q-8 6 -31 6q-41 10 -125 10q-119 0 -217 -34q-12 -4 -31 -4q-41 0 -63 49q-8 31 -19 67q-6 14 -14 35q0 8 -6 33q-4 33 -6 45v20q-2 14 -2 17q0 31 8 45q23 39 63 57q12 10 39 10 q33 0 66 -30q45 -41 57 -78q0 -2 2 -8v-11q0 -12 -10 -36q-16 -29 -16 -48q0 -2 2 -10t2 -10v-6v-4q8 0 12 2q20 8 31 28q18 63 67 101q43 33 74 76q18 23 18 43q0 4 -2 10t-2 8q-2 6 -2 14q-20 53 -55 74q-37 25 -84 25q-12 4 -39 4q-37 0 -78 -12q-190 -55 -252 -187 q-33 -82 -32 -172q0 -72 18 -158q8 -16 8 -39q0 -45 -45 -77q-160 -102 -262 -281q-88 -156 -88 -305zM279 588q0 80 16 172q31 129 102 215q23 27 45 45q-12 0 -12 2q37 0 70 -45q8 -27 24 -64q2 -6 13 -36q10 -33 12 -39q96 -291 133 -424q39 -123 63 -209q0 -2 3 -10v-13 q0 -55 -68 -65h-21q-18 -2 -20 -2q-129 0 -227 92q-113 109 -129 295q-4 29 -4 86z" />
<glyph unicode="'" horiz-adv-x="135" d="M41 1509q20 0 33 74l20 98h-18l-25 -108q0 -6 -2 -23q-4 -20 -4 -28q0 -12 -4 -13z" />
<glyph unicode="(" horiz-adv-x="503" d="M41 238q0 -228 18 -277q-4 86 -4 166q0 84 6 182q18 254 91 578q74 322 167 573q76 211 144 326q-63 -51 -137 -273q-121 -262 -207 -639q-78 -358 -78 -636z" />
<glyph unicode=")" horiz-adv-x="505" d="M41 -8q63 49 137 276q123 256 209 639q39 172 58.5 327t19.5 310q0 227 -25 277q8 -63 9 -170q0 -82 -7 -181q-18 -274 -90 -575q-74 -326 -168 -573q-69 -203 -143 -330z" />
<glyph unicode="*" horiz-adv-x="382" d="M41 1395l12 -15q0 6 25 19q27 29 96 88q8 8 19 16q-49 68 -70 109q-10 16 -10 24q0 -16 -13 -16l4 2q19 0 91 -113q29 168 41 168q-18 0 -19 2q0 -47 -22 -176q123 119 147 119l-10 12q0 -4 -27 -16q-51 -51 -115 -107q41 -53 70 -108q12 -12 12 -19l9 7l2 4 q-23 0 -90 110q-33 -166 -46 -166q20 0 21 -6q0 39 27 176q-133 -115 -154 -114z" />
<glyph unicode="+" d="M41 547h397l-90 -406h2l90 406h396l2 6h-396l90 408h-2l-92 -408h-397v-6z" />
<glyph unicode="," horiz-adv-x="296" d="M41 102q0 -29 14 -49q23 -29 62 -28q4 0 37 -29q12 -8 12 -31q0 -27 -41 -96q-25 -25 -25 -31l-14 12q22 1 59 52q37 37 66 100q33 63 43 135q0 8 2 17v14q0 84 -76 84q-43 0 -88 -35q-41 -37 -49 -86q-2 -10 -2 -29z" />
<glyph unicode="-" d="M41 547h795l2 6h-797v-6z" />
<glyph unicode="." horiz-adv-x="303" d="M41 106q0 -27 14 -51q23 -29 64 -28q45 0 86 34q45 35 53 84q4 10 4 27q0 29 -16 51q-25 31 -64 31q-45 0 -86 -37q-41 -31 -53 -86q-2 -8 -2 -25z" />
<glyph unicode="/" horiz-adv-x="995" d="M41 72h4l909 1544h-6z" />
<glyph unicode="0" horiz-adv-x="1380" d="M41 623q0 -201 92 -359q139 -238 361 -237q227 0 475 223q250 227 338 614q33 135 32 256q0 205 -98 348q-153 222 -362 222q-213 0 -469 -246q-262 -244 -342 -592q-27 -129 -27 -229zM258 522q0 154 49 338q78 295 209 524q138 228 326 230q197 0 248 -223 q18 -63 18 -164q0 -170 -59 -379q-92 -317 -230 -506q-143 -233 -305 -248q-92 0 -147.5 56.5t-85.5 173.5q-23 96 -23 198z" />
<glyph unicode="1" horiz-adv-x="800" d="M41 2h2q18 49 37 53q37 4 80 62q33 45 88 219q49 145 123 487q25 111 39 168q4 14 20 86t19 86q0 41 -35 60q-2 0 -13 2h-14q-23 0 -33 -8q-45 -25 -69 -35q-27 -12 -76 -45l-4 -4l-10 -7q-8 -4 -15 -4q-4 0 -12 -2h-8h-13q-16 10 -16 19q0 2 4 6q6 14 23 29l2 2 q59 43 145 94q109 61 160 112q86 109 117 156q18 16 55 53q23 23 53 51q16 23 23 27q18 6 47 6q-2 0 -2 -4v-4q-2 -6 -2 -8q-8 -25 -27 -51q-6 -23 -14 -60q-14 -66 -25 -104l-26 -107l-31 -131q-31 -147 -55 -256l-15 -53q-20 -78 -26 -109q-80 -346 -97 -505 q-6 -63 -6 -111q0 -59 10 -86q27 -49 64 -49l14 4q-16 0 -16 -2v-8q-2 -6 -2 -8q-2 -2 -12 -3q-59 8 -105 11q-41 2 -108 2q-29 0 -103 -4h-14q-68 -6 -119 -13q-2 0 -2 -14z" />
<glyph unicode="2" horiz-adv-x="1413" d="M41 25q205 16 389 18q127 0 228.5 -3t211.5 -11q35 0 56 30q25 39 45 82q31 61 45 84q4 4 10 11q37 33 59 47q31 43 68 120q10 14 10 25v6l-2 4q0 4 -2 4q-51 0 -86 -51q-121 -150 -303 -170q-176 -20 -410 -24q-27 0 -43 18l-6 14q0 14 25 52q117 123 282 215 q109 59 318 186q147 90 270 207q115 106 150 268q16 70 16 133q0 53 -4 80h-2q-25 141 -137 232q-106 88 -285 88q-231 0 -424 -125t-235 -320q-10 -61 -11 -102q0 -150 113 -238q12 -10 21 -12q4 -2 14 -10q33 -16 90 -17q176 0 252 105q2 6 8 20l2 8h6q-4 -8 -4 -10 q0 4 2 12v9q0 12 -14 12q-10 0 -21 -12q-90 -61 -186 -62q-47 0 -84 33q-31 23 -43 45h-4q-18 49 -18 104q0 39 10 97q29 125 147 225q121 100 248 100q78 0 111 -8q39 -10 94 -61q59 -51 78 -121q18 -49 18 -109q0 -57 -18 -123q-25 -84 -84 -169q-41 -61 -113 -146 q-57 -51 -115 -96q-6 -4 -20 -14q-66 -51 -100 -72q-10 -6 -27 -15q-31 -16 -41 -24l-2 -2q-199 -121 -318 -246q-133 -143 -231 -301l-2 -2q-2 -4 -2 -8l2 -4q2 -6 2 -8q0 2 -4 2z" />
<glyph unicode="3" horiz-adv-x="1490" d="M41 371q0 -113 86 -215q113 -131 330 -131q102 0 237 51q133 53 252 139q113 82 209 199q86 102 121 223q29 102 29 205q0 100 -29 178q-51 158 -215 207q-45 14 -45 49l4 -10q2 2 2 8q14 39 22 53q88 82 175 156q35 27 69 57q90 72 119 94q31 25 37 47q0 2 2 7v4 q0 -6 4 -6q-203 -12 -408 -13q-115 0 -208 3t-199 12q-8 0 -19 -11q-12 -12 -24 -28q-94 -129 -203 -232q-18 -18 -29 -51q-2 -4 -2 -10q0 8 -6 8q59 0 111 63q68 74 260 95q66 10 182 10q78 0 129 -8q18 -2 37 -8h4l15 -15q0 -16 -35 -63q-117 -109 -199 -176 q-121 -98 -209 -162q-27 -18 -31 -47q0 -4 -2 -9v-6q0 12 -8 13q25 0 62 12q41 18 84 18q182 0 264 -147q45 -80 45 -168q0 -78 -35 -172q-43 -184 -192 -330q-150 -150 -334 -149q-143 0 -219 106q-51 72 -52 162q0 31 7 68q12 115 69 174q27 35 98 67q47 25 54 51q2 2 2 7 q0 2 2 4q0 -6 12 -6q-16 14 -72 14q-51 -4 -86 -21q-219 -86 -268 -303q-6 -23 -6 -67z" />
<glyph unicode="4" horiz-adv-x="1347" d="M41 371q0 -10 20 -13h682q27 0 39 -2q25 0 30 -9t5 -36q0 -23 -6 -37q-23 -78 -45 -112q-23 -55 -51 -74q-2 -2 -10 -6q-23 -12 -37 -16q-23 -10 -56 -58q0 -23 -2 -22q0 23 -2 32v-2q49 6 117 13h18q74 4 97 4q57 0 106 -10q12 -2 41 -5q35 -4 55 -6q8 0 13 4q0 6 2 15 v6v6q-14 14 -23 25q-18 20 -30 61q-4 12 -5 51q0 39 7 96q0 16 22 50q23 33 68 32h61q37 0 43 35l14 60q0 2 3 8v8q0 10 -21 10h-72q-76 0 -75 51l2 9q2 29 6 47q10 53 24 108q6 31 13 54q16 76 20 98q23 88 49 201q27 113 49 200l15 60q47 207 73 311q4 0 4.5 4t0.5 29v8 q2 8 2 14q0 12 -9 13q-59 -4 -98 -64q-252 -303 -534 -596q-189 -192 -570 -573q-39 -31 -55 -76v-6zM281 508q4 29 24 49q154 174 305 328q163 162 310 334q18 18 36 34q10 12 16.5 15.5t16.5 3.5q33 0 33 -41q0 -20 -8 -45q-10 -39 -21 -90q-12 -51 -22 -90 q-6 -23 -19 -82q-14 -63 -22 -101l-12 -61q-14 -72 -17 -80q-14 -76 -24 -127q-25 -74 -66 -74q-20 -2 -41 -2l-434 -10h-6q-6 -2 -8 -2q-41 0 -41 41z" />
<glyph unicode="5" horiz-adv-x="1404" d="M41 266q0 -119 92 -184q133 -90 359 -90q242 0 462 188q227 184 271 436q25 96 24 177q0 160 -88 268q-135 168 -366 170q-125 -6 -242 -47q-14 -4 -33 -4q-41 0 -41 43q2 6 2 10q8 18 15 47q2 16 10 53q0 2 2 13q6 18 6 24l6 21l4 18q0 16 2 29q6 35 64 41q74 6 219 6 q152 0 293 -12h2l6 -3h2h45q20 4 41 35q45 70 148 168l6 6q12 8 12 13q0 2 -2 4l-2 2q-2 -2 -14 -2q-10 -4 -29 -15q-2 -2 -6 -4q-23 -16 -54 -22q-102 -14 -229 -15q-20 0 -61 2q-43 2 -66 3q-92 4 -252 18q-18 0 -88 6v2q-35 0 -51 4h4q-12 0 -16 -4q-6 -2 -6 -10 q-16 -86 -25 -164l-2 -10q-14 -96 -27 -146q-12 -59 -45 -178q-33 -96 -49 -159q-6 -25 -18 -78v-8q-2 -6 -2 -9q0 -12 18 -12q12 0 41 21q41 33 127 79q70 39 154 39q39 0 73 -8q152 -20 228 -147q49 -80 49 -195q0 -57 -17 -135q-43 -205 -174 -328q-133 -125 -288 -145 q-18 -2 -56 -2q-139 0 -211 92q-51 68 -51 156q0 39 8 71q47 205 240 254h4q18 4 20 23q0 4 3 8v6q0 6 -11 6q-10 0 -24 2h-21q-125 0 -223 -67q-117 -80 -160 -258q-12 -55 -12 -103z" />
<glyph unicode="6" horiz-adv-x="1267" d="M41 487q0 -186 94 -305q139 -186 402 -186v2q27 0 41 -2h-7q176 2 375 174q207 166 258 405q23 82 23 166q0 154 -90 250q-131 141 -367 142q-23 0 -29 -7q-174 -184 -352 -317q-18 -18 -45 -18q-16 0 -26.5 13t-10.5 30q45 184 152 323q98 131 217 232q127 104 225 155 l37 21q106 55 147 71q35 0 54 19q2 0 4 2q0 2 2 6v6q0 10 -35 10q-139 0 -311 -94q-166 -90 -326 -235q-154 -139 -266 -308q-106 -156 -135 -307q-31 -150 -31 -248zM272 453q0 31 7 57q29 152 161 283q137 133 289 133q158 0 234 -129q53 -84 53 -191q0 -53 -15 -108 q-37 -168 -167 -293q-135 -123 -285 -123q-156 0 -225 170q-51 117 -52 201z" />
<glyph unicode="7" horiz-adv-x="1304" d="M41 25q6 0 6 -13v6q-2 6 -2 7v6q182 350 442 698q283 385 498 684q16 23 16 41q0 49 -57 49q-96 10 -196 10q-115 0 -179 -6q-233 -14 -321 -131q-45 -66 -105 -65h-8v4l-2 4q0 12 12 24q45 51 113 148q63 90 92 149q12 27 47 43q31 18 58 19h4h4q250 -12 377 -19 q33 0 96 -2t94 -2q131 0 197 4q8 2 30 3q6 0 7 6q0 -8 -9 -17q-270 -385 -510 -776q-256 -426 -428 -844q-8 -33 -34 -32h-4q-4 2 -7 2q-45 10 -114 10q-76 0 -117 -10z" />
<glyph unicode="8" horiz-adv-x="1271" d="M41 381q0 -139 90 -229q133 -127 358 -127q227 0 439 151q211 152 254 350q14 57 14 119q0 88 -33 162q-53 127 -170 194q-47 31 -47 54q0 14 19 30q12 8 30 21q18 12 19 12q90 72 137 121q59 59 74 133q6 20 6 58q0 94 -74 167q-96 101 -278 101q-186 0 -338 -107 q-150 -106 -185 -252q-12 -70 -12 -120q0 -43 8 -68q16 -57 47 -92q27 -27 47 -37q18 -8 22.5 -16.5t4.5 -20.5q0 -20 -27 -41q-125 -80 -245 -196q-113 -111 -148 -250q-12 -61 -12 -117zM229 399q0 37 7 76q23 152 131 309q113 162 225 162q20 0 96 -33q68 -29 143 -92 q72 -59 119 -151q29 -57 29 -117q0 -47 -14 -90q-74 -219 -191 -297q-119 -80 -258 -88q-80 0 -133 28.5t-92 88.5q-61 92 -62 204zM528 1358q0 4 2 16t2 17q25 104 121 184q92 72 201 72q82 -2 164 -76q63 -57 63 -139q0 -33 -6 -50q-23 -84 -82 -153q-66 -113 -145 -129 q-88 0 -213 88q-106 82 -107 170z" />
<glyph unicode="9" horiz-adv-x="1269" d="M41 31q0 -8 35 -8q145 0 321 90q193 100 355 237q180 139 292 279q121 178 146 336q39 154 39 280q0 166 -70 273q-119 180 -395 182q-172 0 -402 -170q-227 -166 -264 -432q-18 -96 -18 -152q0 -160 106 -260q162 -143 349 -143q12 0 24 4q47 86 90 133q41 41 154 115 q18 18 45 18q39 0 39 -45q-51 -133 -156 -233q-102 -135 -219 -238q-121 -90 -227 -145l-11 -5q-127 -66 -170 -84h-4q-45 -12 -53 -20q-4 -4 -4 -6v-2zM291 1120q0 4 2 25v24q6 197 143 324q111 104 254 104q37 0 68 -8q188 -31 215 -200q23 -106 22 -197v-27 q-2 -20 -2 -22l-2 -10q-6 -51 -8 -80q-6 -51 -31 -88q-37 -55 -151 -117q-115 -61 -221 -66q-289 0 -289 338z" />
<glyph unicode=":" horiz-adv-x="501" d="M41 106q0 -27 14 -51q23 -29 64 -28q45 0 86 34q45 35 53 84q4 10 4 27q0 29 -16 51q-25 31 -64 31q-45 0 -86 -37q-41 -31 -53 -86q-2 -8 -2 -25zM240 987q0 -29 14 -49q23 -29 63 -29q45 0 86 35q45 35 54 86q4 8 4 23q0 27 -17 53q-24 31 -63 31q-45 0 -86 -35 t-53 -86q-2 -10 -2 -29z" />
<glyph unicode=";" horiz-adv-x="499" d="M41 102q0 -29 14 -49q23 -29 62 -28q4 0 37 -29q12 -8 12 -31q0 -27 -41 -96q-25 -25 -25 -31l-14 12q22 1 59 52q37 37 66 100q33 63 43 135q0 8 2 17v14q0 84 -76 84q-43 0 -88 -35q-41 -37 -49 -86q-2 -10 -2 -29zM240 983q0 -29 14 -49q23 -29 61 -29q45 0 86 35 q45 35 54 84q4 10 4 29q0 29 -17 47q-26 33 -65 33q-45 0 -86 -37q-39 -33 -49 -84q-2 -10 -2 -29z" />
<glyph unicode="=" horiz-adv-x="925" d="M41 444h795l2 7h-797v-7zM88 655h795l2 7h-797v-7z" />
<glyph unicode="?" horiz-adv-x="1081" d="M41 106q0 -27 16 -49q25 -31 64 -30q47 0 88 34q41 33 53 86q4 8 4 25q0 31 -18 51q-21 31 -64 31q-45 0 -88 -37q-41 -31 -53 -86q-2 -8 -2 -25zM68 1346q0 -35 20 -70q31 -41 90 -41q61 0 119 47q59 47 72 115q6 14 6 37q0 40 -29 75q74 49 178 76q23 8 62 8 q55 0 104 -26q74 -37 98 -144q8 -18 9 -65q0 -94 -47 -230q-70 -219 -162 -286q-92 -68 -180 -107q-78 -23 -154 -76q-63 -72 -96 -284q41 18 45 18q8 0 57 -22q59 227 152 278q96 57 206 82q102 20 207 92q104 70 185 336q31 98 30 182q0 111 -53 199q-92 150 -332 150 q-23 8 -75 8q-115 0 -267 -64q-205 -84 -241 -252q-4 -12 -4 -36z" />
<glyph unicode="@" horiz-adv-x="1349" d="M41 594q0 -188 72 -330q117 -238 356 -237q123 0 242 63q102 49 190 135q-100 0 -162 -55q-98 -59 -239 -59q-233 0 -318 229q-41 121 -41 260q0 121 31 262q66 281 244 486q180 254 407 254q233 0 326 -228q51 -121 51 -272q0 -121 -33 -252q-32 -154 -108 -291 q2 6 2 10q0 -14 -8 -20q4 2 16 12q10 10 16 12h-18q-78 -160 -131 -159q-43 0 -59 59q-4 12 -5 43q0 18 7 59l2 15q2 14 10 51q4 29 12 59q2 8 17 70q23 98 30 135q18 72 25 109q4 4 6 12q2 2 6 12q0 6 6 21v-4q-68 49 -131 69q-80 23 -151 23q-135 0 -299 -107v-2l-2 -4 q0 -2 4 -6q6 -10 10 -10q-2 0 -2 -2q113 94 266 94q49 -4 94 -14q70 -12 82 -54q6 -12 6 -38v-11q-2 -10 -2 -14q-12 -70 -90 -70q-23 0 -33 2q-8 2 -22 2q-162 0 -301 -57q-125 -55 -168 -248q-6 -23 -6 -61q0 -88 82 -121q63 -25 116 -25q63 0 156 31q47 16 86 17 q35 0 64 -17q41 -27 73 -41q29 -37 86 -49q59 0 121 57q74 70 115 148q47 80 86 178q31 72 47 137q29 117 29 238q0 193 -84 348q-129 238 -371 238q-244 0 -473 -244q-231 -244 -311 -592q-29 -139 -29 -256zM389 596q0 25 6 51q25 102 113 178t274 78q2 0 6 -2 q14 -4 19 -6q10 0 19.5 -13.5t9.5 -31.5q0 -2 -2 -10q-2 -10 -3 -17q-4 -10 -6 -18q-14 -43 -20 -64q-8 -33 -19 -61q-6 -27 -14 -72q-18 -72 -55 -94q-8 -8 -21 -14l-4 -2q-14 -8 -20 -11q-80 -41 -142 -41q-49 0 -86 27q-55 49 -55 123z" />
<glyph unicode="A" horiz-adv-x="1583" d="M41 16q0 14 2 15q29 2 49 2q37 2 49 2q12 2 25 2q12 0 22 2q18 4 54 4q82 4 112 25q29 18 37 104q4 51 84 190q23 41 60 41h684q47 0 57 -63q8 -55 8 -127q0 -10 -2 -25v-16q-14 -57 -14 -96q0 -20 4 -29q14 -8 63 -8q10 0 31 2q27 2 41 2q12 2 43 2q29 0 49 -6 q8 -2 19 -2q24 0 24 32q0 8 -2 19q-2 14 -2 21q-27 133 -51 229q-29 119 -45 260l-19 129q-4 25 -12 72q-6 41 -10 61l-115 795l2 10q0 10 2 10q-29 -4 -51 -4q-12 0 -14 -2h-15h-8h-10h-8h-10h-9q-104 0 -143 -14q-16 -6 -16 -21q6 -31 20 -59q16 -37 16 -78v-12 q-2 -12 -2 -15q-10 -72 -118 -223q-59 -80 -119 -180q-4 -4 -12 -14q-41 -49 -62 -74q-27 -51 -82 -162l-37 -55q-43 -66 -71 -111q-25 -35 -66 -98q0 -2 -29 -43q-84 -125 -141 -199q-113 -156 -160 -200q-57 -47 -75 -48q-10 0 -25 -38q-2 -4 -2 -9zM580 535l2 10 q2 14 14 39q16 37 74 125q6 10 16 28q18 27 27 41q2 4 12 19q2 2 10 14q4 8 15 23q8 16 10 18q25 37 39 57q12 16 14 23q18 29 25 37q4 6 18 30q14 27 16 31q8 6 19 17q10 10 18 16q18 47 37 86q10 18 35 55q14 12 33 23q10 25 30 69l3 7q22 34 44 34h1q29 0 43 -45 q23 -76 39 -202q8 -78 14 -121q2 -18 8 -62q6 -47 8 -73q4 -49 8 -70q10 -35 15 -70q4 -25 6 -30q4 -25 4 -33q2 -6 4 -17q2 -10 4 -16q0 -8 4 -20v-5q0 -14 -6 -28q-12 -53 -53 -53h-567q-43 0 -43 43z" />
<glyph unicode="B" horiz-adv-x="1644" d="M41 102q0 -29 8 -45q15 -24 71 -24h5h47h47q14 -2 43 -2h25h22h29q0 -2 -25 -2h2h7h6h8h26h41h144q29 -2 65 -2q51 -2 64 -2q78 0 129 3t92 7q367 63 510 229q145 166 182 316q14 57 15 116q0 111 -62 191q-92 113 -270 168q-33 0 -33 37q0 2 2 8q2 8 2 14q12 23 41 37 q270 86 303 240q4 10 4 36q0 27 -6 58q-14 61 -92 110q-92 55 -291 86q-109 16 -248 17q-131 0 -333 -17h-17q-16 -2 -18 -2t-15 2h-16q-25 2 -57 2q-66 0 -179 11q-6 0 -10 -13q-2 -6 -2 -18q0 -2 -4 -2q35 -8 59 -80q8 -20 9 -84q0 -59 -13 -145q-20 -166 -110 -529 q-47 -197 -82 -305q-31 -102 -62 -201q-4 -8 -4 -10q-12 -35 -26 -69q-20 -49 -31 -105q-2 -10 -2 -31zM334 240q0 70 12 170q16 143 86 434q2 16 14 57q10 33 11 37q8 35 14 68l8 36q8 45 76 45q10 0 39 -4q16 -2 33 -4q43 0 63 -2q20 0 41 2h21q23 0 47 -2h20 q115 -10 185 -28q82 -23 133 -43q111 -49 159 -121q47 -66 47 -150q-4 -45 -4 -67q-4 -45 -14 -80q-12 -47 -41 -107q-14 -33 -45 -94q-49 -94 -141 -156q-92 -66 -250 -102q-162 -39 -414 -47q-55 0 -72 20q-14 14 -26 82v23q-2 20 -2 33zM500 1182l2 10l2 8q4 14 4 17 q0 4 2 10v6l6 22q45 160 68 218q23 61 47 116q31 55 80 56q446 -6 553 -60q90 -43 90 -145q0 -29 -8 -56q-37 -152 -228 -208q-88 -25 -218 -37.5t-320 -12.5q-80 0 -80 56z" />
<glyph unicode="C" horiz-adv-x="1742" d="M41 655q0 -219 131 -387q185 -237 523 -237h3q143 0 342 35q106 20 185 49q84 29 147 61q45 20 51 37q2 10 13 45q4 12 6 23q10 29 47 98l4 6q25 41 25 55q0 -12 16 -12q-29 0 -70 -27q-2 -2 -6 -4q-78 -43 -127 -78q-90 -63 -137 -92q-199 -118 -348 -118h-2 q-238 0 -420 213q-129 147 -129 354q0 84 20 172q63 303 299 528q227 215 471 221q111 0 187 -20q80 -20 170 -59q90 -45 151 -101q20 -18 37 -33q39 -33 51 -41q6 -6 13 -6q-4 0 -4 -2q12 33 12 131q0 29 -8 54q-4 10 -41 28q-168 92 -283 107q-143 18 -291 18 q-143 0 -309 -67q-156 -59 -307 -176q-158 -125 -256 -265q-104 -143 -146 -321q-20 -109 -20 -189z" />
<glyph unicode="D" horiz-adv-x="1724" d="M41 104q0 -27 12 -49q18 -23 88 -26h25q6 -2 20 -2h56h6q47 4 67 4q16 2 56 6l26 2q453 39 826 295q371 262 438 577q22 108 22 190v7q0 111 -34 199q-59 147 -185 223q-127 80 -317 115q-176 27 -395 32h-9q-57 0 -86 -4q-14 -2 -84 -2h-49h-53q-37 0 -55 2q-10 2 -23 2 q-10 0 -22 2q-6 0 -11 -6v-14q-2 -10 -2 -12q0 2 -14 2q31 -2 49 -82q0 -84 -20 -219q-25 -154 -117 -527q-96 -381 -141 -508q-6 -14 -19 -43q-16 -35 -20 -43q-23 -41 -33 -94v-12q-2 -10 -2 -15zM336 186q0 78 24 226q31 184 91 430q37 154 57 227q10 41 37 139 q8 31 14 58q39 129 74 229q4 10 16 39l10 20q23 51 89 52q305 -12 522 -142q166 -96 166 -352q0 -111 -25 -215q-59 -283 -362 -516q-297 -229 -658 -260q-53 0 -53 39q-2 10 -2 26z" />
<glyph unicode="E" horiz-adv-x="1699" d="M41 51q0 -12 68 -12q4 0 20 2h25h57q31 -2 129 -2q111 0 168 -2t178 -2q133 0 213 -2q82 -2 272 -2q18 0 33 12q16 12 39 37l8 8q8 8 23 25q14 14 20 22l56 55q35 25 34 37q0 -10 9 -10h-13q-12 2 -20 2q-31 0 -92 -10q-82 -14 -195 -43q-84 -23 -176 -35 q-180 -27 -352 -27q-6 0 -43 2h-45q-100 4 -119 113v21q-2 12 -2 22q0 76 24 182l2 7q20 102 37 170q10 49 43 190l11 39l6 24q2 14 4 23q8 27 10 47l12 31q2 10 2 12q6 25 9 37q12 49 57 49h424q37 0 115 -4q39 -2 120 -6q147 -12 162 -129q0 -20 8 -21h4q29 0 31 21 q16 197 17 246q0 8 -2 22v8q0 -14 -11 -14q-45 0 -178 -29q-119 -30 -263 -30h-9h-375q-55 0 -55 47q0 2 2 8v6q10 47 24 86q4 14 6 23q14 51 23 73q8 31 22 68q4 12 19 45l2 6q12 27 43 47q33 76 111 76q45 0 75 -2q29 -2 99 -2q123 -2 241 -12q125 -10 240 -39 q109 -25 190 -47q8 -2 19 -2q2 0 2 2q0 14 -10 39q-8 35 -25 77q-25 16 -37 23q-8 10 -31 18q-31 10 -43 11h-14q-6 -1 -10 -5q-252 0 -481 -8q-227 -8 -476 -8q-35 0 -96 4q-31 2 -92 10q-8 0 -12 -12q-2 -6 -2 -18q0 2 -6 2q33 0 63 -74q8 -18 8 -82q0 -70 -10 -139 q-23 -162 -111 -527q-84 -342 -145 -509q-82 -229 -88 -271z" />
<glyph unicode="F" horiz-adv-x="1593" d="M41 47q0 -4 61 -4q10 0 31 2q27 2 39 2q16 0 33 -2h16q12 -2 23 -4q23 -4 30 -4q37 -4 54 -6q8 0 22 -2q16 0 25 -2q10 0 12 6q4 10 4 22q4 -2 10 -2q-25 10 -47 47q-16 27 -16 125q4 111 47 324h2q2 10 8 43q8 43 13 76q8 45 14 69q4 18 8 41q8 43 12 64q4 14 13 47 q8 29 12 45q2 14 10 33q4 16 8 43v6q16 49 58 49l321 -4q72 0 113 -2q27 -2 55 -4q49 -4 68 -4q152 -12 160 -129q2 -20 8 -21h4q29 0 31 19q0 100 -2.5 148t-6.5 73q-6 47 -18 53h-4q-6 2 -8 2q-14 0 -37 -12q-51 -27 -103 -29q-43 -4 -116 -18q-29 -4 -64 -7.5t-86 -3.5 l-270 4q-57 0 -58 46q0 2 2 8v8q16 61 27 88q10 31 27 84q8 27 24 68q8 27 11 36q8 29 10 37q12 35 45 78q23 29 104 43q14 4 38 5t89 1h4q117 -4 176 -12q119 -12 177 -23q94 -20 120 -36q84 -66 144 -66q24 0 24 25q0 8 -2 16q-2 14 -2 20q-2 35 -20 74l-8 4 q-27 10 -35 17q-8 10 -31 18q-27 10 -43 10h-14q-6 0 -11 -4h-231q-72 -2 -205 -2h-202q-72 -2 -224 -2q-35 0 -92 4q-31 2 -96 11q-8 0 -8 -9q-4 -8 -4 -22h-7q37 0 62 -74q10 -35 10 -84q0 -55 -12 -135q-18 -147 -109 -526l-2 -2q-2 0 -4 -3v-14q-2 -14 -2 -16 q-4 -12 -4 -21q-4 -12 -4 -16q-37 -133 -78 -268q-18 -72 -47 -168q-4 -10 -10 -33q-70 -201 -76 -248z" />
<glyph unicode="G" horiz-adv-x="1728" d="M41 664q0 -217 129 -388q189 -239 523 -239h3q131 0 355 55q51 14 86 31q4 0 10 2q41 0 41 -43q0 -18 -8 -43l-9 -37q-31 -113 -167 -192q-133 -78 -291 -78q-102 0 -152 24q-35 16 -35 43q0 18 15 35q27 20 37 72q0 2 2 8v10q0 23 -25 35q-35 25 -49 25q-59 0 -82 -7 q-18 -8 -27 -45q-4 -16 -4 -49q0 -98 88 -168q115 -96 312 -96q184 0 344 88q156 92 202 225h4q41 180 66 312q37 176 86 329q51 145 88 197q39 51 74 51q12 0 20 33v-4l-2 2q-4 2 -8 2q-27 -2 -80 -6l-22 -2h-101h-49h-47q-39 0 -98 6q-16 0 -17 -2q-4 -8 -4 -25q0 4 -12 4 q29 -2 51 -53q10 -14 12.5 -40.5t2.5 -100.5q-6 -141 -21 -174q-12 -37 -35 -142h-4l-14 -69q-27 -45 -109 -74q-61 -23 -129 -39q-18 -4 -63 -12q-29 -4 -84 -8q-240 0 -428 202q-123 133 -123 340q0 88 22 197q31 150 99 299q68 139 174 242q209 207 456 213 q119 0 197 -10.5t135 -32.5q195 -82 283 -158q20 -16 29 -16v26q0 25 -7 56q-2 10 -6 36q-2 8 -4 17q-8 23 -20 31q-68 43 -142 69q-72 25 -139 35q-135 18 -291 18q-297 0 -614 -223q-317 -221 -404 -606q-20 -109 -20 -188z" />
<glyph unicode="H" horiz-adv-x="1767" d="M41 80q0 -33 125 -33q35 0 65 -2h29q20 -2 47 -6t47 -6q10 0 13 8q4 12 4 29q0 -4 14 -4q-41 0 -53 71q-4 16 -4 66q0 63 8 143q18 135 102 504q8 25 13 35q8 37 12 57q2 14 10 33q8 35 10 57q2 6 6 21q8 32 61 32h3q68 0 102 -2q23 -2 50 -2q25 0 47 -2h100 q35 -2 102 -2q59 0 90 2h89q57 0 88 2t94 2q33 0 45 -11t12 -32q0 -2 -2 -10q-2 -14 -4 -18q-12 -59 -43 -185q-8 -31 -10 -36q-51 -197 -72 -267q-37 -115 -57 -198q-39 -139 -84 -232q-2 -6 -2 -14q0 -35 137 -35q82 0 188 -12q8 0 11 6q6 16 6 35q0 -8 14 -8 q-41 0 -55 69q-4 14 -4 58q0 47 10 149q20 170 102 508q45 195 80 324l4 10q41 152 58 202q77 216 77 270q0 9 -25.5 12t-88.5 3q-25 0 -53 2q-23 2 -31 2q-37 2 -105 11q-6 0 -10 -7q0 -4 -2 -12v-8h-10q27 -10 49 -49q16 -37 16 -115q-10 -90 -51 -266q-25 -68 -67 -68 q-20 2 -45 2t-46 2q-59 0 -88 2h-92h-90h-100q-35 -2 -103 -2q-33 -2 -100 -2q-32 -2 -100 -2q-49 0 -49 49v7q2 6 2 10q41 182 84 289q38 94 38 137q0 8 3 8q-18 12 -72 12h-23q-12 -2 -24 -2q-29 0 -64 2q-18 2 -28 2q-31 2 -97 11q-6 0 -8 -9v-2q-2 -10 -2 -26q0 6 -12 6 q31 -2 51 -82v-17q2 -14 2 -22q0 -59 -18 -180q-23 -154 -115 -527q-45 -188 -80 -303q-14 -53 -43 -147q-12 -39 -16 -55q-18 -61 -58 -185q0 -2 -12 -37q-2 -6 -2 -20z" />
<glyph unicode="I" horiz-adv-x="708" d="M41 37q0 2 53 2q10 0 29 2q23 2 33 2q4 0 20 2h19q8 0 28 -2t29 -2q33 -6 92 -10q10 0 12 6q4 12 4 26q0 -8 17 -8q-41 0 -41 72v12q-2 12 -2 21q0 41 14 166q20 182 88 512q68 342 121 524q82 256 111 301v-4q0 10 -131 10q-14 0 -54 2q-37 2 -41 2q-35 4 -67 8 q-16 0 -29 2q-6 0 -10 -10q0 -8 -4 -22q-2 -12 -2 -17q0 14 -19 15q37 0 49 -64q6 -14 7 -55q0 -63 -15 -156q-16 -164 -98 -538q-72 -354 -125 -510q-18 -57 -33 -105q-53 -164 -55 -178v-6z" />
<glyph unicode="J" horiz-adv-x="1210" d="M41 -356v-4q0 -6 6 -13q6 -6 16 -6q63 8 158 47q82 31 168 74q35 18 90 53q23 14 66 41l26 19q182 123 226 208q41 80 71 334q6 61 31 181q27 119 55 266l19 90q33 170 47 235q33 156 53 213q2 6 6 21q76 231 90 256v2q0 6 -112 6l-92 6h-7q-57 4 -88 8q-20 0 -20 -8 q-4 -10 -4 -24q0 2 -10 2q33 -2 55 -78q6 -16 6 -62q0 -68 -14 -161q-31 -190 -113 -527q-35 -131 -74 -262l-10 -43q-35 -129 -47 -172q-39 -131 -82 -242q-37 -59 -53 -71q-10 -18 -23 -62q-2 -10 -4 -14q-82 -98 -188 -168q-98 -63 -189 -92q-29 -8 -39 -16 q-16 -16 -18 -29q0 -4 -2 -8z" />
<glyph unicode="K" horiz-adv-x="1785" d="M41 45q0 -6 63 -6q10 0 29 2q27 2 39 2q4 0 18 2h19q8 0 29 -2q20 -2 28 -2q61 -8 94 -12q4 0 13 2q10 2 14 2v2q4 8 4 18q0 -6 10 -6q-31 0 -55 37q-8 12 -12 40t-4 85q6 102 53 311q18 78 31 86q8 8 71 60q31 25 78 65q35 31 90 70l13 8q14 10 18 12q10 10 27 10 q27 0 53 -49q154 -307 197 -440q30 -91 30 -154v-20q-2 -10 -2 -12q-6 -74 -12 -107q0 -4 -2 -8v-6v-6h16q29 0 80 6h29q27 2 55 2q23 -2 57 -2q33 0 86 -4h80q8 8 8 16v4l-2 4q-2 6 -2 8q-6 23 -12 23q-27 0 -72 45q-39 47 -110 195q-31 70 -88 221q-51 117 -117 282 q-2 6 -6 17q-2 8 -4 10l-2 4q-8 16 -10 25q0 2 -7 16q-4 19 -10 31q-12 18 -14 51l-2 8q0 31 63 99q348 297 469 387q74 55 121 102q59 55 164 100q-6 -4 -6 -10q0 2 -4 2q-4 10 -6 10q-18 -2 -29 -6q-16 -4 -43 -4h-53h-50q-76 0 -75 2h2q-2 0 35 0q-39 0 -60 4q-4 0 -18 2 q-6 0 -17 2q-25 0 -39 -20q-16 -12 -16 -21q0 6 6 7q45 0 45 -43q0 -37 -92 -136q-121 -125 -303 -280q-205 -176 -330 -279q-102 -82 -153 -125q-59 -39 -80 -39l-17 13q-6 16 -6 43q2 12 4 26q4 16 4 17q78 383 131 553l41 125q45 135 50 147q0 -2 -117 -2q-33 0 -94 4 q-33 2 -95 10q-8 0 -10 -8q0 -4 -2 -12v-10h-12q35 0 53 -78q6 -16 6 -60q0 -74 -16 -163q-27 -176 -113 -527l-6 -20q-51 -193 -76 -271q-10 -41 -39 -145l-18 -72q-80 -223 -86 -270z" />
<glyph unicode="L" horiz-adv-x="1331" d="M41 41h41q31 0 80 6q18 0 35 -2h14q18 -6 45 -6q47 -2 104 -2q86 -2 105 -2q70 -2 205 -2h202q59 -2 183 -2q59 4 110 55q12 16 19 27l26 26q6 12 27 33q12 18 14 23q39 49 39 67q0 -2 -4 -2q-53 0 -231 -78q-188 -80 -373 -84h-51h-51h-56h-51q-78 0 -96 25t-19 72 q0 96 25 225q35 197 90 426q84 371 145 536q74 207 95 260q2 4 2 15q0 14 -58 14q-23 -2 -65 -2q-18 -2 -55 -2q-53 0 -78 2q-27 0 -76 8q-6 0 -10 -6q0 -4 -2 -12v-8q0 -4 -13 -4q33 -2 52 -80v-15q2 -14 2 -22q0 -61 -19 -182q-27 -166 -117 -525q-80 -344 -141 -508 q-35 -106 -82 -239l-10 -27v-4z" />
<glyph unicode="M" horiz-adv-x="2066" d="M41 43q0 -14 57 -14h45h39q47 0 60 -2q6 0 24 -7q20 0 33 -2q6 0 10 5q4 12 4 28h13q-43 0 -60 74q-8 41 -8 82q0 31 6 108l2 19q4 59 33 207q16 78 59 258q6 27 9 41q2 6 6 28q4 12 8 27l8 39q12 49 14 63q10 51 29 123q12 53 25 92q16 43 32 62q-8 0 -8 2q29 0 74 -66 q8 -23 23 -69l10 -33q10 -27 28 -86l17 -49q2 -6 18 -62q14 -45 29 -88q16 -51 49 -149q6 -20 19 -56q20 -66 26 -86q20 -55 39 -122q31 -102 72 -103q47 10 98 82q55 72 131 203q66 119 141 221q106 131 181 231q63 109 182 289q25 31 51 31l12 -6q12 -10 18.5 -19.5 t6.5 -27.5q-6 -25 -27 -86l-6 -19q-10 -37 -35 -114q-37 -109 -73 -273q-80 -350 -133 -532q-68 -213 -74 -248q0 -2 69 -2q2 0 23 2h29q29 0 57 -2h29h8q61 -8 90 -10q12 0 14 6q4 12 4 26q0 -6 15 -6q-39 0 -51 62q-4 16 -5 59q0 57 13 145q4 45 24 164l6 43 q35 182 66 316q86 391 147 542q72 186 117 244q12 12 12 21q0 8 -38 8q-16 2 -37 2q-20 0 -37 2q-45 0 -60 2l-4 2h-6q-39 0 -88 -49q-59 -41 -133 -111q-45 -66 -127 -200q-6 -10 -18 -29q-53 -80 -72 -105q-123 -147 -186 -221q-127 -188 -191 -280q-14 -20 -37 -21 q-33 0 -33 29q-57 168 -84 254l-10 31q-45 133 -65 200q-82 262 -172 484q0 18 -23 18q-8 0 -16 -2q-41 -2 -60 -2q-45 0 -65.5 2t-24.5 2q-23 8 -80 16q-10 0 -10 -4q0 -39 19 -49q41 -16 41 -100q0 -49 -11 -98q-27 -168 -37 -213q0 -2 -6 -25q-20 -90 -32 -143 q-29 -131 -52 -230q-82 -367 -135 -516q-61 -174 -92 -246q-2 -6 -2 -14z" />
<glyph unicode="N" horiz-adv-x="1697" d="M41 49q0 -8 4 -16q12 -4 94 -4q45 0 70 -2q10 0 29 -7q20 0 36 -2q10 0 11 2q4 12 4 31q0 8 2 8q-43 0 -70 50q-12 29 -12 86q0 53 8 112q6 61 39 199q45 203 78 332q2 14 16 63q16 74 33 133l2 8q27 106 37 148q10 39 27 96l2 4q10 41 34 64q-10 0 -10 2q37 0 74 -64 q27 -84 106 -258l23 -57q39 -96 61 -148q61 -115 95 -174q61 -143 92 -213q2 -2 51 -92q20 -35 39 -67l74 -148q18 -39 40 -82l13 -24l2 6h-31h4h25q2 -10 14 -31q4 -6 14 -6q4 0 13 2q10 4 16 4q33 4 35 6q2 23 12 72q4 23 17 70l4 20l4 21q16 78 22 106q8 31 19 70l10 39 l8 32q31 141 49 215q8 37 11 50q10 43 12 55l10 39q8 33 10 39q39 178 84 331q37 135 66 217q72 205 84 263q0 14 -137 14q-51 0 -70 6q-10 4 -53 8q-8 0 -13 -12q-2 -6 -2 -18q0 4 -6 4q43 0 68 -68q10 -20 10 -88q0 -66 -10 -133q-14 -145 -109 -543q-16 -45 -22 -67 q-12 -61 -17 -88q-6 -20 -18 -58q-12 -53 -16 -76q-37 -77 -67 -77h-1l-18 12q-18 25 -37 67q-57 131 -125 279q-6 14 -35 86q-31 72 -37 86q-16 29 -24 45q-33 55 -48 86q-25 51 -69 150q-45 94 -68 139q-68 150 -104 244q0 10 -6 16l43 -41v8q-14 31 -131 39h-127 q-35 0 -51.5 2t-20.5 4q-12 4 -47 8q-10 0 -10 -4q0 -14 4 -26q4 -4 14 -15q10 -8 12 -10q41 -43 62 -63q6 -35 10 -107q0 -92 -43 -231q-29 -104 -47 -180l-12 -56q-27 -111 -41 -180q-53 -238 -111 -438q-33 -115 -70 -252q0 -2 -14 -51q-2 -8 -2 -21z" />
<glyph unicode="O" horiz-adv-x="1777" d="M41 659q0 -219 131 -389q185 -237 523 -237h3q346 0 643 241q301 246 377 586q18 80 19 154q0 82 -23 162q-39 143 -133 260q-98 115 -225 176q-132 65 -277 65q-147 0 -307 -67q-154 -59 -311 -178q-152 -106 -254 -236q-104 -160 -146 -348q-20 -109 -20 -189zM313 850 q72 307 283 528q221 224 457 224q242 0 372 -205q76 -119 76 -295q0 -131 -37 -264q-92 -352 -295 -549q-207 -199 -444 -199q-244 0 -365 227q-71 133 -71 307q0 109 24 226z" />
<glyph unicode="P" horiz-adv-x="1605" d="M41 29q0 6 25 6q29 0 77 6q18 6 54 6q35 0 51 -6q23 -4 61 -8q8 -2 29 -4q10 0 12 8q4 10 4 22v2q-2 4 -16 19q-12 16 -23 57q-6 18 -6 76q0 2 2 27v32q10 84 72 99q68 20 113 28q434 98 718 297q285 199 330 408q20 82 21 156q0 123 -60 196q-94 123 -258 172 q-162 51 -364 51q-72 0 -191 -4q-25 0 -94 -4q-41 -2 -72 -4q-29 0 -63 2q-18 2 -29 2q-37 2 -96 10q-8 0 -10 -10t-2 -24q0 4 -13 4q39 -4 52 -82v-19q2 -16 2 -26q0 -74 -17 -174q-10 -66 -41 -213q-14 -63 -16 -76q-35 -147 -57 -238q-35 -147 -78 -307q-20 -70 -49 -184 q-4 -16 -5 -17q-63 -264 -63 -286zM362 510q0 2 3 12v10q6 47 18 125l2 17q4 27 16 84q4 14 7 28q10 37 14 60q61 268 123 469q8 23 24 74q14 39 21 61q10 31 28 78q2 8 5 14q16 33 36 51q23 23 86 23q422 -31 510 -186q59 -106 60 -224q0 -70 -17 -127q-39 -184 -311 -366 q-258 -176 -534 -260q-16 -4 -37 -4q-23 0 -35 5t-12 19q-6 8 -7 37z" />
<glyph unicode="Q" horiz-adv-x="1777" d="M41 657q0 -90 22 -180q47 -172 168 -284q20 -20 62 -54q18 -16 24 -20q61 -43 117 -70q16 0 20.5 -8t4.5 -27q0 -16 -21 -39l-2 -2q-6 -4 -10 -8q-6 -8 -16 -22l-11 -9q-14 -12 -24 -18q-16 -12 -27 -31q-37 -47 -37 -69q0 2 -2 2q20 -18 117 -21q111 -4 246 -24l37 -6 q129 -25 198 -41q92 -20 127 -21q2 0 6 2h4q2 2 43 21q29 14 33 16q35 18 74 43q53 33 76 39q90 20 94 35q0 4 -25 4q-61 8 -125 8q-49 0 -106 -2h-39q-4 0 -35 -2h-35q-209 0 -428 51q-45 16 -45 41v27q10 49 92 49q49 -4 78 -4q342 0 645 243q301 242 377 584 q18 80 19 154q0 80 -23 164q-45 154 -135 260q-98 113 -223 174q-129 65 -275 65h-4q-145 0 -305 -67q-152 -55 -311 -176q-158 -125 -256 -265q-102 -150 -144 -321q-20 -109 -20 -191zM313 852q72 305 285 528q215 222 455 222q238 0 372 -207q76 -123 76 -295 q0 -119 -37 -260q-92 -354 -295 -551q-211 -199 -444 -199q-244 0 -365 227q-71 133 -71 309q0 109 24 226z" />
<glyph unicode="R" horiz-adv-x="1636" d="M41 49q0 -10 55 -10q10 0 29 2q23 2 33 2q4 0 18 2h19q8 0 28 -2t29 -2q61 -8 94 -12q10 0 12 -6q4 16 4 36v2q-2 6 -18 19q-8 14 -22 57q-4 16 -5 64q0 4 2 30v41q10 84 72 99q4 2 12 4q72 18 99 24l20 4q23 6 39 11l10 2q35 8 50 12q51 14 104 14q37 -2 94 -102 q6 -12 19 -37q27 -55 32 -72l7 -12q16 -39 22 -49q29 -70 49 -107q12 -16 164 -20q25 -2 53 -2q43 -2 52 -2h20q16 -2 18 -2q31 0 62 6q2 0 2 -14q0 2 -2 4q-2 4 -2 6q-8 25 -19 29q-20 4 -61 30q-27 16 -92 107q-33 51 -152 280q-6 10 -6 31q0 37 47 66q55 31 107 61 q162 92 293 223q115 115 143 238q20 96 20 156q0 121 -61 196q-98 123 -266 172q-162 51 -373 51q-76 0 -195 -4q-41 -2 -100 -4q-49 -4 -65 -4q-29 0 -64 2q-18 2 -29 2q-37 2 -96 10q-6 0 -10 -6v-14q-2 -8 -2 -10h-12q39 -4 51 -82v-17q2 -16 2 -26q0 -78 -19 -176 q-8 -74 -41 -213q-18 -86 -71 -301q-51 -215 -76 -308q-33 -135 -55 -215q-72 -231 -72 -264zM371 510v10q2 8 2 12q10 92 20 144l2 6q18 98 35 164q74 315 123 469q8 23 25 74q14 39 20 61q10 31 29 78q2 8 4 14q16 33 37 51q23 23 86 23q231 -12 354 -62q125 -49 176 -122 q49 -68 49 -168q-4 -94 -26 -185q-39 -184 -312 -366q-266 -180 -534 -260q-16 -4 -37 -4q-37 0 -47 22q-6 8 -6 39z" />
<glyph unicode="S" horiz-adv-x="1468" d="M41 322q0 -59 31 -91q76 -70 221 -133q158 -69 369 -69h6q223 0 460 157q236 158 285 416q14 63 14 123q0 90 -34 156q-57 100 -162 161q-109 63 -242 103q-70 18 -135 43q-63 25 -125 53q-61 25 -125 74q-59 47 -59 102q0 2 2 10v9q18 80 110 135q66 39 191 51q2 0 16 2 h15q127 0 260 -96q162 -117 176 -250q4 -37 35 -37q14 0 22 12q10 6 10 21q-8 37 -10 57q-8 33 -10 62q-23 164 -129 219q-102 55 -299 78h-2q-201 -2 -361 -74q-147 -70 -198 -268q-4 -16 -4 -45q0 -57 39 -109q53 -72 151 -129q96 -61 215 -96q150 -47 238 -84 q111 -43 172 -146q41 -72 41 -151q0 -47 -11 -84q-37 -162 -206 -277q-160 -57 -279 -57l4 -51h-20q-152 0 -253.5 39t-166.5 118q-68 86 -100.5 163t-32.5 159q0 59 -10 59q-37 0 -50 -69q-12 -49 -34 -129q-25 -80 -25 -137z" />
<glyph unicode="T" horiz-adv-x="1478" d="M41 1393q0 -8 4 -21q0 -6 2 -10q18 0 49 47q55 80 230 141q164 61 256 70q6 0 16 2h10q14 0 25.5 -7t15.5 -13v-25v-31q-12 -117 -43 -254q-4 -16 -10 -45q-23 -106 -35 -155q-14 -70 -53 -230q-6 -27 -10 -39q-45 -164 -84 -288q-41 -154 -62 -218q-67 -190 -67 -245 q0 -6 2 -15q2 -4 2 -8q10 -10 61 -10q10 0 27 2q23 2 33 2q16 4 49 4q8 0 26 -2q16 -2 25 -2q33 -6 102 -14q10 0 13 8q4 12 4 29q0 -4 14 -5q-35 0 -57 80q-4 14 -4 60q0 55 6 137q20 178 96 508q45 209 111 461q45 164 79 254q8 35 17 43q0 14 10 17t31 3h10q10 -2 16 -2 q82 -12 220 -61q156 -55 186 -156q8 -39 31 -39q12 0 20 6q23 12 23 45q0 41 -29 111q-2 6 -8 22q-12 31 -21 45q-18 39 -20 76q-2 27 -51 27q-49 -2 -103 -4q-92 -4 -127 -4q-158 -8 -245 -11q-66 -4 -197 -4q-174 1 -350 13h-4h-2h-29h-29q-16 0 -41 -54q-8 -12 -26 -41 l-13 -16q-29 -31 -47 -61q-55 -74 -55 -123z" />
<glyph unicode="U" horiz-adv-x="1642" d="M41 246q0 -100 35 -144q60 -75 194 -75h4q141 4 332 71q190 68 373 107q51 8 63 8q0 -20 -14 -68q-31 -63 -31 -98q0 -10 2 -12l13 -2q25 -4 39 -4q10 0 39 4q8 0 24 2q18 8 57 8q6 0 21 -2q14 -2 20 -2q47 -8 95 -12q12 0 14 6q4 12 4 28q0 -4 12 -4q-35 0 -53 66 q-4 14 -4 61q0 72 10 148q18 152 103 510q53 223 82 325q33 127 63 213q63 188 64 252q0 6 -3 10v7q-6 16 -67 16h-16q-10 -2 -19 -2q-27 0 -59 2q-20 2 -31 2q-37 2 -96 10q-8 0 -13 -6v-14q-2 -8 -2 -10h-10q31 -2 51 -82v-17q2 -14 2 -22q0 -63 -18 -180 q-18 -123 -113 -527q-37 -141 -61 -252q-4 -16 -17 -67q-2 -10 -4 -19q-8 -51 -18 -98q-12 -66 -143 -107q-59 -20 -131 -36l-29 -9q-63 -18 -103 -26q-117 -31 -208 -35v-2q-86 0 -136.5 9t-78.5 32q-29 20 -29 100q0 88 33 240q4 23 12 65q10 70 12 76q6 33 19 78 q2 8 8 31q8 33 12 55q84 360 146 537q69 187 69 243q0 6 -2 13q-2 4 -2 6q-15 22 -99 22h-7q-27 0 -58 2q-23 2 -31 2q-31 2 -100 11q-6 0 -10 -11q-2 -8 -2 -22q0 2 -10 2q37 -2 49 -82v-16q2 -14 2 -25q0 -76 -19 -178q-23 -158 -112 -524q-10 -49 -23 -91l-8 -26 q-8 -29 -14 -53q-16 -57 -33 -136q0 -6 -4 -18v-8q-2 -6 -2 -8l-6 -19v-8q-2 -6 -2 -8q-27 -121 -27 -213z" />
<glyph unicode="V" horiz-adv-x="1441" d="M41 1683q92 -14 192 -14q37 0 60 2h69q55 0 56 -22q0 -4 -2 -7q-10 -29 -15.5 -91t-5.5 -181q0 -72 23 -219q14 -106 53 -334q2 -8 8 -53l4 -27q2 -14 4 -43q4 -33 7 -47q2 -33 10 -72q8 -49 10 -69q0 -59 51 -60q41 6 60 46q8 16 22 38q10 18 17 31q20 31 51 82 q23 43 51 90q12 23 39 66l14 24q229 389 291 535q66 162 66 221q-14 74 -66 74q6 0 6 -11q0 10 4 21q6 14 27 14q6 0 22 -2q10 0 23 -2q18 -2 61 -2q20 0 62 4q33 0 41 -4q45 -12 45 -41q-4 -47 -137 -246q-68 -102 -129 -206q-88 -147 -185 -316q-27 -45 -37 -61 q-74 -125 -112 -187q-88 -133 -119 -188l-33 -55q-14 -25 -33 -54q-2 -2 -4 -8q-18 -31 -30 -53q-31 -53 -68 -113q-6 -12 -14 -26q-10 -14 -17 -27q-47 -78 -84 -78q-35 0 -39 64q-4 68 -20 188q-6 68 -23 180q-20 188 -43 363q-12 90 -36 240l-15 96q-18 113 -41 211 q-37 176 -69 237q-35 66 -66 66q-2 8 -2 24v7l-2 4q0 -8 -2 -9z" />
<glyph unicode="W" horiz-adv-x="2009" d="M41 1692q10 -2 22 -2q16 -2 21 -2l43 -7q35 -8 90 -8q12 0 49 4h8q2 0 15 2h16h21q16 -2 18 -2q35 0 35 -16v-78q-4 -127 -4 -203q0 -104 12 -221q10 -125 41 -342q12 -88 12 -127q0 -18 4 -51q2 -18 7 -51q0 -59 38 -60q19 1 56 58q55 117 102 225l23 51q68 156 104 246 q8 18 43 96q55 121 80 178l18 41q49 111 68 160q18 49 45 82q23 31 47 31q16 0 23 -19q12 -39 12 -75q0 -176 2 -265q0 -150 8 -266q2 -57 4 -129q2 -74 4 -131q2 -59 7 -131q4 -72 6 -131q0 -31 14 -45l12 -10q20 0 60 43q10 20 30 65q10 18 33 66q27 55 82 141 q223 375 291 537q66 162 66 229q-10 78 -66 78q8 0 8 -6q0 12 4 20q8 14 27 14l12 -2q45 -8 68 -12q6 0 22 -2t23 -2q35 0 51 4q33 8 61 8q29 0 29 -4q0 -2 -2 -4q-29 -70 -162 -285q-20 -37 -47 -88q-41 -78 -74 -141q-43 -68 -59 -94q-94 -152 -123 -197 q-63 -109 -141 -252l-2 -2q-8 -16 -33 -61q-23 -39 -25 -43q-8 -14 -14 -29q-18 -35 -31 -55q-4 -4 -28 -58q-8 -33 -25 -73q-12 -12 -28 -33q-20 -47 -35 -90q-23 -37 -43 -66q-39 -80 -84 -80q-47 0 -54 84q-4 127 -8 197q-4 74 -8 225v6q-4 92 -16 216q-6 74 -15 210 q0 53 -43 54q-29 -6 -45 -43q-55 -133 -96 -219q-55 -117 -104 -242q-33 -68 -107 -211l-4 -6q-61 -133 -125 -275h-6h-29q-45 0 -49 64q-4 70 -16 188q-8 61 -17 176q-2 29 -10 91q-8 61 -12 90q-8 66 -21 180l-30 291q-2 29 -7 57q-6 63 -18 158q-4 37 -8 65 q-20 143 -39 209q-31 53 -64 53q-8 0 -18 56q0 4 -2 12v-14z" />
<glyph unicode="X" horiz-adv-x="1783" d="M41 41q8 0 8 -16q0 23 101 98q68 57 212 203q88 88 189 196q49 51 162 170q76 82 112 121q47 49 47 98q0 31 -10 45q-10 23 -43 99q-43 98 -67 149q-29 74 -72 178q-6 12 -10 23q-55 121 -99 180q-45 51 -65 51q-6 0 -12 23l-2 2l-3 6v8v6l11 -2q59 -6 90 -8q66 -4 96 -4 q27 0 59 6q4 0 17 2h16h19q16 -2 18 -2q76 -2 76 -12v4q-18 -25 -19 -94q0 -61 9 -103q12 -100 123 -325q29 -59 57 -64q33 0 86 51q213 215 266 314q45 84 45 121q0 25 -8 32q-18 45 -64 58q6 0 7 -10q0 4 14 22q12 19 35 19q8 -2 24 -3q14 0 23 -2q12 0 27 -4q27 -2 38 -4 q45 -4 64 -6h16q14 -2 15 -2q2 0 14 2h12q29 6 45 6q23 0 23 -14q-8 -51 -174 -207q-147 -143 -406 -426q-51 -53 -51 -119q0 -33 12 -69q43 -109 111 -265q0 -4 4 -12q61 -135 88 -190q61 -135 117 -211q41 -61 69 -80q16 -14 35 -55l2 -2v-5q0 10 4 11q-115 14 -198 14 h-62q-8 0 -16 -2q-47 -2 -78 -6q-10 0 -29 -2q-12 -2 -20 -2q-29 0 -29 2v6q14 37 15 92q0 63 -15 148q-18 121 -147 419q-23 41 -53 41q-29 0 -66 -34q-295 -313 -362 -420q-74 -119 -74 -174q16 -61 72 -62q-6 0 -7 14q0 -16 -18 -57q-14 16 -37 17q-8 2 -27 2 q-18 2 -26 2q-12 2 -25 4q-29 2 -47 4q-76 8 -129 8q-49 -2 -135 -2z" />
<glyph unicode="Y" horiz-adv-x="1554" d="M41 1681q10 -45 29 -65q20 -14 61 -92q37 -66 90 -217q49 -141 129 -471q4 -18 23 -97q6 -29 12 -55q8 -33 21 -84l8 -37q6 -18 6 -47q0 -39 -17 -57q-12 -18 -41 -56q-123 -156 -194 -231q-111 -111 -111 -143q0 4 -4 8q8 -4 29 -4q27 0 92 10q2 0 14 2h13h14 q12 -2 14 -2q4 0 17 -4q27 -6 41 -8q41 -4 57 -8q12 -2 25 -3q20 -2 24 -2q18 0 29 15q14 16 14 26q0 -8 6 -8q-61 4 -61 84q0 66 86 221q74 135 375 516q330 406 438 533q195 221 233 276q0 -2 -34 -2q-37 0 -84 -8q-18 0 -39 2h-19q-27 4 -61 6q-33 4 -62 7q-10 2 -22 2 q-21 2 -25 2q-18 0 -28 -17q-10 -16 -11 -24q0 8 -2 8q66 -2 66 -88q0 -57 -94 -230q-66 -106 -148 -211q-106 -143 -243 -315q-55 -63 -89 -63q-8 0 -14 3l-10 5q-23 18 -43 78q-119 391 -141 548q-18 127 -19 191q0 68 -8 84q-2 12 -23 12h-127q-25 0 -73 4h-13 q-12 0 -34 2q-4 2 -9 2q-8 2 -22 4t-23 3q-4 0 -12 -7l-4 -2q-2 2 -2 4z" />
<glyph unicode="Z" horiz-adv-x="1724" d="M41 76q0 -25 98 -31q156 -12 404 -14q94 -2 278 -2q94 -2 281 -2q43 0 61 6q29 18 54 51q6 6 28 31q23 23 27 26q10 10 22 25q12 12 19 18q45 41 45 58q0 -6 6 -6q-2 0 -14 2h-19q-49 0 -108 -17q-57 -14 -183 -53l-22 -6q-111 -37 -152 -43q-109 -18 -192 -23 q-59 -2 -88 -4q-61 0 -107 2q-57 0 -104 -2q-41 0 -41 35q0 4 2 10t2 8q6 14 12 27q4 12 6 14q131 164 287 334q98 106 145 162q25 27 48 53q66 74 98 111q203 233 352 397q123 131 230 221q98 84 149 146q18 18 18 35q0 8 -8 10q-18 10 -70.5 14t-154.5 4q-39 -2 -86 -2 t-86 -2q-57 -2 -174 -2h-88q-68 -2 -80 -2q-35 0 -78 2h-67q-146 0 -156 14q-25 -2 -62 -63q-10 -12 -22 -27q-12 -14 -23 -26q-16 -16 -36 -49q-23 -39 -23 -58q0 6 -4 6q10 0 41 13l4 2q125 55 262 94q143 47 340 47q72 0 141 -6q8 0 43 -8q39 0 39 -43q0 -18 -26 -56 q-104 -133 -267 -311q-76 -88 -141 -158l-141 -159q-59 -68 -182 -203q-123 -131 -185 -201q-170 -188 -260 -276q-92 -86 -92 -123z" />
<glyph unicode="[" horiz-adv-x="657" d="M41 -127h135l4 21h-121l433 1916h120l4 19h-135z" />
<glyph unicode="\" horiz-adv-x="309" d="M41 1616l217 -1544h10l-215 1544h-12z" />
<glyph unicode="]" horiz-adv-x="655" d="M41 -127h135l438 1956h-133l-4 -19h119l-430 -1916h-121z" />
<glyph unicode="_" horiz-adv-x="1081" d="M41 -104v-5h999v5h-999z" />
<glyph unicode="`" horiz-adv-x="126" d="M41 1681l18 -100q6 -72 25 -72q2 0 2 23q0 6 -2 18q-2 16 -2 25l-21 106h-20z" />
<glyph unicode="a" horiz-adv-x="1204" d="M41 287q0 -55 8 -99q20 -96 103 -131q85 -32 175 -32h5q104 0 233 41q29 12 45 20q27 18 56 31q18 10 32 14q27 0 32 -6t5 -29v-8q-2 -6 -2 -10q-4 -8 -4 -23q0 -10 2 -14q8 -8 53 -8h64q53 0 86 -4h35q18 -2 43 -6q8 0 8 6q0 14 2 22q-27 8 -43 43q-10 14 -10 68v18 q2 14 2 25q4 90 45 278h2q2 12 10 39q12 53 19 80q25 86 49 178q8 31 18 80q12 53 27 113q4 16 6 28q14 60 16 76q0 39 -47 56q-59 26 -153 26h-7q-100 0 -217 -24q-131 -31 -213 -72q-172 -76 -303 -264q-135 -231 -172 -396q-10 -66 -10 -116zM266 348q0 53 13 103 q14 63 59 190q50 124 113 190q61 70 223 173q113 67 196 67h2q41 0 68 -12q18 -6 22.5 -16.5t4.5 -34.5q0 -25 -6 -41q-2 -4 -5 -17q-2 -4 -6 -18q-10 -10 -12 -17q-4 -16 -8 -24q-4 -14 -6 -35l-2 -10q-2 -12 -19 -68q-2 -14 -10 -49q-14 -59 -23 -100q-10 -39 -18 -74 q-8 -39 -14 -61q-14 -63 -19 -74q-8 -33 -10 -47q-4 -10 -8 -35q-2 -2 -2 -6l-6 -6q-4 -6 -7 -9q0 -4 -4 -24q-4 -23 -6 -27q-20 -47 -59 -65q-2 -2 -6 -4q-6 -4 -11 -7q-2 -2 -4 -2l-4 -4t-16 -8q-14 -8 -19 -10q-117 -57 -206 -57q-68 0 -115 34q-53 39 -66 140 q-4 23 -4 65z" />
<glyph unicode="b" horiz-adv-x="1210" d="M41 45q0 -25 106 -25q8 0 37 3q20 0 49 2q6 0 31 2h31h31q18 -2 34 -2q20 0 37 -2h31q254 0 457 165q209 168 266 437q18 84 18 151q0 152 -88 236q-133 135 -323 137q-86 0 -117 -25q-47 -39 -106 -41q-47 0 -48 45q0 4 2 13q2 10 3 14q2 8 4 12q31 133 45 187 q8 39 24 98q4 14 8 27q10 45 25 96l6 20q4 8 8 23q6 20 11 20q6 10 14 33l2 4v4q0 -6 -8 -6q-35 -4 -49 -4q-12 2 -43 2h-52h-53q-43 0 -102 6q-4 0 -15 -6q-2 0 -2 2q0 -18 2 -18q43 0 58 -64q6 -14 6 -53q0 -59 -19 -168q-35 -197 -120 -551q-53 -213 -78 -295l-10 -39 q-31 -113 -43 -159q-49 -209 -68 -271q0 -2 -2 -6v-4zM285 195q0 8 2 22q2 18 2 27q14 104 41 229q29 133 86 369l6 12q4 25 6 39q0 2 4 14q2 10 2 13l6 18q0 6 11 33q10 29 41 45q109 61 178 61q156 0 235 -98q47 -53 47 -170q0 -102 -34 -240q-74 -289 -209 -393 q-129 -98 -281 -104h-33q-16 0 -26 2q-2 2 -4 2q-80 10 -80 119z" />
<glyph unicode="c" horiz-adv-x="1060" d="M41 410q0 -135 61 -240q88 -156 324 -156q115 4 213 60q111 63 207 155l2 2q-4 0 -4 -2q14 -6 18 -10q4 10 25 62l4 10q8 16 8 22q0 4 2 13v8q0 16 -8 16q-14 0 -49 -49q-59 -72 -158 -115q-88 -37 -176 -41q-152 0 -231 158q-57 121 -58 232q0 43 4 65q4 35 33 119 q23 68 72 155q51 80 125 138q72 61 180 61q68 0 113 -35q39 -43 59 -80q18 -45 18 -59q0 -27 -18 -45q-14 -16 -27 -68v-6q-2 -4 -2 -6q0 -4 4 -12q-2 6 -6 6q4 0 8 2l2 2q8 6 25 19l18 14l11 6q27 20 41 29q51 39 94 51q35 12 43 65l2 7q0 12 -19 26q-16 18 -26 33 q-6 8 -8 10q-6 8 -9 10q-82 102 -249 103q-197 0 -392 -168q-205 -168 -258 -406q-18 -86 -18 -161z" />
<glyph unicode="d" horiz-adv-x="1280" d="M41 377q0 -129 57 -223q86 -143 250 -144q84 0 203 62q25 12 43 24l12 6q12 8 21 11q6 6 13 7t11 1q43 0 43 -72q0 -27 17 -26q8 0 22 2h8q14 0 23.5 -7.5t13.5 -11.5q0 14 21 14q51 0 94 3q29 0 65 -3q18 -2 31 -2q6 0 12 13q14 8 15 14q-2 6 -10 6q-47 0 -66 66 q-6 16 -6 71q0 47 10 146q18 150 105 508l30 123q31 119 47 188q8 33 25 107q20 92 25 116q4 18 24 105q4 16 6 26q6 27 13 47q4 16 6 25q2 6 4 18q2 10 2 15q2 8 2 12q6 12 6 29q0 18 -29 18h-12q-6 -2 -14 -2q-10 0 -19 -2h-4q-25 -4 -41 -4q-35 0 -90 6q-8 2 -18 4t-21 4 q-4 0 -20 2q-12 0 -23 2q-8 0 -14 -8q-4 0 -4 -2q2 -20 8 -20q47 0 68 -43q16 -27 16 -88v-23q-2 -16 -2 -31q-8 -100 -74 -350q-12 -45 -35 -61q-8 -10 -30 -11q-21 1 -64 19q-12 8 -31 18q-29 16 -41 25q-39 23 -86 24q-219 0 -380 -176q-166 -184 -222 -422 q-16 -88 -16 -155zM233 463q0 66 9 129q25 219 153 338q127 127 262 127q125 0 187 -88q37 -45 39 -80q0 -53 -11 -86q-20 -82 -53 -203q-19 -78 -39 -178q-20 -76 -24 -98q-8 -41 -64 -101q-90 -88 -200 -88q-2 0 -19 2h-20q-123 18 -183 129q-37 74 -37 197z" />
<glyph unicode="e" horiz-adv-x="1019" d="M41 401q0 -137 68 -235q111 -150 307 -150q111 4 233 74q131 72 225 191q6 6 15 18q12 16 14 20q8 16 8 31q0 8 -12 15q-2 2 -6 2q-12 0 -29 -13q-31 -18 -43 -39q-49 -66 -114 -108q-72 -45 -154 -51q-84 0 -144.5 28.5t-109.5 87.5q-20 23 -20 52q0 33 36 65 q100 82 242 184l234 172v3l165 133q8 8 21 26q2 2 2 8q0 12 -6 27q-43 90 -115 145t-174 58q-154 0 -348 -154q-211 -162 -273 -418q-22 -92 -22 -166v-6zM203 541q0 25 6 51q33 137 121 272q94 180 276 180q94 0 121 -53q23 -45 35 -117q0 -4 2 -10v-8q0 -39 -27 -59 q-14 -11 -30 -27q-127 -111 -195 -158q-53 -39 -156 -123l-37 -28q-29 -18 -47 -19q-29 0 -53 31q-16 29 -16 68z" />
<glyph unicode="f" horiz-adv-x="1169" d="M41 -285h20q-16 0 -16 9q0 2 2 8v8q2 4 10 10l11 12q180 168 223 363q20 100 74 313l8 35q43 172 86 350q4 20 8 31l6 31q8 27 16 61q0 4 3 10v9q0 59 -68 59q-23 -2 -62 -2q-18 -2 -43 -2q4 0 7 -8v4l-2 4q0 2 -2 4q10 12 14 27q6 12 8 14q4 8 8 14q8 18 17 23 q14 10 24 10h17h18h33q63 0 76 59q6 25 18 84q0 6 4 25q2 25 10 61q4 18 6 29q4 90 50 133q72 59 139 99q127 86 215 86q150 0 149 -125v-13q-10 -45 -32 -57q-10 -4 -25 -12q-18 -12 -41 -23q-41 -16 -74 -47q-12 -12 -38 -18l-5 -2q-2 -2 -4 -2v2l2 2q0 10 7.5 18t33.5 19 h-37v-33q12 59 13 123q-12 69 -53 69h-1q-27 0 -61 -35q-25 -31 -49 -139q-4 -16 -4 -18q-8 -27 -25 -99q-12 -61 -28 -131v-8q-2 -6 -2 -8q0 -45 49 -45q80 6 184 6q2 0 2 6v-12q-2 0 -2 -2l-2 -2l-2 -2q0 -2 -2 -4t-2 -4t-2 -5q-8 -4 -8 -18q-4 -4 -9 -12q-4 -6 -8 -15 q-8 -14 -20 -20q-12 -10 -27 -10q-10 0 -43 2l-18 2h-33q-8 2 -23 4q-8 2 -12 2q-20 0 -33 -6q-23 -2 -37 -58q-2 -10 -8 -24q-4 -20 -6 -29q-2 -10 -2 -20q-2 -10 -4 -21l-4 -8q-2 -6 -4 -10q-57 -266 -82 -400q-39 -201 -68 -364q-14 -74 -67 -98q-70 -31 -142 -115 q-90 -102 -188 -145l-10 -5q-2 0 -4 -2h4q-31 0 -31 -2z" />
<glyph unicode="g" horiz-adv-x="1185" d="M41 -78q0 -123 78 -192q94 -84 291 -84q184 0 340 112q154 113 188 207q0 6 8 19l2 2q2 0 2 2l2 2q31 59 31 90q0 8 -4 12q-25 31 -55 47q-6 2 -19 6q-10 4 -14 5q-14 2 -35 10q-4 0 -22 4q-8 2 -54 16q-45 12 -55 15q-27 8 -53 14q-27 6 -56 14q-156 41 -231 58 q-10 10 -13 21t-3 28l2 8v8q6 37 53 43q2 0 12 2h13q12 4 30 4q10 -2 33 -4q8 -2 18 -4q8 0 23 -2h14q115 0 202 25.5t165 76.5q180 119 205 277q6 23 6 65q0 63 -25 109q-33 70 -104 127q-88 76 -266 76q-203 0 -373 -113q-164 -111 -201 -276q-6 -25 -6 -72q0 -55 16 -96 q39 -78 119 -127q2 -2 6 -13q4 -6 8 -14q10 -10 11 -29q0 -14 -13 -32q-14 -16 -59 -43q-6 -4 -22 -13q-12 -6 -15 -8q-8 -6 -12 -12q-82 -45 -82 -86l2 -4v-6q8 -33 23 -37q6 -2 16 -2q10 -2 16 -4q10 -2 47 -7q37 -6 48 -8q-16 -16 -46 -33q-10 -6 -14 -10 q-27 -35 -65 -37q-27 -10 -72 -49q-35 -33 -41 -88zM141 -102q2 8 2 12q20 96 121 147q29 12 35 33q2 15 2 33q113 0 236 -39q39 -12 112 -37q43 -14 129 -39q0 -20 -2 -39v-20q-14 -76 -131 -164q-106 -80 -237 -80q-133 0 -203 64q-63 57 -64 118v11zM391 674q0 49 8 88 q20 94 84 215q68 125 252 125q195 0 201 -144q0 -20 2 -40v-37q0 -82 -10 -129q-18 -92 -113 -209q-90 -115 -229 -115q-137 4 -178 123q-16 55 -17 123z" />
<glyph unicode="h" horiz-adv-x="1177" d="M41 33q0 -8 4 -8q2 0 8 2h6q2 0 13 2h12q4 0 14 -2h11q14 -2 47 -2q51 0 94 2q57 0 94 -4q14 0 14 -3q-4 27 -12 29q-39 2 -49 82v16q-2 14 -2 23q0 66 18 178q23 135 115 496q0 10 2 14v6q2 0 2 -2l2 4v4q12 63 43 78l15 8q18 10 28 13q12 4 31 10l18 6q41 12 64 16 q82 16 131 17q96 0 137 -41q25 -18 25 -82q0 -88 -58 -307q0 -6 -4 -15v-6q-2 -4 -2 -6q-2 -2 -2 -8q-2 0 -2 2v-12q-2 4 -2 6v-2v-4q-41 -188 -86 -322q-41 -121 -45 -170q0 -29 18 -28q41 4 86 4h43h41q29 0 86 -4h11q-4 12 -11 16q-27 10 -36 74v14q-2 12 -2 20 q0 35 10 107q16 94 76 297v-2v12q2 -14 2 -31h-2q0 4 2 29q6 37 6 43l4 12l2 7q0 2 2 6v2q0 6 2 14l2 6q0 6 4 19q0 6 4 18q0 6 4 19q2 10 8 43q8 39 15 61q10 55 18 90q16 66 17 127q-4 55 -23 72q-25 23 -59 28q-18 6 -70 7q-12 0 -31 -3q-25 -2 -36 -2q-98 -14 -193 -38 q-10 -4 -14 -5q-37 -12 -60 -22q-6 -2 -22 -10q-16 -4 -19 -6q-6 -2 -18 -7q-12 -4 -19 -8q-8 -8 -28 -8q-16 0 -29 6q-16 0 -20 11.5t-4 35.5q0 16 6 47q12 43 28 115q20 78 27 98q14 70 35 138q8 45 18 81q2 6 4 9q6 20 8 26q4 41 7 62q4 0 18 33q0 2 2 6v4q0 -6 -10 -6 q-31 -2 -41 -7q-14 -2 -51 -2h-49h-54q-31 0 -96 5h-6q-10 0 -10 -5v-8q-2 -8 -2 -10t-4 -2q45 0 63 -64q6 -12 6 -57q0 -66 -14 -166q-25 -172 -117 -551q-39 -170 -74 -297q-39 -145 -57 -202l-16 -52q-53 -164 -66 -204q-6 -14 -6 -35z" />
<glyph unicode="i" horiz-adv-x="645" d="M41 59q0 -4 2 -10q2 -4 2 -8q10 -10 90 -10h43h47q25 0 72 -2q12 -2 20 -2l5 2h2q4 4 4 6q0 12 2 20q-27 6 -39 41q-4 12 -4 51v23q2 20 2 33q4 49 14 102q10 68 31 158q16 74 39 172q2 6 20 86l2 10q33 121 39 158q6 23 15 59q8 25 8 29q10 49 12 67q6 20 8 33 q8 18 19 56q0 2 2 6v4q0 -6 -9 -6q-31 -4 -45 -4h-45q-53 0 -96 2q-35 0 -53 2q-4 0 -23 2q-12 0 -22 2q-8 0 -8 -2q0 -29 2 -29q39 -8 55 -57q8 -14 8 -60q0 -47 -10 -96q-14 -94 -86 -356q-51 -223 -82 -305q-43 -125 -43 -177zM379 1495q0 -31 16 -53q23 -29 64 -29 q45 0 86 35q47 37 55 88q4 8 4 25q0 29 -18 49q-27 32 -64 32q-45 0 -86 -34q-43 -37 -55 -88q-2 -8 -2 -25z" />
<glyph unicode="j" horiz-adv-x="849" d="M41 -268v-6q0 -10 18 -11h-4l2 2h6l17 9q115 39 180 110q78 125 197 197q18 0 18 28q4 -25 6 -34q20 41 21 41q-6 4 -16.5 16t-10.5 35q0 12 10 84q4 16 4 22q2 10 7 37q12 57 14 76q8 51 33 180l6 27q25 117 53 219q10 41 16 74q18 74 23 92q10 37 27 92q8 35 14 55 q10 31 18 43q2 4 2 10q0 2 -57 3h-33h-32h-37h-37q-39 0 -76 6q-10 0 -14 -4v-9q-2 -6 -2 -8q0 6 -11 6q35 0 60 -57q10 -31 10 -84q0 -12 -2 -33q-2 -29 -2 -43q-2 -49 -23 -155q-16 -84 -53 -226q-12 -41 -41 -141q-8 -29 -16 -55q-25 -92 -49 -205q-20 -98 -74 -191 q-55 -94 -150 -172l-10 -12q-8 -6 -10 -10q0 -4 -2 -8zM584 1481q0 -27 16 -49q25 -31 64 -31q45 0 86 35q47 37 55 86q4 8 4 24q0 29 -18 53q-21 31 -64 31q-45 0 -88 -39q-41 -31 -53 -86q-2 -8 -2 -24z" />
<glyph unicode="k" horiz-adv-x="1300" d="M41 39q0 -18 45 -19q8 0 20 3q16 2 23 2q14 2 51 2h49q55 0 97 -4q12 0 12 -3q0 6 -2 7q-23 6 -41 43q-8 12 -8 61v21q2 16 2 26q0 6 2 15q4 47 8 73q8 47 29 152q2 8 4 20q6 23 10 31q14 14 41 37q4 2 12 10q4 6 15 12q10 6 12 9l24 18q4 4 11 8q31 20 49 21 q41 0 65 -58q88 -221 111 -315q31 -135 31 -182q0 12 43 12h30q25 2 41 2q33 0 50 -4h34q2 0 15 -2q18 -2 26 -4t23 -2q14 0 22 -2q8 0 9 -6q0 2 -2 6l-3 6q-2 31 -6 31q-23 0 -59 43q-25 23 -82 145q-49 102 -135 375q-14 51 -14 88q2 20 86 100q150 131 241 197 q25 14 72 45q47 29 90 33q6 0 47 34l4 4q4 4 4 11q2 -8 11 -8q-43 -6 -109 -7h-49h-47q-37 0 -54 2q-37 0 -57 2q-70 4 -98 9q-23 0 -41 -19q-2 -6 -2 -18q0 -4 4 -4l2 -2q51 -20 53 -66q0 -37 -78 -121q-96 -96 -305 -245q-23 -16 -49 -23q-27 0 -35 5t-8 32v8q2 8 2 12 q0 2 4 15q2 14 4 22l4 15q2 10 5 20q4 25 8 41q8 18 10 33q31 127 78 313q20 84 39 164q6 27 12 49q8 35 18 92q8 43 11 49l10 50q6 20 6 24q4 10 4 19q2 8 4 12q0 10 2 16l2 8l4 11q6 18 13 30l2 5v4v-2h-4q-2 -2 -4 -2q-31 -4 -43 -9q-14 -2 -52 -2h-49h-55q-42 0 -103 6 q-8 0 -8 -2q-4 -14 -12 -14v-2l14 6q47 0 60 -67v-17q2 -14 2 -24q0 -63 -21 -179q-14 -90 -43 -221q-31 -141 -73 -338q-47 -211 -70 -297q-31 -125 -55 -202q-66 -229 -72 -285z" />
<glyph unicode="l" horiz-adv-x="675" d="M41 51q0 -26 91 -26h7q55 0 97 2q55 0 96 -4q12 0 12 -3q0 10 -4 11q-41 0 -47 82q0 78 24 221q29 166 113 512q35 152 78 311q12 51 35 156q14 59 16 69q14 61 31 140q12 53 14 63q4 10 4 19q2 8 4 12q0 10 2 16l2 8l5 11q6 18 12 30l2 5v4v-2h-4q-2 -2 -4 -2 q-31 -4 -43 -9q-16 -2 -52 -2h-49h-55q-41 0 -102 6q-8 0 -9 -4q0 -18 -6 -18q39 0 62 -66v-16q2 -16 2 -29q0 -74 -17 -174q-20 -156 -114 -551q-92 -373 -133 -499q-70 -227 -70 -273z" />
<glyph unicode="m" horiz-adv-x="1898" d="M41 8q0 -4 43 -4q8 0 25 2q25 2 34 2q2 0 13 2h12h14q10 -2 13 -2h49q31 0 92 -6q4 0 6 6q2 2 2 4q0 20 4 21q-27 2 -43 47q-10 14 -10 67v19q2 14 2 24q2 76 45 285h2q4 23 16 68q6 23 11 41q6 25 16 71q6 18 10 39q2 6 9 37q10 41 14 55q10 47 18 78q6 14 19 27 q14 41 73 84l13 6q72 33 108 41q86 25 146 25q90 0 125 -54q22 -28 22 -89v-5q0 -96 -61 -332l-2 -4t-4 -6q4 -2 4 -6q-2 0 -2 -4q-2 -6 -2 -15q-2 4 -3 7v-2v-13l-4 -4q-39 -184 -82 -311q-45 -129 -45 -176q0 -4 -4 -4q25 -12 109 -13h43h41q41 0 86 -6q10 0 10 -2 q-2 14 -10 19q-27 12 -37 71v13q-2 12 -2 20q0 33 10 111q10 74 76 297v-2v4v-23h-18q6 4 10 17q6 10 10 16q4 16 6 39q0 2 2 6q2 8 2 12l2 10q2 8 2 9q0 2 2 6v6l2 4q2 8 2 12q4 12 5 19q4 12 4 18q4 16 8 41q2 6 4 15q2 8 4 14q2 8 4 18t4 19q2 10 4 24q2 12 4 23 q16 51 37 74q39 39 88 57l4 2q66 25 80 27q85 26 149 26h5q84 0 123 -45q31 -27 31 -104q0 -100 -60 -316q2 0 2 -2q-2 -4 -2 -8t-2 -6q0 -8 -2 -10q0 -6 -2 -9v7v-13q-2 2 -2 4q-43 -201 -84 -321q-53 -160 -53 -193q0 4 -6 9q12 -4 118 -9q23 0 47 -6q4 0 17 -4 q14 -2 22 -4h80q12 0 15 6q-2 14 -11 19q-27 12 -36 67q-4 12 -5 43q0 41 13 105q8 43 30 112q31 117 45 193v-8v-21h-18q6 4 10 17q6 10 11 16q4 16 6 39q0 2 2 6q2 8 2 12q2 6 2 13q4 12 4 18l2 4q2 8 2 12q4 12 4 19q4 12 4 18l4 21q12 47 19 73q6 33 14 74l6 25 q14 82 15 127q0 102 -66 114q-25 8 -86 9q-111 0 -260 -39q-51 -12 -84 -33q-14 -6 -41 -21q-39 -18 -55 -26q-33 -16 -56 -17q-31 0 -43 25q-10 14 -22 47q-18 41 -62 51q-20 6 -48.5 7t-100.5 1q-96 -2 -195 -30q-41 -10 -82 -33q-45 -25 -94 -43q-12 -6 -28 -6 q-43 0 -43 37v8q-2 6 -3 8q0 6 3 16q2 10 2 15q2 6 8 22l2 4v5q0 -4 -8 -5q-33 -4 -47 -4h-41q-57 0 -101 2q-33 0 -51 2q-10 2 -23 2q-10 0 -22 3q-8 0 -8 -3q0 -29 4 -32q33 -2 55 -54q8 -10 8 -49q0 -29 -10 -104q-10 -59 -31 -143q-20 -74 -55 -218q-14 -55 -37 -135 l-8 -35q-20 -94 -33 -137q-55 -174 -55 -215z" />
<glyph unicode="n" horiz-adv-x="1187" d="M41 49q0 -4 2 -12q2 -4 2 -6q8 -8 53 -8q2 0 19 2h20q2 0 13 2h10q4 0 14 -2h10q14 -2 41 -2q29 0 45 -5q4 0 23 -2q10 0 20 -2q8 0 9 6l2 13q0 12 2 12q-25 6 -37 51v10q-2 12 -2 21q0 8 2 29q2 33 2 45q2 12 8 51q2 18 6 53q18 94 33 158q27 121 45 219q12 74 33 158 q20 94 119 131q20 8 47 14q16 4 41 12q94 27 163 27q82 0 117 -35q31 -25 31 -102q0 -96 -55 -303q0 -10 -2 -15l-3 -2v-4l-2 -4v-4l-2 -4v-14l-2 -2q0 -16 -2 -17v49h8q-45 -217 -94 -350q-55 -154 -55 -184h-2q10 -10 61 -10q2 0 19 2h20q4 0 13 2h10q4 0 12 -2h8h41 q35 0 86 -7h11q-4 16 -9 19q-20 14 -26 74v12q-2 8 -2 14q0 43 12 113q8 61 57 282l4 23v-8v-21h-12q2 6 6 23q8 31 15 51l4 4q2 12 2 25l2 4q2 8 2 12l4 4q2 4 2 10t2 11q2 8 2 16q0 6 2 14q29 121 49 197q27 78 27 125q-2 47 -29 70q-29 20 -69 30q-20 6 -72 6 q-10 0 -29 -2q-27 -2 -37 -2q-94 -14 -190 -39l-12 -4q-35 -10 -56 -20q-49 -20 -75 -31q-12 -4 -15 -4q-31 -10 -41 -10q-37 0 -37 24q-2 12 -2 19q0 2 2 12q2 12 2 21q0 6 2 12l3 4l2 -2q0 4 6 27l2 4v4q0 -4 -8 -4q-31 -4 -45 -4h-46q-23 0 -81 -3l-21 -2h-20 q-18 -2 -23 -2q-8 0 -27 2q-18 2 -28 2q-12 0 -13 -4q0 -29 3 -28q35 -2 61 -49q10 -14 10 -64q0 -43 -8 -86q-6 -47 -31 -131q-25 -94 -55 -227q-6 -25 -20 -76q-18 -74 -27 -107q-6 -20 -10 -39q-18 -63 -27 -86q-45 -139 -45 -184z" />
<glyph unicode="o" horiz-adv-x="1226" d="M41 440q0 -145 86 -260q125 -164 352 -164q236 0 434 168q203 166 256 402q16 72 17 131q0 154 -88 268q-126 164 -353 164q-231 0 -434 -170q-205 -170 -256 -406q-14 -82 -14 -133zM238 430q0 74 16 141q45 209 152 365q110 158 313 158q213 0 250 -162q16 -63 16 -156 q0 -98 -20 -203q-41 -217 -177 -358q-129 -141 -284 -141q-156 10 -225 159q-41 84 -41 197z" />
<glyph unicode="p" horiz-adv-x="1275" d="M41 -352q0 -4 2 -8v-7q0 6 8 7q47 0 94 41q61 49 121 55q10 2 13 20q6 27 12 51q4 6 4 19q0 4 -2 12t-2 12q-2 16 -2 50q4 20 6 39q2 18 4 22q12 59 72 62q283 33 538 237q254 201 305 440q20 82 21 156q0 125 -59 193q-91 108 -281 108h-4q-78 -4 -133 -49 q-74 -53 -109 -61q-12 -4 -39 -5q-2 0 -10 2h-12q-39 0 -39 41v9q2 8 2 12q4 8 4 20q0 25 -35 25h-8q-8 -2 -12 -2q-8 0 -17 -2h-4q-25 -4 -41 -4q-35 0 -84 -4q-31 0 -65 2q-16 2 -21 2q-8 0 -8 -2q0 -8 -2 -19v-12t-8 -4q51 0 65 -59q10 -27 11 -74q0 -51 -13 -131 q-18 -160 -110 -543q-59 -248 -99 -381q-49 -158 -61 -244q-2 -10 -2 -26zM344 156q0 2 2 10v10l6 25l4 14q2 10 4 21q2 8 5 18q2 10 4 18q0 6 4 21q2 16 4 26q12 53 31 140q4 23 10 49q10 39 14 65q12 53 19 74q8 39 14 62q12 49 14 61q8 35 13 49q8 39 10 49q12 61 41 90 q2 2 8 7q27 24 41 30q76 43 170 45q172 0 223 -122q27 -59 27 -144q0 -61 -19 -133q-16 -80 -75 -182q-68 -113 -173 -197q-74 -59 -137 -90q-80 -43 -141 -68q-37 -18 -61 -18q-20 0 -41 16q-20 23 -21 54z" />
<glyph unicode="q" horiz-adv-x="1310" d="M41 365q0 -125 55 -222q84 -145 252 -145q8 0 21 2q16 2 24 2q143 16 273 92q2 0 10 4q0 12 15.5 16.5t25.5 4.5q6 -4 13 -13.5t7 -21.5l-2 -6q-2 -12 -2 -21q-33 -123 -74 -227q-25 -55 -51 -166q0 -2 -2 -6v-4v-2q0 4 19 4q27 0 67 41q55 53 142 57q12 4 18 15 q16 16 18 45q8 88 37 219q37 154 56 264q72 373 120 549q45 162 84 215q35 53 74 53q14 0 27 31h2q0 -10 -6 -10h-27q-20 -2 -23 -2q-10 0 -20 2h-18l-19 2q-53 2 -72 2h-36q-33 -8 -74 -11h-10q0 -2 2 -6q2 -6 2 -8v-14q-14 -57 -43 -58q-4 0 -12.5 2.5t-14.5 8.5l-16 12 q-15 10 -15 12l-8 4q-55 31 -84 45q-55 23 -110 23q-195 0 -355 -160q-174 -162 -241 -422q-29 -115 -29 -202zM238 463q0 66 18 141q55 203 137 322q100 143 250 143q127 0 242 -121q26 -26 26 -62q0 -7 -2 -16q-2 -10 -2 -14q-4 -20 -16 -78q-18 -90 -27 -133 q-14 -57 -30 -139q-20 -92 -37 -170q-18 -96 -76 -131q-41 -23 -100 -49q-55 -25 -93 -25q-4 0 -10 2h-8q-162 25 -236 166q-36 64 -36 159v5z" />
<glyph unicode="r" horiz-adv-x="960" d="M41 37q0 -4 113 -4h49q14 -2 41 -2q33 0 49 -4h43l4 2h2q4 4 4 6q0 20 4 20q-29 6 -41 41q-4 12 -4 51v23q2 20 2 33q4 51 15 102q10 68 30 158q6 29 17 74q6 31 10 47q14 53 24 102q4 14 15 51l6 25l4 18q8 43 12 68q12 49 39 78q27 33 74 59q49 25 74 25q90 0 90 -76 v-10q-2 -10 -2 -17q-10 -37 -33 -53q-37 -31 -43 -57l-4 -19q0 -2 4 -2q20 0 109 53q90 49 122 70q35 20 41 51q0 2 2 2v2v4q1 9 5 17q2 14 2 39q0 55 -31 92q-43 49 -101 49q-57 0 -75 -16q-25 -20 -76 -52q-2 0 -8 -4q-14 -12 -31 -20l-8 -4l-12 -6q-14 -4 -29 -4 q-2 2 -4 2q-23 0 -28 8t-5 28v7q2 4 2 8t2 8v6q0 16 -49 17h-33h-16q-53 0 -96 2q-35 0 -52 2q-10 2 -22 2q-18 2 -23 2q-10 0 -10 -2q0 -27 4 -31q37 -8 55 -55q8 -14 9 -58q0 -31 -11 -98q-10 -49 -32 -129q-25 -94 -56 -227q-8 -33 -22 -82q-20 -70 -25 -88 q-6 -33 -22 -95q-8 -35 -11 -40q-59 -174 -63 -199z" />
<glyph unicode="s" horiz-adv-x="1056" d="M41 186q0 -6 4 -10q53 -61 170 -106q121 -41 260 -41q154 0 326 110q174 111 207 279q8 29 8 80q0 70 -29 114q-41 70 -117 113q-70 43 -174 66q-109 25 -180 43q-47 16 -88 53q-41 33 -41 74q0 2 2 8v6q12 63 78 86q53 18 123 24q82 0 201 -55q118 -59 161 -149 q2 -4 2 -11q8 -31 15 -47q4 27 10 27q20 0 20 22q-4 57 -10 84q-8 31 -8 88q0 10 -18 17q-31 12 -54 24q-43 23 -114 35q-35 6 -101 15q-16 2 -35 4l-4 -4q-23 8 -69 8q-100 0 -207 -43q-121 -53 -152 -199q-8 -37 -8 -55q0 -39 21 -72q41 -57 108 -76q66 -39 168 -63 q80 -18 189 -55q70 -49 94 -95q20 -37 20 -82q0 -33 -8 -59q-29 -113 -123 -178q-98 -10 -172 -10q-12 0 -15 -25t-3 -41q0 4 3 9t5 5q-100 0 -161.5 26t-100.5 77q-74 102 -86 203q-4 16 -8 69q0 20 -25 21q-18 0 -25 -17q-2 -18 -6 -32q-6 -37 -8 -50q-8 -27 -18 -79 l-2 -13q-6 -23 -15 -61l-6 -29q-4 -12 -4 -33z" />
<glyph unicode="t" horiz-adv-x="823" d="M41 43q0 -16 109 -16q53 0 96 -2q33 0 96 -7q6 0 10 5q0 6 2 18v10q0 6 13 6q-35 4 -48 76v19q-2 16 -2 26q0 63 15 162q18 127 106 502q12 49 17 71q4 14 8 35q4 18 8 33q8 41 14 61q4 18 15 48l2 8q0 8 8 35q12 34 51 34h2h10q6 -2 9 -2q45 -8 57 -18h35q12 0 26 8 q14 10 25 25l6 12q4 4 6 8q8 8 13 14q12 14 22 25q10 10 10 25q-4 4 -12 4q-4 0 -16 2q-4 2 -11 2l-6 2q-8 2 -12 2q-72 -2 -109 -14q-59 0 -59 49v10q2 10 2 16q8 37 21 90l8 33q6 31 12 56q2 10 4 18q12 45 17 65l6 13q0 4 6 18q2 6 4 15q4 10 6 18q0 6 2 27q2 6 2 10 q0 -6 -16 -6h-15h-28q-16 0 -23 -19q-45 -123 -174 -286q-127 -156 -237 -195q-12 -6 -19 -18q-4 -16 -6 -23q0 -10 2 -20v-3q0 6 4 7q49 0 84 8q8 0 21 -2h14q41 0 41 -47v-9q-2 -8 -2 -12q-2 -8 -6 -26q-6 -25 -8 -37q-6 -20 -15 -62q-12 -41 -16 -63q-4 -14 -8 -39 q-6 -23 -9 -33q-49 -213 -71 -297q-31 -125 -49 -196q-66 -246 -70 -279z" />
<glyph unicode="u" horiz-adv-x="1165" d="M41 139q0 -45 16 -78q37 -53 115 -53q88 0 211 41q10 4 61 23q49 16 60 20q10 4 49 17q45 14 70 24q14 10 32 10q41 0 41 -39q0 -4 -2 -14q-2 -16 -4 -29q0 -4 -2 -10v-8t2 -10t2 -13q4 6 8 7h9q6 2 10 2q10 2 67 2q25 0 78 -4h13q37 0 53 -4q25 0 37 -3q-2 0 -2 -2 q8 23 8 52q0 -4 16 -4q-31 4 -51 40q-14 16 -14 84v19q2 14 2 24q2 82 63 338q12 57 39 166q2 14 12 56q10 45 21 79q10 41 14 62q6 31 21 74q2 6 4 14q6 35 8 45q4 20 8 27v2l4 14q2 8 4 14q0 12 -2 17q-4 4 -10 4q-37 -4 -51 -6q-25 -6 -60 -6h-38h-48q-53 0 -88 6 q4 0 4 2q-6 -16 -6 -39q0 2 -12 2q33 -10 49 -55q12 -16 12 -84v-25q-2 -23 -2 -35q-6 -92 -71 -340q-4 -14 -13 -49q-8 -27 -10 -37q-4 -20 -10 -49l-4 -24q-2 -4 -4 -19q-4 -20 -8 -31q-2 -8 -7 -24q-4 -16 -6 -27q-16 -61 -112 -104q-61 -29 -115 -43q-20 -4 -78 -21 q-10 -2 -26 -6h-9q-14 -2 -22 -2q-35 0 -60 4q-57 8 -57 107q0 45 16 143h-4q8 37 29 129q2 8 25 111q68 276 88 356q14 57 32 117l3 6q16 31 32 43l2 -2q-8 0 -16 -4v-4q-2 4 -6 4q-84 -8 -133 -9q-23 0 -37 -2q-16 -2 -55 -2h-29q-20 -2 -25 -2q-10 0 -22 2h-19v2 q0 -4 -2 -12v-10h-10q33 -6 57 -72q16 -23 17 -71v-23q-2 -12 -2 -25q-6 -111 -70 -354q-2 -6 -6 -20q-6 -18 -10 -27q-4 -14 -11 -51q-2 -12 -4 -17q-8 -37 -12 -51q-4 -4 -8 -12h14q-2 -6 -6 -21q-6 -20 -12 -26q0 -6 -2 -8v-6q-2 -4 -2 -7q-2 -4 -2 -10 q-29 -102 -29 -166z" />
<glyph unicode="v" horiz-adv-x="1136" d="M41 1122q25 0 51 -45q23 -43 53 -166q31 -109 80 -370q4 -20 11 -62q8 -47 12 -71q8 -35 16 -74l8 -37l2 -14q12 -74 19 -105q12 -82 18 -125q4 -39 39 -39q31 0 62 49q35 49 110 175q20 31 58 90q16 27 36 57q33 49 50 76q14 23 49 82q14 20 30 49q150 229 228 346 q70 94 108 166q14 23 15 31h-15h-82q-88 0 -141 6q-8 0 -12 -11q-12 -31 -12 -47q57 0 57 -57q0 -2 -2 -10q-2 -10 -2 -17q-8 -37 -60 -129q-57 -96 -163 -245q-25 -33 -58 -95l-14 -22q-27 -49 -60 -100q-43 -43 -59 -43q-14 4 -37 55q-10 55 -14 108q-6 78 -21 121 q-51 201 -53 281q0 102 8 176q0 2 2 6v4q0 20 -36 21q-35 0 -50 -2q-18 -2 -43 -2q-39 0 -75 10q-33 8 -66 12q-6 0 -27 -16q-14 -4 -14 -6q-4 -10 -6 -11z" />
<glyph unicode="w" horiz-adv-x="1597" d="M41 1100q27 0 65 -27q10 -14 41 -139q10 -66 25 -156q10 -57 31 -188q4 -20 6 -37q12 -90 18 -133q12 -78 17 -115q2 -39 10 -117q6 -41 14 -127q4 -45 35 -45q14 0 23 -12h12q78 162 188 361q76 135 162 323q2 10 27 29q8 10 16 13t12 3q33 0 33 -43q4 -39 6 -78 q6 -66 9 -88q2 -35 4 -53q6 -68 8 -106q-12 86 -23 129v-195q12 -279 84 -279q33 0 60 50q100 168 145 254q37 78 61 127q35 68 78 137q59 104 131 215q61 96 84 133q92 147 129 203q4 2 4 4h-38h-19q-12 -2 -22 -2h-11q-8 -2 -10 -2h-10q-8 2 -12 2q-29 4 -41 6 q-29 4 -41 6q-10 2 -17 2q-12 2 -16 2q-2 0 -2 -4l-2 -6q-12 -12 -15 -17q-4 -8 -4 -18q0 8 -10 8q43 -6 57 -57q0 -51 -40 -160q-41 -98 -197 -354q-6 -8 -16 -27q-12 -18 -13 -22q-2 -6 -18 -35q-6 -12 -12 -23q-41 -31 -54 -30l-10 8q-8 10 -14 33q-8 109 -15 170 q-6 47 -14 145l-2 12q-4 49 -14 127l-2 17q-6 51 -11 166q0 57 -24 57q-39 0 -64 -72q-20 -55 -65 -139q-31 -59 -96 -166q-109 -168 -181 -303q-31 -68 -47 -68q-37 0 -37 52q-2 6 -2 14q0 6 -2 12v4q-4 16 -4 25q0 4 -4 33l-6 39q-43 227 -43 346q8 162 8 215h-45 q-6 0 -25 -2q-27 -2 -36 -2h-9q-8 -2 -10 -2l-10 2h-10q-10 2 -21 2q-12 0 -22 2t-19 2q-16 2 -20 2q-14 2 -35 6q-4 0 -8 -10q-2 0 -4 -2q-4 0 -4 -2l-3 -19q0 -18 -2 -18q-20 0 -20 2z" />
<glyph unicode="x" horiz-adv-x="1288" d="M41 31q23 0 22 -6q0 8 -4 10q41 45 105 86q63 39 127 96q63 80 127 166q33 27 114 98q16 14 72 62q35 35 35 73q0 20 -8 33q-94 233 -135 303q-39 76 -70 115q-41 33 -49 33q2 12 2 37q2 -2 2 -4v4h-4q10 0 16 -2q37 -2 51 -2h35h33q29 0 47 2h64q71 0 71 -7v-10 q-2 -12 -2 -20q0 -68 8 -121q6 -57 62 -182q16 -23 37 -23q20 0 59 33q106 106 129 149q23 45 23 66q0 4 -2 11t-4 11q-16 29 -46 43q2 0 3 2q0 10 2 15q8 29 14 37h-2h6l4 -2q25 -4 98 -4q10 0 31 -3q18 0 29 -2q18 0 35 2h10q8 0 22 3q12 2 19 2q18 0 18 2q0 -2 -2 -2 q-20 -45 -98 -121q-70 -70 -273 -316q-37 -25 -36 -53q0 -31 10 -49q100 -248 137 -322q49 -96 86 -143q35 -47 57 -59q8 -6 19 -29q0 -2 -8 -2l-6 -2q-10 -8 -27 -8q-51 8 -135 8h-45q-10 -2 -31 -2q-20 0 -31 -2h-12q-10 -2 -12 -2q-25 0 -25 4l2 4v4q8 27 8 72 q0 47 -6 76q-10 82 -96 260q-10 33 -45 32q-23 0 -49 -24q-176 -176 -213 -244q-33 -66 -33 -98q0 -4 2 -10v-9q14 -39 59 -55q-8 0 -8 10q0 -2 -6 -8l-4 -4q-16 -16 -39 -16l-18 2q-59 4 -90 6q-41 2 -66 2q-45 2 -47 2q-59 0 -125 -8z" />
<glyph unicode="y" horiz-adv-x="1341" d="M41 -371q4 -2 4 -22v-8q14 -4 35 -5q6 0 12 3h6q23 6 74 6h35q29 0 41 -2q2 0 8 -2h6q18 0 31 18q113 139 229 367q45 90 119 202q61 90 111 166q94 141 190 303q80 129 133 199q104 147 152 195q74 61 73 86v-7q-51 12 -114 13q-55 0 -88 2q-33 0 -49 2q-6 2 -17 2 q-12 0 -18 2q-14 0 -27 -27q-8 -10 -8 -20q0 14 -6 14q55 0 65 -59q4 -10 4 -19q0 -47 -63 -180q-78 -164 -297 -477q-53 -66 -72 -66q-29 0 -47 45l-2 5q-2 4 -4 6v10l-2 8q0 2 -2 4v13q-80 356 -92 495t-12 195q0 12 2 28v9q0 -2 -41 -3q-29 0 -82 -6q-53 0 -86 11l-13 2 q-53 10 -79 14q0 2 8 3t12 1q-2 -4 -4 -10q-18 -12 -19 -17q2 -23 15 -30q29 -12 63 -78q29 -51 68 -209q35 -156 78 -465q2 -6 6 -43q6 -37 6 -45q4 -25 12 -78q4 -51 8 -78q2 -14 7 -39q4 -23 4 -26q0 -8 2 -23v-16q0 -29 -10 -49q-8 -18 -33 -51l-4 -4 q-96 -117 -158 -158q-20 -12 -43 -29l-4 -2q-6 -10 -64 -37q-14 -10 -32 -16q-10 -6 -27 -23z" />
<glyph unicode="z" horiz-adv-x="1318" d="M41 23q84 4 178 7t225 3h19q252 -4 385 -4q43 0 72 34q43 45 65 93q27 53 84 104q25 16 31 43q0 2 2 6v4q0 6 -8 6q-12 0 -37 -24q-12 -10 -31 -25q-12 -10 -22 -18q-156 -100 -295 -131q-143 -33 -158 -33q-49 0 -74 2q-45 0 -67 -2q-23 0 -31 6t-8 31q2 8 2 12 q6 8 12 25l2 4q92 117 172 196q74 70 180 191q47 55 133 154q86 100 113 131q158 176 264 280q29 23 29 29q0 -10 -2 -10q-92 0 -176 -2l-256 -7h-82q-80 -2 -152 -2q-121 1 -125 9q-12 -4 -28 -41q-41 -33 -64 -54q-29 -57 -71 -112q-12 -8 -13 -25q0 -2 2 -6q0 -4 2 -6 q4 -2 9 -2q12 0 28 10q31 20 68 53q47 43 155 86q84 33 222 33h39q25 -2 43 -2l14 -4q8 -2 14 -4q33 0 33 -37q0 -18 -18 -43q-70 -72 -166 -154q-88 -109 -181 -229q-37 -41 -53 -61q-129 -143 -196 -215q-131 -141 -269 -267q-14 -18 -14 -30v-2z" />
<glyph unicode="{" horiz-adv-x="567" d="M41 850q0 -29 37 -57q66 -47 65 -117q-41 -227 -41 -420q0 -20 2 -45v-43q5 -166 19 -207q-4 90 -4 172q0 6 2 47v51q10 207 55 459q0 2 2 6v4q0 31 -43 58q-61 45 -61 98q0 2 2 8v8q16 55 100 111q72 41 80 76q66 252 154 471q57 160 116 260q-47 -37 -108 -215 q-109 -213 -193 -522q-12 -45 -102 -109q-68 -41 -80 -82v-6q-2 -4 -2 -6z" />
<glyph unicode="|" horiz-adv-x="438" d="M41 72h10l346 1544h-10z" />
<glyph unicode="}" horiz-adv-x="561" d="M41 -25q47 39 102 205q109 209 191 504q14 55 104 111q72 35 80 75l2 4v5q0 31 -41 67q-59 53 -59 115q45 246 45 442v43q-2 35 -2 41q-2 176 -25 215q10 -76 11 -166q0 -18 -3 -55q-2 -39 -2 -61q-8 -199 -57 -469v-4q-2 -2 -2 -5q0 -29 41 -63q61 -55 61 -98v-7 q-2 -6 -2 -8q-16 -63 -104 -110q-63 -33 -78 -74q-74 -252 -151 -440q-58 -171 -111 -267z" />
<glyph unicode="~" horiz-adv-x="675" d="M41 1487q20 35 43 90q25 61 49 90q-8 -14 -22 -39q-2 -6 -7 -12q61 55 111 55q68 0 129 -117q4 -14 16 -38q7 -15 9 -21q0 16 -25 78q-16 45 -22 61v-51q57 -166 122 -166q35 0 78 41q43 39 105 113q2 4 2 8t2 10l2 4v6q2 6 2 11q-12 -20 -23 -62q-8 -37 -18 -59 q-16 -8 -25 -10q-66 -53 -112 -54q-68 0 -123 113q-6 16 -19 39q-6 16 -8 20l-2 11q-2 8 -2 10q12 0 31.5 -19.5t19.5 -87.5q-57 168 -125 168q-33 0 -77 -41q-45 -43 -105 -114q0 -8 -2 -13q0 -6 -2 -10q0 -4 -2 -8v-6z" />
<glyph horiz-adv-x="323" d="M41 1470q0 -34 12 -59q18 -43 39 -43q-16 0 -16 -14q0 16 -10 37q-6 47 -7 141q29 -37 80 -37q45 0 86 35q45 35 54 84q4 10 4 28q0 29 -17 48q-27 33 -65 32q-92 0 -135 -125q-25 -74 -25 -127z" />
<glyph horiz-adv-x="299" d="M41 1573q0 -29 14 -49q23 -29 66 -29q66 0 117 49q-39 -82 -80 -160q-29 -29 -29 -38q0 23 -20 22q26 0 69 49q66 59 78 191q0 8 2 16v14q0 84 -76 84q-45 0 -88 -36q-43 -35 -51 -84q-2 -10 -2 -29z" />
<glyph horiz-adv-x="614" d="M41 1470q0 -34 12 -59q18 -43 39 -43q-16 0 -16 -14q0 16 -10 37q-6 47 -7 141q29 -37 80 -37q45 0 86 35q45 35 54 84q4 10 4 28q0 29 -17 48q-27 33 -65 32q-92 0 -135 -125q-25 -74 -25 -127zM330 1473q0 -39 14 -62q18 -43 39 -43q-14 0 -14 -12q0 10 -11 37 q-8 61 -8 137q35 -35 80 -35q47 0 88 35q43 35 51 84q4 10 4 28q0 31 -16 50q-20 31 -65 30q-92 0 -136 -125q-27 -76 -26 -124z" />
<glyph horiz-adv-x="587" d="M41 1573q0 -29 14 -49q23 -29 66 -29q66 0 117 49q-39 -82 -80 -160q-29 -29 -29 -38q0 23 -20 22q26 0 69 49q66 59 78 191q0 8 2 16v14q0 84 -76 84q-45 0 -88 -36q-43 -35 -51 -84q-2 -10 -2 -29zM332 1573q0 -27 14 -47q25 -31 64 -31q68 0 122 47q-29 -55 -71 -139 l-10 -19q-29 -29 -29 -38q0 23 -21 22q25 0 68 49q63 59 76 191q0 8 2 16v14q0 84 -76 84q-43 0 -84 -36q-41 -31 -53 -84q-2 -10 -2 -29z" />
<glyph unicode="&#xa3;" horiz-adv-x="1540" d="M41 37q0 -2 2 -6t2 -6q233 16 442 18q145 0 260 -3t242 -11q43 0 64 30q23 35 47 82q12 18 28 45q12 23 23 39q31 47 76 92q37 37 73 86q10 12 11 35q-4 4 -11 4q-57 0 -96 -51q-111 -123 -278 -158q-152 -31 -371 -34q-98 0 -98 71q0 25 10 47q27 61 84 185 q43 82 65 182q10 47 11 121h114h168v12h-280q-4 131 -8 197v20q-2 16 -3 21q0 53 15 125q23 100 92 190q43 68 125 117q72 47 117 57q35 8 112 8q53 0 113 -26q59 -41 59 -47q0 -14 -39 -60q-47 -53 -63 -121q-4 -16 -4 -49q0 -47 24 -84q37 -51 103 -51q74 0 135 55 q68 59 86 142q6 16 6 47q0 27 -10 53q-27 121 -152 201q-127 78 -303 78q-180 0 -332 -91q-154 -90 -241 -229h-2q-68 -125 -84 -203q-14 -63 -15 -114q0 -2 2 -19v-22q4 -127 5 -195h-76v-12h74q-4 -78 -15 -133q-37 -154 -123 -301q-90 -180 -186 -332v-2z" />
<glyph unicode="&#xad;" d="M41 547h795l2 6h-797v-6z" />
<glyph unicode="&#x2000;" horiz-adv-x="914" />
<glyph unicode="&#x2001;" horiz-adv-x="1829" />
<glyph unicode="&#x2002;" horiz-adv-x="914" />
<glyph unicode="&#x2003;" horiz-adv-x="1829" />
<glyph unicode="&#x2004;" horiz-adv-x="609" />
<glyph unicode="&#x2005;" horiz-adv-x="457" />
<glyph unicode="&#x2006;" horiz-adv-x="304" />
<glyph unicode="&#x2007;" horiz-adv-x="304" />
<glyph unicode="&#x2008;" horiz-adv-x="228" />
<glyph unicode="&#x2009;" horiz-adv-x="365" />
<glyph unicode="&#x200a;" horiz-adv-x="101" />
<glyph unicode="&#x2010;" d="M41 547h795l2 6h-797v-6z" />
<glyph unicode="&#x2011;" d="M41 547h795l2 6h-797v-6z" />
<glyph unicode="&#x2012;" d="M41 547h795l2 6h-797v-6z" />
<glyph unicode="&#x2013;" horiz-adv-x="1105" d="M41 547h1021l3 6h-1024v-6z" />
<glyph unicode="&#x2014;" horiz-adv-x="2129" d="M41 547h2043l5 6h-2048v-6z" />
<glyph unicode="&#x202f;" horiz-adv-x="365" />
<glyph unicode="&#x205f;" horiz-adv-x="457" />
<glyph unicode="&#x25fc;" horiz-adv-x="1136" d="M0 0v1137h1137v-1137h-1137z" />
</font>
</defs>
</svg>
