<?xml version="1.0" standalone="no"?>
<!DOCTYPE svg PUBLIC "-//W3C//DTD SVG 1.1//EN" "http://www.w3.org/Graphics/SVG/1.1/DTD/svg11.dtd" >
<svg xmlns="http://www.w3.org/2000/svg">
<metadata></metadata>
<defs>
<font id="boltonitalicoutlineregular" horiz-adv-x="1148" >
<font-face units-per-em="2048" ascent="1638" descent="-410" />
<missing-glyph horiz-adv-x="819" />
<glyph horiz-adv-x="0" />
<glyph horiz-adv-x="682" />
<glyph unicode=" "  horiz-adv-x="819" />
<glyph unicode="&#x09;" horiz-adv-x="819" />
<glyph unicode="&#xa0;" horiz-adv-x="819" />
<glyph unicode="!" horiz-adv-x="800" d="M291 279q53 0 84 -41q20 -31 20 -66q0 -20 -4 -33q-12 -57 -61 -98q-47 -41 -103 -41q-55 0 -84 41q-20 31 -20 65q0 23 4 33q16 61 61 99q48 41 103 41zM291 360q-84 0 -156 -59q-63 -51 -86 -135q-8 -18 -8 -60q0 -57 35 -112q51 -76 151 -76q84 0 156 59q70 57 88 142 q6 20 6 53q0 61 -35 113q-57 75 -151 75zM600 1108q-41 -147 -113 -389q-53 -172 -102 -387q-59 35 -76 35q-14 -4 -82 -39l135 780q61 315 138 469q76 156 125 156q51 -2 53 -158q0 -166 -78 -467zM680 1087q80 311 80 488q-6 238 -133 240q-78 0 -201 -275 q-78 -135 -143 -418l-164 -944q160 94 200 107q25 0 121 -80q55 256 125 489l29 99q59 196 86 294z" />
<glyph unicode="&#x22;" horiz-adv-x="487" d="M160 1706h71l-28 -129q-20 -94 -58 -94q-23 0 -22 39q0 12 6 43l2 12zM94 1788l-43 -195q-2 -12 -4 -28q-6 -31 -6 -43q0 -57 27.5 -89t76.5 -32q86 0 138 158l51 229h-240zM272 1706h72l-29 -129q-20 -94 -57 -94q-23 0 -22 37q0 33 8 57zM207 1788l-43 -189 q-10 -35 -10 -79q0 -119 104 -119q86 0 137 158l51 229h-239z" />
<glyph unicode="#" horiz-adv-x="1198" d="M358 94h-57l119 324h-277l13 57h284l54 154h-304l13 57h311l123 342h59l-125 -342h148l125 342h57l-125 -342h277l-15 -57h-282l-56 -154h304l-13 -57h-309l-119 -324h-55l117 324h-148zM416 12l119 324h-27l-117 -324h230l118 324h318l49 221h-289l-4 -10h289l55 221 h-264l125 342h-232l-124 -342h26l125 342h-233l-123 -342h-320l-47 -221h289l4 10h-293l-49 -221h262l-119 -324h232zM496 475h149l55 154h-151zM610 557l-2 -10h-24l4 10h22z" />
<glyph unicode="$" horiz-adv-x="1271" d="M891 1391h45l-76 -238q109 -14 170 -45q16 -10 51 -23q33 -14 33 -41q0 -61 8 -94q6 -25 11 -78q-2 -49 -46 -49q-18 0 -30 17q-10 14 -19 28q-25 53 -88 99q-61 45 -127 67l-65 -207q150 -37 286 -114q104 -57 105 -207q0 -61 -8 -94q-37 -180 -217 -295 q-182 -115 -340 -115q-63 0 -90 2l-72 -219h-43l72 225q-219 35 -314 146q-14 8 -14 30q0 25 6 41l6 25q8 41 15 63q12 61 20 91q2 8 8 40q4 18 6 31q10 47 49 47q49 0 50 -45q4 -47 8 -65q8 -76 55 -156q41 -80 148 -115l147 461q-37 10 -106 31q-43 12 -89 39 q-78 23 -120 86q-25 41 -25 86q0 27 10 61q35 160 166 215q109 45 217 45q41 0 62 -4l2 2q20 -2 43 -6q14 -2 18 -2zM829 1473l-67 -226h-12q-14 2 -23 2l2 2q-12 -2 -35 -2q-123 0 -248 -51q-172 -70 -215 -270q-12 -39 -12 -82q0 -70 37 -131q55 -86 158 -117 q55 -29 98 -41l12 -4t13 -4l-97 -303q-16 16 -22 51q-37 63 -47 133q-4 23 -6 51q0 125 -132 125q-104 0 -129 -145l-6 -15l-8 -24q-10 -33 -20 -88q-4 -14 -13 -49q-4 -20 -6 -33q-10 -27 -10 -66q0 -41 12.5 -63.5t32.5 -32.5q78 -111 258 -145l-78 -242h215l70 215 q10 2 33 2q178 0 383 127q211 133 254 346q10 39 10 113q0 199 -146 278q-106 68 -223 103l15 43q10 -8 24 -29q45 -29 64 -67q10 25 28 57q39 -150 94 -150q119 0 127 131q-4 39 -12 58q-6 47 -6 114q0 76 -84 117q-18 6 -43 19q-41 31 -100 41l80 252h-220zM535 133 q8 0 22 -2q31 -2 57 -2q10 0 17 2q0 -2 -6 -2q76 0 157 57q88 61 113 164q6 29 6 53q0 41 -16 70q-25 43 -84 84q-43 16 -119 37zM647 215l90 281q16 -6 25 -13q37 -25 51 -51q6 -12 6 -29q0 -10 -4 -34q-18 -74 -80 -115q-57 -207 -110 -207q31 0 49 31t26.5 70.5 t10.5 70.5t2 45q-10 -12 -35 -32.5t-64 -20.5q12 0 23 2q6 2 10 2zM782 1047q-43 12 -82 12q-63 -6 -116 -23q-51 -14 -62 -63v-6q-2 -4 -2 -6q0 -29 33 -54q37 -33 80 -49q12 -4 43 -12l39 -10zM678 991l-16 -55q-33 14 -58 35q-2 -2 -2 -10q0 2 2 2v2q0 -2 4 -7 q39 12 97 19q-13 0 -27 14z" />
<glyph unicode="%" horiz-adv-x="1658" d="M1040 561q113 0 179 -84q43 -57 43 -137q0 -41 -7 -64q-29 -117 -127 -198q-102 -84 -217 -84q-113 0 -178 84q-45 57 -45 131q0 45 8 67q29 121 127 201q102 84 217 84zM1040 643q-141 0 -268 -102q-119 -94 -154 -240q-12 -31 -12 -92q0 -104 64 -182q90 -115 241 -115 q141 0 269 102q121 98 155 242q8 31 8 84q0 104 -59 186q-88 117 -244 117zM1030 516q-70 0 -112 -70q-43 -76 -64 -170q-10 -43 -10 -94q0 -49 8 -71q23 -68 72 -72q55 0 100 65q53 72 74 172q12 72 12 125v25q-2 20 -2 23q-8 67 -78 67zM1030 434q-4 0 -4 8q0 -2 2 -18 v-23q0 -41 -10 -108q-18 -82 -62 -141q-14 -31 -30 -31q4 0 4 16q-4 14 -4 45q0 37 8 76q16 78 55 148q14 28 41 28zM840 1161q143 -70 278 -69q115 0 271 55l8 10h20l6 2q4 0 4 2v-4h11l-15 -16v-4q-2 -2 -6 -2q0 -2 -2 -2l-1136 -1133h-39l1114 1112q-137 -45 -242 -45 q-86 0 -194 35q55 -61 55 -148q0 -20 -8 -65q-27 -119 -129 -203t-215 -84q-119 0 -181 84q-43 59 -43 133q0 45 9 70q25 117 124 201q102 84 218 84q45 0 90 -17q2 2 2 4zM758 1292q0 -14 7 -19t52 -22q-45 4 -69 4q-143 0 -271 -102q-121 -98 -151 -242q-10 -33 -11 -92 q0 -100 60 -182q86 -117 246 -117q139 0 266 103q125 102 157 249q10 47 11 82q0 -14 127 -24q-37 55 -70 55q-27 0 -59 -57l-1012 -1010h272l1137 1133q49 0 49 2q2 0 3 8t3 41v8l113 129h-109v-78q0 18 -11 27.5t-38 21.5q-35 16 -55 29h-47l-19 -22q-129 -43 -221 -43 q-174 -1 -360 118zM737 1128q-70 0 -112 -71q-39 -70 -62 -170q-12 -49 -12 -94q0 -35 10 -72q23 -68 70 -72q53 0 100 66q53 68 72 172q14 66 14 129v22q-2 16 -2 21q-8 69 -78 69zM737 1047q-4 0 -4 6q0 -2 2 -17v-20q0 -51 -12 -113q-14 -82 -57 -139q-14 -33 -33 -33 q4 0 6 12q-6 25 -6 50q0 31 10 75q18 84 53 148q16 31 41 31z" />
<glyph unicode="&#x26;" horiz-adv-x="1443" d="M924 1718q49 0 94 -28q43 -29 65 -91q0 -8 2 -14q0 -4 2 -10l3 -12q0 -31 -23 -60q-33 -45 -78 -80t-59 -88q-12 -29 -45 -43q-12 -6 -23 -6q-16 0 -22 17q-4 4 -4 20q0 2 -2 10t-3 10q0 20 21 58q6 16 6 26v9l-2 6q-10 29 -47 63q-27 23 -49 23q-18 0 -27 -6 q-35 -16 -53 -47q-6 -12 -6 -33q0 -2 2 -17v-18q2 -18 8 -43q2 -23 4 -33q8 -29 14 -47q10 -27 19 -49q12 -35 39 -35q12 0 20 4q104 35 228 35q86 0 129 -10q37 -2 47 -15q10 -14 18 -36q23 -61 64 -117q10 -16 10 -29q0 -16 -21 -22l-12 -4q-23 0 -39 22q-74 68 -176 90 q-57 14 -123 15q-63 0 -96 -9q-33 -6 -33 -30v-7q2 -4 2 -8l2 -2v-4q16 -51 37 -110l17 -43q20 -59 28 -80q57 -164 115 -295l4 -10q59 -143 78 -195q6 -16 14 -27l6 -4q10 0 31 25q88 96 133 194l2 23q6 37 39 45h2q4 0 12 2q4 2 9 2q14 0 14 -14v-6q-2 -4 -2 -7 q-10 -35 -25 -118q-10 -55 -10 -119q0 -18 -35 -47q-39 -35 -84 -68q-25 -18 -24 -33l2 -4v-6q57 -88 84 -88q23 0 47 -61q0 -2 2 -6t2 -7q0 -14 -27 -14q-100 12 -194 12q-80 0 -185 -12q-33 0 -41 27q-6 16 -26 16h-6q-4 -2 -8 -2q-111 -33 -201 -33q-133 0 -248 66 q-195 106 -217 344v24q-2 18 -2 23q0 156 92 317q104 184 270 289q33 23 33 57q0 18 -6 31q-20 84 -20 166q0 96 34 182q66 143 271 201q43 12 84 12q29 0 43 -4zM936 1800q-18 4 -55 4q-55 0 -107 -14q-246 -70 -323 -248q-41 -100 -41 -215q0 -90 24 -194q2 0 2 -3 q0 6 4 11q-184 -117 -297 -316q-102 -186 -102 -358q0 -4 2 -25v-26q25 -283 260 -412q135 -76 287 -76q94 0 213 33l2 2q-37 0 -51 37q27 -80 123 -80q102 12 180 12q92 0 190 -12q55 0 84 22.5t29 73.5q0 6 -2 15q-2 8 -2 14q-68 127 -129 127q0 10 -2 31v-6q-2 -6 -2 -9 q0 -16 -9 -32q47 35 89 71q63 68 63 109q0 53 8 104q12 70 27 123q0 2 2 12v11q0 51 -22.5 73.5t-73.5 22.5q-4 0 -9 -2q-8 -2 -12 -2h-12q-92 -23 -111 -117v-10q-41 -86 -114 -162q31 2 65 2l21 -24v2q-16 45 -62 159l-20 50q-49 111 -113 290q-10 14 -27 41 q-14 18 -18 25l-4 20q-20 86 -29 131v-2l-2 -4q0 4 -2 8v7q0 -41 -33 -50q27 6 80 7q53 0 105 -13q78 -16 133 -65q25 -25 51.5 -37t62.5 -12l23 8q43 14 60.5 36.5t17.5 63.5q0 29 -25 74q-39 55 -55 102q0 2 -2 4q-18 39 -27 54q-23 37 -100 45q-47 10 -141 10 q-137 0 -258 -41q4 2 10 2q25 0 37 -16q-8 -2 -17 -9q-4 20 -8 58q-2 27 -4 33q0 6 -6 36l-4 29v17q-2 10 -2 12q0 -2 -4 -6q12 12 24 14q-4 -4 -16 -4q-4 0 -6 -2q18 -8 20 -14l2 -3q0 6 2 9q-29 -63 -28 -93q0 -2 2 -10t2 -10q0 -53 16 -66q27 -53 92 -53q29 0 58 15 q63 33 88 90q10 33 32 51q53 41 93 94q39 51 38 109q0 6 -2 20q-2 10 -2 16q-2 6 -2 15q-35 102 -102 145q-59 41 -127 41zM584 969q-10 27 -21 26q0 -2 -4 -2q-12 -8 -35 -35q-68 -84 -96 -204q-16 -88 -16 -166q0 -55 4 -84q16 -176 123 -279q90 -86 209 -86q4 0 20 2h18 q43 6 43 41v11q-2 6 -2 8q-20 80 -61 219q-39 133 -133 409l-25 74q-14 33 -24 66zM506 942q6 -20 20 -57l6 -13q4 -8 13 -34q8 -27 10 -35q94 -244 133 -361q16 -68 43 -186q10 -51 14 -66l3 -4v-4q0 35 32 41h-16q-14 -2 -16 -2q-88 0 -152 64q-86 84 -98 229q-4 25 -4 74 q0 63 14 149q25 100 80 168q0 4 -2 6q59 0 59 2q-33 0 -71.5 8.5t-67.5 20.5z" />
<glyph unicode="'" horiz-adv-x="374" d="M160 1706h71l-28 -129q-20 -94 -58 -94q-23 0 -22 39q0 12 6 43l2 12zM94 1788l-43 -195q-2 -12 -4 -28q-6 -31 -6 -43q0 -57 27.5 -89t76.5 -32q86 0 138 158l51 229h-240z" />
<glyph unicode="(" horiz-adv-x="933" d="M207 -98q-80 59 -84 336q0 287 80 643q84 369 209 643q127 272 235 336q-98 -156 -194 -408q-96 -254 -168 -571q-72 -319 -90 -574q-6 -98 -7 -180q1 -137 19 -225zM330 -291q-59 168 -60 418q0 80 6 174q18 240 89 561q68 303 163 561q176 410 365 672 q-256 -100 -555 -536q-127 -281 -215 -660q-82 -360 -82 -661q10 -435 289 -529z" />
<glyph unicode=")" horiz-adv-x="940" d="M291 -80q100 154 196 410q96 252 168 571q70 303 88 572q6 98 7 178q0 135 -19 229q84 -61 86 -336q0 -158 -19.5 -313.5t-58.5 -329.5q-84 -375 -211 -643q-128 -279 -237 -338zM41 -313q256 96 561 536q129 274 217 660q41 176 60.5 337.5t19.5 323.5q-8 432 -289 527 q57 -172 58 -420q0 -76 -6 -172q-20 -274 -87 -559q-66 -297 -163 -562q-181 -417 -371 -671z" />
<glyph unicode="*" horiz-adv-x="575" d="M279 1563q37 139 53 139q6 0 6 -23q0 -35 -12 -114q100 82 123 82l4 -2q0 -12 -33 -46q-57 -57 -98 -92q33 -45 57 -92q14 -29 14 -41l-2 -4l-6 -2q-23 0 -86 82q-39 -137 -55 -137q-6 0 -6 20q0 29 16 117q-111 -82 -127 -82l-4 2q0 14 33 47q29 31 98 90q-43 61 -57 92 q-14 27 -15 37q0 8 4 9l4 2q17 0 89 -84zM240 1735q-68 -6 -84 -6l-4 -3q-35 0 -43.5 -22.5t-8.5 -67.5q0 -23 23 -73q2 -8 12 -25q8 -14 8 -16q-29 -27 -47 -47q-55 -92 -55 -140l51 -49q8 0 43 -26q20 57 21 73q0 -102 88 -102q27 0 90 43q53 12 69 12l37 17l35 36 q0 37 -22 113q-2 8 -13 25q-8 14 -8 16q20 20 45 49q57 102 58 137l-52 50q-6 0 -45 34q-18 -57 -18 -84q0 104 -88 105q-26 0 -92 -49z" />
<glyph unicode="+" d="M539 520h-398l13 58h397l92 407h55l-90 -407h396l-15 -58h-395l-90 -405h-55zM436 438l-90 -405h223l90 405h394l55 221h-397l90 408h-223l-93 -408h-397l-47 -221h395z" />
<glyph unicode="," horiz-adv-x="512" d="M272 -117q-53 -57 -88 -57l-2 2q0 8 29 55q37 57 37 82q0 10 -4 15q-14 18 -19 18q-53 0 -82 41q-20 27 -20 63q0 23 4 35q12 55 57 99q51 41 105 40q100 0 100 -108v-14q-2 -10 -2 -19q-10 -72 -45 -143q-33 -72 -70 -109zM332 -174q45 45 84 131q45 92 53 172 q0 10 2 21v18q0 190 -182 190q-84 0 -158 -61q-66 -57 -84 -137q-6 -20 -6 -58q0 -68 37 -112q51 -74 147 -74q-10 0 -43 8q-10 8 -13 16.5t-3 24.5q0 -12 -25 -39q-41 -113 -41 -133l50 -49q69 0 182 82z" />
<glyph unicode="-" d="M154 578h850l-15 -58h-848zM88 659l-47 -221h1012l55 221h-1020z" />
<glyph unicode="." horiz-adv-x="518" d="M291 279q53 0 84 -41q20 -31 20 -66q0 -20 -4 -33q-12 -57 -61 -98q-47 -41 -103 -41q-55 0 -84 41q-20 31 -20 65q0 23 4 33q16 61 61 99q48 41 103 41zM291 360q-84 0 -156 -59q-63 -51 -86 -135q-8 -18 -8 -60q0 -57 35 -112q51 -76 151 -76q84 0 156 59q70 57 88 142 q6 20 6 53q0 61 -35 113q-57 75 -151 75z" />
<glyph unicode="/" horiz-adv-x="1372" d="M1122 1640h66l-940 -1595h-64zM1075 1722l-1034 -1759h254l1036 1759h-256z" />
<glyph unicode="0" horiz-adv-x="1595" d="M987 1714q219 0 383 -231q102 -152 103 -363q0 -125 -33 -262q-92 -397 -346 -627q-256 -231 -492 -231t-383 252q-96 164 -96 371q0 109 29 235q80 354 348 604q264 252 487 252zM987 1796q-246 0 -543 -274q-287 -268 -372 -645q-31 -131 -31 -254q0 -229 109 -412 q176 -293 452 -293q264 0 547 252q272 244 371 670q35 141 34 280q0 242 -116 410q-193 266 -451 266zM950 1587q-174 -2 -303 -215q-129 -219 -207 -518q-49 -180 -49 -332q0 -98 23 -192q51 -211 207 -211q152 12 286 209q131 190 226 526q57 209 57 373q0 94 -16 157 q-46 203 -224 203zM950 1505q113 0 144 -139q14 -57 14 -139q0 -158 -53 -350q-92 -381 -215 -596q-104 -74 -224 -80q-92 0 -122 149q-20 88 -21 172q0 139 47 312q78 293 197 497q98 172 233 174z" />
<glyph unicode="1" horiz-adv-x="1013" d="M475 1194q-39 -20 -72 -35q-33 -16 -69 -43l-4 -2q-8 -4 -13 -8q-8 -6 -26 -10q-4 0 -12 -2h-11q-25 0 -30 8q-25 18 -25 37q0 12 10 22q12 23 29 35q68 49 149 96q100 55 154 109q72 70 115 121q20 25 78 96l30 41q20 27 33 33q18 8 57 8q23 0 23 -29v-6q-2 -6 -2 -10 q-8 -29 -27 -58q-2 -10 -12 -49q-20 -88 -27 -110l-26 -107l-31 -131q-31 -139 -55 -244q-8 -37 -17 -69q-18 -80 -24 -105q-80 -344 -97 -501q-6 -63 -6 -109q0 -51 11 -76q12 -35 32 -35l8 2l7 3q14 0 14 -27v-8q-2 -8 -2 -11q-6 -27 -39 -26q-59 8 -104 10q-41 2 -107 2 q-23 0 -96 -4h-19q-68 -6 -118 -12q-31 0 -31 12q0 8 6 14q27 59 57 64q29 4 62 51q33 45 84 197q49 145 123 501q25 111 39 168q8 37 18 84t18 84q0 20 -16 31q-2 0 -8 2h-10q-15 0 -21 -4zM518 1124q-6 -8 -22 -8h-2q0 -2 -2 -2q-23 10 -33 22.5t-10 37.5q-4 -16 -17 -78 q-14 -63 -18 -80q-12 -51 -33 -139l-6 -31q-78 -403 -121 -545q-45 -96 -72 -123q0 -2 -2 -8q0 -8 -2 -8q-61 -4 -117 -99q-14 -18 -17 -30.5t-3 -30.5q0 -55 27.5 -74.5t91.5 -19.5q51 6 119 12h20q63 4 88 4q63 0 102 -2q43 -2 103 -10q59 0 88 23.5t39 76.5q0 2 2 15v12 q0 49 -32 78.5t-83 29.5l-24 -10l10 6q39 0 61 -16q-4 16 -4 45q0 43 6 100q16 143 95 492q4 27 24 129l17 82q25 88 55 207q20 84 57 235q8 37 21 84q10 49 14 64q25 41 33 77q0 6 2 19v10q0 49 -27.5 80t-77.5 31q-61 0 -92 -17q-20 -8 -61 -55l-13 -29q-70 -156 -96 -211 q-18 -2 -47 -4q-37 -4 -61 -6q-47 -47 -136 -96q-92 -51 -159 -102q-23 -14 -45 -52q-27 -31 -27 -71q0 -45 47 -97q12 -20 31.5 -25t58.5 -5l15 2h16h4q45 10 64 26q4 4 16 11l4 4q27 20 51 30l17 9q45 20 63 30z" />
<glyph unicode="2" horiz-adv-x="1628" d="M1268 467q25 0 26 -27l2 -6v-6q0 -16 -14 -39q-31 -49 -70 -90q-33 -35 -65 -88q-18 -31 -45 -82q-18 -39 -47 -84q-27 -43 -76 -43q-111 8 -212 11t-228 3q-184 -2 -389 -18q-16 0 -23 20q0 2 -2 11q-2 4 -2 6q0 6 6 18l2 4q106 168 236 308q121 127 319 247l2 2 q16 12 57 33q4 2 15 8q51 33 117 84q59 47 112 95q59 66 111 141q55 84 80 162q16 66 16 116q0 53 -16 103q-14 63 -70 108q-49 45 -84 56q-33 6 -104 6q-119 0 -232 -94q-115 -96 -139 -211q-10 -55 -10 -91q0 -43 12 -79h2q12 -27 43 -52q29 -27 68 -26q88 0 170 57 q16 16 36 17q39 0 39 -37v-9q-2 -8 -2 -12q0 -6 -6 -16h-2q-2 -6 -6 -15q-82 -119 -274 -118q-61 0 -103 20q-12 8 -16 10q-6 2 -23 15q-123 96 -123 258q0 51 13 108q47 205 245 334q201 129 439 129q188 0 301 -92q117 -92 141 -227h2q8 -47 8 -105q0 -68 -16 -139 q-37 -168 -156 -281q-119 -115 -276 -211q-209 -127 -318 -186q-162 -88 -276 -209q-18 -20 -19 -28l2 -7q8 -8 23 -8q233 4 405 25q174 20 287 162q44 59 107 59zM1268 549q-100 0 -172 -92q-90 -111 -232 -129q-170 -20 -395 -25q29 0 45 -24l12 -25q0 -23 -2 -45 q104 111 254 192q84 45 242 142q27 14 80 47q170 104 291 221q133 125 178 322q18 78 18 157q0 111 -20 187h-4q-27 123 -158 209q-131 111 -352 110q-262 0 -484 -141q-229 -152 -280 -385q-14 -63 -15 -127q0 -205 156 -324q4 -2 10 -8q12 -10 17 -12q6 -2 20 -11 q61 -31 144 -30q242 0 346 160l-2 -7q-2 -8 -4 -20h-15q45 53 45 98q0 4 2 12v9q0 119 -121 118q-51 0 -90 -34q-57 -39 -116 -39q-8 0 -15 8q-31 35 -43 70h4q6 0 11 -3q0 20 8 68v6q23 92 112 164q88 76 179 76q49 0 86 -4q23 -8 49 -37q37 -31 45 -70q12 -37 12 -80 q0 -45 -12 -94q-20 -68 -70 -139q-43 -61 -100 -127q-70 -61 -107 -90q-57 -45 -106 -76q-51 -27 -84 -49q-207 -129 -328 -258q-137 -147 -248 -322q-18 -41 -18 -63q0 -2 2 -10q2 -12 2 -19q29 -90 109 -90q201 14 385 18q127 0 227 -3t211 -11q96 0 147 80q23 35 52 94 q16 33 41 74q25 102 55 186q31 -2 78 -10q29 47 28 84v8q-2 6 -2 8q-12 105 -108 105z" />
<glyph unicode="3" horiz-adv-x="1701" d="M1559 1710q20 0 20 -18v-6q-2 -4 -2 -9q-8 -31 -45 -63q-29 -23 -119 -94q-35 -31 -70 -58q-88 -76 -172 -153q-10 -10 -20 -31l-2 -8q0 -12 27 -19q176 -53 233 -223q29 -80 29 -186q0 -104 -29 -211q-35 -121 -125 -234q-94 -113 -215 -202q-127 -92 -256 -144 q-137 -53 -248 -53q-229 0 -350 141q-92 109 -92 232q0 49 8 73q53 227 283 320q43 20 96 22q59 0 80 -14q4 0 4 -20q0 -2 -2 -11q0 -8 -2 -10q-6 -33 -68 -61q-63 -29 -88 -62q-53 -55 -65 -162q-6 -33 -7 -63q0 -82 48 -147q68 -96 198 -97q176 0 316 144q143 139 186 317 q33 94 33 166q0 84 -41 156q-78 133 -242 133q-37 0 -74 -17q-35 -14 -71 -14q-18 0 -19 14v6q2 6 2 11q6 39 43 65q72 51 207 162q84 70 197 174q27 27 26 35l-2 2q-8 4 -30 6q-55 6 -125 6q-115 0 -180 -8q-178 -18 -244 -86q-61 -74 -129 -74q-20 0 -21 19q0 12 4 20 q12 39 37 60q109 100 199 227q4 6 18 23q6 6 9 10q20 16 36 16q106 -8 199.5 -11t208.5 -3q205 0 408 12zM1556 1792q-203 -12 -405 -12q-115 0 -207 3t-199 11q-45 0 -96 -41l-10 -10q-20 -23 -27 -35q-82 -113 -186 -211q-39 -37 -57 -90q-10 -20 -11 -51q0 -100 103 -101 q102 0 190 101q53 47 193 59q61 8 170 8q66 0 114 -6l-2 2q-2 0 -2 2l-34 35q0 29 -3 60l-2 -3q-121 -113 -188 -167q-129 -106 -205 -160q-63 -51 -76 -125q0 -4 -2 -12v-11q0 -57 22.5 -76.5t78.5 -19.5q53 0 104 21q20 10 41 10q115 0 170 -92q31 -51 31 -115 q0 -63 -29 -143q-37 -156 -166 -283q-115 -119 -258 -119q-84 0 -131 62q-33 45 -33 100q0 25 7 51q10 80 47 121q16 23 57 41q100 43 111 96q4 4 8 29q2 18 2 22q0 66 -9.5 88.5t-50.5 22.5q-27 14 -108 14q-72 -2 -127 -28q-268 -109 -330 -373q-10 -33 -10 -96 q0 -154 113 -285q141 -170 411 -170q125 0 279 59q135 53 274 154q129 94 230 217q104 131 141 262q31 115 31 234t-33 213q-74 213 -291 276q35 -27 35 -80l-6 64q2 -10 2 -33q0 -20 2 -33q84 78 168 150q35 27 69 57q90 72 119 94q59 59 74 117q0 6 2 16v9 q-1 100 -105 100z" />
<glyph unicode="4" horiz-adv-x="1587" d="M188 471q285 285 568 573q281 291 532 594q49 70 119 72q33 0 33 -37q0 -6 -2 -14v-8q0 -8 4 -9q-57 -236 -96 -401q-23 -88 -50 -201t-49 -200q-10 -43 -18 -82l-15 -58q-14 -59 -24 -118q-4 -16 -8 -47v-7q0 -25 51 -24h72q45 0 45 -35v-8q-2 -8 -2 -10l-15 -64 q-12 -55 -67 -55h-62q-31 0 -47 -23q-18 -20 -18 -35q-6 -57 -6 -94q0 -33 4 -43q8 -37 24 -53q6 -6 17 -16q4 -4 6 -7q6 -6 6 -24v-8q-2 -10 -2 -17q-6 -27 -39 -26q-43 6 -98 12q-49 8 -103 8q-25 0 -88 -2l-24 -2q-68 -6 -117 -12q-10 0 -21 10q-6 6 -6 12q2 0 2 4 q43 61 72 74q18 6 47 21q20 8 39 39q18 31 43 131q4 12 4 30t-10 19q-12 2 -37 2h-684q-45 6 -45 39q0 12 4 18q20 49 61 82zM133 532q-53 -41 -80 -104q-12 -18 -12 -57q0 -102 121 -121h690q20 0 31 -2q-45 0 -55.5 13t-10.5 50v-8q-18 -145 -35 -197q0 10 -2 39 q0 29 -2 39q-14 -8 -41 -18q-51 -23 -125 -123q0 51 -2 51q0 -74 31 -151q41 -35 84 -35q49 6 117 12q8 0 22 2q57 2 84 2q49 0 92 -8q49 -6 103 -12q57 0 87 24.5t40 73.5q0 8 2 23v12q0 61 -31 82q-2 4 -8 10l-10 10t-9 23v18q0 35 7 90q0 -6 2 -12q-8 -8 -19 -8h62 q121 0 147 119l17 73q0 2 2 15v12q0 117 -127 117h-72q31 0 31 -62q2 12 6 41q10 80 24 154q6 20 15 47q10 31 18 55q23 88 49 201q27 113 49 201q57 248 121 501q-20 0 -23 -9t-3 -64v8q2 8 2 14q0 119 -117 119q-102 -2 -182 -102q-248 -301 -527 -588 q-278 -285 -563 -570zM1047 1200q-147 -172 -310 -334q-152 -154 -305 -327q-14 -14 -18 -33q0 -14 16 -14q2 0 8 2h6l435 10q18 0 39 2q29 0 43 55q14 66 24 125q4 18 19 92q4 16 10 51q8 37 22 101q12 59 19 82q10 39 22 90q10 51 21 90q6 25 6 39t-6 14q-8 0 -15 -8z M1106 1145l39 39q-14 -14 -23.5 -17.5t-23.5 -3.5q-76 0 -76 68q0 -4 -2 -12l-2 -7q-6 -29 -21 -90q-14 -61 -22 -92q-6 -23 -19 -82q-14 -63 -22 -100l-12 -62q-12 -63 -17 -86q-10 -57 -24 -118q12 6 32 6q-18 -2 -34 -2l-435 -11h-6q-6 -2 -8 -2q35 0 50.5 -20.5 t15.5 -54.5q0 -6 -4 -15q154 174 303 326q164 164 311 336z" />
<glyph unicode="5" horiz-adv-x="1619" d="M643 1696v2q217 -18 367 -29q23 0 65 -2q41 -2 62 -2q125 0 225 14q25 6 43 19q18 12 45 22q33 0 43 -16q0 -2 2 -6t2 -6q0 -12 -24 -37q-92 -86 -146 -164q-31 -41 -59 -45q-20 -2 -47 -2h-2q-6 0 -15 4q-154 10 -286 10q-143 0 -218 -6q-37 -2 -41 -18q-2 -12 -2 -29 l-4 -21l-6 -20q0 -6 -6 -25q-2 -10 -2 -12l-2 -10q-6 -29 -8 -41q-6 -33 -15 -49q0 -4 -2 -10q0 -12 17 -13q14 0 24 4q121 41 250 47q246 -2 387 -178q92 -117 92 -284q0 -84 -24 -183q-43 -258 -279 -450q-231 -193 -479 -193q-233 0 -373 94q-104 72 -104 205 q0 53 14 109q47 188 170 272q106 72 238 72h20q14 -2 25 -2q35 0 35 -31v-6q-2 -6 -2 -10q-10 -43 -43 -47h-2q-176 -45 -220 -234q-8 -31 -8 -65q0 -80 47 -140q66 -84 191 -84q35 0 51 2q147 20 274 140q125 117 168 313q14 82 15 131q0 109 -45 180q-70 115 -209 138 q-37 6 -70 6q-80 0 -141 -35q-88 -47 -125 -78q-39 -27 -55 -27q-45 0 -45 39q0 2 2 11v8q4 20 12 47q6 31 8 35q20 74 49 161l6 19q29 96 39 145q12 55 29 166q8 78 24 164q4 18 17 27q10 8 31 8q4 0 8 -2t12 -2zM561 1778q72 0 107 -6q-23 10 -45 10q-47 0 -76 -23 q-41 -23 -51 -78l-2 -12q-18 -104 -25 -158q-2 -14 -6 -45q-12 -102 -21 -149q-16 -53 -43 -121l-12 -37q-27 -82 -39 -129q-4 -16 -10 -43q-10 -35 -12 -51v-12q-2 -12 -2 -15q0 -121 127 -121q29 0 104 43q33 25 117 72q41 25 100 25q18 0 51 -4h6q100 -14 152 -101 q33 -53 33 -137q0 -33 -10 -108l-3 -7q-37 -170 -143 -270q-104 -98 -229 -117q-12 -2 -41 -2q-82 0 -125 54q-31 37 -31 88q0 20 6 45q31 139 150 172h-4q96 10 121 121q0 6 2 16v8q0 113 -117 113q-10 0 -25 2h-20q-160 0 -283 -86q-150 -100 -205 -320q-16 -63 -16 -129 q0 -176 141 -272q158 -109 418 -109q274 0 530 211q262 215 308 498q27 104 26 199q0 199 -110 335q-166 207 -453 209q-141 -6 -276 -51h4q66 0 65 -88q2 8 2 12q6 14 15 52q4 29 8 49q0 2 2 12q6 18 6 25q2 8 6 22t6 23v26q-2 -41 -32 -49q72 6 211 6q96 0 264 -8 q6 -2 8 -2q16 -4 29 -4h2q31 0 55 2q59 6 119 80q51 74 135 151q27 35 38 54.5t11 42.5q0 6 -2 18q-2 10 -2 16q-16 39 -47 57.5t-92 18.5q-51 -20 -76 -37q-8 -4 -14 -6q-98 -12 -209 -12q-20 0 -62 2q-41 2 -63 2q-137 10 -350 29l-101 8v-10z" />
<glyph unicode="6" horiz-adv-x="1482" d="M1219 1704q59 0 59 -35v-6q-2 -4 -2 -6q0 -6 -8 -19q-25 -29 -70 -28q-37 -14 -160 -80l-16 -8q-106 -57 -221 -154q-117 -98 -213 -227q-100 -131 -148 -312q0 -14 13 -14q16 0 28 12q178 133 350 316q12 14 48 14q248 0 385 -149q96 -102 96 -267q0 -88 -23 -172 q-55 -248 -266 -419q-209 -176 -391 -179h-4q-2 2 -6 2v-2q-293 0 -447 195q-100 125 -100 321q0 104 33 252q29 154 139 318q106 162 268 311q158 145 332 240q177 96 324 96zM1219 1786q-162 0 -363 -107q-178 -98 -348 -252q-170 -158 -281 -325q-119 -178 -151 -346 q-35 -152 -35 -269q0 -229 119 -372q205 -225 592 -226v2q-74 0 -111 -2h39q209 2 444 197q231 188 293 465q25 90 25 190q0 201 -119 322q-158 176 -444 176q-82 0 -109 -43q-178 -184 -342 -307q8 8 25 8q33 0 51 -24.5t18 -53.5q39 152 131 273q92 123 201 213 q115 96 207 145q102 57 153 78q74 0 119 61q25 45 25 68q0 2 2 6v6q0 117 -141 117zM657 106q141 0 267 117q125 119 161 281q12 55 13 102q0 100 -49 176q-70 117 -211 117t-271 -125q-127 -125 -155 -270q-6 -25 -6 -51q0 -76 49 -191q63 -156 202 -156zM657 188 q-88 0 -127 107q-43 96 -43 158q0 12 5 32q25 125 133 230q100 102 213 102q94 0 141 -78q37 -57 37 -133q0 -33 -10 -84q-31 -135 -138 -239q-96 -95 -211 -95z" />
<glyph unicode="7" horiz-adv-x="1515" d="M1327 1708q8 2 35 2q31 0 31 -18q0 -12 -13 -31q-252 -360 -508 -776q-248 -408 -426 -840q-18 -49 -59 -49h-6q-4 2 -8 2q-43 10 -111 10q-74 0 -112 -10q-25 0 -25 14v6q-2 6 -2 7q0 14 6 20q182 350 442 698q283 385 498 684q10 12 10 27q0 23 -32 23q-96 10 -195 10 q-113 0 -176 -6q-221 -14 -303 -121q-55 -76 -125 -76q-29 0 -35 23v6l-2 6q0 20 18 41q51 59 113 145q53 74 90 146q14 33 57 55q35 20 70 20h4h4q250 -12 377 -18q33 0 96 -2t95 -2q129 0 192 4zM1311 1790q-57 -4 -176 -4q-33 0 -95 2q-61 2 -94 2q-127 6 -377 18h-6h-4 q-57 0 -110 -30q-68 -41 -91 -92q-35 -68 -82 -132q-55 -80 -108 -141q-39 -47 -39 -94q0 -2 2 -12v-13q23 -92 117 -92q109 0 190 109q63 76 244 88q61 6 170 6q98 0 190 -10q-45 0 -45 59q0 10 7 23q-215 -299 -498 -684q-266 -356 -445 -699q-14 -14 -17 -30.5t-3 -38.5 l2 -7v-6q0 -96 117 -96q35 10 102 10q61 0 100 -10q6 0 17 -2h8q92 0 135 100q176 426 420 828q281 453 506 772q27 45 27 78q0 100 -113 100q-39 0 -51 -2z" />
<glyph unicode="8" horiz-adv-x="1486" d="M987 1722q195 0 297 -106q80 -82 80 -186q0 -41 -6 -64q-18 -80 -80 -145q-63 -63 -141 -123l-19 -13q-18 -12 -31 -20q-8 -6 -8 -10q0 -12 35 -31q127 -72 182 -207q33 -80 33 -172q0 -66 -14 -125q-45 -207 -264 -364q-217 -158 -453 -158q-238 0 -377 135 q-98 96 -98 248q0 63 14 123q35 145 154 262q121 119 250 201q14 8 14 18q0 8 -10 12q-20 10 -56 43q-33 37 -53 103q-10 27 -10 76q0 57 14 127q37 154 195 266q159 110 352 110zM987 1804q-219 0 -399 -125q-184 -133 -228 -315q-16 -74 -16 -145q0 -70 14 -103 q25 -82 72 -133q53 -51 84 -61q-27 14 -34 28.5t-7 34.5q0 29 25 51q-137 -88 -265 -211q-135 -131 -176 -303q-16 -66 -16 -141q0 -190 123 -307q162 -158 434 -158q260 0 500 174q246 178 297 412q16 66 16 143q0 106 -39 203q-68 162 -219 248q8 -23 8 -41 q0 -16 -6 -28.5t-20 -29.5q12 8 30 21q18 12 19 12q92 72 153 133q80 84 101 183q8 31 8 84q0 135 -103 243q-125 131 -356 131zM625 102q133 10 243 84q111 74 181 285q12 43 12 82q0 55 -25 104q-45 88 -112 144q-68 59 -138 90q-68 29 -86 29q-102 0 -204 -150 q-104 -150 -127 -299q-6 -37 -7 -72q0 -106 58 -190q70 -107 205 -107zM623 184q-88 0 -136 70q-43 66 -43 145q0 29 7 60q18 131 112 264q68 115 137 115q12 0 54 -23q55 -27 116 -78q55 -43 93 -116q16 -33 16 -68q0 -31 -8 -57q-59 -182 -148 -242q-85 -60 -200 -70z M963 1620q-100 0 -185 -66q-92 -72 -112 -165q0 -4 -2 -15q-2 -10 -2 -16q0 -78 96 -150q115 -84 196 -84q72 12 127 90t78 175q4 14 4 43q0 70 -53 120q-73 66 -147 68zM961 1538q51 -4 94 -47q27 -25 26 -59q0 -14 -2 -23q-18 -139 -63 -242q-31 33 -68 39q-57 0 -141 68 q-63 41 -64 84q0 4 2 12q2 6 3 10q14 63 81 111q60 47 132 47z" />
<glyph unicode="9" horiz-adv-x="1484" d="M184 -4q-61 0 -61 35q0 2 2 6v4q2 6 10 18q14 14 70 29h2q59 25 174 86q119 66 223 143q111 82 217 201q100 113 148 254q0 14 -13 14q-16 0 -28 -12q-113 -74 -152 -112q-41 -45 -88 -132q-14 -14 -45 -14q-197 0 -364 152q-117 109 -117 278q0 63 20 156 q37 274 275 448q240 174 415 174q291 -2 416 -192q74 -113 74 -287q0 -131 -39 -287q-25 -147 -149 -315q-123 -164 -297 -313q-174 -145 -359 -240q-184 -94 -334 -94zM184 -86q166 0 371 102q188 98 375 252q180 203 309 424q137 133 164 250q41 162 41 303q0 201 -86 332 q-147 227 -486 229q-197 0 -464 -190q-264 -193 -306 -500q-23 -94 -22 -170q0 -207 143 -338q193 -174 420 -174q78 0 113 47q47 88 80 123q33 33 143 107q-8 -6 -23 -6q-70 0 -69 81q-41 -178 -127 -323q-96 -47 -205 -80q-92 -72 -213 -137q-82 -45 -152 -76h5 q-98 -31 -123 -57q-18 -29 -29 -58v-12q-2 -8 -2 -12q0 -117 143 -117zM862 1565q-31 6 -63 6q-131 0 -238 -96q-129 -119 -135 -306v-24q-2 -20 -2 -25q0 -313 264 -313q98 2 209 63q113 61 143 109q20 29 27 76q4 57 8 90q0 2 2 22v25q0 84 -20 192q-25 152 -195 181z M848 1485q115 -18 129 -115q18 -104 18 -178v-23q-2 -16 -2 -18q-4 -35 -8 -88q-2 -23 -12 -39q-27 -37 -115 -82q-90 -49 -172 -53q-180 0 -180 231q0 4 2 25v22q6 152 108 248q80 74 183 74q16 0 49 -4z" />
<glyph unicode=":" horiz-adv-x="716" d="M291 279q53 0 84 -41q20 -31 20 -66q0 -20 -4 -33q-12 -57 -61 -98q-47 -41 -103 -41q-55 0 -84 41q-20 31 -20 65q0 23 4 33q16 61 61 99q48 41 103 41zM291 360q-84 0 -156 -59q-63 -51 -86 -135q-8 -18 -8 -60q0 -57 35 -112q51 -76 151 -76q84 0 156 59q70 57 88 142 q6 20 6 53q0 61 -35 113q-57 75 -151 75zM489 1161q53 0 84 -41q20 -35 21 -67q0 -20 -4 -31q-12 -57 -62 -98q-51 -41 -102 -41q-55 0 -84 41q-20 27 -20 63q0 23 4 35q12 55 61 98q47 41 102 41zM489 1243q-84 0 -155 -61q-70 -57 -88 -138q-6 -20 -6 -57q0 -68 36 -113 q51 -74 150 -73q78 0 154 59q70 53 88 137q8 18 8 56q0 55 -35 114q-58 76 -152 76z" />
<glyph unicode=";" horiz-adv-x="714" d="M272 -117q-53 -57 -88 -57l-2 2q0 8 29 55q37 57 37 82q0 10 -4 15q-14 18 -19 18q-53 0 -82 41q-20 27 -20 63q0 23 4 35q12 55 57 99q51 41 105 40q100 0 100 -108v-14q-2 -10 -2 -19q-10 -72 -45 -143q-33 -72 -70 -109zM332 -174q45 45 84 131q45 92 53 172 q0 10 2 21v18q0 190 -182 190q-84 0 -158 -61q-66 -57 -84 -137q-6 -20 -6 -58q0 -68 37 -112q51 -74 147 -74q-10 0 -43 8q-10 8 -13 16.5t-3 24.5q0 -12 -25 -39q-41 -113 -41 -133l50 -49q69 0 182 82zM485 1157q55 0 86 -41q20 -27 21 -63q0 -23 -4 -35q-12 -57 -62 -98 q-47 -41 -102 -41q-53 0 -82 41q-20 27 -20 63q0 23 4 35q12 59 57 98q51 41 102 41zM485 1239q-80 0 -155 -59q-66 -53 -84 -140q-6 -20 -6 -57q0 -68 36 -113q51 -74 148 -73q84 0 156 59q70 57 88 141q6 20 6 56q0 70 -37 114q-56 72 -152 72z" />
<glyph unicode="=" horiz-adv-x="1198" d="M203 686h850l-15 -57h-848zM137 768l-47 -221h1012l55 221h-1020zM156 475h848l-13 -57h-848zM90 557l-49 -221h1016l49 221h-1016z" />
<glyph unicode="?" horiz-adv-x="1296" d="M489 1501q18 -31 19 -67q0 -27 -6 -43q-14 -76 -80 -129t-135 -54q-74 0 -111 54q-27 41 -26 84q0 29 6 45q39 178 256 268q158 63 276 63q55 0 80 -8q252 0 350 -162q55 -92 56 -211q0 -88 -31 -190q-86 -276 -195 -348q-109 -76 -215 -96q-104 -25 -201 -80 q-92 -55 -147 -295q-59 35 -72 35q-14 -4 -82 -39q41 238 113 313q72 76 162 117q92 43 174 104q86 66 154 275q45 133 45 221q0 41 -7 57q-20 96 -86 129q-41 23 -92 23q-35 0 -55 -6q-84 -19 -150 -60zM602 1475q16 2 57 6q12 4 35 4q33 0 54 -12q35 -20 47 -80 q2 -10 2 -35q0 -80 -41 -195q-55 -180 -125 -235q-84 -61 -160 -97q-102 -90 -186 -247q-102 -96 -162 -406q160 94 201 107q18 0 116 -80q49 287 133 352q82 49 177 70q119 25 243 108q125 80 228 391q35 117 34 215q0 143 -67 254q-113 201 -406 201q-29 8 -94 8 q-131 0 -307 -69q-258 -109 -303 -322q-10 -25 -10 -67q0 -66 41 -132q59 -88 178 -88q96 0 186 72q86 66 109 170q8 25 8 66q0 23 12 41zM293 279q55 0 84 -41q23 -29 22 -66q0 -23 -4 -33q-16 -61 -61 -98q-51 -41 -105 -41q-53 0 -84 41q-23 29 -22 65q0 23 4 33 q12 59 61 99q52 41 105 41zM293 360q-80 0 -156 -59q-70 -55 -88 -137q-8 -18 -8 -58q0 -66 39 -116q55 -72 149 -72q80 0 156 59q66 51 88 136q8 18 8 59q0 63 -39 115q-51 73 -149 73z" />
<glyph unicode="@" horiz-adv-x="1564" d="M1147 573q72 133 104 283q31 133 31 246q0 143 -49 262q-86 211 -301 211t-387 -211q-172 -213 -240 -508q-31 -137 -31 -256q0 -135 41 -252q78 -213 293 -213q131 0 226 58q90 57 237 57q-119 -121 -240 -182q-125 -68 -253 -68q-256 0 -379 252q-76 150 -76 342 q0 125 31 262q80 354 317 604q238 250 492 250t393 -250q86 -160 86 -360q0 -123 -29 -244q-14 -63 -47 -141q-37 -94 -88 -180q-47 -84 -119 -154q-68 -66 -141 -66q-66 14 -100 56q-37 16 -72 39q-20 12 -49 12q-35 0 -78 -14q-92 -33 -164 -33q-63 0 -127 26 q-98 41 -98 146q0 43 8 67q47 207 182 265q141 59 311 59q18 0 29 -2q8 -2 27 -2q55 0 63 47q0 4 2 12v11q0 20 -4 30q-8 29 -61 37q-51 10 -92 12q-143 0 -248 -86q-6 -6 -15 -6q-12 0 -30 21q-10 14 -10 22q0 6 6 19l2 4q170 115 319 114q74 0 158 -22q78 -25 147 -78 q2 -8 2 -18q-6 -14 -6 -21q-4 -10 -6 -14q-4 -10 -6 -14q-6 -33 -25 -105q-8 -37 -30 -135q-14 -61 -17 -70q-10 -31 -12 -57q-8 -37 -10 -51q-2 -8 -2 -13q-6 -39 -6 -57q0 -25 4 -35q10 -43 34 -43q37 0 91 109h-2q2 2 4 8l4 8q2 2 2 6q0 2 2 2zM1081 623q-4 -10 -10 -23 q-10 -14 -10 -31q0 29 12 43q-27 -27 -65 -75q-51 -59 -74 -72h70q25 55 40 55q31 0 43 -14v10q0 12 7 47l2 10q2 12 8 37q0 2 2 13q2 12 8 41l2 10q2 10 8 33q31 133 39 174q12 41 23 92q4 6 8 20q6 16 8 23q0 6 6 20q0 29 -5 52.5t-9 31.5q-92 74 -195 107 q-100 27 -180 26q-180 0 -383 -141q-2 -6 -8 -20q-18 -35 -18 -58q0 -27 28 -73q55 -51 94 -52q41 0 70 27q82 66 191 65h6q45 -4 73 -10q-2 2 -2 15v-2v-7q-2 -4 -2 -8q2 27 19 27h-8q-16 4 -48 4q-188 0 -344 -66q-172 -70 -229 -317q-10 -33 -10 -90q0 -160 149 -221 q78 -33 158 -33t190 37q27 10 52 10h6q31 -20 63 -37q51 -51 144 -70q106 0 207 89q80 76 133 172q49 84 92 190q37 92 51 154q31 125 31 262q0 219 -97 399q-164 293 -464 293q-285 0 -551 -274q-250 -262 -338 -644q-33 -143 -33 -280q0 -217 84 -379q147 -297 453 -297 q147 0 290 76q201 111 398 338q-293 0 -475 -70q-76 -45 -183 -45q-160 0 -215 158q-37 102 -37 225q0 104 29 238q66 340 223 577q141 78 324 78q162 0 225 -160q43 -104 43 -231q0 -100 -29 -228q-27 -130 -90 -251zM887 877q-172 -2 -254 -72q-84 -72 -105 -164 q-6 -25 -6 -45q0 -61 47 -102q29 -23 70 -23q57 0 131 39q8 2 21 12q12 6 18 13q33 18 47 79q8 37 14 60q10 35 19 74q18 61 24 79q0 4 2 13q2 6 3 10q0 18 -9 18q-6 4 -18 6zM874 795q2 0 5 -2q8 -4 12 -7q-20 0 -37.5 19.5t-17.5 44.5l-2 -2l-3 -6q-2 -4 -8 -27 q-8 -27 -14 -47q-10 -68 -18 -115l-15 -20q-6 -23 -18 -33q-6 -6 -10 -8l-5 -2q-4 -4 -6 -4q-57 -33 -98 -33q-10 0 -18 4q-16 16 -17 39q0 6 4 22v5q14 68 78 120q57 48 188 52z" />
<glyph unicode="A" horiz-adv-x="1798" d="M643 377q-23 0 -37 -27q-80 -135 -82 -180q-12 -104 -47 -125q-35 -25 -127 -29q-33 0 -49 -2q-10 -2 -25 -2q-14 0 -24 -2q-39 -4 -100 -6q-29 0 -29 12t8 23q29 49 45 49q14 0 57 41t158 197q57 74 141 198q29 41 29 43q41 63 66 99l26 43q61 94 80 122q29 47 82 134 q41 66 74 116q51 86 121 181q102 141 112 211q0 2 2 12v12q0 37 -12 68q-20 39 -25 67q0 29 33 45q39 16 154 17h8h10h8h11h8h8q4 2 21 2q20 0 49 4q12 0 22 -41l115 -795q4 -20 10 -61q8 -47 12 -72l19 -129q16 -137 45 -258q27 -104 51 -233q0 -6 2 -21q2 -12 2 -18 q0 -61 -49 -62q-14 0 -24 4q-25 4 -43 4q-29 0 -41 -2q-14 0 -43 -2q-20 -2 -31 -2q-57 0 -76 13q-18 10 -18 51t14 98v14q2 14 2 25q0 70 -6 123q-6 41 -33 41h-684zM643 295h684q-39 0 -49 31q6 -49 6 -113q0 -8 -2 -16v-13q-14 -63 -14 -108q0 -100 59 -123 q29 -23 117 -23q12 0 35 2q31 2 45 2q10 2 35 3q4 0 12 -3h8q20 -6 47 -6q131 0 131 144q0 8 -2 22q-2 18 -2 25q-18 104 -53 246q-27 121 -43 247q-2 12 -8 68q-8 55 -11 65q-4 25 -12 72q-6 41 -10 60l-117 796q-25 59 -46 84t-62 25q-25 -4 -43 -4q-31 0 -39 -2h10h-8 h-11h-8h-10h-8q-141 0 -189 -25q-41 -23 -60 -51.5t-19 -73.5q4 -41 32 -96q4 -20 4 -33v-8q-2 -8 -2 -10q-10 -57 -96 -168q-61 -84 -125 -187q-33 -88 -74 -202q-20 -10 -51 -29q-20 -12 -30 -19q-31 -47 -68 -106q-8 -12 -37 -57q-25 -35 -65 -99q0 -2 -29 -43 q-92 -135 -139 -194q-117 -158 -148 -187q0 -12 -2 -18q-41 0 -113 -86q-14 -20 -18 -34.5t-4 -33.5q0 -55 24.5 -74.5t88.5 -19.5q66 2 106 6q10 2 27 2q14 0 24 2q14 2 41 2q119 2 170 41q61 29 84 187q4 39 72 147q-15 -14 -35 -14zM1298 516q23 0 29 23q4 14 4 30 q-4 16 -4 27l-6 31q0 8 -4 32q-2 6 -6 31q-4 31 -15 68q-6 23 -10 73q-2 29 -8 76q-4 41 -6 58q-6 43 -15 120q-16 123 -38 201q-6 25 -19 25q-12 0 -24 -23q-10 -14 -31 -47l-12 -18q-14 -23 -21 -33q-25 -37 -35 -55q-12 -18 -37 -60q-25 -41 -36 -59l-37 -62 q-6 -8 -25 -36q-2 -6 -14 -23q-6 -8 -23 -35q-6 -8 -14 -22q-4 -8 -12 -19q-10 -14 -13 -20q-16 -25 -22 -35q-16 -25 -45 -70q-53 -82 -72 -123q-8 -14 -12 -34l-2 -9q0 -12 18 -12h567zM1298 598h-567q63 0 64 -88v2q0 8 4 20q14 29 65 113q2 4 4 6q29 45 45 70q6 8 17 24 l8 13q4 6 12 20q6 8 11 17q6 8 16 24q10 20 18 29l13 18q14 23 28 43q4 6 19 33q16 27 18 31q10 35 29 108q2 12 8 37q4 -2 18 -12q16 -12 19 -14q10 18 35 55q6 31 22 94l10 43q20 -29 31 -41q-25 -14 -45 -14q-39 0 -61 37q18 -63 37 -191q8 -78 14 -121q2 -14 6 -55 q6 -45 8 -74q4 -61 13 -88q8 -37 12 -59q2 -14 8 -37q2 -16 4 -27q2 -6 2 -12q0 -8 2 -14q0 -12 4 -29v-43q10 82 49 82z" />
<glyph unicode="B" horiz-adv-x="1859" d="M418 4h-23h-24q-31 0 -45 2h-45h-48q-76 0 -98 39q-12 25 -12 57q0 25 4 37q10 53 31 109q16 41 30 78q31 98 62 200q37 117 82 303q90 360 110 525q10 96 11 143q0 57 -7 76q-14 55 -38 61q-18 0 -19 29q0 16 4 27q6 29 37 28q113 -10 176 -10q33 0 58 -2h16 q12 -2 14 -2t17 2h16q203 16 336 16q141 0 252 -16q211 -35 301 -90q90 -59 102 -127q6 -33 6 -62q0 -31 -4 -43q-37 -166 -319 -258q-16 -6 -25 -20q0 -2 -2 -8q-2 -4 -2 -6q0 -12 12 -13q190 -57 287 -176q66 -88 66 -207q0 -63 -15 -123q-37 -152 -188 -325 q-145 -170 -524 -238q-41 -6 -92.5 -9t-133.5 -3q-12 0 -63 2q-37 0 -66 2h-143h-41h-27h-8h-6h-6h-2q-2 0 -2 2h-2zM418 -78h-80q0 -2 84 -2h2h6h6h8h27h41h141q29 -2 66 -2q51 -2 63 -2q88 0 142.5 3t99.5 9q416 78 571 267q168 193 207 360q16 66 17 141q0 147 -82 258 q-117 141 -340 207q29 0 43 -20.5t14 -48.5l2 -2q2 -4 2 -7q-10 -25 -28 -34q328 111 370 313q6 18 6 65q0 37 -8 76q-16 94 -137 183q-100 63 -334 102q-119 16 -264 16q-133 0 -340 -16h-14q-12 -2 -15 -2q-2 0 -12 2h-14q-27 2 -62 2q-63 0 -172 10q-53 0 -80.5 -20.5 t-38.5 -67.5q-8 -18 -8 -49q0 -111 90 -111q-12 0 -28 -4q2 -12 2 -51q0 -45 -11 -133q-23 -176 -108 -514v-4q-53 -215 -80 -295q-20 -72 -57 -189q-2 -6 -4 -10q0 -2 -5 -12q-14 -39 -24 -61q-27 -66 -35 -119q-6 -18 -6 -58q0 -55 22 -96q20 -41 59.5 -61.5t110.5 -20.5 h48h38q16 -2 52 -2h24h23zM926 1051h-21q-23 2 -45 2h-20q-20 -2 -43 -2q-6 0 -31 2q-18 0 -33 2q-23 2 -71 6q-43 0 -50 -25q-2 -10 -8 -37q-6 -23 -14 -55q-4 -18 -10 -41q-12 -45 -15 -63q-72 -293 -86 -432q-12 -100 -12 -168q0 -12 2 -31v-23q10 -55 20 -65 q14 -14 54 -15q250 8 407 48q150 33 242 98q86 59 133 147l10 23q23 43 35 70q20 43 39 102q10 37 12 74q0 25 4 69q0 74 -41 133q-47 66 -149 111q-51 23 -129 43q-69 17 -180 27zM922 969q111 -10 163 -25q55 -14 117 -39q82 -35 115 -82q27 -35 26 -82q-4 -45 -4 -69 q-4 -37 -10 -56q-14 -53 -33 -90q-14 -33 -43 -90q-39 -70 -108 -117q-80 -55 -213 -86q-158 -37 -391 -45q6 0 6 -10q2 2 2 8q2 6 2 9v18q-2 16 -2 27q0 63 12 157q14 129 84 426q2 25 14 84q6 33 11 56q8 23 18 43l4 12q-2 -39 -35 -39l23 -2l45 -4q16 -2 35 -2 q27 -2 33 -2q23 0 47 2h20q20 0 43 -2h19zM643 1229v-6q-2 -6 -2 -11q-2 -8 -6 -28l-2 -8q0 -25 55 -25q186 0 314 12.5t217 36.5q178 51 211 191q6 29 6 49q0 86 -76 123q-100 49 -541 55q-35 0 -57 -41q-18 -39 -45 -113q-23 -57 -68 -215zM725 1217q41 143 70 219 q16 49 41 104q-8 -4 -17 -4q414 -6 504 -47q31 -14 31 -49q0 -6 -2 -25l-2 -6q-25 -94 -154 -131q-84 -23 -207 -34t-301 -11q27 0 27 -76h-2q2 8 4 21q4 18 6 24q0 4 2 8v7z" />
<glyph unicode="C" horiz-adv-x="1957" d="M1624 373q-35 -59 -49 -101q-4 -16 -8 -26q-8 -29 -11 -39q-6 -23 -63 -53q-82 -41 -152 -64q-82 -31 -188 -49q-100 -18 -183 -27.5t-163 -9.5q-354 0 -547 248q-137 174 -137 403q0 88 22 195q41 182 150 330q104 147 260 270q150 115 313 180q172 68 320 68 q147 0 295 -19q119 -14 291 -108q47 -29 53 -43q8 -31 8 -62q0 -109 -14 -141q-6 -14 -19 -14q-10 0 -26 12q-20 12 -76 63q-8 8 -14 13q-63 57 -146 96q-70 31 -166 57q-76 18 -180 19q-233 -6 -453 -213q-229 -219 -292 -516q-20 -84 -21 -166q0 -197 123 -338 q174 -205 401 -205q141 0 338 117q51 31 135 90q57 39 136 84q49 29 81 29q8 0 9 -13q0 -20 -27 -67zM1696 332q37 74 37 108q0 94 -91 95q-51 0 -122 -39q-68 -37 -142 -88q-61 -45 -129 -89q-172 -104 -297 -104q-195 0 -340 176q-102 121 -102 285q0 68 18 147 q57 272 271 475q190 184 397 191q86 0 158 -16q84 -23 151 -52q72 -35 125 -84q6 -4 33 -28q47 -41 66 -54q41 -27 73 -26q66 0 94 63q20 37 21 174q0 49 -12 88q-8 29 -90 88q-193 104 -322 119q-154 18 -305 19q-162 0 -350 -74q-174 -68 -334 -190q-160 -127 -275 -287 q-121 -168 -163 -361q-25 -111 -25 -213q0 -260 156 -454q215 -279 610 -279q84 0 170 9.5t190 29.5q100 16 201 51q90 31 162 68q96 63 106 110q2 16 17 58q10 33 43 84z" />
<glyph unicode="D" horiz-adv-x="1939" d="M350 0h-55q-16 0 -25 2h-20q-90 4 -111 41q-16 25 -16 61q0 4 2 15v14q10 53 37 105q27 57 37 81q47 131 141 506q92 367 117 525q18 139 18 213q-8 55 -24 57q-10 0 -11 25q0 2 2 12v16q6 29 39 29q12 -2 25 -2q12 0 22 -2q16 -2 52 -2h53h49q66 0 80 2q29 4 90 4h8 q221 -6 400 -33q190 -33 325 -117q135 -82 197 -237q35 -92 35 -207q0 -86 -23 -203q-70 -324 -448 -592q-379 -260 -838 -301l-27 -2q-39 -4 -55 -6l-70 -4h-6zM350 -82h6l74 4q18 2 55 4q16 2 31 4q481 43 877 316q406 291 481 643q25 121 24 219q0 133 -40 238 q-72 180 -230 276q-147 92 -356 129q-184 27 -410 33h-10q-70 0 -102 -4q-12 -2 -68 -2h-49h-53q-29 0 -41 2t-25 2q-14 0 -27 2q-59 0 -87.5 -23.5t-39.5 -79.5v-20q-2 -14 -2 -16q0 -106 84 -107q-31 0 -49 18q0 -68 -18 -194q-29 -176 -115 -516q-94 -381 -137 -498 l-4 -8q-16 -41 -31 -66q-33 -66 -45 -133v-18q-2 -14 -2 -19q0 -61 29 -104q33 -74 178 -80h12q12 -2 35 -2h55zM766 1487q-35 -100 -74 -230q-6 -23 -14 -53q-27 -88 -37 -129q-20 -78 -57 -239q-59 -250 -90 -428q-25 -143 -25 -222q0 -14 2 -24q0 -16 27 -17 q352 31 643 256q295 225 354 502q23 104 23 209q0 240 -152 330q-211 125 -510 137q-49 0 -65 -35q-21 -43 -25 -57zM844 1460q2 2 2 6q12 29 18 43q-2 -12 -10 -12q276 -12 471 -125q111 -72 111 -260q0 -92 -21 -192q-53 -248 -323 -453q-270 -213 -598 -240q59 0 59 -57 q-2 6 -2 16q0 66 22 207q29 174 91 424v4q39 195 57 275q33 96 49 139q41 137 74 225z" />
<glyph unicode="E" horiz-adv-x="1914" d="M1591 1708q8 4 17 4h14q14 0 51 -10q31 -10 43 -29q25 -33 37 -51t29 -55q10 -31 10 -47q0 -29 -27 -29q-16 0 -26 4q-90 25 -189 47q-115 27 -235 37q-119 10 -240 12q-72 0 -100 2q-31 2 -74 2q-63 0 -90 -32q-25 -31 -39 -72l-2 -6q-14 -33 -18 -45q-14 -37 -23 -68 q-8 -20 -22 -63q-6 -16 -7 -17q-16 -49 -24 -96v-6q-2 -4 -2 -6q0 -23 31 -23h374q147 0 267 31q137 29 184 29q35 0 35 -11v-8q2 -14 2 -22q0 -51 -17 -248q-6 -45 -55 -45h-4q-29 0 -33 45q-12 96 -139 104q-82 4 -121 6h-6q-74 4 -107 5h-423q-27 0 -33 -29q-2 -6 -6 -25 q-2 -6 -5 -12l-12 -43q-2 -20 -10 -47q-2 -8 -4 -23l-6 -24l-11 -39q-33 -141 -43 -191q-16 -68 -36 -170l-2 -6q-25 -104 -25 -176q0 -10 2 -22v-19q14 -86 94 -90h45q37 -2 43 -2q170 0 348 27q88 12 175 34q109 29 196 43q66 10 96 11q8 0 21 -2h12q16 0 17 -15 q0 -16 -41 -55l-56 -55q-6 -8 -20 -23q-14 -16 -23 -24q-27 -27 -49 -45q-20 -20 -49 -21q-190 0 -272 2q-80 2 -213 2q-121 0 -179 2q-57 2 -167 2q-98 0 -130 2h-57h-24q-16 -2 -21 -2q-94 0 -94 41q6 45 90 277q63 172 145 508q90 362 111 522q8 74 8 137q0 57 -6 74 q-18 55 -39 55q-20 0 -20 25q0 16 4 26q6 29 39 29q61 -8 92 -10q61 -4 94 -4q246 0 473 8t477 8zM1573 1790q-242 0 -461 -8q-227 -8 -471 -8q-31 0 -88 4q-31 2 -92 10q-57 0 -85 -20.5t-38 -67.5q-8 -18 -8 -49q0 -106 102 -107h-39q2 -10 2 -47q0 -59 -8 -127 q-25 -172 -108 -512q-76 -315 -142 -500q-90 -250 -96 -299q0 -129 176 -129h21q14 2 24 2h55q31 -2 132 -2q109 0 165 -2q57 -2 181 -2q131 0 211 -2q82 -2 274 -2q61 0 104 41q35 29 54 51q8 8 22 25q14 14 21 22q6 6 24 25q16 16 29 27q66 78 65 114q0 43 -26.5 70 t-71.5 27h-12q-12 2 -21 2q-37 0 -108 -11q-61 -10 -205 -45q-84 -20 -166 -32q-172 -27 -336 -27q-6 0 -43 2h-43q-12 0 -14 14v17q-2 10 -2 18q0 61 22 158l2 6q20 102 37 170q10 51 39 164l15 63q2 8 6 25q2 14 4 22q8 33 10 52q2 18 6 41t6 41q2 0 7 -3h4 q-8 -37 -47 -36h423q35 0 109 -4q39 -2 121 -7q55 -2 61 -30q12 -119 115 -119h4q123 0 137 119q16 203 17 256q0 8 -2 22v8q0 41 -32 67t-85 26q-57 0 -203 -31q-115 -29 -248 -29h-374q51 0 51 -59l2 4v2q10 76 20 129q18 18 29 27q6 25 22 65q12 37 19 51q10 92 26 152 q8 -100 27 -101q39 0 68 -2q31 -2 106 -2q117 -2 234 -12q127 -10 223 -35l8 -2q127 -29 172 -43q20 -8 53 -8q109 0 109 111q0 29 -16 77q-6 -4 -9 -4q-16 -12 -28 -16q-16 68 -37 143q-27 39 -86 60q-57 14 -76 14h-14q-19 0 -35 -4z" />
<glyph unicode="F" horiz-adv-x="1808" d="M514 522q-39 -188 -43 -297q0 -86 14 -112q12 -29 29 -35q10 0 10 -23q0 -16 -4 -28q-6 -27 -39 -27q-20 4 -49 6q-33 4 -51 6q-37 4 -53 6h-17q-16 2 -30 2q-12 0 -39 -2q-20 -2 -31 -2q-88 0 -88 33q8 51 78 254q4 14 10 31q27 84 47 153q20 68 66 242q4 12 10 39 q0 4 4 16q0 8 4 21q0 6 4 18l6 19q92 377 109 522q10 88 10 133q0 41 -8 78q-16 53 -37 53q-20 0 -20 27q0 16 4 26q0 29 36 29q66 -8 97 -10q57 -4 90 -4q152 0 223 2h203q133 0 205 2h225q8 4 16 4h15q16 0 51 -10q29 -12 43 -29q12 -18 41 -51q20 -23 26 -55q0 -6 2 -21 q2 -10 3 -16q0 -53 -50 -54q-63 0 -157 72q-29 16 -111 33q-59 12 -174 22q-59 6 -174 11h-4h-85t-38 -4q-68 -12 -88 -35q-29 -37 -41 -72q-2 -6 -10 -27q-2 -6 -11 -26q-14 -35 -24 -70q-16 -53 -27 -84q-10 -31 -26 -100v-6q-2 -4 -2 -6q0 -20 32 -21l271 -4q49 0 82.5 3 t62.5 7q70 12 119 19q47 2 92 26q27 14 49 15q4 0 10 -2h7q27 -8 38 -74q4 -25 6.5 -74t2.5 -151q-2 -45 -56 -46h-4q-27 0 -33 46q-8 96 -137 104q-18 0 -67 4q-29 2 -56 4q-41 2 -110 2l-322 4q-23 0 -33 -28l-2 -6q-2 -18 -6 -31q-8 -29 -10 -43q-8 -33 -12 -47 q-8 -33 -13 -47q-4 -20 -12 -58q-8 -33 -8 -35q-4 -23 -12 -67l-2 -12q-12 -76 -25 -142h-2zM582 440h2l6 27q23 115 33 184q2 14 4 39q4 41 8 70q4 8 8 22q8 25 12 35q8 29 13 45q8 33 12 51q2 31 10 82q4 -2 8 -6q-12 -33 -47 -33l322 -4q68 0 106 -2q27 -2 56 -4 q49 -4 67 -4q57 -2 60 -33q20 -117 114 -116h4q131 0 138 125q0 119 -2.5 168t-8.5 73q-35 123 -104 141h-12q-10 2 -19 3q-45 0 -88 -25q-27 -14 -59 -16q-27 -2 -84 -13l-43 -8q-31 -4 -58.5 -6t-72.5 -2l-271 4q49 0 49 -61l3 2q10 72 22 137q18 55 27 82q6 18 6 22 q10 37 16 54q6 -2 12 -5q6 -4 9 -4q10 29 28 52q10 4 39 6q18 2 107 2h4q111 -4 168 -11l31 -2q92 -10 135 -18q63 -10 82 -20q121 -86 202 -87q131 0 131 136q0 4 -2 18q-2 18 -2 27q-8 -2 -47 -6q-8 31 -10 38q-18 76 -27 115q-27 35 -82 58q-53 14 -77 14h-15 q-18 0 -35 -4h-208q-72 -2 -203 -2h-205q-72 -2 -221 -2q-31 0 -84 4q-31 2 -96 10q-59 0 -92 -22.5t-33 -71.5q-4 -16 -4 -43q0 -55 27.5 -82t74.5 -27q-27 0 -43 8q6 -20 6 -57q0 -41 -10 -123q-18 -150 -105 -510l-6 -67l-2 4q-6 12 -6 18q-4 -12 -4 -20l-2 -4 q-2 -10 -2 -17q-37 -164 -72 -313q-20 -51 -49 -117l-8 -18q-76 -227 -82 -275q0 -121 170 -121q10 0 31 3q27 2 39 2q14 0 28 -2h15q2 0 32 -5l17 -2q23 -2 33 -4l16 -2q20 -2 53 -6q106 0 125 86q6 23 6 51q0 45 -21.5 75t-54.5 30q20 -4 29 -10q-6 18 -6 73q4 82 29 217z " />
<glyph unicode="G" horiz-adv-x="1943" d="M614 10q16 0 62 -28q37 -23 37 -58v-10l-2 -10q-12 -61 -43 -88q-8 -8 -9 -17q0 -12 21 -20q43 -20 141 -21q154 0 279 74q129 76 155 176l9 37q6 25 6 37q0 16 -8 16q-6 -2 -11 -2q-25 -12 -86 -28q-223 -57 -360 -58q-350 0 -547 250q-135 176 -135 404q0 88 22 194 q90 393 414 621q326 227 629 227q158 0 295 -18q66 -8 143 -35q74 -25 148 -74q20 -14 30 -45l2 -12q6 -29 9 -43q6 -33 6 -60q0 -53 -25 -53q-16 0 -45 25q-84 74 -276 151q-55 20 -131 30.5t-191 10.5q-236 -6 -438 -205q-106 -102 -170 -233q-63 -135 -96 -295 q-23 -106 -23 -191q0 -197 117 -323q180 -195 409 -195q53 4 80 9q35 6 62 12q61 14 127 39q68 20 92 59l18 84h4q23 104 31 127q12 25 18 164q0 70 -1 94.5t-9 36.5q-12 35 -31 37q-12 0 -12 22q0 18 4 29q0 23 45 23q59 -6 97 -7h47h49h98l23 2q53 4 80 7q12 0 24 -7 q12 -6 12 -22q-20 -55 -45 -55q-27 0 -53 -39q-35 -49 -84 -191q-49 -160 -86 -327q-37 -188 -69 -330h-7q-45 -131 -209 -223q-164 -90 -356 -91q-207 0 -328 101q-98 80 -98 188q0 37 6 56q12 51 41 63q22 8 92 8zM614 92q-49 0 -76.5 -3t-45.5 -11q-61 -23 -89 -117 q-10 -27 -10 -78q0 -145 129 -252q139 -119 379 -118q213 0 397 100q178 90 226 213h14q37 154 84 395q39 180 84 320q45 129 74 168q-8 4 -15 4q66 0 127 123q0 80 -57 110q-31 14 -66 15q-41 -4 -81 -7q-6 -2 -19 -2h-96h-49h-47q-37 0 -93 6q-72 0 -101.5 -20t-29.5 -68 q-4 -16 -4 -45q0 -104 88 -104q-20 0 -37 10q2 -12 3 -94q-2 -111 -13 -133q-2 -6 -14 -53q-2 -10 -6 -25h-4l-29 -133q-10 -8 -43 -14q-63 -23 -119 -37q-16 -4 -57 -13q-31 -2 -68 -6q-195 0 -348 168q-94 104 -94 268q0 72 20 175q31 150 90 276q59 121 154 209 q176 176 383 182q102 0 171 -9t118 -26q180 -74 254 -137q59 -45 98 -45q106 0 107 135q0 33 -7 72q-2 10 -6 37q-4 18 -6 26q-20 63 -63 93q-84 55 -168 84q-92 31 -160 38q-143 18 -305 19q-328 0 -676 -242q-352 -246 -446 -669q-25 -111 -25 -213q0 -258 154 -455 q219 -281 610 -281q150 0 381 60l6 2q59 14 78 24q4 0 10 2q-51 0 -71.5 14.5t-20.5 51.5q0 -4 -2 -12l-2 -7l-8 -34q-23 -76 -117 -127q-106 -61 -238 -62q-72 0 -108 13q29 -23 28 -54q0 -20 -16 -43q49 43 68 140q0 2 2 14v14q0 82 -76 127q-80 41 -105 41z" />
<glyph unicode="H" horiz-adv-x="1982" d="M692 1186q68 0 101 2q68 0 100 2q68 0 102 2h101h90h92q29 -2 88 -2q20 -2 45 -2t45 -2q29 0 43 49q41 184 49 262q0 72 -12 102q-14 27 -31 33q-12 0 -12 27v10q2 8 2 12q6 29 39 29q70 -8 102 -10q8 0 31 -2q29 -2 53 -2q76 0 108 -9.5t32 -29.5q0 -53 -78 -279 q-20 -63 -62 -211q-35 -129 -80 -323q-82 -336 -102 -504q-10 -102 -10 -147q0 -39 4 -52q8 -51 31 -51q10 0 10 -16q0 -23 -6 -41q-6 -27 -37 -27q-106 12 -187 12q-164 0 -163 62q0 16 6 26q41 80 82 226q25 94 57 200q27 92 82 302q27 109 43 186q2 2 2 10q2 6 2 12 q0 14 -31 15q-61 0 -92 -2t-90 -2h-88q-31 -2 -90 -2q-68 0 -102 2h-101q-23 2 -49 2q-27 0 -49 2q-35 2 -100 2q-33 0 -39 -15q-4 -14 -7 -20q-2 -14 -10 -43t-10 -43q-8 -33 -12 -47t-13 -47q-84 -371 -102 -502q-8 -76 -8 -139q0 -47 4 -62q6 -51 29 -51q10 0 10 -20 t-4 -35q-6 -29 -39 -29q-20 2 -47 6t-47 6h-29q-31 2 -64 2q-80 0 -115.5 14.5t-35.5 45.5q0 20 6 31q29 84 68 217q4 16 16 55q29 94 43 147q35 115 80 304q90 367 115 524q16 125 16 176q0 8 -2 22v15q-10 55 -27 57q-12 0 -12 21q0 20 4 32q6 29 35 29l10 -2q53 -6 84 -8 q10 0 29 -2q35 -2 63 -2q12 0 25 2h22q63 0 86 -17q8 -6 9 -26q0 -49 -41 -150q-39 -92 -82 -280q0 -4 -2 -8v-7q-1 -24 24 -24zM692 1268q57 0 58 -58l2 4v3q41 178 75 258q47 121 47 180q0 76 -43 94q-37 31 -133 31h-22q-12 -2 -25 -2q-27 0 -59 2q-20 2 -31 2 q-29 2 -90 10q-57 0 -84 -20.5t-37 -69.5q-6 -20 -6 -53q0 -102 88 -103q-27 0 -49 19v-13q2 -10 2 -18q0 -49 -16 -164q-27 -178 -113 -516l-2 -6q-51 -213 -76 -295q-14 -53 -43 -147q-12 -39 -16 -56q-4 -10 -17 -55q-31 -100 -49 -150q-12 -23 -12 -65 q0 -72 54.5 -106.5t178.5 -34.5q31 0 60 -2h26q20 -2 48 -7q27 -4 47 -6q59 0 87.5 21.5t37.5 70.5q6 23 6 54q0 55 -19.5 78.5t-72.5 23.5q39 0 51 -14q-2 10 -2 45q0 57 8 129q16 117 100 493q8 61 13 88q2 2 6 5q4 2 6 4q2 31 10 82q2 -2 6 -3q4 0 4 -2q2 6 4 19 q-6 -41 -38 -41q63 0 96 -2q23 -2 51 -2q27 0 49 -2h100q35 -2 105 -2q61 0 92 2h86q63 0 96 2q29 2 86 2q-29 0 -40 19.5t-11 56.5v-4q-10 -47 -29 -127q-14 -57 -16 -66q-14 -53 -29 -111q-35 -131 -51 -186q-45 -147 -59 -205q-41 -143 -74 -207q-16 -25 -16 -65 q0 -143 245 -143q78 0 183 -13q55 0 82.5 20.5t38.5 65.5q8 29 8 64q0 53 -23.5 75.5t-68.5 22.5q33 0 49 -10q-2 8 -2 31q0 43 10 139q18 154 100 493q47 203 80 320l23 82q27 92 37 125q82 250 82 305q0 63 -50.5 92t-171.5 29q-23 0 -51 2q-23 2 -31 2q-31 2 -90 8l-10 2 q-57 0 -86 -25.5t-39 -76.5v-17l-2 -14q0 -45 20.5 -77t57.5 -32q-16 4 -27 15q4 -25 4 -64q-10 -94 -47 -246q16 12 39 13q-20 2 -45 2t-45 2q-59 0 -88 2h-94h-90h-103q-35 -2 -102 -2q-33 -2 -100 -2q-33 -2 -99 -2z" />
<glyph unicode="I" horiz-adv-x="923" d="M645 1694q156 0 156 -35q0 -8 -4 -12q-29 -45 -107 -293q-53 -180 -121 -523q-68 -330 -88 -507q-14 -125 -14 -164q0 -8 2 -21v-12q0 -47 16 -47q8 0 9 -17q0 -18 -5 -32q-6 -27 -36 -27q-61 4 -95 10q-8 0 -26 2t-29 2h-18q-16 -2 -21 -2q-10 0 -33 -2q-18 -2 -28 -2 q-80 0 -80 31l2 8q2 14 55 178q14 47 33 105q53 158 125 508q84 373 98 534q12 98 13 154q0 37 -5 49q-6 43 -24 43q-8 0 -8 12q0 8 4 29l4 16q6 29 37 29q12 -2 28 -2q33 -4 68 -8q20 0 37 -2q45 -2 55 -2zM645 1776q-12 0 -49 2q-33 2 -37 2q-20 2 -72 8l-26 2 q-98 0 -121 -94q-2 -10 -6 -33q-4 -20 -4 -29q0 -53 24.5 -73.5t65.5 -20.5q-41 0 -55 21q2 -8 2 -31q0 -53 -13 -146q-14 -154 -96 -526q-74 -356 -123 -498q-18 -57 -33 -104q-53 -164 -55 -178l-6 -17q0 -131 162 -131q10 0 28 2q23 2 33 2h21q16 2 18 3q8 0 25 -3 q14 -2 22 -2q35 -6 101 -10q100 0 118 88q6 23 6 53q0 51 -25.5 75t-64.5 24q66 0 66 -35v12q-2 12 -2 21q0 37 14 155q18 168 86 500q74 362 119 514q70 227 94 266q20 20 21 64q0 117 -238 117z" />
<glyph unicode="J" horiz-adv-x="1423" d="M979 1706q31 -4 88 -8h6l92 -6q135 -6 135 -37l-2 -8q-16 -33 -94 -273q-23 -59 -53 -211q-16 -74 -51 -250l-15 -73q-33 -166 -55 -269q-25 -115 -31 -176q-31 -254 -73 -344q-45 -88 -234 -217q-43 -29 -92 -61l-12 -6q-55 -35 -82 -48q-109 -53 -168 -75 q-96 -39 -166 -47q-27 0 -39 14q-10 14 -10 29v6q2 4 2 8q2 20 27 45q14 12 47 22q82 29 182 91q96 63 180 159q14 29 29 45q18 23 49 99q45 119 82 239q14 47 41 144q10 33 16 57q39 139 74 274q84 340 113 525q12 98 12 157q0 41 -4 56q-12 55 -33 57q-14 0 -14 25 q0 16 4 28q0 29 49 29zM985 1788q-137 0 -137 -96q-4 -18 -4 -43q0 -49 22.5 -78t67.5 -29q-20 0 -41 4q2 -8 2 -35q0 -53 -12 -145q-33 -207 -111 -516l-12 -55q-41 -184 -60 -263l-10 -30q-35 -92 -47 -123q-43 -141 -80 -234q-20 -137 -35 -182q-20 20 -36 53 q-72 -82 -156 -135q-94 -57 -164 -82q-51 -16 -76 -39q-47 -55 -53 -102q0 -4 -2 -10v-8q0 -43 27 -80q16 -25 40.5 -35t67.5 -10q82 8 193 53q43 16 147 65q18 8 27 13q37 16 102 57q31 23 35 23q39 29 57 41q209 145 262 247q47 92 82 373q4 45 29 166q20 88 55 270l15 74 q35 176 51 250l4 14q31 141 47 187l2 8q74 229 88 254l10 26q0 117 -213 138q-20 2 -45 4q-25 0 -45 2h-6q-57 4 -88 8z" />
<glyph unicode="K" horiz-adv-x="1994" d="M1075 942q12 -33 19 -49q2 -10 10 -27q2 -2 4 -10q4 -10 6 -16q61 -170 117 -303q61 -145 88 -199q70 -143 106 -191q35 -37 54 -36q18 0 39 -52l2 -6v-6q0 -20 -23 -41q-29 -2 -92 -2q-53 4 -84 4q-37 0 -59 2q-27 0 -54 -2h-26q-51 -6 -82 -6q-23 0 -29 4q-14 8 -14 29 v6q2 6 2 10q6 35 12 105q0 2 2 12v16q0 57 -29 150q-39 119 -194 438q-14 33 -31 33q-6 0 -10 -4q-20 -12 -33 -21q-43 -31 -88 -69q-47 -41 -78 -66q-61 -49 -69 -57t-25 -74q-47 -205 -53 -305q0 -51 3 -74.5t11 -36.5q14 -27 33 -26q14 0 14 -19q0 -16 -4 -26 q-4 -16 -22 -21q-6 0 -17 -2q-8 -2 -14 -2q-33 4 -94 12q-8 0 -27 2q-18 2 -29 2h-18q-14 -2 -18 -2q-12 0 -39 -2q-18 -2 -29 -2q-90 0 -90 35q6 51 88 277q16 57 20 71q18 63 37 129q27 88 82 305q86 346 113 525q14 92 14 159q0 39 -4 54q-8 57 -29 57q-14 0 -14 27 q0 2 2 12v14q8 29 39 29q61 -8 94 -10q61 -4 92 -4q141 0 142 -27q-4 -12 -60 -184q-8 -25 -30 -92q-53 -174 -131 -549q-2 -8 -5 -17q-4 -18 -4 -24q0 -16 4 -27l5 -2q12 0 51 33q51 43 155 127q176 143 330 276q170 145 301 281q84 88 84 117q0 16 -18 16q-33 0 -33 20 q0 10 22 37q23 29 62 29q8 -2 18 -2q16 -2 19 -2q20 -4 55 -4q29 0 27 0q0 -2 12 -2h49h53q23 0 35 4q8 2 35 6q16 0 29 -18q8 -8 8 -19q0 -8 -8 -12q-96 -41 -156 -96q-63 -61 -125 -105q-121 -88 -467 -385q-55 -49 -55 -74l2 -8q4 -33 12 -47zM1149 977q-2 10 -6 35v4 q0 -2 26 -6q342 291 463 381q72 53 133 110q49 47 133 82q37 18 46.5 37.5t9.5 48.5q0 39 -27 72q-41 47 -96 47l-19 -2q-31 -4 -38 -8h-9h-53h-49q193 0 192 2h-6h-225q-12 0 -29 2h-12q-10 2 -31 4q-10 2 -14 2q-82 0 -131 -57q-41 -63 -41 -91q0 -45 30.5 -73.5 t84.5 -28.5q-63 0 -64 66q0 -16 -61 -60q-141 -145 -295 -276q-145 -125 -328 -275q-106 -86 -160 -129q31 -12 39 -12l31 -33q8 -10 8 -26q2 12 6 32q82 387 129 539q20 66 48 145q43 131 47 146q0 119 -224 119q-29 0 -86 4q-33 2 -94 10q-55 0 -82.5 -22.5t-44.5 -75.5 v-21q-2 -16 -2 -18q0 -53 22.5 -81t73.5 -28q-35 0 -51 6q2 -10 2 -35q0 -55 -12 -147q-27 -178 -113 -516l-26 -121q-37 -160 -54 -227q-12 -33 -34 -96q-16 -43 -23 -58q-86 -246 -92 -295q0 -123 172 -123q10 0 29 2q27 2 39 2h18q16 2 18 3q8 0 25 -3q16 -2 25 -2 q31 -4 96 -12q8 0 18 2q14 2 23 2q82 12 96 80q6 18 6 49q0 100 -96 101q18 0 37 -13q-2 8 -2 66q6 90 51 289q0 16 2 30v4q8 8 64 52q23 18 79 67q41 35 82 64q8 4 17 10q14 8 20 12q-10 -8 -18 -10t-23 -2q-23 0 -43 14q150 -307 191 -428q25 -74 24 -125q0 -4 -2 -14v-10 q-6 -66 -12 -101q0 -4 -2 -14v-10q0 -74 55 -101q14 -14 70 -14q31 0 86 6h24q23 2 47 2q25 -2 64 -2q29 0 78 -4h4q88 0 127 4q72 57 72 121v14q-2 12 -3 15q-35 63 -61.5 90t-58.5 27q2 0 8 8q-33 45 -94 174q-20 25 -66 98q-2 4 -20 33q-57 170 -117 366q-2 6 -6 17 q-2 8 -4 10q-2 4 -2 8l-4 8q-9 19 -25 62z" />
<glyph unicode="L" horiz-adv-x="1546" d="M494 1702q47 -8 73 -8q25 -2 78 -2q35 0 53 2q43 0 66 2q84 0 84 -39q0 -16 -4 -25q-27 -70 -92 -258q-61 -164 -146 -534q-57 -236 -90 -424q-25 -125 -24 -221q0 -39 14 -56q12 -16 76 -16h51h55h51h52q178 4 362 82q182 80 242 80q29 0 28 -23q0 -25 -41 -82 q-2 -6 -18 -24q-18 -18 -25 -31q-6 -6 -14 -16q-8 -8 -12 -13q-6 -10 -19 -26q-47 -59 -106 -64v-2q-139 0 -207 2h-203q-135 0 -205 2q-18 0 -104 2q-57 0 -104 2q-27 0 -50 6h-12q-16 2 -31 2q-49 -6 -82 -6q-68 0 -67 27q0 2 2 6v6l8 25q51 141 86 246q61 168 141 505 q90 354 117 523q16 125 17 178q0 8 -2 20v15q-8 53 -27 55q-12 0 -12 31v10q2 8 2 12q6 29 39 29zM502 1784q-61 0 -90 -23.5t-39 -79.5v-16l-2 -14q0 -113 88 -113q-29 0 -49 21v-13q2 -8 2 -16q0 -51 -17 -166q-33 -190 -114 -514q-82 -350 -140 -500q-39 -113 -75 -221 q-20 -53 -23 -61v-13q-2 -12 -2 -14q0 -109 149 -109q37 0 89 7q8 0 16 -2h8q29 -6 59 -7q47 -2 105 -2q86 -2 104 -2q70 -2 207 -2h201q94 -2 291 -2v6q51 4 90 92l6 9q8 8 12 16q6 6 13 14q8 8 16 17q6 10 18 24q2 2 9 11q16 23 18 26q53 84 53 125q0 104 -110 105 q-68 0 -275 -86q-166 -72 -329 -76h-52h-51h-55h-51q-8 0 -13 -15q4 0 4 5q0 86 23 206q33 184 90 420q88 381 143 527l23 65q51 147 68 186q6 12 8 26.5t2 31.5q0 63 -38 92t-132 29q-23 -2 -66 -2q-16 -2 -49 -2q-51 0 -74 2q-26 0 -69 8z" />
<glyph unicode="M" horiz-adv-x="2281" d="M469 1706q59 -8 84 -16q4 0 22.5 -2t61.5 -2q18 0 59 2q8 2 17 2q47 0 47 -39q92 -229 172 -482q23 -82 76 -245q27 -82 84 -242q0 -8 8 -8q10 0 16 10q63 82 191 250q47 61 131 178q29 39 55 76q27 33 90 131q82 115 127 170q72 86 135 145q59 55 107 56h6l6 -2 q14 -2 57 -2q16 -2 37 -3q20 0 37 -2q63 0 64 -32q0 -12 -17 -35q-47 -61 -112 -240q-61 -154 -148 -538q-33 -141 -65 -314q-4 -31 -9 -53q-18 -113 -22 -152q-12 -88 -12 -143q0 -39 4 -53q6 -43 26 -43q10 0 11 -19q0 -18 -5 -32q-6 -27 -38 -27q-35 2 -101 10h-29 q-29 2 -55 2h-28q-20 -2 -23 -2q-96 0 -96 31q6 41 76 254q55 188 133 530q37 168 73 275q25 78 35 114q16 45 31 101q0 14 -10 20l-6 2q-12 0 -25 -18q-109 -147 -182 -260q-57 -88 -181 -260q-72 -98 -139 -219q-72 -127 -133 -207q-61 -82 -117 -92q-59 0 -98 120 q-18 68 -39 123q-6 20 -27 86q-12 35 -18 56q-33 98 -49 149q-14 43 -29 88q-16 55 -18 62l-17 49q-18 59 -28 86l-10 33q-14 47 -23 69q-14 47 -25 47q0 -2 -4 -2q-10 -12 -20 -43q-14 -47 -25 -90q-18 -63 -28 -110q-2 -14 -15 -64l-8 -39q-2 -10 -6 -31q-6 -27 -8 -34 q-39 -174 -68 -301q-29 -143 -33 -203l-2 -23q-6 -74 -6 -102q0 -41 8 -78q10 -53 35 -53q12 0 12 -25q0 -20 -4 -35q-6 -25 -36 -24q-6 0 -19 2q-12 0 -18 2l-11 2q-8 2 -10 2q-12 2 -57 2h-39h-45q-84 0 -84 41q0 16 6 27q20 49 90 241q55 152 135 514q23 98 52 230 q12 53 32 143q6 23 6 25q10 51 37 211q8 49 8 94q0 66 -24 78q-35 14 -35 71q0 29 39 29zM475 1788q-127 0 -127 -111q0 -61 19.5 -95t62.5 -50q-23 0 -22 -4q0 -33 -7 -80q-25 -152 -36 -207q0 -2 -7 -24l-32 -144q-29 -131 -52 -229q-84 -369 -133 -504l-14 -41 q-53 -154 -72 -193q-14 -25 -14 -63q0 -123 166 -123h45h39q41 0 51 -2h4q4 -2 6 -2q8 -2 31 -4q12 -2 16 -2q102 0 123 86q6 23 6 55q0 47 -24.5 77t-69.5 30q33 0 45 -13q0 2 -2 9q-4 33 -4 53q0 27 6 96l2 23q4 41 25 159q0 2 6 33q39 180 68 303q2 12 6 47q6 35 8 50 l8 38q12 49 14 64q10 33 29 74q4 20 6 24q10 43 17 62q-10 -10 -19 -15q47 0 47 2q-59 0 -135 9q8 -23 23 -70l10 -33q14 -41 45 -133q2 -6 18 -61q14 -45 29 -88q16 -51 49 -150q12 -39 21 -63q16 -57 24 -80q20 -49 39 -119q72 -180 182 -180q86 12 177 125q63 80 139 217 q59 111 133 211q102 186 184 352q86 86 181 168q-33 -16 -62 -17l-16 9q-16 10 -23.5 23t-7.5 38q-4 -20 -20 -70l-7 -16q-6 -25 -26 -84q-6 -23 -8 -29q-43 -127 -76 -282q-86 -371 -131 -525q-74 -233 -80 -272q0 -119 178 -119h23q16 2 28 2q25 0 53 -2h27q63 -8 102 -10 q55 0 83 20.5t38 67.5q6 23 6 53q0 53 -19 77t-73 24q41 0 54 -23q-2 10 -3 37q0 53 13 135q2 31 14 111q8 41 14 88q35 178 66 309q80 367 143 529q57 160 103 219q33 55 33 84q0 51 -36 82.5t-106 31.5q-16 2 -37 2q-20 0 -37 2q-41 0 -55 2q-2 0 -8 3h-10q-72 0 -162 -78 q-76 -117 -143 -256q-39 -18 -109 -60q-14 -8 -22 -12l-35 -53q-37 -55 -54 -76q-2 -2 -47 -90q-94 -180 -139 -262q-43 -35 -96 -76q-53 -43 -96 -78q12 16 24 20.5t27 4.5q31 0 52.5 -14.5t21.5 -45.5q-49 106 -89 203l-8 31q-47 172 -67 262q-70 225 -168 475 q0 104 -131 105q-8 0 -17 -3q-41 -2 -59 -2h-60q-28 11 -100 21z" />
<glyph unicode="N" horiz-adv-x="1912" d="M1225 25q-18 35 -49 98l-74 147q-16 35 -45 90q-33 68 -45 93q-61 127 -92 192q-23 45 -64 133l-31 62q-23 45 -65 145l-19 39q-78 164 -108 260q-12 45 -25 45q0 -2 -4 -2q-14 -14 -20 -43l-2 -4q-16 -57 -27 -96q-12 -43 -39 -144q-16 -59 -33 -133q-14 -59 -16 -76 q-31 -119 -76 -307l-2 -12q-33 -145 -39 -207q-8 -59 -8 -110q0 -49 10 -76q18 -35 47 -35q23 0 23 -33q0 -20 -4 -35q0 -25 -37 -24q-10 2 -19 2q-16 0 -20 2q-6 0 -10 2q-12 2 -17 2q-25 2 -67 2q-104 0 -117 18q-8 16 -8 29q0 18 4 29q10 35 10 37q45 168 74 264 q57 201 111 438q14 70 40 180l13 56q18 76 47 180q41 139 41 225q-4 63 -8 94q-18 18 -56 58l-26 26q-12 16 -13 43q0 29 39 29q43 -4 58 -10q2 0 15 -2t44 -2h127q92 -2 105 -13v2l2 -2q12 -12 12 -30q47 -119 102 -238q23 -45 68 -139q45 -98 69 -150q16 -37 54 -114 q6 -12 18 -37l37 -76l35 -76l18 -37q82 -178 109 -241q12 -33 33 -62l8 -4q14 0 33 60q4 18 16 63t18 70q4 23 17 75q6 27 22 80q94 393 109 539q8 72 8 131q0 61 -8 80q-14 49 -43 49q-20 0 -21 23q0 16 4 26q6 29 37 29q51 -4 64 -8q16 -6 59 -6q162 0 162 -41 q-12 -59 -84 -269q-31 -88 -66 -215q-45 -154 -84 -332q-2 -6 -10 -38l-10 -39q-2 -12 -12 -56q-2 -12 -11 -49q-14 -59 -53 -219l-4 -16l-10 -41q-12 -49 -19 -80q-8 -31 -22 -94l-4 -21q-2 -12 -4 -22q-12 -55 -17 -78q-8 -45 -12 -74q-6 -18 -57 -27q-4 0 -19 -2 q-8 -2 -12 -2q-27 0 -37 17q-8 12 -10 18h-6h-4h-2zM1137 14l-21 -88h107h4h-53v21q29 -55 106 -56q4 0 14 3q14 2 25 2q115 31 129 88q2 14 8 53l6 26q6 57 19 134l6 18q14 45 20 59q6 41 21 113l8 45l16 60q29 100 41 139q8 37 11 49q10 43 12 55q8 31 20 76 q37 170 84 330q41 154 64 211q78 229 88 286q0 72 -59.5 101.5t-184.5 29.5h-29q-12 8 -81 15h-11q-98 0 -116 -86q-8 -20 -9 -51q0 -55 25 -80t78 -25q-16 0 -33 4q2 -12 2 -51q0 -57 -8 -123q-14 -129 -107 -524l-4 -19l-18 -102q-12 -29 -17 -41q-6 -37 -18 -106 q-12 -16 -16 -23q31 2 82 2l20 -24q-12 16 -20 38q-23 53 -74 164q-51 109 -55 119q-2 4 -9 10q-45 51 -63 72l-25 74q-35 109 -47 147q-25 51 -69 150q-45 94 -68 139q-57 121 -94 219q0 45 -37 72l-141 143v-37q-2 -51 -21 -69h-131q-18 0 -20 -4q-6 2 -27 7t-64 11 q-125 0 -124 -111q0 -66 32 -98l29 -29q27 -29 39 -41q2 -18 2 -55q0 -80 -37 -201q-8 -31 -14 -49q-23 -84 -35 -135l-12 -55q-27 -111 -41 -180q-66 -283 -109 -435q-41 -135 -82 -286l-2 -11q-8 -20 -8 -55q0 -27 14 -59q4 -8 4 -10q23 -59 189 -60q41 0 63 -2h6 q4 -2 11 -2q8 -2 32 -4q12 -2 17 -2q123 0 123 94q4 20 4 47q0 61 -25.5 88t-79.5 27q16 0 29 -14q-4 20 -4 43q0 47 8 102q4 61 37 233l8 35q41 154 70 250q2 23 16 111q2 8 4 18q14 63 29 117q25 68 39 100q12 49 29 103q-6 -12 -25 -19q51 0 51 2q-72 0 -135 15 q29 -92 113 -273l20 -28q43 -59 64 -87l32 -92q45 -125 62 -172l92 -123q16 -47 49 -135q20 -61 41 -119q4 -8 43 -83q23 -45 31 -62q15 -33 35 -74z" />
<glyph unicode="O" horiz-adv-x="1992" d="M1188 1702q152 0 287 -68q135 -66 235 -182q98 -121 137 -270q23 -84 23 -168q0 -76 -19 -160q-80 -350 -385 -600q-305 -248 -659 -248t-547 248q-137 176 -137 405q0 88 22 195q41 176 150 328q111 154 258 270q156 117 317 182q166 68 318 68zM1188 1784 q-166 0 -348 -74q-168 -66 -336 -192q-160 -170 -275 -383q-123 -125 -163 -263q-25 -111 -25 -213q0 -254 154 -454q217 -281 612 -281q381 0 711 266q330 270 413 646q20 88 21 178q0 100 -25 188q-45 170 -153 303q-117 133 -263 203q-151 76 -323 76zM1161 1575 q-225 0 -438 -215q-209 -215 -277 -516q-25 -113 -24 -215q0 -168 70 -299q115 -215 342 -215t426 192q201 195 288 537q35 133 35 258q0 170 -72 280q-123 193 -350 193zM1161 1493q182 0 281 -156q59 -92 59 -235q0 -113 -33 -238q-84 -322 -266 -497q-170 -170 -368 -170 q-180 0 -271 172q-59 111 -59 260q0 88 22 196q61 276 256 478q184 190 379 190z" />
<glyph unicode="P" horiz-adv-x="1820" d="M449 1706q61 -8 94 -10q10 0 28 -2q35 -2 64 -2q31 2 72 4q70 4 94 4q119 4 190 4q207 0 373 -51q170 -51 270 -180q63 -82 64 -213q0 -78 -21 -162q-49 -219 -340 -422q-289 -203 -729 -301q-41 -8 -110 -29q-47 -12 -54 -76v-30q-2 -25 -2 -27q0 -53 7 -70 q6 -33 16 -47q16 -16 18 -20q4 -8 4 -17q0 -16 -4 -28q-6 -29 -39 -29q-59 8 -94 14q-14 4 -45 4t-47 -4q-47 -8 -84 -8q-51 0 -51 21q0 29 65 293l5 16q29 115 49 184q43 160 77 307q23 90 58 238q2 12 16 76q33 154 41 211q14 102 15 170q0 10 -3 26v17q-6 53 -26 57 q-12 0 -12 23q0 18 4 30q6 29 37 29zM455 1788q-55 0 -84 -20.5t-39 -69.5q-6 -20 -6 -51q0 -104 88 -105q-35 0 -49 21v-15q2 -14 2 -24q0 -63 -15 -158q-14 -92 -39 -205q-2 -12 -14 -65q-33 -143 -59 -246q-47 -197 -76 -305q-31 -109 -55 -203q-68 -279 -68 -313 q0 -102 133 -103q49 0 100 11q10 2 31 2q18 0 27 -2q66 -12 108 -17q57 0 85 21.5t38 66.5q6 23 6 51q0 20 -7 39t-11 27q-2 6 -25 25v4q2 6 2 12q-4 10 -4 47q0 2 2 23v30h-6q68 20 105 29q459 100 759 313q322 227 373 471q23 90 23 181q0 164 -80 264q-119 152 -311 207 q-180 55 -398 55q-74 0 -192 -4q-25 0 -94 -4q-41 -2 -72 -4q-27 0 -60 2q-18 2 -28 2q-35 2 -90 10zM854 1589q-51 0 -70 -14q-18 -18 -28 -43q-4 -10 -8 -23q-16 -45 -25 -67q-6 -23 -21 -62q-16 -51 -24 -73q-63 -207 -123 -467q-4 -23 -14 -60q-2 -14 -6 -28l-5 -15 q-10 -49 -12 -67q-2 -10 -4 -23q-12 -74 -16 -117v-10q-2 -8 -2 -10q0 -20 6 -27q0 -10 22 -10q16 0 29 4q276 84 528 256q262 176 301 352q14 57 15 121q0 113 -56 211q-86 145 -487 172zM852 1507q344 -20 418 -131q45 -78 45 -170q0 -49 -12 -102q-33 -152 -267 -303 q-242 -164 -508 -246h-4q27 0 43.5 -8t16.5 -29q-6 -2 -6 -8l2 8v8q4 37 16 107q2 10 4 24q8 49 14 76l7 23q8 39 14 67q66 283 121 459q8 23 24 74q14 39 21 61q23 61 30 84q4 8 9 12q4 -6 12 -6z" />
<glyph unicode="Q" horiz-adv-x="1992" d="M686 -55q221 -49 422 -49h35q31 2 35 2h39q57 2 106 2q74 0 129 -11q45 -10 45 -30q-2 -20 -111 -58q-25 -8 -69 -37q-25 -14 -70 -40l-6 -3q-8 -4 -49 -24q-27 -12 -29 -14h-8q-8 -2 -12 -2q-37 0 -133 20q-66 14 -211 43l-23 4q-133 20 -241 25q-111 2 -136 26 q-6 6 -6 17q0 27 41 84q12 23 33 37q18 14 31 24q6 10 18 23q4 4 10 8l2 2q12 12 13 20q0 8 -4 9q-68 35 -125 75q-55 45 -90 76q-127 119 -175 297q-25 90 -24 186q0 90 22 197q41 176 148 330q104 147 260 270q158 119 317 180q166 68 316 68q154 0 289 -68 q133 -66 233 -180q96 -117 139 -270q23 -86 23 -170q0 -76 -19 -160q-80 -350 -385 -598q-311 -250 -661 -250q-31 0 -80 4q-59 0 -66 -24v-25q0 -10 27 -16zM705 25q37 -27 36 -64v14q-2 -47 -20 -47q53 -4 84 -4q377 0 713 269q330 266 413 643q20 88 21 178q0 98 -25 192 q-51 176 -155 301q-117 131 -261 201q-152 76 -325 76q-164 0 -346 -74q-166 -63 -336 -190q-164 -133 -279 -289q-117 -164 -159 -359q-25 -111 -25 -215q0 -113 27 -206q53 -203 198 -336q37 -33 96 -82q61 -43 154 -92q-39 0 -48 18t-9 55q0 16 12 37l-2 -2q-6 -4 -10 -8 q-12 -8 -23 -25q-2 -2 -12 -10l-6 -4q-31 -23 -53 -57q-53 -88 -54 -129q0 -47 31 -74q33 -45 190 -51q94 -2 230 -23l37 -6q123 -25 192 -41q102 -23 152 -22q12 0 33 2h22l14 8q29 16 68 39q10 6 23 12q33 20 57 35q39 25 53 29q164 82 166 129q0 45 -27.5 71.5 t-83.5 44.5q-55 12 -145 13q-49 0 -106 -2h-39q-4 0 -35 -3h-35q-186 1 -403 48zM1161 1575q-229 0 -436 -213q-211 -217 -279 -516q-25 -113 -24 -215q0 -170 70 -301q115 -215 342 -215q225 0 426 192q199 193 288 539q35 143 35 254q0 166 -72 280q-127 195 -350 195z M1161 1493q178 0 281 -156q59 -96 59 -237q0 -98 -33 -234q-84 -324 -266 -499q-172 -170 -368 -170q-180 0 -271 172q-59 111 -59 262q0 88 22 196q61 274 258 478q180 188 377 188z" />
<glyph unicode="R" horiz-adv-x="1851" d="M1122 498q106 -211 150 -279q59 -80 86 -100q33 -23 51 -27q18 -2 39 -47q0 -2 2 -10q2 -4 2 -6q0 -12 -25 -13q-31 -6 -63 -6q-2 0 -18 2h-21q-10 0 -53 2q-29 0 -53 2q-170 4 -185 35q-20 37 -49 107q-12 20 -31 63q-14 33 -49 107q-45 86 -74 88q-43 0 -96 -13 q-14 -4 -49 -12l-10 -2q-16 -4 -39 -10l-21 -4q-27 -6 -98 -25q-8 -2 -12 -4q-47 -12 -53 -76v-39q-2 -27 -2 -30q0 -43 4 -58q8 -31 18 -47q16 -16 19 -20q4 -8 4 -17q0 -16 -4 -28q-10 -29 -39 -29q-33 4 -95 12q-8 0 -26 2t-29 2h-18q-14 -2 -19 -2q-10 0 -33 -2 q-18 -2 -28 -2q-82 0 -82 37q0 39 74 273q18 61 55 200q25 92 76 307q51 217 71 314q33 141 41 211q16 98 17 172q0 10 -2 24v17q-6 53 -27 57q-12 0 -12 27q0 2 2 12v14q6 29 39 29q61 -8 94 -10q10 0 29 -2q35 -2 63 -2q16 0 66 4q59 2 100 4q119 4 195 4q215 0 380 -51 q174 -51 279 -180q66 -84 66 -213q0 -63 -21 -162q-29 -129 -149 -250q-129 -129 -299 -227q-51 -31 -107 -62q-35 -18 -35 -43q0 -12 4 -18zM1194 539q6 -8 6 -23q0 -18 -8 -29q25 12 86 50l25 14q176 102 313 240q141 145 172 290q23 102 22 179q0 162 -84 264 q-121 150 -317 207q-178 55 -405 55q-78 0 -197 -4q-41 -2 -100 -4q-49 -4 -66 -4q-27 0 -59 2q-18 2 -29 2q-35 2 -90 10q-59 0 -88 -23.5t-39 -78.5v-19q-2 -14 -2 -16q0 -109 88 -109q-35 0 -49 21v-15q2 -12 2 -22q0 -70 -17 -160q-10 -84 -39 -205q-20 -106 -71 -350 l-6 -25q-49 -211 -70 -284q-6 -16 -25 -70q-20 -66 -28 -86q-78 -260 -78 -297q0 -119 164 -119q10 0 28 2q23 2 33 2h19q16 2 18 3q8 0 25 -3q16 -2 24 -2q31 -4 97 -12q51 0 78.5 34t41.5 103q8 0 9 2q0 20 -7.5 39t-11.5 27q-4 10 -20 22q0 2 -2 11q0 2 -2 8q-2 8 -3 35 v28q2 23 3 37h-9l33 8q51 14 76 21l22 4q23 6 39 10l11 2q35 8 49 13q45 10 71 10q2 0 2 -21l2 -22q20 -39 39 -80q0 -2 9 -21q16 -39 34 -71q2 -4 13 -27q25 -59 35 -78q20 -74 256 -80q25 -2 53 -2q43 -2 53 -2q2 0 20 -2h21q39 0 72 6q53 0 75.5 19.5t22.5 75.5 q0 4 -2 14q-2 16 -2 20q-57 104 -107 111l-2 2q-8 4 -16 10q-20 14 -66 80q-39 62 -145 273zM862 1589q-51 0 -69 -14q-18 -18 -29 -43q-4 -10 -8 -23q-16 -45 -25 -67q-6 -23 -20 -62q-16 -51 -25 -73q-49 -150 -123 -467q-16 -66 -35 -164l-2 -6q-10 -47 -20 -140 q0 -4 -2 -12v-8q0 -20 4 -27q6 -10 24 -10q16 0 29 4q266 80 529 256q262 176 301 352q23 92 24 179q0 92 -43 153q-47 66 -166 113q-123 47 -344 59zM860 1507q203 -12 318 -53q90 -35 127 -84q29 -45 28 -104q-2 -74 -22 -162q-33 -152 -267 -303q-252 -168 -507 -246h-5 q37 0 48 -31q6 -4 6 -14v6q2 6 2 10l4 29q8 72 14 98q18 94 37 168q78 334 121 461q8 23 24 74q14 39 21 61q23 61 31 84q4 8 8 12q4 -6 12 -6z" />
<glyph unicode="S" horiz-adv-x="1683" d="M1399 1276q-16 125 -166 231q-127 90 -246 90h-14q-10 -2 -15 -2q-121 -12 -180 -47q-84 -47 -98 -114v-9q-2 -6 -2 -8q0 -43 51 -82q55 -45 119 -71q47 -23 123 -52q70 -27 133 -43q131 -37 248 -104q111 -63 172 -172q37 -70 37 -168q0 -63 -15 -129 q-51 -266 -295 -430t-475 -164q-219 0 -385 74q-154 68 -229 137q-39 37 -39 109q0 63 27 145q27 88 34 127q18 88 74 88q18 0 26.5 -18.5t8.5 -65.5q0 -145 129 -305q61 -76 158.5 -113t240.5 -37h21h-4q111 0 264 105q162 111 196 262q8 35 9 78q0 76 -37 139 q-59 94 -160 133q-92 41 -236 84q-117 35 -221 98q-100 59 -157 136q-45 57 -45 125q0 35 6 53q55 209 213 282q158 74 360 76l2 2q207 -23 322 -82q117 -61 141 -239q2 -25 10 -60q2 -25 11 -59q0 -31 -19 -43q-18 -18 -39 -19q-53 1 -59 62zM1317 1268q16 -135 141 -135 q49 0 92 36q47 35 47 115q-8 41 -10 64q-8 37 -10 57q-31 225 -184 301q-137 72 -392 96l-6 -6q-205 -2 -360 -84q-188 -86 -256 -332q-10 -27 -10 -77q0 -90 61 -175q66 -88 180 -155q109 -68 242 -107q147 -47 227 -82q80 -31 121 -100q25 -43 25 -96q0 -29 -6 -60 q-29 -125 -162 -213q-125 -254 -219 -254l4 164h-21q-121 0 -201.5 29t-134.5 90q-111 133 -110 254q0 92 -26.5 129t-90.5 37q-115 0 -154 -152q-18 -74 -32 -120q-31 -100 -31 -170q0 -111 65 -168q84 -76 252 -154q182 -80 418 -80q256 0 520 178q270 182 330 482 q16 72 16 145q0 119 -47 207q-74 127 -202 205q-125 74 -269 112q-43 10 -112 35l-13 4q-82 33 -118 51q-61 27 -101 60q-20 8 -20 18q0 2 2 6v2q8 31 57 52q45 27 144 36q2 0 12 3h12q94 0 199 -76q119 -80 131 -172z" />
<glyph unicode="T" horiz-adv-x="1693" d="M395 1712q176 -12 350 -12q129 0 195 4q88 2 246 10q35 0 127 4q53 2 104 4q70 0 76 -49q2 -31 18 -65q12 -20 29 -64q2 -6 2 -8q29 -76 29 -119q0 -47 -33 -67q-14 -10 -35 -11q-37 0 -55 58q-29 90 -170 139q-139 47 -213 59q-6 0 -14 2h-11q-16 0 -16 -4 q-6 -6 -16 -41q-37 -94 -80 -252q-66 -252 -111 -460q-76 -330 -96 -504q-6 -82 -6 -135q0 -49 4 -66q12 -49 33 -49q10 0 10 -20t-4 -35q-6 -29 -39 -29q-70 8 -103 14q-8 0 -24 2t-25 2q-31 0 -47 -4q-10 0 -33 -2q-18 -2 -28 -2q-76 0 -88 33q0 2 -2 10t-2 15 q0 59 69 256q23 66 62 200q41 143 84 303q4 12 10 39q39 160 53 230q12 49 35 155q6 29 10 45q29 141 41 250v29v14q-6 4 -14 4h-8q-10 -2 -17 -2q-86 -8 -250 -67t-217 -133q-45 -57 -69 -58q-16 0 -27 27q-6 16 -6 31q0 55 61 137q25 37 47 63q18 25 37 54q37 66 64 65h28 h29h2h4zM397 1794h-6h-2h-29h-28q-55 0 -133 -104l-4 -7q-16 -25 -27 -36q-18 -20 -51 -70q-76 -109 -76 -184q0 -29 12 -60q41 -80 103 -80q49 0 135 90q43 57 180 105q145 53 225 63q6 0 15 2h6q-25 0 -42.5 16.5t-25.5 26.5v21v-25q-10 -96 -39 -237q0 -2 -6 -25 q-20 -96 -39 -174q-12 -63 -47 -203l-16 -63l-10 -41q-47 -211 -72 -305q-39 -102 -62 -152q-74 -217 -73 -282q0 -10 2 -25q2 -10 2 -14q25 -100 170 -101q12 0 33 2q27 2 38 2q12 4 37 5q8 0 21 -2q12 -2 20 -3q39 -6 107 -14q55 0 83.5 22.5t39.5 67.5q6 23 6 56 q0 55 -19.5 78.5t-72.5 23.5q29 0 47 -53q-2 23 -2 86q0 51 6 127q18 162 94 493q43 195 111 459q49 178 77 248q14 27 21 31q0 -29 -16.5 -36t-49.5 -7h7q6 -2 12 -3q70 -12 192 -55q100 -31 119 -86q43 -115 133 -115q45 0 78 23q72 39 72 137q0 53 -35 148q-14 43 -33 80 q-6 12 -10 36q-12 123 -160 123q-51 -2 -104 -4q-92 -4 -127 -4q-156 -8 -248 -10q-63 -4 -191 -4q-172 0 -348 12z" />
<glyph unicode="U" horiz-adv-x="1857" d="M1065 301q115 35 127 88q10 41 18 86l4 19q8 47 17 79q25 111 61 252q94 397 113 525q16 121 16 176q0 8 -2 22v15q-10 55 -26 57q-14 0 -15 27q0 2 2 12v14q6 29 41 29q61 -8 95 -10q10 0 30 -2q33 -2 60 -2q8 0 18 2h16q84 0 93 -39v-6q2 -6 2 -13q0 -66 -64 -260 q-33 -92 -63 -211q-29 -102 -82 -325q-84 -360 -103 -508q-10 -74 -10 -144q0 -43 4 -55q10 -47 29 -47q12 0 12 -21q0 -20 -4 -34q-6 -27 -39 -27q-51 4 -96 12q-6 0 -19 2q-14 2 -20 2q-35 0 -51 -6q-49 -8 -70 -8q-25 0 -57 8q-23 6 -23 37q0 37 35 109q10 23 10 30 q-2 0 -30 -6q-176 -37 -371 -106q-193 -70 -340 -74q-152 0 -219 86q-41 49 -41 160q0 94 27 215q0 2 2 10v8l6 19q0 2 2 8v8l2 4q2 8 2 12q6 29 26 107l9 33q6 23 16 63q6 18 6 19q14 45 23 88q90 362 112 522q16 104 17 174q0 10 -2 25v14q-6 55 -25 57q-14 0 -14 25 q0 18 4 31q10 27 37 26l12 -2q55 -6 86 -8q8 0 31 -2q31 -2 57 -2q61 0 91 -10.5t40 -30.5q0 -2 2 -8q2 -8 2 -15q0 -57 -69 -254q-61 -174 -146 -534q-4 -23 -12 -55q-6 -23 -8 -31q-12 -43 -19 -80q-2 -6 -12 -72q-8 -45 -12 -67q-33 -150 -33 -234q0 -63 20 -82 q20 -18 60.5 -26t111.5 -8v2q100 4 230 34q39 8 102 27l29 8q66 17 129 37zM1040 379q-37 -12 -112 -31l-13 -4q-2 0 -41 -10q-53 -16 -88 -25q-162 -31 -292 -35q-29 0 -37 15q8 6 8 20q0 74 31 211q4 27 14 78q2 16 6 37q2 20 4 22q6 35 19 84q2 8 8 35q8 35 12 55 q88 369 143 525q74 221 74 280q0 12 -2 27q-2 10 -2 14q-16 53 -65.5 79t-147.5 26q-25 0 -53 2q-23 2 -33 2q-27 2 -76 8q-14 2 -20 2q-47 0 -75 -20.5t-44 -61.5q-8 -23 -8 -57q0 -106 90 -107q-37 0 -51 21v-12q2 -14 2 -23q0 -66 -17 -162q-27 -176 -110 -516l-2 -10 q-10 -51 -19 -74q-2 -10 -10 -33q-10 -37 -14 -51q-8 -33 -15 -61q-18 -63 -22 -90q0 -2 -2 -9l-2 -2v-8q-2 -6 -2 -8l-6 -18v-13q-2 -10 -2 -12q-27 -127 -27 -223q0 -145 59 -211q86 -117 283 -117q158 2 369 78q170 61 360 104q-29 2 -55 4h-15q0 35 -2 86 q-43 -92 -43 -143q0 -98 84 -117q37 -10 78 -10q39 0 90 10q10 4 31 4q6 0 16 -2t15 -2q49 -10 102 -12q55 0 83 22.5t38 65.5q6 23 6 55q0 102 -94 103q37 0 51 -14q-2 8 -2 34q0 63 10 133q16 135 101 500q49 205 82 324q35 135 61 205q68 219 68 286q0 8 -2 19v10 q-18 111 -175 111h-16q-10 -2 -18 -3q-29 0 -58 3q-23 2 -30 2q-35 2 -91 10q-59 0 -88.5 -23.5t-40.5 -79.5v-18q-2 -14 -2 -16q0 -109 90 -109q-27 0 -49 18v-12q2 -10 2 -18q0 -53 -16 -164q-20 -147 -111 -516q-33 -129 -61 -254q-6 -31 -16 -100l-5 -33q-6 -18 -18 -51 q-6 -17 -72 -29z" />
<glyph unicode="V" horiz-adv-x="1654" d="M811 414l-33 -56q-20 -37 -33 -55q-10 -18 -34 -59q-31 -53 -68 -113q-6 -12 -14 -27q-10 -14 -17 -26q-57 -92 -106 -92q-59 0 -66 92q-6 94 -18 182q-6 68 -23 180q-20 188 -43 363q-12 90 -37 239l-14 97q-18 123 -41 221q-37 168 -67 219q-25 51 -43 51t-29 49v7 l-2 6q0 16 27 16q92 -14 190 -14q35 0 57 2h72q80 0 80 -47q0 -12 -4 -19q-10 -27 -14.5 -86t-4.5 -174q0 -70 23 -215q14 -106 53 -334q4 -31 12 -88q2 -18 4 -41q4 -33 7 -43q2 -35 10 -78q8 -45 10 -63q0 -37 25 -37q27 4 39 31q6 14 24 45q12 25 15 26q20 31 51 82 q23 43 51 90q12 23 39 66l14 25q227 389 289 532q63 154 63 209q-8 49 -38 49q-20 0 -21 16q0 16 8 31q12 29 51 29q6 0 23 -2q10 0 22 -2q18 -2 60 -2q18 0 59 4q41 0 51 -4q61 -18 62 -66q-4 -49 -141 -260q-61 -92 -127 -205q-88 -147 -185 -315q-16 -27 -24 -41 q-88 -147 -127 -209q-80 -123 -117 -186zM883 373q43 76 114 182q86 137 154 254q125 221 182 315q88 145 125 201q152 244 156 303q0 106 -117 146q-10 6 -26.5 7t-55.5 1q-37 -4 -55 -4q-35 0 -51 2q-8 2 -23 2q-16 0 -24 2q-102 0 -132 -76q-10 -20 -13 -33.5t-3 -32.5 q0 -53 23.5 -75.5t79.5 -22.5q-33 0 -43 25q0 -45 -58 -168q-63 -143 -282 -524q-6 -12 -23 -35q-23 -37 -33 -56q-29 -47 -51 -90l-8 -14q-31 -49 -41 -66q-2 -6 -14 -24q-18 -37 -29 -57q8 14 31 18q61 0 61 -41q0 6 -6 25q-4 12 -6 20q-4 33 -8 102q0 6 -5 31 q-4 27 -6 31q-8 74 -12 113q-39 227 -53 333q-23 135 -23 203q0 94 3 146.5t7 76.5q12 18 13 56q0 59 -41 94t-121 35h-76q-20 -2 -53 -2q-96 0 -184 14q-66 0 -90.5 -18.5t-24.5 -79.5l2 -11v-10q37 -123 111 -123q-14 0 -29 -8q31 -43 59 -162q23 -113 41 -252 q25 -158 49 -333q23 -174 43 -363q16 -113 23 -180q12 -78 18 -166q16 -180 148 -180q80 0 176 133q6 12 16 26t17 27q12 20 35 62q8 12 30 51l15 22q12 20 20 35q18 27 35 57z" />
<glyph unicode="W" horiz-adv-x="2224" d="M631 596q55 117 102 225l17 37q82 178 110 240l19 39q70 158 102 235q8 23 14 33q55 133 72 186q18 53 49 90q31 39 68 39q35 0 47 -34q12 -43 12 -84q0 -176 2 -265q0 -147 8 -264q2 -59 4 -131t5 -131q2 -59 6 -131t6 -131q0 -18 8 -27l4 -4q8 0 27 31q4 10 28 59 q29 57 35 70q33 63 82 143q221 375 289 535q63 154 63 217q-6 53 -38 53q-18 0 -19 21q0 18 8 32q14 27 51 27l13 -2q45 -8 67 -12q8 0 23 -2q14 -2 20 -2q31 0 45 4q35 8 68 8q53 0 53 -29q0 -10 -4 -16q-29 -70 -162 -285l-41 -70q-49 -82 -79 -135l-35 -57 q-94 -166 -148 -258q-63 -109 -141 -252l-2 -2q-8 -16 -33 -61q-23 -39 -24 -43q-14 -27 -35 -64l-13 -25q-4 -4 -26 -51q-8 -20 -25 -51q-16 -29 -28 -57q-20 -39 -35 -68q-25 -55 -43 -88q-51 -94 -107 -94q-63 0 -73 72l-5 -3q-2 80 -10 224v12q-4 74 -8 225v6 q-8 141 -14 215q-8 68 -17 213q0 27 -14 27q-14 -4 -23 -27q-49 -119 -98 -221q-57 -113 -104 -219q-43 -100 -111 -237q-74 -160 -108 -240h4q-37 -51 -78 -51q-70 0 -76 92q-8 123 -14 182q-12 90 -19 178q-4 39 -10 90q-6 49 -10 89q-8 59 -21 182l-30 291q-2 29 -7 57 q-4 47 -18 154q-6 45 -8 67q-20 137 -39 203q-18 37 -39 37q-27 0 -45 78q0 4 -2 10q0 16 29 16q10 -2 22 -2q18 -2 23 -2l43 -6q33 -8 86 -8q14 0 43 2q6 2 12 2q2 0 14 2h19h20q16 -2 19 -2q59 -2 59 -41v-78q-4 -127 -4 -203q0 -57 3 -107t9 -112q10 -119 41 -340 q12 -92 12 -131q0 -16 5 -49q2 -18 6 -51q0 -37 14 -37q13 0 33 43zM557 631q8 0 14 2q20 2 27 2q68 0 68 -39l-2 18q-2 12 -5 37q-4 25 -4 39q0 43 -12 141q-31 225 -41 338q-6 59 -9 107.5t-3 103.5q0 76 4 203v78q0 115 -139 123q-2 0 -21 2h-20h-21q-14 -2 -16 -2 q-6 0 -10 -2q-27 -2 -41 -2q-39 0 -70 6q-10 2 -23 4q-14 2 -24 4q-4 0 -25 2q-14 0 -26 2q-59 0 -88 -26.5t-29 -90.5l2 -2q53 -150 127 -149q-20 0 -37 14q16 -61 33 -182q2 -23 8 -68q14 -109 19 -151q4 -29 6 -58l30 -290l2 -15q12 -119 19 -170q4 -41 10 -86 q6 -47 10 -88q6 -88 19 -182q6 -47 14 -156v-10q12 -180 158 -180q127 0 235 215h-37q12 27 29 61q16 35 29 62l16 43q66 174 96 262q57 92 103 149q63 133 100 228q-18 -20 -43 -25q-35 0 -56.5 14.5t-21.5 38.5q8 -150 17 -219q6 -68 14 -211v-6q4 -152 8 -225v-16 q12 -223 15 -347l16 9q18 -29 139 -29q92 0 178 137l11 35q27 92 34 127q8 -2 19 -2q12 -2 16 -2l6 29q12 74 21 104q20 -10 29 -18q10 27 16 32l20 39q23 37 35 62q12 23 23 39q18 35 33 63q66 121 143 252q47 106 154 334l28 63q10 10 76 78l43 43q139 221 166 289 q12 20 12 55q0 111 -135 111q-45 0 -88 -10q-8 -2 -25 -3q-6 0 -16 3q-12 2 -18 2q-16 4 -64 12q-12 2 -18 2q-49 0 -79 -15.5t-50 -52.5q-18 -33 -19 -73q0 -102 101 -103q-37 0 -43 25q0 -53 -58 -183q-63 -156 -282 -522q-41 -66 -86 -149q-10 -23 -31 -64 q-20 -43 -31 -63q55 12 80 12l18 -20q16 -8 17 -29q-2 59 -6 131t-7 131q-2 59 -4 133q-2 72 -4 131q-8 117 -8 262q-2 88 -2 263q0 49 -16 108q-35 92 -125 92q-74 0 -131 -69q-37 -43 -64 -115q-23 -90 -84 -277q-63 -156 -119 -276q-37 -61 -108 -178l-19 -31 q-47 -108 -102 -225z" />
<glyph unicode="X" horiz-adv-x="1990" d="M1544 1710q8 -2 25 -2q14 0 22 -2q12 0 27 -4q27 -2 39 -4q45 -4 63 -6h17q10 -2 12 -2t12 2h13q29 6 47 6q47 0 47 -41q-8 -55 -180 -223q-147 -143 -406 -426q-45 -45 -45 -101q0 -29 12 -59l23 -55q63 -158 90 -222q61 -135 88 -190q63 -137 115 -207q39 -55 63 -74 q20 -14 45 -69l2 -6v-7q0 -16 -22 -16q-115 14 -197 14h-61h-13q-55 -6 -79 -8q-10 0 -31 -2q-12 -2 -21 -2q-55 0 -55 29q0 10 4 16q10 31 10 82q0 57 -12 143q-18 115 -145 414q-12 25 -31 25q-20 0 -47 -27q-289 -305 -361 -416q-70 -106 -69 -157q8 -39 47 -39 q18 0 18 -11q0 -12 -24 -40q-25 -27 -58 -27q-18 2 -53 6t-72 6q-76 8 -127 8q-49 -2 -135 -2q-18 0 -18 11q0 27 110 118q68 57 211 201q88 88 189 197q55 57 205 215l69 73q39 43 39 82q0 23 -6 33l-14 37q-72 174 -99 233q-41 92 -79 181q-57 123 -97 174q-31 41 -45 41 q-16 0 -39 43q0 2 -2 6q-2 6 -2 8q0 14 4 21q10 18 25 18l10 -2q59 -6 90 -8h6q61 -4 88 -4q25 0 58 6q4 0 18 2h17h18q16 -2 18 -2q100 -6 101 -37q0 -8 -4 -12q-14 -20 -15 -78q0 -59 9 -98q12 -96 120 -320q18 -45 37 -49q25 0 66 45q207 211 262 307q41 72 41 109 q0 14 -4 18q-12 35 -45 45q-16 0 -17 17q0 10 21 36q18 29 57 29zM1550 1792q-86 0 -131 -63q-35 -63 -35 -84q0 -39 24 -69t62 -30q-10 0 -14 -8q-6 6 -6 27q0 -25 -31 -68q-55 -96 -250 -291v-20h33q-102 211 -115 301q-8 33 -8 84q0 16 -4 24q14 14 18.5 28.5t4.5 37.5 q0 100 -180 119q-2 0 -19 2h-20h-21q-18 -2 -22 -2q-27 -6 -50 -6q-25 0 -81 4h-7q-33 2 -102 10q-63 0 -100 -59q-8 -12 -11.5 -26.5t-3.5 -35.5q0 -6 2 -18q2 -8 2 -15q68 -106 121 -106q-6 0 -20 -8q41 -57 88 -160q20 -29 39 -55q23 -33 39 -58q55 -160 114 -340 q-2 2 -2 4q0 -12 -16 -26q-162 -170 -275 -287q-127 -137 -186 -197q-145 -143 -207 -194q-139 -141 -139 -182q0 -92 100 -93q88 0 138 2q45 0 116 -8q37 -2 72 -6q41 -4 55 -6q74 0 125 164q45 -8 45 -15q0 92 -100 93q29 0 35 -33q0 33 57 102q63 100 350 404q-4 2 -12 2 q-25 0 -43 22q119 -276 137 -391q12 -80 12 -131q0 -35 -2 -45q-12 -20 -12 -53q0 -111 137 -111q8 0 23 2q23 2 33 2q25 2 79 6l13 2h57q80 0 193 -14q59 0 83.5 21.5t24.5 76.5v17q-2 12 -2 14q-43 94 -80 119q-18 14 -43 53q-47 68 -108 195q-23 43 -66 141q0 2 -20 47 q-45 104 -113 275q-6 16 -6 28q0 25 22 43q258 283 404 424q195 207 205 277q0 129 -129 129q-20 0 -56 -6h-8q-6 -2 -8 -2h-10q-10 2 -15 2l-43 4l-16 2q-12 2 -39 4q-14 4 -27 4q-8 2 -24 2q-19 2 -25 2z" />
<glyph unicode="Y" horiz-adv-x="1769" d="M1278 1714q4 0 25 -2q12 0 22 -2q29 -2 61 -6q35 -2 62 -6h16q18 -2 37 -2q47 8 86 8q59 0 60 -23q0 -10 -7 -16q-39 -55 -233 -276q-127 -147 -436 -533q-297 -371 -373 -512q-84 -150 -84 -209q0 -55 37 -59q18 0 18 -17q0 -12 -18 -41q-20 -27 -51 -26q-33 4 -51 6 q-18 4 -56 8q-20 2 -57 10q-2 0 -12 2h-15h-12q-10 -2 -12 -2q-66 -10 -95 -10q-41 0 -49 14q-2 4 -2 9q0 37 119 161q70 72 193 230q10 14 12 16q20 25 29 37q10 12 10 43q0 25 -4 41q-8 37 -9 37q-12 51 -20 84q-6 27 -12 55q-18 78 -23 96q-82 330 -129 469 q-55 156 -88 213q-37 70 -57 86q-20 23 -37 80q0 14 16 23q16 10 31 10q4 0 25 -2q18 -4 22 -4h6q20 -4 33 -4h12q49 -4 74 -4h127q39 -4 47 -29q4 -10 6 -30.5t2 -61.5q0 -66 19 -195q23 -154 141 -536q18 -55 35 -68q4 -2 8 -2q25 0 68 55q160 201 243 314q88 115 146 209 q90 162 90 217q0 59 -41 61q-23 0 -23 19q0 8 15 37q16 28 53 28zM1284 1796q-94 0 -131 -72q-25 -55 -25 -75q0 -43 28 -72t75 -29q-39 0 -39 21q0 -45 -78 -176q-49 -82 -141 -201q-90 -121 -242 -311q-2 -16 -4 -25q16 0 28.5 -7t18.5 -11q-6 6 -12 32q-115 348 -137 498 q-18 139 -19 207q0 53 -3 79.5t-11 41.5q-23 72 -119 82h-131q-20 0 -68 4h-16q-8 0 -22 2l-9 2q-8 2 -24 4t-27 2q-35 0 -76 -20q-59 -37 -59 -105q29 -96 63 -129q14 -12 41 -65q31 -53 82 -201q39 -111 127 -461q4 -18 23 -96q6 -29 12 -56q8 -33 21 -84l8 -36 q2 -8 2 -23q0 4 6 6q-8 -14 -27 -37l-12 -14q-123 -158 -188 -223q-141 -168 -142 -219q0 -18 7.5 -36t11.5 -24q20 -45 114 -45q33 0 101 10h10q6 2 8 3q2 0 10 -3h9q37 -8 57 -10q33 -4 49 -8q33 -4 41 -4l21 -2q78 0 122 61q33 57 33 88q0 98 -96 99q41 0 41 -23 q0 51 74 170q72 133 364 500q313 389 434 530q190 215 236 277q16 18 20.5 34.5t4.5 34.5q0 104 -142 105q-43 0 -92 -8q-14 0 -29 2h-14q-16 2 -57 6q-23 2 -60 6q-12 2 -24 2q-21 2 -27 2z" />
<glyph unicode="Z" horiz-adv-x="1939" d="M758 1708q10 -16 141 -16h68q43 -2 77 -2q12 0 80 2h88q117 0 174 2q39 2 87 2q47 0 86 2q106 0 161.5 -5t75.5 -16q20 -12 21 -32q0 -23 -23 -52q-43 -55 -154 -149q-106 -88 -227 -219q-188 -205 -352 -396q-33 -37 -98 -110q-23 -27 -48 -53q-70 -82 -145 -164 q-156 -172 -283 -330q0 -2 -2 -4q-12 -23 -14 -29q0 -2 -2 -6t-2 -6q0 -10 16 -10q47 2 105 2q45 -2 106 -2q29 2 86 4q82 4 191 22q41 6 147 43q139 43 207 60q63 16 115 16h18q12 -2 15 -2q18 0 18 -18q0 -20 -51 -76l-19 -19q-12 -14 -22 -24l-27 -27q-23 -25 -29 -30 q-33 -39 -61 -56q-25 -10 -72 -10q-186 0 -280 2q-184 0 -279 2q-250 2 -405 14q-123 10 -123 58q0 45 100 141q104 102 260 275q61 70 185 200q123 135 182 203l141 160q66 70 142 157q147 162 264 312q20 27 20 39q0 16 -16 16q-33 8 -41 8q-70 6 -139 6q-188 0 -332 -45 q-131 -37 -260 -94q-39 -16 -56 -16q-23 0 -22 20q0 20 27 70q14 25 38 53q10 12 23 27q12 14 23 26q55 72 96 74zM803 1794q-86 -2 -205 -108q-8 -10 -23 -25q-14 -16 -22 -27q-25 -29 -47 -67q-37 -78 -37 -109q0 -45 27.5 -73.5t76.5 -28.5q27 0 89 22q117 53 251 92 q129 41 308 41q68 0 135 -6q8 0 35 -8q-25 0 -40.5 19.5t-15.5 46.5q0 2 -4 10q-113 -143 -260 -307q-76 -90 -139 -156q-31 -35 -72 -80t-72 -80q-119 -135 -180 -202q-14 -16 -47 -50q-94 -100 -139 -151q-152 -170 -256 -271q-125 -137 -125 -200q0 -119 199 -139 q156 -12 409 -15q94 -2 281 -2q94 -2 280 -2q68 0 109 19q41 20 86 73q18 20 27 29q14 14 24 27l43 43q74 96 74 133q0 43 -25.5 71.5t-74.5 28.5q-2 0 -15 2h-18q-63 0 -135 -18q-47 -12 -148 -41q-57 -18 -63 -21q-92 -31 -136 -39q-104 -18 -182 -22q-55 -2 -82 -4 q-59 0 -104 2q-59 0 -109 -2q68 0 68 -72q0 -2 2 -2t2 -2l4 4q111 139 274 319q53 57 146 166q25 27 47 54q66 74 98 110q168 195 351 393q111 119 221 211q127 113 164 162q41 55 40 103q0 68 -63 104q-23 16 -86 23.5t-193 7.5q-39 -2 -86 -2t-86 -2q-57 -2 -172 -2h-88 q-68 -2 -80 -2q-35 0 -77 2h-68q-90 0 -96 20z" />
<glyph unicode="[" horiz-adv-x="923" d="M768 1784h-121l-420 -1864h121l-16 -72h-189l453 2005h186zM836 1702l47 233h-353l-489 -2168h356l54 235h-121l383 1700h123z" />
<glyph unicode="\" horiz-adv-x="555" d="M199 1640l221 -1595h-62l-223 1595h64zM270 1722h-229l246 -1759h227z" />
<glyph unicode="]" horiz-adv-x="925" d="M580 1784l16 69h186l-450 -2005h-189l17 72h121l417 1864h-118zM477 1702h119l-381 -1700h-121l-53 -235h356l488 2168h-355z" />
<glyph unicode="_" horiz-adv-x="1351" d="M156 -78h1052l-12 -55h-1053zM90 4l-49 -219h1221l49 219h-1221z" />
<glyph unicode="`" horiz-adv-x="362" d="M139 1706h72l25 -129q0 -8 2 -27q2 -12 2 -18q0 -49 -27 -49q-37 0 -49 94zM41 1788l43 -223q33 -164 129 -164q109 0 109 131q0 8 -3 22q-2 23 -2 31l-38 203h-238z" />
<glyph unicode="a" horiz-adv-x="1419" d="M1296 1075q-2 -16 -16 -84l-6 -24q-6 -27 -29 -115q-6 -20 -16 -66q-25 -98 -49 -190q-6 -31 -17 -66q-12 -53 -16 -73h-2q-37 -164 -41 -252q0 -10 -2 -25v-18q0 -43 8 -56q10 -25 27 -30q14 -4 16 -47q0 -33 -35 -33q-25 2 -43 6q-27 0 -37 2q-31 2 -82 2q-59 0 -67 2 q-63 4 -72 23q-6 12 -6 24q0 16 4 27q0 4 2 8v6q0 8 -6 8l-4 -2q-12 -4 -23 -8q-37 -16 -51 -28q-29 -16 -51 -25q-129 -43 -242 -43q-98 0 -190 35q-92 41 -117 149q-10 43 -10 105q0 61 12 123q37 160 174 374q137 217 316 301q96 45 217 74q121 25 223 25q104 0 170 -27 q61 -25 61 -82zM1378 1071q0 113 -112 162q-78 33 -201 33q-117 0 -242 -27q-133 -33 -233 -80q-199 -117 -350 -418q-143 -176 -185 -313q-14 -66 -14 -141q0 -74 12 -123q33 -152 166 -207q106 -41 221 -41q121 0 269 47q23 8 69 33l2 2q10 8 39 22q2 2 6 3 q-63 0 -76.5 14t-13.5 59l-2 2q-4 -16 -4 -43q0 -31 14 -59q16 -59 134 -70q10 -2 79 -2q45 0 72 -2q12 -2 41 -2q12 -2 45 -6q68 0 94.5 23.5t26.5 93.5q-14 113 -76 123q16 -2 25 -11v19v18q2 12 2 23q4 74 24 172h4q6 37 33 151q8 29 13 49q33 152 49 232q6 20 18 55 q20 66 27 86q22 98 24 123zM578 813q-59 -63 -107 -180q-47 -131 -59 -189q-12 -45 -13 -96q0 -41 4 -61q10 -88 56 -123q41 -31 100 -31q82 0 195 55q6 4 16 9q8 4 14 8q6 6 15 10q4 2 10 6q2 2 4 2q31 16 47 53q2 2 6 17q4 12 4 14q2 6 7 17q4 10 6 16l2 6q4 20 8 33 q2 14 10 47q4 10 19 74q6 23 14 61q8 35 18 74q6 31 23 94l10 43q16 66 19 80l2 4q2 16 6 25q4 12 8 28q2 14 12 33l4 12q6 14 6 19q4 14 5 35q0 23 -11 26q-23 10 -57 10q-82 0 -184 -63q-151 -94 -219 -168zM637 758q61 66 203 153q78 51 141 52q16 0 25 -5 q-27 6 -33 16.5t-6 33.5q0 -8 -2 -15q-4 -12 -7 -20q-14 -53 -16 -80q0 -12 -2 -35q-2 -4 -2 -8l-8 12q-2 6 -4 8q-2 -20 -19 -116l-8 -27q-16 -47 -25 -74q-10 -41 -18 -71q-10 -43 -14 -62q-10 -55 -17 -71q-2 -6 -4 -19q-6 -18 -8 -29q-2 -8 -6 -30l-2 -9q-2 -8 -4 -43 q-4 -35 -6 -43q-2 4 -4 17q-4 12 -7 16l-2 -2q-2 -8 -6 -10q-4 -4 -8 -6q-18 -8 -35 -21q-2 0 -8 -4q-8 -4 -10 -6q-90 -45 -156 -45q-31 0 -51 14q-18 20 -23 70q-4 16 -4 49q0 37 11 78q14 59 55 178q41 103 90 154z" />
<glyph unicode="b" horiz-adv-x="1425" d="M469 -2h-35q-27 2 -31 2t-30 -2h-31q-29 -2 -49 -2q-29 -2 -37 -2q-133 0 -133 51v6q2 4 2 8q14 47 70 273q12 47 43 160l10 38q25 82 78 295q86 350 120 549q16 111 17 164q0 35 -4 47q-8 43 -33 43q-29 0 -29 45q0 10 17 21q14 8 28 8q59 -6 101 -6h53h51q31 0 43 -2 q14 0 47 4q35 0 35 -19v-6q-2 -4 -2 -6q-12 -37 -20 -55q-4 0 -9 -17q-2 -2 -4 -8t-6 -22q-14 -51 -24 -92l-9 -27q-16 -59 -24 -98q-20 -82 -49 -197q0 -4 -2 -12q-2 -6 -2 -11q0 -20 22 -20q49 2 90 37q35 29 133 29q203 -2 342 -144q94 -90 95 -254q0 -72 -19 -158 q-61 -276 -274 -450q-209 -172 -473 -172h-33q-17 2 -35 2zM469 -84q16 0 31 -2h37q295 0 524 190q236 193 303 498q20 90 20 174q0 201 -118 314q-162 164 -400 165q-74 0 -117.5 -11t-68.5 -36q-18 -16 -39 -18q61 0 61 -62q0 2 3 7q2 4 2 6l18 73q18 74 29 115 q8 37 24 92q8 29 8 31q10 39 23 86q2 10 6 25q-2 -33 -6 -33q16 41 43 125q0 2 2 12v12q0 55 -29.5 78t-91.5 23q-31 -4 -43 -4q-12 2 -43 2h-51h-53q-41 0 -97 6q-43 0 -75 -21q-55 -43 -56 -90q0 -61 31 -94t80 -33q-35 0 -47 19q2 -6 2 -27q0 -37 -14 -152 q-37 -201 -121 -540l-19 -74q-37 -154 -57 -219q-8 -33 -23 -84q-25 -80 -32 -117q-43 -182 -72 -280q0 -6 -2 -17v-10q0 -133 215 -133q10 0 41 2l47 2h31q25 2 28 2q4 0 31 -2h35zM612 993q-23 -10 -28 -30q-10 -25 -11 -29q-4 -16 -6 -23l-6 -24q-2 -10 -6 -27l-6 -24 q-57 -236 -86 -369q-25 -117 -41 -225q0 -8 -2 -27q-2 -12 -2 -20q0 -88 57 -95q8 0 12 -2q6 -2 17 -2h33q143 6 264 101q131 102 200 378q33 137 33 234q0 106 -41 154q-74 88 -215 88q-66 -1 -166 -58zM651 922q74 47 127 47q102 0 154 -60q20 -29 20 -100q0 -84 -30 -213 q-61 -244 -172 -334q-98 -78 -215 -84h-31q8 0 14 -4q-12 8 -39 8q20 0 21 13q0 6 2 18q2 14 2 23q14 88 39 215q27 125 86 364q2 14 4 33q0 18 2 33l6 -13q2 4 2 11q0 6 2 10q2 8 6 18q4 14 4 17q0 2 4 10q-4 -8 -8 -12z" />
<glyph unicode="c" horiz-adv-x="1275" d="M1001 375q33 0 33 -41v-8q-2 -8 -2 -13q0 -10 -10 -34q-4 -10 -4 -11q-20 -31 -25 -37q-2 -4 -12 -12l-4 -2q0 -2 -2 -4l-2 -2q-94 -90 -213 -160q-106 -61 -225 -63q-252 0 -347 170q-66 113 -65 252q0 84 20 168q53 244 267 419q207 172 407 172q182 0 270 -112 q2 -2 9 -10q2 -2 8 -11q10 -14 24 -30q25 -31 25 -50l-2 -8q-12 -66 -59 -82q-39 -12 -88 -49q-25 -12 -52 -33l-18 -14q-16 -12 -25 -18q-14 -10 -24 -11q-10 0 -15 7q-10 14 -10 26q0 2 2 8v6q16 66 35 84q10 10 10 27q0 14 -14 49q-20 37 -53 70q-39 29 -97 29 q-98 0 -163 -56q-70 -55 -119 -131q-45 -76 -70 -149q-29 -80 -33 -115q-4 -20 -4 -61q0 -104 56 -222q70 -143 208 -143q82 4 166 39q90 39 148 108q44 58 69 58zM1001 457q-45 0 -133 -88q-45 -53 -116 -84q-68 -29 -136 -33q-88 0 -133 96q-47 100 -47 187q0 31 2 47 q4 27 31 100v2q18 61 61 133q45 66 101 111q43 37 112 37q29 0 43 -9q18 -18 33 -43q6 -8 6 -14q0 20 15 31q-29 -27 -60 -131v-13q-2 -10 -2 -12q0 -35 25 -74q14 -27 31.5 -34t50.5 -7q35 0 73 27q8 6 25 19l18 14q31 20 48 29q39 33 67 40q88 25 113 134l6 16 q0 47 -45 123q-10 8 -19 20q-4 6 -10 13q-6 8 -8 12q-109 145 -336 145t-461 -190q-233 -195 -293 -465q-23 -90 -22 -186q0 -160 76 -293q115 -211 420 -211q139 2 264 74q133 78 229 174l2 2q20 8 23.5 10t3.5 10q2 12 4 29q4 43 4 63q4 -6 4 -8q14 -23 19 -31q6 16 6 19 q18 47 18 65q0 4 2 13v8q0 123 -115 123z" />
<glyph unicode="d" horiz-adv-x="1495" d="M938 1085q37 -16 51 -16q10 0 15 4q16 14 26 49q63 252 72 346q0 14 2 29v23q0 55 -12 75q-16 29 -45 29t-35 45q0 14 16 25q16 12 31 12q10 -2 22 -2q18 -2 23 -2l20 -4t19 -4q53 -6 86 -6q16 0 41 4q10 2 22 2q8 0 15 2h12q53 0 53 -43q0 -20 -6 -35q0 -4 -2 -10 q0 -4 -2 -15q-2 -12 -4 -18l-19 -74q-2 -10 -6 -26q-20 -86 -24 -105q-6 -29 -29 -121q-16 -70 -20 -90q-20 -84 -56 -233l-22 -90q-86 -356 -105 -504q-10 -98 -10 -144q0 -49 6 -63q12 -49 41 -49t35 -29q0 -14 -21 -35q-18 -20 -30 -20t-31 2q-37 2 -66 2q-43 -2 -94 -2 q-47 0 -47 2q-4 2 -10 2h-8q-14 -2 -23 -2q-43 0 -43 53q0 45 -16 45q-6 0 -10 -4q-10 -4 -35 -16q-18 -12 -43 -25q-127 -66 -215 -65q-178 0 -273 155q-61 102 -61 238q0 76 18 162q55 242 228 432q166 184 399 184q55 -4 98 -27q12 -8 41 -24q19 -11 31 -19zM977 1159 q-8 6 -39 23q-23 14 -31 18q-63 35 -137 37q-139 0 -251.5 -52t-211.5 -159q-184 -207 -246 -469q-20 -90 -20 -180q0 -160 74 -281q119 -195 342 -194q104 0 252 73q12 6 32 19q8 4 15 8l16 8q16 8 25 10q-8 -4 -19.5 -6t-17.5 -2q-66 0 -66 37q0 -78 29 -106.5t96 -28.5 q8 0 23 2h8q-27 0 -45.5 16.5t-26.5 28.5q0 -33 28 -41t101 -8q53 0 97 2q29 0 63 -2q18 -2 31 -2q37 0 90 47q43 57 43 98q-10 51 -38 77t-79 26q25 0 37 -6q-2 8 -2 36q0 43 10 136q16 133 103 493q6 29 20 94q43 193 57 267q10 33 23 77q20 74 27 99q0 2 20 86 q10 39 10 43l13 51l6 25q0 8 6 24q2 10 2 12q2 4 2 7q6 20 6 51q0 125 -135 125h-12q-6 -2 -15 -2q-20 0 -37 -4h-12q-6 -2 -14 -3q-27 0 -74 7q-8 2 -18 4t-21 4q-4 0 -24 2q-14 0 -27 2q-43 0 -84 -27q-27 -20 -39 -41.5t-12 -56.5q20 -121 117 -121q-16 0 -27 12 q2 -6 2 -34v-21q-2 -16 -2 -26q-8 -84 -70 -330q0 -6 -2 -8q8 10 16.5 13t24.5 3q-2 0 -6 4zM864 428q20 96 39 166q35 133 53 215q8 33 9 78q-2 29 -33 67q-55 76 -166 76q-125 0 -244 -119q-123 -113 -147 -323q-8 -59 -8 -125q0 -115 34 -184q53 -102 162 -117h19 q16 -2 18 -2q100 0 182 82q49 49 58 86q1 18 24 100zM784 449q-23 -88 -24 -107q-6 -16 -35 -43q-53 -57 -125 -57q-2 0 -14 2h-17q-63 8 -94 71q-27 59 -26 148q0 59 8 115q23 180 123 274q90 96 186 96q68 0 100 -43q16 -12 17 -22q0 -27 -6 -56q-16 -86 -48 -229l-6 -25 q-12 -39 -35 -112z" />
<glyph unicode="e" horiz-adv-x="1234" d="M440 369q-29 -25 -28 -47q0 -18 14 -33q45 -55 100.5 -82t132.5 -27q78 6 142 47q61 41 108 103q16 27 49 47q23 14 43 14q14 0 21 -4q23 -12 22 -37q0 -16 -12 -45q-2 -4 -14 -20q-8 -12 -17 -21q-98 -121 -231 -196q-131 -74 -246 -78q-211 0 -327 162q-74 104 -74 249 q0 84 24 179q63 264 281 432q205 158 365 157q109 -2 188 -61q76 -57 123 -156q8 -18 8 -37q0 -18 -6 -24q-2 -2 -6 -8q-12 -16 -19 -23l-157 -125v-2q-43 -31 -121 -90q-80 -59 -123 -90q-123 -88 -240 -184zM494 307q121 98 235 180q61 45 139 103q76 57 138 102v4l124 99 q10 6 31 34q4 4 8 9q16 14 20.5 30.5t4.5 46.5q0 33 -16 72q-57 117 -148 187q-100 76 -235 77q-182 0 -416 -174q-242 -186 -311 -477q-27 -104 -27 -199q0 -176 88 -297q141 -197 397 -196q129 2 285 88q143 80 252 213q6 6 18 22q2 4 4 7q14 16 17 20q25 55 24 92 q0 68 -61 107q-12 10 -27.5 13t-36.5 3q-39 0 -86 -27q-47 -29 -73 -69q-37 -49 -86 -80q-39 -29 -99 -35q-106 0 -170 82q6 -8 7 -22v-15zM797 788q18 18 32 29q16 12 17 39v6q-2 6 -2 10q-12 68 -31 107q-20 39 -98 39q-168 0 -254 -141q-84 -139 -119 -291q-6 -25 -6 -45 q0 -29 14 -54q14 -20 31 -20q12 0 31 14q127 102 194 152q89 63 191 155zM741 848q-109 -96 -182 -150q-53 -37 -141 -108q-27 -23 -58 -45q12 4 21 4q20 0 39 -19q-2 2 -2 11q0 6 4 22v4q31 186 108 353q66 16 185 16q18 0 24 6q12 -29 23 -78l2 -4v-4q0 16 16 27 q-16 -12 -39 -35z" />
<glyph unicode="f" horiz-adv-x="1378" d="M369 131q20 100 73 313l9 35q43 172 86 350v5q4 20 8 28q2 6 4 15q0 8 2 14q4 12 12 49l2 8q0 4 2 10v7q0 33 -39 32q-23 -2 -61 -2q-18 -2 -45 -2q-14 0 -21 15v6l-2 6q0 12 4 18q6 8 11 21v2q12 23 18 31q10 25 27 32q18 12 37 13h16h18h33q43 0 51 41q6 20 19 90l4 16 q2 25 10 66l4 22q4 100 60 150q59 53 141 102q133 88 229 88q174 0 174 -149v-17q-16 -61 -47 -76q-10 -4 -24 -12q-18 -12 -41 -22q-35 -16 -66 -43q-14 -14 -47 -25q-12 -6 -18 -6q-12 0 -23 16l-2 8q0 10 6 17h-2v4l2 2q10 57 11 109q-6 45 -27 45q-18 0 -43 -25 q-20 -27 -43 -129l-2 -8q-2 -6 -2 -8q-8 -25 -25 -101q-10 -49 -26 -123l-2 -6v-6l-3 -6q0 -20 23 -21q80 6 186 7q20 0 27 -13q0 -25 -4 -32q-2 -2 -2 -5l-4 -4l-2 -2q0 -2 -2 -4t-2 -4t-2 -4t-2 -8q-2 -2 -5 -4q-4 -8 -6 -13q-4 -6 -8 -14q-12 -20 -31 -31 q-20 -14 -39 -14q-14 0 -49 2q-4 2 -14 2q-25 0 -35 2q-8 2 -16 2q-12 2 -17 2q-12 0 -24 -4q-12 -2 -19 -39q-4 -16 -8 -26q-2 -10 -6 -27l-6 -31q-2 -6 -4 -14t-4 -14q-55 -246 -82 -389q-35 -184 -68 -373q-18 -86 -82 -117q-63 -27 -133 -108q-92 -104 -196 -152 q-4 -2 -13 -6q-4 -2 -6 -2h-2q-4 0 -4 -2h-6q-41 0 -41 33q0 2 2 8v10q4 16 16 27l11 12q174 162 217 350zM289 150q-41 -170 -197 -312l-8 -10q-35 -33 -41 -78v-14q-2 -10 -2 -12q0 -115 123 -115h88q0 2 -78 2h21l12 6q16 6 22 10q119 53 224 172q53 63 104 86 q100 45 129 176q35 223 68 406q25 119 82 356q2 14 4 31q2 16 4 31q2 -2 4 -2l2 -2q2 6 6 22q4 12 8 33q-12 -18 -39 -23h-6q16 0 27 -2q14 -4 47 -4h8q45 -4 57 -4q37 0 82 27q35 16 60 61q2 4 10 17q4 12 18 28q0 -8 -4 -14t-18 -10q2 2 2 4t2 4t2 4l2 2q4 2 8 8t8 8 q12 16 15.5 37t3.5 64q-25 76 -109 76q-109 0 -188 -7q61 0 61 -61l2 2q6 25 23 98q2 18 4 25q14 66 27 104v4q2 4 2 7q12 72 24 94q-12 -4 -18 -4q-43 0 -55 30q0 -20 -4 -59v-4l-9 -6v-121h-114q74 12 92 23.5t18 23.5l13 -29q23 -31 43 -45t51 -14q16 0 45 10l4 2 q47 14 74 41q25 20 43 29q23 10 41 22q14 8 24 13q61 25 94 139v27q0 231 -256 231q-115 0 -272 -100q-80 -47 -154 -111q-84 -70 -86 -203q-2 -16 -4 -16q-6 -41 -10 -68q-4 -16 -8 -39q-8 -43 -12 -59q6 20 28 21h-33h-18h-16q-37 0 -78 -23q-33 -14 -58 -66 q-2 -6 -14 -24l-8 -12q0 -4 -2 -9q-18 -23 -19 -65q0 -2 2 -14v-15q14 -41 42 -60.5t61 -19.5q29 0 49 2q39 0 61 2q-47 0 -47 50v-2q-2 -4 -2 -5l-6 -24q-4 -18 -6 -23q-2 -6 -2 -12t-2 -14q-8 -25 -10 -37q-29 -119 -86 -348q-57 -233 -82 -350z" />
<glyph unicode="g" horiz-adv-x="1400" d="M307 113l4 2q8 6 13 8q-2 0 -17 4q-14 2 -18 2q-6 2 -17 4q-10 0 -16 2q-31 4 -45 58v8l-2 6q0 49 88 104q2 6 20 17q6 4 13 6q16 10 22 14q39 23 54 37q6 10 6 16q0 8 -4 13l-5 8q-10 14 -12 18q-80 53 -119 133q-20 47 -20 107q0 51 8 78q41 174 211 291 q178 117 387 116q188 0 283 -80q74 -57 110 -135q27 -51 27 -121q0 -47 -6 -71q-25 -166 -215 -291q-80 -55 -171 -82t-210 -27q-10 0 -31 2q-4 2 -10 2q-20 4 -49 7q-14 0 -23 -2h-4q-16 -4 -24 -5q-27 -2 -31 -18v-6q-2 -6 -2 -8q0 -18 6 -27q109 -25 223 -55 q29 -8 55 -15q27 -6 54 -14q10 -2 55 -14q45 -14 53 -17q16 -4 21 -4q18 -8 37 -10q23 -6 36 -12q39 -20 66 -53q8 -10 8 -29q0 -35 -35 -105q-2 -2 -2 -4l-4 -4q-4 -4 -4 -6q-39 -104 -199 -223q-162 -117 -354 -117q-207 0 -307 90q-88 80 -88 213q6 66 51 105 q49 43 82 55q33 2 51 29zM246 166q-2 -2 -8 -2q-45 -14 -117 -74q-70 -61 -80 -162q0 -176 115 -278q117 -111 362 -111q217 0 404 133q186 145 231 275q0 -12 -20 -37q4 2 8 8t8 8q49 98 49 154q0 49 -24 80q-35 43 -97 76q-20 10 -55 18q-10 2 -31 10l-6 2q-4 0 -16 2 q-18 6 -54 17q-35 10 -53 14q-27 8 -53 14q-27 6 -55 15q-104 29 -199 49q18 -8 23.5 -19.5t5.5 -27.5l2 4v2q-2 -45 -47 -55q10 0 28 4q12 2 15 2q25 -2 43 -6q6 0 10 -2q29 -2 41 -3q133 0 234.5 30t191.5 93q221 147 250 342q8 31 8 88q0 94 -35 158q-41 90 -133 162 q-113 98 -334 98q-233 0 -432 -131q-199 -135 -246 -338q-10 -33 -10 -98q0 -82 29 -141q43 -92 125 -152q2 -4 10 -12q8 -10 10 -13q-14 12 -14 39q0 16 12 37q-10 -10 -33 -20q-6 -4 -22 -15q-6 -2 -13 -6q-35 -18 -41 -28q-106 -86 -106 -162l2 -12v-13q39 -123 115 -129 q6 -2 16 -2q8 0 14 -2q-39 6 -67 10q-70 12 -86 15q37 33 90 65q27 19 35 27zM844 1075q-168 0 -230 -110q-59 -111 -82 -209q-8 -35 -8 -82q0 -63 17 -115q35 -102 153 -106q127 0 209 106q90 109 109 197q8 47 8 125v37q-2 20 -2 40q-6 117 -174 117zM844 993q90 0 92 -37 q0 -20 2 -41v-34q0 -61 -6 -109q-14 -72 -92 -162q-55 -76 -144 -75q-59 2 -78 49q-12 47 -12 90q0 33 6 63q18 88 74 189q43 67 158 67zM434 96q0 -8 -2 -14q-6 -23 -35 -39v-2q-100 -45 -121 -133q0 -4 -2 -12v-9q0 -51 56 -100q66 -55 186 -55q123 0 223 73 q104 76 119 146v12q2 12 2 25q-37 10 -110 35q-74 25 -113 36q-107 37 -203 37zM516 14q45 0 96 -32q23 -8 74 -25q25 -8 37 -12l55 -19q0 10 -2 23v10q-8 -43 -84 -88q-78 -57 -176 -57q-86 0 -133 34q-27 18 -27 39v4q2 4 2 7q20 59 121 90v6q25 25 31 65q6 -18 6 -45z " />
<glyph unicode="h" horiz-adv-x="1392" d="M938 545v2v2t2 4v2q0 6 2 8q0 6 2 8q0 2 2 7v6q4 4 4 8q57 217 58 303q0 47 -17 63q-37 33 -119 33q-41 0 -127 -14q-25 -4 -59 -16l-18 -7q-18 -6 -31 -10q-16 -6 -39 -18t-31 -58v-2l-2 -4q0 -6 -2 -8v-6q-2 -2 -2 -8q-92 -360 -115 -496q-18 -111 -18 -174q0 -8 2 -20 v-17q6 -57 29 -59q25 -6 33 -51q0 -27 -41 -27q-37 4 -93 4q-43 -2 -94 -2q-35 0 -49 2h-10q-8 2 -12 2h-13q-10 -2 -12 -2l-6 -2h-8q-31 0 -31 35q0 25 8 43q12 41 66 205l16 51q23 68 57 200q35 127 74 297q92 375 117 549q12 104 12 162q0 39 -4 49q-12 45 -39 45 q-23 0 -22 29q0 2 2 10v8q0 29 36 29h7q66 -4 96 -4h53h49q33 0 45 2q12 4 47 6q35 0 35 -18v-6q-2 -4 -2 -9q-14 -55 -18 -55q-2 -10 -6 -31q-2 -12 -13 -45q-10 -37 -18 -82q-20 -68 -35 -137q-6 -20 -27 -98q-16 -72 -28 -115q-6 -27 -6 -41q0 -23 8 -22q10 -6 20 -6 t15 4l20 8t21 8q2 2 18 6q16 8 23 10q33 14 77 29q98 25 197 39q10 0 39 2q18 2 31 2q55 0 75 -6q43 -10 70 -35q29 -25 31 -90q0 -66 -17 -133q-8 -35 -18 -90q-6 -23 -14 -62q-6 -33 -9 -43l-2 -4q-2 -6 -2 -12q-4 -12 -4 -18q-4 -12 -4 -19l-2 -4q-2 -6 -2 -12v-2 q-2 -6 -2 -11q-4 -12 -6 -20q0 -4 -6 -25q-2 -14 -2 -16h2q0 -2 -2 -4v-2v-2q-59 -203 -76 -297q-10 -68 -10 -103q0 -8 2 -20v-12q6 -45 24 -54q14 -8 25 -38q-6 -27 -37 -27q-57 4 -86 4h-41h-43q-43 0 -84 -4q-47 0 -47 57q6 57 47 176q39 113 84 316zM856 553 q-39 -172 -80 -297q-47 -139 -51 -199q0 -78 29.5 -110.5t103.5 -32.5q41 4 80 4h43h41q25 0 78 -4h6q55 0 84 28.5t41 84.5q-31 86 -74 108q14 -2 21 -14v10q-2 10 -2 16q0 29 10 91q16 94 76 297v14v-33q2 61 2 121h-2q0 -4 2 -16q2 -20 4 -41q2 4 4 14q4 6 4 10q0 8 2 19 v6t2 2l2 2q0 6 4 18q0 6 4 19l2 4v2q4 25 11 47q8 43 12 63q8 43 18 88q18 76 19 154q-6 111 -58 150q-37 35 -102 53q-27 8 -98 8q-12 0 -35 -2q-29 -2 -41 -2q-113 -14 -213 -41l-14 -4q-47 -16 -76 -31q-8 -4 -21 -8l-18 -6q-12 -6 -41 -17l-14 -6q10 8 32 8q2 0 2 5l2 2 q33 0 41.5 -14.5t8.5 -45.5q0 4 2 15q2 4 2 8q12 43 28 114q20 78 27 99q14 70 35 137q10 49 18 78q10 63 12 84q6 -45 9 -68q2 0 18 127q0 6 2 17v8q0 57 -26.5 78.5t-92.5 21.5q-47 -2 -63 -6q-6 -2 -27 -2h-49h-53q-33 0 -90 4h-10q-66 0 -93.5 -25.5t-27.5 -85.5v-8 q-2 -8 -2 -10q0 -61 25.5 -86t78.5 -25q-25 0 -39 11v-23q0 -53 -12 -151q-29 -195 -115 -541q-41 -178 -74 -293q-6 -25 -10 -41q-31 -113 -45 -158q-10 -29 -18 -55q-49 -147 -64 -197q-12 -31 -12 -71q0 -117 113 -117h8l6 2h12q10 2 13 2q4 0 10 -2h6q16 -2 55 -2 q53 0 96 2q53 0 86 -4q68 0 97.5 23.5t29.5 93.5q-27 109 -100 123q29 0 39 -17v13q-2 12 -2 20q0 51 16 160q18 113 117 499q0 -12 2 -16v6q2 10 2 43l2 -2q-2 -6 -10 -6q12 8 23 12q14 4 51 17q14 6 47 14l14 2q70 10 98 10q41 0 62 -10q-8 0 -8 -4q0 -82 -58 -293 q0 8 -4 16v-6q-2 -4 -2 -6q-2 -2 -2 -8q-2 -10 -2 -43v33q-2 -18 -2 -39v-2v6z" />
<glyph unicode="i" horiz-adv-x="860" d="M631 1667q53 0 84 -41q23 -29 22 -65q0 -23 -4 -33q-12 -59 -63 -101q-51 -41 -103 -41q-55 0 -84 41q-23 29 -22 68q0 23 4 33q12 53 63 98q48 41 103 41zM631 1749q-84 0 -156 -61q-70 -61 -88 -136q-8 -18 -8 -57q0 -66 39 -117q51 -74 149 -73q78 0 154 59 q72 55 90 139q8 18 8 58q0 66 -39 116q-55 72 -149 72zM250 547q72 258 86 354q8 49 8 92q0 37 -6 49q-10 35 -35 41q-25 0 -24 56q0 27 36 26q10 -2 25 -2q18 -2 22 -2q16 -2 50 -2q43 -2 96 -2h45t43 4q35 0 35 -18v-6q-2 -4 -2 -9q-10 -37 -19 -55q-2 -12 -8 -35 q-2 -14 -12 -55q-4 -20 -6 -31q-10 -43 -17 -69q-6 -37 -39 -158l-2 -10q-18 -80 -20 -86q-23 -98 -39 -172q-23 -94 -31 -156q-10 -55 -14 -100q0 -12 -2 -31v-23q0 -33 4 -43q6 -20 20 -24t17 -45q0 -14 -12 -27q-12 -8 -23 -8q-8 0 -20 2q-47 2 -72 2h-47h-43 q-57 0 -84 8t-33 25q0 2 -2 8q-2 8 -2 14q0 55 45 185q33 86 82 303zM170 567q-53 -227 -80 -295q-49 -154 -49 -213q0 -10 2 -22q2 -10 2 -14q10 -53 55 -77t144 -24h43h47q20 0 65 -2l25 -2q39 0 78 27q41 43 41 92q-14 113 -78 123q25 -4 37 -29v16q0 2 2 23v27 q4 39 14 90q8 47 29 151q16 74 39 172q2 6 20 86l2 11q33 121 39 157q6 29 17 99q4 29 6 38q10 12 12 19q8 27 10 41q8 18 19 57q0 6 2 17v8q0 55 -30 77.5t-93 22.5q-25 -4 -37 -4h-45q-51 0 -94 2q-27 0 -41 2q-4 0 -25 2q-14 0 -26 2q-68 0 -96.5 -25.5t-28.5 -82.5 q0 -68 26.5 -103t69.5 -35q-20 4 -31 13v-21q0 -31 -6 -80q-14 -96 -86 -346z" />
<glyph unicode="j" horiz-adv-x="1062" d="M539 1163q37 -6 73 -6h37h37h33h33q82 0 82 -29q-4 -18 -9 -26q-6 -8 -12 -31q-6 -20 -14 -55q-16 -55 -27 -92q-8 -29 -16 -68q-12 -49 -23 -86q-29 -111 -53 -231q-6 -25 -6 -31q-25 -115 -33 -166q-4 -23 -14 -80q-4 -31 -6 -41q-2 -12 -5 -22q-10 -68 -10 -80 q0 -10 2 -15l4 7q-2 -16 -6 -52q0 -53 -37 -53q-113 -57 -182 -156q-70 -98 -190 -149q-4 -2 -11 -4l-10 -4h-2l-2 -2h-6q-43 0 -43 35v6q2 6 2 10q2 12 16 27l13 12q90 76 143 166q51 92 72 184q27 106 49 193q12 47 14 55q27 94 43 153q39 147 53 224l2 10q16 106 19 141 q0 14 2 43q2 20 2 33q0 43 -8 76q-14 39 -35 39q-16 0 -16 20q0 2 2 10v9q6 26 43 26zM545 1245q-59 0 -90 -24.5t-41 -73.5v-14q-2 -10 -2 -15q0 -102 98 -102q-25 0 -43 18q4 -20 4 -51q0 -12 -2 -33q-2 -27 -2 -41q-2 -49 -18 -139q-12 -66 -54 -215q-14 -61 -45 -197 l-12 -55q-20 -57 -49 -153q-16 -74 -64 -162q-49 -82 -127 -146l-14 -16q-35 -39 -41 -76q0 -6 -2 -16v-8q0 -117 125 -117h41l2 2h-14q2 2 12 6q12 4 20 8q145 94 228 273q57 18 135 26q98 0 98 131q4 221 6 326l-76 -139q-10 -20 -10 -21q20 -6 50 -31.5t30 -70.5 q0 12 10 69q2 10 4 21q2 12 9 53q8 53 12 92q14 76 37 168q25 139 53 269q16 45 21 57q10 33 18 55q10 37 27 92q8 35 14 56q-4 -4 -10 -7q16 23 32 76q0 119 -163 119h-33h-33h-37h-37q-32 0 -67 6zM834 1655q55 0 84 -41q23 -33 22 -68q0 -23 -4 -33q-12 -55 -64 -98 q-47 -41 -102 -41q-53 0 -84 41q-23 29 -22 66q0 23 4 32q12 59 61 99q50 43 105 43zM834 1737q-84 0 -158 -62q-68 -55 -86 -137q-8 -18 -8 -57q0 -63 39 -115q57 -74 149 -74q84 0 156 60q74 59 88 137q8 18 8 57q0 63 -37 115q-51 76 -151 76z" />
<glyph unicode="k" horiz-adv-x="1509" d="M430 1706q61 -6 100 -6h56h49q33 0 45 2q14 4 47 8q2 0 6 2h4q25 0 25 -22v-7q-2 -4 -2 -6l-10 -30l-7 -15l-2 -10q-2 -4 -2 -10l-2 -13q-4 -10 -6 -20q0 -4 -6 -25q-6 -29 -10 -49q-2 -8 -10 -49q-10 -49 -19 -80q-6 -23 -12 -49q-18 -80 -39 -164q-43 -174 -78 -323 q-2 -12 -10 -37q-4 -12 -6 -31l-2 -6q-2 -10 -4 -21q-4 -14 -5 -14l-4 -20q-4 -14 -4 -15q0 -4 -2 -10v-8q0 -12 15 -12q23 6 36 18q217 158 303 244q70 70 70 100q-2 29 -37 43q-23 10 -22 31q0 23 8 35q27 27 63 26q29 -4 99 -8q20 -2 57 -2q16 -2 51 -2h47h50q63 0 106 6 q12 0 18 -14q-4 -20 -14 -31q-57 -47 -65 -47q-39 -4 -78 -29q-47 -31 -72 -45q-90 -63 -240 -192q-76 -66 -77 -84q0 -33 14 -78q88 -279 133 -373q55 -119 78 -139q25 -35 41 -35t31 -51q0 -2 2 -10q2 -4 2 -6q0 -20 -35 -21q-18 2 -47 6q-6 2 -21 2q-12 2 -18 2 q-25 0 -37 2q-14 2 -45 2q-16 0 -41 -2h-31q-70 0 -69 15q0 39 -29 176q-23 92 -111 311q-16 41 -41 41q-12 0 -34 -14q-6 -4 -11 -8q-16 -12 -24 -19l-6 -4q-12 -8 -15 -12q-6 -6 -18 -15q-23 -18 -35 -30q-2 -6 -8 -31q0 -6 -2 -12q-23 -98 -29 -142q-4 -29 -8 -80 q-2 -8 -2 -14q0 -10 -2 -26v-19q0 -41 6 -51q8 -27 23 -29q16 -4 22 -28q0 -27 -39 -27q-41 4 -94 4h-49q-35 0 -49 -2q-8 0 -25 -2q-12 -2 -20 -2q-72 0 -72 47q6 61 74 291q27 84 55 200q23 86 70 297q43 197 73 338q31 135 43 219q18 117 19 175q0 10 -2 24v14 q-6 43 -27 43l-8 -2l-6 -2q-14 0 -21 39q0 29 37 29zM434 1788q-66 0 -94.5 -26.5t-28.5 -90.5q39 -115 121 -115l25 11l-11 -6q-55 0 -73 32v-12q2 -12 2 -20q0 -47 -17 -162q-12 -80 -43 -213q-31 -141 -73 -338q-43 -186 -70 -295q-35 -137 -53 -197q-72 -250 -78 -311 q0 -133 154 -133q8 0 24 2t27 2q12 2 43 2h49q49 0 90 -4q66 0 95.5 23.5t29.5 95.5q-27 90 -88 98q23 -2 37 -16v16q0 2 2 19v22q0 8 2 16q4 59 8 95q12 66 27 112q0 2 -2 6v5q6 6 16 14l6 6q18 12 27 23h4q2 2 12 10q16 12 23 18q-4 -2 -13 -2q-20 0 -34 10 q82 -203 106 -299q27 -127 27 -157q0 -96 151 -97h31q25 2 41 2q23 0 33 -2q14 -2 41 -2q4 0 18 -2q8 0 16 -2q33 -4 56 -6q121 0 121 103q0 4 -2 12q-2 12 -2 16q-55 121 -113 121q10 0 20 8q-23 18 -65 119q-49 104 -129 363q-10 27 -10 47q4 8 49 28q145 125 231 185 q25 14 72 45q18 12 37 16q14 0 108 64l8 4q33 37 43 102q-35 86 -108 86q-39 -6 -100 -6h-50h-47q-31 0 -45 2q-37 0 -57 2q-70 4 -98 8q-78 0 -134 -55q-18 -20 -22 -40t-4 -48q0 -41 18.5 -65.5t55.5 -41.5q-14 10 -15 29q0 -10 -45 -39q-84 -84 -295 -235v-2 q49 0 64.5 -10.5t15.5 -59.5v4q2 4 2 6q2 8 6 29l4 14q2 10 4 21q4 16 7 26q4 12 4 13q6 23 8 32q35 166 78 361q18 76 43 178q4 12 8 33q8 23 16 55q8 27 13 37q4 18 10 47q6 23 6 25q4 14 8 32q2 6 2 8q0 -8 2 -12v23q2 8 13 35q4 12 6 16q0 4 2 14v15q0 104 -107 104h-6 q-6 -2 -8 -2q-43 -4 -61 -8q-6 -2 -27 -2h-49h-56q-37 0 -96 6z" />
<glyph unicode="l" horiz-adv-x="890" d="M436 1706q61 -6 101 -6h55h49q31 0 45 2q14 4 47 8q2 0 6 2h4q25 0 25 -22v-7q-2 -4 -2 -6l-10 -30l-6 -15l-2 -10q-2 -4 -3 -10l-2 -13q-4 -10 -6 -20t-14 -63q-16 -78 -31 -140q-6 -23 -12 -49q-18 -80 -39 -164q-43 -174 -78 -323q-86 -352 -112 -510 q-25 -141 -25 -217q4 -57 23 -58q23 0 28 -32q0 -27 -39 -27q-41 4 -94 4q-41 -2 -96 -2q-125 0 -125 53q0 49 72 281q43 135 133 497q94 391 114 549q14 102 15 170q0 10 -2 25v16q-12 43 -35 43q-20 0 -21 45q0 29 37 29zM440 1788q-123 0 -123 -111q0 -127 103 -127 q-33 0 -47 27v-10q2 -10 2 -19q0 -61 -15 -159q-23 -172 -112 -539q-96 -385 -131 -494q-76 -252 -76 -305q0 -135 207 -135q57 0 98 2q51 0 88 -4q66 0 95.5 23.5t29.5 93.5q-25 106 -110 106q51 0 59 -22q0 66 22 200q27 156 113 506q39 190 78 363q14 45 35 121 q12 41 16 53q14 61 31 139q12 53 14 64q6 14 8 30l2 8q0 -8 2 -12v23q2 8 13 35q4 12 6 16q0 4 2 14v15q0 104 -107 104h-6q-6 -2 -8 -2q-43 -4 -61 -8q-8 -2 -27 -2h-49h-55q-38 0 -97 6z" />
<glyph unicode="m" horiz-adv-x="2113" d="M1659 532q0 2 2 5v2v4q2 2 2 8q2 2 2 10q2 2 2 6q0 2 2 4q0 6 2 9q55 203 55 303q0 61 -22 88q-31 35 -105 35q-57 0 -147 -25q-16 -2 -82 -29q-41 -14 -78 -51q-20 -23 -30 -61q-2 -8 -5 -19q-2 -10 -4 -18t-4 -19q-2 -10 -4 -18t-4 -18t-4 -19q-4 -25 -8 -41 q0 -6 -4 -18q0 -6 -4 -19q0 -4 -2 -12l-2 -4v-8q-2 -8 -3 -11q-2 -2 -2 -6q-2 -4 -2 -6q0 -4 -2 -16l-2 -4q-2 -14 -6 -25q0 -2 -2 -8q0 -6 -2 -8h2v-2v-4v-2q-66 -223 -76 -297q-10 -76 -10 -107q0 -8 2 -18v-13q6 -43 25 -51q14 -8 24 -41q-6 -25 -39 -24q-45 6 -84 6h-41 h-43q-96 0 -125 18q-6 6 -6 25q0 51 47 184q43 125 82 315l2 3v2v2t2 4q0 6 3 10q0 6 2 8q0 6 2 10q2 2 2 4t2 5q57 223 57 319q0 53 -16 80q-29 41 -105 41q-53 0 -139 -23q-49 -12 -117 -45q-49 -25 -61 -49q-12 -23 -17 -45q-8 -31 -18 -78q-4 -14 -14 -55q-6 -31 -9 -37 q-4 -20 -10 -39q-10 -47 -16 -71q-14 -61 -31 -129h-2q-39 -184 -41 -259q0 -10 -2 -24v-19q0 -45 8 -57q10 -31 25 -33q16 -2 18 -47q-4 -16 -12 -22q-12 -12 -25 -13q-61 6 -90 7h-49h-12q-12 2 -15 2q-2 0 -12 -2h-12q-10 0 -35 -2l-24 -3q-70 0 -70 31q0 45 57 223 q12 35 33 123l6 25q23 92 39 158q35 143 55 217q23 90 31 141l2 29q6 55 6 71q0 31 -4 39q-16 37 -37 39q-23 2 -26 57q0 27 37 27q12 -2 24 -2t23 -2q16 -2 47 -2q43 -2 100 -2h41q14 0 45 4q35 0 35 -20v-7q-2 -4 -2 -6l-8 -24q0 -4 -2 -13q-2 -8 -2 -12q0 -2 2 -8v-8 q0 -12 18 -13q10 0 19 5q43 16 92 43t88 34q100 29 200 31q74 0 105 -1t51 -7q53 -12 78 -66q10 -29 22 -45q6 -12 21 -12q16 0 43 14q16 8 55 27q27 14 41 20q43 25 90 35q154 39 267 39q66 0 92 -8q84 -16 84 -139q0 -45 -15 -131l-6 -25q-10 -47 -14 -65q-6 -33 -23 -103 q0 -6 -4 -18q0 -6 -4 -19q0 -4 -2 -12l-2 -4q0 -6 -4 -19q0 -6 -2 -12q0 -4 -2 -16l-2 -4q-2 -14 -6 -25q0 -2 -2 -8q0 -6 -2 -8h2v-4q0 -2 -2 -4q-20 -98 -43 -175q-20 -74 -31 -122q-12 -61 -12 -101q0 -27 4 -37q6 -43 24 -51q14 -8 25 -41q-8 -33 -41 -33q-70 0 -84 2 q-8 2 -23 5q-12 4 -16 4q-29 4 -43 4q-119 2 -135 14q-4 6 -4 12q0 39 55 201q35 100 82 315zM1577 541q-41 -184 -78 -297q-59 -188 -59 -228q0 -25 13 -46t22 -29q25 -27 186 -33q10 0 31 -4q4 0 16 -4q14 -2 23 -4q16 -2 96 -2q100 0 127 116q-29 88 -72 111q6 0 12 2h4 q-2 4 -2 14q0 27 11 84q6 45 24 141l4 21q14 31 41 111q6 14 7.5 26t1.5 19v86h49q-12 -6 -25 -19q-12 -12 -27 -20q6 -12 9 -21q6 16 6 27q2 6 2 12q4 12 4 19l2 4q2 8 2 12q4 12 4 18q4 12 4 21q8 37 19 110l2 17q4 14 12 39q6 12 8 20q16 88 17 148q0 195 -146 219 q-33 10 -112 10q-123 0 -285 -41q-55 -10 -109 -41q-14 -6 -41 -20q-39 -18 -55 -27q-2 -6 -6 -6q35 0 49 -27q-8 10 -16 35q-43 92 -133 113q-25 8 -59 9t-120 1q-111 -2 -217 -33q-49 -12 -108 -43q-39 -20 -86 -39q6 2 14 2q63 0 64 -69v8q-2 6 -2 8t2 4l2 2q2 8 8 31 q0 2 2 12v13q0 59 -30 80.5t-93 21.5q-27 -4 -39 -4h-41q-55 0 -98 2q-25 0 -39 2q-12 2 -25 2q-14 0 -26 2q-125 0 -125 -111q12 -131 98 -137q-10 0 -27 8q-4 0 -4 -4q0 -16 -4 -61q-2 -14 -4 -29q-14 -74 -29 -131q-20 -74 -55 -217q-12 -53 -35 -174q-4 -18 -10 -47 q-6 -18 -8 -23q-14 -39 -23 -55q-61 -203 -61 -250q0 -113 152 -112q8 0 24 2q25 2 35 2h12q10 2 12 2t15 -2h12h49q29 0 86 -6q43 0 82 32q29 23 41 78q-16 125 -84 133q18 0 33 -10v20v19q2 12 2 22q4 63 27 179q8 41 30 129q14 61 15 63q6 25 16 72q6 18 10 39l8 32 q8 33 15 58q10 47 18 78q2 47 11 102q6 -31 24 -61q55 29 100 39q78 20 119 20q25 0 37 -4q2 -6 2 -35q0 -76 -49 -276q2 0 2 -2q-16 -10 -16 -25q-2 -6 -2 -25q-2 2 -2 7q-2 -18 -3 -39v-2v32l5 4q-35 -180 -84 -329q-51 -154 -52 -211q0 -68 37 -88q41 -37 176 -37h43h41 q35 0 78 -6q109 0 131 108q-29 88 -71 111q16 -2 18 -15v11q-2 8 -2 14q0 29 10 96q10 76 76 295v15v4v84h49q-12 -6 -24 -19q-12 -12 -27 -20q6 -12 8 -21q6 16 6 27q2 -2 2 -4q2 -4 2 -6q0 4 2 20v21l2 4l3 12q4 12 4 18q4 12 4 19q4 16 8 41q2 14 4 33q2 16 4 30 q2 8 4 19q2 10 4 18q2 2 4 2l2 2q4 16 11 25q20 20 47 31q53 23 69 24q84 23 131 23q33 0 43 -9q2 -6 3 -32q0 -82 -48 -260q-6 -6 -8 -14.5t-2 -18.5q-2 2 -2 4l-2 2q0 -8 -2 -10q0 -6 -2 -8v-39v32q-2 -14 -2 -30z" />
<glyph unicode="n" horiz-adv-x="1402" d="M950 541h-2v2q2 0 2 2l2 2v4l2 4v4l2 4v4q0 2 2 6v7q2 2 3 8q55 203 55 299q0 61 -23 84q-29 27 -98 26q-61 0 -158 -24q-25 -8 -41 -12q-29 -8 -43 -15q-86 -31 -104 -112q-20 -90 -33 -156q-20 -111 -45 -221q-16 -74 -33 -156q-4 -27 -6 -49q-6 -43 -8 -53 q0 -12 -2 -43q-2 -20 -2 -29q0 -8 2 -18v-11q6 -25 18 -28q8 -2 15 -47q0 -35 -35 -35q-16 2 -45 6q-14 2 -41 2q-29 0 -43 2h-10q-8 2 -13 2q-2 0 -10 -2h-12q-10 0 -21 -2h-18q-63 0 -80 29q0 2 -2 10t-2 14q0 51 47 193q10 25 29 92q6 27 8 31q8 33 26 106q14 51 21 76 q31 127 55 215q25 90 31 139t6 84q0 39 -6 51q-16 33 -41 35q-27 0 -27 55q0 29 39 29q10 0 29 -2q18 -2 27 -2q4 0 22 2h21l20 2q59 2 82 2h45t43 4q35 0 35 -20v-6q-2 -4 -2 -7q-6 -18 -6 -22v-4l-2 -4q-4 -4 -4 -6q0 -8 -3 -21q-2 -10 -2 -12q0 -4 2 -12q0 -6 13 -7 q8 0 37 11q2 2 10 4l22 8q35 14 52 20q27 12 69 27q98 25 197 39q12 0 37 2q18 2 30 2q55 0 78 -6q43 -10 78 -35q37 -29 39 -90q0 -51 -27 -133q-25 -86 -49 -195q-2 -4 -2 -8t-2 -8t-2 -10t-2 -11q-2 -4 -2 -8t-2 -8q0 -4 -2 -12l-2 -4q0 -6 -2 -13q-2 -4 -2 -10t-2 -10 q-2 -10 -6 -29q-2 -8 -5 -12h3v-4v-2q-2 -2 -3 -2q-49 -215 -59 -297q-12 -68 -12 -109q0 -6 2 -14v-12q4 -43 16 -54q10 -8 21 -39q-6 -27 -39 -26q-51 6 -84 6h-41h-8q-8 2 -13 2h-10q-8 -2 -12 -2q-10 0 -21 -2h-18q-68 0 -82 20q-4 8 -4 17q0 37 57 192q41 109 86 316z M848 459q-29 -127 -60 -205q-63 -178 -63 -221q0 -20 8 -41t15 -29q25 -49 145 -49h18q10 2 21 2q4 0 12 2h10q4 0 13 -2h8h41q31 0 80 -6q59 0 87.5 28.5t41.5 84.5q-27 78 -58 100q14 -4 17 -10v10q-2 8 -2 14q0 39 12 96q6 63 51 269l10 8v37v86h31q-4 -6 -8 -21 q-10 -27 -18 -45q2 14 2 37q2 29 2 35q6 -12 6 -27l2 4q2 8 2 13v55q2 4 2 10t2 11q2 -8 4 -23q2 -8 2 -10q2 12 6 24q29 123 41 170q31 102 31 158q-6 104 -72 154q-47 35 -106 49q-29 8 -99 8q-12 0 -32 -2q-29 -2 -41 -2q-96 -12 -213 -43l-4 -2q-45 -12 -76 -27 q-12 -6 -37 -14q-23 -8 -33 -12q-14 -10 -18 -11q29 0 49 -14t20 -43q-2 -4 -2 -6q0 2 2 12q2 12 2 21q0 -8 5 -25v-4q0 2 2 22v21q0 2 6 10q0 2 2 12v13q0 59 -30 80.5t-93 21.5q-25 -4 -37 -4h-45q-27 0 -90 -4h-14h-21q-16 -2 -20 -2q-8 0 -27 2q-18 2 -29 2 q-121 0 -121 -111q0 -137 105 -137q-12 0 -27 10q-4 -4 -4 -14q0 -31 -6 -74q-6 -76 -29 -172q-25 -70 -55 -172q-6 -25 -20 -75q-18 -74 -27 -107q-4 -10 -14 -47q-12 -47 -21 -68q-51 -166 -51 -221q0 -8 2 -26q2 -14 2 -19q33 -90 162 -90h18q10 2 21 2h12q8 2 10 2 q4 0 11 -2h6q16 -2 49 -2q18 0 28 -2q16 -2 54 -6q63 0 92 25.5t29 97.5q-29 113 -74 118q29 -2 41 -38v6q-2 6 -2 12t2 25q2 25 2 41q2 12 8 47q2 18 6 47q4 16 8 39q12 72 23 112q23 104 45 226q12 72 33 151q10 41 55 55q18 8 33 11q4 0 24 8q16 6 19 6q80 20 135 20 q27 0 43 -4q-4 -8 -4 -24q0 -92 -55 -289q0 12 -2 16v-22q-2 -20 -3 -25v-4l-2 -4v-4l-2 -4v31l-2 -2q0 45 -2 45v-166h-18z" />
<glyph unicode="o" horiz-adv-x="1441" d="M854 1174q242 0 373 -175q92 -123 92 -282q0 -61 -16 -137q-55 -244 -265 -416q-207 -174 -450 -174q-242 0 -373 174q-92 121 -92 276q0 61 16 140q55 244 264 419q211 175 451 175zM854 1255q-268 0 -504 -192q-229 -193 -291 -465q-18 -82 -18 -158q0 -182 109 -325 q156 -207 438 -207q272 0 504 192q229 190 290 461q18 80 19 156q0 186 -109 332q-155 206 -438 206zM827 1067q-188 0 -292 -145q-100 -143 -148 -344q-16 -72 -16 -148q0 -104 39 -186q63 -135 202 -146q145 0 267 133q129 135 170 347q18 109 18 198q0 86 -14 150 q-33 141 -226 141zM827 985q123 0 146 -78q12 -57 12 -131q0 -76 -16 -184q-35 -184 -150 -305q-94 -106 -205 -107q-88 6 -131 99q-31 68 -30 151q0 82 14 166q43 162 135 278q80 111 225 111z" />
<glyph unicode="p" horiz-adv-x="1490" d="M750 1071q35 10 100 57q61 49 149 54q207 0 306 -117q63 -76 63 -209q0 -78 -20 -162q-55 -248 -314 -454q-264 -209 -553 -242q-39 -4 -49 -43q-2 -4 -4 -21q-2 -18 -6 -36q0 -31 2 -45q0 -4 2 -15q2 -8 2 -12q0 -18 -4 -27q-6 -25 -12 -51q-12 -35 -33 -37 q-53 -6 -109 -51q-57 -45 -110 -45q-31 0 -35 16v7q-2 6 -2 10q0 20 4 33q12 88 61 245q41 145 99 379q92 381 110 539q10 88 11 129q0 39 -9 67q-8 39 -41 39q-18 0 -18 31v12q2 10 2 19q0 27 35 26q4 0 20 -2q33 -2 64 -2q49 4 86 4q16 0 41 4q10 2 20 3q4 0 13 2h8 q59 0 59 -50q0 -14 -4 -24q0 -4 -2 -10v-7q0 -16 14 -16h13q8 -2 10 -2q21 0 31 4zM723 1149h-4q-2 0 -10 2h-13q68 0 68 -66h2q4 16 4 41q0 131 -141 131h-8q-8 -2 -13 -2q-16 0 -35 -4h-12q-6 -2 -14 -2q-37 0 -90 -4q-29 0 -60 2q-12 2 -20 2q-117 0 -117 -108 q0 -8 -2 -19v-12q0 -113 100 -113q-29 0 -39 23q6 -14 7 -47q0 -37 -11 -119q-18 -150 -108 -530l-2 -9q-66 -266 -94 -366q-49 -154 -64 -250q-6 -18 -6 -51q0 -6 2 -17v-8q10 -90 117 -90q78 0 162 64q33 29 67 32q63 8 100 97q4 12 7 22q4 16 6 23q8 16 8 55q0 4 -2 16 t-2 17q-2 10 -2 30l2 13q4 27 6 30q-4 -16 -23 -16q311 37 596 260q281 225 342 500q23 90 23 180q0 168 -82 262q-121 145 -371 146q-113 -4 -196 -70q-51 -39 -78 -45zM713 973q-14 -6 -45 -33q-23 -20 -33 -66q-2 -10 -10 -49q-4 -14 -13 -49q-2 -12 -14 -61 q-6 -23 -14 -62q-4 -14 -17 -75q-10 -53 -16 -76l-8 -41q-20 -98 -33 -146q-2 -8 -4 -22q-4 -12 -4 -17q-2 -8 -4 -18t-4 -18q-2 -10 -5 -21l-4 -14l-6 -31v-8q-2 -8 -2 -10q0 -20 15 -35q10 -10 22 -10q18 0 51 16q53 20 140 68q72 37 133 88q102 82 166 188q57 100 73 176 q16 72 17 127q0 76 -25 133q-45 106 -199 107q-89 -4 -157 -41zM750 899q53 31 122 33q94 0 121 -58q18 -43 19 -100q0 -41 -15 -108q-12 -61 -65 -154q-51 -90 -146 -166q-51 -41 -118 -78q-61 -35 -136 -65q-14 -10 -18 -10q16 0 35 -15q10 -8 10 -22q0 2 2 6v4q2 12 2 29 q0 14 2 26q2 6 4 15q6 12 6 18q2 8 5 18q2 10 4 19l4 4q0 2 2 4q12 47 33 145l8 41q4 25 16 97q12 70 17 90q8 39 14 61q12 49 14 62l13 51q8 31 10 45l6 -12q21 16 29 20z" />
<glyph unicode="q" horiz-adv-x="1525" d="M1001 1092q0 -2 13 -13l10 -8q4 -4 10 -4q10 0 17 35v12q0 2 -2 8q-2 4 -2 6q0 25 36 25q43 2 60 8q2 2 51 2q18 0 72 -2l18 -2h19q10 -2 20 -2q2 0 23 2h26q31 0 31 -14q0 -6 -4 -12q-20 -45 -49 -46q-29 0 -54 -40q-37 -53 -79 -207q-49 -174 -121 -547 q-20 -119 -56 -266q-27 -127 -36 -215q-2 -37 -25 -60q-16 -18 -35 -22q-76 -4 -125 -52q-49 -47 -86 -47q-39 0 -43 13q-2 6 -2 10v6q2 4 2 8q25 100 53 172q33 84 72 221q0 6 2 17q2 4 2 6q0 4 -4 8q-6 0 -6 -4q-12 -12 -25 -16q-133 -80 -280 -97q-12 0 -25 -2h-22 q-184 0 -275 158q-59 102 -59 234q0 96 31 208q72 266 247 435q170 166 373 166q63 0 121 -25q55 -26 106 -57zM1083 1137q-76 51 -155 88q-74 31 -154 30q-231 0 -430 -188q-193 -184 -270 -473q-33 -123 -33 -229q0 -152 70 -275q115 -199 346 -199h24q14 2 27 3 q162 16 311 102q35 16 72 57q0 -14 -15.5 -23.5t-37 -13.5t-37 -5t-21.5 -1q-10 8 -26.5 29.5t-16.5 44.5l-2 -4t-2 -6q-35 -127 -65 -203q-31 -76 -60 -193q0 -6 -2 -16v-8q0 -10 2 -21.5t4 -17.5q10 -66 121 -66q57 0 144 70q29 25 77 29q45 8 84 49q41 41 47 106 q8 74 35 205q37 156 56 271q72 371 120 538q37 139 68 184q-8 4 -14 5q70 0 120 86q10 18 12.5 27t2.5 26q0 96 -113 96h-26q-20 -2 -23 -2q-10 0 -20 2h-17h-14q-61 4 -78 4q-92 0 -96 -12h-4q-6 2 -13 2q-53 0 -84.5 -29.5t-31.5 -77.5q0 -2 2 -6q2 -6 2 -8v-6 q23 41 65 41q6 0 19.5 -3t25.5 -16q2 5 4 7zM989 858q0 4 2 12t2 13q0 29 -18 49q-104 111 -223 110q-137 0 -230 -131q-82 -119 -133 -313q-18 -74 -18 -135q0 -90 35 -152q68 -131 215 -153h6q6 -2 10 -2q31 0 82 22q49 23 98 49q47 29 64 113q18 92 37 172q16 82 30 139 q12 63 23 115q12 61 18 92zM907 866q-10 -47 -12 -61q-14 -74 -27 -135q-12 -49 -30 -142q-18 -80 -37 -172q-6 -41 -25 -57l-16 -8q-49 -27 -74 -37q-33 -16 -49 -16q-2 0 -6 2h-4q-104 16 -150 110q-25 49 -24 113q0 49 16 115q45 176 121 286q63 96 162 97q84 0 161 -84 q-2 2 -2 6q0 -4 -2 -9q-2 -4 -2 -8z" />
<glyph unicode="r" horiz-adv-x="1175" d="M1049 963q-2 -2 -2 -5v-4v-2q-2 0 -3 -2v-2q-8 -45 -51 -71q-18 -12 -125 -70q-100 -57 -120 -57q-31 0 -31 32l6 21q6 31 51 69q14 12 23 39q0 4 2 13v10q0 49 -64 49q-23 0 -61 -20q-43 -23 -68 -54q-23 -27 -33 -67q-4 -18 -12 -56q-2 -8 -4 -18l-6 -25 q-8 -41 -14 -63q-10 -49 -25 -102q-4 -16 -10 -48q-10 -45 -17 -73q-23 -94 -30 -156q-10 -53 -15 -100q0 -12 -2 -31v-23q0 -33 4 -43q6 -20 23 -24q12 -4 14 -45q0 -14 -12 -27q-12 -8 -23 -8q-33 0 -47 2t-45 2q-29 0 -43 2h-47q-139 0 -139 33q6 33 65 205q2 4 11 32 q14 53 22 89q8 33 27 106q14 51 20 76q31 127 56 215q23 82 32 139q2 12 2 23q6 53 7 71q0 35 -7 47q-12 35 -34 41q-27 2 -27 56q0 27 39 26q4 0 24 -2q12 0 23 -2q14 -2 47 -2q43 -2 96 -2h17h32q74 0 74 -41v-6q-2 -4 -2 -8t-2 -8v-7q0 -12 8 -12q4 0 11 -2q4 0 8 2 q6 2 22 10q10 4 29 19q51 31 82 55q27 20 92 21q68 0 119 -58q37 -43 37 -108q0 -33 -4 -51zM1124 922q10 33 11 92q0 98 -58 162q-78 86 -180 86t-141 -37q-16 -14 -56 -39l-22 -15l-10 -6q-8 -4 -11 -6q-6 -2 -10 -4q-14 -6 -20 -8q8 2 23.5 5t31.5 3q-16 2 -29 2 q51 0 62.5 -14.5t11.5 -55.5v7q2 4 2 8t2 8v6q0 123 -156 123h-32h-17q-51 0 -94 2q-27 0 -39 2t-24 2q-20 2 -27 2q-127 0 -127 -108q0 -129 94 -135q-16 0 -26 6v-15q0 -14 -7 -59q0 -2 -2 -23q-14 -100 -30 -174q-25 -70 -56 -172q-8 -39 -16 -73q-23 -111 -31 -148 q-10 -29 -24 -63q-4 -8 -6 -15q-63 -190 -70 -221q0 -123 221 -123h41q16 -2 49 -2q23 0 33 -2q18 -2 59 -2q37 0 76 27q41 43 41 92q-6 55 -27.5 87t-48.5 36q25 -2 35 -29v16q0 2 2 23v27q4 43 15 90q6 39 24 131q0 6 4 22q4 23 17 70q6 27 10 49q14 53 24 103q6 31 15 83 l6 41l6 13q6 16 10 26q2 14 15 31q16 18 45 35q12 10 22 10q-18 0 -18 33v-4q-2 -4 -2 -6l2 4q2 6 4 8q-70 -66 -78 -115l-8 -26q0 -70 26.5 -98.5t86.5 -28.5q27 0 161 67q23 12 41 23q76 43 86 49q76 49 90 133v10q0 2 2 2v2v4q0 -12 -1 -22t-3 -14z" />
<glyph unicode="s" horiz-adv-x="1271" d="M1038 868q-39 82 -151 140q-109 51 -187 51q-63 -6 -116 -23q-51 -14 -62 -63v-6q-2 -4 -2 -6q0 -29 33 -54q37 -33 80 -49q80 -20 178 -43q102 -23 180 -67q82 -47 127 -123q31 -49 31 -127q0 -55 -8 -86q-37 -180 -217 -295q-182 -115 -340 -115q-147 0 -269 43 q-119 43 -178 111q-14 8 -14 30q0 25 6 41l6 25q8 41 15 63q12 61 20 91q2 8 8 40q4 18 6 31q10 47 49 47q49 0 50 -45q4 -47 8 -65q12 -98 82 -193q35 -47 92 -69.5t149 -22.5q10 0 17 2q0 -2 -6 -2q76 0 157 57q88 61 113 164q6 29 6 53q0 41 -16 70q-25 43 -84 84 q-88 33 -183 53q-106 25 -172 64q-78 23 -120 86q-25 41 -25 86q0 27 10 61q35 160 166 215q109 45 217 45q41 0 62 -4l2 2q94 -10 149 -20q72 -12 123 -37q16 -10 51 -23q33 -14 33 -41q0 -61 8 -94q6 -25 11 -78q-2 -49 -46 -49q-18 0 -30 17q-11 14 -19 28zM965 831 q12 31 28 60q39 -150 94 -150q119 0 127 131q-4 39 -12 58q-6 47 -6 114q0 76 -84 117q-18 6 -43 19q-57 29 -147 45q-76 12 -195 26h2q-12 -2 -35 -2q-123 0 -248 -51q-172 -70 -215 -270q-12 -39 -12 -82q0 -70 37 -131q55 -86 158 -117q66 -39 186 -68q86 -18 164 -47 q35 -25 49 -51q6 -12 6 -29q0 -10 -4 -34q-18 -74 -80 -115q-57 -207 -110 -207q31 0 49 31t26.5 70.5t10.5 70.5t2 45q-10 -12 -35 -32.5t-64 -20.5q-127 0 -176 59q-57 80 -67 160q-4 23 -6 51q0 125 -132 125q-104 0 -129 -145l-6 -15l-8 -24q-10 -33 -20 -88 q-4 -14 -13 -49q-4 -20 -6 -33q-10 -27 -10 -66q0 -41 12.5 -63.5t32.5 -32.5q68 -74 203 -123q135 -47 295 -47q178 0 383 127q211 133 254 346q10 37 10 105q0 106 -43 170q-55 94 -156 151q-84 49 -203 76l-30 6q-100 23 -142 35q-33 14 -53 35q-2 -2 -2 -10q0 2 2 2v2 q0 -2 4 -7q39 12 97 19q59 0 145 -43q84 -44 115 -103z" />
<glyph unicode="t" horiz-adv-x="1038" d="M879 1292q31 0 36 -26q0 -20 -14 -43q-10 -10 -22 -25q-4 -6 -13 -14l-4 -4q-4 -8 -6 -13q-14 -18 -33 -32q-23 -14 -41 -15q-39 0 -49 6t-45 13q-2 0 -8 2h-8q-23 0 -29 -17q-8 -25 -8 -30q-12 -37 -17 -58q-6 -20 -14 -61q-4 -14 -8 -33q-4 -20 -8 -35q-4 -23 -17 -71 q-88 -379 -106 -500q-14 -94 -14 -158q0 -10 2 -24v-19q6 -49 24 -53q10 0 10 -31v-12q-2 -12 -2 -21q-6 -27 -36 -26q-63 6 -95 6q-43 2 -96 2q-74 0 -104.5 11.5t-30.5 33.5q6 43 72 283l49 196q23 84 71 297q2 10 9 33q4 25 8 39q4 23 16 63q8 41 14 62q8 41 13 59 q0 4 2 10v9q0 20 -15 20h-14q-10 2 -18 2q-35 -8 -86 -8q-20 0 -31 12v6q-2 12 -2 29q2 8 8 27q10 25 35 35q104 35 225 186q125 158 170 281q14 33 47 32h29h14q41 0 41 -20q0 -8 -2 -17q-2 -18 -2 -22q-4 -14 -6 -25q-4 -8 -4 -12q-6 -12 -6 -14l-6 -17q-4 -20 -17 -63 q-2 -8 -4 -19q-6 -25 -12 -55l-4 -20q-18 -66 -25 -99q0 -6 -2 -14v-10q0 -25 31 -25q37 10 113 14q4 0 14 -2q2 0 8 -2q4 0 8 -2q11 -2 15 -2zM879 1374l-2 2h-5q-27 6 -41 6q-84 -4 -122 -14q37 0 50 -13.5t13 -43.5v6q2 6 2 10q2 8 2 12q18 74 25 97q6 25 12 51l4 20 q10 39 14 58l11 28h2q2 6 6 29q4 12 8 27q0 6 2 28q0 4 2 17q0 106 -123 106h-14h-29q-84 0 -123 -84q-43 -115 -157 -260q-100 -131 -189 -160q-63 -23 -86 -86q-8 -27 -12 -39q0 -35 2 -65v-10q35 -68 113 -68q57 0 96 8q6 0 14 -2h8q-68 0 -67 62v-4q-2 -4 -2 -7l-6 -24 q-2 -14 -4 -23q-6 -20 -15 -61q-10 -37 -16 -66q-4 -14 -8 -39q-6 -23 -8 -32q-45 -201 -72 -295q-31 -125 -49 -197q-68 -246 -74 -297q0 -70 49 -101.5t168 -31.5q51 0 94 -2q31 0 92 -6q53 0 83 24.5t40 73.5q0 10 2 27v16q0 51 -23.5 82t-62.5 31q39 0 52 -23v17 q-2 12 -3 20q0 59 15 146q16 102 104 493q12 49 17 72q4 14 8 35q4 18 8 32q6 35 14 60q4 16 15 49l4 16q0 2 2 4q0 6 2 11q-10 -37 -49 -37h6l4 -2q4 0 6 2q18 -20 94 -21q39 0 88 29l2 2q37 31 58 59v5q10 10 14 16q8 8 19 18l2 4q33 51 32 103q-18 100 -118 100z" />
<glyph unicode="u" horiz-adv-x="1392" d="M737 223q86 37 99 88q2 12 6 27q4 14 6 27q4 10 8 30q2 10 4 17q2 6 6 24q6 25 8 37q2 10 11 37q8 35 12 49q63 256 70 346q0 12 2 35v25q0 59 -8 73q-12 33 -31 39q-10 0 -10 25t6 43q0 18 24 18q35 -6 86 -6h47h39q33 0 54 6q25 4 55 6q25 0 35 -16q4 -8 4 -33 q-2 -6 -4 -14l-4 -14v-9q-4 -6 -9 -22q-2 -8 -8 -35q-2 -4 -4 -12l-2 -6q-12 -49 -18 -80q-4 -20 -15 -62q-10 -35 -20 -80q-10 -41 -12 -55q-27 -109 -39 -166q-61 -252 -64 -332q0 -10 -2 -24v-19q0 -55 12 -71q12 -25 31 -29q6 0 6 -20q0 -33 -8 -60q-6 -16 -25 -16 q-4 0 -18 2q-10 0 -20 2q-14 2 -50 2h-12q-53 4 -78 4q-55 0 -65 -2q-4 0 -13 -2h-8q-29 0 -35 16q0 4 -2 15q-2 8 -2 12v8q2 8 2 12q2 12 4 29q2 10 3 14q0 10 -15 11q-12 0 -22 -6q-39 -14 -121 -43q-10 -4 -60 -21q-51 -18 -61 -22q-125 -43 -219 -43t-137 67 q-20 37 -21 90q0 66 29 170q0 8 2 13q0 2 2 6v6q2 4 2 12q2 2 2 6q0 2 2 4h-2q4 23 12 47q6 23 13 50l2 10q6 27 12 43q4 10 10 37q6 20 6 24q61 246 68 348q0 12 2 25v23q0 59 -12 84q-14 31 -37 32q-14 0 -15 27q0 2 3 12v15q6 18 26 18h19q12 -2 22 -2q4 0 25 2h28 q37 0 52 2q16 2 41 2q47 0 131 8q12 0 22 -8q10 -6 10 -18q-4 -23 -8 -31l-2 2q-4 -4 -8 -14l-2 -9q-18 -57 -33 -112q-20 -80 -88 -357l-2 -12q-37 -156 -45 -196h4q-23 -113 -22 -168q0 -76 36 -82q23 -4 56 -4q8 0 18 2h8l35 10q45 12 68 16q47 12 110 41zM705 299 q-51 -23 -97 -37q-33 -8 -94 -24h-6q-4 -2 -10 -2q-25 0 -41 2q31 0 30 2q0 86 41 249h-6q4 27 29 109q61 258 88 354q23 86 33 115q-23 -33 -42.5 -51.5t-27.5 -24.5l2 -2q12 8 37 42t53 97q0 37 -11 56.5t-34 38.5q-37 23 -74 22q-82 -8 -126 -8q-31 0 -52 -2 q-12 -2 -41 -2h-28q-20 -2 -25 -2q-10 0 -22 2h-19q-84 0 -108 -86q0 -10 -2 -23v-18q0 -109 90 -109q-18 10 -31 86q4 -45 4 -120v-21q-2 -12 -2 -24q-6 -90 -66 -330q-4 -20 -6 -51q-4 -41 -8 -58l-12 -6l-4 -2q-2 -6 -4 -18q-4 -14 -7 -23q-23 -84 -28 -156h-37 q10 18 22 58q12 39 25 49q0 -18 -2 -29v-6q-2 -4 -2 -6q-2 -6 -2 -21q-29 -111 -29 -180q0 -78 33 -131q66 -109 207 -108q102 0 246 47q10 4 61 20q49 18 59 23q25 8 58 20q49 18 71 27q-6 -2 -12 -2q-29 0 -48 21.5t-19 56.5q0 -2 -2 -13q-2 -16 -5 -26v-17q-2 -12 -2 -14 q0 -6 2 -20q2 -16 3 -23q23 -82 116 -82h13q8 2 16 2q8 2 57 2q20 0 72 -4h16q29 0 39 -2t23 -2q18 -2 22 -2q45 0 70 17.5t39 54.5q12 39 12 86q0 102 -82 102q20 0 35 -10q-2 4 -2 28v19q2 12 2 22q2 70 61 316q12 57 39 166q2 14 13 55l18 72l16 71q6 43 19 115q0 2 2 10 q10 4 12 6q6 4 10 7v30l5 15q2 8 4 14q0 37 -2 53.5t-13 30.5q-14 31 -38.5 45t-71.5 14q-10 0 -39 -4q-27 -4 -29 -4q-20 -4 -37 -4h-39h-47q-47 0 -78 6q-53 0 -83.5 -21.5t-30.5 -64.5q-6 -25 -6 -57q0 -47 22.5 -77t57.5 -30q-14 0 -31 9v-39v-25q-2 -20 -2 -33 q-4 -88 -68 -368q-4 -14 -12 -50q-8 -27 -10 -36q-6 -8 -15 -21q-2 -6 -4 -18q-2 -16 -6 -27q-2 -6 -6 -29q-6 -20 -8 -28q-6 -19 -51 -31z" />
<glyph unicode="v" horiz-adv-x="1345" d="M535 49q-43 -61 -82 -61q-57 0 -64 61q-6 43 -18 125q-6 31 -19 105l-2 14q-16 78 -24 119q-4 25 -13 67q-6 41 -10 58q-49 270 -80 381q-31 115 -51 147q-14 31 -29 31q-12 0 -20 32q0 10 27 31q35 20 43 21q33 -2 69 -13q35 -10 70 -10q23 0 39 2t53 2q61 0 61 -45v-6 q-2 -4 -2 -6q-8 -74 -8 -174q2 -76 53 -275q14 -47 21 -125q4 -53 14 -104q10 -35 17 -37q10 0 34 33q29 43 58 98l10 17q39 70 63 102q106 150 162 244q47 84 56 118q0 6 2 17q2 6 2 8q0 31 -31 31q-27 0 -27 26q0 23 15 58q10 25 39 24q53 -6 139 -6h82q39 0 39 -24 q0 -14 -17 -43q-37 -70 -110 -168q-90 -133 -226 -346q-2 -4 -22 -35q-41 -68 -60 -97q-27 -43 -83 -133l-19 -30q-108 -168 -151 -234zM602 2q98 150 172 268l35 54q29 45 49 77q18 27 53 86q18 33 29 48q154 240 223 342q82 111 115 176q27 57 27 82q0 106 -121 106h-82 q-82 0 -135 6q-51 0 -78 -17.5t-41 -58.5q-20 -53 -21 -88q0 -109 109 -108q-51 0 -51 51q0 -2 -2 -6q-2 -6 -2 -8q-4 -20 -45 -88q-51 -88 -156 -238q-23 -31 -64 -100l-16 -27q-12 -27 -47 -80l-6 -10q23 2 47 2q23 -2 49 -27q-8 53 -12 93q-6 92 -23 141q-49 186 -51 254 q0 98 8 168q0 2 2 8v8q0 127 -143 127q-43 0 -64 -2q-12 -2 -28 -2q-18 0 -47 8q-41 10 -88 15q-18 0 -93 -35q-63 -70 -63 -109q45 -104 102 -104q-18 0 -43 12q16 -18 45 -86q25 -98 78 -418q6 -25 10 -41q8 -39 13 -53q8 -51 24 -149l2 -15q12 -74 19 -104q4 -23 8 -64 q6 -39 8 -57q16 -133 146 -133q71 0 149 96z" />
<glyph unicode="w" horiz-adv-x="1837" d="M557 455q66 131 178 327q104 180 158 320q31 90 88 90q47 0 49 -82q10 -205 29 -328q18 -152 37 -327q0 -10 8 -17q12 0 22 19q0 2 11 16q12 27 14 31q0 6 31 55q152 252 190 356q25 59 31 95l2 6q4 18 4 26l-2 5v4q-8 33 -33 34q-14 0 -14 25q0 2 2 8q6 10 6 15 q0 8 16 24q14 14 23 14q10 0 33 -4q29 -2 45 -4q43 -6 80 -6q39 0 63 6q29 6 70 13q10 0 18 -25q2 -10 6 -14v8q-53 -59 -63 -62q-10 -4 -33 -32q-14 -18 -76 -117q-6 -8 -8 -12q-16 -25 -88 -142l-125 -205q-76 -143 -135 -264q-61 -125 -141 -256q-37 -63 -78 -63 q-51 0 -62 47h-2q-12 113 -32 323q-8 115 -33 324q-2 16 -8 16q-8 0 -9 -2q-14 -12 -18 -22q-78 -174 -162 -326q-94 -174 -164 -325h2q-31 -39 -77 -39q-55 0 -62 71q-20 143 -29 244q-16 129 -38 244q-49 293 -70 381q-25 96 -37 119q-8 12 -24 12q-12 0 -25 59 q4 14 16 27q14 14 27 14q12 0 37 -4q29 -2 43 -4q53 -4 78 -4q39 0 90 6q16 2 59 6l29 2q6 0 14 2h6q4 0 6 -2q4 -27 5 -59q-2 -14 -15 -19q-23 -8 -45 -36q-10 -14 -16 -41q-4 -23 -8 -82q0 -100 51 -344q10 -57 10 -74q0 -12 6 -43l2 -12q4 -27 12 -27q11 0 25 31z M485 477q39 29 66 29q25 0 49 -25q-6 25 -6 43q0 27 -12 88q-49 233 -50 324q4 51 9 70h-4h-2q61 23 79 96q0 2 2 12v14q0 31 -8 78q-4 10 -19.5 24.5t-47.5 14.5h-6q-12 -2 -19 -2q-16 -2 -55 -6q-16 -2 -37 -4q-10 0 -18 -2q-43 -2 -64 -2q-18 0 -55 4h-15q-12 2 -47 4 q-20 2 -35 4q-45 0 -102 -45q-39 -55 -47 -96q57 -123 92 -123q-18 0 -31 14q10 -12 29 -98q25 -100 68 -377q29 -123 37 -237q20 -160 32 -244q12 -129 125 -129q141 0 258 203h-45q57 119 113 215q92 166 166 338h2q8 2 14 2q-4 -27 -33.5 -35t-48.5 -8q-33 0 -55 38 q25 -201 33 -321q8 -78 22 -211q12 -121 17 -170h8q29 -47 112 -47q90 0 164 115q86 143 146 262q72 143 135 260q43 72 139 229q59 98 70 115q59 96 76 117l-5 -2q-10 -2 -16 -2q-12 -8 -78 -121q12 55 28.5 112.5t30 99.5t21.5 65.5t12 33.5q18 0 54 -2t63 -4 q-45 70 -88 69q-29 -4 -74 -12q-6 -2 -8 -2q-25 -4 -45 -4t-70 4q-20 2 -34 4q-33 4 -47 6q-37 0 -99 -47q-41 -53 -43 -73q0 -4 -6 -15q-2 -6 -2 -8q-4 -18 -4 -35q0 -72 78 -71q-16 0 -27 6h-4q-6 -35 -27 -80q-35 -90 -182 -340q-43 -74 -43 -86l-2 -4q-6 -6 -10 -13 q41 33 88 33q31 -18 31 -45q-18 178 -37 334q-20 158 -29 321q-14 143 -115 144q-119 0 -180 -160q-41 -117 -151 -303q-103 -172 -181 -334z" />
<glyph unicode="x" horiz-adv-x="1480" d="M1073 1161q25 -4 98 -4q10 0 31 -2q18 0 29 -2q16 0 33 2h10q8 0 22 2q12 2 19 2q43 0 43 -22q0 -8 -4 -15q-20 -49 -105 -127q-82 -72 -270 -280q-31 -33 -31 -70q0 -25 8 -39q96 -240 138 -319q51 -96 84 -142q29 -41 49 -51q14 -8 30 -47q0 -10 -22 -29 q-20 -14 -45 -14q-51 8 -133 8h-43q-10 -2 -31 -2q-23 0 -33 -2h-12q-10 -2 -12 -2q-51 0 -52 31q0 2 3 6v6q8 25 8 68q0 45 -4 71q-10 80 -97 254q-6 16 -20 17q-14 0 -31 -17q-172 -172 -209 -237q-31 -57 -30 -86q0 -4 2 -8v-7q8 -25 39 -34q12 0 12 -15q0 -8 -17 -28 q-25 -27 -59 -27l-18 2q-59 4 -91 6q-53 2 -67 2q-37 2 -43 2q-57 0 -123 -8q-6 0 -6 21q0 27 6 30q39 41 107 86q74 49 122 95q74 74 127 129l129 135q10 12 58 61q27 27 26 55q0 14 -4 23q-96 236 -135 301q-37 74 -65 109q-27 25 -31 24q-8 0 -21 51q-2 4 -2 9q0 10 4 16 q6 12 19 12q10 0 16 -2q37 -2 51 -2h35h33q27 0 45 2h66q96 0 96 -31v-10q-2 -12 -2 -20q0 -66 8 -117q6 -51 59 -174q6 -10 15 -10q14 0 41 26q100 100 125 144q18 35 18 53q0 4 -2 10q-12 20 -33 33q-14 6 -14 24q0 14 4 23q6 23 16 41q6 12 21 12h6zM1079 1243q-2 0 -8 2 h-10q-63 0 -92 -55q-12 -18 -23 -51q-8 -18 -8 -52q0 -76 61 -98l-2 2h-2q-2 4 -5 12.5t-3 16.5q0 -4 -8 -12q-23 -39 -111 -127q8 -2 17 -2q31 0 57 -33q-43 100 -49 147q-8 45 -8 105q0 8 2 20v10q0 61 -43 87t-135 26h-70q-16 -2 -41 -2h-33h-35q-10 0 -45 2l-20 2 q-61 0 -92 -53q-14 -20 -15 -57q0 -16 4.5 -29.5t6.5 -20.5q25 -43 51 -67.5t43 -24.5q-12 0 -29 2q25 -33 53 -92q33 -55 127 -280q4 -10 7 -17q-4 4 -5 12q-2 2 -4 2q-96 -162 -186 -311q-82 -10 -125 -12q-49 -45 -111 -84q-72 -45 -114 -92q-25 -8 -30 -26.5t-5 -67.5 q0 -59 22.5 -81t71.5 -22q63 8 117 8q6 0 41 -2q16 0 65 -2q31 -2 91 -6l18 -2q76 0 125 55q37 57 37 82q0 35 -21.5 66t-58.5 31q25 -10 29 -33h-3q0 18 21 47q33 57 195 219q-14 -8 -27 -8q-41 0 -55 35q80 -162 90 -236q4 -23 4 -59q0 -35 -8 -54v-12q-2 -12 -2 -14 q0 -53 33.5 -83t99.5 -30h14q12 2 14 2q10 0 33 2q20 0 31 2h39q78 0 127 -8q33 0 55.5 7.5t46.5 23.5q53 72 53 110q-39 86 -73 103q-8 6 -23 29q-33 45 -76 129q-39 76 -137 317v4q0 57 10 125q162 106 265 164q98 90 122 149q12 23 13 54q0 104 -125 104q-6 0 -19 -2 q-14 -2 -22 -2h-8q-14 -2 -29 -2q-10 2 -31 2q-20 2 -30 2q-72 0 -97 4z" />
<glyph unicode="y" horiz-adv-x="1552" d="M1120 1174q6 -2 19 -3q12 0 18 -2q14 -2 45 -2q33 -2 88 -2q68 0 123 -12q16 -6 17 -18q0 -31 -80 -105q-53 -53 -150 -190q-45 -57 -131 -199q-80 -133 -192 -303q-49 -76 -111 -166q-70 -106 -117 -201q-111 -217 -231 -370q-20 -27 -51 -27h-9q-6 2 -8 2q-12 2 -39 2 h-35q-47 0 -69 -6h-8q-8 -2 -15 -2q-25 0 -41 4q-20 4 -20 33q0 37 4 41q18 18 35 26q16 8 31 17q49 20 55 30q12 12 53 37q59 41 152 152q20 25 34 49q6 14 7 39v16q-2 12 -2 21q-2 10 -3 22q-4 27 -6 41q-4 25 -8 80q-8 57 -12 84l-12 80q-43 303 -78 463q-41 158 -66 203 q-29 57 -51 65q-20 8 -31 53q0 12 27 37q16 16 22 17q4 0 5 -6q47 -8 75 -15q29 -10 76 -10q53 6 84 6q66 0 66 -22v-9q-2 -16 -2 -28q0 -57 12 -197q12 -137 92 -491v-9q2 -4 2 -10l2 -4v-4q2 -2 2 -4t2 -4q8 -33 25 -33q14 0 51 55q221 317 295 473q59 125 59 170 q0 4 -2 11q-6 41 -41 41q-20 0 -20 12t12 33q20 39 51 39zM1128 1255q-76 0 -131 -81q-23 -49 -22 -72q0 -55 22.5 -74.5t79.5 -19.5q-33 0 -39 16v14q0 -33 -51 -135q-63 -137 -289 -461q12 -20 17 -20q31 0 49 -6h4v-13l-2 -14q0 16 -2 29q-80 340 -92 475 q-12 141 -13 203q0 12 3 28v9q0 104 -148 104q-33 0 -88 -6q-25 0 -47 6l-19 6q0 12 -31.5 15.5t-54.5 3.5t-77 -39q-53 -68 -54 -105q25 -100 82 -121q6 -4 8 -26q20 -39 60 -185q31 -133 76 -456q2 -4 8 -27q6 -25 6 -29q2 -18 6 -53q2 -35 4 -51q4 -57 8 -82q2 -12 7 -37 q0 -10 2 -20q0 -8 2 -21v-12t2 -4q-6 -12 -25 -31q-78 -96 -133 -135t-72 -55q-4 -4 -30 -11q-6 -4 -27 -14q-29 -14 -57 -43q-20 -8 -24.5 -24.5t-4.5 -73.5q0 -47 23.5 -78t62.5 -35q23 -6 57 -6q10 0 23 2h12q18 6 57 6h35q23 0 33 -2q2 0 12 -2h11q68 0 116 57 q131 168 240 385q41 84 111 193q12 16 22 35q63 90 90 131q102 152 193 305q76 127 127 193q86 125 141 180q104 117 104 164q0 37 -17 58t-56 38q-72 16 -148 16q-53 0 -86 2q-25 0 -35 2q-6 2 -20 2q-13 0 -21 2z" />
<glyph unicode="z" horiz-adv-x="1533" d="M612 1161q4 -10 107 -10q72 0 151 2h82l256 6q84 2 176 2q27 0 27 -14q0 -12 -35 -47q-121 -119 -264 -279q-27 -31 -113 -131q-86 -98 -133 -153q-121 -135 -180 -193q-78 -78 -168 -192q-6 -12 -12 -23q0 -4 -2 -10q0 -6 12 -6q23 2 70 2q25 -2 73 -2q14 0 152 32 q139 31 285 127q10 8 22 19q18 14 31 24q35 29 53 29q33 0 33 -31v-6q-2 -4 -2 -6q-10 -41 -39 -61q-55 -49 -78 -97q-27 -49 -69 -96q-39 -45 -91 -45q-133 0 -385 4h-18q-131 0 -225.5 -3t-177.5 -7q-25 0 -27 27q0 25 22 51q137 125 269 266q80 84 239 264l11 10 q86 96 180 195q82 84 164 188q12 16 12 27q0 10 -10 10q-6 2 -15 4l-14 4q-18 0 -41 2h-37q-129 0 -213 -30q-104 -39 -147 -80q-39 -35 -70 -55q-23 -16 -43 -17q-14 0 -22 6q-10 6 -17 33q0 25 21 45q35 31 69 80q23 31 64 84q38 49 67 51zM670 1249q-80 -6 -189 -88 q-2 -4 -18 -53q-31 -82 -47 -131l-13 6q-31 16 -49 23q-45 -51 -45 -113q20 -78 56 -94q16 -12 29.5 -15.5t35.5 -3.5q41 0 88 31q35 20 80 63q43 35 121 64q72 25 184 25h31q18 -2 35 -2l14 -5q8 -2 14 -4q-27 0 -43 19.5t-16 52.5q0 10 6 25q-61 -129 -160 -297 q-78 -33 -182 -82q-18 -20 -57 -64q-125 -141 -191 -211q-119 -127 -268 -264q-45 -57 -45 -113q12 -104 111 -104q84 4 177 7t224 3h18q252 -4 385 -4q86 0 152 72q45 47 82 114q18 35 55 70q53 39 70 115q0 2 2 12v10q0 53 -28.5 83t-86.5 30q-35 0 -104 -47 q-14 -12 -31 -25q-12 -10 -20 -16q-133 -86 -254 -113q-123 -31 -134 -30q-47 0 -69 2q-53 0 -78 -2q43 0 58.5 -14.5t15.5 -80.5q2 4 2 6v3q80 100 155 176q49 47 162 174l23 24q47 55 133 154q86 100 113 131q141 158 260 274q59 76 59 105q0 43 -29.5 69.5t-79.5 26.5 q-92 0 -178 -2l-254 -6h-82q-80 -2 -151 -2q-45 0 -49 16z" />
<glyph unicode="{" horiz-adv-x="1001" d="M272 -98q-74 51 -86 266v43q-2 25 -2 45q0 195 41 422q0 55 -53 94q-49 37 -49 78q0 2 2 8v8q12 49 92 99q80 53 92 94q82 303 195 528q117 223 209 273q-90 -133 -170 -340q-86 -211 -154 -467q-12 -43 -90 -92q-78 -47 -90 -93v-6q-2 -4 -2 -6q0 -43 51 -78 q53 -37 53 -78v-6q-2 -4 -2 -6q-45 -252 -55 -457v-51q-2 -41 -2 -47q0 -143 20 -231zM401 -291q-68 162 -67 424q0 6 2 45v51q10 201 55 451q0 2 2 10v10q0 76 -88 146q-16 4 -16 10h2q6 16 51 35q109 74 127 139q59 231 149 459q158 350 343 596q-236 -84 -531 -461 q-113 -223 -199 -543q-8 -20 -59 -47q-109 -78 -129 -157v-13q-2 -10 -2 -14q0 -76 82 -143q20 -8 20 -21q-41 -231 -41 -430q0 -20 2 -47v-43q43 -369 297 -457z" />
<glyph unicode="|" horiz-adv-x="708" d="M502 1640h63l-358 -1595h-64zM436 1722l-395 -1759h231l396 1759h-232z" />
<glyph unicode="}" horiz-adv-x="1005" d="M299 -98q82 121 166 329q78 193 151 457q12 47 91 90q78 39 90 90q0 2 2 6v7q0 35 -51 80t-52 81q0 2 2 7v4q49 270 58 467q0 23 2 61q2 37 2 55q0 121 -21 224q74 -51 86 -273q0 -6 2 -41v-43q0 -199 -45 -444q0 -49 52 -94q49 -45 49 -86v-7q-2 -4 -2 -6 q-12 -51 -93 -94q-80 -47 -92 -94q-80 -289 -192 -510q-111 -215 -205 -266zM41 -332q252 92 537 463q115 225 198 526q6 20 53 43q115 70 134 156q0 2 2 12v11q0 70 -76 147q-25 12 -25 25q45 252 45 452v45q-2 35 -2 41q-41 371 -289 457q59 -193 60 -410q0 -16 -2 -53 q-2 -39 -2 -61q-8 -195 -58 -461v-8q-2 -6 -2 -11q0 -63 80 -143q23 -10 23 -18l-2 -2q-6 -16 -47 -29q-113 -70 -131 -139q-66 -272 -148 -510q-180 -340 -348 -533z" />
<glyph unicode="~" horiz-adv-x="1355" d="M768 1489l-2 6q-12 29 -21 49q-49 100 -104 101q-41 0 -94 -48q-49 -45 -111 -120q2 2 2 8q0 2 2 6v6q2 4 2 8q2 4 2 8t2 9q2 2 3 8q0 2 2 6q61 76 110 121q53 47 94 47q53 0 99 -88v2l2 -6l2 -6q2 -6 6 -15q12 -29 18 -43q47 -98 101 -98q39 0 96 47q49 43 111 121 l-3 -6q0 -6 -2 -8q0 -4 -2 -9v-6l-2 -4q-2 -6 -2 -10q-2 -4 -2 -8t-2 -8q-63 -78 -110 -119q-51 -49 -95 -49q-53 0 -98 88v-2l-2 6zM686 1473q0 -51 76 -250q59 -152 92 -250v170q8 166 16 166q68 0 150 69q59 53 129 140q2 6 6 22t6 23q0 4 2 10l2 4v2q2 4 2 6 q29 49 44.5 96.5t35.5 130.5q35 137 68 222q-221 -309 -389 -475q-27 -27 -43 -27q-12 0 -25 49q-2 6 -6 14q-14 31 -18 39q2 -8 2 -16q-10 0 -34 8t-53.5 39t-53 101.5t-23.5 185.5q-6 -166 -17 -166q-66 0 -149 -68q-61 -57 -129 -141q0 -2 -2 -8q-2 -12 -4 -17 q0 -2 -4 -12q-2 -12 -7 -20q0 -4 -2 -9v-6q-45 -80 -74.5 -145.5t-66.5 -165.5q-45 -115 -80 -184.5t-96 -139.5q305 403 561 666q20 27 39 27q16 0 29 -52q4 -8 10 -26q4 -6 6 -12z" />
<glyph horiz-adv-x="538" d="M139 1399q-16 25 -16 71q0 57 27 136q53 141 159 141q55 0 86 -41q20 -27 21 -64q0 -23 -4 -34q-12 -57 -62 -99q-47 -41 -102 -41q-35 0 -55 15q0 -55 6 -84q10 -25 10 -45q0 -12 -8 -13q-31 1 -62 58zM70 1358q63 -98 131 -98q61 0 75.5 19t14.5 75q0 35 -15 69 q-2 -23 -2 -100q-8 63 -26 63q84 0 155 60q70 57 89 141q6 20 6 55q0 70 -37 115q-55 72 -152 72q-160 0 -237 -195q-31 -94 -31 -164q0 -71 29 -112z" />
<glyph horiz-adv-x="514" d="M305 1399q-53 -57 -88 -58q-6 0 -6 5q0 12 35 53q23 39 43 84q-27 -14 -60 -15q-57 0 -86 41q-20 27 -20 64q0 23 4 35q12 57 59 98q51 41 105 41q100 0 100 -109v-14q-2 -10 -2 -18q-12 -141 -84 -207zM362 1339q94 84 109 263q0 10 2 20v16q0 190 -182 191 q-82 0 -158 -60q-68 -55 -86 -139q-6 -20 -6 -57q0 -68 37 -113q51 -74 151 -74q-68 0 -123 -98q25 59 62 135l10 23q-49 -78 -49 -100q0 -59 18.5 -72.5t69.5 -13.5q53 -1 145 79z" />
<glyph horiz-adv-x="829" d="M430 1399q-18 29 -18 74q0 53 28 133q49 141 160 141q57 0 86 -41q20 -27 21 -64q0 -23 -5 -34q-12 -57 -59 -99q-51 -41 -104 -41q-33 0 -56 15q0 -47 9 -84q10 -31 10 -43q0 -14 -10 -15q-31 1 -62 58zM360 1358q63 -98 132 -98q43 0 67.5 23.5t24.5 72.5q0 23 -13 65 v-8q-6 -45 -6 -78q-12 51 -26 51q82 0 157 60q68 59 86 141q6 20 6 55q0 68 -36 113q-51 74 -152 74q-164 0 -238 -197q-33 -98 -32 -159q-1 -72 30 -115zM139 1399q-16 25 -16 71q0 57 27 136q53 141 159 141q55 0 86 -41q20 -27 21 -64q0 -23 -4 -34q-12 -57 -62 -99 q-47 -41 -102 -41q-35 0 -55 15q0 -55 6 -84q10 -25 10 -45q0 -12 -8 -13q-31 1 -62 58zM70 1358q63 -98 131 -98q61 0 75.5 19t14.5 75q0 35 -15 69q-2 -23 -2 -100q-8 63 -26 63q84 0 155 60q70 57 89 141q6 20 6 55q0 70 -37 115q-55 72 -152 72q-160 0 -237 -195 q-31 -94 -31 -164q0 -71 29 -112z" />
<glyph horiz-adv-x="802" d="M305 1399q-53 -57 -88 -58q-6 0 -6 5q0 12 35 53q23 39 43 84q-27 -14 -60 -15q-57 0 -86 41q-20 27 -20 64q0 23 4 35q12 57 59 98q51 41 105 41q100 0 100 -109v-14q-2 -10 -2 -18q-12 -141 -84 -207zM362 1339q94 84 109 263q0 10 2 20v16q0 190 -182 191 q-82 0 -158 -60q-68 -55 -86 -139q-6 -20 -6 -57q0 -68 37 -113q51 -74 151 -74q-68 0 -123 -98q25 59 62 135l10 23q-49 -78 -49 -100q0 -59 18.5 -72.5t69.5 -13.5q53 -1 145 79zM596 1399q-53 -57 -86 -58q-6 0 -6 5q0 10 33 53q16 29 45 84q-29 -14 -64 -15 q-53 0 -84 41q-20 27 -20 64q0 23 4 35q12 59 61 98q47 41 101 41q100 0 100 -109v-14q-2 -10 -2 -18q-12 -139 -82 -207zM653 1341q92 82 107 261q0 10 2 20v16q0 190 -182 191q-82 0 -154 -60q-70 -53 -88 -139q-6 -20 -6 -57q0 -68 37 -113q57 -74 149 -74 q-70 0 -127 -90q55 109 78 148q-47 -80 -47 -98q0 -59 18.5 -72.5t69.5 -13.5q53 -1 143 81z" />
<glyph unicode="&#xa3;" horiz-adv-x="1755" d="M446 778h-69l-6 64h78q0 59 -5 170v22q-2 16 -2 19q0 59 17 121q20 92 94 221h2q86 135 244 227t344 92t317 -80q131 -84 162 -217q10 -31 10 -59q0 -35 -6 -53q-23 -90 -94 -154q-70 -63 -152 -64q-82 0 -125 64q-29 45 -28 98q0 37 6 56q16 74 70 133q31 31 30 41 q0 4 -43 24q-51 23 -102 23q-72 0 -109 -6q-39 -8 -106 -56q-78 -47 -119 -108q-66 -86 -88 -182q-14 -68 -14 -119q0 -4 2 -21v-20q4 -57 8 -172h278l7 -64h-197h-90q0 -59 -10 -100q-20 -94 -68 -186q-57 -123 -84 -185q-8 -18 -8 -37q0 -47 74 -47q215 4 364 35 q158 31 264 150q43 59 117 59q29 0 35 -27q0 -31 -14 -51q-25 -33 -74 -88l-2 -2q-45 -45 -72 -88q-12 -18 -31 -49l-20 -33q-20 -39 -49 -84q-27 -43 -84 -43q-127 8 -242 11t-260 3q-209 -2 -442 -18q-18 0 -27 20q0 4 -2 11q-2 6 -2 8q0 14 8 20q102 152 182 301 q84 160 121 320q10 47 12 100zM360 696q-2 -2 -6 -2q-33 -182 -112 -375q-70 -98 -170 -204q-20 -14 -25.5 -31.5t-5.5 -46.5q0 -6 2 -17q2 -12 2 -18q35 -86 111 -86q233 14 440 18q145 0 259 -3t241 -11q104 0 155 80q8 12 15 25q25 37 37 63q2 2 26 43q12 20 23 37 q29 41 61 74q6 8 23 24q41 47 61 76q29 43 29 107q-10 53 -38 76.5t-79 23.5q-113 0 -180 -90q-90 -96 -217 -121q-147 -29 -348 -33q8 0 8 -35q0 2 2 4q41 94 82 183q51 104 73 202q12 12 13 37h8h287l-23 228h-272q-2 20 -2 30q-2 39 -4 62v20q-2 14 -2 19q0 35 12 100 q20 84 76 154q31 47 96 86q53 39 78 45q41 4 92 4q37 0 67 -14q-2 25 -2 36q-2 10 -2 13q0 6 -8 16q-68 -74 -90 -168q-8 -27 -8 -78q0 -78 43 -143q68 -100 192 -100q115 0 207 84q90 78 119 192q8 27 8 76q0 45 -12 82q-35 162 -199 264q-150 92 -360 92q-209 0 -385 -102 q-160 -88 -248 -217h-4q-100 -166 -127 -285q-18 -68 -19 -139q0 -2 2 -21v-22q4 -57 5 -86h-86l22 -228h57z" />
<glyph unicode="&#xad;" d="M154 578h850l-15 -58h-848zM88 659l-47 -221h1012l55 221h-1020z" />
<glyph unicode="&#x2000;" horiz-adv-x="1047" />
<glyph unicode="&#x2001;" horiz-adv-x="2095" />
<glyph unicode="&#x2002;" horiz-adv-x="1047" />
<glyph unicode="&#x2003;" horiz-adv-x="2095" />
<glyph unicode="&#x2004;" horiz-adv-x="698" />
<glyph unicode="&#x2005;" horiz-adv-x="523" />
<glyph unicode="&#x2006;" horiz-adv-x="349" />
<glyph unicode="&#x2007;" horiz-adv-x="349" />
<glyph unicode="&#x2008;" horiz-adv-x="261" />
<glyph unicode="&#x2009;" horiz-adv-x="419" />
<glyph unicode="&#x200a;" horiz-adv-x="116" />
<glyph unicode="&#x2010;" d="M154 578h850l-15 -58h-848zM88 659l-47 -221h1012l55 221h-1020z" />
<glyph unicode="&#x2011;" d="M154 578h850l-15 -58h-848zM88 659l-47 -221h1012l55 221h-1020z" />
<glyph unicode="&#x2012;" d="M154 578h850l-15 -58h-848zM88 659l-47 -221h1012l55 221h-1020z" />
<glyph unicode="&#x2013;" horiz-adv-x="1105" d="M149 578h816l-14 -58h-814zM86 659l-45 -221h971l53 221h-979z" />
<glyph unicode="&#x2014;" horiz-adv-x="2129" d="M258 578h1631l-28 -58h-1628zM131 659l-90 -221h1942l106 221h-1958z" />
<glyph unicode="&#x202f;" horiz-adv-x="419" />
<glyph unicode="&#x205f;" horiz-adv-x="523" />
<glyph unicode="&#x25fc;" horiz-adv-x="1249" d="M0 1249h1249v-1249h-1249v1249z" />
</font>
</defs>
</svg>
