<?xml version="1.0" standalone="no"?>
<!DOCTYPE svg PUBLIC "-//W3C//DTD SVG 1.1//EN" "http://www.w3.org/Graphics/SVG/1.1/DTD/svg11.dtd" >
<svg xmlns="http://www.w3.org/2000/svg">
<metadata></metadata>
<defs>
<font id="boltonitalicregular" horiz-adv-x="944" >
<font-face units-per-em="2048" ascent="1638" descent="-410" />
<missing-glyph horiz-adv-x="819" />
<glyph horiz-adv-x="0" />
<glyph horiz-adv-x="682" />
<glyph unicode=" "  horiz-adv-x="819" />
<glyph unicode="&#x09;" horiz-adv-x="819" />
<glyph unicode="&#xa0;" horiz-adv-x="819" />
<glyph unicode="!" horiz-adv-x="636" d="M41 106q0 -35 20 -65q29 -41 84 -41t103 41q49 41 61 98q4 12 4 33q0 35 -20 66q-31 41 -84 41q-55 0 -103 -41q-45 -37 -61 -99q-4 -10 -4 -33zM145 328q68 35 82 39q16 0 76 -35q49 215 103 387q71 242 112 389q78 301 78 467q-2 156 -53 158q-49 0 -125 -156 q-76 -154 -137 -469z" />
<glyph unicode="&#x22;" horiz-adv-x="303" d="M41 1522q0 -39 22 -39q37 0 58 94l29 129h-72l-29 -129l-2 -12q-6 -31 -6 -43zM154 1520q0 -37 22 -37q37 0 57 94l29 129h-72l-28 -129q-8 -25 -8 -57z" />
<glyph unicode="#" horiz-adv-x="991" d="M41 418h276l-118 -324h57l119 324h147l-116 -324h55l119 324h309l12 57h-303l55 154h283l14 57h-276l125 342h-58l-125 -342h-147l125 342h-59l-123 -342h-312l-12 -57h303l-53 -154h-285zM393 475l53 154h152l-55 -154h-150z" />
<glyph unicode="$" horiz-adv-x="1107" d="M41 186q0 -23 14 -30q94 -111 314 -146l-72 -225h43l72 219q27 -2 90 -2q158 0 340 115q180 115 217 295q8 33 8 94q0 150 -104 207q-137 78 -287 114l65 207q66 -23 127 -67q63 -45 88 -99q8 -14 19 -28q12 -16 31 -17q43 0 45 49q-4 53 -11 78q-8 33 -8 94q0 27 -33 41 q-35 12 -51 23q-61 31 -170 45l76 238h-45l-72 -234q-4 0 -18 2q-23 4 -43 6l-2 -2q-20 4 -62 4q-109 0 -217 -45q-131 -55 -166 -215q-10 -35 -10 -61q0 -45 25 -86q43 -63 121 -86q45 -27 88 -39q70 -20 106 -31l-147 -461q-106 35 -148 115q-47 80 -55 156q-4 18 -8 65 q0 45 -49 45q-39 0 -50 -47q-2 -12 -6 -31q-6 -33 -8 -40q-8 -29 -20 -91q-6 -23 -15 -63l-6 -25q-6 -16 -6 -41zM438 961q0 2 2 6v6q10 49 62 63q53 16 116 23q39 0 82 -12l-67 -211l-39 10q-31 8 -43 12q-43 16 -80 49q-33 25 -33 54zM453 133l147 461q76 -20 119 -37 q59 -41 84 -84q16 -29 16 -70q0 -25 -6 -53q-25 -102 -113 -164q-82 -57 -157 -57q6 0 6 2q-6 -2 -17 -2q-27 0 -57 2q-14 2 -22 2z" />
<glyph unicode="%" horiz-adv-x="1280" d="M41 0h39l1137 1133q2 0 2 2q4 0 6 2v4l14 16h-10v4q0 -2 -4 -2l-6 -2h-21l-8 -10q-156 -55 -270 -55q-136 -1 -279 69q0 -2 -2 -4q-45 16 -90 17q-115 0 -217 -84q-100 -84 -125 -201q-8 -25 -8 -70q0 -74 43 -133q61 -84 180 -84q113 0 215 84t129 203q8 45 8 65 q0 86 -55 148q109 -35 194 -35q104 0 242 45zM352 793q0 45 13 94q23 100 61 170q43 71 113 71t77 -69q0 -4 2 -21v-22q0 -63 -14 -129q-18 -104 -72 -172q-47 -66 -100 -66q-47 4 -70 72q-10 37 -10 72zM489 209q0 -74 46 -131q66 -84 178 -84q115 0 217 84q98 82 127 198 q6 23 6 64q0 80 -43 137q-65 84 -178 84q-115 0 -217 -84q-98 -80 -127 -201q-8 -23 -9 -67zM645 182q0 51 10 94q20 94 64 170q42 70 112 70t78 -67q0 -2 2 -23v-25q0 -53 -12 -125q-20 -100 -74 -172q-45 -66 -100 -65q-49 4 -72 72q-8 23 -8 71z" />
<glyph unicode="&#x26;" horiz-adv-x="1280" d="M41 467q0 -4 2 -23v-24q23 -238 217 -344q115 -66 248 -66q90 0 201 33q4 0 8 2h6q20 0 27 -16q8 -27 41 -27q104 12 184 12q94 0 194 -12q27 0 27 14q0 2 -2 7q-2 4 -2 6q-25 61 -47 61q-27 0 -84 88v6l-2 4q0 14 24 33q45 33 84 68q35 29 35 47q0 63 10 119 q14 84 25 118q0 2 2 7v6q0 14 -14 14q-4 0 -8 -2q-8 -2 -13 -2h-2q-33 -8 -39 -45l-2 -23q-45 -98 -133 -194q-20 -25 -31 -25l-6 4q-8 10 -14 27q-18 51 -78 195l-4 10q-57 131 -115 295q-8 20 -28 80l-17 43q-20 59 -37 110v4l-2 2q0 4 -2 8v7q0 25 33 30q33 8 96 9 q66 0 123 -15q102 -23 176 -90q16 -23 39 -22l13 4q20 6 20 22q0 12 -10 29q-41 55 -64 117q-8 23 -18 36q-10 12 -47 15q-43 10 -129 10q-123 0 -228 -35q-8 -4 -20 -4q-27 0 -39 35q-8 23 -18 49q-6 18 -15 47q-2 10 -4 33q-6 25 -8 43v18q-2 14 -2 17q0 20 6 33 q18 31 53 47q8 6 27 6q23 0 49 -23q37 -35 47 -63l2 -6v-9q0 -10 -6 -26q-20 -37 -20 -58q0 -2 2 -10t2 -10q0 -16 4 -20q6 -16 22 -17q10 0 23 6q33 14 45 43q14 53 59 88t78 80q23 29 23 60q0 4 -2 12q-2 6 -2 10q-2 6 -3 14q-23 61 -65 91q-45 28 -94 28q-14 4 -43 4 q-41 0 -84 -12q-205 -57 -271 -201q-35 -86 -34 -182q0 -82 20 -166q6 -12 6 -31q0 -35 -33 -57q-166 -104 -270 -289q-92 -162 -92 -317zM330 588q0 78 16 166q29 121 96 204q23 27 35 35q4 0 4 2q11 1 21 -26q10 -33 24 -66l25 -74q94 -276 133 -409q41 -139 61 -219 q0 -2 3 -8v-11q0 -35 -43 -41h-19q-16 -2 -20 -2q-119 0 -209 86q-106 102 -123 279q-4 29 -4 84z" />
<glyph unicode="'" horiz-adv-x="190" d="M41 1522q0 -39 22 -39q37 0 58 94l29 129h-72l-29 -129l-2 -12q-6 -31 -6 -43z" />
<glyph unicode="(" horiz-adv-x="606" d="M41 238q4 -277 84 -336q-18 88 -19 225q0 82 7 180q18 254 90 574q72 317 168 571q96 252 194 408q-109 -63 -235 -336q-125 -274 -209 -643q-80 -356 -80 -643z" />
<glyph unicode=")" horiz-adv-x="608" d="M41 -80q109 59 238 338q127 268 210 643q39 174 58.5 329.5t19.5 313.5q-2 274 -86 336q18 -94 19 -229q0 -80 -6 -178q-18 -268 -88 -572q-72 -319 -168 -571q-97 -256 -197 -410z" />
<glyph unicode="*" horiz-adv-x="411" d="M41 1370l4 -2q16 0 127 82q-16 -88 -16 -117q0 -20 6 -20q16 0 55 137q63 -82 86 -82l6 2l2 4q0 12 -14 41q-25 47 -57 92q41 35 98 92q33 33 33 46l-4 2q-23 0 -123 -82q12 80 12 114q0 23 -6 23q-16 0 -53 -139q-72 84 -88 84l-5 -2q-4 0 -4 -9q0 -10 15 -37 q14 -31 57 -92q-70 -59 -98 -90q-33 -33 -33 -47z" />
<glyph unicode="+" d="M41 520h397l-90 -405h55l91 405h395l14 58h-395l90 407h-55l-92 -407h-398z" />
<glyph unicode="," horiz-adv-x="348" d="M41 102q0 -37 20 -63q29 -41 82 -41q4 0 19 -18q4 -4 4 -15q0 -25 -37 -82q-29 -47 -29 -55l2 -2q35 0 88 57q37 37 70 109q35 72 45 143q0 8 2 19v14q0 109 -100 108q-53 0 -105 -40q-45 -43 -57 -99q-4 -12 -4 -35z" />
<glyph unicode="-" d="M41 520h848l14 58h-850z" />
<glyph unicode="." horiz-adv-x="354" d="M41 106q0 -35 20 -65q29 -41 84 -41t103 41q49 41 61 98q4 12 4 33q0 35 -20 66q-31 41 -84 41q-55 0 -103 -41q-45 -37 -61 -99q-4 -10 -4 -33z" />
<glyph unicode="/" horiz-adv-x="1085" d="M41 45h63l940 1595h-65z" />
<glyph unicode="0" horiz-adv-x="1431" d="M41 623q0 -207 96 -371q147 -252 383 -252t492 231q254 229 346 627q33 137 33 262q0 211 -103 363q-164 231 -383 231q-223 0 -487 -252q-268 -250 -348 -604q-29 -127 -29 -235zM309 522q0 152 49 332q78 299 207 518q129 213 303 215q178 0 224 -203q16 -63 16 -157 q0 -164 -57 -373q-94 -336 -226 -526q-135 -197 -286 -209q-156 0 -207 211q-23 94 -23 192z" />
<glyph unicode="1" horiz-adv-x="849" d="M41 2q0 -12 31 -12q51 6 118 12h19q74 4 96 4q66 0 107 -2q45 -2 104 -10q33 0 39 26q0 2 2 11v8q0 27 -14 27l-6 -3l-9 -2q-20 0 -32 35q-10 25 -11 76q0 45 7 109q16 158 96 501q6 25 24 105q8 33 17 69q25 104 55 244l31 131l26 107q6 23 27 110q10 39 12 49 q18 29 27 58q0 4 2 10v6q0 29 -23 29q-39 0 -57 -8q-12 -6 -33 -33l-30 -41q-57 -72 -78 -96q-43 -51 -115 -121q-53 -53 -154 -109q-82 -47 -149 -96q-16 -12 -29 -35q-10 -10 -10 -22q0 -18 25 -37q6 -8 30 -8h11q8 2 12 2q18 4 27 10q4 4 12 8l4 2q37 27 70 43 q32 15 71 35q6 4 21 4h10q6 -2 8 -2q16 -10 17 -31q-8 -37 -19 -84q-10 -47 -18 -84q-14 -57 -39 -168q-74 -356 -123 -501q-51 -152 -84 -197q-33 -47 -62 -51q-31 -4 -57 -64q-6 -6 -6 -14z" />
<glyph unicode="2" horiz-adv-x="1464" d="M41 35q0 -2 2 -6q2 -8 2 -11q6 -20 23 -20q205 16 389 18q127 0 228 -3t212 -11q49 0 76 43q29 45 47 84q27 51 45 82q33 53 65 88q39 41 70 90q14 23 14 39v6l-2 6q-1 27 -26 27q-63 0 -107 -59q-113 -141 -286 -162q-172 -20 -406 -25q-14 0 -22 8l-3 7q0 8 19 28 q115 121 276 209q109 59 318 186q158 96 276 211q119 113 156 281q16 72 16 139q0 57 -8 105h-2q-25 135 -141 227q-113 92 -301 92q-238 0 -439 -129q-199 -129 -245 -334q-12 -57 -13 -108q0 -162 123 -258q16 -12 23 -15q4 -2 16 -10q41 -20 103 -20q193 0 274 118 q4 8 6 15h2q6 10 6 16q0 4 2 12v9q0 37 -38 37q-20 0 -37 -17q-82 -57 -170 -57q-39 0 -68 26q-31 25 -43 52h-2q-12 37 -12 79q0 35 10 91q25 115 139 211q113 94 232 94q72 0 104 -6q35 -10 84 -56q55 -45 70 -108q16 -49 16 -103q0 -51 -16 -116q-25 -78 -80 -162 q-51 -76 -111 -141q-53 -47 -112 -95q-66 -51 -117 -84q-10 -6 -14 -8q-41 -20 -58 -33l-2 -2q-199 -121 -319 -247q-129 -139 -236 -308l-2 -4q-6 -12 -6 -18z" />
<glyph unicode="3" horiz-adv-x="1538" d="M41 371q0 -123 92 -232q121 -141 350 -141q111 0 248 53q129 51 256 144q121 90 215 202q90 113 125 234q29 106 29 211q0 106 -29 186q-57 170 -233 223q-27 6 -27 19l2 8q10 20 21 31q84 78 172 153q35 27 69 58q90 72 119 94q37 33 45 63q0 4 2 9v6q0 18 -20 18 q-203 -12 -408 -12q-115 0 -208 3t-199 11q-16 0 -37 -16q-2 -4 -9 -10q-14 -16 -18 -23q-90 -127 -199 -227q-25 -20 -37 -60q-4 -8 -4 -20q0 -18 21 -19q68 0 129 74q66 68 244 86q66 8 180 8q70 0 125 -6q23 -2 30 -6l3 -2q0 -8 -27 -35q-113 -104 -197 -174 q-135 -111 -207 -162q-37 -27 -43 -65q0 -4 -2 -11v-6q0 -14 19 -14q37 0 72 14q37 16 73 17q164 0 242 -133q41 -72 41 -156q0 -72 -33 -166q-43 -178 -186 -317q-139 -143 -316 -144q-131 0 -198 97q-47 66 -47 147q0 31 6 63q12 106 65 162q25 33 88 62q61 29 68 61 q2 2 2 10q2 8 2 11q0 20 -4 20q-20 14 -80 14q-53 -2 -96 -22q-229 -92 -283 -320q-8 -25 -8 -73z" />
<glyph unicode="4" horiz-adv-x="1400" d="M41 371q0 -33 45 -39h684q25 0 37 -2q10 0 10 -19q0 -18 -4 -30q-25 -100 -43 -131t-39 -39q-29 -14 -47 -21q-29 -12 -72 -74q0 -4 -2 -4q0 -6 6 -12q10 -10 21 -10q49 6 117 12l24 2q63 2 88 2q53 0 103 -8q55 -6 98 -12q33 0 39 26q0 6 2 17v8q0 18 -6 24q-2 2 -6 7 q-10 10 -17 16q-16 16 -24 53q-4 10 -4 43q0 37 6 94q0 14 18 35q16 23 47 23h62q55 0 67 55l15 64q0 2 2 10v8q0 35 -45 35h-72q-51 0 -51 24v7q4 31 8 47q10 59 25 118l14 58q8 39 18 82q23 88 49 200q27 113 50 201q39 166 96 401q-4 0 -4 9v8q2 8 2 14q0 37 -33 37 q-70 -2 -119 -72q-252 -303 -532 -594q-283 -288 -568 -573q-41 -33 -61 -82q-4 -6 -4 -18zM332 506q4 18 18 33q154 174 305 327q163 162 310 334l36 37q6 8 15 8q6 0 6 -14t-6 -39q-10 -39 -21 -90q-12 -51 -22 -90q-6 -23 -19 -82q-14 -63 -22 -101q-6 -35 -10 -51 q-14 -74 -19 -92q-10 -59 -24 -125q-14 -55 -43 -55q-20 -2 -39 -2l-435 -10h-6q-6 -2 -8 -2q-16 0 -16 14z" />
<glyph unicode="5" horiz-adv-x="1456" d="M41 266q0 -133 104 -205q139 -94 373 -94q248 0 479 193q236 193 279 450q25 98 24 183q0 168 -92 284q-141 176 -387 178q-129 -6 -250 -47q-10 -4 -24 -4q-16 0 -17 13q2 6 2 10q8 16 15 49q2 12 8 41l2 10q0 2 2 12q6 18 6 25l6 20q4 20 4 21q0 16 3 29q4 16 40 18 q74 6 218 6q133 0 286 -10q8 -4 15 -4h2q27 0 47 2q29 4 59 45q53 78 146 164q25 25 24 37q0 2 -2 6t-2 6q-10 16 -43 16q-27 -10 -45 -22t-43 -19q-100 -14 -225 -14q-20 0 -62 2q-43 2 -65 2q-150 10 -367 29v-2q-8 0 -12 2t-8 2q-20 0 -31 -8q-12 -8 -16 -27 q-16 -86 -25 -164q-16 -111 -29 -166q-10 -49 -39 -145l-6 -19q-29 -88 -49 -161q-2 -4 -8 -35q-8 -27 -12 -47v-8q-2 -8 -2 -11q0 -39 45 -39q16 0 55 27q37 31 125 78q61 35 141 35q33 0 70 -6q139 -23 209 -138q45 -72 45 -180q0 -49 -15 -131q-43 -197 -168 -313 q-127 -119 -274 -140q-16 -2 -51 -2q-125 0 -191 84q-47 59 -47 140q0 35 8 65q43 188 220 234h2q33 4 43 47q0 4 2 10v6q0 31 -35 31q-10 0 -25 2h-20q-131 0 -238 -72q-123 -84 -170 -272q-14 -55 -14 -109z" />
<glyph unicode="6" horiz-adv-x="1318" d="M41 487q0 -197 100 -321q154 -195 447 -195v2q4 0 6 -2h4q182 2 391 179q211 172 266 419q23 84 23 172q0 164 -96 267q-137 150 -385 149q-35 0 -47 -14q-172 -182 -351 -316q-12 -12 -28 -12q-12 0 -13 14q47 180 148 312q96 129 213 227q115 96 221 154l16 8 q123 66 160 80q45 0 70 28q8 12 8 19q0 2 2 6v6q0 35 -59 35q-147 0 -324 -96q-174 -94 -332 -240q-162 -150 -268 -311q-111 -164 -139 -318q-33 -147 -33 -252zM324 453q0 27 6 51q29 145 155 270q129 125 271 125q141 0 211 -117q49 -76 49 -176q0 -47 -12 -102 q-37 -162 -162 -281q-126 -117 -267 -117q-139 0 -202 156q-49 115 -49 191z" />
<glyph unicode="7" horiz-adv-x="1351" d="M41 25l2 -7v-6q0 -14 25 -14q39 10 112 10q68 0 111 -10q4 0 8 -2h6q41 0 60 49q178 432 426 840q256 416 507 776q12 18 13 31q0 18 -31 18q-27 0 -35 -2q-63 -4 -192 -4q-31 0 -95 2q-63 2 -96 2q-127 6 -377 18h-4h-4q-35 0 -69 -20q-43 -23 -58 -55q-37 -72 -90 -146 q-61 -86 -113 -145q-18 -20 -18 -41l2 -6v-6q6 -23 35 -23q70 0 125 76q82 106 303 121q63 6 176 6q98 0 195 -10q33 0 32 -23q0 -14 -10 -27q-215 -299 -498 -684q-260 -348 -442 -698q-6 -6 -6 -20z" />
<glyph unicode="8" horiz-adv-x="1323" d="M41 381q0 -152 98 -248q139 -135 377 -135q236 0 453 158q219 158 264 364q14 59 14 125q0 92 -33 172q-55 135 -182 207q-35 18 -35 31q0 4 9 10l30 20t19 13q78 59 141 123q61 66 80 145q6 23 6 64q0 104 -80 186q-102 106 -297 106q-193 0 -352 -110 q-158 -113 -195 -266q-14 -70 -14 -127q0 -49 10 -76q20 -66 54 -103q35 -33 55 -43q10 -4 10 -12q0 -10 -14 -18q-129 -82 -250 -201q-119 -117 -154 -262q-14 -59 -14 -123zM281 399q0 35 6 72q23 150 127 299q102 150 204 150q18 0 87 -29q70 -31 137 -90 q68 -55 112 -144q25 -49 25 -104q0 -39 -12 -82q-70 -211 -181 -285q-110 -74 -243 -84q-135 0 -205 107q-57 84 -57 190zM580 1358q0 6 2 16t2 15q20 94 112 165q85 66 185 66q74 -2 147 -68q53 -51 53 -120q0 -29 -4 -43q-23 -96 -78 -175q-55 -78 -127 -90q-82 0 -196 84 q-96 72 -96 150z" />
<glyph unicode="9" horiz-adv-x="1320" d="M41 31q0 -35 61 -35q150 0 334 94t359 240q174 150 297 313q125 168 149 315q39 156 39 287q0 174 -74 287q-125 190 -415 192q-176 0 -416 -174q-238 -174 -275 -448q-20 -92 -20 -156q0 -170 117 -278q168 -152 364 -152q31 0 45 14q47 86 88 132q39 39 152 112 q12 12 28 12q12 0 13 -14q-47 -141 -148 -254q-106 -119 -217 -201q-104 -78 -223 -143q-115 -61 -174 -86h-2q-55 -14 -70 -29q-8 -12 -10 -18v-4q-2 -4 -2 -6zM342 1120q0 4 2 25v24q6 186 135 306q106 96 238 96q32 0 63 -6q170 -29 195 -181q20 -109 20 -192v-25 q-2 -20 -2 -22q-4 -33 -8 -90q-6 -47 -27 -76q-31 -47 -143 -109q-111 -61 -209 -63q-264 0 -264 313z" />
<glyph unicode=":" horiz-adv-x="552" d="M41 106q0 -35 20 -65q29 -41 84 -41t103 41q49 41 61 98q4 12 4 33q0 35 -20 66q-31 41 -84 41q-55 0 -103 -41q-45 -37 -61 -99q-4 -10 -4 -33zM240 987q0 -37 20 -63q29 -41 84 -41q51 0 102 41q49 41 62 98q4 10 4 31q0 33 -20 67q-31 41 -84 41q-55 0 -103 -41 q-49 -43 -61 -98q-4 -12 -4 -35z" />
<glyph unicode=";" horiz-adv-x="550" d="M41 102q0 -37 20 -63q29 -41 82 -41q4 0 19 -18q4 -4 4 -15q0 -25 -37 -82q-29 -47 -29 -55l2 -2q35 0 88 57q37 37 70 109q35 72 45 143q0 8 2 19v14q0 109 -100 108q-53 0 -105 -40q-45 -43 -57 -99q-4 -12 -4 -35zM240 983q0 -37 20 -63q29 -41 82 -41q55 0 102 41 q49 41 62 98q4 12 4 35q0 37 -21 63q-31 41 -86 41q-51 0 -102 -41q-45 -39 -57 -98q-4 -12 -4 -35z" />
<glyph unicode="=" horiz-adv-x="991" d="M41 418h848l12 57h-848zM88 629h848l14 57h-850z" />
<glyph unicode="?" horiz-adv-x="1132" d="M41 106q0 -37 22 -65q31 -41 84 -41t105 41q45 37 61 98q4 10 4 33q0 37 -22 66q-29 41 -84 41q-53 0 -105 -41q-49 -39 -61 -99q-4 -10 -4 -33zM68 1346q0 -43 26 -84q37 -53 111 -54q70 0 135 54q66 53 80 129q6 16 6 43q0 36 -18 67q66 41 149 60q20 6 55 6 q51 0 93 -23q66 -33 86 -129q6 -16 6 -57q0 -88 -45 -221q-68 -209 -154 -275q-82 -61 -174 -104q-90 -41 -162 -117t-112 -313q68 35 81 39q12 0 72 -35q55 240 148 295q96 55 200 80q106 20 215 96q109 72 195 348q31 102 31 190q0 119 -56 211q-98 162 -350 162 q-25 8 -80 8q-119 0 -276 -63q-217 -90 -256 -268q-6 -16 -6 -45z" />
<glyph unicode="@" horiz-adv-x="1400" d="M41 594q0 -193 76 -342q123 -252 379 -252q129 0 254 68q121 61 239 182q-147 0 -237 -57q-94 -57 -226 -58q-215 0 -293 213q-41 117 -40 252q0 119 30 256q68 295 240 508q172 211 387 211t301 -211q49 -119 49 -262q0 -113 -31 -246q-32 -150 -104 -283l-2 -2 q-2 0 -2 -2q0 -4 -2 -6l-4 -8q-2 -6 -4 -8h2q-53 -109 -90 -109q-25 0 -35 43q-4 10 -4 35q0 18 6 57q0 4 2 13q2 14 10 51q2 27 12 57q2 8 17 70q23 98 30 135q18 72 25 105q2 4 6 14q2 4 6 14q0 6 6 21q0 10 -2 18q-70 53 -147 78q-84 23 -158 22q-150 0 -319 -114l-2 -4 q-6 -12 -6 -19q0 -8 10 -22q18 -20 31 -21q8 0 14 6q104 86 248 86q41 -2 92 -12q53 -8 61 -37q4 -10 4 -30v-11q-2 -8 -2 -12q-8 -47 -63 -47q-18 0 -27 2q-10 2 -28 2q-170 0 -312 -59q-135 -57 -182 -265q-8 -25 -8 -67q0 -104 98 -146q63 -27 127 -26q72 0 164 33 q43 14 78 14q29 0 49 -12q35 -23 72 -39q35 -41 100 -56q74 0 141 66q72 70 119 154q51 86 88 180q33 78 47 141q29 121 29 244q0 201 -86 360q-139 250 -393 250t-492 -250t-317 -604q-31 -137 -31 -262zM440 596q0 20 6 45q20 92 105 164q82 70 254 72l4 -3q12 -2 18 -6 q8 0 9 -18q0 -4 -2 -10q-2 -8 -3 -13q-6 -18 -24 -79q-8 -39 -19 -74q-6 -23 -14 -60q-14 -61 -47 -79q-6 -6 -18 -13q-12 -10 -21 -12q-74 -39 -131 -39q-41 0 -70 23q-47 41 -47 102z" />
<glyph unicode="A" horiz-adv-x="1634" d="M41 16q0 -12 29 -12q61 2 100 6q10 2 25 2q14 0 24 2q16 2 49 2q92 4 127 29q35 20 47 125q2 45 82 180q14 27 37 27h684q27 0 33 -41q6 -53 6 -123q0 -10 -2 -25v-14q-14 -57 -14 -98t18 -51q18 -12 76 -13q10 0 31 2q29 2 43 2q12 2 41 2q18 0 43 -4q10 -4 24 -4 q49 0 49 62q0 6 -2 18q-2 14 -2 21q-25 129 -51 233q-29 121 -45 258l-18 129q-4 25 -13 72q-6 41 -10 61l-115 795q-10 41 -22 41q-29 -4 -49 -4q-16 0 -21 -2h-8h-8h-10h-9h-10h-8q-115 0 -154 -17q-33 -16 -32 -45q4 -29 24 -67q12 -31 12 -68v-12q-2 -10 -2 -12 q-10 -70 -112 -211q-70 -94 -121 -181q-33 -51 -74 -116q-53 -86 -82 -134q-18 -29 -80 -122l-26 -43q-25 -35 -66 -99q0 -2 -28 -43q-84 -125 -142 -198q-115 -156 -157 -197q-43 -41 -58 -41q-16 0 -45 -49q-8 -10 -8 -23zM631 528l2 9q4 20 12 34q18 41 72 123 q29 45 45 70q6 10 22 35q2 6 13 20q8 10 12 19q8 14 14 22q16 27 23 35q12 16 14 23q18 29 25 36l37 62q12 18 36 59q25 41 37 60q10 18 35 55q6 10 21 33l12 18q20 33 31 47q12 23 24 23t19 -25q23 -78 39 -201q8 -78 14 -120q2 -16 6 -58q6 -47 8 -76q4 -51 10 -73 q10 -37 15 -68q4 -25 6 -31q4 -25 4 -32l6 -31q0 -10 4 -27q0 -16 -4 -30q-5 -23 -28 -23h-568q-18 0 -18 12z" />
<glyph unicode="B" horiz-adv-x="1695" d="M41 102q0 -33 12 -57q23 -39 99 -39h47h45q14 -2 45 -2h24h23h2q0 -2 2 -2h2h6h6h8h27h41h143q29 -2 66 -2q51 -2 63 -2q82 0 133.5 3t92.5 9q379 68 524 238q152 174 188 325q14 59 15 123q0 119 -66 207q-96 119 -286 176q-12 0 -13 13q0 2 2 6q2 6 2 8q8 14 25 20 q283 92 319 258q4 12 4 43q0 29 -6 62q-12 68 -102 127q-90 55 -301 90q-111 16 -252 16q-133 0 -336 -16h-16q-14 -2 -17 -2q-2 0 -14 2h-16q-25 2 -58 2q-63 0 -176 10q-31 0 -37 -28q-4 -10 -4 -27q0 -29 19 -29q25 -6 39 -61q6 -18 6 -76q0 -47 -11 -143 q-20 -164 -110 -525q-45 -186 -82 -303q-31 -102 -62 -200q-14 -37 -30 -78q-20 -55 -31 -109q-4 -12 -4 -37zM385 240q0 68 12 168q14 139 86 432q2 18 15 63q6 23 10 41q8 33 14 55q6 27 8 37q6 25 50 25q49 -4 71 -6q14 -2 33 -2q25 -2 31 -2q23 0 43 2h20q23 0 45 -2h21 q111 -10 180 -27q78 -20 129 -43q102 -45 150 -111q41 -59 40 -133q-4 -45 -4 -69q-2 -37 -12 -74q-18 -59 -39 -102q-12 -27 -35 -70l-10 -23q-47 -88 -133 -147q-92 -66 -242 -98q-158 -39 -407 -48q-39 0 -53 15q-10 10 -21 65v23q-2 18 -2 31zM551 1176l2 8q4 20 6 28 q0 4 2 11v6l6 20q45 158 68 215q27 74 45 113q23 41 57 41q440 -6 541 -55q76 -37 76 -123q0 -20 -6 -49q-33 -139 -211 -191q-88 -25 -216 -37t-315 -12q-55 0 -55 25z" />
<glyph unicode="C" horiz-adv-x="1794" d="M41 655q0 -229 137 -403q193 -248 547 -248q80 0 163 9.5t183 27.5q106 18 189 49q70 23 151 64q57 31 64 53q2 10 10 39q4 10 8 26q14 42 49 101q27 47 27 67q0 12 -8 13q-33 0 -82 -29q-78 -45 -136 -84q-84 -59 -135 -90q-197 -117 -338 -117q-227 0 -401 205 q-123 141 -123 338q0 82 21 166q63 297 292 516q219 207 453 213q104 0 180 -19q96 -27 166 -57q82 -39 146 -96q6 -4 14 -13q55 -51 76 -63q16 -12 26 -12q12 0 19 14q14 33 14 141q0 31 -8 62q-6 14 -53 43q-172 94 -291 108q-147 18 -295 19q-147 0 -320 -68 q-164 -66 -313 -180q-156 -123 -260 -270q-109 -147 -150 -330q-22 -102 -22 -188v-7z" />
<glyph unicode="D" horiz-adv-x="1775" d="M41 104q0 -37 16 -61q20 -37 111 -41h20q8 -2 25 -2h55h6l70 4q16 2 55 6l27 2q459 41 838 301q379 268 448 592q23 117 23 203q0 115 -35 207q-61 156 -197 237q-135 84 -325 117q-178 27 -400 33h-8q-61 0 -90 -4q-14 -2 -80 -2h-49h-53q-35 0 -52 2q-10 2 -22 2t-25 2 q-33 0 -39 -29v-16q-2 -10 -2 -12q0 -25 11 -25q16 -2 24 -57q0 -74 -18 -213q-25 -158 -117 -525q-94 -375 -141 -506q-10 -25 -37 -81q-27 -51 -37 -105v-14q-2 -10 -2 -15zM387 186q0 78 25 222q31 178 90 428q37 162 57 239q10 41 37 129q8 31 14 53q39 130 74 230 q4 14 25 57q16 35 65 35q299 -12 510 -137q152 -90 152 -330q0 -104 -23 -209q-59 -276 -354 -502q-291 -225 -643 -256q-27 0 -27 17q-2 10 -2 24z" />
<glyph unicode="E" horiz-adv-x="1751" d="M41 53q0 -41 94 -41q4 0 21 2h24h58q31 -2 129 -2q111 0 168 -2t178 -2q133 0 213 -2q82 -2 272 -2q29 0 49 21q23 18 49 45q8 8 23 24q14 14 20 23l56 55q41 39 41 55q0 14 -17 15h-12q-12 2 -21 2q-31 0 -96 -11q-88 -14 -196 -43q-86 -23 -174 -34q-178 -27 -349 -27 q-6 0 -43 2h-45q-80 4 -94 90v19q-2 12 -2 22q0 72 25 176l2 6q20 102 37 170q10 49 43 191l10 39l6 24q2 14 4 23q8 27 10 47l13 43l4 12q4 18 6 25q6 29 33 29h424q33 0 106 -5h6q39 -2 121 -6q127 -8 139 -104q4 -45 33 -45h4q49 0 55 45q16 197 17 248q0 8 -2 22v8 q0 10 -35 11q-47 0 -184 -29q-119 -31 -267 -31h-374q-31 0 -31 23q0 2 2 6v6q8 47 24 96l7 17q14 43 22 63q8 31 23 68q4 12 18 45l2 6q14 41 39 72q26 32 86 32h4q43 0 74 -2q29 -2 100 -2q121 -2 240 -12q121 -10 235 -37q98 -23 189 -47q10 -4 26 -4q27 0 27 29 q0 16 -10 47q-16 37 -29 55q-12 18 -37 51q-12 18 -43 29q-37 10 -51 10h-14q-9 0 -17 -4q-250 0 -477 -8t-473 -8q-33 0 -94 4q-31 2 -92 10q-33 0 -39 -29q-4 -10 -4 -26q0 -25 20 -25t39 -55q6 -16 6 -74q0 -63 -8 -137q-20 -160 -111 -522q-82 -336 -145 -508 q-84 -231 -90 -277z" />
<glyph unicode="F" horiz-adv-x="1644" d="M41 49q0 -33 88 -33q10 0 31 2q27 2 39 2q14 0 30 -2h17q16 -2 53 -6q18 -2 51 -6q29 -2 49 -6q33 0 39 27q4 12 4 28q0 23 -10 23q-16 6 -29 35q-14 27 -14 112q4 109 43 297h2q12 66 25 142l2 12q8 45 12 67q0 2 8 35q8 37 13 58q4 14 12 47q4 14 12 47q2 14 10 43 q4 12 7 31l2 6q10 29 32 28l322 -4q70 0 110 -2q27 -2 56 -4q49 -4 67 -4q129 -8 138 -104q6 -45 32 -46h4q53 0 56 46q0 102 -2 151t-6 74q-12 66 -39 74h-7q-6 2 -10 2q-23 0 -49 -15q-45 -25 -92 -26q-49 -6 -119 -19q-29 -4 -62.5 -7t-82.5 -3l-271 4q-33 0 -32 21 q0 2 2 6v6q16 70 26 100q10 31 27 84q10 35 25 70q8 20 10 26q8 20 10 27q12 35 41 72q20 23 88 35q16 4 37.5 4h85.5h4q115 -4 174 -11q115 -10 174 -22q82 -16 111 -33q94 -72 157 -72q49 0 50 54q0 6 -2 16l-3 21q-6 33 -26 55q-29 33 -41 51q-14 16 -43 29 q-35 10 -51 10h-15q-8 0 -16 -4h-225q-72 -2 -205 -2h-203q-72 -2 -223 -2q-33 0 -90 4q-31 2 -96 10q-37 0 -37 -29q-4 -10 -4 -26q0 -27 20 -27t37 -53q8 -37 8 -78q0 -45 -10 -133q-16 -145 -109 -522l-6 -19q-4 -12 -4 -18q-4 -12 -4 -21q-4 -12 -4 -16q-6 -27 -10 -39 q-45 -174 -66 -242q-20 -70 -47 -153q-6 -16 -10 -31q-70 -203 -78 -254z" />
<glyph unicode="G" horiz-adv-x="1779" d="M41 664q0 -227 135 -404q197 -250 547 -250q137 0 360 58q61 16 86 28q4 0 11 2q8 0 8 -16q0 -12 -6 -37l-8 -37q-27 -100 -156 -176q-125 -74 -279 -74q-98 0 -141 21q-20 8 -20 20q0 8 8 17q31 27 43 88l2 10v10q0 35 -37 58q-46 28 -62 28q-70 0 -92 -8 q-29 -12 -41 -63q-6 -18 -6 -56q0 -109 99 -188q121 -100 327 -101q193 0 357 91q164 92 208 223h7q33 141 69 330q37 168 86 327q49 141 84 191q27 39 53 39q25 0 46 55q0 16 -13 22q-12 6 -24 7q-27 -2 -80 -7l-23 -2h-98h-49h-47q-37 0 -97 7q-45 0 -45 -23 q-4 -10 -4 -29q0 -23 13 -22q18 -2 30 -37q8 -12 9.5 -36.5t1.5 -94.5q-6 -139 -19 -164q-8 -23 -31 -127h-4l-18 -84q-25 -39 -92 -59q-66 -25 -127 -39q-27 -6 -62 -12q-27 -4 -80 -9q-229 0 -409 195q-117 127 -117 323q0 84 23 191q33 160 96 295q63 131 170 233 q203 199 438 205q115 0 190.5 -10t131.5 -31q193 -78 276 -151q29 -25 45 -25q25 0 25 53q0 27 -6 60q-2 14 -9 43l-2 12q-10 31 -30 45q-74 49 -148 74q-78 27 -143 35q-137 18 -295 18q-303 0 -629 -227q-324 -227 -414 -621q-22 -102 -22 -187v-7z" />
<glyph unicode="H" horiz-adv-x="1818" d="M41 80q0 -31 36 -45.5t116 -14.5q33 0 63 -2h29q20 -2 47 -6t47 -6q33 0 39 29q4 14 4 35q0 20 -10 20q-23 0 -29 51q-4 14 -4 62q0 63 8 139q18 131 102 502q8 33 13 47q4 14 12 47q2 14 10 43t11 43q2 6 6 20q6 14 39 15q66 0 100 -2q23 -2 49 -2q27 0 49 -2h101 q35 -2 102 -2q59 0 90 2h88q59 0 90 2t92 2q31 0 31 -15q0 -6 -2 -12q0 -8 -2 -10q-16 -78 -43 -186q-55 -209 -82 -302q-33 -106 -57 -200q-41 -145 -82 -226q-6 -10 -6 -26q0 -61 164 -62q80 0 186 -12q31 0 37 27q6 18 6 41q0 16 -10 16q-23 0 -31 51q-4 12 -4 52 q0 45 10 147q20 168 103 504q45 195 79 323q41 147 62 211q78 225 78 279q0 20 -32 29.5t-108 9.5q-25 0 -53 2q-23 2 -31 2q-33 2 -102 10q-33 0 -39 -29q0 -4 -2 -12v-10q0 -27 12 -27q16 -6 31 -33q12 -31 12 -102q-8 -78 -49 -262q-14 -49 -43 -49q-20 2 -45 2t-45 2 q-59 0 -88 2h-92h-90h-101q-35 -2 -102 -2q-33 -2 -100 -2q-33 -2 -101 -2q-25 0 -24 24v7q2 4 2 8q43 188 82 280q41 100 41 150q0 20 -9 26q-23 16 -86 17h-22q-12 -2 -25 -2q-29 0 -63 2q-18 2 -29 2q-31 2 -84 8l-10 2q-29 0 -35 -29q-4 -12 -4 -32t12 -21q16 -2 27 -57 v-15q2 -14 2 -22q0 -51 -16 -176q-25 -158 -115 -524q-45 -188 -80 -304q-14 -53 -43 -147q-12 -39 -16 -55q-39 -133 -68 -217q-6 -10 -6 -31z" />
<glyph unicode="I" horiz-adv-x="759" d="M41 43q0 -31 80 -31q10 0 29 2q23 2 32 2q4 0 21 2h18q10 0 29 -2q18 -2 26 -2q33 -6 95 -10q31 0 37 27q4 14 4 32q0 16 -9 17q-16 0 -16 47v12q-2 12 -2 21q0 39 14 164q20 178 88 507q68 342 121 523q78 248 107 293q4 4 4 12q0 35 -156 35q-10 0 -55 2q-16 2 -37 2 q-35 4 -68 8q-16 0 -28 2q-31 0 -37 -29l-4 -16q-4 -20 -4 -29q0 -12 8 -12q18 0 24 -43q4 -12 5 -49q0 -55 -13 -154q-14 -162 -98 -534q-72 -350 -125 -508q-18 -57 -33 -105q-53 -164 -55 -178z" />
<glyph unicode="J" horiz-adv-x="1259" d="M41 -354v-6q0 -14 10 -29q12 -14 39 -14q70 8 166 47q59 23 168 75q27 12 82 48l12 6q49 33 92 61q188 129 234 217q43 90 74 344q6 61 30 176q23 102 56 269l14 73q35 176 51 250q31 152 53 211q78 240 95 273l2 8q0 31 -136 37l-92 6h-6q-57 4 -88 8q-49 0 -49 -29 q-4 -12 -4 -28q0 -25 14 -25q20 -2 33 -57q4 -14 4 -56q0 -59 -12 -157q-29 -184 -113 -525q-35 -135 -74 -274q-6 -25 -16 -57q-27 -96 -41 -144q-37 -121 -82 -239q-31 -76 -49 -99q-14 -16 -29 -45q-84 -96 -180 -159q-100 -61 -182 -91q-33 -10 -47 -22q-25 -25 -27 -45 q0 -4 -2 -8z" />
<glyph unicode="K" horiz-adv-x="1830" d="M41 47q0 -35 90 -35q10 0 29 2q27 2 39 2q4 0 18 2h19q10 0 28 -2t27 -2q61 -8 94 -12q6 0 14 2q10 2 17 2q18 4 22 21q4 10 4 26q0 18 -14 19q-18 0 -33 26q-8 12 -11 36t-3 75q6 100 53 305q16 66 25 74q8 8 69 57q31 25 78 66q45 39 88 69q12 8 33 21q4 4 10 4 q16 0 31 -33q156 -319 195 -438q28 -89 28 -146v-20q-2 -10 -2 -12q-6 -70 -12 -105q0 -4 -2 -10v-6q0 -20 14 -29q6 -4 29 -4q31 0 82 6h26q27 2 54 2q23 -2 59 -2q31 0 84 -4q63 0 92 2q23 20 23 41v6l-2 6q-20 51 -39 52q-18 0 -54 36q-37 47 -106 191q-27 53 -88 199 q-55 133 -117 303q-2 6 -6 16q-2 8 -4 10q-8 16 -10 27q-7 16 -19 49q-8 14 -12 47l-2 8q0 25 55 74q346 297 467 385q61 43 125 105q59 55 156 96q8 4 8 12q0 10 -8 19q-12 18 -29 18q-27 -4 -35 -6q-12 -4 -35 -4h-53h-49q-12 0 -12 2q2 0 -27 0q-35 0 -55 4q-2 0 -19 2 q-10 0 -18 2q-39 0 -61 -29q-23 -27 -23 -37q0 -20 33 -20q18 0 18 -16q0 -29 -84 -117q-131 -135 -301 -281q-154 -133 -330 -276q-104 -84 -155 -127q-39 -33 -51 -33l-4 2q-4 10 -5 27q0 6 5 24q2 8 4 17q78 375 131 549q23 68 30 92q55 172 60 184q0 27 -142 27 q-31 0 -92 4q-33 2 -94 10q-31 0 -39 -29v-14q-2 -10 -2 -12q0 -27 14 -27q20 0 29 -57q4 -14 4 -54q0 -68 -14 -159q-27 -178 -113 -525q-55 -217 -82 -305q-18 -66 -36 -129q-4 -14 -21 -71q-82 -225 -88 -277z" />
<glyph unicode="L" horiz-adv-x="1382" d="M41 41q0 -27 68 -27q33 0 81 6q14 0 31 -2h12q23 -6 50 -6q47 -2 104 -2q86 -2 105 -2q70 -2 204 -2h203q68 -2 207 -2v2q59 4 106 64q12 16 19 26q4 4 12 13q8 10 14 16q6 12 25 31q16 18 18 24q41 57 41 82q0 23 -28 23q-59 0 -242 -80q-184 -78 -362 -82h-52h-51h-55 h-51q-63 0 -76 16q-14 16 -14 56q0 96 24 221q33 188 90 424q84 371 146 534q66 188 92 258q4 8 4 25q0 39 -84 39q-23 -2 -66 -2q-18 -2 -53 -2q-53 0 -78 2q-26 0 -73 8q-33 0 -39 -29q0 -4 -2 -12v-10q0 -31 12 -31q18 -2 27 -55v-15q2 -12 2 -20q0 -53 -17 -178 q-27 -168 -116 -523q-80 -338 -142 -505q-35 -104 -86 -246l-8 -25v-6q-2 -4 -2 -6z" />
<glyph unicode="M" horiz-adv-x="2117" d="M41 43q0 -41 84 -41h45h39q45 0 57 -2q2 0 10 -2l11 -2q6 -2 18 -2q12 -2 19 -2q31 0 36 24q4 14 5 35q0 25 -13 25q-25 0 -35 53q-8 37 -8 78q0 29 6 102l2 23q4 59 33 203q29 127 68 301q2 8 8 34q4 20 6 31l8 39q12 49 15 64q10 47 28 110q10 43 25 90q10 31 20 43 q4 0 4 2q10 0 25 -47q8 -23 23 -69l10 -33q10 -27 28 -86l17 -49q2 -6 18 -62q14 -45 29 -88q16 -51 49 -149q6 -20 19 -56q20 -66 26 -86q20 -55 39 -123q39 -120 97 -120h1q55 10 117 92q61 80 133 207q68 121 140 219q123 172 180 260q74 113 182 260q12 18 25 18l6 -2 q10 -6 10 -20q-14 -55 -31 -101q-10 -37 -35 -114q-37 -106 -73 -275q-78 -342 -133 -530q-70 -213 -76 -254q0 -31 96 -31q2 0 23 2h28q27 0 56 -2h28q66 -8 101 -10q33 0 39 27q4 14 4 32t-11 19q-20 0 -26 43q-4 14 -4 53q0 55 12 143q4 39 22 152q4 23 9 53 q33 172 65 314q86 385 148 538q66 178 112 240q16 23 17 35q0 32 -60 32h-4q-16 2 -37 2q-20 0 -37 3q-43 0 -57 2l-6 2h-6q-47 0 -107 -56q-63 -59 -135 -145q-45 -55 -127 -170q-63 -98 -90 -131q-27 -37 -55 -76q-84 -117 -131 -178q-127 -168 -191 -250q-6 -10 -16 -10 q-8 0 -8 8q-57 160 -84 242q-53 164 -76 245q-80 252 -172 482q0 39 -47 39q-8 0 -17 -2q-41 -2 -59 -2q-43 0 -61.5 2t-22.5 2q-25 8 -84 16q-39 0 -39 -29q0 -57 35 -71q25 -12 25 -78q0 -45 -9 -94q-27 -160 -37 -211q0 -2 -6 -25q-20 -90 -32 -143q-29 -131 -52 -230 q-80 -362 -135 -514q-70 -193 -90 -241q-6 -10 -6 -27z" />
<glyph unicode="N" horiz-adv-x="1748" d="M41 49q0 -12 8 -29q12 -18 117 -18q43 0 67 -2q4 0 17 -2q4 -2 10 -2q4 -2 21 -2q8 0 18 -2q37 0 37 24q4 14 4 35q0 33 -23 33q-29 0 -47 35q-10 27 -10 76q0 51 8 110q6 61 39 207l2 12q45 188 76 307q2 16 16 76q16 74 33 133q27 100 39 144q10 39 27 96l2 4 q6 29 20 43q4 0 4 2q12 0 25 -45q31 -96 108 -260l19 -39q43 -100 65 -145l31 -62q41 -88 64 -133q31 -66 92 -192q12 -25 45 -93q29 -55 45 -90l74 -147q31 -63 49 -98l-4 -17h2h4h6q2 -6 10 -18q10 -16 37 -17q4 0 12 2q14 2 19 2q51 8 57 27q4 29 12 74q4 23 17 78 q2 10 4 22l4 21q14 63 23 94q6 31 18 80l10 41l4 16q39 160 54 219q8 37 10 49q10 43 12 56l10 39q8 33 11 38q39 178 84 332q35 127 65 215q72 209 84 269q0 41 -162 41q-43 0 -59 6q-12 4 -64 8q-31 0 -37 -29q-4 -10 -4 -26q0 -23 21 -23q29 0 43 -49q8 -18 8 -80 q0 -59 -8 -131q-14 -145 -109 -539q-16 -53 -22 -80q-12 -53 -17 -75q-6 -25 -18 -70t-16 -63q-18 -59 -33 -60l-8 4q-20 29 -33 62q-27 63 -109 241l-18 37l-35 76l-37 76q-12 25 -18 37q-37 78 -53 114q-25 51 -70 150q-45 94 -68 139q-55 119 -102 238q0 18 -12 30l-2 2 v-2q-12 10 -105 13h-127q-31 0 -44 2t-15 2q-14 6 -58 10q-39 0 -38 -29q0 -27 12 -43l26 -26q37 -39 56 -58q4 -31 8 -94q0 -86 -41 -225q-29 -104 -47 -180l-12 -56q-27 -111 -41 -180q-53 -238 -111 -438q-29 -96 -74 -264q0 -2 -10 -37q-4 -10 -4 -29z" />
<glyph unicode="O" horiz-adv-x="1828" d="M41 659q0 -229 137 -405q193 -248 547 -248t659 248q305 250 385 600q18 84 19 160q0 84 -23 168q-39 150 -137 270q-100 117 -235 182q-135 68 -287 68t-318 -68q-162 -66 -317 -182q-147 -117 -258 -270q-109 -152 -150 -328q-22 -102 -22 -188v-7zM340 629 q0 102 25 215q68 301 276 516q213 215 438 215q227 0 351 -193q71 -109 71 -275q0 -130 -35 -263q-88 -342 -288 -537q-198 -192 -424 -192h-2q-227 0 -342 215q-70 131 -70 299z" />
<glyph unicode="P" horiz-adv-x="1656" d="M92 8q37 0 84 8q16 4 47 4t45 -4q35 -6 94 -14q33 0 39 29q4 12 5 28q0 8 -5 17q-2 4 -18 20q-10 14 -16 47q-6 16 -7 70q0 2 2 27v30q6 63 54 76q70 20 110 29q440 98 729 301q291 203 340 422q20 84 21 162q0 131 -64 213q-100 129 -270 180q-166 51 -373 51 q-72 0 -190 -4q-25 0 -94 -4q-41 -2 -72 -4q-29 0 -64 2q-18 2 -28 2q-33 2 -94 10q-31 0 -37 -29q-4 -12 -4 -30q0 -23 12 -23q20 -4 27 -57v-17q2 -16 2 -26q0 -68 -15 -170q-8 -57 -41 -211q-14 -63 -16 -76q-35 -147 -57 -238q-35 -147 -78 -307q-20 -70 -49 -184 q-4 -16 -5 -16q-65 -260 -65 -292q0 -21 51 -22zM414 510q0 2 2 10v10q4 43 16 117q2 10 4 23q2 18 13 67l4 15q4 14 6 28q10 37 14 60q59 260 123 467q8 23 25 73q14 39 20 62q8 23 25 67q4 12 8 23q10 25 28 43q19 14 70 14q401 -27 488 -172q55 -98 55 -211 q0 -63 -15 -121q-39 -176 -301 -352q-252 -172 -528 -256q-12 -4 -29 -4q-23 0 -22 10q-6 6 -6 27z" />
<glyph unicode="Q" horiz-adv-x="1828" d="M41 657q0 -96 25 -186q47 -178 174 -297q35 -31 90 -76q57 -41 125 -75q4 0 4 -9q0 -8 -13 -20l-2 -2q-6 -4 -10 -8q-12 -12 -18 -23q-12 -10 -31 -24q-20 -14 -33 -37q-41 -57 -41 -84q0 -10 6 -17q25 -25 136 -26q109 -4 241 -25l23 -4q145 -29 211 -43q96 -20 133 -20 q4 0 12 2h8q2 2 29 14q41 20 49 24l6 3q45 27 70 40q45 29 70 37q109 37 110 58q0 20 -45 30q-55 10 -129 11q-49 0 -106 -2h-39q-4 0 -35 -2h-35q-201 0 -422 49q-27 6 -26 16v25q6 24 61 24h4q49 -4 80 -4q350 0 661 250q305 248 385 598q18 84 19 160q0 84 -23 170 q-43 154 -139 270q-100 115 -233 180q-135 68 -289 68q-150 0 -316 -68q-160 -61 -317 -180q-156 -123 -260 -270q-106 -154 -148 -330q-22 -102 -22 -189v-8zM340 631q0 102 25 215q68 299 278 516q207 213 436 213q223 0 351 -195q71 -113 71 -275q0 -116 -35 -259 q-90 -346 -288 -539q-200 -192 -424 -192h-2q-227 0 -342 215q-70 131 -70 301z" />
<glyph unicode="R" horiz-adv-x="1687" d="M41 49q0 -37 82 -37q10 0 29 2q23 2 32 2q4 0 19 2h18q10 0 29 -2q18 -2 26 -2q61 -8 95 -12q29 0 39 29q4 12 4 28q0 8 -4 17q-2 4 -19 20q-10 16 -18 47q-4 14 -4 58q0 4 2 30v39q6 63 53 76q4 2 12 4q72 18 99 25l20 4q23 6 39 10l10 2q35 8 49 12q53 12 97 13 q29 -2 73 -88q35 -74 49 -107q18 -43 31 -63q29 -70 49 -107q14 -31 185 -35q25 -2 53 -2q43 -2 53 -2h21q16 -2 18 -2q33 0 64 6q25 0 24 13q0 2 -2 6q-2 8 -2 10q-20 45 -39 47q-18 4 -51 27q-27 20 -86 100q-44 68 -150 279q-4 6 -4 18q0 25 35 43q55 31 107 62 q170 98 299 227q121 121 149 250q20 98 21 162q0 129 -66 213q-104 129 -278 180q-166 51 -381 51q-76 0 -195 -4q-41 -2 -100 -4q-49 -4 -66 -4q-29 0 -63 2q-18 2 -29 2q-33 2 -94 10q-33 0 -39 -29v-14q-2 -10 -2 -12q0 -27 12 -27q20 -4 27 -57v-17q2 -14 2 -24 q0 -74 -17 -172q-8 -70 -41 -211q-20 -96 -71 -314q-51 -215 -76 -307q-37 -139 -55 -200q-74 -233 -74 -273zM422 510v8q2 8 2 12q10 92 20 140l2 6q18 98 35 164q74 317 123 467q8 23 25 73q14 39 20 62q8 23 25 67q4 12 8 23q10 25 29 43q18 14 69 14q221 -12 344 -59 q119 -47 166 -113q43 -61 43 -153q-2 -86 -24 -179q-39 -176 -301 -352t-529 -256q-12 -4 -28 -4q-18 0 -25 10q-4 6 -4 27z" />
<glyph unicode="S" horiz-adv-x="1519" d="M41 322q0 -72 39 -109q76 -70 229 -137q166 -74 385 -74q231 0 475 164t295 430q14 66 15 129q0 98 -37 168q-61 109 -172 172q-117 68 -248 104q-63 16 -133 43q-76 29 -123 52q-63 27 -119 71q-51 39 -51 82q0 2 2 8v9q14 68 98 114q59 35 181 47q4 0 14 2h14 q119 0 246 -90q150 -106 166 -231q6 -61 59 -62q20 0 39 19q18 12 19 43q-8 35 -11 59q-8 35 -10 60q-25 178 -141 239q-115 59 -322 82l-2 -2q-203 -2 -360 -76q-158 -74 -213 -282q-6 -18 -6 -53q0 -68 45 -125q57 -76 157 -136q104 -63 222 -98q143 -43 235 -84 q100 -39 160 -133q37 -63 37 -139q0 -43 -8 -78q-35 -152 -197 -262q-154 -104 -264 -105h4h-21q-143 0 -240.5 37t-158.5 113q-129 160 -129 305q0 47 -8 65.5t-27 18.5q-55 0 -74 -88q-8 -39 -34 -127q-27 -82 -27 -145z" />
<glyph unicode="T" horiz-adv-x="1529" d="M41 1393q0 -14 6 -31q10 -27 27 -27q25 0 69 58q53 74 217 133t250 67q6 0 17 2h8q8 0 14 -4v-14v-29q-12 -109 -41 -250q-4 -16 -10 -45q-23 -106 -35 -155q-14 -70 -53 -230q-6 -27 -10 -39q-43 -160 -84 -303q-39 -135 -62 -200q-69 -194 -69 -254q0 -8 2 -17 q2 -8 2 -10q12 -33 88 -33q10 0 29 2q23 2 32 2q16 4 47 4q8 0 25 -2q16 -2 25 -2q33 -6 102 -14q33 0 39 29q4 14 4 35q0 20 -10 20q-20 0 -33 49q-4 16 -4 66q0 53 6 135q20 174 96 504q45 209 111 460q43 158 80 252q10 35 16 41q0 4 16 4h11q8 -2 14 -2q74 -12 213 -59 q141 -49 170 -139q18 -57 55 -58q20 0 35 11q33 20 33 67q0 43 -29 119q0 2 -2 8q-16 43 -28 64q-16 35 -19 65q-6 49 -76 49q-51 -2 -104 -4q-92 -4 -127 -4q-158 -8 -246 -10q-66 -4 -194 -4q-175 0 -351 12h-4h-2h-28h-29q-27 0 -64 -65q-18 -29 -36 -54q-23 -27 -48 -63 q-61 -82 -61 -137z" />
<glyph unicode="U" horiz-adv-x="1693" d="M41 246q0 -111 41 -160q68 -86 219 -86q147 4 340 74q195 70 371 106q29 6 30 6q0 -8 -10 -30q-35 -72 -35 -109q0 -31 23 -37q33 -8 57 -8q20 0 70 8q16 6 51 6q6 0 21 -2q12 -2 18 -2q45 -8 96 -12q33 0 39 27q4 14 4 34t-12 21q-18 0 -29 47q-4 12 -4 55q0 70 10 144 q18 147 103 508q53 223 82 325q31 119 63 211q63 195 64 260q0 6 -2 13v6q-8 39 -92 39h-17q-10 -2 -18 -2q-27 0 -60 2q-20 2 -30 2q-33 2 -95 10q-35 0 -41 -29v-14q-2 -10 -2 -12q0 -27 15 -27q16 -2 26 -57v-15q2 -14 2 -22q0 -55 -16 -176q-18 -127 -113 -525 q-37 -141 -61 -252q-8 -33 -16 -79l-5 -19q-8 -45 -18 -86q-12 -53 -127 -88q-63 -20 -129 -37l-29 -8q-63 -18 -102 -27q-129 -31 -229 -34v-2q-72 0 -112 8t-60 26t-21 82q0 84 33 234q4 23 12 67q10 66 12 72q6 37 19 80q2 8 8 31q8 33 12 55q84 360 146 534 q69 194 69 252q0 8 -2 17q-2 6 -2 8q-10 20 -39.5 30.5t-91.5 10.5q-27 0 -57 2q-23 2 -31 2q-31 2 -86 8l-12 2q-27 0 -37 -26q-4 -12 -4 -31q0 -25 14 -25q18 -2 25 -57v-14q2 -14 2 -25q0 -70 -17 -174q-23 -160 -112 -522q-8 -43 -23 -88l-6 -19q-10 -41 -16 -63l-8 -33 q-20 -78 -27 -107q0 -4 -2 -12l-2 -4v-8q-2 -6 -2 -8l-6 -19v-8q-2 -8 -2 -10q-27 -121 -27 -215z" />
<glyph unicode="V" horiz-adv-x="1490" d="M41 1692l2 -6v-7q10 -49 29 -49q18 0 43 -51q31 -51 67 -219q23 -98 41 -221l15 -97q25 -150 36 -239q23 -174 43 -363q16 -113 23 -180q12 -88 18 -182q6 -92 66 -92q49 0 106 92q6 12 17 26q8 14 14 27q37 59 68 113q25 41 35 59q12 18 32 55l33 56q37 63 117 186 q39 61 127 209q8 14 24 41q96 168 185 315q66 113 127 205q137 211 141 260q0 47 -61 66q-10 4 -52 4q-41 -4 -59 -4q-41 0 -59 2q-12 2 -23 2q-16 2 -22 2q-39 0 -52 -29q-8 -14 -8 -31q0 -16 21 -16q31 0 39 -49q0 -55 -64 -209q-61 -143 -289 -532l-14 -25 q-27 -43 -39 -66q-29 -47 -51 -90q-31 -51 -51 -82q-2 -2 -15 -26q-18 -31 -24 -45q-12 -27 -39 -31q-25 0 -25 37q-2 18 -10 63q-8 43 -10 78q-2 10 -6 43q-2 23 -5 41q-8 57 -12 88q-39 227 -53 334q-23 145 -23 215q0 115 4.5 174.5t14.5 85.5q4 6 4 19q0 47 -80 47h-72 q-23 -2 -57 -2q-98 0 -190 14q-27 0 -27 -16z" />
<glyph unicode="W" horiz-adv-x="2060" d="M41 1700q2 -6 2 -10q18 -78 45 -78q20 0 39 -37q18 -66 39 -203q2 -23 8 -67q14 -106 19 -154q4 -29 6 -57l30 -291q12 -123 21 -182q4 -39 10 -89q6 -51 10 -90q6 -88 19 -178q6 -59 14 -182q6 -92 76 -92q41 0 78 51h-4q35 80 108 240q68 137 111 237q47 106 104 219 q49 102 98 221q8 23 23 27q14 0 14 -27q8 -145 17 -213q6 -74 14 -215v-6q4 -152 8 -225v-12q8 -143 11 -224l4 3q10 -72 73 -72q55 0 107 94q18 33 43 88q14 29 35 68q12 29 28 57q16 31 25 51q23 47 27 51l12 25q20 37 35 64q2 4 24 43q25 45 33 61l2 2q78 143 141 252 q53 92 148 258l35 57q31 53 79 135l41 70q133 215 162 285q4 6 4 16q0 29 -53 29q-33 0 -68 -8q-14 -4 -45 -4q-6 0 -20 2t-23 2q-23 4 -67 12l-12 2q-37 0 -52 -27q-8 -14 -8 -32q0 -20 19 -21q33 0 39 -53q0 -63 -64 -217q-68 -160 -289 -535q-49 -80 -82 -143 q-6 -12 -34 -70q-25 -49 -29 -59q-18 -31 -27 -31l-4 4q-8 8 -8 27q-2 59 -6 131t-6 131t-4 131t-5 131q-8 117 -8 264q-2 88 -2 265q0 41 -12 84q-12 34 -45 34h-2q-37 0 -68 -39q-31 -37 -49 -90q-16 -53 -72 -186q-6 -10 -14 -33q-33 -78 -102 -235l-19 -39 q-29 -61 -110 -240l-17 -37q-47 -108 -102 -225q-20 -43 -33 -43q-14 0 -14 37q-4 33 -6 51q-4 33 -4 49q0 39 -13 131q-31 221 -41 340q-6 61 -9 111.5t-3 107.5q0 76 4 203v78q0 39 -59 41q-2 0 -19 2h-20h-19q-12 -2 -14 -2q-6 0 -12 -2q-29 -2 -43 -2q-53 0 -86 8l-43 6 q-4 0 -23 2q-12 0 -22 2q-29 0 -29 -16z" />
<glyph unicode="X" horiz-adv-x="1826" d="M41 25q0 -10 18 -11q86 0 136 2q51 0 127 -8q37 -2 71 -6q35 -4 53 -6q33 0 58 27q25 29 24 40q0 10 -18 11q-39 0 -47 39q0 51 69 157q72 111 361 416q27 27 47 27q18 0 31 -25q127 -299 145 -414q12 -86 12 -143q0 -51 -10 -82q-4 -6 -4 -16q0 -29 55 -29q8 0 21 2 q20 2 31 2q25 2 79 8h13h61q82 0 197 -14q23 0 22 16v7l-2 6q-25 55 -45 69q-25 18 -63 74q-51 70 -115 207q-27 55 -88 190q-27 63 -90 222l-23 55q-12 31 -12 59q0 55 45 101q258 283 406 426q172 168 180 223q0 41 -47 41q-18 0 -47 -6h-13q-10 -2 -12 -2t-12 2h-17 q-18 2 -63 6q-12 2 -39 4q-14 4 -27 4q-8 2 -22 2q-17 0 -25 2q-39 0 -57 -29q-20 -27 -21 -36q0 -16 17 -17q33 -10 45 -45q4 -4 4 -18q0 -37 -41 -109q-55 -96 -262 -307q-41 -45 -66 -45q-18 4 -37 49q-109 223 -120 320q-8 39 -9 98q0 57 15 78q4 4 4 12q0 31 -100 37 q-2 0 -19 2h-18h-17q-14 -2 -18 -2q-33 -6 -57 -6q-27 0 -89 4h-6q-31 2 -90 8l-10 2q-14 0 -25 -18q-4 -6 -4 -21q0 -2 2 -8q2 -4 2 -6q23 -43 39 -43q14 0 45 -41q39 -51 97 -174q39 -88 79 -181q27 -59 99 -233l14 -37q6 -10 6 -33q0 -39 -39 -82l-69 -73 q-150 -158 -205 -215q-100 -109 -189 -197q-143 -143 -210 -201q-111 -92 -111 -118z" />
<glyph unicode="Y" horiz-adv-x="1605" d="M41 1677q16 -57 37 -80q20 -16 57 -86q33 -57 88 -213q47 -139 129 -469q4 -18 23 -96q6 -29 12 -55q8 -33 21 -84l8 -37q4 -16 4 -41q0 -31 -10 -43q-8 -12 -29 -37q-2 -2 -12 -16q-123 -158 -193 -230q-119 -125 -119 -161q0 -4 2 -9q8 -14 50 -14q29 0 94 10q2 0 12 2 h12h15q10 -2 12 -2q37 -8 57 -10q37 -4 56 -8q18 -2 51 -6q31 0 51 26q18 29 18 41q0 16 -18 17q-37 4 -37 59q0 59 84 209q76 141 373 512q309 385 436 533q195 221 234 276q6 6 6 16q0 23 -60 23q-39 0 -86 -8q-18 0 -37 2h-16q-27 4 -61 6q-33 4 -62 6q-10 2 -22 2 q-21 2 -25 2q-37 0 -53 -28q-14 -29 -15 -37q0 -18 23 -19q41 -2 41 -61q0 -55 -90 -217q-57 -94 -146 -209q-84 -113 -243 -314q-43 -55 -68 -55q-4 0 -8 2q-16 12 -35 68q-119 383 -141 536q-18 129 -19 195q0 41 -2 61.5t-6 30.5q-8 25 -47 29h-127q-25 0 -74 4h-12 q-12 0 -33 4h-6q-4 0 -22 4q-20 2 -25 2q-14 0 -31 -10q-16 -8 -16 -23z" />
<glyph unicode="Z" horiz-adv-x="1775" d="M41 76q0 -47 123 -58q156 -12 405 -14q94 -2 279 -2q94 -2 280 -2q47 0 72 10q29 16 62 56q6 6 28 30l27 27q10 10 22 24l19 19q51 55 51 76q0 18 -18 18q-2 0 -15 2h-18q-51 0 -115 -16q-68 -16 -207 -60q-106 -37 -147 -43q-109 -18 -191 -22q-57 -2 -86 -4 q-61 0 -106 2q-57 0 -105 -2q-16 0 -16 10q0 2 2 6t2 6q2 6 14 29q2 2 3 4q127 158 282 330q76 82 146 164q25 27 47 53q66 74 98 110q164 190 352 396q121 131 228 219q111 94 153 149q23 29 23 52q0 20 -21 32q-20 10 -75.5 15.5t-161.5 5.5q-39 -2 -86 -2t-86 -2 q-57 -2 -175 -2h-88q-68 -2 -79 -2q-35 0 -78 2h-68q-131 0 -141 16q-41 -2 -96 -74q-10 -12 -23 -26q-12 -14 -22 -27q-25 -29 -39 -53q-27 -49 -27 -70q0 -20 23 -20q16 0 55 16q129 57 260 94q143 45 332 45q70 0 139 -6q8 0 41 -8q16 0 16 -16q0 -12 -20 -39 q-117 -150 -264 -312q-76 -88 -142 -157l-141 -160q-59 -68 -182 -203q-123 -131 -185 -200q-156 -172 -260 -275q-100 -96 -100 -141z" />
<glyph unicode="[" horiz-adv-x="720" d="M41 -152h188l17 72h-121l420 1864h121l14 69h-186z" />
<glyph unicode="\" horiz-adv-x="366" d="M41 1640l223 -1595h62l-222 1595h-63z" />
<glyph unicode="]" horiz-adv-x="720" d="M41 -152h188l451 2005h-186l-17 -69h119l-418 -1864h-121z" />
<glyph unicode="_" horiz-adv-x="1146" d="M41 -133h1053l12 55h-1053z" />
<glyph unicode="`" horiz-adv-x="182" d="M41 1706l25 -129q12 -94 49 -94q27 0 26 49q0 6 -2 18q-2 18 -2 27l-24 129h-72z" />
<glyph unicode="a" horiz-adv-x="1255" d="M41 287q0 -61 10 -105q25 -109 117 -149q92 -35 190 -35q113 0 242 43q23 8 51 25q14 12 51 28q10 4 23 8l4 2q6 0 6 -8v-6q-2 -4 -2 -8q-4 -10 -4 -27q0 -12 6 -24q8 -18 72 -23q8 -2 67 -2q51 0 82 -2q10 -2 37 -2q18 -4 43 -6q35 0 35 33q-2 43 -16 47q-16 6 -27 30 q-8 12 -8 56v18q2 14 2 25q4 88 41 252h2q4 20 16 73q10 35 17 66q25 92 49 190q10 45 16 66q23 88 29 115l6 24q14 68 16 84q0 57 -61 82q-66 27 -170 27q-102 0 -223 -25q-121 -29 -217 -74q-178 -84 -316 -301q-137 -215 -174 -374q-12 -61 -12 -123zM317 348q0 51 13 96 q12 57 59 189q48 117 107 180q68 74 219 168q102 63 184 63q35 0 57 -10q10 -4 11 -26q0 -20 -4 -35q0 -4 -7 -19l-4 -12q-10 -18 -12 -33q-4 -16 -8 -28q-4 -8 -6 -25l-2 -4q-2 -14 -19 -80l-10 -43q-16 -63 -23 -94q-10 -39 -18 -74q-8 -39 -14 -61q-14 -63 -19 -74 q-8 -33 -10 -47q-4 -12 -8 -33l-2 -6q-2 -6 -6 -16t-7 -17q0 -2 -4 -14q-4 -14 -6 -17q-16 -37 -47 -53q-2 0 -4 -2q-6 -4 -10 -6q-8 -4 -15 -10q-6 -4 -14 -8q-10 -4 -16 -9q-113 -55 -195 -55q-59 0 -100 31q-45 35 -55 123q-4 20 -5 61z" />
<glyph unicode="b" horiz-adv-x="1261" d="M41 45q0 -51 133 -51q8 0 37 2q20 0 49 2h31q27 2 31 2t30 -2h35q18 0 35 -2h33q264 0 473 172q213 174 274 450q18 86 19 158q0 164 -95 254q-139 141 -342 144q-98 0 -133 -29q-41 -35 -90 -37q-23 0 -22 20q0 4 2 11q2 8 2 12q29 115 49 197q8 39 24 98q4 14 9 27 q10 41 24 92q4 16 6 22t4 8q4 16 9 17q8 18 20 55q0 2 2 6v6q0 18 -35 19q-33 -4 -47 -4q-12 2 -43 2h-51h-53q-41 0 -101 6q-14 0 -28 -8q-16 -10 -17 -21q0 -45 29 -45q25 0 33 -43q4 -12 4 -47q0 -53 -16 -164q-35 -199 -121 -549q-53 -213 -78 -295l-10 -38 q-31 -113 -43 -160q-55 -225 -70 -273q0 -4 -2 -8v-6zM336 195q0 8 2 20q2 18 2 27q16 109 41 225q29 133 86 369l6 24q4 16 6 27l6 24q2 6 7 23q0 4 10 29q5 20 28 30q100 57 166 58q141 0 215 -88q41 -47 41 -154q0 -96 -32 -234q-70 -276 -201 -378q-121 -94 -264 -101 h-33q-10 0 -16 2q-4 2 -13 2q-57 6 -57 95z" />
<glyph unicode="c" horiz-adv-x="1112" d="M41 410q0 -139 65 -252q94 -170 347 -170q119 2 225 63q119 70 213 160l2 2t2 4l4 2q10 8 12 12q4 6 25 37l4 11q10 25 10 34q0 4 2 13v8q1 41 -32 41q-25 0 -70 -58q-57 -70 -148 -108q-84 -35 -165 -39q-139 0 -209 143q-55 117 -56 222q0 41 4 61q4 35 33 115 q25 74 70 149q49 76 119 131q66 55 164 56q57 0 96 -29q33 -33 53 -70q14 -35 14 -49q0 -16 -10 -27q-18 -18 -35 -84v-6q-2 -6 -2 -8q0 -12 10 -26q4 -6 15 -7q10 0 24 11q8 6 25 18l18 14q27 20 52 33q49 37 88 49q47 16 59 82l2 8q0 18 -24 50q-14 16 -25 30q-6 8 -8 11 q-6 8 -8 10q-87 112 -268 112h-3q-201 0 -407 -172q-213 -176 -267 -419q-20 -84 -20 -168z" />
<glyph unicode="d" horiz-adv-x="1331" d="M41 377q0 -135 61 -238q93 -155 271 -155h2q88 0 215 65q25 12 43 25q25 12 35 16q4 4 10 4q16 0 16 -45q0 -53 43 -53q8 0 23 2h8q6 0 10 -2q0 -2 47 -2q51 0 95 2q29 0 65 -2q18 -2 31 -2q12 0 31 20q20 20 20 35q-6 29 -35 29t-41 49q-6 14 -6 63q0 45 10 144 q18 147 105 504l22 90q35 150 56 233q4 20 20 90q23 92 29 121q4 18 24 105q4 16 6 26l19 74q2 6 4 18q2 10 2 15q2 6 2 10q6 14 6 35q0 43 -53 43h-12q-6 -2 -15 -2q-12 0 -22 -2q-25 -4 -41 -4q-33 0 -86 6q-8 2 -19 4l-20 4q-4 0 -23 2q-12 0 -22 2q-14 0 -31 -12 q-16 -10 -16 -25q6 -45 35 -45t45 -29q12 -20 12 -75v-23q-2 -14 -2 -29q-8 -94 -72 -346q-10 -35 -26 -49q-4 -4 -15 -4q-14 0 -51 16q-12 8 -31 19q-29 16 -41 24q-43 23 -98 27q-233 0 -399 -184q-172 -190 -228 -432q-18 -86 -18 -162zM285 463q0 66 8 125 q25 211 147 323q119 119 244 119q111 0 166 -76q31 -39 33 -67q0 -45 -9 -78q-18 -82 -53 -215q-19 -70 -39 -166q-23 -82 -24 -100q-8 -37 -58 -86q-82 -82 -182 -82q-2 0 -18 2h-19q-109 14 -162 117q-34 68 -34 178v6z" />
<glyph unicode="e" horiz-adv-x="1071" d="M41 401q0 -145 74 -249q117 -162 327 -162q115 4 246 78q133 76 232 196q8 8 16 21q12 16 14 20q12 29 13 45q0 25 -23 37q-6 4 -20 4q-20 0 -43 -14q-33 -20 -50 -47q-47 -61 -108 -103q-63 -41 -141 -47q-78 0 -133.5 26.5t-100.5 82.5q-14 14 -14 33q-1 22 28 47 q117 96 240 184q43 31 123 90q78 59 121 90v2l157 125q6 6 19 23q4 6 6 8q6 6 6 24t-8 37q-47 98 -123 156q-80 59 -188 61q-160 0 -365 -157q-217 -168 -280 -432q-25 -94 -25 -179zM254 541q0 20 6 45q35 152 119 291q86 141 254 141q78 0 98 -39q18 -39 31 -107 q0 -4 2 -10v-6q0 -27 -16 -39q-15 -11 -33 -29q-102 -92 -191 -155q-68 -49 -194 -152q-18 -14 -31 -14q-16 0 -31 20q-14 25 -14 54z" />
<glyph unicode="f" horiz-adv-x="1214" d="M41 -276q0 -33 41 -33h6q0 2 4 2h2q2 0 6 2q8 4 13 6q104 47 196 152q70 82 133 108q63 31 82 117q33 188 68 373q27 143 82 389q2 6 4 14t4 14l6 31q4 16 6 27q4 10 8 26q6 37 19 39q12 4 24 4q4 0 17 -2q8 0 16 -2q10 -2 35 -2q10 0 14 -2q35 -2 50 -2q18 0 38 14 q18 10 31 31q4 8 8 14q2 4 7 13l4 4q0 6 2 8t2 4t2 4t2 4l2 2l4 4q0 2 2 5q4 8 4 32q-6 12 -27 13q-106 0 -186 -7q-23 0 -22 21q0 2 2 6v6l2 6q16 74 26 123q16 76 25 101q0 2 2 8l2 8q23 102 43 129q25 25 43 25q20 0 27 -45q0 -51 -11 -109l-2 -2v-4h2q-6 -6 -6 -17l2 -8 q10 -16 23 -16q6 0 18 6q33 10 47 25q31 27 66 43q23 10 41 22q14 8 24 12q31 14 48 76v17q0 149 -173 149h-2q-96 0 -229 -88q-82 -49 -141 -102q-55 -49 -60 -150l-4 -22q-8 -41 -10 -66l-4 -16q-12 -70 -19 -90q-8 -41 -51 -41h-32h-19h-16q-18 0 -37 -13q-16 -8 -27 -32 q-6 -8 -18 -31v-2q-4 -12 -10 -21q-4 -6 -5 -18l2 -6v-6q6 -14 21 -15q27 0 45 2q39 0 61 2q39 0 39 -32v-7q-2 -6 -2 -10l-2 -8q-8 -37 -12 -49q-2 -6 -2 -14q-2 -8 -4 -15q-4 -8 -8 -28v-5q-43 -178 -86 -350l-9 -35q-53 -213 -73 -313q-43 -188 -217 -350l-11 -12 q-12 -10 -16 -27v-10q-2 -6 -2 -8z" />
<glyph unicode="g" horiz-adv-x="1236" d="M41 -76q0 -133 88 -213q100 -90 307 -90q193 0 355 117q160 119 198 223q0 2 4 6l4 4q0 2 2 4q35 70 35 105q0 18 -8 29q-27 33 -65 53q-14 6 -37 12q-18 2 -37 10q-4 0 -21 4q-8 2 -53 17q-45 12 -55 14q-27 8 -53 14q-27 6 -56 15q-115 31 -223 55q-6 8 -6 27q0 2 2 8 v6q4 16 31 18q8 0 24 5h4q8 2 23 2q29 -2 49 -7q6 0 10 -2q20 -2 31 -2q119 0 210 27t171 82q190 125 215 291q6 25 6 71q0 70 -27 121q-37 78 -110 135q-94 80 -283 80q-209 0 -387 -116q-170 -117 -211 -291q-8 -27 -8 -78q0 -59 20 -107q39 -80 119 -133q2 -4 13 -18 l4 -8q4 -4 4 -13q0 -6 -6 -16q-14 -14 -54 -37q-6 -4 -22 -14q-6 -2 -12 -6q-18 -10 -21 -17q-88 -55 -88 -104l2 -6v-8q14 -53 45 -58q6 -2 16 -2q10 -2 17 -4q4 0 18 -2q14 -4 17 -4q-4 -2 -13 -8l-4 -2q-18 -27 -51 -29q-33 -12 -82 -55q-45 -39 -51 -105zM193 -104 q2 8 2 12q20 88 120 133v2q29 16 35 39q2 6 2 14q96 0 203 -37q39 -12 113 -36q74 -25 110 -35q0 -12 -2 -25v-12q-14 -70 -119 -146q-99 -73 -220 -73h-3q-121 0 -186 55q-55 49 -55 100v9zM442 674q0 47 9 82q23 98 81 209q62 110 230 110t174 -117q0 -20 2 -40v-37 q0 -78 -8 -125q-18 -88 -109 -197q-82 -106 -209 -106q-119 4 -153 106q-16 51 -17 115z" />
<glyph unicode="h" horiz-adv-x="1228" d="M41 33q0 -35 31 -35h8l6 2q2 0 12 2h13q4 0 12 -2h10q14 -2 49 -2q51 0 94 2q55 0 93 -4q41 0 41 27q-8 45 -33 51q-23 2 -29 59v17q-2 12 -2 20q0 63 19 174q23 135 114 496q0 6 2 8v6q2 2 2 8l2 4v2q8 45 31 58q23 12 39 18q12 4 31 10q18 6 18 7q35 12 60 16 q86 14 127 14q82 0 118 -33q16 -16 17 -63q0 -86 -58 -303q0 -4 -4 -8v-6q-2 -4 -2 -7q-2 -2 -2 -8q-2 -2 -2 -8v-2q-2 -2 -2 -4v-2v-2q-45 -203 -84 -316q-41 -119 -47 -176q0 -57 47 -57q41 4 84 4h43h41q29 0 86 -4q31 0 37 27q-10 31 -25 38q-18 8 -24 54v12 q-2 12 -2 20q0 35 10 103q16 94 76 297v2v2q2 2 2 4h-2q0 2 2 16q6 20 6 25q2 8 6 20q0 4 2 11v2q0 6 2 12l2 4q0 6 4 19q0 6 4 18q0 6 2 12l2 4q2 10 9 43q8 39 14 62q10 55 18 90q16 68 17 133q-2 66 -31 90q-27 25 -70 35q-20 6 -75 6q-12 0 -31 -2q-29 -2 -39 -2 q-98 -14 -197 -39q-45 -14 -77 -29q-6 -2 -23 -10q-16 -4 -18 -6q-10 -4 -21 -8l-20 -8q-4 -4 -15 -4q-10 0 -20 6q-8 0 -8 22q0 14 6 41q12 43 29 115q20 78 26 98q14 70 35 137q8 45 18 82q10 33 13 45q4 20 6 31q4 0 18 55q0 4 2 9v6q0 18 -34 18q-35 -2 -48 -6 q-12 -2 -45 -2h-49h-53q-31 0 -96 4h-6q-37 0 -37 -29v-8q-2 -8 -2 -10q0 -29 22 -29q27 0 39 -45q4 -10 4 -49q0 -57 -12 -162q-25 -174 -117 -549q-39 -170 -74 -297q-35 -133 -57 -200l-16 -51q-53 -164 -66 -205q-8 -18 -8 -43z" />
<glyph unicode="i" horiz-adv-x="696" d="M41 59q0 -6 2 -14q2 -6 2 -8q6 -16 32.5 -24.5t84.5 -8.5h43h47q25 0 72 -2q12 -2 20 -2q10 0 23 8q12 12 12 27q-2 41 -17 45q-14 4 -20 24q-4 10 -4 43v23q2 18 2 31q4 45 14 100q8 61 31 156q16 74 39 172q2 6 20 86l2 10q33 121 39 158q6 27 17 69q2 10 6 31 q10 41 12 55q6 23 8 35q8 18 19 55q0 4 2 9v6q0 18 -35 18q-29 -4 -43 -4h-45q-53 0 -96 2q-33 0 -49 2q-4 0 -23 2q-14 0 -25 2q-37 0 -36 -26q0 -55 24 -56q25 -6 35 -41q6 -12 6 -49q0 -43 -8 -92q-14 -96 -86 -354q-49 -217 -82 -303q-45 -129 -45 -185zM379 1495 q0 -39 22 -68q29 -41 84 -41q51 0 103 41q51 41 63 101q4 10 4 33q0 37 -22 65q-31 41 -84 41q-55 0 -103 -41q-51 -45 -63 -98q-4 -10 -4 -33z" />
<glyph unicode="j" horiz-adv-x="899" d="M41 -268v-6q0 -35 43 -35h6l2 2h2l10 4q6 2 11 4q121 51 190 149q70 98 182 156q37 0 37 53q4 35 6 52q-4 -6 -4 -7q-2 4 -2 15q0 12 11 80q2 10 4 22q2 10 6 41q10 57 14 80q8 51 33 166q0 6 6 31q25 121 53 231q10 37 23 86q8 39 16 68q10 37 27 92q8 35 14 55 q6 23 12 31q4 8 9 26q0 29 -82 29h-33h-33h-37h-37q-36 0 -73 6q-37 0 -43 -26v-9q-2 -8 -2 -10q0 -20 16 -20q20 0 35 -39q8 -33 8 -76q0 -12 -2 -33q-2 -29 -2 -43q-2 -35 -18 -141l-3 -10q-14 -76 -53 -224q-16 -59 -43 -153q-2 -8 -14 -55q-23 -86 -49 -193 q-20 -92 -72 -184q-53 -90 -143 -166l-13 -12q-14 -14 -16 -27q0 -4 -2 -10zM582 1481q0 -37 22 -66q31 -41 84 -41q55 0 103 41q51 43 63 98q4 10 4 33q0 35 -22 68q-29 41 -84 41t-105 -43q-49 -39 -61 -99q-4 -10 -4 -32z" />
<glyph unicode="k" horiz-adv-x="1343" d="M41 41q0 -47 72 -47q8 0 20 2q16 2 25 2q14 2 49 2h49q53 0 94 -4q39 0 39 27q-6 25 -22 28q-14 2 -23 29q-6 10 -6 51v19q2 16 2 26q0 6 2 14q4 51 8 80q6 43 29 142q2 6 2 12q6 25 8 31q12 12 35 30q12 8 18 15q2 4 15 12l6 4q8 6 24 19q4 4 11 8q23 14 34 14 q25 0 41 -41q88 -219 111 -311q29 -137 29 -176q0 -14 69 -15h31q25 2 41 2q31 0 45 -2q12 -2 37 -2q6 0 18 -2q14 0 21 -2q29 -4 47 -6q35 0 35 21q0 2 -2 6q-2 8 -2 10q-14 51 -31 51q-16 0 -41 35q-23 20 -78 139q-45 94 -133 373q-14 45 -14 78q2 18 78 84 q150 129 239 192q25 14 72 45q39 25 78 29q8 0 65 47q10 10 15 31q-6 14 -19 14q-43 -6 -106 -6h-50h-47q-35 0 -51 2q-37 0 -57 2q-70 4 -99 8q-37 0 -63 -26q-8 -12 -8 -35q0 -20 22 -31q35 -14 37 -43q0 -31 -69 -100q-86 -86 -304 -244q-14 -12 -36 -18q-14 0 -15 12v8 q2 6 2 10l4 15q2 10 5 20l4 14q2 10 4 21l2 6q2 18 6 31q8 25 10 37q35 150 78 323q20 84 39 164q6 27 12 49q8 31 19 80q8 41 10 49q4 20 10 49q6 20 6 25q2 10 6 20q2 12 2 13q0 6 2 10l3 10l6 15l10 30q0 2 2 6v7q0 22 -23 22h-2h-4q-4 -2 -6 -2q-33 -4 -47 -8 q-12 -2 -45 -2h-49h-55q-40 0 -101 6q-37 0 -37 -29q6 -39 21 -39l6 2l8 2q20 0 27 -43v-14q2 -14 2 -24q0 -57 -19 -175q-12 -84 -43 -219q-31 -141 -73 -338q-47 -211 -70 -297q-29 -117 -55 -200q-68 -229 -74 -291z" />
<glyph unicode="l" horiz-adv-x="727" d="M41 51q0 -53 125 -53q55 0 96 2q53 0 94 -4q39 0 39 27q-6 33 -28 32q-18 0 -23 58q0 76 25 217q27 158 112 510q35 150 78 323q20 84 39 164q6 27 12 49q14 61 31 140q12 53 14 63t7 20q2 12 2 13q0 6 2 10l2 10l6 15l10 30q0 2 2 6v7q0 22 -22 22h-2h-5q-4 -2 -6 -2 q-33 -4 -47 -8q-14 -2 -45 -2h-49h-55q-40 0 -101 6q-37 0 -37 -29q0 -45 21 -45q23 0 35 -43v-16q2 -14 2 -25q0 -68 -15 -170q-20 -158 -114 -549q-90 -362 -133 -497q-72 -231 -72 -281z" />
<glyph unicode="m" horiz-adv-x="1949" d="M41 8q0 -31 70 -31q8 0 24 3q25 2 35 2h12q10 2 13 2q2 0 14 -2h12h49q29 0 90 -7q12 0 25 13q8 6 12 22q-2 45 -18 47q-14 2 -25 33q-8 12 -8 57v19q2 14 2 24q2 74 41 259h2q16 68 31 129q6 25 16 71q6 18 11 39q2 6 8 37q10 41 14 55q10 47 18 78q4 23 17 45 q12 25 61 49q68 33 117 45q86 23 139 23q76 0 105 -41q16 -27 16 -80q0 -96 -57 -319q-2 -2 -2 -5q0 -2 -2 -4q-2 -4 -2 -10q-2 -2 -2 -8q-2 -4 -2 -10q-2 -2 -3 -4v-2v-2l-2 -3q-39 -190 -81 -315q-47 -133 -48 -184q0 -18 7 -25q29 -18 124 -18h44h40q39 0 84 -6 q33 0 39 24q-10 33 -24 41q-18 8 -25 51v13q-2 10 -2 18q0 31 10 107q10 74 76 297v2v4v2h-2q2 2 2 8q2 6 2 8q4 10 6 25l2 4q2 12 2 16q0 2 2 6q0 4 3 6q0 2 2 11v8l2 4q2 8 2 12q4 12 4 19q4 12 4 18q4 16 8 41q2 8 4 19q2 10 4 18t4 18t4 19q2 8 5 18q2 10 4 19 q10 39 30 61q37 37 78 51q66 27 82 29q90 25 148 25q74 0 104 -35q23 -27 23 -88q0 -100 -56 -303q-2 -2 -2 -9q-2 -2 -2 -4q0 -4 -2 -6q0 -8 -2 -10q0 -6 -2 -8v-4v-2q-2 -3 -2 -5q-47 -215 -82 -315q-55 -162 -55 -201q0 -6 4 -12q16 -12 135 -14q14 0 43 -4q4 0 16 -4 q14 -2 23 -5q14 -2 84 -2q33 0 41 33q-10 33 -25 41q-18 8 -24 51q-4 10 -4 37q0 39 12 101q10 49 31 122q23 76 43 175q2 2 2 4v4h-2q2 2 2 8q2 6 2 8q4 10 6 25l2 4q2 12 2 16q2 6 2 12q4 12 4 19l2 4q2 8 2 12q4 12 4 19q4 12 4 18q16 70 23 103q4 18 14 65l6 25 q14 86 15 131q0 123 -84 139q-27 8 -92 8q-113 0 -267 -39q-47 -10 -90 -35q-14 -6 -41 -20q-39 -18 -55 -27q-27 -14 -43 -14q-14 0 -20 12q-12 16 -23 45q-25 53 -78 66q-20 6 -51 7t-104 1q-100 -2 -201 -31q-39 -8 -88 -34q-49 -27 -92 -43q-8 -4 -19 -5q-18 0 -18 13v8 q-2 6 -2 8q0 4 2 12t2 13l8 24q0 2 2 6v7q0 20 -35 20q-31 -4 -45 -4h-41q-57 0 -100 2q-31 0 -47 2q-10 2 -23 2q-12 0 -24 2q-37 0 -37 -27q4 -55 26 -57q20 -2 37 -39q4 -8 4 -39q0 -16 -6 -71l-2 -29q-8 -51 -31 -141q-20 -74 -55 -217q-16 -66 -39 -158l-6 -25 q-20 -88 -33 -123q-57 -178 -57 -223z" />
<glyph unicode="n" horiz-adv-x="1239" d="M41 49q0 -6 2 -14t2 -10q16 -29 80 -29h18q10 2 21 2h12q8 2 10 2q4 0 13 -2h10q14 -2 43 -2q27 0 41 -2q29 -4 45 -6q35 0 35 35q-6 45 -15 47q-12 4 -18 28v11q-2 10 -2 18t2 29q2 31 2 43q2 10 8 53q2 23 6 49q16 82 33 156q25 111 45 221q12 66 33 156q18 82 104 112 q14 6 43 15q16 4 41 12q92 24 153 24h5q70 0 98 -26q23 -23 23 -84q0 -96 -55 -299q0 -6 -2 -8v-7l-3 -6v-4l-2 -4v-4l-2 -4v-4l-2 -2q0 -2 -2 -2v-2h2q-45 -207 -86 -316q-57 -156 -57 -192q0 -8 4 -17q14 -20 82 -20h18q10 2 21 2q4 0 12 2h10q4 0 13 -2h8h41q33 0 84 -6 q33 0 39 26q-10 31 -21 39q-12 10 -16 54v12q-2 8 -2 14q0 41 12 109q10 82 60 297l2 2v2v4h-2q2 4 4 12q4 18 6 29q2 4 2 10t2 10q2 6 2 13l2 4q2 8 2 12q2 4 2 8t2 8t2 11q0 6 2 10t2 8t2 8q25 109 49 195q27 82 27 133q-2 61 -39 90q-35 25 -78 35q-23 6 -77 6 q-12 0 -31 -2q-25 -2 -37 -2q-98 -14 -197 -39q-43 -14 -69 -27q-16 -6 -52 -20l-22 -8q-8 -2 -10 -4q-29 -10 -37 -11q-12 0 -12 7q-2 8 -2 12q0 2 2 12q2 12 2 21q0 2 4 6l2 4v4t6 22q0 2 2 7v6q0 20 -35 20q-29 -4 -43 -4h-45q-23 0 -82 -2l-20 -2h-21q-18 -2 -22 -2 q-8 0 -27 2q-18 2 -29 2q-39 0 -39 -29q0 -55 27 -55q25 -2 41 -35q6 -12 6 -51q0 -35 -6 -84t-31 -139q-25 -88 -55 -215q-6 -25 -20 -76q-18 -74 -27 -106q-2 -4 -8 -31q-18 -68 -29 -92q-47 -141 -47 -193z" />
<glyph unicode="o" horiz-adv-x="1277" d="M41 440q0 -156 92 -276q131 -174 373 -174q244 0 450 174q209 172 265 416q16 76 16 137q0 160 -92 282q-131 175 -373 175q-240 0 -450 -175q-209 -176 -265 -419q-16 -78 -16 -140zM289 430q0 76 16 148q47 201 148 344q104 145 292 145q193 0 226 -141q14 -63 14 -150 q0 -90 -18 -198q-41 -211 -170 -347q-121 -133 -267 -133q-139 10 -202 146q-39 82 -39 186z" />
<glyph unicode="p" horiz-adv-x="1327" d="M41 -352q0 -4 2 -10v-7q4 -16 35 -16q53 0 110 45q55 45 109 51q20 2 33 37q6 27 12 51q4 8 4 27q0 4 -2 12q-2 10 -2 15q-2 14 -2 45q4 18 6 36q2 16 4 21q10 39 49 43q289 33 553 242q258 207 314 454q20 84 20 162q0 133 -63 209q-98 117 -305 117q-88 -4 -150 -54 q-65 -47 -100 -57q-10 -4 -31 -4q-2 0 -10 2h-13q-14 0 -14 16v7q2 6 2 10q4 10 4 24q0 49 -59 50h-8q-8 -2 -13 -2q-10 0 -20 -3q-25 -4 -41 -4q-37 0 -86 -4q-31 0 -64 2q-16 2 -20 2q-35 0 -35 -26q0 -8 -2 -19v-12q0 -31 18 -31q33 0 41 -39q8 -29 9 -67q0 -41 -11 -129 q-18 -158 -110 -539q-57 -233 -99 -379q-49 -158 -61 -245q-4 -12 -4 -33zM395 156q0 2 2 10v8l6 31l5 14q2 10 4 21q2 8 4 18t4 18q0 4 4 17q2 14 4 22q12 47 33 146l8 41q6 23 16 76q12 61 17 75q8 39 14 62q12 49 14 61q8 35 13 49q8 39 10 49q10 45 33 66q31 27 45 33 q68 37 157 41q154 0 199 -107q25 -57 25 -133q0 -55 -17 -127q-16 -76 -73 -176q-63 -106 -166 -188q-61 -51 -133 -88q-86 -47 -140 -68q-33 -16 -51 -16q-12 0 -22 10q-14 14 -15 35z" />
<glyph unicode="q" horiz-adv-x="1361" d="M41 365q0 -131 59 -234q90 -158 275 -158h22q12 2 25 2q147 16 280 97q12 4 25 16q0 4 6 4q4 -4 4 -8q0 -2 -2 -6q-2 -10 -2 -17q-39 -137 -71 -221q-29 -72 -54 -172q0 -4 -2 -8v-6q0 -4 2 -10q4 -12 43 -13q37 0 86 47t125 52q18 4 35 22q23 23 25 60q10 88 36 215 q35 147 56 266q72 373 121 547q43 154 79 207q24 40 53 40h1q29 0 49 46q4 6 4 12q0 14 -31 14h-26q-20 -2 -23 -2q-10 0 -20 2h-19l-18 2q-53 2 -72 2q-49 0 -51 -2q-16 -6 -60 -8q-37 0 -36 -25q0 -2 2 -6q2 -6 2 -8v-12q-6 -35 -17 -35q-6 0 -10 4l-10 8q-12 11 -12 13 q-51 31 -107 57q-57 25 -121 25q-203 0 -373 -166q-176 -168 -247 -435q-31 -113 -31 -208zM289 463q0 61 18 135q51 195 133 313q92 131 230 131q119 0 223 -110q18 -20 18 -49q0 -4 -2 -13q-2 -8 -2 -12q-6 -31 -18 -92q-10 -51 -23 -115q-14 -57 -30 -139 q-18 -80 -37 -172q-16 -84 -64 -113q-49 -27 -98 -49t-79 -22h-3q-4 0 -10 2h-6q-147 23 -215 153q-35 61 -35 152z" />
<glyph unicode="r" horiz-adv-x="1011" d="M41 39q0 -33 139 -33h47q14 -2 43 -2q31 0 45 -2t47 -2q10 0 23 8q12 12 12 27q-2 41 -14 45q-16 4 -23 24q-4 10 -4 43v23q2 18 2 31q4 47 15 100q8 61 30 156q6 29 17 73q6 31 10 48q14 53 25 102q6 23 14 63l6 25q2 10 4 18q8 37 13 56q10 41 32 67q25 31 68 54 q39 20 61 20q63 0 64 -49v-10q-2 -8 -2 -13q-8 -27 -23 -39q-45 -39 -51 -69l-6 -21q0 -33 31 -32q20 0 120 57q106 57 125 70q43 27 52 71v2t2 2v2v4q0 3 2 5q4 18 4 51q0 66 -37 108q-51 57 -119 58q-66 0 -92 -21q-31 -25 -82 -55q-18 -14 -29 -19q-16 -8 -22 -10 q-4 -2 -8 -2q-6 2 -11 2q-8 0 -8 12v7q2 4 2 8t2 8v6q0 41 -73 41h-33h-17q-53 0 -96 2q-33 0 -47 2q-10 2 -22 2q-20 2 -25 2q-39 0 -39 -26q0 -53 27 -56q23 -6 34 -41q6 -12 7 -47q0 -18 -7 -71q0 -10 -2 -23q-10 -57 -32 -139q-25 -88 -56 -215q-6 -25 -20 -76 q-18 -74 -27 -106q-8 -35 -22 -89q-8 -29 -11 -32q-59 -172 -65 -205z" />
<glyph unicode="s" horiz-adv-x="1107" d="M41 186q0 -23 14 -30q59 -68 178 -111q121 -43 269 -43q158 0 340 115q180 115 217 295q8 31 8 86q0 78 -31 127q-45 76 -127 123q-78 45 -180 67q-98 23 -178 43q-43 16 -80 49q-33 25 -33 54q0 2 2 6v6q10 49 62 63q53 16 116 23q78 0 187 -51q112 -58 151 -140 q8 -14 19 -28q12 -16 31 -17q43 0 45 49q-4 53 -11 78q-8 33 -8 94q0 27 -33 41q-35 12 -51 23q-51 25 -123 37q-55 10 -149 20l-2 -2q-20 4 -62 4q-109 0 -217 -45q-131 -55 -166 -215q-10 -35 -10 -61q0 -45 25 -86q43 -63 121 -86q66 -39 172 -64q94 -20 182 -53 q59 -41 84 -84q16 -29 16 -70q0 -25 -6 -53q-25 -102 -113 -164q-82 -57 -157 -57q6 0 6 2q-6 -2 -17 -2q-92 0 -149 22.5t-92 69.5q-70 94 -82 193q-4 18 -8 65q0 45 -49 45q-39 0 -50 -47q-2 -12 -6 -31q-6 -33 -8 -40q-8 -29 -20 -91q-6 -23 -15 -63l-6 -25 q-6 -16 -6 -41z" />
<glyph unicode="t" horiz-adv-x="874" d="M41 45q0 -23 30.5 -34t104.5 -11q53 0 96 -2q31 0 95 -6q31 0 36 26q0 8 3 21v12q0 31 -11 31q-18 4 -24 53v19q-2 14 -2 24q0 63 14 158q18 121 106 500q12 49 17 71q4 14 8 35q4 18 8 33q8 41 15 61q4 20 16 58q0 6 8 30q6 16 29 17h8q6 -2 8 -2q35 -6 45 -13 q10 -6 49 -6q18 0 41 15q18 14 33 32q2 4 6 13l4 4q8 8 13 14q12 14 22 25q14 23 15 43q-6 26 -37 26q-4 0 -15 2q-4 2 -8 2q-6 2 -8 2q-10 2 -14 2q-76 -4 -113 -14q-31 0 -31 25v10q2 8 2 14q6 33 25 99l4 20q6 31 12 55q2 10 4 19q12 43 17 63l6 17q0 2 6 14q0 4 4 12 q2 10 6 25q0 4 2 22q2 8 2 17q0 20 -41 20h-14h-29q-33 0 -47 -32q-45 -123 -170 -281q-121 -152 -225 -186q-25 -10 -35 -35q-6 -18 -8 -27q0 -16 2 -29v-6q10 -12 31 -12q51 0 86 8q8 0 18 -2h15q14 0 14 -20v-9q-2 -6 -2 -10q-4 -18 -12 -59q-6 -20 -15 -62 q-12 -41 -16 -63q-4 -14 -8 -39q-6 -23 -9 -33q-49 -213 -71 -297q-31 -125 -49 -196q-66 -240 -72 -283z" />
<glyph unicode="u" horiz-adv-x="1216" d="M41 139q0 -53 20 -90q42 -67 135 -67h3q94 0 219 43q10 4 61 22q49 16 60 21q82 29 120 43q10 6 23 6q14 0 14 -11q0 -4 -2 -14q-2 -16 -4 -29q0 -4 -2 -12v-8q0 -4 2 -12q2 -10 2 -15q6 -16 35 -16h8q8 2 13 2q10 2 65 2q25 0 78 -4h12q35 0 49 -2q10 -2 21 -2 q14 -2 18 -2q18 0 25 16q8 27 8 60q0 20 -6 20q-18 4 -31 29q-12 16 -12 71v19q2 14 2 24q2 80 63 332q12 57 39 166q2 14 13 55q10 45 20 80q10 41 14 62q6 31 19 80l2 6q2 8 4 12q6 27 8 35q4 16 8 22v9l4 14q2 8 5 14q0 25 -5 33q-10 16 -34 16q-31 -2 -56 -6 q-20 -6 -53 -6h-39h-47q-51 0 -86 6q-25 0 -25 -18q-6 -18 -6 -43t11 -25q18 -6 30 -39q8 -14 8 -73v-25q-2 -23 -2 -35q-6 -90 -69 -346q-4 -14 -12 -49q-8 -27 -11 -37q-2 -12 -8 -37q-4 -18 -6 -24t-4 -17q-4 -20 -8 -30q-2 -12 -6 -27q-4 -14 -7 -27q-12 -51 -98 -88 q-63 -29 -111 -41q-23 -4 -67 -16l-35 -10h-8q-10 -2 -19 -2q-33 0 -55 4q-37 6 -37 82q0 55 23 168h-4q8 41 45 196l2 12q68 276 88 357q14 55 33 112l2 9q4 10 8 14l2 -2q4 8 8 31q0 12 -10 18q-10 8 -23 8q-84 -8 -131 -8q-25 0 -41 -2q-14 -2 -51 -2h-29q-20 -2 -24 -2 q-10 0 -23 2h-18q-20 0 -27 -18v-15q-2 -10 -2 -12q0 -27 15 -27q23 -2 36 -32q12 -25 13 -84v-23q-2 -12 -2 -25q-6 -102 -68 -348q0 -4 -6 -24q-6 -27 -10 -37q-6 -16 -13 -43l-2 -10q-6 -27 -12 -50q-8 -25 -12 -47h2q-2 -2 -2 -4q0 -4 -2 -6q0 -8 -2 -12v-6q-2 -4 -2 -6 q-2 -4 -2 -13q-29 -104 -29 -170z" />
<glyph unicode="v" horiz-adv-x="1181" d="M41 1128q8 -33 20 -32q14 0 29 -31q20 -33 51 -147q31 -111 80 -381q4 -16 10 -58q8 -43 13 -67q8 -41 24 -119l2 -14q12 -74 19 -105q12 -82 18 -125q6 -61 64 -61q39 0 82 61q43 66 151 234l19 30q57 90 84 133q18 29 59 97q20 31 22 35q135 213 226 346q74 98 110 168 q16 29 17 43q0 25 -39 24h-82q-86 0 -139 6q-29 0 -39 -24q-14 -35 -15 -58q0 -27 27 -26q31 0 31 -31q0 -2 -2 -8q-2 -10 -2 -17q-8 -35 -56 -118q-55 -94 -161 -244q-25 -33 -64 -102l-10 -17q-29 -55 -58 -98q-25 -33 -34 -33q-6 2 -17 37q-10 51 -14 104q-6 78 -21 125 q-51 199 -53 275q0 100 8 174q0 2 2 6v6q0 45 -61 45q-37 0 -53 -2t-39 -2q-35 0 -70 10q-37 10 -69 13q-8 0 -43 -21q-27 -20 -27 -31z" />
<glyph unicode="w" horiz-adv-x="1624" d="M41 1133q12 -61 22 -62q4 0 5 2q8 0 20 -14q8 -14 37 -131q12 -74 25 -146q16 -94 36 -233q6 -43 19 -125q6 -39 12 -111l2 -10q4 -61 12 -119q6 -45 15 -125q6 -69 58 -69h1q47 2 80 39h-4q70 145 170 323q82 145 164 326q2 8 20 22q4 6 10 7q6 0 7 -19q4 -37 6 -76 q6 -63 8 -86q2 -20 4 -55q6 -74 8 -109q16 -211 29 -323v2q10 -47 59 -47q43 0 82 61q90 152 146 256q37 78 61 127q35 68 78 137q63 113 129 213q4 4 41 64q33 49 45 70q84 137 127 200q8 8 8 21q0 24 -58 24h-5h-19q-12 -2 -22 -2h-11q-8 -2 -10 -2h-8q-8 2 -12 2 q-14 2 -39 6q-29 4 -41 7q-6 2 -17 2q-12 0 -18 2q-8 0 -25 -17q-14 -14 -18 -22q-8 -12 -8 -31q0 -18 14 -18q25 -2 33 -35q0 -43 -39 -146q-39 -96 -195 -352q-10 -18 -16 -29q-16 -27 -16 -28q-2 -4 -15 -31q-10 -14 -10 -16q-16 -20 -22 -21l-2 2q-4 4 -9 19 q-8 109 -14 170q-8 53 -16 149v6q-4 47 -17 146q-6 49 -10 162q-2 81 -48 81h-1q-55 0 -88 -88q-27 -70 -64 -135q-31 -59 -96 -166q-106 -182 -180 -327q-14 -31 -25 -31q-12 0 -12 29q-2 6 -2 16q0 8 -2 14q-4 16 -4 25q0 8 -4 37q-2 8 -6 37q-43 225 -44 342q8 162 9 215 q0 24 -65 24h-5q-6 0 -25 -2q-27 -2 -36 -2h-9q-8 -2 -10 -2t-8 2h-10q-10 2 -21 2q-10 0 -20 2t-19 2q-16 2 -20 2q-20 4 -37 7q-12 0 -29 -17q-16 -16 -16 -24z" />
<glyph unicode="x" horiz-adv-x="1316" d="M41 25q0 -20 6 -21q66 8 123 8q6 0 43 -2q14 0 68 -2q31 -2 90 -6l18 -2q35 0 60 27q16 20 16 28q0 14 -12 15q-31 10 -39 34v7q-2 4 -2 8q0 29 30 86q37 66 209 237q16 16 31 17q14 0 20 -17q86 -174 97 -254q4 -27 4 -71q0 -43 -8 -68v-6q-2 -4 -2 -6q0 -31 51 -31 q2 0 12 2h12q10 2 33 2q20 0 31 2h43q82 0 133 -8q25 0 45 14q23 18 23 29q-16 39 -31 47q-20 10 -49 51q-33 45 -84 142q-41 80 -138 319q-8 14 -8 39q0 37 31 70q188 209 270 280q84 78 105 127q4 6 4 15q0 23 -43 22q-6 0 -19 -2q-14 -2 -22 -2h-10q-16 -2 -33 -2 q-10 2 -29 2q-20 2 -30 2q-74 0 -99 4l-6 2h-6q-14 0 -21 -12q-10 -18 -16 -41q-4 -8 -4 -23q0 -18 14 -24q20 -12 33 -33q2 -6 2 -10q0 -18 -18 -53q-25 -43 -125 -144q-27 -27 -41 -26q-8 0 -15 10q-53 123 -59 174q-8 51 -8 117q0 8 2 20v10q0 31 -96 31h-66 q-18 -2 -45 -2h-33h-34q-14 0 -52 2q-6 2 -16 2q-12 0 -19 -12q-4 -6 -4 -16q0 -4 2 -9q12 -51 21 -51q4 0 31 -24q29 -35 65 -109q39 -66 135 -301q4 -8 4 -23q0 -29 -26 -55q-47 -49 -58 -61l-129 -135q-53 -55 -127 -129q-49 -45 -122 -95q-68 -45 -107 -86q-6 -4 -6 -30 z" />
<glyph unicode="y" horiz-adv-x="1388" d="M41 -393q0 -29 20 -33q16 -4 41 -4q6 0 15 2h8q23 6 70 6h34q27 0 39 -2q2 0 8 -2h9q31 0 51 27q121 154 231 370q47 94 117 201q61 90 111 166q113 170 192 303q86 141 131 199q96 137 150 190q80 74 80 105q0 12 -17 18q-55 12 -123 12q-55 0 -88 2q-31 0 -45 2 q-6 2 -18 2q-13 1 -19 3q-31 0 -51 -39q-12 -20 -12 -33q0 -12 20 -12q35 0 41 -41q2 -6 2 -11q0 -45 -59 -170q-74 -156 -295 -473q-37 -55 -51 -55q-16 0 -25 33q-2 2 -2 4t-2 4v4l-2 4q0 6 -2 10v9q-80 354 -92 491q-12 139 -12 197q0 12 2 28v9q0 22 -61 22h-5 q-31 0 -84 -6q-47 0 -76 10q-29 6 -75 15q0 6 -4 6q-6 0 -23 -17q-27 -25 -27 -37q10 -45 31 -53q23 -8 51 -65q25 -45 66 -203q35 -160 78 -463l12 -80q4 -27 12 -84q4 -55 8 -80q2 -14 7 -41q0 -12 2 -22q0 -8 2 -21v-16q0 -25 -6 -39q-14 -25 -35 -49q-92 -111 -152 -152 q-41 -25 -53 -37q-6 -10 -55 -30q-14 -8 -31 -17q-16 -8 -35 -26q-4 -4 -4 -41z" />
<glyph unicode="z" horiz-adv-x="1370" d="M68 -4q84 4 178 7t225 3h18q252 -4 385 -4q51 0 91 45q43 47 69 96q23 47 78 97q29 20 39 61q0 2 2 6v6q0 31 -33 31q-18 0 -53 -29q-12 -10 -31 -24q-12 -10 -22 -19q-145 -96 -285 -127q-133 -32 -150 -32h-1q-49 0 -74 2q-47 0 -70 -2q-12 0 -12 6q2 6 2 10 q6 10 12 23q90 115 168 192q59 57 180 193q47 55 134 153q86 100 112 131q143 160 264 279q35 35 35 47q0 14 -26 14q-92 0 -177 -2l-256 -6h-82q-80 -2 -151 -2q-103 0 -107 10q-29 -2 -67 -51q-41 -53 -64 -84q-35 -49 -69 -80q-20 -20 -21 -45q6 -27 17 -33q8 -6 22 -6 q20 0 43 17q31 20 70 55q43 41 147 80q81 30 205 30h8h37q23 -2 41 -2l14 -4q8 -2 15 -4q10 0 10 -10t-12 -27q-82 -104 -164 -188q-94 -98 -180 -195l-11 -10q-160 -180 -239 -264q-131 -141 -269 -266q-22 -26 -22 -49q0 -29 27 -29z" />
<glyph unicode="{" horiz-adv-x="671" d="M41 850q0 -41 49 -78q53 -39 53 -94q-41 -227 -41 -422q0 -20 2 -45v-43q12 -215 86 -266q-20 88 -20 231q0 6 2 47v51q10 205 55 457q0 2 2 6v6q0 41 -53 78q-51 35 -51 78q0 2 2 6v6q12 45 90 93q78 49 90 92q68 256 154 467q80 207 170 340q-92 -49 -209 -273 q-113 -225 -195 -528q-12 -41 -92 -94q-80 -49 -92 -99v-8q-2 -6 -2 -8z" />
<glyph unicode="|" horiz-adv-x="503" d="M41 45h63l359 1595h-64z" />
<glyph unicode="}" horiz-adv-x="665" d="M41 -98q94 51 205 266q113 221 192 510q12 47 92 94q80 43 93 94q0 2 2 6v7q0 41 -50 86q-51 45 -51 94q45 246 45 444v43q-2 35 -2 41q-12 221 -86 273q20 -102 21 -224q0 -18 -2 -55q-2 -39 -2 -61q-8 -197 -58 -467v-4q-2 -4 -2 -7q0 -37 51 -81q51 -45 52 -80v-7 q-2 -4 -2 -6q-12 -51 -90 -90q-78 -43 -91 -90q-74 -264 -151 -457q-84 -208 -166 -329z" />
<glyph unicode="~" horiz-adv-x="735" d="M41 1477q61 76 111 120q53 47 94 48q55 0 104 -101q8 -20 21 -49l2 -6l2 -6l2 -6v2q45 -88 98 -88q43 0 94 49q47 41 111 119q2 4 2 8t2 8q0 4 2 10l2 4v6q2 4 2 9q2 2 2 8q0 2 2 6q-61 -78 -110 -121q-57 -47 -97 -47q-53 0 -100 98q-6 14 -18 43q-4 8 -7 15l-2 6l-2 6 v-2q-45 88 -98 88q-41 0 -94 -47q-49 -45 -111 -121q-2 -4 -2 -6q0 -6 -2 -8q-2 -4 -2 -9q0 -4 -2 -8q0 -4 -2 -8v-6q-2 -4 -2 -6q0 -6 -2 -8z" />
<glyph horiz-adv-x="374" d="M41 1470q0 -46 16 -71q31 -57 62 -58q8 0 8 13q0 20 -10 45q-6 29 -6 84q20 -14 55 -15q55 0 102 41q49 41 62 99q4 12 4 34q0 37 -21 64q-31 41 -86 41q-106 0 -159 -141q-27 -78 -27 -136z" />
<glyph horiz-adv-x="350" d="M41 1573q0 -37 20 -64q29 -41 86 -41q33 0 60 15q-20 -45 -43 -84q-35 -41 -35 -53q0 -4 6 -5q35 1 88 58q72 66 84 207q0 8 2 18v14q0 109 -100 109q-53 0 -105 -41q-47 -41 -59 -98q-4 -12 -4 -35z" />
<glyph horiz-adv-x="665" d="M41 1470q0 -46 16 -71q31 -57 62 -58q8 0 8 13q0 20 -10 45q-6 29 -6 84q20 -14 55 -15q55 0 102 41q49 41 62 99q4 12 4 34q0 37 -21 64q-31 41 -86 41q-106 0 -159 -141q-27 -78 -27 -136zM330 1473q0 -45 18 -74q31 -57 62 -58q10 0 10 15q0 12 -10 43q-8 37 -9 84 q23 -14 56 -15q53 0 104 41q47 41 60 99q4 12 4 34q0 37 -21 64q-29 41 -86 41q-111 0 -160 -141q-29 -80 -28 -133z" />
<glyph horiz-adv-x="638" d="M41 1573q0 -37 20 -64q29 -41 86 -41q33 0 60 15q-20 -45 -43 -84q-35 -41 -35 -53q0 -4 6 -5q35 1 88 58q72 66 84 207q0 8 2 18v14q0 109 -100 109q-53 0 -105 -41q-47 -41 -59 -98q-4 -12 -4 -35zM332 1573q0 -37 20 -64q31 -41 84 -41q35 0 64 15q-29 -55 -45 -84 q-33 -43 -33 -53q0 -4 6 -5q33 1 86 58q70 68 82 207q0 8 2 18v14q0 109 -100 109q-53 0 -101 -41q-49 -39 -61 -98q-4 -12 -4 -35z" />
<glyph unicode="&#xa3;" horiz-adv-x="1591" d="M41 37q0 -2 2 -8t2 -11q8 -20 27 -20q233 16 442 18q145 0 260 -3t242 -11q57 0 84 43q29 45 49 84l20 33q18 31 31 49q27 43 72 88l2 2q49 55 74 88q14 20 14 51q-6 27 -35 27q-74 0 -117 -59q-106 -119 -264 -150q-150 -31 -364 -35q-74 0 -74 47q0 18 8 37 q27 61 84 185q47 92 68 186q10 41 10 100h90h197l-7 64h-278q-4 115 -8 172v20q-2 16 -2 21q0 51 14 119q23 96 88 182q41 61 119 108q68 47 106 56q37 6 109 6q51 0 102 -23q43 -20 43 -24q0 -10 -30 -41q-53 -59 -70 -133q-6 -18 -6 -56q0 -53 29 -98q43 -63 124 -64 q82 0 152 64q72 63 94 154q6 18 6 53q0 29 -10 59q-31 133 -162 217q-131 80 -317 80t-344 -92t-244 -227h-2q-74 -129 -94 -221q-16 -61 -17 -121q0 -2 2 -19v-22q4 -111 5 -170h-78l6 -64h70q-2 -53 -13 -100q-37 -160 -121 -320q-80 -150 -182 -301q-8 -6 -8 -20z" />
<glyph unicode="&#xad;" d="M41 520h848l14 58h-850z" />
<glyph unicode="&#x2000;" horiz-adv-x="940" />
<glyph unicode="&#x2001;" horiz-adv-x="1880" />
<glyph unicode="&#x2002;" horiz-adv-x="940" />
<glyph unicode="&#x2003;" horiz-adv-x="1880" />
<glyph unicode="&#x2004;" horiz-adv-x="626" />
<glyph unicode="&#x2005;" horiz-adv-x="470" />
<glyph unicode="&#x2006;" horiz-adv-x="313" />
<glyph unicode="&#x2007;" horiz-adv-x="313" />
<glyph unicode="&#x2008;" horiz-adv-x="235" />
<glyph unicode="&#x2009;" horiz-adv-x="376" />
<glyph unicode="&#x200a;" horiz-adv-x="104" />
<glyph unicode="&#x2010;" d="M41 520h848l14 58h-850z" />
<glyph unicode="&#x2011;" d="M41 520h848l14 58h-850z" />
<glyph unicode="&#x2012;" d="M41 520h848l14 58h-850z" />
<glyph unicode="&#x2013;" horiz-adv-x="1106" d="M41 520h1007l17 58h-1010z" />
<glyph unicode="&#x2014;" horiz-adv-x="2130" d="M41 520h2015l33 58h-2019z" />
<glyph unicode="&#x202f;" horiz-adv-x="376" />
<glyph unicode="&#x205f;" horiz-adv-x="470" />
<glyph unicode="&#x25fc;" horiz-adv-x="1167" d="M0 0v1167h1167v-1167h-1167z" />
</font>
</defs>
</svg>
