<?xml version="1.0" standalone="no"?>
<!DOCTYPE svg PUBLIC "-//W3C//DTD SVG 1.1//EN" "http://www.w3.org/Graphics/SVG/1.1/DTD/svg11.dtd" >
<svg xmlns="http://www.w3.org/2000/svg">
<metadata></metadata>
<defs>
<font id="boltonelongatedregular" horiz-adv-x="548" >
<font-face units-per-em="2048" ascent="1638" descent="-410" />
<missing-glyph horiz-adv-x="481" />
<glyph horiz-adv-x="0" />
<glyph horiz-adv-x="682" />
<glyph unicode=" "  horiz-adv-x="481" />
<glyph unicode="&#x09;" horiz-adv-x="481" />
<glyph unicode="&#xa0;" horiz-adv-x="481" />
<glyph unicode="!" horiz-adv-x="169" d="M-2 139q0 -57 25 -98q23 -41 57 -41q33 0 57 41q25 41 25 98q0 59 -25 99q-24 41 -57 41q-35 0 -57 -41q-25 -39 -25 -99zM8 1108l27 -780q33 33 45 39q6 0 51 -35q0 213 8 387q8 125 17 383v6v139q0 221 -17 328q-25 156 -55 158q-31 0 -55 -156q-20 -123 -21 -371v-98z " />
<glyph unicode="&#x22;" horiz-adv-x="243" d="M4 1577q2 -102 13.5 -137t33.5 -35q23 0 33 35t10 137v129h-90v-129zM143 1577q2 -100 12.5 -136t32.5 -36q23 0 33 34t10 138v129h-88v-129z" />
<glyph unicode="#" d="M0 418h170l-27 -324h33l29 324h92l-29 -324h35l29 324h190v57h-186l12 154h174v57h-170l31 342h-37l-29 -342h-92l31 342h-37l-26 -342h-193v-57h186l-12 -154h-174v-57zM209 475l12 154h92l-12 -154h-92z" />
<glyph unicode="$" horiz-adv-x="632" d="M2 227q0 -61 14 -71q76 -111 215 -146l-14 -225h27l14 219q16 -2 55 -2q98 0 195 115q92 111 92 295q-6 225 -100 301q-98 80 -195 114l12 207q47 -23 89 -67q47 -45 67 -99q4 -8 16 -28q10 -16 21 -17q23 0 22 35v8l-2 6q-8 53 -16 78q-10 39 -18 94q-2 25 -25 41 q-20 10 -37 23q-41 31 -110 45l14 238h-27l-12 -234q-2 0 -10 2q-16 4 -29 6v-2q-2 0 -18 2h-19q-72 0 -131 -43q-72 -55 -72 -215q0 -92 31 -147q35 -63 86 -86q29 -25 60 -39q45 -20 69 -31l-28 -461q-68 35 -107 115q-41 80 -55 156q-6 23 -13 65q-8 45 -36 45 q-25 0 -25 -47v-71v-91v-88zM141 973q0 47 29 63q35 16 70 23q24 0 51 -12l-12 -211q-14 6 -23 10q-23 8 -31 12q-27 16 -55 49q-29 33 -29 66zM266 133l27 461q45 -18 78 -37q41 -37 63 -84q23 -49 23 -123q0 -104 -45 -164q-43 -57 -90 -57h-7q-16 0 -34 2q-11 2 -15 2z " />
<glyph unicode="%" horiz-adv-x="632" d="M-6 889q0 -119 49 -203q53 -84 123 -84q72 0 121 84q51 82 51 203q0 129 -57 213q70 -35 122 -35q66 0 144 45l-533 -1112h25l543 1133q2 0 2 2q2 0 2 2v4l6 16h-6v4q0 -2 -2 -2l-4 -2h-13l-4 -10q-86 -55 -160 -55q-80 -1 -180 69v-4q-29 16 -57 17q-70 0 -123 -84 q-49 -82 -49 -201zM90 887q0 94 16 170q17 71 58 71q45 0 59 -69q14 -78 17 -172q0 -113 -21 -172q-23 -66 -53 -66q-31 4 -53 72q-23 72 -23 166zM258 276q0 -117 51 -198q49 -84 121 -84t121 84q51 82 51 198q0 119 -51 201q-49 84 -121 84t-121 -84q-51 -82 -51 -201z M354 276q0 94 17 170q14 70 59 70q43 0 57 -67q16 -70 19 -173q0 -100 -23 -172q-18 -66 -51 -65q-33 4 -55 72q-23 72 -23 165z" />
<glyph unicode="&#x26;" horiz-adv-x="827" d="M-2 588q0 -80 16 -168q45 -236 183 -344q82 -66 161 -66q53 0 119 33q2 0 6 2h2q12 0 19 -16q8 -27 28 -27q66 12 113 12q57 0 121 -12q14 0 14 10q0 4 -4 17q-20 61 -37 61q-14 0 -65 88q-2 4 -2 15q0 14 12 28q31 45 41 68q16 27 16 47q-6 23 -10 119q-2 41 -2 118 q0 27 -12 27l-2 -2q-6 -2 -10 -2q-18 -8 -19 -45l2 -23q-12 -94 -55 -194q-8 -25 -17 -25l-4 4q-8 16 -12 27q-2 8 -12 37q-39 102 -66 168q-39 96 -112 295q-20 66 -43 123q-8 23 -27 73q-6 18 -12 37v4l-2 2q-4 8 -4 21q0 18 18 24q18 8 57 9q41 0 78 -15q70 -25 119 -90 q14 -23 29 -22l6 4q10 6 10 18q0 8 -10 33q-33 59 -56 117l-4 12q-8 18 -12 24q-8 10 -31 15q-29 10 -82 10q-74 0 -135 -35q-4 -4 -12 -4q-16 0 -29 35q-2 12 -10 31l-6 18q-4 14 -8 23q-6 16 -8 24q-8 41 -19 76l-4 20q-4 25 -4 35q0 2 2 6v7q6 33 27 47q4 6 14 6 q16 0 35 -23q29 -37 37 -63q4 -16 4 -29v-12q-6 -14 -6 -41q0 -20 6 -37q4 -18 6 -20q4 -16 14 -17q8 0 14 6q16 14 21 43q4 55 25 88q23 35 36 80q8 18 9 41q0 23 -9 41q-2 4 -2 8t-2 6q-18 61 -51 91q-32 28 -61 28q-10 4 -29 4q-25 0 -49 -12q-119 -57 -137 -201 q-6 -25 -7 -75q0 -123 46 -273l2 -10q6 -25 6 -37q0 -27 -15 -41q-88 -109 -125 -289q-23 -106 -22 -196zM156 754q0 123 30 204q6 20 17 35q10 1 18 -24q8 -20 25 -66l24 -74q98 -279 140 -409q47 -143 67 -219q6 -10 6 -29q0 -31 -22 -31h-10q-10 -2 -13 -2q-74 0 -141 86 q-82 104 -115 279q-27 121 -26 250z" />
<glyph unicode="'" horiz-adv-x="98" d="M4 1577q0 -100 11.5 -136t33.5 -36q23 0 34 36t11 136v129h-90v-129z" />
<glyph unicode="(" horiz-adv-x="143" d="M-4 881q0 -362 41 -643q41 -279 98 -336q-39 139 -63 405q-25 262 -25 574q0 311 25 571q25 262 63 408q-57 -61 -98 -336q-41 -283 -41 -643z" />
<glyph unicode=")" horiz-adv-x="155" d="M8 -80q61 63 101 338q41 281 41 643q0 360 -41 643q-39 272 -101 336q39 -145 64 -407q25 -260 24 -572q0 -313 -24 -571q-25 -265 -64 -410z" />
<glyph unicode="*" horiz-adv-x="186" d="M8 1370q2 0 2 -2q10 0 68 82q4 -137 12 -137q10 0 16 137q49 -82 64 -82l4 2v2q0 12 -14 43q-12 27 -43 86l-4 6l4 6q31 59 43 86q14 29 14 43v3l-4 2q-14 0 -64 -82q-6 137 -16 137q-8 0 -12 -139q-55 84 -68 84l-2 -2v-5q0 -12 15 -41q14 -35 47 -92q-37 -61 -47 -90 q-14 -31 -15 -43v-4z" />
<glyph unicode="+" d="M0 520h244v-405h35v405h243v58h-243v407h-35v-407h-244v-58z" />
<glyph unicode="," horiz-adv-x="202" d="M0 137q0 -59 27 -98q29 -41 67 -41q6 -6 17 -18q6 -12 6 -25q0 -18 -15 -72q-12 -41 -12 -53q0 -4 2 -4q22 0 53 57q20 39 33 109q10 57 10 102v21q-2 16 -2 20q-12 141 -92 141q-39 0 -67 -40q-27 -39 -27 -99z" />
<glyph unicode="-" d="M0 520h522v58h-522v-58z" />
<glyph unicode="." horiz-adv-x="169" d="M-2 139q0 -57 25 -98q23 -41 57 -41q33 0 57 41q25 41 25 98q0 59 -25 99q-24 41 -57 41q-35 0 -57 -41q-25 -39 -25 -99z" />
<glyph unicode="/" horiz-adv-x="434" d="M16 45h41l357 1595h-39z" />
<glyph unicode="0" horiz-adv-x="831" d="M-4 858q0 -350 125 -606q127 -252 270 -252q145 0 273 231q125 233 124 627q0 395 -129 625q-133 231 -268 231t-264 -252q-131 -250 -131 -604zM174 784v70q10 307 57 518q47 213 156 215q109 0 166 -203q49 -174 49 -438v-45q-2 -27 -2 -47q-8 -326 -65 -526 q-55 -197 -148 -209q-94 0 -156 211q-57 190 -57 454z" />
<glyph unicode="1" horiz-adv-x="434" d="M-4 1145q0 -18 20 -43q6 -8 23 -8h4q6 2 8 2q10 4 15 10l8 8l2 2q16 25 37 43q14 10 39 35q4 4 10 4q8 0 12 -2q14 -8 14 -31v-168v-168q0 -45 2 -96v-80q0 -229 -8 -325q-8 -147 -24 -197q-12 -47 -31 -51q-18 -4 -27 -64v-10q0 -16 21 -16l69 12q8 0 17 2q37 2 55 2 q41 0 66 -2t65 -10q20 0 21 26q0 45 -15 46l-2 -3q-2 0 -6 -2q-12 0 -24 35q-16 43 -29 185q-4 68 -7 187.5t-3 313.5q0 96 2 174v244q0 57 2 125v113q0 51 2 110v49l2 9q6 35 6 49q0 43 -18 45l-5 2h-4q-12 0 -26 -10q-8 -8 -17 -33q-12 -37 -41 -119l-6 -18 q-12 -37 -53 -121q-33 -61 -80 -109q-51 -53 -78 -96q-10 -14 -14 -35q-4 -6 -4 -16z" />
<glyph unicode="2" horiz-adv-x="733" d="M-8 1251q4 -244 119 -366q12 -12 16 -15q4 -2 10 -10q29 -20 68 -20q119 0 151 118v7q2 4 2 8h2v16q0 57 -30 58q-10 0 -21 -17q-39 -57 -96 -57q-25 0 -45 26q-25 29 -35 52q-25 72 -24 170q0 117 55 211q57 94 131 94q45 0 65 -6q23 -10 60 -56q39 -45 57 -108 q31 -92 31 -219q-6 -84 -29 -162q-18 -66 -47 -141q-18 -33 -55 -95q-35 -51 -62 -84q-27 -27 -39 -41l-2 -2q-102 -121 -159 -247q-57 -131 -105 -308q-2 -4 -2 -14q0 -12 6 -25q6 -20 17 -20q127 16 237 18q80 0 142.5 -3t130.5 -11q33 0 41 43q10 37 18 84q6 41 16 82 q6 37 27 88q12 25 29 86l2 4q4 8 4 27q0 16 -4 24q-7 27 -21 27q-39 0 -55 -59q-51 -141 -156 -162q-100 -20 -245 -25q-8 0 -15 8q-2 0 -2 9q0 8 6 26q55 121 142 209q59 59 170 186q84 96 141 211q57 109 57 281q0 113 -28 244h-2q-35 137 -119 227q-82 92 -199 92 q-147 0 -252 -129q-104 -131 -104 -334z" />
<glyph unicode="3" horiz-adv-x="794" d="M-8 444q0 -164 92 -305q96 -141 238 -141q68 0 143 53q70 47 139 144q61 90 105 202q41 115 43 234q0 125 -13.5 219t-40.5 178q-61 172 -176 223q-18 6 -18 27q4 23 8 31q41 78 86 153q29 49 94 152q18 37 19 63q-1 33 -15 33q-125 -12 -250 -12q-74 0 -133 3t-120 11 q-10 0 -21 -16q-2 -4 -2 -8q-6 -18 -8 -25q-43 -131 -92 -227q-10 -18 -15 -60q0 -39 17 -39q41 0 67 74q31 68 140 86q39 8 110 8q39 0 76 -6q14 -2 20 -6l2 -4q0 -8 -12 -33q-61 -119 -96 -174q-37 -63 -105 -162q-18 -27 -18 -65q0 -31 14 -31q27 0 41 14q23 16 45 17 q100 0 166 -133q53 -113 53 -252q0 -45 -2 -70q-2 -174 -71 -317q-68 -143 -174 -144q-80 0 -135 97q-55 96 -56 210v46q0 74 19 116q12 35 45 62q35 29 35 61q0 10 -3 21q0 12 -4 20q-14 14 -51 14q-31 -2 -57 -22q-129 -92 -129 -320z" />
<glyph unicode="4" horiz-adv-x="778" d="M0 389q0 -49 33 -57h420q16 0 24 -2q10 0 10 -49q-4 -106 -8 -131q-6 -29 -18 -39l-8 -7q-12 -10 -19 -14q-16 -12 -35 -74q0 -6 7 -16q6 -10 14 -10l69 12l13 2q41 2 55 2q33 0 66 -8q35 -6 61 -12q20 0 21 26q-4 41 -9 49q-12 12 -18 23q-12 20 -23 53q-10 41 -18 137 q0 8 4 23q0 4 2 12q10 23 29 23h37q33 0 32 55v64q0 53 -32 53h-45q-29 0 -33 24q-4 33 -4 54v53q-2 35 -2 65q0 8 2 64v76q4 266 4 401q2 88 2 201t2 200q-4 10 -4 31q-2 33 -27 37q-41 -4 -63 -72q-115 -309 -246 -594q-88 -192 -268 -573q-23 -33 -27 -82zM160 506 q0 18 6 33q82 199 143 327q74 156 144 334q6 10 18 37q4 6 6 6q8 0 8 -51v-90q-2 -76 -2 -90v-183q2 -33 2 -71q2 -57 2 -72v-125q0 -55 -18 -55q-12 -2 -23 -2l-266 -10h-4q-4 -2 -6 -2q-10 0 -10 14z" />
<glyph unicode="5" horiz-adv-x="757" d="M-6 375q0 -221 98 -314q100 -94 244 -94q152 0 268 193q111 178 111 415v19q-2 14 -2 16q0 297 -107 467q-111 176 -264 178q-78 -6 -147 -47q-4 -4 -13 -4q-12 0 -12 23q2 12 2 49v24q-2 14 -2 27v37v41v29q0 18 20 18q45 6 136 6q80 0 176 -10q4 -4 10 -4q16 0 29 2 q18 4 30 45q23 80 68 164q8 16 8 33q0 10 -2 16q-10 16 -29 16q-14 -8 -24 -22q-12 -12 -25 -19q-59 -14 -135 -14q-14 0 -37 2q-33 2 -45 2q-94 10 -229 29v-2q-4 0 -6 2t-6 2l-7 2q-6 0 -12 -10l-2 -4q-4 -12 -4 -23q4 -106 8 -164q4 -55 4 -166q0 -109 -4 -164t-8 -161 v-82q0 -57 35 -58q10 0 31 27q12 25 65 78q35 35 82 35q23 0 43 -6q90 -23 147 -138q59 -117 62 -311q0 -207 -60 -313q-61 -119 -149 -140q-10 -2 -31 -2q-76 0 -129 84t-53 205q0 186 102 234h2q20 2 21 47q0 47 -27 47q-8 0 -16 2h-12q-82 0 -138 -72q-66 -88 -65 -272z " />
<glyph unicode="6" horiz-adv-x="790" d="M-2 739q0 -385 121 -573q123 -195 303 -195v2q2 0 2 -2h4q113 2 217 179q104 172 105 419q0 289 -107 439q-104 150 -258 149q-20 0 -27 -14q-80 -180 -172 -316q-6 -12 -16 -12q-8 2 -8 14q4 176 47 312q45 135 100 227q53 92 115 154q63 63 96 88q27 0 39 28q2 6 2 19 q0 47 -41 47q-90 0 -186 -96q-94 -94 -172 -240q-74 -139 -121 -311q-23 -80 -33 -155t-10 -163zM188 504q0 150 60 270q61 125 147 125t148 -117q61 -117 61 -278q0 -164 -61 -281q-62 -117 -148 -117t-147 156q-59 150 -60 242z" />
<glyph unicode="7" horiz-adv-x="712" d="M-8 1325q0 -12 4 -18q6 -23 24 -23q45 0 66 76q37 104 170 121q39 6 111 6q61 0 118 -10q25 0 25 -29q0 -4 -2 -16l-2 -5q-70 -231 -213 -684q-109 -340 -174 -698v-4q-2 -4 -2 -6q0 -6 4 -23q2 -14 16 -14q37 10 70 10q31 0 67 -10q2 0 7 -2h4q25 0 30 49 q49 434 146 840q98 414 205 776q2 10 2 25q0 25 -21 24q-16 0 -22 -2q-39 -4 -117 -4q-18 0 -57 2t-60 2q-80 6 -235 18h-2h-4q-18 0 -39 -20q-23 -23 -29 -55q-14 -86 -35 -146q-23 -78 -49 -145q-6 -12 -6 -35z" />
<glyph unicode="8" horiz-adv-x="753" d="M-4 504q0 -238 104 -371q102 -135 248 -135q147 0 258 158q113 156 113 364q0 156 -53 297q-53 137 -142 207q-25 18 -24 33q0 8 2 8l10 10q10 14 16 23q45 66 70 123q31 66 31 145q0 143 -80 250q-80 106 -199 106q-117 0 -200 -110q-84 -115 -84 -266q4 -135 24 -203 q23 -68 49 -103q25 -35 39 -43q8 -6 8 -14q0 -6 -6 -16q-70 -84 -127 -201q-57 -121 -57 -262zM141 512q0 129 39 258q43 150 105 150q10 0 57 -29q43 -29 98 -90q51 -61 88 -144q33 -72 33 -186q-12 -209 -72 -285q-57 -74 -137 -84q-86 0 -141 107q-61 115 -68 262v21 q-2 16 -2 20zM199 1389q0 92 45 165q43 66 104 66q49 -2 101 -68q53 -66 53 -163q0 -104 -23 -175q-25 -78 -65 -90q-49 0 -133 84q-82 86 -82 181z" />
<glyph unicode="9" horiz-adv-x="753" d="M-12 1163q0 -4 2 -30v-31q0 -289 119 -434q123 -152 245 -152q20 0 27 14q14 84 37 132q14 35 76 112q6 12 16 12q10 -4 10 -14q-10 -141 -55 -254q-43 -109 -107 -201q-57 -86 -118 -143q-49 -49 -95 -86h-2q-33 -14 -37 -29q-4 -6 -4 -18q0 -45 41 -45q92 0 193 94 q100 92 188 240q82 137 140 313q25 78 37 153.5t12 161.5q0 387 -101 574q-104 190 -284 192q-109 0 -232 -174q-109 -158 -108 -387zM125 1262q0 127 47 213q51 94 133 94q25 0 39 -4q109 -29 145 -181q37 -154 43 -239q4 -33 9 -90q0 -2 2 -13v-12q0 -14 -4 -39l-2 -12 q-14 -49 -74 -109q-59 -59 -121 -63q-174 0 -211 362q-6 49 -6 93z" />
<glyph unicode=":" horiz-adv-x="169" d="M-2 139q0 -57 25 -98q23 -41 57 -41q33 0 57 41q25 41 25 98q0 59 -25 99q-24 41 -57 41q-35 0 -57 -41q-25 -39 -25 -99zM-2 1022q0 -57 25 -98q23 -41 57 -41q33 0 57 41q25 41 25 98q0 55 -25 98q-24 41 -57 41q-35 0 -57 -41q-25 -43 -25 -98z" />
<glyph unicode=";" horiz-adv-x="202" d="M0 137q0 -59 27 -98q29 -41 67 -41q6 -6 17 -18q6 -12 6 -25q0 -18 -15 -72q-12 -41 -12 -53q0 -4 2 -4q22 0 53 57q20 39 33 109q10 57 10 102v21q-2 16 -2 20q-12 141 -92 141q-39 0 -67 -40q-27 -39 -27 -99zM0 1018q0 -59 27 -98q29 -41 67 -41q41 0 66 41 q29 37 28 98q0 57 -28 98q-25 41 -66 41q-39 0 -67 -41q-27 -39 -27 -98z" />
<glyph unicode="=" d="M0 418h522v57h-522v-57zM0 629h522v57h-522v-57z" />
<glyph unicode="?" horiz-adv-x="686" d="M0 1391q0 -76 31 -129t75 -54q41 0 76 54q31 53 31 129q0 67 -23 110q35 41 84 60q12 4 35 4q31 0 60 -21q41 -33 69 -129q18 -68 19 -178q0 -63 -4 -100q-12 -209 -56 -275q-47 -66 -94 -104q-49 -43 -82 -117q-29 -59 -28 -227q0 -6 2 -39v-47q33 33 45 39q8 0 49 -35 q0 240 49 295q53 55 113 80q61 20 118 96q55 68 72 348q0 6 2 31v28q0 199 -72 342q-82 162 -237 162q-16 8 -51 8q-70 0 -162 -63q-121 -90 -121 -268zM156 139q0 -57 24 -98q25 -41 58 -41q35 0 59 41q25 41 25 98q0 59 -25 99q-24 41 -59 41q-33 0 -58 -41 q-25 -39 -24 -99z" />
<glyph unicode="@" horiz-adv-x="813" d="M-2 856q0 -350 113 -604q111 -252 268 -252q78 0 147 68q70 66 121 182q-88 0 -139 -57q-49 -57 -129 -58q-131 0 -209 213q-78 215 -78 508t78 508q76 211 209 211t215 -211q80 -211 80 -508q0 -150 -25 -283q-2 -2 -2 -4v-6q0 -2 -2 -8q0 -6 -2 -8h2q-18 -109 -41 -109 q-14 0 -26 43q-12 53 -13 105v51v27q-2 16 -2 30q2 88 2 205q2 47 2 105q0 14 2 28v21q0 14 -2 18q-49 53 -102 78q-55 23 -100 22q-90 0 -181 -114q-2 -4 -2 -15q0 -14 11 -30q12 -20 20 -21q6 0 8 6q53 86 139 86q25 -2 60 -12q35 -8 43 -37q8 -25 8 -53q0 -47 -31 -47 q-12 0 -18 2t-19 2q-104 0 -182 -59q-76 -57 -76 -265q0 -160 86 -213q35 -27 80 -26q51 0 99 33q23 14 45 14q18 0 32 -12q27 -25 50 -39q25 -39 69 -56q43 0 78 66q33 61 51 154q23 90 31 180q8 80 8 141q0 354 -119 604q-121 250 -276 250q-158 0 -268 -250 q-113 -256 -113 -604zM260 641q0 96 41 164q41 70 145 72q2 0 5 -3l12 -6q8 -8 8 -41q-2 -8 -2 -39q-2 -31 -2 -40q0 -51 -2 -74v-60q-4 -66 -19 -79q-4 -8 -8 -13q-6 -8 -12 -12q-41 -39 -76 -39q-29 0 -45 23q-45 51 -45 147z" />
<glyph unicode="A" horiz-adv-x="1079" d="M41 18q0 -16 20 -16q59 8 119 12q53 0 115 -12q18 0 24 27q4 12 5 30q0 20 -9 21q-12 6 -28 22q-14 14 -21 66q0 53 27 180q6 27 18 27h422q18 -2 25 -41q25 -117 24 -160q0 -47 -8 -61q-10 -20 -18 -29q-12 -8 -13 -57q2 -14 19 -21q8 -4 24 -4q59 10 113 12 q47 0 121 -12q8 0 14 16q4 16 4 23v8q-12 53 -22 53q-12 0 -31 43q-20 39 -65 197q-47 164 -121 506l-6 14l-181 795v2q-12 39 -20 39q-12 -4 -29 -4h-22q-8 -2 -23 -2q-55 0 -108 2q-84 4 -109 8q-10 0 -12 -14q-2 -6 -2 -17l2 -6v-6q6 -66 84 -76q76 -8 82 -113 q0 -86 -41 -210q-43 -143 -111 -431q-98 -381 -139 -505q-45 -150 -70 -195q-20 -43 -31 -43q-8 0 -20 -49q-2 -8 -2 -19zM334 535q0 25 2 34q8 51 29 123q18 78 36 144q18 78 60 237q12 51 31 125q14 63 20 88q6 20 12 21q6 0 17 -23q49 -172 104 -455q8 -31 19 -73 q8 -35 16 -68q4 -20 10 -41q14 -61 19 -80q2 -6 2 -30q-1 -23 -15 -23h-350q-12 0 -12 21z" />
<glyph unicode="B" horiz-adv-x="1024" d="M2 16q0 -22 19 -22h2q70 10 114 12h58q6 0 28 -2q15 0 29 -2h2h4h10q8 -2 41 -2q70 0 168 -4q49 0 81 3t58 11q223 72 289 238q68 164 70 325q-2 213 -78 330q-72 117 -201 176q-8 6 -8 25q8 18 14 20q160 92 160 260q0 33 -16 103t-80 127q-68 59 -199 92 q-59 14 -153 14q-82 0 -209 -16h-37q-12 2 -37 2q-49 0 -111 10q-18 0 -18 -26q0 -53 16 -58q18 -4 33 -61q18 -68 27 -217q8 -98 8 -320v-92q-2 -59 -2 -113q-6 -358 -18 -507q-12 -158 -27 -203q-12 -51 -25 -51q-8 0 -12 -52zM219 1217v12q4 111 14 235q6 78 13 111 q6 41 28 41q272 -6 340 -55t68 -170q0 -139 -104 -193q-49 -23 -125 -35t-193 -12q-39 0 -39 33q0 14 -2 33zM225 840q0 25 2 53v49q0 23 2 49v45q0 23 27 23q31 -4 84 -8h80q127 -25 198 -72q72 -45 107 -109q35 -59 45 -133q8 -94 8 -143q-6 -100 -22 -195 q-14 -86 -62 -147q-45 -63 -135 -100q-92 -37 -244 -48q-29 0 -36 15q-12 20 -21 67q-14 72 -25 222q-4 72 -6 163t-2 269z" />
<glyph unicode="C" horiz-adv-x="1058" d="M-2 854q0 -350 154 -600q154 -248 372 -248q90 0 207 39q121 37 193 111q33 25 32 53q0 49 19 168q16 100 29 162q0 2 2 6v4q0 14 -7 22q-8 14 -20 15h-4q-27 0 -33 -47l-4 -31q-51 -141 -154 -254q-104 -117 -190 -117q-139 0 -275 203q-133 205 -133 504q0 305 109 516 q111 215 250 215q2 0 14 2h12q98 0 197 -80q113 -88 174 -246q16 -49 31 -49h12q12 0 16 23q0 14 -2 32v13q-29 88 -45 200q-8 41 -14 60q-10 25 -39 43q-104 88 -194 110q-88 18 -183 19q-92 0 -188 -68q-88 -66 -168 -182q-76 -117 -123 -270q-47 -158 -47 -328z" />
<glyph unicode="D" horiz-adv-x="1003" d="M2 29q0 -27 18 -27q14 4 56 4q18 -2 55 -2h27q10 -2 35 -2q2 0 45 6q43 4 49 6q279 41 475 303q195 262 194 592q-6 248 -65 408q-57 154 -154 239q-96 84 -215 115q-133 31 -250 33q-2 2 -6 2q-35 0 -55 -4t-49 -4h-64q-35 0 -61 8q-20 0 -21 -29q2 -51 15 -53 q12 -4 20 -59q12 -55 19 -213q2 -29 2 -39q4 -135 4 -223q0 -41 -2 -113q-2 -100 -2 -148q-6 -387 -17 -505q-12 -154 -24 -199q-12 -47 -21 -47q-8 0 -8 -49zM219 840q2 233 10 422q7 164 15 227q0 27 6 59q6 33 35 33q186 -8 333 -135q145 -125 154 -539q0 -276 -147 -501 q-152 -225 -363 -256q-16 0 -18 14q-4 20 -4 26q-12 90 -15 220q-4 55 -5 139t-1 291z" />
<glyph unicode="E" horiz-adv-x="970" d="M2 29q0 -27 18 -27q66 10 115 10h117q20 0 106 -2q59 0 107 -2q37 0 151 -2q68 0 150 -2q16 0 25 19q14 20 24 45l6 12q23 55 41 92q16 31 27 45q6 6 16 25q8 10 13 18q6 12 6 51q0 37 -25 37q-16 0 -47 -33q-29 -31 -53 -49q-76 -78 -228 -112q-127 -27 -217 -27 q-2 0 -22 2h-25q-49 4 -69 90q-18 72 -19 219v406q0 8 2 47v47q0 57 2 80q0 29 15 29h264h8q86 -4 135 -11q80 -8 100 -104q8 -45 27 -45h2q29 0 29 35v6l-2 4q-10 106 -10 186q0 78 10 174q0 4 2 8v7q0 31 -25 30h-2q-10 0 -16 -14q-8 -20 -15 -31q-47 -76 -104 -102 q-63 -29 -160 -29h-231q-25 0 -25 35l4 72q4 80 7 104q2 35 6 86q2 18 2 33l2 6q8 45 14 64q12 34 47 34h2q12 0 53 -2q25 0 56 -2q74 -4 149 -12q76 -12 152 -37q74 -29 112 -78q25 -45 58 -45h10q12 0 19 13q2 2 2 8q0 8 -7 20q-33 55 -55 107l-14 26q-29 55 -43 80 q-10 18 -29 27q-25 10 -33 10h-10q-8 0 -8 -2q-164 0 -293 -8q-131 -8 -291 -8q-61 0 -117 14q-18 0 -18 -29q0 -51 14 -51q14 -2 33 -55q18 -63 27 -213q8 -90 8 -287v-104q-2 -68 -2 -129q-6 -358 -19 -510q-16 -162 -28 -201q-12 -47 -23 -47q-10 0 -10 -51z" />
<glyph unicode="F" horiz-adv-x="911" d="M2 1677q0 -51 14 -51q14 -2 33 -55q18 -63 27 -213q8 -98 8 -318v-92q-2 -59 -2 -110q0 -27 -2 -39v-37q-6 -307 -17 -463q-8 -123 -20 -180q-12 -41 -18 -41q-10 0 -11 -49q0 -27 21 -27q61 10 117 12q31 0 63 -6q23 -6 64 -14q18 0 18 26q0 49 -10 54q-6 2 -21 32 q-12 27 -24 115q-11 68 -17 295q0 92 -2 143q-2 35 -2 170v97q2 31 2 80q0 29 15 28l200 -4q68 -4 144 -12q80 -8 100 -105q8 -45 27 -45h2q29 0 28 33v6l-2 6q-10 106 -10 187q0 80 10 176q0 4 2 8v6q0 31 -24 31h-2q-14 0 -17 -14q-8 -20 -14 -31q-47 -76 -107 -102 q-61 -29 -159 -29l-166 4q-25 0 -25 35q2 20 4 78q4 68 7 104q2 37 6 94l2 31l2 6q8 45 14 64q12 34 49 34h2q35 -2 99 -6q57 -2 131 -16q66 -14 131 -43q59 -27 102 -78q25 -45 60 -45h10q10 0 16 12q2 2 2 11q0 12 -4 18q-27 47 -57 106q-29 63 -56 107q-16 20 -30 27 q-25 10 -33 10h-8q-8 0 -10 -2q-186 0 -265 -2q-78 -2 -262 -2q-59 0 -117 14q-18 0 -18 -29z" />
<glyph unicode="G" horiz-adv-x="1081" d="M-2 854q0 -350 154 -600q154 -248 372 -248q86 0 213 57q127 55 199 130q31 35 31 55l-2 6q-4 12 -9 29l-6 24q0 225 2 334t6 178q10 147 25 191q12 39 29 39q16 0 18 55q0 10 -10 20q-4 6 -16 6l-21 -2q-8 0 -41 -4q-20 -2 -59 -2h-62q-31 0 -61 6q-23 0 -23 -22 q0 -45 13 -49q12 -6 24 -39q14 -37 23 -131q10 -88 14 -330q-2 -84 -4 -154.5t-2 -117.5q0 -57 -51 -90q-43 -27 -74 -37q-27 -10 -86 -21q-137 0 -277 195q-66 92 -98.5 218t-32.5 294v28q-2 25 -2 29q0 283 95 473q100 205 241 205q2 0 19 2h22q90 0 162 -45 q94 -55 197 -211q12 -49 34 -49h11q12 0 16 22v15q0 20 -2 30q-27 70 -37 132q-12 57 -41 98q-104 88 -194 110q-88 18 -183 19q-186 0 -356 -227q-170 -231 -170 -621z" />
<glyph unicode="H" horiz-adv-x="978" d="M2 29q0 -27 18 -27q68 12 117 12q55 0 117 -12q18 0 18 27q0 53 -10 57q-12 0 -26 51q-14 55 -23 199q-8 96 -8 323q0 10 2 82v99v92v86v8q2 8 2 14q4 12 20 13q29 -2 64 -2q51 -2 61 -2q41 -2 127 -2q72 0 109 2q33 0 102 4h6q23 0 23 -15v-22v-187q-6 -385 -16 -503 q-8 -133 -21 -199q-8 -47 -16 -47t-9 -51q0 -27 19 -27q66 12 117 12q53 0 116 -12q20 0 21 27q0 55 -12 57q-12 0 -25 49q-10 35 -25 201q-8 98 -8 332q0 12 2 80v90q4 379 13 536q12 158 24 203q10 43 21 43q10 0 10 55q0 29 -21 29q-57 -14 -116 -14q-53 0 -117 14 q-18 0 -19 -29q0 -43 13 -47q12 -8 22 -33t21 -104q4 -27 5 -77t1 -183q0 -49 -19 -49q-25 2 -55 2q-31 0 -55 2q-37 2 -111 2q-84 0 -125 -2l-123 -6q-20 0 -20 39q0 195 10 280q8 74 21 100q12 23 20 25t8 53q0 29 -18 29q-57 -14 -117 -14q-61 0 -117 14q-18 0 -18 -29 q0 -49 12 -53q12 -2 25 -59q14 -66 20 -213q6 -98 7 -275v-108q-2 -74 -3 -140q-6 -330 -16 -503q-8 -135 -20 -197q-8 -49 -17 -49q-8 0 -8 -51z" />
<glyph unicode="I" horiz-adv-x="286" d="M2 29q0 -27 18 -27q61 10 117 12q55 0 117 -12q18 0 18 27q0 55 -10 55t-26 49q-14 51 -23 199q-8 96 -8 325q0 10 2 84v99q4 379 12 534q12 158 25 203q10 43 20 43q8 0 8 57q0 29 -18 29q-57 -14 -117 -14q-62 0 -117 14q-18 0 -18 -29q0 -49 12 -53q12 -2 25 -59 q14 -66 20 -213q6 -98 7 -275v-108q-2 -74 -3 -140q-6 -332 -16 -505q-8 -139 -20 -199q-10 -47 -17 -47q-8 0 -8 -49z" />
<glyph unicode="J" horiz-adv-x="333" d="M-178 -348q0 -23 10 -43q12 -14 27 -15q45 12 94 48q33 23 94 75q45 39 100 115q49 74 115 133q6 0 19 25q10 16 10 65q-6 90 -12 105q-8 18 -11 61q-4 27 -8 131q-2 33 -2 43v29q-6 219 -8 416q-6 129 -6 331q0 127 6 203q10 158 24 203q12 43 29 43q14 0 14 57 q0 29 -20 29q-57 -14 -117 -14t-117 14q-27 0 -26 -29q4 -51 16 -53q10 -2 27 -59q14 -61 22 -213q6 -68 7 -293v-103q-2 -68 -3 -127q-2 -205 -12 -471v-6q-8 -162 -18 -239q-8 -68 -17 -97q-4 -12 -10 -34l-2 -13q-37 -96 -90 -159q-55 -61 -98 -91q-18 -10 -27 -22 q-10 -20 -10 -45z" />
<glyph unicode="K" horiz-adv-x="962" d="M2 29q0 -27 18 -27q68 12 117 12q55 0 117 -12q12 0 18 4q12 4 13 19q-2 47 -15 47q-10 0 -24 26q-14 27 -23 111q-10 96 -10 305q0 66 6 74q10 20 33 55l8 12q20 37 31 56q29 45 45 67q0 2 6 8q6 8 10 15q0 2 6 2q10 0 25 -33q145 -328 180 -438q45 -127 45 -178 q0 -45 -24 -56q-23 -8 -23 -73q4 -14 23 -19q8 -4 26 -4q37 4 82 4h86q37 0 53 -2q18 0 41 2h15q8 14 8 31q0 14 -2 22q-18 51 -31 52q-12 0 -37 36q-27 37 -94 189q-70 156 -194 504q-10 20 -21 51l-6 18q-6 21 -10 31q-6 10 -15 43l-2 6q-2 4 -2 15q0 29 25 67 q158 266 233 383q70 102 99 131q23 23 30 23l2 -2q10 0 37 49q4 4 4 12q0 12 -6 21q-10 16 -18 16q-23 -4 -68 -8q-25 -2 -63 -2q-45 0 -78 2q-55 4 -74 10q-18 0 -37 -29q-6 -18 -6 -30q0 -29 23 -29q32 -6 32 -61q0 -60 -71 -226q-80 -176 -303 -530q-18 -31 -25 -31l-4 2 q-6 10 -6 27v41q-2 96 -2 256q0 190 6 290q8 154 27 207q12 41 28 41t19 52q0 16 -11 16l-10 2q-8 2 -10 2q-63 -14 -117 -14q-61 0 -117 14q-18 0 -18 -29q0 -51 14 -53q12 -2 25 -59q12 -45 22 -213q6 -68 7 -287v-104q-2 -68 -2 -132q-6 -332 -17 -505q-14 -164 -22 -199 q-10 -47 -19 -47q-8 -14 -8 -49z" />
<glyph unicode="L" horiz-adv-x="917" d="M8 29q0 -27 21 -27q57 8 108 12q37 0 60 -2q133 -6 256 -6q82 -2 252 -2q37 4 55 64q8 18 20 55q4 12 11 29q6 14 10 26q8 23 33 64q20 29 32 63q4 8 4 35v25q-4 23 -20 22h-10q-41 0 -70 -68q-16 -41 -115 -114q-96 -78 -211 -82h-63h-66q-39 0 -49 16q-10 18 -16 56 q-10 55 -17 219q-4 66 -4 254q0 10 2 80v92q4 393 15 534q16 166 28 203q12 43 27 43q10 0 10 57q0 12 -12 21q-14 8 -20 8q-39 -8 -72 -10h-6q-45 -4 -64 -4q-37 0 -47 2q-18 0 -49 6q-2 0 -4 2q-14 0 -14 -29q2 -51 14 -53q10 -2 22 -55q10 -49 21 -213q4 -131 4 -275 v-108q-2 -74 -2 -140q-2 -342 -16 -505q-12 -154 -25 -199q-12 -47 -23 -47q-10 0 -10 -49z" />
<glyph unicode="M" horiz-adv-x="1214" d="M-59 1671q8 -53 30 -69q27 -18 47 -27q23 -8 50 -35q25 -27 38 -102q6 -35 9.5 -84t3.5 -127v-398q0 -199 -3 -321.5t-10 -192.5q-12 -150 -28 -198q-18 -43 -31 -43q-16 0 -16 -49q0 -27 26 -27q29 4 68 6h68q31 0 36 -2q4 -2 21 -4q2 -2 14 -4q20 0 21 26q0 55 -15 58 q-14 4 -28 53q-14 47 -27 203q-10 127 -10 346q0 10 2 74v86v166q0 147 4 202q0 31 6 43q6 0 25 -45q23 -70 80 -237q35 -100 100 -301q10 -29 45 -131q27 -80 45 -131q16 -45 35 -105q6 -20 8 -25q10 -20 14 -20q6 0 17 27q35 117 80 260t79 260q90 293 162 520q6 18 13 18 l4 -2q8 -6 8 -20q-2 -35 -8 -166q0 -25 -2 -49q-8 -164 -9 -275q0 -205 -1 -334.5t-5 -195.5q-8 -150 -22 -197q-10 -35 -17 -34l-4 2l-4 2q-8 0 -8 -43q0 -27 20 -27q61 10 117 12q51 0 115 -12q23 0 22 27q0 51 -12 51t-22 43q-14 51 -23 199q-10 125 -10 518q0 213 3 339 t11 199q16 156 33 199q16 37 31 37l4 -2q16 0 16 53q0 27 -12 27q-23 -4 -78 -9q-55 0 -78 9q-10 4 -24 4q-12 0 -21 -8q-88 -223 -174 -496q-63 -205 -164 -504q-4 -10 -8 -10q-2 0 -6 8q-86 240 -166 485q-80 236 -172 482q-8 27 -14 33q-2 4 -14.5 4h-53.5q-31 -2 -76 -9 h-4q-37 0 -65 7q-41 6 -66 12q-20 0 -20 -29z" />
<glyph unicode="N" horiz-adv-x="991" d="M-84 1692q8 -55 33 -72q27 -16 51 -25q27 -8 53 -32q25 -23 41 -103q10 -55 10 -133v-41q-2 -27 -2 -49q-2 -63 -4 -162.5t-2 -249.5q0 -197 -3 -319.5t-9 -192.5q-16 -156 -33 -198q-14 -43 -33 -43q-16 0 -16 -47q0 -27 27 -27q18 2 67 6h68q33 0 43 -2q2 0 16 -4 q12 -2 25 -4q20 0 20 26q-2 68 -22 68q-18 0 -33 35q-16 35 -29 186q-4 53 -4 232q0 180 2 293q0 39 2 96q2 78 2 114q4 160 7 244q4 33 8 43q8 0 22 -45q23 -66 103 -258q98 -231 163 -379q45 -104 127 -289q14 -33 37 -86q88 -200 111 -247v-17q2 0 2 2h4q4 -14 8 -20 q10 -18 27 -19q4 0 12 2q4 2 6 2q12 6 20.5 15.5t10.5 13.5q-4 86 -4 176q0 152 2 234v237q2 49 2 90q2 70 2 91q0 367 14 548q16 168 29 205q12 41 29 41q14 0 14 53q0 29 -18 29q-20 -4 -54 -12q-20 -6 -49 -6q-61 0 -119 14q-18 0 -18 -29q0 -49 18 -49q14 0 33 -51 q16 -57 29 -211q8 -98 8 -311v-103q-2 -66 -2 -123q0 -111 -2 -157q0 -92 -2 -133q0 -59 -12 -60q-2 2 -4 6q-16 23 -29 60q-6 18 -19 45q-57 139 -98 235q-37 84 -100 234l-31 69l-18 43q-76 174 -107 246q-53 125 -94 236q-8 27 -14 33q-10 8 -66 10q-12 0 -29 2h-20 q-8 0 -19 -2h-12q-35 0 -78 8l-30 6q-39 6 -49 8q-20 0 -21 -26z" />
<glyph unicode="O" horiz-adv-x="1101" d="M-2 854q0 -350 154 -600q154 -248 372 -248q217 0 371 248q154 250 154 600q0 180 -48 328q-45 154 -122 270q-74 113 -168 182q-95 68 -187 68t-188 -68q-88 -66 -168 -182q-76 -117 -123 -270q-47 -158 -47 -328zM186 844q0 301 99 516q102 215 239 215q139 0 244 -193 q49 -94 72.5 -224t23.5 -314q-6 -340 -102 -537q-97 -192 -237 -192h-1q-137 0 -239 215q-98 213 -99 514z" />
<glyph unicode="P" horiz-adv-x="905" d="M2 29q0 -27 18 -27q61 10 117 12q55 0 117 -12q18 0 18 27q0 35 -4 47q-8 12 -14 20q-8 12 -18 47t-19 125v25q0 41 21 53q14 8 55 25l10 4q256 94 408 299t151 422q0 248 -80 377q-78 129 -190 180q-115 51 -238 51q-125 -2 -217 -12q-62 0 -117 14q-18 0 -18 -29 q0 -49 12 -53q12 -2 25 -59q14 -66 20 -213q6 -98 7 -275v-108q-2 -74 -3 -140q-2 -356 -12 -507q-10 -154 -18 -199t-21 -45q-10 0 -10 -49zM207 670v170q0 293 10 467q6 115 16 225q4 23 13 41q6 14 39 14q252 -25 325 -170q70 -145 70 -334q0 -174 -135 -350 q-133 -172 -289 -256q-8 -6 -18 -6t-15 12q-6 14 -10 45q-2 66 -6 142z" />
<glyph unicode="Q" horiz-adv-x="1101" d="M-2 854q0 -207 55 -385q55 -180 148 -295q37 -45 67 -76q57 -53 86 -78q6 0 6 -10q0 -8 -6 -18q-2 -4 -4 -10q-6 -12 -10 -23l-31 -61q-18 -31 -51 -88q-18 -31 -18 -43q0 -4 2 -7q6 -4 10 -28q0 -14 14 -15q4 0 8 2q8 2 13 2q29 49 102 50q72 -4 152 -25q72 -18 151 -47 q61 -20 84 -21h6q6 2 6 3q8 4 43 38l80 80l39 39q31 33 37 41q23 25 31 39q0 14 -2 41q0 39 -31 39q-78 -90 -217 -102q-92 0 -164.5 11t-144.5 36q-16 6 -21 16q-2 6 -2 25q0 27 27 26h4q4 -2 6 -2q16 -2 51 -2q217 0 371 248q154 250 154 600q0 180 -48 328 q-45 154 -122 270q-74 113 -168 182q-94 68 -187 68q-92 0 -188 -68q-88 -66 -168 -182q-76 -117 -123 -270q-47 -158 -47 -328zM186 844q0 301 99 516q102 215 239 215q139 0 244 -193q49 -94 72.5 -224t23.5 -314q-6 -340 -102 -537q-97 -192 -237 -192h-1 q-137 0 -239 215q-98 213 -99 514z" />
<glyph unicode="R" horiz-adv-x="919" d="M2 29q0 -27 18 -27q61 10 117 12q55 0 117 -12q18 0 18 27q0 35 -4 47q-8 12 -14 20q-8 12 -18 47t-19 125v25q0 43 23 53q14 8 41 19q14 6 22 10q18 6 35 14q12 4 33 12q35 14 57 15q20 -4 59 -88q59 -135 72 -172q10 -29 10 -60q-2 -12 -16 -22q-8 -6 -8 -33v-25 q6 -10 33 -14h34q61 12 111 12q45 -8 65 -8q29 0 64 10q14 0 14 9q0 4 -2 12l-2 6q-20 47 -31 49q-14 4 -34 27q-23 20 -68 100q-39 66 -131 279q-6 12 -6 24q0 18 16 35q6 6 29 31q20 23 29 30q92 100 151 230q59 125 60 248q0 248 -80 377q-84 129 -197 180 q-119 51 -244 51q-127 -2 -219 -12q-61 0 -117 14q-18 0 -18 -29q0 -49 12 -53q12 -2 25 -59q14 -66 20 -213q6 -98 7 -275v-108q-2 -74 -3 -140q-2 -356 -12 -507q-10 -154 -18 -199t-21 -45q-10 0 -10 -49zM207 670v170q0 293 10 467q6 115 16 225q4 23 13 41q6 14 39 14 q143 -12 221 -57q80 -45 119 -113q37 -66 47 -155q8 -76 8 -179q0 -174 -135 -350q-133 -172 -289 -256q-8 -4 -18 -4q-12 0 -15 10q-6 14 -10 45q-2 66 -6 142z" />
<glyph unicode="S" horiz-adv-x="899" d="M4 340q0 -72 29 -88q70 -104 180 -176q111 -74 246 -74q143 0 270 164q123 158 123 428q-2 190 -55 297q-53 111 -129 174q-74 63 -168 104q-88 41 -172 93q-37 27 -82 73q-43 47 -43 97q0 72 43 116q45 45 106 45q8 4 25 4q63 0 155 -90q109 -110 136 -233 q12 -59 43 -60q14 0 22 19q6 10 6 22v11q-2 6 -2 8q-8 33 -18 78q-8 31 -10 43q-16 82 -23 123q-8 63 -41 63q-2 2 -8 2q-6 2 -8 2q-6 2 -13 2q-96 106 -237 127v-2q-125 -2 -211 -74q-82 -70 -92 -282q0 -100 47 -178q55 -86 115 -138q76 -61 151 -96q102 -49 158 -84 q68 -43 117 -135q47 -88 47 -215q0 -156 -84 -264q-80 -104 -150 -105l2 2q-6 -2 -10 -2q-90 0 -154.5 37t-113.5 115q-102 162 -121 303q0 84 -33 84t-33 -88q0 -43 -4 -121v-6q-6 -63 -6 -125z" />
<glyph unicode="T" horiz-adv-x="1005" d="M0 1380q0 -10 4 -26q8 -27 27 -27h2q43 0 63 64q29 78 117 135q90 55 145 67q4 0 9 2h6q8 0 8 -4q4 -10 6 -45q8 -102 10 -250q0 -213 -2 -376v-91q-10 -373 -20 -505q-12 -139 -27 -197q-12 -47 -22 -47t-11 -51q0 -27 21 -27q10 2 22 4q29 2 43 4h7q41 4 61 4 q57 0 125 -12q18 0 18 27q0 55 -10 57q-10 0 -27 49q-16 66 -24 201q-12 152 -12 504q0 236 4 460q6 168 12 250q4 37 6 43q0 2 8 2h6q6 -2 11 -2q47 -8 141 -57q88 -49 123 -139q18 -70 68 -70q16 0 28 25q8 16 8 26q0 6 -4 15q-2 6 -2 8q-18 43 -59 133q-35 70 -51 139 q-10 47 -54 47q-141 -10 -290 -18q-37 -4 -117 -4q-104 0 -219 12q-2 0 -2 2h-2h-35q-14 0 -31 -67q-10 -47 -37 -115q-14 -39 -35 -92q-6 -18 -12 -35q-4 -8 -4 -23z" />
<glyph unicode="U" horiz-adv-x="962" d="M-2 1686q4 -51 14 -56q12 -2 25 -55q10 -49 20 -213q0 -18 2 -39q4 -147 4 -238q0 -39 -2 -108q-2 -96 -2 -139q0 -66 -4 -168v-76q-2 -55 -2 -64v-34v-35q4 -281 62 -377q53 -88 147 -88q90 10 199 76q111 70 213 108q10 6 18 6q0 -16 -2 -30q-14 -78 -28 -78 q-16 0 -17 -53q0 -27 21 -27q66 12 116 12q49 0 117 -12q18 0 19 27q0 55 -11 55q-10 0 -26 49q-14 51 -23 199q-4 59 -6 172.5t-2 335.5q4 393 14 534q8 152 23 203q10 43 20 43t11 57q0 29 -13 29q-4 -2 -6 -2q-63 -12 -117 -12q-55 0 -116 12q-2 0 -4 2h-3q-14 0 -14 -29 q0 -49 14 -53q12 -2 25 -59q10 -49 21 -213q4 -61 4 -256v-117q-2 -78 -2 -150v-80q-2 -84 -2 -170q2 -72 2 -186q0 -55 -68 -90q-68 -37 -150 -70q-76 -33 -137 -36q-45 0 -69.5 8t-38.5 26q-33 41 -37 316h-2q-2 41 -2 137q0 106 2 168q0 354 14 532q16 162 29 199 q12 39 26 39q10 0 11 55q0 12 -13 27q-12 12 -22 12q-57 -12 -117 -12q-49 0 -117 12q-18 0 -18 -26z" />
<glyph unicode="V" horiz-adv-x="1005" d="M-8 1700q0 -10 2 -19q12 -49 24 -49q14 0 35 -49q27 -55 72 -219q49 -180 133 -557l14 -66q37 -172 64 -299q43 -193 74 -360q14 -94 53 -94q31 0 55 94q4 16 10 51l11 45q12 51 16 70q6 23 18 76q4 20 9 38q8 50 12 54q8 47 39 164l6 24q20 80 57 250q76 352 121 520 q41 152 62 197q23 45 32 45q14 0 35 63q4 6 4 17q0 12 -18 12q-27 -8 -55 -8q-18 -2 -56 -2h-67q-43 0 -68 8q-25 0 -24 -29q-2 -8 -3 -22q0 -27 15 -27q20 0 31 -47q4 -12 4 -47q0 -39 -15 -162q-18 -152 -102 -532q-27 -106 -41 -181q-4 -25 -16 -73q-12 -61 -17 -80 q-12 -49 -22 -49q-6 10 -19 55q-16 63 -31 139l-8 37q-20 92 -30 135q-100 401 -121 551q-18 117 -19 172q0 8 2 21v12q6 39 29 39q12 0 12 24q0 20 -2 35q-6 29 -26 29q-27 -6 -78 -6q-33 -2 -78 -2q-53 0 -121 12q-14 0 -14 -10z" />
<glyph unicode="W" horiz-adv-x="1347" d="M2 1700q2 -4 2 -8q29 -78 39 -78q14 0 29 -37q18 -49 53 -201q35 -154 117 -569l10 -45q45 -215 65 -316q25 -119 70 -360q14 -94 59 -94q25 0 43 51h-2q31 240 68 479q45 319 63 479q4 20 9 29l2 2q6 0 12 -28q53 -311 78 -467q25 -158 78 -469q16 -72 55 -72 q33 2 53 94q6 35 17 100q8 41 10 58q6 39 18 108q8 43 8 52q14 57 39 190q12 76 50 246l2 10q82 377 116 520q41 164 54 197q12 45 22 45q8 0 33 63q2 6 2 17q0 12 -19 12q-25 -8 -55 -8q-16 -2 -55 -2q-53 0 -107 12q-23 0 -24 -29q0 -4 -2 -12v-8q0 -31 16 -31 q20 -4 29 -55q4 -12 4 -47q0 -68 -14 -168q-16 -154 -103 -535q-20 -82 -31 -145q-6 -53 -22 -127q-6 -31 -10 -31l-4 4q-4 6 -9 27q-47 268 -86 524q-29 174 -77 527q-4 39 -21 86q-12 34 -32 34h-1q-23 0 -37 -38q-14 -45 -16 -91q-14 -174 -59 -493q-43 -303 -74 -504 q-6 -43 -14 -43q-4 0 -15 39q-12 66 -18 100q-12 68 -27 129q-88 393 -110 561q-14 106 -15 175q0 10 2 24v14q6 47 27 48q10 0 10 20q0 6 -4 35v6q0 10 -4 10l-4 -2q-4 -4 -12 -8q-16 -4 -78 -4h-78q-29 0 -53 6q-25 6 -56 12q-16 0 -16 -14v-6z" />
<glyph unicode="X" horiz-adv-x="1015" d="M-23 10q0 -8 15 -8q12 2 37 6q14 2 16 2q33 4 53 4q29 0 80 -6q23 -4 37 -6q29 -6 41 -8q18 0 31 26q10 27 10 39q0 14 -12 15q-23 0 -35 39q-2 6 -2 22q0 43 24 135q31 117 164 416q12 27 23 27q14 0 22 -27q121 -291 148 -412q20 -84 20 -135q0 -20 -2 -26 q-10 -41 -33 -41q-14 0 -14 -17q0 -10 10 -35q8 -26 29 -26h2q16 4 74 12l16 2q66 6 94 6q57 0 121 -12q14 0 15 10q0 4 -5 17q-20 53 -36 69q-14 16 -50 74q-41 70 -100 207q-76 172 -188 469q-18 43 -19 84q0 37 17 76q109 256 190 424q63 125 86 157q20 33 33 33 q14 16 31 55l2 6q2 8 2 13q0 10 -13 10q-63 -14 -123 -14q-27 0 -73 6q-41 6 -72 12q-20 0 -31 -29q-8 -16 -8 -32t12 -21q20 -8 37 -45q4 -10 4 -39q0 -27 -10 -88q-23 -102 -121 -309q-20 -47 -32 -47q-8 6 -31 53q-100 238 -117 320q-16 70 -16 100q0 14 4 26 q10 33 28 37q10 0 11 15q0 12 -6 30q-12 29 -31 29q-29 -10 -78 -12q-49 -6 -78 -6q-63 0 -123 14q-8 0 -10 -20q0 -27 2 -33q20 -45 31 -45q8 0 33 -37l2 -2q18 -29 82 -174q45 -102 180 -453q12 -27 12 -55q0 -29 -16 -58q-127 -299 -217 -485q-61 -131 -103 -201 q-33 -53 -41 -57q-10 -8 -28 -57q-6 -12 -7 -19z" />
<glyph unicode="Y" horiz-adv-x="1028" d="M-6 1683l2 -6q20 -61 35 -80q20 -31 47 -84q23 -45 84 -215q49 -141 141 -469q12 -43 53 -188l25 -86q10 -33 10 -66q0 -12 -2 -18q-4 -16 -16 -53q-47 -133 -88 -228q-27 -61 -43 -81q-14 -20 -23 -23q-8 -2 -26 -41q-4 -4 -5 -14q0 -8 2 -15q6 -14 15 -14q14 2 31 4 q16 2 30 4h6q35 4 54 4q33 0 67 -8q20 -6 49 -12l17 -4q23 0 30 26q6 14 7 37q0 23 -15 23q-23 4 -32 59q-2 6 -3 29q0 47 27 180q29 145 158 512q127 354 196 533q63 158 86 200q25 43 31 43t27 58q2 6 2 14q0 12 -12 12q-31 -2 -62 -12q-25 -8 -59 -8q-31 0 -70 8 q-29 4 -49 6q-1 0 -19 2q-23 0 -30 -26q-4 -12 -4 -29q0 -29 18 -29q25 -2 33 -61q0 -2 2 -13v-14q0 -57 -29 -188q-33 -160 -166 -523q-23 -59 -32 -59q-12 0 -25 35l-6 18q-2 4 -2 11q-2 6 -4 10q-121 362 -162 536q-31 135 -31 203q4 45 29 45q16 0 16 31v12q-2 8 -2 15 q-6 27 -28 26q-35 -8 -76 -10q-45 -6 -76 -6q-20 0 -53 4h-6q-29 4 -48 10q-8 0 -18 -10q-8 -8 -8 -17z" />
<glyph unicode="Z" horiz-adv-x="966" d="M-2 47q0 -2 2 -10v-12q6 -35 29 -35q70 8 146.5 11t197.5 3q172 -6 344 -6q31 0 43 12q14 14 31 53q10 20 18 43q16 41 25 58q29 53 59 94q23 31 25 80q0 51 -31 51q-20 0 -39 -31q-16 -31 -33 -53q-57 -70 -127 -104q-72 -39 -139 -58q-70 -20 -115 -22q-45 -6 -51 -6 q-45 0 -66 2q-20 0 -45 -2h-18q-12 0 -12 24q2 27 6 33q57 160 127 328q72 174 133 327q106 266 164 398q86 201 178 385q20 41 20 67q0 25 -24 25q-18 0 -94 -2q-27 -2 -58 -2q-68 -2 -211 -6q-109 0 -170 -2h-22q-84 4 -90 16q-25 -2 -49 -74q-18 -55 -37 -104 q-16 -43 -43 -103q-12 -25 -13 -57q4 -31 23 -31q20 0 39 33q18 27 37 60q33 61 147 118q86 45 201 45q43 0 82 -6l6 -2q12 -4 20 -8q12 0 13 -21q0 -16 -9 -32q-53 -160 -116 -312q-33 -82 -82 -200q-33 -78 -49 -117q-68 -168 -170 -406q-94 -211 -191 -389 q-12 -25 -12 -53z" />
<glyph unicode="[" horiz-adv-x="120" d="M0 -152h115v72h-74v1864h74v69h-115v-2005z" />
<glyph unicode="\" horiz-adv-x="444" d="M25 1640l358 -1595h39l-359 1595h-38z" />
<glyph unicode="]" horiz-adv-x="120" d="M0 -80v-72h115v2005h-115v-69h74v-1864h-74z" />
<glyph unicode="_" horiz-adv-x="679" d="M-2 -78v-55h649v55h-649z" />
<glyph unicode="`" horiz-adv-x="106" d="M2 1706l33 -129q20 -94 43 -94q12 0 12 24q0 25 -12 70l-31 129h-45z" />
<glyph unicode="a" horiz-adv-x="718" d="M-6 348q0 -236 123 -313q59 -39 123 -39q72 0 141 45q12 8 29 27q12 16 28 28q10 10 15 13q6 0 6 -13v-6q-2 -4 -2 -6l-2 -39q0 -10 4 -27q6 -14 14 -14q16 4 41 4q8 -2 41 -2q37 0 51 -2q12 -2 37 -8q2 0 12 -2q23 0 23 16q0 4 -2 13q-2 4 -2 6q-6 43 -17 49 q-10 6 -20 31t-19 100q-8 102 -8 260q0 82 2 190v107q0 49 2 106v50q0 10 2 24v19q0 6 2 12v18q0 18 -4 27q-2 0 -2 2q-74 80 -147 113q-80 34 -146 34h-4q-133 0 -266 -170q-4 -8 -4 -22q0 -18 14 -43q6 -10 25 -25q6 -4 12 -4q8 0 8 6q74 127 205 127q49 -4 88 -16 q51 -14 64 -53q12 -39 12 -80q0 -72 -47 -72q-6 2 -12 2t-13 2q-10 2 -28 2q-156 0 -271 -86q-108 -85 -108 -385v-6zM221 629q61 102 217 104q6 0 21 -8q12 -6 12 -63q0 -37 -2 -56v-31q-2 -25 -2 -30v-60q-2 -43 -2 -49q0 -63 -2 -90q0 -20 -4 -57v-6q-2 -33 -21 -54 q-4 -6 -16 -18q-6 -8 -16 -18q-61 -59 -113 -60q-33 0 -66 35q-67 77 -67 215q0 145 61 246z" />
<glyph unicode="b" horiz-adv-x="710" d="M-16 1677q8 -45 24 -45q14 0 27 -45q14 -59 20 -211q4 -131 4 -274v-119q-2 -80 -2 -154q-2 -342 -12 -493q-6 -145 -16 -205q-8 -51 -19 -55q-10 -4 -16 -56q0 -4 -2 -10q0 -16 20 -16q14 4 60 4q18 -2 57 -2q8 0 33 2q8 2 20 2q4 0 19 2h18h23q16 -2 18 -2q14 0 21 -2 h22q162 0 266 174q106 170 107 449q0 274 -103 413q-104 137 -231 144q-59 0 -78 -31q-14 -31 -49 -37q-16 0 -16 43q0 205 4 324q0 82 4 114q0 16 2 25q4 0 4 53q0 33 -25 33q-18 -4 -26 -4q-10 2 -29 2h-61q-35 0 -64 6q-10 0 -18 -8q-6 -4 -6 -21zM193 471q0 113 2 238 v131v49v49q0 14 2 29q4 20 14 30q55 57 94 58q88 0 146 -88q57 -84 57 -389q-8 -283 -72 -377q-59 -92 -149 -103q-10 0 -19 2q-4 2 -8 2q-6 0 -10 2q-45 8 -51 140q-2 39 -4 151q-2 53 -2 76z" />
<glyph unicode="c" horiz-adv-x="612" d="M-6 580q0 -242 86 -418q86 -172 237 -172q72 2 132 65q61 66 106 158q2 2 2 4q2 0 2 2l4 8q4 8 4 9l2 6q2 12 6 30q6 23 7 35q0 4 -2 8q-2 62 -29 62q-16 0 -33 -55q-33 -78 -78 -109q-47 -37 -98 -41q-82 0 -147 145q-63 145 -70 283q0 35 4 94v21q8 86 23 149 q16 70 53 131q35 55 94 56q39 0 63 -31q27 -35 41 -70q18 -43 19 -61q0 -10 -2 -12q-12 -14 -12 -86q0 -23 12 -39q2 -6 10 -7q6 0 12 11q25 31 47 65q29 37 50 49q24 15 24 77v5q0 25 -20 58q-23 31 -33 51q-70 113 -182 113q-123 0 -228 -173q-106 -174 -106 -421z" />
<glyph unicode="d" horiz-adv-x="714" d="M-10 543q0 -244 82 -400q79 -157 187 -157h1q55 0 123 65l43 43q2 2 4 2q14 0 16 -55q0 -12 13 -29q10 -18 18 -18q16 4 31 4q0 -2 29 -2q39 0 57 2q18 0 41 -2q12 -2 18 -2t17 22q8 14 8 27v6q-8 31 -27 31q-18 0 -30 47q-14 49 -27 207q-6 111 -6 328v178q0 123 2 221 q2 254 2 313q2 104 2 203v43q2 18 4 57q0 35 -16 35h-4q-4 -2 -5 -2q-27 -6 -36 -12q-8 -6 -37 -6t-54 6t-55 12q-6 0 -16 -12q-8 -12 -8 -25q12 -45 30 -45q14 0 31 -29q14 -27 25 -126q4 -39 4 -168v-76q-2 -63 -2 -103q0 -35 -9 -49q-2 -4 -10 -4q-15 1 -33 17 q-20 18 -49 43q-27 23 -65 24q-141 0 -219 -182q-80 -193 -80 -432zM123 666q0 154 47 249q61 117 135 117q68 0 113 -76q25 -39 31 -67q6 -27 6 -78q-2 -236 -6 -381v-98q0 -37 -23 -88q-43 -82 -102 -82h-11q-8 2 -12 2q-66 14 -117 119q-47 104 -59 309q-2 27 -2 74z" />
<glyph unicode="e" horiz-adv-x="616" d="M-6 580q0 -139 21.5 -245t68.5 -183q94 -162 225 -162q68 2 140 78t114 196q4 6 6 17l2 4q4 12 4 20q4 10 5 31q0 37 -21 51q-4 4 -12 4q-10 0 -25 -14q-18 -20 -24 -47q-18 -59 -52 -103q-35 -41 -81 -47q-92 0 -158 109q-14 20 -14 43t12 37q51 82 121 184l63 90l62 90 v2l79 125q4 4 9 23l2 8q0 2 2 6v6q0 23 -13 49q-41 96 -96 156q-57 59 -125 61q-100 0 -203 -157q-109 -170 -112 -432zM113 586q0 139 32 291q35 141 138 141q47 0 65 -39q10 -25 33 -98l2 -9q2 -12 2 -30t-4 -25q-12 -21 -16 -29q-45 -86 -97 -155q-33 -49 -98 -152 q-8 -14 -18 -14t-19 20q-20 33 -20 99z" />
<glyph unicode="f" horiz-adv-x="462" d="M-16 1024q0 -6 4 -14v-4q6 -12 14 -13q12 0 53 4h13q29 0 28 -51v-55v-62q0 -330 -10 -497q-10 -156 -20 -203q-12 -51 -25 -55q-12 -2 -25 -54v-10q0 -16 21 -16q31 6 59 6h58h57q29 0 59 -6q20 0 21 18v8q-6 43 -19 46q-12 4 -20 59q-10 63 -16 211q-6 115 -7 330 q0 10 2 79v95v57v55q0 35 7 37q8 4 16 4q8 -2 20 -2q10 0 19 -2q29 -4 43 -4q10 0 22 12q10 16 13 31q2 4 2 8t2 8q0 2 2 9v8q2 4 2 8t2 8v6q2 4 2 9q0 2 2 8v6q0 10 -2 16q-6 14 -18 15q-66 0 -115 -9q-18 0 -19 35q2 47 2 129v99l3 2q-2 2 -3 16q0 96 11 127q12 27 22 27 q14 0 23 -45q8 -41 8 -109v-4v-2v-10q0 -14 2 -15q10 -16 16 -16q2 0 7 2l4 2q18 12 24 25q16 31 35 45q8 6 18 16t19 16q18 18 18 78v6q-2 5 -2 9q-20 149 -128 149h-1q-57 0 -129 -86q-47 -55 -82 -123q-14 -35 -14 -67q0 -6 2 -21l2 -8q0 -8 2 -19v-14q4 -53 4 -88 q2 -33 2 -106q0 -43 -24 -43q-8 2 -23 2h-20q-12 0 -21 -15q-12 -12 -12 -30q-2 -12 -6 -25l-2 -6q0 -14 -2 -23v-6q-2 -6 -2 -8z" />
<glyph unicode="g" horiz-adv-x="776" d="M-6 758q0 -102 35 -185q33 -82 90 -133q8 -16 14 -26q0 -2 2 -6q2 -8 2 -13v-4q-2 -4 -2 -6q-6 -16 -26 -39q-6 -8 -13 -14l-18 -21q-20 -25 -35 -49l-6 -8q-18 -29 -29 -41q-4 -4 -4 -12q0 -4 6 -19l2 -6q12 -25 23 -26q14 -6 43 -15q14 -6 43 -14l-8 -8q-6 -25 -29 -29 q-18 -12 -43 -57q-18 -35 -18 -78q0 -2 2 -15v-12q12 -127 84 -213q74 -88 200 -88q119 0 203 115q84 117 92 225q2 2 2 6q2 4 2 6q2 4 6 29q4 23 4 27l13 55v16q0 29 -23 39q-25 10 -51 23l-25 10q-14 6 -24 10q-2 2 -10 6q-37 14 -101 41q-4 2 -43 19q-47 18 -145 55 q-8 16 -8 39q0 18 18 20q6 2 14 3q12 2 15 2q20 -6 51 -11h6h12q10 -2 13 -2q111 0 196 111q90 121 90 293q0 117 -45 213q0 2 -4 8q-4 10 -4 16q0 12 10 23q2 4 9 4q18 0 43 -61q2 -8 8 -23q0 -2 2 -6q0 -37 16 -47q18 0 33 43q10 35 29 63q16 27 16 49q0 16 -6 29 q-31 90 -100 90q-45 0 -84 -51q-23 -29 -37 -29q-4 0 -10 6q-74 80 -187 80q-129 0 -221 -118q-90 -121 -90 -289zM121 -94q4 88 57 133v2q16 16 17 39v8q-2 6 -2 8q57 0 131 -39q39 -20 118 -59q8 -4 27 -12q6 -16 6 -37q0 -70 -53 -146q-50 -73 -125 -73h-2q-74 0 -123 55 q-47 53 -51 121zM162 756q0 106 22 207q23 110 125 110t125 -115q18 -102 23 -202q0 -94 -39 -199q-37 -106 -115 -106q-72 6 -108 108q-33 98 -33 197z" />
<glyph unicode="h" horiz-adv-x="720" d="M2 1681q6 -47 21 -47q18 0 30 -45q14 -55 23 -211q8 -106 8 -356v-88q-2 -55 -2 -105q-2 -346 -12 -497q-14 -166 -23 -205q-8 -51 -20 -55q-10 -4 -17 -52q0 -27 19 -26q16 4 59 4q18 -2 57 -2q41 0 60 2q16 0 39 -2q12 -2 18 -2q23 0 23 14v6l-2 6q-12 47 -27 54 q-14 4 -27 59q-12 61 -16 209q-4 49 -4 190q0 70 4 250v58v14v12q0 45 12 58q10 12 21 18l16 8q29 16 47 27q27 10 74 10q55 0 78 -29q28 -34 28 -214v-13q0 -88 -2 -141v-19v-16h-2v-4v-2v-2v-4v2q0 -121 -1 -198t-5 -118q-10 -98 -18 -131q-10 -37 -21 -39q-10 -4 -14 -39 q0 -12 12 -28q14 -10 21 -10q27 6 51 12q23 6 51 6h53q25 0 52 -6q20 0 20 26q-10 31 -20 41q-12 10 -23 52q-8 39 -12 137v31q-2 29 -2 45q0 88 6 219v2v4v4q-2 8 -2 39v35v35v34v193q0 63 -8 133q-8 66 -31 92q-23 27 -49 35q-12 4 -39 4q-12 0 -43 -4h-6 q-53 -12 -117 -39q-14 -6 -43 -27q-8 -6 -23 -16q-16 -10 -24 -16q-2 -4 -10 -4q-2 0 -7 2q-2 2 -4 2q-10 6 -10 63q0 10 2 152q2 150 2 200q2 66 2 129v29q2 18 4 55q0 33 -24 33q-20 -4 -29 -8q-8 -2 -26 -2h-64q-33 0 -63 6q-20 0 -21 -29z" />
<glyph unicode="i" horiz-adv-x="286" d="M4 1143q10 -51 25 -56q14 -6 26 -40q12 -37 19 -142q2 -23 2 -86q0 -49 -6 -203q0 -32 -2 -67q0 -211 -7 -301q-6 -86 -16 -121q-10 -33 -18 -35q-10 -2 -17 -47q0 -14 6 -27q6 -14 13 -14q16 4 55 4q16 -2 55 -2h58q18 0 55 -4q8 0 14 10q4 6 4 17l-2 8q-6 43 -14 47 q-10 4 -16 25q-8 18 -15 96q-8 94 -8 254q0 63 2 213q0 158 2 213v157v33q2 18 2 58q0 31 -24 30q-18 -4 -27 -4h-27q-39 0 -59 2q-41 4 -59 8q-20 0 -21 -26zM90 1432q25 -41 60 -41q33 0 57 41q25 41 24 98q0 59 -24 98q-24 41 -57 41q-35 0 -60 -41q-24 -38 -24 -93 q0 -62 24 -103z" />
<glyph unicode="j" horiz-adv-x="231" d="M-35 -260q0 -51 31 -51q4 0 6 2q6 2 12 8q66 53 99 151q33 100 90 154q4 0 12 19q4 4 4 26q-2 12 -2 29q0 23 -4 31q0 -4 -2 -5q-2 4 -2 13q-2 18 -6 104q-2 33 -4 150l-4 168q4 270 6 385q0 100 4 145q0 20 2 33q2 12 2 41q0 18 -14 18q-29 -4 -41 -4h-39h-47 q-16 0 -45 4q-23 0 -23 -26q0 -37 14 -37q12 -2 27 -39q12 -41 25 -152q6 -86 6 -252v-125q-10 -168 -11 -401q0 -186 -84 -350l-6 -12q-6 -12 -6 -27zM53 1513q0 -57 25 -98t59 -41q33 0 58 41t24 98q0 59 -24 99q-25 41 -58 41q-35 0 -59 -41q-25 -39 -25 -99z" />
<glyph unicode="k" horiz-adv-x="720" d="M-12 1690l2 -7v-6q6 -41 16 -41l4 2l6 2q10 0 21 -41q14 -45 20 -213q6 -123 6 -374v-183q0 -297 -8 -497q-6 -154 -18 -205q-12 -53 -23 -55q-14 -4 -20 -52q0 -4 -2 -10q0 -16 20 -16q14 4 60 4q18 -2 57 -2t59 2q16 0 39 -2q12 -2 19 -2q23 0 22 14v6l-2 6 q-6 27 -16 31t-19 27q-10 29 -16 96q-8 86 -10 236q0 37 2 43q0 8 16 30q12 20 21 31q4 6 10 14q4 8 8 15q10 14 19 14q14 0 30 -41q82 -217 111 -311q23 -74 22 -115q-2 -25 -18 -24q-12 0 -12 -37q0 -27 26 -27q59 10 115 12q20 0 49 -4q2 0 17 -2q25 -4 36 -6q20 0 21 14 q0 6 -2 17l-2 4q-18 51 -27 53q-10 0 -31 33q-16 25 -67 141q-39 94 -133 373q-18 53 -19 76q0 29 35 86q82 141 123 192q35 47 53 62q20 10 27 12q8 0 33 47q6 6 6 18v7l-2 4q-2 14 -13 14q-18 -4 -63 -4h-59q-20 0 -62 4h-6q-43 4 -61 8q-20 0 -35 -26q0 -4 -2 -13v-8 q0 -35 18 -45q27 -16 29 -43q0 -43 -29 -100q-33 -74 -153 -246q-6 -14 -19 -16q-12 0 -12 28v72q0 47 2 74q0 123 2 221q2 254 2 313v203v43q0 16 2 57q0 35 -16 35h-2q-4 -2 -7 -2q-18 -4 -26 -8q-10 -2 -29 -2h-61q-35 0 -64 6q-20 0 -20 -16z" />
<glyph unicode="l" horiz-adv-x="286" d="M-10 1677q4 -45 18 -45t27 -45q14 -55 22 -211q6 -117 6 -344v-203q-6 -373 -14 -499q-8 -150 -18 -203q-12 -53 -21 -55q-10 -4 -16 -52q0 -26 17 -26h1q14 4 60 4q18 -2 57 -2t59 2q16 0 39 -2q12 -2 19 -2q22 0 22 13v7l-2 6q-8 31 -22 35q-12 0 -21 58 q-10 47 -16 217q-2 55 -2 221v123q2 102 2 166q0 123 2 221q2 254 2 313v203v43q0 16 2 57q0 35 -16 35h-2q-4 -2 -7 -2q-18 -4 -26 -8q-10 -2 -29 -2h-61q-35 0 -64 6q-18 0 -18 -29z" />
<glyph unicode="m" horiz-adv-x="1179" d="M-8 1133q10 -51 24 -56q16 -6 29 -41q14 -37 16 -139q2 -25 2 -94q0 -98 -6 -262q0 -182 -4 -305q-6 -96 -14 -125q-10 -35 -16 -39q-8 -8 -15 -52q0 -12 6 -28q4 -12 15 -12q16 4 53 4h55h58q29 0 55 -7q8 0 14 13q4 4 4 14l-2 8q-6 43 -16 49q-12 4 -21 31 q-10 33 -16 103q-10 82 -10 256q0 104 4 239v170q0 18 4 47q4 23 31 47q31 29 67 45q49 23 82 23q47 0 68 -39q33 -57 33 -281v-55q-2 -35 -3 -65v-17v-18v-4v-4q-2 -2 -2 -4h2q0 -229 -8 -314q-6 -92 -16 -131q-12 -37 -23 -39q-10 -4 -14 -39q0 -10 12 -26q12 -12 23 -13 q18 4 51 13q23 6 49 6h53q25 0 52 -6q20 0 20 26q-10 31 -20 41q-12 10 -23 51q-8 39 -12 138v30q-2 29 -2 45q0 88 6 220v2v8q-2 8 -2 39v35v34v35v80v72q0 35 10 61q16 35 41 53l10 9q25 14 35 20q47 23 88 23q45 0 70 -33q35 -49 35 -283v-110v-17v-18h-2v-4v-4v-4 q0 -119 -1 -196t-6 -118q-10 -98 -18 -131q-12 -37 -20 -39q-10 -2 -15 -39q0 -10 12 -26q12 -12 21 -13q27 6 51 13q23 6 51 6q20 -4 54 -12q10 -2 51 -3q20 0 20 35q-10 31 -20 41q-12 10 -23 51q-8 39 -12 138v30q-2 29 -2 45q0 88 6 220v2v4v4q-2 8 -2 39v35v34v35v193 q0 63 -8 133q-18 121 -74 139q-16 8 -57 8q-72 0 -158 -39q-23 -8 -49 -34l-55 -50q-14 -14 -25 -14q-8 0 -14 14q-2 6 -8 21q-8 16 -11 24q-20 49 -59 66q-12 6 -30.5 7t-63.5 1q-59 -2 -121 -31q-25 -12 -49 -36q-27 -27 -49 -41q-6 -4 -13 -4q-8 0 -12 12q-6 23 -6 39v6 q2 10 2 18q0 35 -25 35q-16 -4 -26 -4h-27q-39 0 -59 2q-31 0 -62 6q-18 0 -18 -28z" />
<glyph unicode="n" horiz-adv-x="720" d="M0 1128q8 -49 25 -53q12 -2 28 -37q12 -33 19 -135q4 -25 4 -92q0 -49 -6 -197q0 -31 -2 -65q0 -223 -9 -303q-6 -86 -16 -125q-12 -33 -20 -39q-10 -4 -17 -49q0 -10 4 -27q6 -14 15 -14q31 6 57 6q18 2 57 2q37 0 56 -2q33 -4 53 -8q20 0 20 16q0 6 -4 19q-6 43 -14 49 q-8 4 -14 28q-8 20 -15 101v12q-6 137 -6 244q0 174 -2 221q-2 45 -2 158q0 82 49 112q6 4 14 11q6 2 9 4q16 8 26 12q51 24 89 24h3q43 0 64 -26q35 -43 35 -275v-110q0 -12 -2 -19v-16v-4v-2v-2v-4v2q0 -123 -2 -198t-7 -118q-10 -104 -22 -131q-12 -37 -25 -39 q-12 -4 -16 -39q0 -12 12 -28q14 -10 21 -10q27 6 51 12q23 6 51 6h53q25 0 52 -6q20 0 20 26l-2 9q-8 27 -14 32q-8 8 -19 52q-8 33 -14 137q-2 51 -2 295v2v4v4q-2 8 -2 39v35v35v34q0 82 4 193q2 20 2 55q0 37 -4 78q-12 68 -37 92q-31 27 -53 35q-12 4 -39 4 q-12 0 -43 -4h-6q-53 -12 -117 -39q-23 -12 -39 -25q-20 -16 -41 -28q-16 -14 -29 -15q-6 0 -6 7q-6 6 -6 43v6q2 6 2 10v23q0 30 -23 30h-1q-18 -4 -27 -4h-27q-20 0 -61 -4h-14q-10 -2 -13 -2q-6 0 -18 2q-10 2 -17 2q-20 0 -20 -29z" />
<glyph unicode="o" horiz-adv-x="745" d="M-6 580q0 -244 104 -416q106 -174 254 -174q147 0 254 174q104 172 105 416q0 246 -105 419q-107 175 -254 175t-254 -175q-104 -174 -104 -419zM147 578q0 201 43 344q43 145 160 145q119 0 158 -141q41 -145 47 -348q0 -115 -14.5 -198t-42.5 -149q-57 -133 -146 -133 q-84 8 -145 146q-59 141 -60 334z" />
<glyph unicode="p" horiz-adv-x="710" d="M-6 1145q6 -63 20 -64q16 0 31 -37q16 -57 25 -196q4 -63 6 -185t2 -356q-4 -266 -10 -379q-4 -68 -5 -174q0 -20 3 -41v-30q0 -31 4 -52q2 -14 24 -14q35 0 62 43t61 53q10 2 14 35v53q-2 29 -6 54q-4 16 -8 45q-2 12 -2 28t-2 29q0 37 25 43q178 37 307 244 q131 205 131 452q0 250 -78 371q-80 119 -205 119q-53 -10 -84 -56q-35 -49 -53 -57q-6 -2 -33 -2q-12 4 -12 35v16q2 6 2 35q0 33 -25 33q-29 -6 -34 -12q-6 -8 -35 -9q-39 0 -53 -2q-14 0 -33 2q-14 2 -21 2q-2 0 -4 3q-14 0 -14 -29zM211 877q0 47 12 67q15 25 23 33 q37 37 92 41q94 0 137 -107q43 -111 43 -262q0 -70 -22 -176q-20 -98 -76 -188q-27 -43 -72 -88q-27 -29 -74 -68l-2 -2q-18 -12 -28 -12t-17 10q-14 16 -14 51v68v73v340q-2 90 -2 220z" />
<glyph unicode="q" horiz-adv-x="729" d="M-2 528q0 -229 80 -395q80 -158 194 -158h15q10 2 12 2q86 12 160 97q6 2 12 16q0 4 4 4t4 -31q-6 -154 -14 -223q-8 -74 -8 -170q0 -18 2 -24q6 -10 28 -13q23 0 48 45q25 47 69 54q10 4 19 22q8 16 8 41v8q-2 8 -2 11q-6 80 -6 217v153.5t-5 112.5q-2 141 -2 354 q0 51 2 121v70q6 160 19 209q12 41 29 41q16 0 24 45v10q0 16 -20 16q-10 -4 -33 -4q-2 0 -10 2h-13q-33 4 -53 4q-31 0 -33 -2q-2 0 -10 2q-12 2 -20 2q-23 0 -23 -30q0 -6 2 -15v-6q4 -8 4 -12q0 -35 -6 -35q-4 4 -6 4q-6 8 -14 17l-4 4q-23 23 -72 59q-39 25 -80 25 q-123 0 -207 -166q-82 -168 -92 -437v-22q-2 -20 -2 -25zM141 561q0 4 2 21v20q0 184 39 313q37 131 123 132q72 0 152 -113q20 -27 20 -72v-207q2 -51 2 -155q2 -104 2 -158q0 -82 -24 -111q-35 -35 -54 -49q-28 -22 -55 -22h-2q-94 29 -153 153q-51 106 -52 248z" />
<glyph unicode="r" horiz-adv-x="514" d="M4 1143q10 -51 25 -56q14 -6 26 -40q12 -37 19 -142q2 -23 2 -86q0 -49 -6 -203q0 -33 -2 -67q0 -211 -7 -301q-6 -86 -16 -121q-10 -33 -18 -35q-10 -2 -17 -47q0 -14 6 -27q6 -14 13 -14q16 4 55 4q16 -2 55 -2h58q18 0 55 -4q8 0 14 10q4 6 4 17l-2 8q-6 43 -14 47 q-10 4 -16 25q-8 18 -15 96q-8 94 -8 254v225q0 66 2 125v35q0 47 10 69q12 31 33 52q20 20 37 20q45 0 45 -70q0 -20 -8 -38q-20 -33 -21 -70v-23q0 -33 23 -32q23 0 31 24q18 45 47 60q29 12 55 43q20 23 20 71v8v5v4q0 98 -38 159q-39 57 -82 58q-41 0 -56 -21 q-6 -12 -32 -47l-9 -10l-8 -8l-8 -8q-8 -6 -12 -13h-13q-6 0 -6 27q0 2 2 12l2 12q0 33 -26 33h-29q-18 -2 -31 -2q-39 0 -59 2q-41 4 -59 8q-20 0 -21 -26z" />
<glyph unicode="s" horiz-adv-x="632" d="M2 227q0 -61 14 -71q45 -68 127 -111q80 -43 170 -43q98 0 195 115q92 111 92 295q-2 137 -43 213q-41 80 -96 123q-55 47 -119 67q-63 23 -117 43q-27 16 -55 49q-29 33 -29 66q0 47 29 63q35 16 70 23q49 0 120 -51q80 -58 113 -140q4 -8 16 -28q10 -16 21 -17 q23 0 22 35v8l-2 6q-8 53 -16 78q-10 39 -18 94q-2 25 -25 41q-20 10 -37 23q-33 25 -80 37q-29 8 -94 20v-2q-2 0 -18 2h-19q-72 0 -131 -43q-72 -55 -72 -215q0 -92 31 -147q35 -63 86 -86q43 -37 115 -64q57 -20 119 -53q41 -37 63 -84q23 -49 23 -123q0 -104 -45 -164 q-43 -57 -90 -57h-7q-109 0 -161 92q-55 96 -78 193q-6 23 -13 65q-8 45 -36 45q-25 0 -25 -47v-71v-91v-88z" />
<glyph unicode="t" horiz-adv-x="438" d="M-8 1159q4 -23 8 -35q6 -12 18 -12q37 0 54 8q2 0 6 2h2h6l6 -2q14 -6 14 -39v-57q-2 -35 -2 -63v-136q-4 -379 -8 -493q-2 -143 -12 -191q-6 -45 -16 -49q-12 -4 -21 -72q0 -4 -2 -10q0 -16 21 -16q18 4 53 8h6h57h60h6q35 -4 51 -8q20 0 20 26q-2 63 -14 66 q-10 4 -22 53q-12 70 -19 199q-6 102 -6 297q0 12 2 92v113v137q0 82 2 121q0 16 2 30q0 16 17 17h4q4 -2 6 -2q20 -6 26 -13q6 -8 33 -8q10 0 23 15q10 14 16 34l6 15l4 14q2 6 7 17q4 8 4 10q4 10 4 28v15q-9 26 -29 26q-6 0 -14 4q-4 2 -4 3q-6 2 -11 2q-43 -2 -65 -15 h-4q-4 -2 -6 -2q-16 0 -17 49q0 59 2 144v51q0 55 2 63v17v6q2 14 4 43q0 12 -4 41q-2 18 -26 18h-27q-20 0 -25 -32q-12 -129 -67 -279q-55 -156 -113 -188q-12 -10 -16 -33q0 -12 -2 -25v-4z" />
<glyph unicode="u" horiz-adv-x="731" d="M2 1135q4 -51 14 -52q14 -4 27 -32q16 -35 25 -133q8 -66 8 -230v-119q-2 -27 -2 -55q-2 -47 -2 -57q0 -68 -2 -97v-24v-25q0 -102 8 -163.5t24 -94.5q36 -69 93 -69h2q61 0 127 45q18 10 53 32q51 33 84 52q4 6 12 6q10 0 10 -23v-12q-6 -49 -6 -68q0 -18 15 -18 q4 0 20 4q16 2 18 2q14 2 41 2q31 0 56 -2q16 -2 47 -6l8 -2q14 0 14 18q0 74 -10 78q-12 2 -24 29q-10 23 -21 115q-4 35 -6 110.5t-2 220.5q0 53 2 183q0 133 2 182q0 45 2 102v31v22q2 12 2 37q0 10 -6 27q0 2 -2 6q-6 16 -25 17q-8 -2 -24 -7l-9 -2q-16 -4 -30 -4h-53 q-29 0 -54 4q-14 0 -14 -18q0 -57 12 -66q12 -6 25 -39q12 -29 22 -133q4 -35 5 -101.5t1 -246.5q-2 -41 -2 -74q0 -55 -2 -71v-103q0 -49 -47 -86q-39 -31 -63 -41q-14 -6 -60 -28h-4q-4 -2 -8 -2q-14 0 -39 6q-41 8 -45 250v39q-2 74 -2 167q4 260 6 359q0 90 4 119 q0 12 4 12q2 0 2 31q0 12 -8 20q-6 6 -16 6q-43 -8 -78 -8q-10 0 -39 -2l-20 -2h-13q-12 -2 -14 -2q-4 0 -18 2q-8 2 -13 2q-12 0 -12 -20z" />
<glyph unicode="v" horiz-adv-x="753" d="M-4 1130q12 -31 18 -30q6 0 23 -33q16 -29 51 -147q45 -147 102 -379q31 -125 62 -246q25 -94 57 -242q12 -63 49 -63q23 0 41 63q29 100 70 264q25 106 66 263q55 233 90 346l6 20q29 82 37 96q12 25 18 25q8 0 29 70v8q0 8 -4 14q-6 10 -13 10q-16 -2 -53 -6 q-18 -2 -51 -2q-49 0 -86 6q-18 0 -21 -22v-33q0 -51 19 -51q24 0 24 -53q0 -33 -16 -121q-25 -109 -65 -246q-20 -70 -29 -117q-8 -47 -23 -98q-10 -35 -16 -35q-6 4 -16 39l-3 6q-12 59 -20 99q-12 70 -31 124q-61 213 -67 275q-8 43 -8 82q0 23 2 31q10 33 20 40 q8 2 8 25q0 18 -2 29q-6 31 -31 30q-20 -2 -55 -6h-8q-37 -4 -49 -4q-27 0 -43 8t-45 15q-8 0 -23 -21l-2 -2q-12 -23 -12 -31z" />
<glyph unicode="w" horiz-adv-x="1021" d="M-8 1118q14 -59 22 -59q10 0 17 -12q10 -18 39 -119q33 -121 90 -381q33 -137 55 -244q20 -109 49 -244q12 -71 46 -71h1q29 0 43 39h-2q23 145 60 325q31 143 57 326q0 12 8 22q0 2 4 2q6 0 8 -16q20 -106 62 -324q35 -184 61 -323q12 -47 43 -47q27 0 41 63 q33 133 56 256q18 121 49 264q41 166 86 347l6 24q23 88 29 105q10 29 16 32q6 4 31 62v-8q-2 4 -6 14q-6 25 -15 25q-23 -6 -39 -13q-14 -6 -39 -6t-49 6q-12 2 -30 4q-14 4 -19 4q-6 0 -12 -14q-8 -14 -8 -24v-23q0 -25 10 -25q16 -4 24 -34q4 -8 5 -41q0 -35 -7 -95 q-12 -104 -73 -356q-12 -49 -13 -55q0 -12 -8 -47q-6 -18 -10 -19q-4 4 -8 17q-23 125 -66 327q-27 123 -57 328q-12 82 -41 82q-33 0 -43 -90q-12 -129 -55 -320q-48 -192 -68 -327q-6 -31 -12 -31q-4 0 -11 27q-8 35 -12 55q-4 35 -16 74q-63 250 -74 344q-6 49 -6 82 q0 25 4 41q8 27 23 36q6 4 6 19q0 25 -8 59q-2 2 -5 2h-4q-6 -2 -8 -2t-16 -2q-25 -4 -37 -6q-31 -6 -55 -6q-14 0 -48 4q-12 2 -30 4q-14 4 -19 4q-8 0 -16 -14q-6 -14 -6 -27z" />
<glyph unicode="x" horiz-adv-x="729" d="M-8 35q2 -6 2 -10q2 -20 8 -21q39 8 74 8q8 0 41 -2q12 0 28 -2l37 -4q23 -2 31 -4l4 -2h2q16 0 29 27l4 12q2 10 2 12q0 18 -10 19q-16 8 -29 36q-4 6 -4 31q0 33 8 68q16 76 94 237q10 18 17 19q6 0 16 -17q78 -176 94 -252q8 -39 9 -67q0 -16 -5 -25q-10 -25 -24 -26 q-6 0 -6 -15q0 -12 12 -41q6 -18 20 -18q31 6 62 10l20 2q35 2 45 2q43 0 82 -8h4q2 -2 3 -2q8 0 20 16q10 16 10 29q-14 35 -26 47q-10 8 -37 51q-29 47 -72 142q-55 129 -129 317q-12 31 -12 60q0 25 10 51q86 199 127 280q41 72 53 84q4 4 12 4q4 0 5 -4l2 -4q2 0 8 17 q4 8 8 14v8q0 14 -2 25q-6 23 -12 22q-39 -8 -80 -8q-35 0 -64 2q-39 2 -59 6h-2q-4 2 -6 2q-8 0 -10 -14q-4 -14 -5 -39q0 -39 13 -47q16 -12 24 -33q2 -6 2 -26q0 -23 -2 -37q-8 -39 -59 -146q-12 -27 -21 -26q-6 0 -10 10q-45 109 -59 174q-8 41 -8 86q4 31 10 39 q2 4 2 12q0 12 -6 31q-8 18 -21 18q-18 -6 -65 -6q-33 -2 -70 -2h-41q-14 0 -29 2h-14q-8 0 -8 -12q0 -4 -2 -10q0 -4 4 -13q12 -51 18 -51q10 -10 23 -24q23 -35 57 -109q43 -90 123 -303q6 -18 6 -37q0 -25 -8 -41q-100 -229 -149 -323q-37 -78 -68 -123q-16 -25 -27 -25 q-8 0 -20 -33q-4 0 -4 -12v-8z" />
<glyph unicode="y" horiz-adv-x="813" d="M4 1126q12 -43 29 -53q16 -12 39 -67q25 -57 67 -203q39 -131 113 -461q23 -90 37 -164q10 -45 22 -96q6 -33 11 -47q6 -37 6 -60v-18q-8 -33 -15 -49q-39 -109 -71 -154q-33 -39 -60 -55q-27 -14 -47 -21q-18 -4 -35 -40q-2 -4 -2 -15q0 -6 4 -22v-4q6 -29 17 -33h8 q8 -2 12 -2q12 0 37 4h6q47 10 68 10h6q6 2 10 2q16 0 31 -6q29 0 37 27q53 147 92 370q41 231 88 369q88 360 129 502q47 147 68 188q23 41 32 41q12 0 27 53q0 20 -6 31q-8 18 -14 18q-47 -8 -95 -8q-12 0 -43 2q-6 2 -12 2q-14 2 -27 2q-18 2 -24 2q-18 0 -25 -36 q-4 -10 -4 -27q0 -18 15 -18q20 0 30 -41q4 -10 4 -39q0 -55 -14 -142q-25 -154 -115 -473q-14 -55 -26 -55q-10 0 -19 33q-2 4 -6 16q-2 4 -2 10q0 4 -2 9q-92 338 -125 489q-20 119 -20 147q0 4 2 11v6q2 23 14 22q2 0 6 -2h2t4 -2q6 0 6 19q0 25 -2 41q-6 25 -22 24 q-27 -8 -62 -10h-8q-41 -4 -53 -4q-20 0 -47 10q-16 6 -49 15q0 6 -2 6q-6 0 -13 -17q-12 -20 -12 -37z" />
<glyph unicode="z" horiz-adv-x="686" d="M-2 37q0 -4 2 -8v-6q6 -27 20 -27q51 4 107.5 7t140.5 3h13q156 -4 235 -4q33 0 51 45q20 53 29 96q10 53 35 97q14 20 14 61t-24 43q-12 0 -29 -29q-6 -10 -19 -30q-2 -4 -8 -13q-78 -98 -157 -127q-78 -32 -90 -32h-1q-29 0 -43 2q-14 0 -32 -2h-13q-8 0 -8 16q2 6 2 8 q2 10 2 15q35 100 78 192q27 51 84 193q20 49 72 182l41 102q63 156 123 279q14 27 14 45q0 16 -19 16q-55 0 -106 -2t-158 -6h-51q-49 -2 -92 -2q-62 0 -68 10q-16 -2 -34 -51q-16 -53 -27 -84q-14 -45 -31 -80q-8 -10 -8 -28q0 -4 2 -11v-6q6 -27 14 -33q4 -6 17 -6 q10 0 22 17q12 14 35 55t80 80q46 30 120 30h5h24q14 -2 27 -2q2 -2 12 -6q2 0 7 -2q6 0 6 -14t-4 -23q-39 -109 -74 -188q-25 -49 -72 -164q-4 -10 -12 -31q-66 -158 -117 -274q-49 -115 -127 -266q-10 -20 -10 -37z" />
<glyph unicode="{" horiz-adv-x="235" d="M0 866q0 -51 43 -94q43 -45 45 -94q8 -291 47 -510q37 -215 88 -266q-33 123 -55 329q-25 207 -31 457q0 47 -43 90q-43 41 -43 90q0 43 43 93q41 49 43 92q6 276 29 467q25 217 57 340q-49 -49 -90 -273q-39 -229 -47 -528q0 -41 -43 -94q-43 -51 -43 -99z" />
<glyph unicode="|" horiz-adv-x="59" d="M16 45h41v1595h-41v-1595z" />
<glyph unicode="}" horiz-adv-x="235" d="M2 -98q51 55 88 266q39 219 47 510q4 49 45 94q43 43 43 94q0 47 -43 99q-43 53 -43 94q-8 299 -47 528q-37 219 -90 273q33 -123 57 -340q23 -225 29 -467q0 -43 43 -92t43 -93q0 -49 -43 -90q-43 -43 -43 -90q-8 -250 -31 -457q-18 -186 -55 -329z" />
<glyph unicode="~" horiz-adv-x="403" d="M2 1477q33 84 51 120q29 47 53 48q33 0 76 -101q8 -20 21 -49l2 -6l2 -6l2 -6v2q39 -88 72 -88q27 0 53 49q18 33 51 119v16v14v15v14q-31 -84 -51 -121q-29 -47 -53 -47q-33 0 -76 98q-6 12 -15 35q-6 16 -8 23l-2 6l-2 6v-2q-39 88 -72 88q-25 0 -53 -47 q-18 -37 -51 -121v-14v-17v-14v-14z" />
<glyph horiz-adv-x="174" d="M2 1540q0 -92 25 -141q25 -57 45 -58q4 0 4 9q0 12 -13 49q-6 18 -16 80v4q14 -14 35 -15q35 0 59 41q23 37 23 99q0 61 -23 98q-25 41 -59 41q-68 0 -78 -141q-2 -23 -2 -66z" />
<glyph horiz-adv-x="182" d="M0 1608q0 -57 25 -99q25 -41 57 -41q20 0 37 15q-4 -23 -10 -53q-4 -23 -7 -31q-4 -12 -4 -13q-10 -31 -10 -36q0 -8 6 -9q18 1 45 58q25 49 25 143q0 41 -2 64q-8 141 -80 141q-33 0 -57 -41q-25 -39 -25 -98z" />
<glyph horiz-adv-x="360" d="M2 1540q0 -92 25 -141q25 -57 45 -58q4 0 4 9q0 12 -13 49q-6 18 -16 80v4q14 -14 35 -15q35 0 59 41q23 37 23 99q0 61 -23 98q-25 41 -59 41q-68 0 -78 -141q-2 -23 -2 -66zM180 1542q0 -94 25 -143q27 -57 45 -58q4 0 4 9q0 12 -12 49v4q-10 41 -17 80q16 -14 37 -15 q35 0 57 41q25 41 25 99q0 59 -25 98q-23 41 -57 41q-70 0 -80 -141q-2 -23 -2 -64z" />
<glyph horiz-adv-x="370" d="M0 1608q0 -57 25 -99q25 -41 57 -41q20 0 37 15q-4 -23 -10 -53q-4 -23 -7 -31q-4 -12 -4 -13q-10 -31 -10 -36q0 -8 6 -9q18 1 45 58q25 49 25 143q0 41 -2 64q-8 141 -80 141q-33 0 -57 -41q-25 -39 -25 -98zM180 1608q0 -57 23 -99q25 -41 57 -41q23 0 37 15 q-6 -39 -14 -80q-2 -2 -2 -4q-12 -37 -13 -49q0 -8 4 -9q20 1 45 58q25 43 25 141q0 43 -2 66q-8 141 -80 141q-33 0 -57 -41q-23 -41 -23 -98z" />
<glyph unicode="&#xa3;" horiz-adv-x="813" d="M10 41q0 -14 4 -23q8 -20 21 -20q141 16 270 18q90 0 161 -3t150 -11q33 0 46 43q10 37 18 84q12 51 18 82q16 53 33 88q23 49 35 90q4 10 4 29q0 14 -2 22q-6 27 -27 27q-45 0 -63 -59q-49 -119 -141 -150q-86 -31 -220 -35q-53 0 -53 62v10q2 8 2 12q6 61 27 185 q14 86 14 186q0 43 -8 100h55h121l-12 64h-170l-10 57q-12 76 -21 115q-14 90 -14 160q0 94 31 182q14 59 57 108q33 45 57 56q23 6 66 6q33 0 67 -23q29 -20 31 -24q0 -4 -10 -33q-2 -2 -4 -8q-25 -61 -25 -133q0 -92 35 -154q37 -63 86 -64q51 0 84 64q37 66 37 154 q0 61 -19 112q-37 133 -129 217q-92 80 -206 80q-115 0 -199 -92q-86 -94 -119 -227q-29 -127 -29 -221q0 -84 13 -162q18 -104 28 -170h-49l12 -64h43q6 -55 7 -100q0 -158 -29 -320q-29 -143 -72 -301q-2 -4 -2 -16z" />
<glyph unicode="&#xad;" d="M0 520h522v58h-522v-58z" />
<glyph unicode="&#x2000;" horiz-adv-x="940" />
<glyph unicode="&#x2001;" horiz-adv-x="1880" />
<glyph unicode="&#x2002;" horiz-adv-x="940" />
<glyph unicode="&#x2003;" horiz-adv-x="1880" />
<glyph unicode="&#x2004;" horiz-adv-x="626" />
<glyph unicode="&#x2005;" horiz-adv-x="470" />
<glyph unicode="&#x2006;" horiz-adv-x="313" />
<glyph unicode="&#x2007;" horiz-adv-x="313" />
<glyph unicode="&#x2008;" horiz-adv-x="235" />
<glyph unicode="&#x2009;" horiz-adv-x="376" />
<glyph unicode="&#x200a;" horiz-adv-x="104" />
<glyph unicode="&#x2010;" d="M0 520h522v58h-522v-58z" />
<glyph unicode="&#x2011;" d="M0 520h522v58h-522v-58z" />
<glyph unicode="&#x2012;" d="M0 520h522v58h-522v-58z" />
<glyph unicode="&#x2013;" horiz-adv-x="1050" d="M0 520h1024v58h-1024v-58z" />
<glyph unicode="&#x2014;" horiz-adv-x="2074" d="M0 520h2048v58h-2048v-58z" />
<glyph unicode="&#x202f;" horiz-adv-x="376" />
<glyph unicode="&#x205f;" horiz-adv-x="470" />
<glyph unicode="&#x25fc;" horiz-adv-x="1167" d="M0 0v1167h1167v-1167h-1167z" />
</font>
</defs>
</svg>
