<?xml version="1.0" standalone="no"?>
<!DOCTYPE svg PUBLIC "-//W3C//DTD SVG 1.1//EN" "http://www.w3.org/Graphics/SVG/1.1/DTD/svg11.dtd" >
<svg xmlns="http://www.w3.org/2000/svg">
<metadata></metadata>
<defs>
<font id="boltonbolditalicregular" horiz-adv-x="1171" >
<font-face units-per-em="2048" ascent="1638" descent="-410" />
<missing-glyph horiz-adv-x="819" />
<glyph horiz-adv-x="0" />
<glyph horiz-adv-x="682" />
<glyph unicode=" "  horiz-adv-x="819" />
<glyph unicode="&#x09;" horiz-adv-x="819" />
<glyph unicode="&#xa0;" horiz-adv-x="819" />
<glyph unicode="!" horiz-adv-x="788" d="M41 129q0 -41 29 -80q39 -47 118 -47q74 0 136 43q68 45 82 109q8 16 8 39q0 45 -29 79q-45 52 -123 52q-72 0 -135 -48q-57 -39 -82 -106q-4 -12 -4 -41zM154 301q113 55 133 57q27 0 104 -47q55 209 131 406q23 63 68 190q45 128 65 189q92 295 93 463q-2 178 -91 180 q-61 0 -170 -166q-96 -170 -163 -463z" />
<glyph unicode="&#x22;" horiz-adv-x="399" d="M41 1505q0 -61 51 -61q57 0 92 110l41 158h-137l-37 -145q-10 -41 -10 -62zM174 1503q0 37 10 66l37 143h137l-41 -158q-35 -111 -92 -110q-51 0 -51 59z" />
<glyph unicode="#" horiz-adv-x="1224" d="M41 408h321l-139 -316h121l141 316h119l-137 -316h121l139 316h371l26 106h-352l43 98h336l33 107h-322l148 334h-123l-150 -334h-119l148 334h-125l-145 -334h-371l-27 -107h351l-39 -98h-342zM530 514l41 98h123l-43 -98h-121z" />
<glyph unicode="$" horiz-adv-x="1345" d="M41 207q0 -37 27 -51q104 -106 350 -142l-88 -225h106l84 215h90q195 0 414 113q223 119 268 303q12 35 13 98q0 162 -142 223q-152 72 -313 109l57 151q59 -16 123 -57q70 -39 94 -86q12 -20 27 -35q25 -20 53 -20q74 0 82 71q0 6 -2 21q-6 43 -12 63q-8 31 -8 84 q0 39 -58 64q-43 14 -55 20q-61 27 -180 43l90 236h-107l-84 -225q-23 2 -65 6v-2q-23 4 -64 4q-135 0 -264 -45q-168 -57 -215 -228q-12 -41 -12 -67q0 -49 35 -100q61 -70 155 -91q51 -25 105 -39q4 -2 33 -8q41 -12 65 -16l-158 -397q-96 29 -135 94q-51 72 -63 143 q-4 18 -6 58q0 72 -84 71q-66 0 -84 -67q-14 -47 -17 -70q-14 -37 -24 -88q-16 -57 -23 -82q-8 -20 -8 -49zM561 961l2 4v4q10 33 53 41q59 18 132 20q41 0 61 -4l-61 -158q-12 4 -46 11q-20 4 -26 6q-47 14 -88 43q-27 14 -27 33zM588 182l155 391q72 -14 113 -28 q68 -41 88 -74q16 -20 17 -53q0 -20 -9 -43q-25 -90 -121 -146q-92 -102 -174 -102q37 0 48.5 26.5t11.5 43.5q-6 -4 -24.5 -11.5t-47.5 -7.5q-18 0 -39 2q-12 2 -18 2z" />
<glyph unicode="%" horiz-adv-x="1636" d="M41 2h127l1341 1100q20 0 21 2q4 0 6 16v2l59 56h-53v-23q0 8 -20 14q-14 4 -23 9h-29l-12 -15q-178 -49 -309 -49q-166 0 -352 78q0 -4 2 -6t12 -6q-57 14 -100 14q-137 0 -271 -88q-127 -90 -157 -207q-8 -27 -9 -76q0 -86 56 -147q80 -88 233 -88q137 0 268 84 q131 92 160 213q12 35 13 69q0 66 2 93q66 -8 137 -9q76 0 176 13zM506 797q0 39 12 84q29 94 68 157q42 62 112 62q61 0 70 -47v-17q2 -12 2 -22q0 -61 -16 -119q-23 -98 -78 -156q-51 -55 -103 -55q-39 2 -57 51q-10 35 -10 62zM616 229q0 -80 62 -145q78 -90 227 -90 q150 0 271 88q125 84 161 207q8 25 9 67q0 92 -60 152q-80 90 -227 90q-145 0 -271 -88q-123 -80 -161 -207q-10 -25 -11 -74zM854 203q0 53 8 86q23 86 72 157q43 58 113 58q59 0 65 -43q0 -8 2 -21q2 -16 2 -24q0 -45 -16 -115q-23 -94 -80 -158q-45 -53 -100 -53 q-43 4 -62 51q-4 20 -4 62z" />
<glyph unicode="&#x26;" horiz-adv-x="1548" d="M41 479q0 -8 2 -22q2 -16 2 -25q25 -244 270 -354q141 -68 303 -68q106 0 242 33q2 0 8 2h4q8 0 11 -2q14 -39 71 -39q137 10 217 10q96 0 230 -10q29 0 43 7t14 30q0 4 -2 10t-2 8q-45 80 -84 80q-20 0 -72 70h-2q0 4 15 10h2q39 23 88 60l10 8q55 37 55 65q0 57 11 111 q0 2 16 67q12 47 12 50q0 2 2 8v8q0 41 -41 41q-4 0 -10 -2q-10 -2 -14 -2h-4q-59 -12 -70 -68l-2 -16q-55 -98 -149 -180l-3 -4q-4 -12 -6 -13l2 -6q-8 12 -12 21q-16 37 -61 122q-25 49 -39 78q-68 131 -133 285q-8 18 -29 66q-20 43 -27 55q-29 70 -39 100l-4 2q0 4 -2 8 v7q0 6 17 6q39 6 110 6q84 0 142 -12q113 -20 192 -82q29 -29 70 -29l16 4q45 12 45 47q0 25 -20 45q-49 57 -70 107q-14 31 -29 43q-18 18 -69 20q-53 12 -156 12q-150 0 -276 -34q-6 -2 -17 -2q-12 0 -22 18q-6 12 -15 29q-6 10 -8 16q-4 12 -10 31l-4 12q-2 10 -6 31 q-4 18 -9 39q0 8 -2 18v12q0 14 2 19q16 23 56 37q6 4 18 4q20 0 43 -17q37 -25 47 -49l2 -2v-4q0 -2 -2 -10l-2 -4q-27 -39 -26 -68q0 -2 2 -10t2 -10q0 -29 8 -37q18 -25 49 -25q14 0 35 6q47 20 65 58q14 43 62 74q51 31 98 81q33 33 33 76q0 4 -2 15q-2 6 -2 10 q-2 6 -2 14q-27 70 -92 107q-62 32 -121 32q-18 4 -55 5q-53 0 -105 -15q-258 -61 -334 -209q-45 -90 -45 -188q0 -84 27 -172q6 -8 6 -19q0 -20 -27 -34q-199 -102 -329 -289q-113 -166 -113 -324zM436 598q0 63 15 156q33 115 110 186q18 23 29 27q23 0 22 2 q-14 -1 -24 -11q16 -43 30 -65q2 -6 11 -27q10 -25 18 -43q109 -264 154 -397q53 -141 73 -209l3 -6v-8q0 -10 -29 -13h-21q-18 -2 -22 -2q-133 0 -232 78q-121 92 -135 254q-2 25 -2 78z" />
<glyph unicode="'" horiz-adv-x="270" d="M41 1505q0 -61 53 -61q57 0 90 110l45 158h-137l-41 -145q-2 -10 -4 -25q-6 -27 -6 -37z" />
<glyph unicode="(" horiz-adv-x="815" d="M41 256q10 -316 168 -379q-39 96 -39 273q0 78 6 172q25 244 107 555q90 324 196 550q143 297 295 480q-178 -78 -389 -412q-145 -250 -250 -606q-47 -178 -70.5 -333t-23.5 -300z" />
<glyph unicode=")" horiz-adv-x="821" d="M41 -121q178 66 393 385q160 281 252 633q49 170 71.5 323.5t22.5 307.5q-8 313 -168 381q37 -117 37 -277q0 -88 -8 -172q-20 -248 -102 -551q-96 -340 -199 -553q-147 -307 -299 -477z" />
<glyph unicode="*" horiz-adv-x="522" d="M41 1348l18 -17q16 0 123 51q-6 -43 -6 -59q0 -45 33 -45q25 0 76 108q72 -55 98 -55l14 6l15 15q0 25 -21 65q-25 41 -53 72q33 23 82 61l14 11q47 59 47 75l-20 19q-23 0 -119 -51q0 4 2 24q2 23 2 31q0 49 -35 49q-16 0 -67 -109q-2 -2 -4 -6q-80 61 -99 62l-6 -2 q-14 0 -18 -8.5t-4 -26.5t18 -49q14 -27 51 -72l-4 -4q-66 -47 -90 -68q-47 -53 -47 -77z" />
<glyph unicode="+" d="M41 508h473l-108 -395h120l107 395h463l34 106h-468l106 396h-117l-110 -396h-467z" />
<glyph unicode="," horiz-adv-x="446" d="M41 125q0 -43 29 -78q37 -49 116 -49q2 -4 4 -10q-2 2 -2 4q0 -20 -38 -66l-11 -20q-29 -51 -28 -58l16 -18q51 0 131 61q47 41 90 115q47 78 55 150q0 8 3 18v14q0 133 -146 134q-72 0 -137 -48q-61 -47 -76 -106q-6 -14 -6 -43z" />
<glyph unicode="-" d="M41 508h1055l34 106h-1056z" />
<glyph unicode="." horiz-adv-x="454" d="M41 129q0 -41 29 -80q39 -47 118 -47q74 0 136 43q68 45 82 109q8 16 8 39q0 45 -29 79q-45 52 -123 52q-72 0 -135 -48q-57 -39 -82 -106q-4 -12 -4 -41z" />
<glyph unicode="/" horiz-adv-x="1366" d="M41 45h137l1147 1604h-139z" />
<glyph unicode="0" horiz-adv-x="1728" d="M41 631q0 -201 119 -375q180 -254 471 -254q289 0 596 227t420 625q41 135 41 262q0 213 -127 369q-202 235 -474 235q-270 0 -593 -252q-324 -252 -418 -602q-35 -127 -35 -235zM410 535q0 145 55 313q96 295 242 498q140 196 335 198q195 0 240 -178q20 -61 21 -147 q0 -152 -68 -355q-111 -342 -262 -536q-150 -150 -320 -160q-164 0 -219 186q-25 84 -24 181z" />
<glyph unicode="1" horiz-adv-x="1040" d="M41 29q0 -23 15.5 -31t45.5 -8q37 4 43 4q70 8 99 10q33 0 80 2h53q80 0 127 -2q39 0 104 -8q4 0 17 -2q59 0 75 47q0 2 2 12v10q0 53 -51 54l-10 -4h-4q-6 0 -10 18q-8 16 -9 62q0 16 3 77q2 12 2 27q20 164 114 483q2 8 19 68q18 66 28 102q12 41 45 160l21 78 q39 129 68 229q14 43 28 94q10 41 17 56q29 41 34 65q0 2 2 10v9q0 55 -53 55q-55 0 -78 -10q-14 -6 -47 -39q-6 -6 -61 -66q-43 -45 -66 -67q-49 -47 -133 -115q-53 -47 -176 -104q-98 -45 -178 -93q-25 -12 -43 -41q-16 -20 -17 -38q0 -27 39 -54q8 -14 52 -14h10 q12 2 18 2q27 4 43 14q2 2 15 6q8 4 8 5l24 12q33 18 50 24q10 4 16 7q51 20 76 32h8h6q6 -2 10 -2v-2q-6 -25 -28 -106l-15 -53q-12 -39 -33 -117q-10 -41 -12 -47q-92 -369 -145 -506q-55 -125 -92 -164q-33 -37 -58 -41q-45 0 -86 -72q-12 -14 -12 -28z" />
<glyph unicode="2" horiz-adv-x="1767" d="M41 59q0 -4 2 -10q2 -8 2 -12q16 -39 51 -39q246 16 459 18q147 0 268 -3t252 -9q74 0 113 51q4 6 16 25q27 39 39 59q4 6 21 31q20 33 32 45q35 47 72 84q41 35 88 90q20 27 21 53v9l-2 6q-7 49 -56 49q-90 0 -145 -68q-125 -129 -324 -149q-190 -16 -475 -21 q-8 0 -10 -2l6 -6q6 2 14 4q133 117 318 199q129 57 379 182q174 88 329 207q145 115 193 287q23 74 22 141q0 72 -16 129h-2q-31 129 -174 215q-139 96 -369 96q-287 0 -530 -131q-244 -129 -303 -340q-14 -57 -15 -112q0 -168 156 -271q18 -14 29 -16q4 -2 16 -10 q53 -23 135 -23q244 0 346 127l2 2q2 0 3 2h-3l9 10q12 20 12 29q0 4 2 12v9q0 63 -74 63q-31 0 -57 -22q-88 -49 -186 -50q-35 0 -66 19q-37 27 -51 57q-4 29 -4 51q0 33 10 80q23 98 154 193q125 86 260 86q80 0 118 -6q41 -10 89 -49q61 -41 71 -93q20 -47 21 -92 q0 -41 -21 -106q-27 -70 -90 -148q-47 -61 -127 -135q-74 -55 -131 -90q-35 -27 -119 -72l-14 -8q-55 -25 -90 -43v-2q-238 -119 -379 -242q-150 -131 -283 -301v-2q-14 -23 -14 -37z" />
<glyph unicode="3" horiz-adv-x="1853" d="M41 387q0 -131 115 -244q145 -145 434 -145q141 0 299 53q137 43 307 142q156 96 260 200q113 113 154 238q37 104 37 213q0 113 -37 192q-74 176 -295 232q-10 -2 -10 -13l-2 2q6 10 18 21q16 12 47 35q96 74 156 114q33 23 86 58q94 63 135 90q53 43 63 78q0 4 2 10 t2 8q0 45 -49 45q-242 -12 -483 -12q-135 0 -244.5 3t-236.5 11q-27 0 -62 -22l-8 -8q-23 -20 -27 -31q-102 -119 -229 -215q-29 -18 -49 -66q-8 -14 -8 -30q0 -43 47 -43q94 0 172 77q72 59 272 78q78 8 211 8q82 0 146 -6q8 -2 12 -2q10 0 14 -2l-10 10q-8 -2 -25 -4 q-135 -104 -229 -168q-133 -92 -242 -155q-53 -33 -63 -84q0 -2 -2 -11q-2 -6 -2 -8q0 -39 47 -39t94 15q37 16 78 16q180 0 266 -121q43 -61 43 -137q0 -61 -37 -152q-49 -164 -213 -296q-160 -133 -356 -134q-141 0 -217 82q-47 59 -47 127q0 18 4 60q16 94 74 141 q25 31 92 55q90 31 96 72q4 4 4 20l2 11q0 47 -22 47q-14 8 -37 11t-66 3q-72 -4 -121 -24q-285 -92 -352 -326q-8 -27 -8 -80z" />
<glyph unicode="4" horiz-adv-x="1701" d="M41 387q0 -55 76 -63h811q27 0 43 -2q-12 0 -13 6q0 -12 -4 -21q-23 -84 -47 -121q-16 -23 -35 -28l-4 -2q-31 -12 -49 -19q-49 -18 -102 -88q0 14 -4 14q0 -31 18 -59h2q23 -14 39 -14l39 4q57 8 98 10q33 0 80 2h51q55 0 119 -6q33 -2 86 -10l31 -4q33 0 50 11t26 34 q0 8 2 18v12q0 35 -19 45q-2 2 -14 13l-12 8q-14 14 -21 43q-4 8 -4 31q0 20 4 61q4 25 4 29q0 6 15 16q12 16 36 17h72q88 0 107 71l16 68q0 2 2 8q2 8 2 10q0 61 -80 62h-86q-33 0 -33 -4q0 4 3 12q4 25 6 35q4 14 8 32q12 57 20 82q2 4 11 35q16 63 28 99q63 219 115 405 q8 29 27 84q63 215 100 328q-10 0 -12 -2t-2 -17v8q2 6 2 13q0 63 -66 63q-88 -2 -158 -78q-285 -285 -626 -575q-57 -47 -170 -141q-326 -275 -500 -418q-55 -33 -82 -88q-6 -10 -6 -29zM430 530q6 0 6 -14q4 6 13 12q162 152 360 320q191 160 365 328q4 4 8 6q25 16 39 28 q0 2 -2 2q-16 0 -17 11q0 -6 -8 -31q-8 -31 -29 -98q-12 -39 -22 -76q-10 -33 -31 -107q-10 -45 -18 -71q-6 -35 -25 -113l-8 -41l-10 -39q-10 -39 -19 -69q-10 -33 -31 -33q-20 -2 -40 -2l-515 -11h-8z" />
<glyph unicode="5" horiz-adv-x="1755" d="M41 285q0 -145 135 -222q174 -96 451 -96q301 0 581 193q289 195 340 452q31 102 31 185q0 178 -117 295q-172 180 -475 182q-162 -6 -303 -49h-22q6 0 6 -27q4 8 4 14q6 14 14 52q2 10 6 24q4 16 6 23q2 6 4 14q6 14 7 21q6 23 14 40v39q4 -8 25 -12q88 6 256 6 q156 0 333 -10l6 -2q8 -2 17 -2h2q33 0 55 2q41 2 88 53q82 90 170 156q39 35 39 55q0 4 -2 10q-4 6 -4 11q-16 35 -80 34q-37 -10 -61 -26q-12 -8 -41 -17q-125 -12 -262 -12q-25 0 -76 2t-76 2q-115 6 -340 23l-119 8v-4h21q-8 4 -21 4q-33 0 -49 -12q-20 -12 -29 -43 q-18 -80 -30 -160q-14 -90 -33 -158q-23 -78 -55 -176q-14 -33 -37 -90q-16 -43 -21 -51q-4 -16 -14 -47q-8 -27 -10 -37v-10q-2 -10 -2 -13q0 -61 80 -61q20 0 75 29q53 31 146 75q74 31 157 31q35 0 78 -6q156 -18 230 -123q51 -63 51 -162q0 -39 -19 -121 q-49 -186 -188 -290q-143 -111 -311 -131h-60q-129 0 -206 73q-45 49 -46 117q0 31 9 55q43 172 235 211h2q61 6 74 70q0 2 2 10q2 4 2 6q0 57 -70 58q-4 0 -24 2h-27q-162 0 -293 -74q-156 -84 -213 -279q-16 -55 -16 -114z" />
<glyph unicode="6" horiz-adv-x="1593" d="M41 500q0 -203 123 -332q197 -197 573 -197v2q-12 0 -24 -2h10q227 2 477 181q256 170 324 419q29 78 28 177q0 170 -122 276q-166 154 -474 154q-49 0 -69 -23q-211 -182 -412 -303q-8 -6 -20 -6q12 0 12 -17q55 176 166 289q109 123 248 217q113 82 256 148 q119 53 202 84q61 0 97 35q18 23 18 36v4q2 4 2 7q0 61 -96 61q-174 0 -393 -98q-201 -88 -396 -236q-188 -139 -325 -307q-131 -164 -166 -317q-39 -145 -39 -252zM424 467q0 20 6 41q33 135 176 250q143 119 303 119q150 0 230 -105q53 -70 53 -158q0 -35 -14 -92 q-39 -145 -183 -258q-139 -108 -299 -108q-147 0 -217 137q-55 104 -55 174z" />
<glyph unicode="7" horiz-adv-x="1634" d="M41 49l2 -6v-6q0 -39 55 -39q47 10 131 10q78 0 129 -10q4 0 13 -2h8q66 0 92 63q213 426 502 813q297 397 600 752q20 31 20 47q0 45 -63 45q-31 0 -41 -2q-76 -4 -227 -4q-39 0 -115 2q-74 2 -111 2q-299 12 -446 19h-4h-4q-43 0 -93 -25q-57 -25 -79 -63 q-39 -68 -105 -138q-45 -57 -133 -141q-27 -31 -27 -57q0 -4 2 -9q2 -4 3 -8q10 -43 63 -43q98 0 166 82q92 96 342 111q76 6 207 6q115 0 227 -10q12 0 16 2q0 -4 -6 -6q-279 -322 -587 -668q-319 -354 -527 -680q-10 -10 -10 -37z" />
<glyph unicode="8" horiz-adv-x="1599" d="M41 395q0 -158 123 -260q170 -137 463 -137q283 0 547 156q268 160 325 372q18 55 19 127q0 92 -43 181q-72 143 -230 210l-4 3q-18 4 -18 6q0 -6 -4 -15q18 12 57 33q55 31 149 105q14 12 21 16q78 70 102 154q10 25 11 71q0 109 -105 201q-129 111 -367 111 q-231 0 -428 -113q-199 -117 -241 -275q-18 -76 -19 -131q0 -57 15 -84q29 -76 67 -108q53 -41 76 -47q-6 4 -6 12q0 4 -4 6q-143 -76 -299 -198q-147 -121 -191 -269q-16 -59 -16 -127zM375 414q0 33 6 63q27 143 145 281q113 137 222 137q18 0 92 -27q70 -25 157 -84 q76 -55 125 -131q27 -47 27 -90q0 -35 -14 -69q-82 -201 -201 -265q-125 -67 -275 -77q-150 0 -221 94q-63 76 -63 168zM729 1346q0 4 2 14q2 8 2 12q20 82 121 146q92 59 205 59q78 -2 158 -61q53 -39 53 -97q0 -23 -4 -35q-25 -88 -86 -161q-61 -68 -133 -76 q-94 0 -216 76q-102 57 -102 123z" />
<glyph unicode="9" horiz-adv-x="1597" d="M41 55q0 -59 96 -59q180 0 406 94q223 94 428 236q211 166 354 342q156 156 184 284q47 150 47 285q0 180 -94 295q-156 197 -510 199q-213 0 -503 -175q-287 -174 -338 -452q-25 -94 -25 -158q0 -176 147 -291q201 -152 447 -151q49 0 74 18q51 82 100 127 q55 41 176 109q8 8 21 8q-10 0 -11 16q-53 -131 -166 -233q-135 -123 -256 -193q-98 -63 -258 -137q-139 -59 -198 -82h-2q-82 -16 -97 -37q-12 -14 -18 -30q0 -2 -2 -7q-2 -4 -2 -8zM449 1116q0 2 2 23v24q6 170 149 277q119 90 264 90q39 0 72 -6q182 -25 209 -158 q25 -106 24 -180q0 -8 -2 -25q-2 -12 -2 -20q-4 -31 -8 -84q-10 -41 -29 -62q-31 -45 -157 -100q-121 -53 -236 -57q-287 0 -286 278z" />
<glyph unicode=":" horiz-adv-x="690" d="M41 129q0 -41 29 -80q39 -47 118 -47q74 0 136 43q68 45 82 109q8 16 8 39q0 45 -29 79q-45 52 -123 52q-72 0 -135 -48q-57 -39 -82 -106q-4 -12 -4 -41zM274 985q0 -43 31 -78q43 -47 119 -47q66 0 135 43q66 45 84 109q6 12 6 39q0 41 -31 82q-44 49 -118 49t-138 -45 q-61 -45 -81 -107q-6 -16 -7 -45z" />
<glyph unicode=";" horiz-adv-x="688" d="M41 125q0 -43 29 -78q37 -49 116 -49q2 -4 4 -10q-2 2 -2 4q0 -20 -38 -66l-11 -20q-29 -51 -28 -58l16 -18q51 0 131 61q47 41 90 115q47 78 55 150q0 8 3 18v14q0 133 -146 134q-72 0 -137 -48q-61 -47 -76 -106q-6 -14 -6 -43zM276 981q0 -47 31 -78q41 -47 115 -47 q70 0 135 43q66 45 84 109q6 14 6 43q0 45 -33 79q-42 48 -118 48q-70 0 -138 -45q-57 -43 -77 -109q-4 -14 -5 -43z" />
<glyph unicode="=" horiz-adv-x="1224" d="M41 408h1057l26 106h-1056zM98 612h1053l33 107h-1059z" />
<glyph unicode="?" horiz-adv-x="1374" d="M41 129q0 -43 31 -80q41 -47 118 -47q72 0 140 43q59 43 82 109q6 12 6 39q0 49 -35 79q-39 52 -117 52q-68 0 -139 -45q-61 -39 -82 -109q-4 -12 -4 -41zM72 1335q0 -55 37 -98q53 -61 149 -61q88 0 174 57q82 53 105 137q10 20 10 49q0 31 -10 58q70 31 143 43 q23 6 61 6q51 0 99 -21q66 -31 86 -110q8 -14 8 -49q0 -78 -55 -205q-72 -190 -170 -254q-92 -57 -201 -101q-111 -41 -197 -116q-102 -90 -151 -369q106 53 133 57q16 0 98 -47q63 246 170 301q96 49 230 76q123 20 262 96q133 70 241 353q39 98 39 194q0 123 -71 219 q-121 170 -431 170q-31 8 -98 9q-145 0 -336 -66q-268 -92 -319 -277q-6 -18 -6 -51z" />
<glyph unicode="@" horiz-adv-x="1689" d="M41 604q0 -197 90 -346q150 -256 471 -256q162 0 309 68q176 76 342 225q-215 0 -362 -59q-102 -51 -254 -52q-236 0 -322 191q-47 119 -47 235q0 106 35 242q78 281 279 481q193 201 440 201q236 0 332 -170q55 -123 55 -266q0 -104 -35 -234q-35 -129 -117 -260 q-2 -2 -6 -8q-6 -8 -6 -16q0 6 2 8q-35 -45 -51 -56h18q-35 -53 -61 -53q-10 0 -16 23q-2 8 -2 26q0 14 6 54q2 6 2 10q2 18 12 47q4 29 14 53q18 74 29 105q18 72 25 96q12 31 22 76q4 18 6 22q4 4 9 15q6 10 10 18q0 6 8 20q0 14 -5 26.5t-9 16.5q-82 55 -185 80 q-94 25 -190 25q-186 0 -400 -119l-2 -6q-12 -20 -12 -35q0 -18 19 -41q33 -27 55 -26q18 0 33 10q113 80 276 80q47 -2 105 -13q47 -6 53 -20q4 -6 4 -21q0 -2 -2 -8t-2 -10q-6 -23 -49 -22h-25q-14 4 -41 4q-209 0 -377 -60q-172 -59 -229 -274q-10 -25 -10 -74 q0 -119 131 -166q74 -25 159 -24q96 0 201 30q45 14 84 15q25 0 45 -11q39 -20 84 -36q43 -41 131 -58q90 0 185 68q94 78 143 155q74 104 108 181q37 74 58 139q35 113 35 246q0 207 -107 364q-170 256 -485 256q-309 0 -596 -252q-287 -248 -383 -600q-37 -137 -37 -260z M563 606q0 8 4 31v6q23 78 113 145q95 64 285 66l6 -2q12 -4 16 -6q-8 0 -8 6q0 -2 -2 -6q-2 -6 -2 -8q-4 -6 -12 -29q-10 -27 -19 -47q-4 -20 -16 -57q-2 -4 -4 -15q-4 -12 -13 -37q-2 -12 -6 -22q-16 -49 -41 -64q-6 -4 -16 -8q-4 -2 -6 -2l-8 -4q-8 -4 -13 -6 q-86 -37 -147 -37q-39 0 -68 16q-43 31 -43 80z" />
<glyph unicode="A" horiz-adv-x="1968" d="M41 41q0 -37 59 -37q84 4 121 6q14 2 31 2q14 0 29 2q16 2 55 2q119 4 162 31q53 23 71 141q0 39 90 164q9 17 21 17h809q12 0 14 -21q8 -49 8 -115q0 -8 -2 -20v-14q-18 -61 -18 -99q0 -61 35 -73q23 -14 100 -15q12 0 39 2q37 2 53 2q12 2 45 2q20 0 45 -4q14 -4 35 -4 q84 0 84 86q0 6 -2 19q-2 14 -2 22q-25 98 -61 232q-37 121 -56 247q-4 29 -18 105l-4 20q0 2 -6 37q-12 61 -21 94l-135 773q-10 35 -19.5 48t-31.5 13h-4q-33 -4 -54 -4q-25 0 -30 -2h-4h-11h-10h-8h-12h-11q-143 0 -190 -19q-29 -14 -42 -28.5t-13 -40.5q4 -39 30 -76 q12 -25 13 -53v-10q-2 -10 -2 -13q-14 -70 -127 -190q-92 -102 -146 -176q-16 -20 -41 -54q-27 -37 -45 -59q-57 -76 -96 -131q-59 -72 -125 -160q-29 -33 -53 -63q-37 -45 -62 -74q-66 -84 -153 -186l-8 -9q-16 -16 -33 -34q-117 -125 -152 -152l-2 -2q-39 -33 -49 -33 q-33 0 -76 -57q-14 -18 -14 -39zM786 555q4 0 5 -20v4q4 31 12 55q37 45 82 90q6 8 20 27q23 29 35 43q2 8 12 32q6 16 13 31q4 2 14 4t14 2q10 12 27 35q12 14 18 23q8 8 21 24q18 27 26 35q8 12 25 35q10 14 16 22q10 12 29 37q10 14 16 23q25 35 46 55q10 18 38 55l21 41 l18 41l37 13q2 14 8 14q-4 0 -4 -8q27 -68 47 -183q2 -16 7 -47q6 -49 12 -77q2 -18 8 -60q6 -43 8 -70q4 -53 13 -77q10 -33 14 -62q8 -35 12 -63q2 -4 6 -19q2 -4 2 -6q0 -10 4 -26q0 -10 -4 -21q0 -2 -8 -2h-670z" />
<glyph unicode="B" horiz-adv-x="2041" d="M41 125q0 -35 20 -70q29 -49 136 -49h57h49q18 -2 57 -2h29h27h2h4h2h6h6h10h31h49h168q16 0 51 -2q74 -2 103 -4q98 0 160.5 3t109.5 9q459 70 635 238q184 176 229 327q18 55 19 127q0 129 -86 222q-121 121 -352 178q6 0 6 -15l2 3q4 4 4 6q2 2 10 2q346 94 393 266 q8 14 9 51q0 35 -11 66q-16 76 -133 139q-111 55 -362 90q-129 18 -303 19q-156 0 -398 -17h-18q-16 -2 -21 -2q-2 0 -16 2h-18q-27 2 -68 2q-74 0 -207 10q-61 0 -70 -45q-6 -14 -6 -37q0 -51 45 -51q12 -2 23 -45q8 -16 8 -63q0 -33 -10 -111l-2 -24q-25 -168 -131 -506 q-47 -166 -96 -295q-25 -63 -50 -139l-20 -56l-8 -16q-14 -29 -29 -57q-31 -61 -39 -109q-6 -14 -6 -45zM500 258q0 66 12 160q16 127 102 418q2 20 19 79q6 18 10 37l6 15q16 47 21 59q6 6 32 6q57 -4 86 -4q18 -2 37 -2q31 -2 37 -2q27 0 51 2h25q25 0 51 -2h27 q125 -10 205 -27q84 -18 151 -41q113 -41 166 -100q45 -51 45 -111q-6 -33 -6 -67q-4 -39 -14 -66q-25 -66 -45 -96q-10 -20 -33 -57q-14 -23 -21 -33q-49 -76 -145 -133q-109 -61 -279 -92q-190 -37 -479 -45q-29 0 -45 8q-8 8 -14 47v20q-2 16 -2 27zM694 1167q8 16 13 33 q0 4 2 10v7q49 147 82 223l2 6q37 74 53 102q16 27 43 27q512 -6 629 -53q75 -31 75 -95q0 -8 -2 -22q-2 -12 -4 -21q-37 -123 -233 -165q-100 -23 -251 -35.5t-368 -12.5q-39 0 -39 -8z" />
<glyph unicode="C" horiz-adv-x="2154" d="M41 664q0 -233 170 -412q229 -248 663 -248q96 0 193.5 9.5t218.5 27.5t225 47q74 20 183 66q84 37 90 67q2 8 12 35q6 12 10 25q23 47 54 94q37 51 36 80q0 39 -34 39q-41 0 -107 -33l-29 -15q-86 -41 -135 -67q-86 -51 -157 -88q-223 -109 -390 -109q-258 0 -454 191 q-137 135 -137 311q0 68 22 154q70 274 338 487q248 199 518 205q119 0 207 -19q98 -23 195 -55q84 -35 165 -90q80 -61 109 -76q23 -14 43 -14q39 0 45 31q18 31 19 145q0 39 -11 70q-14 20 -78 55q-203 92 -350 106q-170 20 -352 21q-178 0 -385 -68q-190 -61 -377 -178 q-186 -141 -311 -301q-135 -141 -182 -299q-27 -111 -27 -194z" />
<glyph unicode="D" horiz-adv-x="2134" d="M41 127q0 -47 25 -74q29 -49 149 -49h23q10 -2 32 -2h64h4q41 2 88 2q23 2 59 4q29 4 39 4q553 41 998 295q461 268 542 594q29 102 29 203q0 115 -43 211q-78 162 -244 244q-166 84 -393 114q-207 29 -475 35h-10q-80 0 -109 -6h-92h-57h-64h-57q-12 2 -39 4 q-12 2 -18 2q-33 0 -48.5 -11t-23.5 -40v-17q-2 -12 -2 -14q0 -49 35 -49q4 -4 4 -33q0 -78 -21 -201q-25 -139 -137 -505q-111 -365 -166 -492q-4 -10 -22 -39q-18 -35 -21 -37q-35 -57 -47 -110v-17q-2 -12 -2 -16zM502 207q0 61 26 211q33 156 107 413q39 139 70 232 q31 102 59 178q37 102 88 223q2 6 10 21q8 18 15 31q12 22 53 22h4q346 -12 588 -133q168 -82 168 -297q0 -102 -27 -197q-68 -262 -410 -473q-334 -215 -743 -243q-6 0 -6 -11q-2 10 -2 23z" />
<glyph unicode="E" horiz-adv-x="2105" d="M41 80q0 -68 137 -68q4 0 25 2h28h68q35 -2 154 -2q131 0 196 -2q68 -2 211 -2q158 0 252 -2q98 -2 322 -2q45 0 75 25q20 16 47 39q10 8 11 8q25 20 51 45q8 8 22 18q27 23 41 33q59 49 60 76q0 39 -45 39h-17q-14 2 -22 2q-45 0 -117 -13q-94 -10 -235 -40 q-96 -23 -201 -35q-229 -23 -410 -23q-8 0 -53 2h-53q-70 4 -84 64v16q-2 12 -2 21q0 59 26 165q10 43 43 166l4 17q6 18 21 73q23 76 41 136q4 10 8 32q2 4 4 15q8 20 13 47l8 20t8 21q8 25 12 35q4 12 15 12h499q39 0 115 -4h16q45 -2 144 -6q129 -6 141 -80q6 -66 63 -66 h5q80 0 92 64q18 184 18 246q0 10 -2 22v6q0 37 -65 37q-57 0 -224 -29q-138 -28 -298 -28h-11h-444q-10 0 -11 -4q0 2 2 6v4q14 51 29 84q4 10 12 33q10 31 19 45q8 27 31 65q10 29 22 51q12 33 39 62q28 24 84 24h4q49 0 86 -2q35 -2 121 -2q80 -2 260 -8l23 -2 q135 -8 276 -37q51 -10 143 -28q61 -14 76 -17q14 -4 39 -4q55 0 55 51q0 18 -14 58q-4 6 -6 12q-16 31 -31 47q-14 18 -45 49q-16 20 -63 37q-43 12 -66 12h-18q-13 0 -25 -4q-293 0 -557 -8q-270 -8 -559 -8q-39 0 -109 4q-37 2 -110 10q-63 0 -72 -45q-6 -14 -6 -35 q0 -49 49 -49q12 0 23 -39q6 -14 6 -61q0 -63 -10 -131q-25 -160 -132 -504q-88 -309 -167 -492q-100 -227 -111 -276z" />
<glyph unicode="F" horiz-adv-x="1980" d="M41 76q0 -59 131 -60q6 0 33 2q33 2 49 2t35 -2h18l41 -4l21 -2q35 -2 61 -6q12 -2 29 -2q23 -2 28 -2q66 0 74 43q6 14 6 35q0 49 -37 49q-6 4 -12 18q-14 23 -14 99q4 86 45 264h4q8 39 22 106l11 52l4 24q8 33 10 51q6 16 6 19q14 45 19 67q4 8 10 27l6 21l2 10 q6 23 12 37q2 18 13 41q0 2 4 16q4 10 6 18q4 12 14 13l379 -4q82 0 131 -2q29 -2 64 -5q57 -4 80 -4q127 -6 137 -82q14 -63 65 -63h4q90 0 93 68q0 111 -2.5 156.5t-8.5 68.5q-20 80 -67 92q-2 0 -11 2h-14q-33 0 -67 -14q-51 -23 -103 -25q-29 -2 -108 -16q-16 -2 -33 -4 q-39 -4 -74 -6.5t-92 -2.5l-322 5q-10 0 -10 -7v9l8 28q14 41 23 62q16 41 31 84q0 2 6 14q14 37 22 49q6 12 13 27q8 20 12 26l4 7q18 35 39 57q16 16 88 27q18 4 44 4h97q137 -4 211 -11q131 -10 203 -20q98 -16 123 -31q117 -71 196 -71h2q84 0 84 75q0 6 -2 17 q-4 14 -4 22q-8 39 -37 70q-27 25 -49 49q-20 20 -61 35q-37 12 -68 12h-18q-12 0 -25 -4h-260q-84 -2 -241 -2h-240q-86 -2 -264 -2q-39 0 -105 4q-37 2 -114 10q-31 0 -50.5 -12t-19.5 -39q-4 -12 -4 -29q0 -51 49 -51q10 0 16 -35q10 -27 11 -67q0 -49 -13 -127 q-23 -154 -125 -502l-2 -8q-6 -16 -8 -27q-2 0 -4 -2q-6 -12 -6 -24q-4 -12 -4 -17q0 -2 -12 -37q-51 -166 -78 -231q-20 -59 -56 -152l-10 -24q-84 -201 -94 -256z" />
<glyph unicode="G" horiz-adv-x="2138" d="M41 672q0 -231 168 -412q236 -250 663 -250q164 0 431 58q12 2 20 4q63 14 84 22q4 0 10 2q-23 0 -22 8q0 -6 -6 -28l-9 -37q-31 -86 -170 -154q-137 -69 -314 -69h-5q-109 0 -158 18l-2 -2q-4 0 -4 -2v-4q43 33 59 104q0 4 2 13v8q0 51 -57 80q-55 30 -86 30 q-45 0 -72.5 -2t-44.5 -6q-49 -18 -63 -80q-6 -18 -6 -61q0 -117 125 -203q145 -104 401 -104q240 0 432 92q199 86 254 213h8q37 127 88 340q45 170 101 315q57 133 96 180q23 29 43 29q43 0 80 72q0 39 -31 53q-18 8 -39 8q-27 -2 -94 -6q-12 0 -27 -2h-116h-60h-53 q-43 0 -115 6q-78 0 -77 -41q-6 -12 -7 -35q0 -47 39 -47q8 -2 15 -24q8 -10 9 -31.5t1 -83.5q-10 -131 -19 -147q-6 -10 -28 -84l-6 -25h-6l-23 -96q-23 -25 -92 -45q-86 -27 -150 -39q-8 -2 -37 -6q-18 -2 -34 -4q-27 -2 -93 -7q-260 0 -466 181q-127 119 -127 297 q0 74 24 190q39 150 113 268q72 123 192 220q236 193 502 194q133 0 221 -9t152 -30q219 -72 319 -143q45 -29 70 -29q53 0 53 78q0 25 -6 61l-2 15q-6 27 -10 43q-16 39 -49 59q-109 53 -183 74q-104 25 -172 33q-158 20 -352 20q-362 0 -754 -225q-395 -229 -499 -621 q-29 -104 -29 -194z" />
<glyph unicode="H" horiz-adv-x="2185" d="M41 102q0 -41 47 -61.5t156 -20.5q35 0 75 -2h31q10 0 58 -6q47 -4 55 -6q63 0 72 45q8 18 8 43q0 45 -39 45q-8 0 -8 31q-4 10 -4 53q0 16 2 68q4 37 4 65q18 111 123 482q4 10 8 30q2 10 4 17q4 8 10 26l6 21q2 18 13 41q8 25 12 39q2 6 6 20q2 -2 22 -2q76 0 119 -2 q76 0 115 -2h119q43 -2 121 -2q72 0 106 2h107q68 0 104 2h109q12 0 12 14q0 -2 -2 -8q0 -6 -2 -8q-6 -23 -27 -96q-20 -70 -24 -86l-33 -103q-41 -127 -64 -190q-41 -98 -69 -195q-45 -137 -95 -213q-8 -16 -8 -41q0 -84 219 -84q92 0 217 -12q61 0 70 43q10 23 10 49 q0 41 -39 41q-8 0 -12 31q-2 10 -2 43q0 43 10 139q27 178 121 488q45 168 92 313q47 129 74 203q94 223 94 282q0 33 -43 48.5t-149 15.5q-27 0 -62 2q-27 2 -37 2q-29 2 -92 8l-26 2q-57 0 -74 -51v-14q-2 -10 -2 -13q0 -18 10 -33.5t25 -15.5q10 -4 18 -20q14 -29 14 -84 q-8 -57 -59 -250q-10 -29 -25 -29q-25 2 -53 2q-31 0 -55 2q-70 0 -104 2h-109h-107h-116q-43 -2 -121 -2q-41 -2 -119 -2q-39 -2 -121 -2v-4v4q2 4 2 6q43 170 92 267q53 106 54 157q0 37 -25 47q-31 20 -115 21h-24q-16 -2 -31 -2q-37 0 -76 2q-23 2 -32 2q-31 2 -99 10 h-10q-55 0 -70 -47q-4 -16 -4 -39q0 -45 37 -45q8 -4 10 -33v-14q2 -12 3 -20q0 -45 -21 -168q-25 -137 -135 -506l-4 -17q-63 -203 -92 -278q-16 -51 -45 -131q-16 -49 -23 -66q-16 -41 -47 -123q-18 -51 -31 -84q-10 -14 -10 -43z" />
<glyph unicode="I" horiz-adv-x="933" d="M41 74q0 -61 121 -62q12 0 31 2q29 2 40 2q2 0 23 2h25q10 0 28 -2q20 -2 33 -2q35 -6 111 -10h2q55 0 69 43q6 18 6 41q0 25 -9 33t-27 8q8 0 8 21v14q-2 8 -2 16q0 37 14 156q23 164 104 491q74 303 142 508q94 242 123 277q10 10 10 26q0 62 -209 62q-12 0 -63 2 q-20 2 -46 2q-45 4 -75 6q-27 4 -37 4q-59 0 -70 -49q-2 -10 -6 -25q-4 -18 -4 -24q0 -20 10 -28.5t25 -8.5q2 0 2 -23q6 -10 6 -43q0 -29 -8 -104q-2 -20 -4 -43q-16 -143 -119 -516q-80 -322 -145 -490q-14 -37 -66 -167q-37 -94 -41 -107z" />
<glyph unicode="J" horiz-adv-x="1527" d="M41 -319v-7q0 -25 20 -45q19 -22 64 -22h4q88 10 201 47q47 16 180 65l20 9q20 8 62 28q37 18 51 25q74 41 109 61q227 129 286 219q53 90 90 345q10 72 35 169q27 96 68 261l20 88q37 160 56 227q39 143 63 201q2 2 4 12q88 227 107 252l6 14q0 55 -184 68q-8 0 -54 4 q-45 2 -55 2h-10q-70 4 -103 8q-84 0 -84 -49q-6 -14 -6 -33q0 -49 41 -49q10 -4 17 -37q4 -12 4 -49q0 -61 -15 -147q-37 -188 -133 -506q-10 -31 -37 -115q-35 -111 -49 -154q-43 -127 -69 -192l-7 -21q-59 -170 -88 -235q-37 -53 -53 -66q-16 -12 -37 -45 q-102 -94 -205 -149q-104 -53 -208 -86h-2q-45 -14 -62 -27q-43 -33 -45 -61q0 -4 -2 -10z" />
<glyph unicode="K" horiz-adv-x="2199" d="M41 74q0 -61 131 -62q12 0 35 2q29 2 45 2q4 0 22 2h21q12 0 33 -2q20 -2 30 -2q72 -8 115 -10h16q12 2 21 2q43 6 49 37q6 14 6 35q0 45 -43 45q-8 0 -18 12q-4 10 -7 30.5t-3 61.5q12 119 61 293q12 53 20 58q2 2 15 10q31 20 65 45q10 6 33 22q41 27 62 41 q25 20 75 49q16 10 25 17l20 10q14 8 19 10q0 2 -2 2q8 0 14 -20q188 -315 227 -422q35 -82 35 -137v-15q-2 -10 -2 -12l-4 -28q-8 -55 -10 -72q0 -2 -2 -10q-2 -6 -2 -9q0 -37 35 -53q8 -2 43 -2q55 0 98 4h31q31 2 59 2q29 -2 72 -2q37 0 98 -4q84 0 117 2q47 33 47 66 q0 4 -2 10t-2 8q-39 70 -72 70q-12 0 -45 28q-53 57 -121 179q-29 47 -104 192q-82 164 -137 293q-8 16 -13 27l-2 4q-6 12 -8 20q-5 10 -25 51q-8 14 -12 41v6q0 14 53 46q403 285 549 372q72 41 152 105q74 55 174 90q20 4 25.5 12t5.5 23q0 20 -19 37q-24 26 -53 26h-2 q-27 -2 -43 -8h-8q-14 -2 -27 -2h-65h-56q41 0 45 2h-92q-18 0 -43 2h-18q-8 2 -31 4q-10 2 -14 2q-59 0 -95 -37q-31 -37 -30 -53q0 -45 61 -45q-2 0 -2 8q0 -23 -92 -92q-166 -141 -352 -272q-170 -121 -389 -271q-125 -82 -187 -123q-29 -27 -37 -26l8 -6q2 2 3 6 q4 25 8 33q84 344 151 534q102 244 111 272q0 57 -195 58q-37 0 -106 4q-39 2 -113 10q-55 0 -71 -51q0 -8 -3 -16v-13q0 -51 43 -51q6 0 7 -37q6 -12 6 -47q0 -51 -17 -149q-27 -156 -133 -506l-14 -45q-57 -184 -84 -252q-12 -35 -45 -135q-8 -20 -21 -60 q-92 -209 -104 -276z" />
<glyph unicode="L" horiz-adv-x="1669" d="M41 66q0 -51 102 -52q41 0 99 6q16 0 37 -2h12q25 -6 57 -6q55 -2 125 -2q100 -2 123 -2q84 -2 244 -2h239q86 -2 271 -2v2q61 4 116 70q14 14 23 24q4 2 18 17q14 12 17 14l2 2q10 14 20 23q27 27 29 30q53 70 53 95q0 49 -61 49q-74 0 -295 -80q-221 -76 -418 -78h-61 h-62h-63h-62q-55 0 -71 8q-8 10 -9 35q0 92 27 209q37 170 106 412q113 393 170 516q74 178 109 250q10 12 10 36q0 33 -28.5 48.5t-98.5 15.5q-27 -2 -80 -2q-20 -2 -59 -2q-63 0 -92 2q-31 0 -86 8q-33 0 -48.5 -11t-23.5 -40v-15q-2 -8 -2 -10q0 -55 35 -55q8 -4 10 -31 v-14q2 -10 2 -19q0 -45 -20 -167q-25 -152 -138 -504q-88 -317 -163 -492q-31 -78 -82 -192q-27 -63 -31 -76v-8q-2 -6 -2 -8z" />
<glyph unicode="M" horiz-adv-x="2537" d="M41 68q0 -63 123 -64h53h45q53 0 68 -2q4 0 20 -4q8 -2 31 -4q10 -2 14 -2q61 0 72 55q6 12 6 29q0 51 -41 51q-12 0 -16 31q-8 33 -8 69q0 27 6 97l2 22q6 66 39 193q8 33 39 143q16 59 41 152q2 16 16 61q6 18 14 53q8 33 13 47q8 35 28 92l6 15q6 18 9 26q14 43 18 62 q6 16 12 24q20 0 21 3q-8 0 -21 -31q8 -20 25 -62q12 -31 14 -39q10 -23 25 -63q16 -43 26 -68q18 -51 56 -145l20 -51q27 -61 37 -92l8 -23q33 -80 49 -117q20 -49 43 -118q55 -133 144 -134q70 8 153 99q78 80 160 202q80 121 162 211q147 168 217 252q66 86 213 254l2 6 q0 4 2 5v6q-12 -43 -37 -92q-20 -57 -41 -111q-47 -123 -86 -270q-111 -385 -157 -514q-78 -201 -91 -252q0 -59 140 -60h26q23 2 35 2q31 0 62 -2h34q39 -4 121 -8q35 0 50.5 9t19.5 34q6 16 6 39q0 45 -37 45q-6 0 -8 21q-2 12 -2 45q0 53 12 135q4 27 17 102q10 51 18 98 q45 182 80 301q98 375 172 521q74 170 131 227q25 35 25 51q0 25 -26 41.5t-77 16.5q-18 2 -43 2t-43 2q-49 0 -65 2q-2 0 -9 2h-10q-59 0 -141 -60q-92 -74 -162 -143q-74 -76 -152 -168q-6 -8 -32 -39q-51 -66 -72 -86q-23 -27 -45 -53q-117 -133 -176 -197 q-43 -47 -148 -159q-51 -55 -75 -82h-2q16 0 16 -15q-16 35 -39 84q-43 90 -61 137q-10 31 -27 74q-47 129 -64 182q-86 227 -200 467q0 57 -84 58h-17q-51 -4 -71 -4q-68 0 -92 2q-33 10 -103 18q-74 0 -74 -55q0 -74 56 -94q14 -8 14 -52q0 -31 -10 -88q-31 -154 -43 -202 q-8 -31 -8 -33q-20 -70 -39 -129q-16 -66 -54 -205l-6 -18q-98 -360 -157 -498l-21 -47q-70 -152 -86 -185q-8 -14 -8 -38z" />
<glyph unicode="N" horiz-adv-x="2103" d="M41 74q0 -16 12 -37l2 -6q16 -27 160 -27q49 0 78 -2q6 0 20 -2l9 -2q8 -2 32 -4q12 -2 17 -2q70 0 69 43q6 16 6 41q0 33 -13 45t-42 12q-18 0 -31 21q-8 18 -8 61q0 47 8 102q6 61 46 201q33 123 92 309q2 14 20 74q6 23 27 94l10 35q29 94 47 139q6 23 23 78 q8 25 10 35q4 6 10 10q23 0 23 2q-10 0 -25 -28q41 -96 131 -256q51 -96 100 -181q59 -106 111 -188q18 -33 33 -55q59 -102 76 -131q63 -111 106 -181q53 -82 86 -141q10 -18 39 -61q10 -15 16 -27l-10 -37h35h4h-8l8 -8q14 -27 64 -27q2 0 14 2t22 2q80 14 93 43 q2 14 8 48l6 30q4 14 12 56l10 39q16 57 33 110q8 31 25 80l10 37q12 39 35 123q20 72 31 108l4 19q18 61 22 84q16 43 25 73q39 139 100 322q43 135 76 207q88 209 102 270q0 68 -219 68q-39 0 -59 4q-16 6 -84 10q-57 0 -68 -45q-6 -14 -6 -35q0 -47 49 -47q18 0 29 -33 q6 -16 6 -67q0 -57 -8 -125q-18 -147 -129 -518q-18 -49 -27 -80q-12 -53 -18 -74q-6 -25 -23 -66q-4 -12 -8 -28q-8 -25 -10 -35l-2 -20q0 -18 -2 -19l-2 -4q-18 23 -33 53q-20 39 -43 80q-72 125 -109 193l-28 49q-33 59 -58 98q-12 23 -36 66q-33 53 -48 82 q-45 76 -82 145l-79 135q-55 98 -117 225q0 20 -27 43l-43 23v8q-8 -8 -98 -12h-150q-47 0 -61 2q-4 2 -23.5 6t-52.5 6q-69 0 -69 -53q0 -41 22 -62q18 -14 27 -26q43 -33 63 -49q4 -27 8 -82q0 -74 -49 -209q-16 -41 -45 -137l-10 -37q-18 -66 -53 -193q-4 -18 -11 -39 q-63 -236 -131 -424q-14 -45 -18 -53q-57 -176 -78 -237q-8 -14 -8 -39z" />
<glyph unicode="O" horiz-adv-x="2197" d="M41 668q0 -233 170 -412q229 -250 663 -250q426 0 795 246q369 252 463 598q25 84 25 162q0 90 -29 172q-53 160 -170 272q-117 115 -285 184q-166 68 -350 68q-182 0 -383 -68q-188 -63 -381 -180q-170 -113 -309 -268q-137 -162 -180 -330q-29 -104 -29 -194zM446 637 q0 98 27 203q72 283 318 489q241 205 501 205q254 0 394 -180q81 -99 81 -252q0 -119 -41 -248q-102 -319 -333 -510q-225 -180 -488 -180q-250 0 -383 196q-76 121 -76 277z" />
<glyph unicode="P" horiz-adv-x="1994" d="M41 53q0 -45 86 -45q47 0 102 8q18 4 54 4q33 0 45 -4q59 -8 118 -12q61 0 70 45q6 14 6 35q0 12 -4 21.5t-8 13.5q-2 2 -8 6q-6 6 -15 12q-8 10 -10 37q-6 12 -6 59v23q2 18 2 31q6 43 41 51q90 23 129 29q526 94 870 295q352 205 414 425q27 86 27 164q0 141 -84 226 q-121 127 -332 182q-199 51 -444 51q-84 0 -228 -4q-31 0 -112 -4q-47 -2 -82 -4q-37 0 -76 2q-23 2 -33 2q-38 2 -108 10q-63 0 -72 -49q-4 -14 -4 -35q0 -47 37 -47q8 -4 8 -33q0 -4 2 -16q2 -16 2 -25q0 -55 -18 -159q-12 -63 -50 -205q-10 -33 -32 -113 q-33 -119 -54 -188q-57 -199 -94 -299q-39 -123 -61 -197q-78 -262 -78 -293zM532 522q0 4 3 10v7q6 41 14 82q6 39 8 53l6 24q10 37 15 52q4 12 16 57l8 29q53 199 143 452q8 18 17 37q27 66 37 92q16 35 20 45q14 33 19 43q8 18 24 33q17 8 68 8q453 -20 555 -155 q61 -88 61 -191q0 -59 -16 -110q-45 -164 -344 -328q-295 -166 -617 -248q-12 -2 -28 -2v-4q-8 4 -9 14z" />
<glyph unicode="Q" horiz-adv-x="2197" d="M41 666q0 -100 31 -191q57 -178 215 -301q74 -53 106 -76l4 -2q106 -55 152 -73q-14 0 -14 16h-7l-6 -4l-8 -4l-4 -2q-14 -12 -21 -23q-6 -2 -18 -12l-12 -8q-31 -18 -45 -43q-53 -66 -54 -97q0 -23 15 -34q35 -33 176 -35q113 0 283 -21l51 -8q152 -25 225 -39 q113 -20 162 -20h18q10 2 15 2l12 6q43 16 80 33q25 10 67 32q20 10 25 13l20 8q43 20 58 24q143 51 147 78q0 39 -74 58q-66 10 -157 10q-55 0 -123 -2h-49q-4 0 -37 -2h-45q-230 0 -494 47q-8 -4 -8 -8v22h49q57 -4 96 -4q420 0 795 248q371 248 465 596q25 84 25 162 q0 88 -29 174q-53 152 -170 272q-125 117 -285 182q-168 68 -352 68q-180 0 -381 -68q-186 -59 -381 -178q-174 -115 -311 -268q-133 -162 -180 -332q-27 -111 -27 -196zM444 639q0 92 29 203q72 281 320 489q237 203 499 203q248 0 394 -182q81 -105 81 -252 q0 -110 -43 -244q-100 -322 -331 -512q-229 -180 -488 -180q-250 0 -383 196q-78 125 -78 279z" />
<glyph unicode="R" horiz-adv-x="2031" d="M41 74q0 -61 123 -62q12 0 33 2q27 2 39 2t24 2h21q10 0 34 -2q16 -2 27 -2q72 -8 117 -10q53 0 67 41q8 16 9 39q0 12 -5.5 21.5t-9.5 13.5q-8 8 -20 18q-12 16 -17 37q-2 10 -2 47q0 10 2 29q2 27 2 39q4 41 41 49q2 0 37 8q63 14 92 21q4 2 29 4q31 6 43 8q6 2 18 4 q35 6 52 10q33 6 56.5 9.5t49.5 3.5q27 -4 66 -74q14 -23 32 -58q20 -35 27 -45q20 -43 39 -65q14 -27 27 -51q16 -35 26 -50q20 -43 242 -47q29 -2 63 -2q35 0 64 -2h20q14 -2 25 -2q41 0 78 6q53 0 53 37q0 4 -2 10q-2 10 -2 15q-37 57 -70 61q-16 2 -51 25q-37 25 -94 92 q-33 39 -150 221l-26 43q2 2 2 8q0 8 22 19q66 29 127 59q186 86 361 223q147 123 182 258q27 96 27 164q0 139 -84 226q-127 127 -342 182q-199 51 -457 51q-88 0 -231 -4q-49 -2 -119 -4q-57 -4 -76 -4q-35 0 -76 2q-23 2 -33 2q-33 2 -100 10h-10q-57 0 -72 -51 q0 -8 -2 -16v-13q0 -51 37 -51q8 -4 8 -33v-14q2 -14 2 -25q0 -84 -18 -161q-6 -55 -49 -205q-16 -66 -56 -205l-28 -98q-43 -154 -90 -297q-20 -70 -56 -172l-8 -25q-90 -236 -90 -272zM545 508v14q0 2 2 8v9q10 92 22 133l6 24q18 80 37 140q80 283 144 450q4 12 26 70 q20 59 29 82q25 47 37 65q10 20 24 35q21 8 70 8q250 -8 397 -57q129 -39 185 -100q47 -53 47 -132q-8 -94 -31 -167q-43 -164 -342 -328q-311 -170 -618 -248q-12 -2 -29 -2q-6 0 -6 -4z" />
<glyph unicode="S" horiz-adv-x="1832" d="M41 338q0 -84 57 -125q90 -68 279 -137q190 -72 463 -72q283 0 573 160q297 166 361 436q18 72 18 131q0 106 -49 178q-78 111 -215 174q-141 70 -295 105q-63 14 -156 41q-80 27 -145 51q-80 29 -133 68q-49 27 -49 57q0 2 2 6v4q14 55 100 94q57 29 205 43q4 0 16 2h17 q133 0 276 -84q166 -97 184 -206q8 -82 95 -82q29 0 61 22q33 20 33 68l-4 12q-6 31 -11 47l-4 19q-6 31 -8 36q-31 186 -180 254q-141 59 -402 82l-2 -4q-233 -2 -423 -73q-199 -78 -269 -289q-8 -23 -8 -64q0 -74 61 -139q72 -78 195 -135q129 -66 266 -98 q182 -49 277 -82q115 -39 174 -119q41 -55 41 -121q0 -39 -10 -68q-37 -141 -220 -241q-174 -147 -301 -148l7 52h-25q-164 0 -273.5 33.5t-179.5 103.5q-145 143 -145 278q0 59 -15.5 83t-52.5 24q-82 0 -112 -105q-4 -20 -25 -73q-8 -27 -16 -50q-33 -86 -33 -149z" />
<glyph unicode="T" horiz-adv-x="1843" d="M41 1380q0 -23 8 -41q25 -39 55 -39q33 0 101 64q59 68 246 121q184 55 288 65q8 0 17 2h12q-4 0 -8 11v-2v-27q-10 -86 -49 -240q-10 -39 -17 -69q-20 -78 -35 -138q-20 -74 -75 -245q-49 -162 -101 -295q-23 -63 -59 -164q-2 -2 -12 -31q-82 -195 -82 -258q0 -4 2 -18 q2 -8 2 -13q18 -51 129 -51q10 0 31 2q31 2 45 2q18 4 51 4q10 0 28 -2t29 -2q57 -8 123 -12q57 0 72 43q6 18 6 43q0 45 -39 45q-8 0 -14 29q-2 14 -2 57q0 29 2 98q2 14 2 31q23 162 114 486q70 264 129 446q41 123 95 244q10 27 22 35q0 -6 -8 -7h12q8 -2 17 -2 q100 -14 247 -57q152 -41 181 -119q29 -71 90 -71h2q31 0 53 12q51 25 51 88q0 41 -37 125q-2 4 -2 8q-20 43 -34 66q-14 27 -19 53q-12 72 -115 72q-39 0 -125 -5q-94 -2 -147 -4q-184 -8 -291 -10q-78 -4 -229 -4q-207 0 -416 12h-4h-2h-35h-35q-37 0 -94 -76 q-6 -6 -10 -14q-20 -25 -33 -35q-33 -33 -55 -63q-78 -90 -78 -150z" />
<glyph unicode="U" horiz-adv-x="2035" d="M41 264q0 -119 53 -174q43 -45 109.5 -66.5t167.5 -21.5q190 4 409 72q213 61 434 102q4 4 9 6q-2 2 -11 6q-43 -76 -43 -116q0 -51 45 -62q35 -6 74 -6q41 0 90 6q16 6 54 6q8 0 22 -2t21 -2q35 -6 114 -10h2q55 0 72 41q6 18 6 43q0 45 -41 45q-6 0 -10 29q-2 10 -2 45 q0 66 10 135q20 150 121 491q61 211 96 316q35 115 76 203q76 201 76 264q0 6 -2 16v6q-16 59 -135 60h-19q-14 -2 -24 -2q-33 0 -70 2q-25 2 -35 2q-33 2 -100 10h-11q-61 0 -75 -51v-17q-2 -10 -2 -12q0 -51 41 -51q6 -2 8 -33v-14q2 -12 2 -21q0 -57 -19 -166 q-31 -164 -133 -505q-35 -104 -71 -248q-16 -57 -25 -96q-2 -10 -10 -35q-6 -29 -12 -47q-13 -43 -132 -68q-76 -20 -153 -37q-102 -25 -152 -35q-172 -29 -291 -32q-68 0 -105.5 6t-59.5 22q-12 12 -13 58q0 78 37 219q6 27 15 78q6 20 6 26q6 20 8 23q4 25 16 73l6 29 q6 18 9 21q12 31 16 49q94 334 172 516q84 197 84 258q0 8 -2 18q-2 6 -2 9q-12 31 -55 46t-127 15q-33 0 -68 2q-25 2 -35 2q-37 2 -115 10q-51 0 -71 -43q-4 -16 -4 -39q0 -49 39 -49q6 -2 8 -33v-14q2 -12 2 -22q0 -74 -21 -166q-23 -133 -133 -506q-10 -43 -26 -80 q-2 -8 -17 -51q-4 -10 -10 -31q-8 -27 -16 -57q-20 -61 -25 -86q0 -2 -2 -6q-2 -2 -4 -7v-8q-2 -6 -2 -8l-6 -18v-9q-2 -8 -2 -10q-31 -111 -31 -213z" />
<glyph unicode="V" horiz-adv-x="1798" d="M41 1671q0 -2 2 -8v-8q23 -68 59 -68q12 0 27 -39q37 -49 80 -207q25 -90 47 -204q8 -51 25 -129q27 -150 36 -205q10 -68 15 -94q25 -164 35 -258q20 -119 26 -177q16 -96 23 -174q12 -114 100 -114h2q66 0 148 102q4 6 20 29q2 6 14 22q18 23 64 84q2 2 18 25 q14 20 39 57q10 12 31 43l8 12l39 54q37 53 139 180q80 104 179 244q121 178 219 307q66 96 149 196q168 217 172 271q0 63 -90 88q-10 4 -23.5 5t-46.5 1h-6q-45 -4 -63 -4h-70q-14 2 -35 4q-14 2 -16 2q-66 0 -86 -41q-12 -20 -12 -43q0 -41 49 -41q16 0 22 -27 q0 -47 -73 -188q-82 -156 -340 -516q-4 -6 -31 -43q-27 -35 -33 -43l-14 -23q-29 -43 -45 -65q-37 -51 -62 -80q-6 -10 -22 -33q-18 -27 -25 -39q-4 -12 -24 -16q-2 0 -2 12q-4 33 -15 66q-2 8 -2 12q-8 39 -10 59q-2 10 -6 43q-2 23 -4 41q-2 8 -6 35q-6 31 -9 51l-4 15 q-45 223 -59 309q-25 133 -25 205q0 104 4.5 159.5t12.5 79.5q10 10 10 33q0 72 -121 72h-86q-25 -2 -67 -2q-115 0 -222 14q-33 0 -46 -8t-13 -35z" />
<glyph unicode="W" horiz-adv-x="2469" d="M41 1673q2 -4 2 -8q33 -96 76 -96q12 0 24 -21q16 -45 45 -192q4 -27 11 -70q12 -86 18 -143q2 -10 12 -86q20 -154 33 -254q6 -43 8 -60q8 -76 17 -118l12 -84q10 -72 12 -86q6 -82 23 -176q12 -115 14 -177q12 -112 115 -112h2q78 0 145 102h-16q18 37 53 98 q35 59 53 97q72 117 131 231q49 88 123 213q57 92 117 217q4 10 6 10h-8q8 -143 18 -210q6 -45 15 -152q4 -45 4 -57v-13q4 -135 8 -211q10 -131 12 -262l9 2q10 -61 108 -61q78 0 146 131q10 10 30 33q16 18 25 26q14 31 39 64l8 14q16 31 25 43q23 31 30 51q4 6 23 35 q12 18 12 21q6 12 21 32q20 29 30 48q8 10 27 38q29 37 43 62q76 119 166 246q84 121 217 307q63 106 143 227q160 193 189 248q12 8 12 31q0 55 -88 55q-45 0 -88 -10q-14 -2 -45 -2q-8 0 -25 2q-16 2 -26 2q-20 4 -66 10q-14 2 -27 4q-59 0 -84 -39q-14 -20 -14 -45 q0 -45 47 -45q16 0 21 -29q0 -55 -74 -196q-76 -154 -338 -518q-76 -102 -98 -142q-10 -20 -39 -67q-25 -37 -35 -58q0 -10 -2 -16l2 -2v4q-2 55 -8 170q-2 57 -4 86q0 43 -4 129q-4 84 -7 127q-10 109 -10 256q-2 86 -2 256q0 51 -16 92q-23 51 -82 51q-51 0 -96 -47 q-41 -37 -66 -96q-25 -66 -100 -211q-41 -90 -142 -291q-51 -86 -145 -235l-6 -8q-41 -80 -117 -213l-4 -7q-10 -29 -14 -28q10 0 10 14q-8 27 -10 49v23q-2 18 -2 20q0 39 -19 133q-2 18 -12 80q-29 180 -37 248l-2 35q-10 111 -10 176q2 119 4 223q2 37 2 49q0 61 -96 68 q-2 0 -23 2h-24q-8 0 -21 -2h-16h-13q-39 -4 -55 -4q-55 0 -96 6q-4 0 -25 4q-23 2 -26 2q-14 2 -37 4q-6 0 -19 2q-59 0 -59 -49z" />
<glyph unicode="X" horiz-adv-x="2197" d="M41 49q0 -35 49 -35q100 0 160 2q59 0 149 -8q61 -4 86 -4q16 -2 39 -4q16 -4 23 -4q53 0 86 33q39 39 39 59q0 37 -49 37q-25 0 -31 14q0 43 78 133q84 111 422 402q20 20 38 20q8 0 15 -12q152 -293 170 -393q12 -80 12 -135q0 -35 -8 -68q-6 -10 -6 -29q0 -53 88 -53 q10 0 26 2q25 2 37 2q35 4 95 8h12h71q90 0 234 -12q53 0 53 39v10q-2 6 -2 8q-41 70 -67 84q-27 20 -68 66q-61 74 -133 199q-18 31 -62 108q-35 63 -43 76q-18 35 -61 111q-39 74 -72 133q-10 31 -10 69q0 45 43 78q313 283 479 414q215 184 224 237q0 68 -82 68 q-25 0 -60 -6h-12q-10 -2 -12 -2t-15 2h-18q-23 2 -76 6q-14 2 -41 4q-25 4 -35 4q-10 2 -28 2q-21 2 -29 2q-55 0 -88 -39l-6 -8q-25 -33 -25 -43q0 -16 12.5 -28.5t30.5 -12.5q25 -10 35 -41q2 0 2 4q0 -29 -45 -92q-76 -102 -307 -293q-37 -37 -58 -37q-12 4 -24 33 q-127 215 -141 303q-6 35 -7 92q0 45 9 60q12 10 12 26q0 55 -143 64q-10 0 -25 2h-20h-19q-12 -2 -22 -2q-43 -6 -68 -6q-33 0 -98 4h-11q-33 2 -106 10h-12q-35 0 -52 -31q-10 -10 -10 -34q0 -4 4 -11q2 -6 2 -8q37 -61 70 -61q14 0 35 -31q45 -51 110 -166q10 -18 37 -57 q43 -70 58 -94q43 -90 133 -289q6 -6 6 -19q0 -27 -39 -59q-70 -61 -94 -82q-156 -137 -230 -199q-109 -96 -223 -190q-170 -143 -248 -195q-143 -109 -143 -137z" />
<glyph unicode="Y" horiz-adv-x="1933" d="M41 1653q20 -63 51 -94q25 -18 64 -78q37 -53 102 -203q53 -125 150 -451q10 -39 28 -98q8 -27 15 -49q4 -16 16 -57q12 -47 16 -64q6 -12 6 -31q0 -18 -6 -24q-4 -4 -24 -27t-25 -26q-143 -150 -225 -220q-150 -135 -150 -178q0 -8 3.5 -14t5.5 -10q12 -23 75 -23 q39 0 115 10q2 0 12 2h15h16q12 -2 14 -2q39 -8 66 -10q6 0 22 -2q31 -2 43 -4q14 -2 33 -4q16 -2 31 -4q25 0 42 8t38 25q29 37 28 59q0 43 -47 43q-18 4 -18 31q0 51 94 188q74 117 438 494q401 412 514 518q225 211 277 268q16 12 16 35q0 49 -96 49q-49 0 -104 -8 q-18 0 -39 2h-21q-23 2 -71 6q-16 2 -37 2q-29 2 -37 2q-10 2 -35 4q-10 0 -18 2q-66 0 -91 -43q-4 -10 -10 -24q-8 -16 -8 -23q0 -43 51 -43q25 -2 25 -35q0 -51 -105 -196q-66 -109 -168 -236q-145 -137 -288 -268q-41 -47 -62 -47q4 0 8 -4q-10 8 -28 47l-4 8 q-143 379 -168 516q-20 137 -21 187q0 49 -3 69.5t-11 30.5q-12 39 -76 43h-151q-25 0 -95 4h-6q-4 0 -20 2h-25q-8 0 -31 4l-24 4q-20 0 -49 -14q-33 -16 -33 -49z" />
<glyph unicode="Z" horiz-adv-x="2134" d="M41 100q0 -70 168 -82q182 -12 479 -14h330q113 -2 332 -2q70 0 96 8q37 20 78 62q14 10 39 32q18 14 26 23q31 27 47 39q72 72 72 94q0 20 -11 32.5t-38 12.5q-2 0 -19 2h-20q-66 0 -141 -18q-141 -31 -244 -58q-111 -33 -174 -41q-133 -16 -219 -20q-68 -2 -103 -4 q-74 0 -125 2q-70 0 -122 -2q6 0 6 -16q0 2 4 4q2 0 2 2q10 20 12 22q139 145 330 318q80 68 174 159l57 54q78 70 115 106l27 25q248 231 387 358q137 121 266 211t186 147q35 41 35 70q0 31 -41 53q-27 12 -94.5 18.5t-196.5 6.5q-45 -2 -100 -2q-57 0 -102 -2 q-70 -2 -207 -2h-105q-80 -2 -92 -2q-41 0 -92 2h-82q-142 0 -152 16q-61 -2 -147 -80q-6 -8 -27 -26q-18 -18 -24 -25q-37 -37 -49 -57q-37 -57 -37 -82q0 -45 53 -45q23 0 72 16q150 53 305 92q160 43 387 43q82 0 164 -6q8 0 47 -6q-4 0 -4 8q0 -4 -8 -14q-4 -4 -9 -8 q-131 -135 -313 -301q-106 -102 -166 -152q-39 -39 -125 -119l-41 -37l-6 -6q-139 -131 -209 -192l-59 -51q-104 -92 -158 -144q-195 -176 -309 -264q-125 -106 -125 -158z" />
<glyph unicode="[" horiz-adv-x="905" d="M41 -150h278l31 123h-143l483 1764h144l30 118h-274z" />
<glyph unicode="\" horiz-adv-x="481" d="M41 1649l272 -1604h127l-268 1604h-131z" />
<glyph unicode="]" horiz-adv-x="907" d="M41 -150h281l544 2005h-274l-33 -118h139l-479 -1764h-141z" />
<glyph unicode="_" horiz-adv-x="1406" d="M41 -131h1298l27 104h-1298z" />
<glyph unicode="`" horiz-adv-x="260" d="M41 1712l37 -156q18 -113 82 -112q59 0 59 72q0 8 -2 22q-2 18 -2 27l-37 147h-137z" />
<glyph unicode="a" horiz-adv-x="1519" d="M41 305q0 -63 12 -108q31 -117 154 -164q102 -35 233 -35q145 0 295 43q10 4 39 16q20 8 25 11q10 8 37 16q8 2 22 8l16 8l7 2q-20 0 -21 17v-2l-2 -4q-6 -10 -6 -33q0 -8 6 -27q2 -4 4 -10q12 -29 107 -35q10 -2 82 -2q61 0 96 -2h41q10 -2 18 -2q23 -4 33 -6 q37 0 53.5 12t16.5 45q-6 68 -43 72q-8 4 -11 16q-6 10 -6 41v19q2 14 2 24q4 78 41 219h2q4 18 19 64q14 51 24 90q41 131 60 201q4 16 10 30q29 88 43 129q2 8 4 15q23 80 25 96q0 72 -90 107q-77 28 -202 28h-9q-129 0 -269 -26q-158 -31 -262 -72q-215 -94 -383 -334 q-166 -199 -211 -342q-12 -82 -12 -125zM418 365q0 31 12 88q10 35 53 143q6 16 15 35q50 105 120 168q86 74 256 159q119 59 205 60q37 0 60 -10q-4 0 -4 -2q0 -14 -7 -25v-4q-4 -27 -10 -47l-6 -4q-8 -8 -8 -13q-2 -6 -8 -18q-4 -12 -13 -33q-4 -20 -20 -78 q-6 -23 -14 -43q-20 -66 -27 -92q-8 -31 -18 -61q-14 -47 -21 -70q-14 -59 -20 -67q-2 -8 -2 -13q-6 -25 -11 -35q-2 -8 -8 -34q-2 -14 -4 -23q-6 -6 -12 -10q-2 -2 -4 -10q-4 -12 -9 -19q-14 -29 -41 -39l-8 -4q-6 -2 -10 -4q-12 -6 -20 -14q-6 -4 -17 -6q-10 -4 -16 -9 q-129 -49 -219 -49q-63 0 -105 25q-45 31 -55 104q-4 16 -4 54z" />
<glyph unicode="b" horiz-adv-x="1525" d="M41 70q0 -76 180 -76q10 0 45 2l58 2q10 0 34 2q25 2 37 2t39 -2q25 -2 37 -2q23 0 41 -2h41q322 0 573 172q258 174 334 453q25 90 25 159q0 172 -121 269q-170 143 -422 145q-68 0 -108.5 -8t-63.5 -27q-41 -27 -92 -29v-6q0 2 2 6q4 6 4 11q16 57 49 170q4 14 6 20 q10 39 29 92q6 12 10 27q18 68 37 109l4 6q2 4 4 4q14 27 33 73q0 2 2 9v8q0 45 -70 45q-39 -4 -55 -4q-12 2 -49 2h-61h-62q-49 0 -117 6q-27 0 -49 -12q-33 -20 -33 -43q0 -33 17.5 -50.5t42.5 -17.5q12 0 14 -26q4 -8 4 -37q0 -55 -18 -154q-39 -176 -143 -530 q-49 -168 -93 -289q-12 -37 -28 -88q-25 -78 -33 -105q-39 -123 -57 -188l-25 -80q0 -4 -2 -10v-8zM438 215q0 6 2 21q4 14 4 22q16 90 45 215q49 184 103 358q2 8 4 19q2 10 4 18l6 13l6 30l2 9l2 2q2 4 7 6q0 4 10 24q4 11 18 17q117 55 189 55q154 0 235 -80 q41 -43 41 -131q0 -90 -39 -219q-80 -258 -227 -354q-137 -88 -297 -95h-39h-12q-6 4 -21 5q-43 4 -43 65z" />
<glyph unicode="c" horiz-adv-x="1349" d="M41 424q0 -143 82 -260q115 -176 430 -176q145 2 276 65q141 68 258 160l5 2q10 4 10 8l12 13q4 6 31 36l8 19q14 29 14 39q0 4 2 12v10q0 66 -65 66q-35 0 -100 -66q-72 -68 -166 -98q-94 -33 -187 -37q-147 0 -223 125q-63 106 -63 203q0 37 4 55q6 37 39 107 q27 66 77 141q55 72 133 121q72 51 181 51q61 0 100 -25q39 -35 53 -59q14 -25 15 -35q0 -2 -4 -6q-25 -18 -48 -98v-9q-2 -8 -2 -10q0 -18 17 -41q10 -14 35 -14q23 0 43 12q12 6 43 25q4 2 10 6q33 20 57 33q53 33 99 45q70 18 88 96l4 10q0 31 -39 72q-12 10 -25 27 q-4 8 -16 20l-4 2q-113 119 -338 119q-252 0 -496 -174q-260 -174 -325 -420q-25 -80 -25 -172z" />
<glyph unicode="d" horiz-adv-x="1609" d="M41 393q0 -139 78 -246q114 -163 337 -163h3q111 0 266 67l16 6q25 10 33 17q10 2 29 10q14 4 18 6q0 2 -2 2q-6 0 -6 -18q0 -45 16.5 -61.5t59.5 -16.5q10 0 24 2h13q-6 0 -13 8q0 -12 78 -12q61 0 113 2q37 0 76 -2q29 -2 39 -2q27 0 53 26q33 37 33 58q-16 51 -68 51 q-16 0 -25 29q-4 12 -4 53q0 43 11 135q25 164 122 485l19 66q51 182 74 264l22 76q29 90 35 117q29 90 37 129q6 20 12 43q4 14 8 30q2 8 6 19q4 10 5 12q2 4 2 8q8 16 8 41q0 68 -90 68h-13q-10 -2 -18 -2q-16 0 -31 -4h-20q-18 -2 -23 -2q-25 0 -78 2q-14 2 -22 2 q-8 2 -21 4q-16 4 -24 4q-10 2 -37 4q-12 2 -18 2q-25 0 -52 -16q-33 -20 -32 -49q16 -66 67 -66q20 0 33 -18q10 -12 10 -60v-18q-2 -18 -2 -29q-8 -82 -86 -330q-6 -25 -18 -36q-2 2 -4 2q-12 0 -50 14h-2q-6 4 -53 27l-31 14q-63 27 -125 29q-291 0 -489 -187 q-207 -188 -279 -434q-20 -82 -20 -162zM379 475q0 33 8 107v12q31 193 168 297q127 113 270 113q119 0 179 -66q31 -35 32 -51q0 -39 -10 -66q-10 -33 -41 -135q-14 -47 -22 -74q-16 -59 -41 -145q-2 -6 -4 -16q-27 -80 -29 -101q-8 -29 -60 -69q-92 -74 -200 -74 q-4 0 -21 2h-20q-117 14 -170 102q-39 61 -39 164z" />
<glyph unicode="e" horiz-adv-x="1300" d="M41 416q0 -152 94 -258q141 -168 406 -168q139 4 299 80q168 78 278 194q16 10 25 23q14 16 16 18q23 39 23 62q0 43 -43 57q-8 8 -37 8q-20 0 -60 -16q-47 -27 -69 -54q-55 -61 -119 -92q-63 -37 -156 -43q-84 0 -144 23.5t-112 75.5q-8 6 -8 12q1 13 21 27 q127 84 280 176q63 37 166 100q96 59 137 84v2l174 113q14 10 35 37q12 10 13 38q0 29 -15 50q-57 100 -151 161q-104 61 -238 64q-195 0 -444 -158q-262 -164 -342 -434q-29 -88 -29 -182zM342 551q0 8 4 24q2 8 2 15q41 160 137 303q96 98 279 98q76 0 94 -24 q16 -29 35 -95q0 -4 2 -8v-6q0 -8 -6 -14q-16 -8 -33 -21q-10 -10 -12 -10q-76 -57 -219 -149q-72 -41 -197 -127q-12 -8 -35 -23l-4 -2q-12 -6 -18 -6q-10 0 -17 10q-12 20 -12 35z" />
<glyph unicode="f" horiz-adv-x="1474" d="M41 -244q0 -57 74 -57h35q0 2 -23 2h6q2 0 6 2q12 2 23 6q131 51 239 154q76 72 148 100q92 41 113 146q45 203 81 350q41 178 97 377q2 8 6 18q2 6 4 8q2 6 4 17q0 10 2 16q0 2 2 6q4 8 6 17q2 2 4 12q4 8 6 14q0 8 3 19v2q12 4 20 4q4 0 18 -2q10 0 19 -2q14 -2 45 -2 l22 -2q41 -2 54 -3q31 0 57 17q29 12 45 37q8 12 12 20q2 4 9 10q6 6 6 9q0 -4 -10 -7q4 2 6 7q2 4 4 4q2 2 2 4l2 2q2 4 10 12q10 14 10 55q-14 29 -55 29q-92 0 -223 -4v-8l2 4v4q14 47 33 123q16 59 32 98v6q2 12 2 23q20 74 43 100q18 18 33 19q8 0 8 -23q0 -43 -10 -90 l-4 -4v-39h-49q43 0 43 -2l8 -14q18 -25 47 -25q10 0 31 6q43 14 61 29q35 27 72 37q55 27 78 35q47 16 74 94v20q0 172 -234 172q-117 0 -285 -90q-109 -57 -170 -102q-76 -55 -77 -162q-10 -37 -19 -84q-4 -20 -8 -31q-10 -47 -18 -69q-6 -23 -35 -23h-39h-23h-20 q-23 0 -51 -12q-23 -8 -45 -43q-2 -4 -9 -12q-6 -8 -14 -19l-2 -2q-4 -10 -8 -16q-8 -12 -8 -35q0 -2 2 -8v-11q18 -33 49 -32q35 0 57 2q41 0 70 2q20 0 20 -6v-7q-2 -4 -2 -8q-4 -18 -12 -41l-4 -10l-4 -12q-2 -8 -4 -15q0 -2 -4 -12q-4 -12 -7 -16q-53 -201 -100 -361 l-6 -22q-65 -201 -90 -301q-47 -174 -250 -330l-10 -8q-29 -23 -31 -45v-10q-2 -10 -2 -11z" />
<glyph unicode="g" horiz-adv-x="1499" d="M41 -47q0 -139 113 -229q129 -94 376 -95q231 0 435 119q203 129 245 234v-5l-2 -2l4 5q4 6 5 6q49 74 49 116q0 29 -19 48q-35 35 -86 57q-12 4 -49 12q-14 2 -39 10q-4 2 -6 2q-4 0 -20 2q-86 20 -127 31q-70 12 -132 27q-139 33 -256 55h9q0 2 2 6v6q0 -4 10 -4 q12 0 37 4q8 2 20 2q35 -4 43 -4l15 -2q37 -4 51 -4q145 0 255.5 25.5t207.5 81.5q236 129 266 299q10 27 10 78q0 74 -37 131q-47 80 -139 137q-121 84 -348 84q-254 0 -469 -117q-213 -121 -262 -299q-10 -27 -10 -82q0 -66 26 -117q45 -82 143 -135q2 -6 21 -24 q-2 2 -2 4v4q-16 -12 -57 -33q-10 -6 -29 -14l-12 -6l-11 -7q-18 -10 -20 -14q-111 -61 -111 -119q0 -2 2 -8v-10q23 -72 76 -76l12 -2q23 -4 25 -4h-8q-8 2 -12 2q8 10 22 21q4 2 6 4q-16 -20 -45 -23q-41 -8 -106 -57q-66 -43 -72 -121zM272 -78q2 6 2 10q20 74 142 115v4 q33 20 39 45q4 0 4 -2q96 0 207 -35q47 -12 133 -36q6 -2 24 -7q61 -16 88 -22q0 -4 -2 -8v-4q-16 -61 -129 -123q-117 -70 -252 -70q-133 0 -204 49q-51 37 -52 78v6zM565 682q0 41 8 74q27 94 95 194q63 97 247 97q176 0 183 -89q0 -20 2 -40v-35q0 -74 -8 -115 q-25 -82 -123 -180q-90 -94 -228 -94q-123 4 -157 86q-18 45 -19 102z" />
<glyph unicode="h" horiz-adv-x="1488" d="M41 57q0 -59 61 -59q4 0 11 2q6 2 8 2t12 2h17q6 0 16 -2h6q18 -4 61 -4q61 0 111 4q49 0 100 -6h7q41 0 59 11t18 42q-14 66 -61 74q-8 2 -10 35v14q-2 10 -2 18q0 39 18 164v2q18 92 133 467q2 4 4 15q0 2 2 2v6q2 4 2 18q0 2 2 2t2 2q6 29 21 35q12 6 35 15l6 2 q14 4 33 8q16 6 24 8q45 12 70 16l14 2q96 10 131 11q92 0 125 -25q10 -10 10 -43q0 -90 -67 -291q-2 -2 -4 -2q0 -2 -2 -6t-2 -6q-2 -2 -2 -8q-2 -4 -2 -19v8q-2 -6 -2 -14v-2v2q-59 -213 -97 -301q-53 -117 -59 -178q0 -47 18.5 -65.5t65.5 -18.5q4 0 18 2q45 4 78 4h51 h47q23 0 72 -4q20 -2 29 -2q61 0 71 53q-20 47 -45 62q-8 4 -12 28v13q-2 10 -2 18q0 23 6 80q0 4 2 14q18 86 92 289v6v-14q4 25 5 47h-5q0 2 5 4l4 4l6 12q4 6 4 9q0 6 2 12v4q0 4 4 12q0 4 4 13l2 6q0 6 4 14q0 4 4 12q8 49 25 107q8 37 22 86q20 68 21 137 q-2 78 -49 109q-41 29 -90 36q-27 8 -95 9q-14 0 -38 -2q-33 -2 -48 -2q-78 -8 -235 -39q-4 0 -6 -2q-55 -12 -90 -27q-12 -4 -33 -12l-14 -4l-15 -5q-23 -8 -39 -12h-2q-8 0 -18 6q10 0 10 -6q0 12 6 33q14 41 39 127q18 59 25 82q12 45 37 117l6 16q4 23 14 57q2 2 6 21 q4 12 10 28l7 15q6 10 8 14q4 0 20 74q0 4 2 10v8q0 27 -14 36t-51 9q-47 -2 -64 -6q-12 -2 -45 -2h-59h-64q-41 0 -114 4h-6q-68 0 -68 -55v-8q-2 -8 -2 -11q0 -51 51 -51q14 0 21 -30q4 -6 4 -37q0 -61 -15 -154q-29 -174 -137 -530q-41 -156 -86 -289q-14 -39 -35 -102 q-25 -70 -32 -91q-68 -172 -97 -247q-12 -23 -12 -54z" />
<glyph unicode="i" horiz-adv-x="860" d="M41 84q0 -6 2 -16q2 -8 2 -13q10 -27 47 -39t117 -12h51h55q66 0 109 -2q25 0 41 8q27 20 27 49q-6 70 -43 70q-2 0 -3 4q-2 2 -2 4q-2 8 -2 33v18q2 20 2 33q2 20 15 80q2 12 2 14q8 55 37 148q20 72 24 88q33 119 43 164l10 33q33 98 39 131q6 20 17 57q8 27 12 39 q2 10 10 37q4 12 4 18q6 18 11 29q8 20 22 61q0 4 2 8t2 9q0 45 -71 45q-33 -4 -50 -4h-51q-66 0 -116 2h-56q-12 2 -37 4q-6 0 -18 2q-70 0 -70 -53q0 -78 51 -78q14 -2 21 -27q6 -8 6 -37t-10 -84q-19 -102 -103 -342q-66 -231 -94 -293q-55 -127 -55 -188zM440 1481 q0 -49 33 -82q41 -49 117 -49q68 0 135 45q68 41 88 108q6 12 6 41q0 45 -35 80q-42 49 -116 49q-78 0 -138 -45q-68 -49 -86 -108q-4 -12 -4 -39z" />
<glyph unicode="j" horiz-adv-x="1099" d="M41 -233v-9q0 -59 78 -59h12l8 2h-2q2 0 6 2q8 2 19 6q154 53 237 154q74 90 201 143q66 0 66 76l6 135l-31 -53q6 -2 15.5 -7t9.5 -16q0 14 10 70l4 25q10 39 22 118q10 55 48 189q20 82 59 207l4 16q12 37 29 94q12 41 16 55q14 41 25 72q18 53 24 72q4 14 8 20 q10 14 19 43q0 55 -125 56h-37h-39h-45h-43q-39 0 -86 6q-66 0 -76 -49v-7q-2 -8 -2 -14q0 -45 43 -45q10 0 17 -22q10 -31 10 -66q0 -10 -2 -31q-4 -29 -4 -43q-2 -25 -15 -94q-2 -12 -8 -47q-16 -70 -63 -215q-41 -129 -68 -219q-4 -12 -12 -37q-33 -92 -45 -133 q-29 -92 -80 -174q-61 -84 -164 -156l-18 -10q-25 -29 -29 -45q0 -4 -2 -10zM680 1466q0 -49 35 -82q45 -47 116 -47q74 0 136 45q68 43 86 107q6 12 6 41q0 47 -35 82q-41 51 -117 51t-137 -49q-63 -43 -82 -105q-8 -12 -8 -43z" />
<glyph unicode="k" horiz-adv-x="1628" d="M41 68q0 -74 111 -74q8 0 26 2t29 2q16 4 57 4h55q43 0 103 -6h12q35 0 52.5 11t17.5 44q-12 43 -49 49q-4 4 -6 17q-4 8 -5 37q0 6 2 18q2 14 3 23v10q4 47 10 80q10 55 30 135q0 4 3 12q0 10 2 12q2 0 20 17l21 16q6 2 16 10q8 4 10 7q4 4 21 12l6 4q16 12 30 20 q20 12 29 13q18 0 27 -25q104 -211 129 -299q33 -131 33 -166q0 -39 108 -39h35q29 2 49 2q35 0 49 -2t45 -2q8 -2 25 -2q14 0 22 -2q33 -4 58 -4q67 0 67 42q0 5 -2 9q-4 8 -4 13q-31 71 -60 71h-1q-10 0 -33 27q-27 23 -84 129q-51 84 -156 358q-16 45 -16 66q4 16 80 63 q158 113 280 185q35 18 84 45q39 20 84 24q10 0 70 39q8 4 20 12q18 16 31 52q-18 39 -53 39q-51 -6 -125 -7h-55h-58q-39 0 -59 3q-43 0 -68 2q-80 4 -114 8q-59 0 -97 -35q-14 -16 -14 -51q0 -39 41 -56q27 -6 29 -18q0 -20 -74 -76q-98 -80 -356 -235q-12 -6 -31 -13 q10 0 10 -14v4q2 6 2 8q4 10 8 35q2 8 7 23q4 14 4 20v2q4 14 10 21q8 23 10 37q39 135 92 313q20 63 45 154q8 33 15 53q10 33 22 84q10 37 13 43q4 14 12 43q6 20 8 28q8 25 12 31q0 4 2 8v13q6 16 23 45q0 2 2 10v8q0 49 -57 49h-5q-4 -2 -10 -2q-41 -4 -59 -8 q-12 -2 -47 -2h-58h-65q-45 0 -117 6q-70 0 -70 -57q16 -59 56 -60l10 2l4 2q2 0 2 -20v-12q2 -12 2 -23q0 -43 -20 -166q-16 -86 -51 -211q-45 -168 -86 -327q-14 -53 -19 -72q-45 -164 -65 -233q-41 -125 -64 -179q-78 -217 -90 -288z" />
<glyph unicode="l" horiz-adv-x="897" d="M41 76q0 -78 172 -78q66 0 113 4q47 0 100 -6h10q39 0 56.5 11t17.5 42q-12 57 -59 57v31q0 59 26 205q27 137 133 494q43 162 92 329q18 57 41 131q12 43 19 62q25 86 33 117q16 53 22 79q8 25 12 31q0 4 2 8v13q6 16 23 45q0 2 2 10v8q0 49 -57 49h-4q-4 -2 -11 -2 q-41 -4 -59 -8q-16 -2 -47 -2h-57h-66q-45 0 -117 6q-70 0 -69 -55q0 -68 49 -68q8 0 14 -20v-2v-13q2 -14 2 -22q0 -70 -16 -162q-20 -143 -135 -528q-98 -328 -156 -486q-86 -227 -86 -280z" />
<glyph unicode="m" horiz-adv-x="2338" d="M41 33q0 -55 106 -56q10 0 29 3q27 2 39 2h16q12 2 15 2q8 0 16 -2h14h60q33 0 106 -7q27 0 45 19q10 8 21 26q2 6 4 9q-12 72 -43 77q-6 4 -12 19q-4 10 -4 45v16q2 14 2 25q2 66 41 227q14 49 43 144q10 35 24 80l8 26q14 53 27 88q8 39 23 78q6 27 14 39q14 16 61 35 q68 29 135 43q92 22 153 22h5q78 0 103 -30q14 -16 14 -62q0 -94 -66 -297q0 -6 -2 -8q-6 -6 -6 -14q-2 -2 -2 -9q-4 -4 -4 -10q-2 -6 -2 -14v-2v8q-51 -197 -96 -307q-59 -137 -60 -191q0 -27 19 -45q37 -22 152 -22h10h51h47q45 0 100 -6q61 0 72 49q-12 47 -43 63 q-8 6 -12 29q0 4 -2 12q-2 10 -2 17q0 16 6 55q2 31 4 43q12 68 92 289v6v4v29h12h-6q-4 -2 -6 -2l8 8q6 12 6 22q2 2 2 4l2 2q0 4 2 13q2 8 2 12l2 4l3 12q4 8 4 15q6 12 6 20q2 8 4 21q2 12 4 18q2 10 4 23q4 12 4 14q2 10 4 22t4 23q2 6 7 16q4 4 4 9q12 33 28 47 q41 31 84 45l8 2q70 25 86 26q102 23 168 23q76 0 107 -27q18 -18 18 -67q0 -92 -61 -281q-4 -4 -4 -16h-6q0 -12 -2 -17q0 -6 -2 -8v-14v8q-3 -4 -3 -10q-51 -184 -96 -299q-67 -166 -67 -206q0 -11 6 -20.5t10 -13.5q25 -16 174 -18q4 0 23 -2h22q6 0 21 -4q16 -2 26 -4 q16 -4 103 -5q61 0 75 58q-14 47 -45 63q-8 4 -16 35q-2 8 -2 29q0 35 12 90q8 33 37 119q20 49 49 157q8 12 8 23v31h31q-12 0 -20 -2h-11q2 2 7 10q6 12 6 20q2 4 2 13q4 8 4 14q6 12 6 20q4 12 4 19l2 6q4 8 4 12q16 66 25 96q6 27 18 72q6 16 6 17q18 74 19 133 q0 141 -119 159q-35 10 -117 11q-135 0 -317 -39q-61 -10 -113 -35q-14 -4 -30 -12q-49 -20 -84 -33q-25 -12 -39 -12h-2q-20 23 -29 41q-33 61 -107 75q-27 8 -62.5 9.5t-127.5 1.5q-115 -2 -242 -31q-51 -8 -110 -37q-72 -31 -107 -39q-4 -2 -12 -2q4 0 4 -14v6q-2 4 -2 8 t2 10t2 8q2 6 10 25q0 4 2 10v6q0 47 -69 48q-33 -4 -51 -5h-50q-66 0 -118 2h-54q-12 2 -37 5q-12 2 -18 2q-70 0 -70 -52q6 -80 54 -82q16 -2 24 -24q2 -6 2 -27q0 -27 -10 -92q-10 -51 -37 -133q-6 -16 -10 -35q-33 -102 -55 -178q-8 -29 -37 -123l-15 -53 q-6 -14 -10 -29q-20 -61 -31 -90q-66 -178 -65 -227z" />
<glyph unicode="n" horiz-adv-x="1501" d="M41 74q0 -8 2 -21q2 -10 2 -12q25 -45 121 -45h18q16 2 27 2q6 0 14 2t13 2q6 0 16 -2q6 -2 8 -2q18 -2 51 -2h47q12 -2 25 -4q23 -4 31 -4q35 0 51 13t16 48q-12 66 -37 70v6v10q-2 8 -2 15q0 8 2 26q2 29 3 41q4 14 8 57q2 12 6 41q12 61 39 148q27 98 53 217 q8 35 27 113q4 10 10 36q20 68 108 93q23 8 50 14q16 4 49 12q113 23 178 23q74 0 100 -21q18 -14 19 -61q0 -86 -64 -287q0 4 -4 4v-14q-2 -10 -2 -14v-5l-2 -4v-4l-2 -4v6l-2 -2q0 14 -4 15v-54h-4q-49 -178 -92 -270q-70 -162 -70 -199q0 -10 4 -19t6 -13q18 -29 115 -29 h20q14 2 27 2q4 0 14 2q8 2 13 2q4 0 14 -2q6 -2 10 -2h47q39 0 97 -6q35 0 53 14t22 39q-20 47 -39 59q-2 6 -6 31v10q-2 8 -2 15q0 20 10 80q0 6 2 20q12 72 70 281l6 4v12v31h6q2 2 2 6q2 4 2 8t3 8q6 10 6 19l2 4q2 8 2 12q0 6 2 10t4 15q2 4 2 6q2 2 2 8q2 6 2 8 q18 72 51 170q2 6 6 21q35 84 35 137q-2 72 -59 110q-39 25 -101 35q-29 8 -96 9q-12 0 -37 -3q-33 -2 -47 -2q-139 -16 -235 -39h-2q-53 -16 -82 -26q-47 -16 -86 -27q-8 -2 -25 -6q-18 -6 -24 -6q12 0 12 -14l-2 4q0 2 2 12q2 12 2 20l2 -2q2 0 4 -2l2 11v8q0 4 8 16v6 q2 6 2 11q0 47 -71 47q-31 -4 -49 -4h-52q-23 0 -102 -4h-18h-27q-20 -2 -25 -3q-12 0 -35 3q-20 2 -30 2q-72 0 -72 -54q0 -80 55 -80q18 -2 29 -22q4 -8 4 -37q0 -18 -8 -76q-4 -41 -35 -133q-18 -53 -57 -184q-4 -12 -8 -25l-15 -43q-33 -98 -41 -135l-10 -29 q-18 -63 -33 -88q-57 -135 -57 -196z" />
<glyph unicode="o" horiz-adv-x="1546" d="M41 455q0 -162 115 -287q164 -178 458 -178q297 0 547 174q252 172 324 420q20 68 20 139q0 168 -116 291q-162 180 -459 180q-295 0 -547 -176q-254 -174 -324 -422q-18 -76 -18 -141zM385 444q0 72 18 136q53 197 168 325q117 133 328 133q203 0 242 -120 q16 -55 16 -138q0 -80 -22 -186q-43 -199 -193 -326q-70 -61 -141.5 -91t-155.5 -30q-152 10 -217 127q-43 72 -43 170z" />
<glyph unicode="p" horiz-adv-x="1605" d="M41 -317q0 -4 2 -11v-8q6 -39 68 -39q74 0 143 49q53 39 117 45q33 2 59 52q8 23 14 47q8 12 9 39q0 4 -4 14l-3 12q-2 12 -2 39l7 35q4 14 4 16q10 23 37 25q344 31 665 240q309 207 381 456q27 88 27 164q0 143 -86 221q-119 123 -377 123q-109 -2 -193 -55 q-69 -45 -110 -55q-10 -2 -29 -2q-2 0 -12 2h-15q10 0 11 -11q0 2 2 6v7q4 12 4 28q0 74 -98 74h-9q-8 -2 -14 -2q-14 0 -29 -4h-18q-16 -2 -27 -2q-43 0 -100 -4q-37 0 -76 2q-18 2 -22 2q-68 0 -68 -53v-17q-2 -10 -2 -12q0 -55 47 -55q20 0 23 -19q10 -31 10 -59 q0 -27 -8 -92l-4 -31q-16 -141 -132 -520q-70 -238 -116 -369q-55 -154 -72 -240q-4 -14 -4 -38zM512 176q0 2 2 8v9q2 6 2 12t2 12q8 25 10 37q2 6 7 22q4 16 4 23q2 6 4 14q2 6 4 13q25 86 49 182q6 20 20 74l19 73q14 51 27 88l8 31q10 51 24 109q10 27 29 37 q33 22 51 28q74 35 174 39q166 0 211 -92q29 -51 29 -117q0 -49 -21 -116q-20 -78 -82 -164q-74 -102 -188 -176q-53 -39 -154 -84q-76 -33 -163 -64q-35 -14 -54 -14q-4 0 -8 4q-6 6 -6 12z" />
<glyph unicode="q" horiz-adv-x="1646" d="M41 381q0 -135 76 -242q111 -166 344 -166h26q18 2 31 2q186 16 340 97h2q25 10 43 24q0 -4 -10 -5t-19 -1l-6 6t-4 10q0 -2 -2 -6q-2 -6 -2 -10q-6 -18 -22 -61q-37 -102 -60 -148q-35 -72 -67 -174q0 -4 -2 -10v-8l4 2q8 -51 75 -51q47 0 117 53q53 41 133 43 q27 4 58 31q33 27 34 73q14 94 46 205q45 158 65 260q80 342 141 529q49 143 93 194q18 31 41 31q45 0 81 53q8 14 9 27q0 41 -64 41h-31q-25 -2 -26 -2q-4 0 -23 2h-24l-21 2q-63 2 -84 2q-72 0 -73 -6q-2 0 -21 -2q-6 0 -37 -2q-31 0 -50 -14.5t-19 -35.5q0 -2 2 -6 q4 -4 4 -8v-8l2 -6q0 -6 2 -6t4 -3q-2 2 -10 11q-7 4 -7 6q-53 29 -145 63q-66 27 -149 27q-252 0 -457 -168q-211 -172 -301 -451q-37 -104 -37 -194zM385 475q0 49 21 125q61 184 153 295q98 121 250 121q129 0 248 -103q14 -12 14 -28q0 -2 -2 -11q-2 -8 -2 -10 q-6 -23 -16 -61q-23 -90 -33 -137q-18 -61 -37 -136q-25 -82 -43 -168q-16 -72 -61 -92q-45 -23 -115 -47q-57 -20 -88 -20q-4 0 -10 2h-7q-164 18 -235 137q-37 53 -37 133z" />
<glyph unicode="r" horiz-adv-x="1232" d="M41 68q0 -61 190 -62h54q18 -2 53 -2h51q16 -2 57 -2q25 0 41 8q27 20 27 49q-6 70 -41 70q-4 0 -4 6q-2 8 -2 35v18q2 18 2 31q4 41 14 96q8 55 37 148q6 31 21 78q4 16 10 39q14 39 31 102q12 43 22 84q2 4 10 37q6 25 9 35q10 37 32 53q31 31 72 49q39 16 64 16 q49 0 49 -22v-8q-2 -6 -2 -11q-4 -10 -17 -20q-66 -47 -69 -80l-9 -24q0 -59 62 -60q31 0 153 57q119 51 150 68q61 33 74 90v4q0 2 2 2v2v4v-8q8 23 8 62q0 78 -53 125q-63 63 -158 63q-82 0 -123 -24q-33 -20 -94 -54q-16 -10 -33 -18l-18 -6q-6 -2 -8 -2h8q-12 2 -19 2 q16 0 17 -15v7q2 4 2 8q0 2 2 8q2 4 2 6q0 66 -117 66h-37h-18q-66 0 -115 2h-53q-14 2 -39 4q-12 2 -19 2q-72 0 -71 -53q0 -72 53 -78q10 -2 21 -27q6 -8 6 -35q0 -12 -6 -49q-2 -27 -5 -37q-8 -33 -36 -133q-31 -86 -68 -209q-10 -39 -31 -102q-16 -47 -24 -76 q-6 -29 -25 -76q-8 -29 -12 -41q-68 -160 -80 -202z" />
<glyph unicode="s" horiz-adv-x="1345" d="M41 207q0 -37 27 -51q66 -61 217 -111q137 -41 325 -41q195 0 414 113q223 119 268 303q12 33 13 90q0 88 -43 139q-53 74 -160 127q-109 47 -219 68l-13 2q-131 25 -196 39q-45 16 -86 43q-27 14 -27 33l2 4v4q10 33 53 41q59 18 132 20q49 0 98 -11t112 -38 q123 -49 166 -123q12 -20 27 -35q25 -20 53 -20q74 0 82 71q0 6 -2 21q-6 43 -12 63q-8 31 -8 84q0 39 -58 64q-43 14 -55 20q-55 23 -154 37q-123 16 -192 23v-2q-23 4 -64 4q-135 0 -264 -45q-168 -57 -215 -228q-12 -41 -12 -67q0 -49 35 -100q61 -70 155 -91 q76 -37 205 -63q117 -20 211 -49q68 -41 88 -74q16 -20 17 -53q0 -20 -9 -43q-25 -90 -121 -146q-92 -102 -174 -102q37 0 48.5 26.5t11.5 43.5q-6 -4 -24.5 -11.5t-47.5 -7.5q-102 0 -165.5 19.5t-102.5 60.5q-74 86 -90 176q-4 18 -6 58q0 71 -82 71h-2q-66 0 -84 -67 q-14 -47 -17 -70q-14 -37 -24 -88q-16 -57 -23 -82q-8 -20 -8 -49z" />
<glyph unicode="t" horiz-adv-x="1071" d="M41 72q0 -37 41 -53.5t143 -16.5q63 0 115 -4q35 0 111 -6q31 0 46 11t23 34q0 8 2 22v17q0 55 -37 55v2q-2 12 -2 27q0 6 -2 16q-2 14 -2 23q0 47 17 149q16 106 125 481q10 31 18 72q4 14 10 33q4 18 8 33q2 8 7 22q6 23 12 37q2 12 12 35q6 16 8 24q0 2 4 13l2 10 q2 2 13 2h10q6 -2 8 -2q6 -2 21 -4q16 -2 20 -4q14 -8 72 -8q29 0 59 14q27 18 49 43q2 4 11 12q8 8 12 15l18 14l9 8q27 35 26 64q-17 47 -72 47h-6q-10 2 -16 2q-20 6 -31 6q-92 -4 -137 -14q-4 0 -4 -3v9q2 8 2 14q18 74 31 111q4 20 12 45q4 14 6 24q16 41 21 60l10 20 q0 2 2 6l2 6q2 6 6 17q6 14 8 22q0 14 6 41q0 49 -75 49h-19h-33q-53 0 -77 -47q-57 -123 -199 -266q-135 -141 -254 -176q-47 -14 -57 -47q-8 -23 -11 -33q0 -23 2 -41v-6q20 -27 62 -27q61 0 104 9q10 0 21 -3h16q-10 0 -10 5v-7q-2 -6 -2 -10l-4 -14q-6 -25 -8 -39 q-4 -14 -13 -49q-4 -16 -6 -25q0 -2 -8 -18t-10 -29q-4 -10 -10 -33t-11 -34q-41 -152 -84 -289q-12 -41 -12 -43q-31 -102 -47 -150q-74 -221 -84 -280z" />
<glyph unicode="u" horiz-adv-x="1474" d="M41 162q0 -55 29 -103q52 -77 177 -77h3q117 0 266 43q49 14 143 43q68 16 146 41q8 6 18 6q-8 0 -8 16q0 -2 -2 -10q-2 -16 -6 -27v-14q-2 -10 -2 -12q0 -6 4 -15q2 -10 2 -16q8 -35 66 -35q2 0 12 2h10h78q66 0 106 -2q41 0 56 -2q10 -2 30 -4q10 -2 17 -2q41 0 55 31 q12 31 12 69q0 45 -32 45q-10 4 -19 17q-8 16 -8 55q0 2 2 18v23q6 78 76 317q25 100 59 213q27 96 41 140q10 53 25 98l12 24l2 5q8 14 12 20v14l2 4q4 12 9 23q0 23 -2 32t-11 19q-12 29 -61 29q-18 -2 -43 -4q-20 -4 -27 -4q-29 -4 -59 -4h-45h-56q-59 0 -100 6 q-55 0 -55 -41q-6 -18 -6 -45q0 -49 32 -49q10 -4 17 -25q6 -12 6 -59v-25q-2 -18 -2 -33q-6 -86 -82 -332q-6 -25 -18 -61l-9 -20l-6 -25q-8 -29 -10 -35q-4 -8 -6 -22q-4 -14 -8 -23l-9 -27q-4 -16 -8 -28q-8 -37 -98 -66q-70 -27 -129 -41q-72 -14 -117 -24h-28h-64 q-20 4 -20 55q0 68 34 191h-6q6 25 27 92q14 47 22 77q78 272 103 347q14 43 35 96q6 14 8 18q-6 -8 -15 -12l3 -2q4 4 14 19.5t20 43.5q0 27 -22 43q-16 12 -43 13q-100 -8 -154 -8q-33 0 -51 -5h-57h-35q-27 -2 -31 -2q-12 0 -24 2h-23q-43 0 -55 -41v-14q-2 -10 -2 -14 q0 -51 39 -51q14 -4 22 -19q12 -29 12 -69v-21q-2 -12 -2 -24q-10 -109 -79 -332l-9 -23q-6 -23 -12 -35l-6 -18q-6 -25 -10 -37q-2 -12 -11 -35l-4 -10q-14 -43 -18 -80h-10l4 12q2 14 6 19q0 -14 -2 -23v-12q-2 -4 -2 -14q-35 -104 -35 -168z" />
<glyph unicode="v" horiz-adv-x="1431" d="M41 1120q25 -53 49 -53q6 0 12 -20q18 -25 58 -121q33 -100 94 -385q14 -72 27 -121q6 -25 12 -51q12 -45 16 -64q4 -23 8 -39q8 -49 17 -78q4 -23 12 -63q6 -39 10 -55q8 -82 99 -82h2q58 0 114 69q35 41 125 158q37 49 78 100q23 31 66 86l32 43q23 27 64 82 q25 35 33 45q94 125 225 287q20 25 41 49q61 66 131 166q25 37 25 55q0 51 -72 52h-96q-102 0 -164 6q-51 0 -70 -39q-18 -35 -18 -68q0 -51 55 -51q10 0 10 -4q0 -2 -2 -6q-2 -8 -2 -14q-18 -47 -59 -105q-53 -74 -191 -235q-25 -27 -69 -93q-6 -8 -19 -24q-25 -37 -67 -94 q-10 -23 -17 -23v19q-12 43 -16 94q-10 88 -25 129q-55 184 -61 260q0 76 10 164v2q0 2 2 8v6q0 70 -100 70q-43 0 -64 -4h-45q-29 0 -73 8q-45 12 -88 14q-10 0 -41 -14l-23 -10q-45 -39 -45 -56z" />
<glyph unicode="w" horiz-adv-x="1953" d="M41 1124q25 -82 51 -82q31 0 31 2q-10 0 -21 -8q8 -12 37 -114q4 -23 17 -74q2 -10 12 -55l16 -88q16 -84 29 -150q8 -47 23 -121l4 -28q8 -55 12 -87q4 -61 12 -118q6 -25 15 -82q2 -25 4 -37q8 -92 94 -92q96 6 160 90h-25q72 125 176 274q115 166 193 318l4 4 q8 6 16 10q-2 2 -4 2q-16 0 -16 6q2 -29 8 -76q6 -59 8 -81l4 -27q8 -84 12 -133q8 -104 19.5 -176t21.5 -119q2 -10 2 -12q-2 0 -2 4l29 -70q6 -2 27 -6q12 -4 30 -4q63 0 117 72q25 35 29 38q106 150 145 211q45 78 72 123q12 18 37 56q35 53 53 77q59 86 154 205l12 17 q70 88 88 114q119 152 147 193q12 12 15.5 19t3.5 18q0 51 -101 51h-22q-14 -2 -27 -2h-12q-10 -2 -12 -2t-10 2h-11q-10 2 -22 2q-18 2 -23 2l-16 2q-31 4 -33 4q-12 2 -27 4q-10 2 -14 2q-16 0 -49 -22q-20 -18 -25 -29q-14 -14 -14 -43q0 -43 39 -43q14 0 16 -14 q0 -35 -43 -125q-55 -102 -227 -340q-14 -20 -29 -41q-16 -23 -16 -25t-8 -12q-6 -8 -17 -23l4 -8l7 -6v2l-2 2q-4 33 -5 45q-8 72 -14 111q-12 82 -18 157l-2 15q-10 86 -19 129q-8 92 -10 155q-2 104 -84 105q-78 0 -127 -102l-8 -21q-37 -90 -64 -135q-43 -53 -114 -133 q-129 -177 -215 -318q-2 -18 -7 -18q12 0 13 6q-2 6 -2 10q-2 14 -4 23q-4 12 -4 18q-2 31 -15 76q-49 215 -49 326q10 150 10 209q0 51 -108 51q-10 0 -31 -2q-29 -2 -43 -2q-4 0 -12 -2h-8h-9q-8 2 -12 2q-16 2 -47 2q-10 2 -23 2q-18 2 -22 2q-8 2 -31 6l-14 2 q-25 0 -53 -23q-27 -29 -27 -47z" />
<glyph unicode="x" horiz-adv-x="1595" d="M41 49q0 -27 8 -36t29 -9q80 8 143 8q8 0 53 -2q12 0 78 -2q86 -2 127 -6q53 0 90 31l11 12q16 23 16 35q0 14 -11.5 27.5t-25.5 13.5q-18 4 -22 10q0 2 -2 4l-3 6q0 23 33 70q39 55 242 225q10 10 18 10q2 0 2 -2q100 -164 111 -239q6 -25 6 -66q0 -35 -10 -61v-8 q-2 -6 -2 -9q0 -55 86 -55q2 0 12 2h17q18 2 38 2q29 2 37 2h49q96 0 156 -8q33 0 70 19q39 39 39 55q-29 51 -54 61q-20 10 -49 47q-45 51 -94 133q-45 70 -162 308q-6 10 -6 26q0 25 27 49q197 180 317 271q104 80 127 131q8 10 10 15t2 11q0 49 -75 50q-8 0 -23 -2 q-16 -2 -26 -2h-13q-20 -2 -39 -2q-10 2 -32 2q-23 2 -35 2q-88 0 -117 4l-8 2h-8q-35 0 -48 -25q-10 -12 -20 -43q-6 -12 -6 -33q0 -39 33 -49q16 -6 26 -22v6q0 -14 -18 -37q-29 -37 -144 -133q-20 -20 -32 -21q4 0 4 -2l2 -2q-61 115 -70 162q-6 47 -6 109q0 8 2 20v10 q0 55 -141 56h-78q-23 -2 -51 -2h-41h-39q-12 0 -64 4h-18q-29 0 -41 -25q-10 -12 -10 -31q0 -4 2 -10t2 -10q31 -61 47 -62q2 0 20 -18q29 -27 74 -100q37 -47 154 -258l4 -9q2 -12 2 -34q0 -16 -23 -33q-59 -53 -176 -154q-33 -29 -43 -37q-66 -55 -151 -127 q-55 -43 -142 -88q-88 -51 -127 -84q-14 -4 -17 -14t-3 -39z" />
<glyph unicode="y" horiz-adv-x="1677" d="M41 -356q0 -51 45 -58q20 -6 51 -6q8 0 21 2h8q29 6 80 6h41q31 0 45 -2q2 0 12 -2h10q43 0 78 35q143 145 277 365q68 109 137 192q31 37 78 96q39 47 53 66q154 195 225 297q104 137 154 190q121 137 176 183q104 88 104 120q0 16 -9 25.5t-32 17.5q-63 14 -151 15 q-63 0 -105 2h-47q-10 2 -30 4q-15 2 -17 2q-47 0 -84 -51v-2q-18 -31 -18 -43q0 -37 49 -37q20 0 25 -23l2 -2q0 -37 -68 -153q-90 -158 -344 -457q-31 -43 -43 -43q-4 0 -6 20v19v-8q-2 -10 -2 -11q0 10 -2 17v6q-96 330 -111 477q-2 12 -2 25q-12 129 -12 164q0 12 4 28 v6q0 49 -107 50q-39 0 -100 -7q-47 0 -80 9q-16 4 -49 8q-4 2 -23 4q0 6 -11 8t-19 2t-35 -18l-6 -4q-41 -41 -41 -60q20 -61 53 -74q18 -6 47 -53q31 -45 74 -188q41 -147 92 -449q2 -8 8 -39q4 -29 6 -39q8 -31 15 -73q0 -2 4 -39q4 -35 6 -47q0 -8 4 -27q4 -23 4 -31 t2 -22v-12q0 -12 -4 -29q-16 -25 -35 -39q-115 -111 -176 -143q-39 -20 -65 -41h-2q-8 -8 -58 -23l-8 -4q-16 -10 -29 -14q-29 -16 -47 -31q-8 -4 -10 -14.5t-2 -42.5z" />
<glyph unicode="z" horiz-adv-x="1658" d="M41 45q6 -49 59 -49q86 6 191.5 8t283.5 2q166 -2 480 -2q72 0 123 49q51 45 86 99q29 47 86 86q41 27 57 77v4q2 6 2 11q0 57 -66 57q-23 0 -77 -33q-45 -27 -64 -41q-170 -94 -325 -120q-162 -31 -175 -31q-57 0 -88 2q-55 0 -79 -2q6 0 8 -5t2 -26q4 8 4 14q2 4 4 9 l4 6q90 96 193 180q68 53 215 188q43 43 139 134q92 88 151 145q152 139 312 268q51 51 51 66q0 41 -59 41q-109 0 -209 -2q-147 -2 -301 -6h-99q-94 -2 -178 -3q-102 1 -106 11q-43 -2 -119 -58q-43 -51 -74 -84q-45 -49 -80 -73q-33 -33 -33 -68q16 -45 33 -51 q12 -6 18.5 -7t18.5 -1q33 0 64 18q39 18 86 55t168 74q96 31 241 31h45q37 -2 45 -2q16 -4 35 -8q-10 0 -10 14q0 -2 -8 -10q-117 -117 -191 -178q-57 -47 -180 -160q-25 -23 -35 -33q-20 -20 -69 -66q-147 -135 -224 -200q-172 -147 -319 -256q-37 -37 -37 -74z" />
<glyph unicode="{" horiz-adv-x="888" d="M41 852q0 -51 72 -98q49 -27 49 -66q-47 -223 -47 -414q0 -6 2 -43v-43q25 -254 166 -311q-39 109 -39 279q0 16 2 45q2 35 2 49q8 193 65 442q0 2 2 8v7q0 55 -77 98q-45 27 -45 53l2 4v4q12 33 92 72q100 53 119 104q86 266 180 451q113 227 262 410 q-164 -61 -354 -320q-145 -246 -232 -520q-12 -33 -96 -76q-104 -57 -123 -115v-10q-2 -8 -2 -10z" />
<glyph unicode="|" horiz-adv-x="645" d="M41 45h127l436 1604h-129z" />
<glyph unicode="}" horiz-adv-x="884" d="M41 -135q160 55 350 309q131 213 232 504q12 41 94 76q106 53 125 110q0 2 2 8v9q0 45 -70 104q-49 35 -49 68q53 238 53 436v41q-2 35 -2 39q-25 260 -168 319q39 -127 39 -270q0 -16 -2 -53q-4 -39 -4 -62q-8 -180 -66 -450v-6q-2 -4 -2 -7q0 -49 70 -100 q51 -33 51 -57l-2 -4t-2 -5q-8 -37 -90 -67q-102 -45 -123 -105q-84 -248 -176 -442q-129 -245 -260 -395z" />
<glyph horiz-adv-x="477" d="M41 1456q-1 -57 22 -84q45 -66 93 -65q27 0 32 8t5 28q0 23 -15 52q-4 12 -4 26q14 8 39 9q70 0 135 43q61 43 82 108q6 14 6 43q0 47 -30 78q-43 49 -121 49q-143 0 -211 -154q-33 -80 -33 -141z" />
<glyph horiz-adv-x="448" d="M41 1556q0 -49 31 -79q41 -47 118 -47q8 0 11 -21q-8 -4 -11 -6q-47 -53 -47 -68q0 -20 6.5 -24t26.5 -4q51 0 119 59q98 70 111 219q0 8 2 19v16q0 131 -146 131q-74 0 -137 -45q-63 -49 -80 -109q-4 -14 -4 -41z" />
<glyph horiz-adv-x="823" d="M41 1456q-1 -57 22 -84q45 -66 93 -65q27 0 32 8t5 28q0 23 -15 52v2q-6 16 -6 28q25 4 41 5q70 0 135 43q66 45 82 110q6 14 6 41q0 47 -30 78q-43 49 -121 49q-137 0 -211 -154q-33 -74 -33 -141zM381 1458q0 -53 27 -86q45 -66 94 -65q39 0 39 39q0 8 -15 32 q-8 20 -8 47q20 4 37 5q72 0 137 43q63 45 82 108q8 14 8 43q0 45 -32 78q-39 49 -121 49q-145 0 -211 -154q-37 -80 -37 -139z" />
<glyph horiz-adv-x="792" d="M41 1556q0 -45 31 -79q43 -47 121 -47q8 0 10 -23q-2 -2 -6 -2t-7 -2q-45 -55 -45 -68q0 -18 6.5 -23t24.5 -5q49 0 121 59q96 68 109 219q0 8 2 19v16q0 131 -144 131q-74 0 -139 -45q-63 -47 -78 -109q-6 -14 -6 -41zM385 1556q0 -49 31 -81q45 -45 116 -45q4 0 11 -17 l-6 -6l-2 -4q-8 -10 -11 -12q-35 -45 -35 -56q0 -18 8.5 -23t24.5 -5q47 0 119 59q94 72 107 219q0 6 2 19q2 10 2 16q0 131 -146 131q-76 0 -133 -45q-66 -45 -84 -109q-4 -14 -4 -41z" />
<glyph unicode="&#xa3;" horiz-adv-x="1916" d="M41 61q0 -4 4 -12q2 -8 2 -12q12 -39 55 -39q276 16 525 18q166 0 304 -3t288 -9q82 0 118 51q2 2 17 23q29 37 43 59q18 23 30 39q16 20 31 39q39 49 80 82l12 12q53 49 78 78q25 27 25 72q-10 47 -68 47q-102 0 -155 -66q-117 -106 -297 -139q-168 -27 -428 -31 q-59 0 -60 19q0 10 6 22q29 61 99 181q51 82 81 188q14 33 15 78h78h264l-14 112h-328q-4 94 -8 144v20q-2 14 -2 19q0 45 14 108q31 92 98 168q47 55 133 98q74 41 119 52q43 6 123 6q53 0 115 -21h35q0 -4 -23 -18q-4 -2 -6 -4q-68 -59 -90 -139q-8 -20 -8 -62 q0 -61 38 -113q57 -70 168 -69q102 0 193 65q96 70 121 162q10 20 10 60q0 16 -8 47q-2 12 -4 18q-39 137 -205 227q-166 82 -387 82q-219 0 -418 -94q-186 -86 -289 -217h-6q-94 -139 -121 -233q-18 -61 -18 -125q0 -2 2 -19v-22q4 -90 4 -140h-94l12 -112h78 q-2 -35 -12 -66q-47 -160 -140 -303q-72 -119 -211 -287q-18 -12 -18 -41z" />
<glyph unicode="&#xad;" d="M41 508h1055l34 106h-1056z" />
<glyph unicode="&#x2000;" horiz-adv-x="954" />
<glyph unicode="&#x2001;" horiz-adv-x="1909" />
<glyph unicode="&#x2002;" horiz-adv-x="954" />
<glyph unicode="&#x2003;" horiz-adv-x="1909" />
<glyph unicode="&#x2004;" horiz-adv-x="636" />
<glyph unicode="&#x2005;" horiz-adv-x="477" />
<glyph unicode="&#x2006;" horiz-adv-x="318" />
<glyph unicode="&#x2007;" horiz-adv-x="318" />
<glyph unicode="&#x2008;" horiz-adv-x="238" />
<glyph unicode="&#x2009;" horiz-adv-x="381" />
<glyph unicode="&#x200a;" horiz-adv-x="106" />
<glyph unicode="&#x2010;" d="M41 508h1055l34 106h-1056z" />
<glyph unicode="&#x2011;" d="M41 508h1055l34 106h-1056z" />
<glyph unicode="&#x2012;" d="M41 508h1055l34 106h-1056z" />
<glyph unicode="&#x2013;" horiz-adv-x="1106" d="M41 508h992l32 106h-993z" />
<glyph unicode="&#x2014;" horiz-adv-x="2130" d="M41 508h1984l64 106h-1986z" />
<glyph unicode="&#x202f;" horiz-adv-x="381" />
<glyph unicode="&#x205f;" horiz-adv-x="477" />
<glyph unicode="&#x25fc;" horiz-adv-x="1187" d="M0 0v1188h1188v-1188h-1188z" />
</font>
</defs>
</svg>
