<?xml version="1.0" standalone="no"?>
<!DOCTYPE svg PUBLIC "-//W3C//DTD SVG 1.1//EN" "http://www.w3.org/Graphics/SVG/1.1/DTD/svg11.dtd" >
<svg xmlns="http://www.w3.org/2000/svg">
<metadata></metadata>
<defs>
<font id="boltonboldregular" horiz-adv-x="1204" >
<font-face units-per-em="2048" ascent="1638" descent="-410" />
<missing-glyph horiz-adv-x="819" />
<glyph horiz-adv-x="0" />
<glyph horiz-adv-x="682" />
<glyph unicode=" "  horiz-adv-x="819" />
<glyph unicode="&#x09;" horiz-adv-x="819" />
<glyph unicode="&#xa0;" horiz-adv-x="819" />
<glyph unicode="!" horiz-adv-x="466" d="M41 162q0 -66 59 -115q49 -45 133 -45q78 0 134 43q59 49 59 117t-59 114q-58 48 -134 48q-82 0 -133 -48q-59 -47 -59 -114zM59 1200q0 -6 2 -47v-49l56 -799q104 51 119 53q16 0 129 -47q0 203 18 412q17 176 31 381q0 33 2 72v63q0 217 -37 328q-61 170 -135 172 q-80 0 -140 -170q-45 -127 -45 -369z" />
<glyph unicode="&#x22;" horiz-adv-x="598" d="M41 1561q6 -115 33.5 -154t89.5 -39q59 0 84.5 39t25.5 154v151h-233v-151zM326 1561q6 -115 32.5 -154t87.5 -39q57 0 84 39t27 154v151h-231v-151z" />
<glyph unicode="#" d="M41 408h346l-57 -316h121l59 316h133l-55 -316h123l57 316h395v106h-379l19 98h360v107h-342l60 334h-123l-60 -334h-137l62 334h-125l-58 -334h-399v-107h379l-17 -98h-362v-106zM526 514l17 98h137l-16 -98h-138z" />
<glyph unicode="$" horiz-adv-x="1359" d="M41 489q0 -18 2 -45v-24v-88v-84q0 -82 45 -94q139 -106 420 -142l-29 -223h109l28 215h91q207 0 407 113q205 117 205 309q-12 238 -223 317q-186 74 -377 109l20 149q63 -16 146 -57q84 -41 129 -92l10 -8q16 -14 29 -23q29 -18 55 -18q72 0 72 57v10q-2 6 -2 9 q-10 29 -39 59q-20 41 -33 111q-8 37 -72 57q-39 10 -67 22q-66 25 -211 41l28 236h-106l-25 -225q-20 2 -82 6v-2q-4 0 -26 2h-27q-147 0 -274 -43q-162 -61 -162 -236q0 -100 68 -162q86 -72 186 -88q55 -25 123 -39q12 -2 37 -8q57 -12 82 -16l-48 -397q-117 29 -178 98 q-76 70 -108 145q-8 12 -23 47q-2 4 -4 13q-20 63 -100 63q-76 0 -76 -74zM381 973q0 29 37 37q68 18 137 20q33 0 76 -6l-19 -156q-23 4 -51 11q-20 4 -31 6q-57 16 -108 45q-41 20 -41 43zM635 182l51 391q88 -18 127 -30q82 -37 123 -76q37 -39 39 -100q0 -84 -84 -138 q-84 -102 -170 -102q0 27 -2 39t-10 12q-23 0 -52 2q-14 2 -22 2z" />
<glyph unicode="%" horiz-adv-x="1392" d="M41 891q0 -125 111 -219q113 -84 268 -84q152 0 264 84q115 92 115 219q0 92 -19 149q47 -2 127 -2q92 0 205 19l-1063 -1055h121l1122 1106l-6 -4q8 0 10 2t11 14v4l45 54h-45v39q-4 -10 -21 -23q-14 -8 -22 -16h-33l-10 -15q-172 -49 -314 -49q-180 0 -393 76v-6 q-51 10 -94 10q-156 0 -268 -88q-111 -92 -111 -215zM293 889q0 92 26 153q29 58 99 58t94 -56q29 -68 35 -155q0 -104 -39 -154q-33 -51 -88 -51q-49 0 -88 29q-39 70 -39 176zM586 295q0 -127 110 -213q106 -88 267 -88q156 0 264 88q115 92 114 213q0 123 -114 215 q-112 88 -264 88q-156 0 -267 -88q-111 -86 -110 -215zM834 295q0 88 30 156q23 53 99 53q70 0 94 -51q27 -66 33 -158q0 -82 -39 -154q-35 -51 -86 -51q-55 4 -91 57q-41 59 -40 148z" />
<glyph unicode="&#x26;" horiz-adv-x="1736" d="M41 598q0 -92 35 -174q94 -238 387 -348q172 -66 340 -66q113 0 248 33q4 0 8 2h6q10 0 16 -6q23 -35 84 -35q139 10 226 10q102 0 249 -10q31 0 43.5 5t12.5 28q0 16 -15 33q-57 70 -98 69q-23 0 -117 78q6 -2 7 -4q0 4 10 8q57 37 90 66q41 35 41 71q-16 35 -23 113 q-2 39 -2 113q0 53 -49 53q-4 0 -10 -2q-10 -2 -14 -2h-9q-55 -16 -55 -74v-16q-25 -84 -106 -176q0 -10 -3 -15l3 -4q-2 2 -9 8q-10 8 -16 17q-12 14 -37 47q-76 94 -125 151q-119 141 -227 287q-33 43 -90 121q-39 45 -80 106l-2 2q-2 0 -4 3q2 2 2 6h10q37 6 115 6 q92 0 155 -12q133 -25 236 -84q35 -27 74 -27l18 4q39 18 39 43q0 14 -29 49q-76 66 -110 113q-25 29 -43 39q-18 16 -72 18q-39 8 -77 10t-93 2q-160 0 -285 -34q-6 -2 -16 -2q-25 0 -39 20q-2 4 -12 16q-12 18 -23 33q-10 12 -24 35q-6 6 -7 8q-16 31 -38 72 q-12 31 -13 43l2 4v2q14 20 41 29q6 4 19 4q20 0 57 -19q57 -35 66 -53q8 -8 8 -14v-2l-2 -4q-8 -16 -8 -47q0 -33 10 -48q12 -27 18 -28q20 -20 49 -21q23 0 37 9q47 20 58 61q6 43 41 70q51 35 81 84q20 23 21 53q0 33 -21 55q-4 8 -6 10q-41 66 -118 101q-68 30 -134 30 q-18 4 -59 5q-59 0 -109 -15q-258 -66 -301 -213q-10 -25 -10 -82q0 -119 92 -276l4 -6q12 -18 13 -27q0 -10 -15 -18q-188 -106 -270 -293q-47 -106 -47 -201zM416 760q0 111 57 182q12 18 23 25q4 -1 6 -15q4 -4 24 -30q20 -27 25 -33l14 -21q27 -33 37 -49 q205 -254 287 -370q8 -14 16 -29q98 -170 123 -215q6 -4 6 -12q0 -2 -20 -3h-23q-20 -2 -24 -2q-145 0 -277 80q-158 96 -223 258q-51 121 -51 234z" />
<glyph unicode="'" horiz-adv-x="315" d="M41 1561q0 -115 27.5 -154t89.5 -39q63 0 89.5 39t26.5 154v151h-233v-151z" />
<glyph unicode="(" horiz-adv-x="458" d="M41 883q0 -360 84 -635q121 -312 293 -375q-104 158 -170 457q-49 252 -49 553q0 303 49 551q66 293 170 460q-174 -70 -293 -378q-84 -274 -84 -633z" />
<glyph unicode=")" horiz-adv-x="452" d="M41 -109q172 70 287 377q84 254 84 635q0 375 -84 633q-113 305 -287 379q104 -182 166 -461q49 -252 49 -551q0 -301 -49 -551q-62 -281 -166 -461z" />
<glyph unicode="*" horiz-adv-x="477" d="M41 1352l18 -19q-12 0 -12 -2q25 0 139 58q6 -111 52 -111q31 0 51 111q94 -57 117 -58l14 6l16 13q0 18 -41 71q-20 25 -73 72q51 45 73 70q41 49 41 71l-12 11l-12 10q-23 0 -123 -60q-20 113 -51 113q-46 0 -52 -115q-104 61 -123 62l-12 -10l-10 -13q0 -14 37 -67 q35 -37 76 -72q-53 -47 -76 -72q-37 -55 -37 -69z" />
<glyph unicode="+" d="M41 508h504v-395h121v395h497v106h-497v396h-121v-396h-504v-106z" />
<glyph unicode="," horiz-adv-x="456" d="M41 137q0 -70 57 -117q49 -49 129 -49q2 0 15 -12v-4q0 -14 -23 -59q-20 -41 -20 -66q0 -18 10 -24.5t16 -6.5q50 0 109 66q39 39 63 119q18 47 19 110v23q-2 16 -2 20q-20 166 -187 166q-74 0 -131 -47q-55 -49 -55 -119z" />
<glyph unicode="-" d="M41 508h1122v106h-1122v-106z" />
<glyph unicode="." horiz-adv-x="466" d="M41 162q0 -66 59 -115q49 -45 133 -45q78 0 134 43q59 49 59 117t-59 114q-58 48 -134 48q-82 0 -133 -48q-59 -47 -59 -114z" />
<glyph unicode="/" horiz-adv-x="974" d="M41 45h137l756 1604h-137z" />
<glyph unicode="0" horiz-adv-x="1759" d="M41 860q0 -354 266 -608q264 -250 572 -250q307 0 571 229q266 231 268 629q0 397 -274 629q-280 231 -565 231q-289 0 -562 -254q-276 -252 -276 -606zM457 788q0 12 2 35t2 33q16 293 108 494q96 192 299 194q207 0 320 -184q98 -168 98 -414q0 -14 -2 -43 q-2 -31 -2 -47q-20 -311 -133 -500q-106 -176 -281 -188q-182 0 -299 192q-113 184 -112 428z" />
<glyph unicode="1" horiz-adv-x="989" d="M41 1139q0 -29 57 -64q14 -10 56 -10l14 2h16q25 4 43 14l13 6q6 4 6 5q12 6 18 10q33 18 51 26q29 10 82 37q4 2 11 2q14 0 20 -2q12 -2 12 -8v-162v-161q0 -45 2 -95v-77q0 -203 -16 -314q-14 -129 -47 -180q-20 -37 -43 -39q-49 0 -78 -84q0 -2 -2 -6t-2 -8 q0 -41 72 -41q31 2 41 4q70 8 100 10q33 0 84 2h61q84 0 133 -2q41 0 111 -8q16 -2 23 -2q70 0 69 51q0 33 -18.5 52.5t-46.5 19.5q2 -2 4 -2q-8 0 -19 -2q-10 0 -20 22q-35 41 -55 168q-8 72 -13.5 186.5t-5.5 296.5v170q0 23 2 119q0 66 2 119q0 82 4 229q0 41 2 107v43 q18 37 19 63q0 63 -64 70h-8q-6 2 -10 2q-29 0 -64 -12q-25 -14 -43 -43q-31 -45 -79 -107q-10 -12 -19 -24q-47 -57 -106 -115q-55 -53 -158 -102q-90 -45 -162 -95q-18 -10 -35 -39q-14 -12 -14 -32z" />
<glyph unicode="2" horiz-adv-x="1579" d="M41 1243q10 -252 260 -379q10 -4 14 -6q18 -8 25 -10q6 -2 18 -8q61 -23 148 -23q258 0 338 133q-2 -2 -4 -2h2q2 4 4 10q8 20 8 29q0 84 -92 84q-31 0 -57 -22q-72 -49 -181 -50q-43 0 -82 21q-45 27 -69 55h-2q-37 55 -37 137q0 100 106 187q111 86 250 86q86 0 129 -6 q45 -10 113 -52q76 -43 108 -96q59 -88 60 -198q-12 -82 -53 -144q-29 -53 -95 -135q-35 -31 -108 -88q-41 -31 -123 -80q-33 -14 -86 -43l-2 -2q-223 -125 -332 -242q-125 -135 -213 -301q-10 -8 -10 -30q0 -18 16 -39q20 -31 56 -31q254 16 485 18q162 0 289 -3t270 -9 q80 0 104 53q29 49 39 86q2 6 13 33q12 29 18 45q20 41 53 80q39 39 64 88q14 12 14 41q0 25 -10 37q-15 39 -64 39q-96 0 -135 -70q-98 -125 -299 -147q-199 -16 -502 -21q-14 0 -24 6q16 0 16 -18q0 4 6 10q106 113 281 197q123 59 348 182q182 98 295 209 q127 113 127 291q0 123 -68 264h-4q-76 133 -245 217q-182 94 -420 94q-305 0 -531 -131q-229 -137 -229 -346z" />
<glyph unicode="3" horiz-adv-x="1693" d="M41 459q0 -172 205 -318q199 -143 497 -143q154 0 306 53q143 49 288 144q135 92 219 200q90 121 97 244q0 125 -30 221t-89 180q-123 172 -375 228h-14q4 8 8 12q111 98 174 147q113 90 193 148q47 43 49 80q-1 61 -58 61q-254 -12 -514 -12q-150 0 -272.5 3t-243.5 11 q-37 0 -59 -24q-23 -23 -29 -39q-86 -125 -180 -213q-29 -23 -39 -76q0 -63 59 -63q92 0 160 79q57 61 264 76q82 8 224 8q82 0 157 -6q8 -2 17 -2q10 0 14 -2l-10 8q-6 -2 -17 -4q-109 -98 -194 -166q-137 -104 -215 -157q-47 -37 -47 -84q0 -55 53 -56q63 0 98 17 q39 14 80 14q190 0 322 -125q102 -98 102 -225q0 -31 -6 -66q-6 -162 -139 -293q-131 -131 -340 -131q-154 0 -258 86q-102 84 -103 187v22q-2 16 -2 21q0 63 31 96q20 29 82 53q88 35 88 84q0 12 -2 23q0 25 -25 39q-18 10 -43.5 14t-72.5 4q-74 -2 -123 -24 q-287 -94 -287 -334z" />
<glyph unicode="4" horiz-adv-x="1622" d="M41 391q0 -72 90 -84h846q27 0 43 -2q-2 0 -2 -24q-4 -96 -14 -121q-10 -18 -23 -25q-6 -2 -10 -4q-25 -12 -41 -16q-35 -14 -86 -90q0 -25 20 -45q27 -16 45 -17q59 6 142 12h26q78 4 109 5q57 0 125 -7q31 -2 84 -10q23 -2 41 -4q70 0 69 55q-6 57 -32 70q-6 4 -13 8 q-12 8 -20 12q-16 6 -35 21q-20 49 -33 151q0 10 6 19q10 12 33 12h74q96 0 96 80v64q0 80 -96 79h-88q-41 0 -43 -8q-4 37 -4 60q-2 35 -2 118q0 88 2 140q4 129 8 395v6q2 96 4 215t4 213q-6 0 -12 8q-8 53 -76 60q-98 -2 -148 -84q-240 -338 -489 -625 q-310 -316 -537 -539q-49 -39 -63 -98zM412 518q2 0 2 -12q0 10 6 16q125 172 287 363q165 160 290 301q2 4 17 16q6 6 16 17h-4q-10 0 -10 -27q-2 -59 -2 -180v-183q2 -33 2 -73q2 -57 2 -72q2 -45 2 -123q0 -29 -12 -29q-25 -2 -45 -2l-533 -10q-4 0 -10 -2h-8z" />
<glyph unicode="5" horiz-adv-x="1609" d="M41 391q0 -229 217 -328q211 -96 508 -96q324 0 567 193q236 186 236 426v18q-2 12 -2 14q0 301 -230 476q-231 178 -555 180q-166 -6 -307 -49h-22q2 0 2 -8q2 12 2 51v49v35v45q-4 12 -4 22q0 -6 18 -6q92 6 274 6q162 0 357 -10q16 -4 24 -4h2q37 0 62 2q49 2 82 57 q41 68 133 154q29 25 29 49q0 16 -15 33q-27 27 -84 26q-23 -6 -59 -26q-10 -8 -41 -17q-123 -12 -268 -12q-25 0 -80 2q-57 2 -88 2q-180 8 -494 29v-2h19q-6 4 -19 4l-10 2q-25 0 -47 -18q-18 -23 -19 -45q8 -106 15 -160q10 -92 10 -160q0 -74 -10 -162q-4 -37 -13 -133 l-2 -20q-2 -27 -2 -82q0 -80 95 -80q27 0 75 31q41 29 131 73q82 31 162 31q39 0 82 -6q176 -23 291 -127q113 -106 119 -285q0 -184 -115 -286q-119 -106 -293 -129h-61q-143 0 -248 75q-96 72 -96 178q0 166 184 203q70 6 70 72q0 72 -82 72q-14 0 -31 2h-27 q-168 0 -293 -74q-145 -88 -149 -287z" />
<glyph unicode="6" horiz-adv-x="1673" d="M41 745q0 -389 258 -579q274 -195 662 -195v2q-20 0 -31 -2h16q236 2 461 181q225 176 225 428q0 152 -57 260t-172 186q-221 152 -543 152q-59 0 -74 -25q-172 -182 -350 -301q-6 -6 -16 -6q6 -2 6 -12q10 168 92 286q88 129 201 215q104 90 229 148q86 43 191 84 q68 0 98 41q8 20 8 30q1 72 -110 72q-184 0 -394 -98q-195 -90 -356 -238q-156 -139 -256 -309q-45 -80 -66.5 -157t-21.5 -163zM485 516q0 137 111 244q121 117 285 117t284 -109q117 -106 117 -252q0 -143 -117 -254q-122 -106 -284 -106q-170 0 -281 141 q-115 133 -115 219z" />
<glyph unicode="7" horiz-adv-x="1521" d="M41 1315q0 -23 12 -35q25 -31 72 -31q106 0 160 84q68 94 327 109q78 6 224 6q121 0 243 -10q25 0 25 -4q0 -2 -4 -2q-176 -293 -434 -697q-227 -326 -365 -661v-6q-2 -6 -2 -9q0 -18 10 -36q10 -25 60 -25q76 10 139 10q61 0 139 -10q6 0 15 -2h6q68 0 86 67 q102 424 295 811q209 410 417 752q14 16 15 39q0 51 -70 51q-35 0 -47 -2q-80 -4 -238 -4q-39 0 -118 2q-82 2 -125 2q-242 10 -480 19h-6h-6q-43 0 -92 -25q-53 -25 -70 -66q-27 -76 -67 -137q-61 -94 -99 -139q-14 -10 -18 -22.5t-4 -28.5z" />
<glyph unicode="8" horiz-adv-x="1615" d="M41 516q0 -244 223 -383q219 -135 527 -135q307 0 544 158q240 166 240 376q0 162 -113 306q-119 139 -303 209q-35 2 -35 6q0 -16 -14 -17l25 15q27 16 39 22q70 45 147 121q68 74 68 160q0 154 -175 266q-173 109 -421 109q-244 0 -426 -113q-178 -119 -179 -281 q0 -117 54 -184q45 -84 104 -133q55 -39 88 -47v10q0 4 -2 6q-139 -80 -264 -199q-127 -123 -127 -272zM393 524q0 123 74 236q78 135 192 135q18 0 109 -27q94 -31 195 -86q94 -51 178 -135q59 -61 59 -162q-20 -190 -133 -256q-110 -67 -270 -77q-86 0 -150.5 23.5 t-124.5 72.5q-115 102 -127 237v21q-2 14 -2 18zM512 1376q0 86 80 142q82 59 199 59q88 -2 192 -64q96 -53 96 -137t-43 -155q-43 -63 -116 -74q-100 0 -256 76q-152 74 -152 153z" />
<glyph unicode="9" horiz-adv-x="1622" d="M41 1157q0 -10 4 -29q2 -18 2 -30q0 -293 258 -445q260 -150 516 -149q57 0 76 22q25 72 70 125q47 45 161 109q4 6 9 6q-2 2 -2 12q-23 -131 -109 -231q-86 -104 -211 -193q-92 -66 -240 -137q-94 -43 -186 -80h-2q-80 -14 -94 -37q-14 -16 -14 -34q-1 -70 110 -70 q190 0 406 94q213 96 389 236q178 145 291 311q55 80 80.5 156.5t25.5 164.5q0 387 -217 576q-221 195 -598 197q-227 0 -487 -177q-238 -166 -238 -397zM375 1253q0 109 86 189q104 86 260 86q47 0 74 -4q211 -25 280 -164q72 -137 88 -225q2 -6 8 -41t7 -43q0 -2 2 -11 v-12q0 -20 -11 -35q-25 -43 -137 -98q-111 -53 -237 -57q-172 0 -271.5 81.5t-136.5 249.5l-2 11q-10 49 -10 73z" />
<glyph unicode=":" horiz-adv-x="466" d="M41 162q0 -66 59 -115q49 -45 133 -45q78 0 134 43q59 49 59 117t-59 114q-58 48 -134 48q-82 0 -133 -48q-59 -47 -59 -114zM41 1020q0 -68 59 -117q53 -43 133 -43q74 0 134 43q59 49 59 117q0 63 -59 117q-58 45 -134 45q-82 0 -133 -47q-59 -53 -59 -115z" />
<glyph unicode=";" horiz-adv-x="458" d="M41 137q0 -70 57 -117q49 -49 129 -49q2 0 15 -12v-4q0 -14 -23 -59q-20 -41 -20 -66q0 -18 10 -24.5t16 -6.5q50 0 109 66q39 39 63 119q18 47 19 110v23q-2 16 -2 20q-20 166 -187 166q-74 0 -131 -47q-55 -49 -55 -119zM41 1018q0 -70 57 -117q53 -47 129 -47t131 45 q59 49 60 119q0 63 -60 117q-51 49 -131 49q-74 0 -131 -47q-55 -49 -55 -119z" />
<glyph unicode="=" d="M41 408h1122v106h-1122v-106zM41 612h1122v107h-1122v-107z" />
<glyph unicode="?" horiz-adv-x="1452" d="M41 1378q0 -86 74 -145q70 -57 170 -57q96 0 172 57t75 145q1 60 -30 103q57 27 131 39q23 4 67 4q59 0 113 -21q84 -33 131 -112q35 -63 35 -162q0 -47 -8 -94q-20 -188 -107 -250q-76 -51 -184 -99q-98 -37 -180 -118q-61 -68 -62 -240q0 -23 2 -57q2 -47 2 -68 q96 51 119 55q25 0 125 -49q0 246 86 303q90 49 223 76q127 20 252 96q127 70 162 359q0 14 2 31v28q0 209 -156 352q-178 166 -501 166q-33 8 -107 9q-150 0 -340 -66q-266 -94 -266 -285zM362 162q0 -70 60 -117q55 -43 135 -43t135 43q59 49 60 117q0 68 -60 114 q-57 48 -135 48t-135 -48q-59 -45 -60 -114z" />
<glyph unicode="@" horiz-adv-x="1724" d="M41 858q0 -360 235 -604q233 -252 570 -252q170 0 311 68q170 80 299 225q-221 0 -356 -59q-96 -51 -254 -52q-258 0 -410 164q-152 213 -151 510q0 279 151 479q147 197 410 197q262 0 418 -199q162 -195 161 -477q0 -149 -47 -260q-6 -8 -6 -18q-10 -10 -22 -25 q-16 -18 -23 -23h29q-18 -53 -47 -53h-33q-18 41 -23 117q0 33 -2 51v53q2 55 2 101q2 76 2 100v96q4 10 7 31q0 6 2 21q0 27 -23 41q-94 51 -213 77q-106 25 -211 25q-186 0 -379 -117q-14 -4 -17 -12t-3 -23q0 -23 28 -51q37 -25 62 -24q18 0 31 12q102 78 272 78 q49 -2 117 -13q53 -6 67 -22q14 -23 17 -41q0 -18 -41 -18h-33q-14 4 -41 4q-221 0 -383 -60q-168 -63 -168 -282q0 -172 186 -232q76 -25 179 -24q113 0 204 30q45 14 86 15q31 0 58 -11q37 -16 88 -34l8 -2q61 -43 154 -58q104 0 180 70q70 68 110 158q47 109 62 180 q23 94 22 143q0 352 -253 606q-254 252 -584 252q-332 0 -570 -252q-236 -248 -235 -606zM629 649q0 80 73 139q78 64 281 66q2 0 6 -2q12 -4 19 -6q2 -2 2 -12q0 -6 -4 -39q-2 -20 -5 -39q0 -51 -2 -72q-2 -23 -2 -61q-4 -45 -28 -58q-2 -2 -8 -6q-6 -2 -9 -4l-12 -6 q-2 -2 -4 -2q-82 -37 -150 -37q-43 0 -77 18q-80 41 -80 121z" />
<glyph unicode="A" horiz-adv-x="2179" d="M41 43q0 -23 16.5 -31t51.5 -8q29 2 41 2q141 6 206 8q92 0 232 -10q57 0 74 37q12 16 12 43q0 45 -41 45q-18 4 -51 18q-16 8 -25 43q0 57 53 164q5 13 11 13h864q20 -2 28 -27q47 -109 50 -145q0 -31 -11 -41q-12 -16 -28 -23q-41 -10 -41 -84q8 -29 59 -41 q16 -2 51 -2q160 8 234 10q84 0 244 -10q37 0 51 25q16 27 16 43l-6 12q-33 68 -68 68q-16 0 -45 34q-51 47 -131 185q-88 147 -248 491l-10 15l-368 774q-4 4 -7 8q-37 45 -61 45q-20 -4 -55 -4h-52q-16 -2 -43 -2q-113 0 -219 2q-172 4 -223 8q-31 0 -49 -27 q-6 -12 -6 -30q0 -2 2 -6q2 -6 2 -9q18 -84 192 -96q137 -6 150 -86q0 -68 -80 -188q-88 -131 -229 -420q-209 -377 -283 -492q-94 -141 -141 -184q-29 -35 -43 -35q-25 0 -66 -59q-10 -14 -10 -33zM694 545q0 8 2 16v12q29 72 54 113q14 27 18 33q41 74 61 106 q39 76 121 232q74 147 107 207l2 4q0 4 2 4q6 0 8 -12q90 -137 213 -437q27 -53 72 -141q23 -39 57 -113q4 -8 4 -22q0 6 -4 6h-715q-2 0 -2 -8z" />
<glyph unicode="B" horiz-adv-x="2162" d="M41 1690q6 -78 61 -82q23 0 48 -25q35 -61 55 -233q16 -115 16 -316q0 -35 -2 -92q-2 -80 -2 -113q-12 -360 -39 -503q-29 -154 -53 -195q-14 -37 -29 -37q-51 0 -51 -78q0 -49 70 -49q135 8 235 13h121q10 0 59 -3q33 0 60 -2h2h2h10h19q18 -2 86 -2q143 0 352 -4 q102 0 169.5 3t121.5 14q479 74 620 245q147 178 150 342q-2 223 -170 351q-158 121 -428 180q4 0 4 -6q2 2 6 2q352 100 352 284q0 43 -35 115q-39 76 -182 139q-137 57 -416 93q-123 16 -325 16q-172 0 -434 -16h-78q-25 2 -78 2q-100 0 -227 10q-37 0 -53.5 -11.5 t-16.5 -41.5zM551 1186v43v4q14 176 24 227q10 61 27 107q6 24 33 24h2q563 -6 700 -55q125 -43 125 -145q0 -123 -198 -168q-100 -23 -259 -34t-399 -11q-53 0 -55 8zM563 840q0 72 2 104v10q4 53 4 82q0 -2 29 -2q70 -4 162 -8h12h164q262 -25 410 -72q139 -41 215 -104 q70 -57 84 -119q18 -78 20 -135q-18 -111 -51 -188q-29 -78 -117 -134q-90 -61 -272 -98q-195 -37 -504 -45q-45 0 -59 8q-16 10 -33 58q-35 70 -54 213q-6 74 -9 171t-3 259z" />
<glyph unicode="C" horiz-adv-x="2197" d="M41 856q0 -352 324 -604q324 -246 778 -246q182 0 428 39q256 37 401 109q86 35 86 75q0 51 35 156q29 92 59 158q0 4 2 8t3 8q0 20 -27 43q-27 20 -57 21h-5q-74 0 -92 -66l-8 -25q-100 -131 -303 -237q-205 -109 -377 -109q-279 0 -547 191q-264 184 -264 469t215 483 q215 205 494 205q12 0 28 2h25q195 0 397 -78q223 -88 344 -229q37 -57 82 -58h23q55 0 61 43q0 20 -2 41q-2 8 -2 15q-70 98 -92 194q-10 16 -35 35q-23 49 -92 82q-215 86 -403 107q-172 20 -377 20q-197 0 -391 -68q-193 -66 -353 -182q-152 -111 -258 -268 q-100 -160 -100 -334z" />
<glyph unicode="D" horiz-adv-x="2093" d="M41 53q0 -31 15.5 -40t49.5 -9q31 2 115 2q35 -2 113 -2h55h72q33 0 94 4q90 4 104 6q575 39 979 299q414 266 414 596q-14 254 -141 414q-125 156 -326 242q-209 84 -448 110q-266 31 -506 33q-4 4 -23 4q-84 0 -114 -6h-25q-41 -2 -74 -2h-127q-70 0 -125 8 q-66 0 -65 -55q6 -70 47 -76q10 -2 25 -43q18 -45 34 -199q10 -106 11 -254q0 -41 -2 -110q-2 -96 -3 -141q-12 -342 -36 -490q-27 -150 -45 -184q-12 -31 -21 -31q-47 0 -47 -76zM543 842q2 244 16 409q13 132 33 222q0 23 10 67h47q377 -8 672 -133q287 -115 301 -500 q0 -260 -295 -467q-297 -213 -721 -241q-14 0 -18 -4q-2 16 -6 24q-20 61 -33 207q-4 53 -5 135t-1 281z" />
<glyph unicode="E" horiz-adv-x="2023" d="M41 53q0 -31 15.5 -40t52.5 -9q156 8 235 8h238q43 0 219 -2q119 0 219 -2q74 0 307 -2q139 0 307 -2q45 0 70 25q25 20 51 45q39 45 96 100q16 18 50 43l4 2q35 23 55 39q23 14 22 70q0 63 -73 63q-37 0 -111 -37q-57 -29 -106 -45q-160 -78 -457 -108 q-276 -25 -442 -25q-23 0 -50 2h-47q-88 4 -123 74q-29 61 -32 201q0 119 2 252v141v92q2 12 2 37t2 39q0 6 8 6h537h10q184 -4 284 -10q143 -8 183 -88q25 -57 78 -58h6q82 0 82 58v6l-2 6q-20 102 -21 180q0 74 21 166q0 4 2 10v6q0 57 -76 58h-2q-39 0 -55 -58 q-6 2 -27 7q-88 -70 -205 -95q-124 -26 -304 -26h-13h-473q-25 0 -25 6q2 31 4 59q6 76 12 109q10 74 21 114q6 27 29 60q17 22 74 22h5q25 0 111 -2q51 0 111 -2q82 -2 260 -8l45 -2q160 -12 307 -37q143 -25 219 -71q55 -47 135 -48h19q27 0 45 13q23 0 22 30q0 16 -20 39 l-4 4q-80 68 -111 101l-16 16q-66 61 -103 88q-31 25 -69 31q-43 12 -74 12h-16q-25 0 -29 -2q-330 0 -590 -8q-268 -8 -596 -8q-123 0 -235 14q-70 0 -70 -55q6 -74 59 -74q18 -2 43 -43q35 -53 56 -199q14 -88 14 -274q0 -37 -2 -100q-2 -88 -2 -127q-12 -350 -39 -492 q-29 -145 -55 -186q-12 -33 -25 -33q-49 0 -49 -76z" />
<glyph unicode="F" horiz-adv-x="1900" d="M41 1657q6 -74 59 -74q18 -2 43 -43q35 -53 56 -199q14 -98 14 -303v-88q-2 -57 -2 -108q-4 -25 -4 -37q-2 -12 -2 -39q-12 -307 -35 -444q-23 -133 -41 -168q-8 -25 -14 -25q-43 0 -43 -76q0 -49 63 -49l43 2q143 6 197 8q59 0 129 -6q23 -2 84 -8l45 -6q70 0 69 51 q0 68 -40 78q-16 4 -33 22q-23 31 -43 105q-21 79 -31 278q0 74 -8 142q-2 33 -2 164q0 63 2 92v78q0 4 8 4l408 -4q131 -2 294 -13q147 -10 183 -88q25 -57 78 -57h4q82 0 82 57v6l-2 6q-18 96 -19 181q0 84 19 170q0 6 2 10v4q0 57 -72 57h-6q-41 0 -56 -26 q-12 -16 -22 -23q-86 -68 -209 -96q-129 -27 -319 -27l-340 4q-25 0 -25 7q2 29 6 63q4 78 10 111q10 80 21 120q6 27 29 60q17 22 76 22h5q66 -2 201 -6q143 -4 266 -14q137 -14 267 -43q121 -25 202 -72q57 -47 136 -47h20q31 0 47 14q12 4 15.5 12.5t3.5 20.5t-19 35 l-6 6q-76 63 -111 98q-55 55 -116 105q-31 23 -72 31q-45 12 -74 12h-18q-14 0 -23 -2q-379 0 -538 -2q-160 -2 -537 -2q-121 0 -235 14q-70 0 -70 -55z" />
<glyph unicode="G" horiz-adv-x="2246" d="M41 856q0 -352 324 -604q324 -246 778 -246q182 0 442 57q254 49 412 127q78 51 78 86l-11 11q-2 4 -2 6q-10 25 -16 37q0 215 3 323.5t9 165.5q18 160 43 203h39q51 0 66 76q0 20 -33 45q-14 10 -49 10q-23 -2 -74 -4q-35 -2 -51 -2q-45 -2 -121 -2h-125q-61 0 -123 6 q-41 0 -58.5 -10.5t-17.5 -38.5q6 -68 48 -74q8 0 26 4h6q25 -41 43 -149q23 -85 29 -316q-8 -88 -11 -149.5t-3 -114.5q0 -39 -88 -63q-80 -27 -148 -37q-31 -4 -129 -13q-31 -4 -39 -4q-279 0 -553 183q-131 88 -194.5 203.5t-63.5 273.5v28q-2 25 -2 29q0 264 182 440 q205 195 478 195q20 0 43 2h39q180 0 329 -45q180 -49 385 -197q35 -55 92 -55h21q53 0 61 41q0 2 2 10v9q0 25 -14 45q-47 68 -70 122q-29 61 -96 109q-215 86 -407 109q-172 20 -377 20q-389 0 -744 -225q-358 -233 -358 -627z" />
<glyph unicode="H" horiz-adv-x="2041" d="M41 53q0 -31 15.5 -40t52.5 -9q150 10 237 10q100 0 240 -10q37 0 51 11.5t14 37.5q0 80 -47 82q-14 0 -33 37q-25 39 -47 184q-10 88 -10 312q0 10 2 80v94v90v84v6q2 4 2 10q0 -6 19 -6q55 -2 129 -2q72 0 127 -2q84 -2 258 -2q147 0 221 2q78 0 225 4q20 0 21 8 q2 -8 2 -20v-82q-2 -53 -2 -98q-12 -348 -33 -488q-23 -147 -41 -186q-6 -31 -12 -31q-41 0 -41 -76q0 -49 63 -49q147 10 240 10q92 0 239 -10q39 0 53.5 11.5t14.5 37.5q0 80 -49 82q-14 0 -31 35q-25 39 -47 186q-14 100 -14 320q0 10 2 76v88q2 352 26 518 q23 150 45 190q10 29 21 29q47 0 47 78q0 55 -70 55q-117 -14 -237 -14q-106 0 -238 14q-66 0 -65 -55q6 -63 45 -70q18 -8 32 -26q23 -20 39 -89q8 -27 10.5 -73.5t2.5 -173.5q0 -20 -15 -21q-51 2 -114 2t-115 2q-74 2 -225 2q-172 0 -256 -2l-64 -2l-186 -4q-18 0 -19 10 q2 190 23 269q16 66 37 84q16 16 26 18q39 6 39 76q0 55 -67 55q-117 -14 -238 -14q-123 0 -235 14q-70 0 -70 -55q6 -70 51 -76q18 -4 31 -43q23 -45 41 -199q10 -109 10 -266q0 -39 -2 -106q-2 -92 -2 -133q-12 -317 -33 -488q-20 -133 -39 -184q-8 -33 -14 -33 q-43 0 -43 -76z" />
<glyph unicode="I" horiz-adv-x="692" d="M41 53q0 -31 15.5 -40t49.5 -9l33 2q139 6 207 8q100 0 240 -10q37 0 51 11.5t14 37.5q0 80 -49 80q-14 0 -31 35q-25 35 -47 184q-10 88 -10 314q0 10 2 79v97q4 367 25 516q23 150 45 190q10 29 20 29q45 0 45 80q0 55 -67 55q-117 -14 -238 -14q-122 0 -237 14 q-68 0 -68 -55q6 -70 51 -76q18 -4 31 -43q23 -45 41 -199q10 -109 10 -266q0 -39 -2 -106q-2 -92 -2 -133q-12 -317 -33 -490q-20 -137 -39 -186q-10 -29 -14 -29q-43 0 -43 -76z" />
<glyph unicode="J" horiz-adv-x="1150" d="M41 -313q0 -41 35 -62q27 -20 67 -20q94 10 203 47q43 14 166 61l29 13q96 41 207 116q104 70 231 123q8 0 45 31q18 12 24.5 30.5t6.5 55.5q-18 98 -35 115q-8 10 -14 51q-6 29 -17 164q-8 121 -18 432q-10 127 -10 321q0 121 6 195q18 139 45 186q23 31 41 31 q57 0 57 80q0 55 -70 55q-117 -14 -237 -14q-121 0 -238 14q-45 0 -63.5 -12t-18.5 -43q6 -70 54 -76q18 -2 36 -45q23 -43 43 -199q12 -66 13 -282v-101q-2 -63 -2 -120q-12 -332 -29 -463q-14 -158 -35 -242q-14 -51 -31 -72q-20 -20 -26 -49q-70 -88 -172 -145 q-111 -57 -201 -86l-8 -4q-37 -12 -49 -23q-35 -20 -35 -63z" />
<glyph unicode="K" horiz-adv-x="2000" d="M41 53q0 -31 15.5 -40t52.5 -9q150 10 237 10q100 0 240 -10q27 0 41 2q47 6 47 43q-6 74 -53 74q-16 0 -31 16q-25 18 -43 84q-20 96 -21 303q0 41 4 54q4 4 29 22q29 20 39 29q41 31 80 67q41 33 94 64q8 8 37 24l6 5q0 -8 -14 -9q12 0 30 -24q272 -287 367 -424 q88 -111 88 -158q0 -25 -29 -31q-70 -12 -69 -102q12 -31 72 -37q18 -2 57 -2h55q63 2 113 2h174q76 0 110 -2q43 0 86 2h39q33 25 33 55q0 16 -10 37q-55 61 -86 62q-18 0 -62 30q-47 33 -188 181q-125 137 -397 487q-20 23 -39 51q-19 20 -37 47l-2 5q-20 23 -29 40h2 q0 20 37 46q336 272 479 372q147 102 199 125q35 20 43 21l6 -2q23 0 94 51q14 4 18.5 12t4.5 21q0 20 -25 41q-29 23 -57 22q-49 -4 -135 -8q-49 -2 -129 -2q-94 0 -162 2q-111 4 -147 10q-51 0 -95 -37l-2 -4q-18 -31 -18 -43q0 -53 70 -53q45 -2 45 -37q0 -55 -144 -199 q-135 -147 -616 -514q-20 -25 -31 -24l2 -2v4v39q-4 94 -4 250q0 150 8 280q23 150 51 189q16 31 39 30q55 0 66 72q0 45 -49 45q-12 2 -15 2q-18 2 -28 2q-131 -14 -238 -14q-123 0 -235 14q-70 0 -70 -55q6 -70 55 -76q12 -2 33 -45q23 -43 43 -199q10 -66 10 -276v-100 q-2 -68 -2 -127q-12 -342 -37 -490q-23 -143 -41 -186q-12 -29 -26 -29q-8 -6 -21.5 -24.5t-13.5 -51.5z" />
<glyph unicode="L" horiz-adv-x="1902" d="M41 53q0 -27 14.5 -38t55.5 -11l53 2q119 6 168 8q78 0 123 -2q268 -6 522 -6q170 -2 516 -2q86 4 137 74q12 16 41 53q8 12 29 37q2 4 12 16q23 31 62 56q45 31 69 63q18 12 19 53v15q-2 12 -2 14q-8 43 -70 43h-18q-100 0 -162 -76q-33 -37 -224 -102 q-205 -74 -423 -78h-132h-135q-63 0 -84 10q-18 18 -24 41q-23 61 -33 207q-6 63 -6 246q0 10 2 78v88q6 367 31 516q25 143 53 188q16 31 33 31q51 0 51 80q0 23 -47 45q-29 10 -54 10q-74 -8 -143 -10h-20q-84 -4 -123 -4q-72 0 -94 2q-38 0 -99 6q-2 0 -2 2 q-61 0 -61 -55q6 -70 45 -76q16 -2 31 -39q18 -39 38 -199q10 -109 11 -266q0 -39 -2 -106q-2 -92 -2 -133q-12 -362 -37 -490q-27 -152 -49 -184q-8 -31 -21 -31q-49 0 -49 -76z" />
<glyph unicode="M" horiz-adv-x="2627" d="M41 1647q27 -68 82 -88q47 -16 100 -25q47 -10 90 -33q45 -25 68 -86q12 -33 19.5 -79t7.5 -117q0 -178 -2 -312v-73q0 -190 -6.5 -309t-18.5 -189q-25 -141 -55 -182q-20 -29 -43 -29q-55 0 -56 -76q0 -29 16.5 -40t61.5 -11q59 6 137 6h142h71q27 -6 74 -10q68 0 68 51 q0 80 -52 84q-16 0 -40 39q-31 47 -54 186q-14 129 -14 334q0 10 2 72v82q0 74 -2 135v27q0 18 2 65q2 92 4 129v21q6 0 19 -33q82 -117 165 -232q96 -139 207 -292q49 -66 148 -185q14 -18 35 -43q74 -123 88 -153q27 -31 51 -31q23 0 53 37l72 116q174 279 258 418 q141 209 327 477v9l5 -2q4 4 4 6q-2 -14 -2 -31q-12 -119 -21 -176q-16 -131 -16 -270q0 -207 -3 -328t-14 -184q-16 -145 -39 -183q-6 -20 -8 -20q-6 2 -10 2l-6 2q-45 0 -45 -70q0 -31 14 -40t51 -9q158 8 238 10q88 0 237 -10q41 0 55.5 11.5t14.5 37.5q0 76 -49 76 q-14 0 -27 29q-20 35 -43 184q-20 164 -20 500q0 203 7 325.5t21 194.5q25 135 64 182q20 27 37 27l8 -2q68 0 68 76q0 53 -58 53q-43 -4 -157 -8q-55 0 -91 2t-63 4q-23 6 -55 6q-33 0 -56 -14q-178 -211 -362 -488q-182 -279 -336 -491q2 4 6 4q2 0 2 -2 q-164 207 -336 440q-152 231 -350 498q-12 27 -39 39q-6 6 -31.5 7t-119.5 1q-74 -2 -160 -8h-4q-59 0 -127 4h-4q-27 2 -94 10l-41 4q-70 0 -70 -59z" />
<glyph unicode="N" horiz-adv-x="2238" d="M41 1667q27 -68 88 -90q57 -16 107 -25q57 -10 102 -28q47 -23 72 -88q18 -43 18 -119q0 -16 -2 -41q-2 -31 -2 -45q-6 -66 -9 -158t-3 -244q0 -193 -6.5 -309.5t-20.5 -185.5q-25 -131 -59 -180q-25 -31 -47 -31q-59 0 -60 -74q0 -29 17.5 -40t62.5 -11q59 6 137 6h142 h81h9q41 -6 80 -10q39 0 53 13t14 40q-14 90 -70 90q-29 0 -51 25q-31 41 -51 168q-8 53 -8 221q0 123 6 285q0 33 2 96q4 68 4 110q6 156 12 232q0 6 3 16v6q8 0 16 -34q45 -63 211 -252q156 -160 334 -334q35 -41 116 -139q147 -176 220 -261q37 -39 124 -133 q72 -75 95 -102v-31q27 0 41 2h-15q14 -20 21 -20q18 -18 63 -19q16 0 43 7q39 10 58.5 23t25.5 20q-8 59 -8 180q0 147 2 227q0 84 4 232q0 88 4 174q6 381 31 530q25 143 55 188q16 31 35 31q59 0 60 76q0 55 -70 55q-27 -2 -78 -10q-29 -4 -31 -4q-57 -4 -98 -4 q-123 0 -240 14q-33 0 -49 -12t-16 -43q0 -72 61 -72q20 0 47 -39q35 -55 58 -196q16 -111 16 -297q0 -39 -2 -103q-2 -82 -2 -116v-19q-4 -94 -4 -135q-2 -63 -6 -131q0 -31 8 -31h-2q-29 23 -53 53q-18 20 -121 138q-80 90 -121 137q-94 102 -268 295q-168 184 -254 280 q-131 150 -191 228q-14 29 -41 41q-29 10 -147 12q-25 0 -57 2h-39q-18 0 -41 -2h-25q-59 0 -158 6q-63 6 -122 12q-23 2 -41 4q-39 0 -54.5 -11t-15.5 -46z" />
<glyph unicode="O" horiz-adv-x="2287" d="M41 856q0 -352 324 -604q324 -246 778 -246q453 0 778 246q326 254 326 604q0 170 -103 334q-106 158 -260 268q-160 117 -352 182q-196 68 -389 68q-197 0 -391 -68q-193 -66 -353 -182q-152 -111 -258 -268q-100 -160 -100 -334zM477 846q0 283 195 483 q199 205 473 205t481 -182q96 -88 142.5 -210t46.5 -296q-12 -319 -205 -504q-190 -178 -465 -178q-272 0 -473 201q-195 201 -195 481z" />
<glyph unicode="P" horiz-adv-x="1896" d="M41 53q0 -31 15.5 -40t49.5 -9l33 2q139 6 207 8q100 0 240 -10q37 0 51 11.5t14 37.5q0 55 -24 68q-2 2 -9 6q-8 6 -18 12q-14 16 -31 41q-16 25 -32 109v12q-2 8 -2 10q0 20 26 27q39 10 131 29q535 92 844 295q319 207 319 430q0 256 -169 387q-170 129 -402 180 q-238 51 -491 51q-256 -2 -447 -12q-122 0 -237 14q-68 0 -68 -55q6 -70 51 -76q18 -4 31 -43q23 -45 41 -199q10 -109 10 -266q0 -39 -2 -106q-2 -92 -2 -133q-6 -334 -23 -494q-18 -145 -38 -184q-6 -27 -17 -27q-51 0 -51 -76zM516 678v164q0 270 19 450q25 172 34 219 q4 14 17 25q10 8 63 8q498 -20 647 -158q139 -135 140 -307q0 -160 -267 -317q-272 -166 -587 -248q-10 -4 -31 -4q-8 0 -10 2q-8 8 -17 33q-4 41 -8 133z" />
<glyph unicode="Q" horiz-adv-x="2287" d="M41 856q0 -207 117 -389q117 -180 313 -295q72 -43 137 -74q23 -10 68 -28q76 -33 117 -50q-10 0 -11 15q0 2 -2 2l-2 2q-2 -2 -8 -10q-10 -10 -22 -25q-35 -35 -62 -57l-10 -8q-66 -55 -92 -80q-47 -45 -47 -60q0 -12 5 -19t9 -9q6 -2 10 -11q0 -36 50 -36h3q4 0 21 2 q23 2 31 2q55 49 198 49q139 -2 310 -23q135 -18 307 -47q133 -20 178 -20q8 0 18 2h11q6 2 53 22q18 8 43 19q49 25 160 77l12 7q96 47 145 71q82 53 117 86q-20 0 -41 15q0 65 -95 65h-3q-147 -90 -437 -102q-188 0 -333.5 10t-292.5 35q-18 -6 -23 -17v13q-2 12 -2 20h25 q4 0 12 -2h10q37 -2 105 -2q453 0 778 246q326 254 326 604q0 170 -103 334q-106 158 -260 268q-160 117 -352 182q-197 68 -389 68q-197 0 -391 -68q-193 -66 -353 -182q-152 -111 -258 -268q-100 -160 -100 -334zM477 846q0 283 195 483q199 205 473 205t481 -182 q96 -88 142.5 -210t46.5 -296q-12 -319 -205 -504q-190 -178 -465 -178q-272 0 -473 201q-195 201 -195 481z" />
<glyph unicode="R" horiz-adv-x="1927" d="M41 53q0 -31 15.5 -40t49.5 -9l33 2q139 6 207 8q100 0 240 -10q37 0 51 11.5t14 37.5q0 55 -24 68q-2 2 -9 6q-8 6 -18 12q-14 16 -31 41q-16 25 -32 109q0 4 -2 12v10q0 20 26 27q33 8 111 24q6 2 20 5q8 2 25 4q33 4 47 8q14 2 35 6q20 4 35 6q59 14 110 15 q29 -2 100 -80q123 -125 146 -164q16 -16 16 -35q-4 -4 -12 -4q-37 -8 -37 -57v-13q2 -12 2 -20q12 -29 90 -29h76q133 10 221 10q90 -8 133 -8q63 0 136 10q29 0 40 5.5t11 27.5q0 8 -17 35q-47 53 -77 55q-20 4 -66 25q-45 23 -131 96q-65 53 -264 268q-8 4 -8 7q0 4 16 8 l4 2q59 31 121 59q199 106 315 227q127 131 127 261q0 254 -176 387q-168 127 -410 180q-246 51 -503 51q-260 -2 -451 -12q-123 0 -237 14q-68 0 -68 -55q6 -70 51 -76q18 -4 31 -43q23 -45 41 -199q10 -109 10 -266q0 -39 -2 -106q-2 -92 -2 -133q-6 -334 -23 -494 q-18 -145 -38 -184q-6 -27 -17 -27q-51 0 -51 -76zM516 678v164q0 270 19 450q25 172 34 219q4 14 17 25q10 8 63 8q287 -8 445 -55q152 -39 233 -105q74 -59 90 -135q18 -80 19 -170q0 -160 -267 -317q-274 -168 -585 -248q-12 -2 -29 -2h-14q-8 8 -17 33q-4 41 -8 133z " />
<glyph unicode="S" horiz-adv-x="1867" d="M41 356q0 -90 72 -108q145 -102 370 -172q227 -72 516 -72q303 0 568 160q260 162 260 440q-6 199 -121 307q-111 111 -270 174q-158 61 -351 103q-199 43 -348 90q-106 37 -166 70q-72 35 -71 71q0 53 75 90q80 41 207 41q14 4 49 4q125 0 306 -84q213 -104 266 -215 q29 -73 111 -73h2q41 0 61 24q23 23 22 41q0 4 -2 13q-4 8 -4 12q-41 78 -61 121q-18 39 -43 116q-27 82 -111 82h-28q-10 4 -27 4q-201 104 -512 127v-6q-248 -2 -420 -71q-186 -78 -201 -297q0 -117 105 -197q102 -80 242 -137q139 -57 311 -94q18 -4 26 -7 q201 -47 295 -75q139 -41 232 -125q90 -80 90 -191q0 -137 -164 -235q-123 -96 -229 -97l14 11q-63 -10 -96 -11q-178 0 -306 35t-225 107q-203 143 -239 278q-2 104 -92 105q-92 0 -93 -113q0 -53 -10 -121q-10 -53 -10 -125z" />
<glyph unicode="T" horiz-adv-x="2088" d="M41 1368q0 -4 16 -10q25 -66 74 -66h2q104 0 152 72q53 70 225 121q168 51 293 65q8 0 16 2h12q-8 0 -8 17q6 -18 13 -43q12 -80 18 -240q0 -199 -2 -366q-2 -57 -2 -86q-14 -322 -39 -490q-29 -147 -53 -182q-12 -33 -25 -33q-43 0 -43 -76q0 -31 14.5 -40t49.5 -9 q23 0 84 4q33 2 53 2q14 0 31 2q68 2 104 2q104 0 258 -10q39 0 53.5 11.5t14.5 37.5q0 80 -49 82q-14 0 -33 37q-29 41 -51 184q-20 141 -21 486q0 311 10 446q10 172 21 242l6 18q8 20 8 21q0 -16 -8 -17h12q10 -2 19 -2q109 -10 284 -55q168 -41 236 -125q49 -78 160 -78 q41 0 75 29q27 18 27 45q0 16 -16 39l-29 31q-59 63 -96 100q-68 66 -99 129q-31 61 -131 61q-293 -10 -600 -18q-76 -4 -235 -4q-215 0 -453 12q4 0 6 2h-14h-70q-49 0 -84 -82q-25 -49 -73 -106q-27 -31 -70 -88q-23 -29 -27 -35q-16 -14 -16 -39z" />
<glyph unicode="U" horiz-adv-x="2017" d="M41 1665q6 -72 51 -78q16 -2 31 -39q23 -49 39 -200q12 -127 12 -267q0 -31 -2 -104q-4 -86 -4 -137q0 -27 -4 -95q-4 -59 -4 -65q0 -29 -4 -96q-2 -39 -4 -68h4v-8v-35q6 -285 131 -387q59 -45 136 -67.5t183 -22.5q203 10 414 76q254 74 434 104q4 6 8 6q0 2 -6 2 q-14 -55 -33 -55q-57 0 -57 -80q0 -31 15.5 -41t50.5 -10q133 12 239 12q104 0 240 -12q66 0 65 51q0 80 -51 80q-12 0 -29 35q-25 37 -45 184q-6 66 -10 177.5t-4 312.5q6 375 27 516q23 150 45 190q10 29 20 29q47 0 47 80q0 55 -61 55q-4 -2 -6 -2q-131 -12 -238 -12 q-109 0 -237 12h-4q-4 2 -11 2q-53 0 -53 -55q6 -70 49 -76q16 -2 31 -43q23 -45 41 -201q10 -59 10 -246q0 -41 -2 -112q-2 -100 -2 -146v-79q-2 -82 -2 -164q0 -41 2 -105v-78q0 -38 -121 -61q-135 -37 -303 -70q-170 -31 -276 -32q-90 0 -138.5 7t-74.5 23 q-55 37 -62 310h-4v49q-2 31 -2 59q0 45 4 143v19q4 360 29 514q25 160 53 213q10 -2 31 -2q51 0 51 78q0 23 -41 49q-29 16 -57 16q-125 -12 -238 -12q-100 0 -235 12q-68 0 -68 -53z" />
<glyph unicode="V" horiz-adv-x="2099" d="M41 1679q0 -18 12 -32q41 -57 72 -58q20 0 53 -43q43 -37 144 -207q100 -174 272 -538q31 -74 94 -211q43 -94 64 -144q41 -90 106 -245q29 -66 45 -105q33 -108 129 -108h2q76 0 133 104q8 16 25 53l6 13q31 74 47 118q16 29 33 56q16 29 20 37q23 43 27 47 q27 63 90 186q47 80 121 244q164 360 246 504q82 141 123 186q33 37 47 37q37 0 94 69q12 12 12 33q0 39 -63 39q-57 -8 -115 -8q-37 -2 -113 -2h-139q-84 0 -133 8q-78 0 -78 -47q-6 -12 -6 -29q0 -51 55 -51q27 0 39 -33q6 -8 6 -34q0 -45 -26 -152q-45 -174 -211 -512 q-31 -61 -80 -176q-39 -86 -72 -150q-6 -33 -10 -32q-12 8 -27 41l-14 26q-35 70 -51 107q-18 47 -53 118q-10 25 -23 52q-195 369 -248 530q-34 108 -34 157q0 11 2 21q2 8 2 11q10 16 32 16q55 0 56 49q0 10 -9 35l-2 6q-10 27 -27.5 37t-51.5 10q-57 -6 -158 -6 q-70 -2 -160 -2q-106 0 -246 12q-35 0 -47 -5t-12 -32z" />
<glyph unicode="W" horiz-adv-x="2742" d="M41 1686q0 -2 2 -9q2 -8 2 -14q76 -92 105 -92q16 0 38 -27q31 -39 107 -190q90 -197 240 -553q61 -133 155 -350q43 -106 105 -261q23 -59 34 -90q37 -108 146 -108h2q82 0 137 102h-22q74 254 131 432q78 254 131 467q0 6 6 13q-6 0 -12 -13q43 -113 122 -340 q12 -39 39 -114q41 -123 115 -328l45 -129q43 -86 135 -86q88 2 133 106q16 43 37 97q12 41 21 59q10 29 28 80l9 27q20 47 20 51q23 49 76 182q61 154 106 248q174 385 238 504q76 152 104 190q20 33 29 33q23 0 84 69q12 12 12 33q0 25 -14 32t-51 7q-51 -8 -113 -8 q-35 -2 -110 -2q-113 0 -218 12q-41 0 -57 -11t-20 -42q0 -4 -2 -12q-2 -6 -2 -11q0 -53 55 -53q29 -4 41 -39q4 -10 4 -37q0 -45 -27 -157q-49 -174 -209 -512q-49 -98 -65 -146q-12 -35 -33 -88l-12 -35q6 -12 12 -12l-4 -2q-4 2 -6 10l-2 2q-119 340 -174 510 q-86 248 -160 512q-14 49 -47 93q-39 45 -88 45q-59 0 -94 -80q-29 -29 -39 -70q-35 -188 -123 -475q-12 -39 -23 -76q-90 -299 -127 -414l-2 -12q0 -12 -2 -12t-2 10l-2 10q-2 6 -8 21q-20 49 -29 76q-18 55 -59 131q-172 367 -223 538q-29 111 -29 164q0 8 2 21q2 10 2 12 q8 27 29 27q49 0 49 43q0 10 -6 34q0 4 -2 11q0 14 -14.5 23t-28.5 9l-15 -6q-4 -2 -8 -2l-8 -4q-35 -2 -154 -2h-161q-41 0 -107 4l-35 4q-53 8 -78 10q-61 0 -61 -40z" />
<glyph unicode="X" horiz-adv-x="2148" d="M41 35q0 -20 12.5 -25.5t42.5 -5.5q35 0 88 4l25 2q66 4 106 4q57 0 162 -6q68 -4 160 -14q53 0 82 35q33 33 33 55q0 41 -56 41q-35 0 -49 27v6q0 35 45 118q68 117 338 400q10 18 27 18q12 0 24 -18q246 -283 299 -393q41 -82 41 -121q0 -6 -4 -15q-14 -25 -45 -24 q-51 0 -51 -43q0 -12 20 -45l2 -4q23 -37 84 -37q88 10 187 14q135 6 190 6q100 0 250 -10q31 0 42 5t11 28q0 14 -12 33q-47 55 -90 73q-14 8 -74 56q-18 12 -20 14q-41 35 -174 174l-27 27q-109 117 -385 452q-31 35 -31 66q0 27 25 57q289 313 393 412q125 119 170 149 q41 29 64 29q10 4 30.5 19.5t40.5 41.5q16 27 17 35q0 37 -58 37q-123 -14 -245 -14q-59 0 -150 6q-88 6 -147 12q-57 0 -84 -39q-20 -31 -21 -47q0 -39 45 -45q39 -10 60 -39q4 -4 4 -18q0 -20 -21 -76q-47 -98 -241 -293q-31 -37 -46 -37q-23 12 -49 43q-190 205 -237 303 q-27 53 -27 88q0 6 4 11q14 25 39 26q47 0 47 39q0 18 -20 45q-35 39 -88 39q-51 -8 -156 -12q-104 -6 -158 -6q-127 0 -249 14q-39 0 -52 -43q0 -41 13 -53q57 -51 84 -51q14 0 53 -33q41 -33 166 -166q129 -145 368 -438q16 -23 17 -39q0 -20 -23 -37q-319 -348 -446 -473 q-150 -150 -209 -193q-57 -49 -72 -53q-25 -6 -80 -65q-2 -4 -6 -15q-8 -12 -8 -18z" />
<glyph unicode="Y" horiz-adv-x="2140" d="M41 1657l6 -12q43 -61 82 -86q49 -33 92 -80q61 -59 168 -205q88 -117 291 -453q29 -49 88 -147q51 -88 70 -121q18 -31 18 -51v-4q-6 -8 -16 -27l-17 -25q-117 -180 -178 -253q-53 -31 -84 -39q-23 -16 -37 -21q-25 -2 -69 -45q-10 -10 -11 -33q0 -14 5 -26 q10 -14 19 -19.5t32 -5.5q27 0 84 4l41 2h12q72 4 108 4q66 0 138 -8q31 -4 75 -8q35 -6 62 -8q53 0 82 35q20 20 20 53q0 49 -55 49q-33 4 -45 43v14q0 53 49 166q61 137 324 494q176 238 387 499q8 12 12 17q121 147 172 192q37 37 49 37q18 0 74 66q10 12 10 28 q0 39 -53 39q-72 -4 -127 -14q-57 -6 -117 -6q-68 0 -143 8q-18 2 -105 6q1 0 -36 2q-63 0 -84 -41q-8 -18 -9 -39q0 -25 13.5 -39t44.5 -14q33 -2 45 -39q0 -4 2 -10q2 -8 2 -12q0 -57 -55 -172q-66 -152 -340 -504q-29 -47 -43 -47t-31 24q-6 -4 -14 -12q0 4 -7 25 q-4 18 -6 22q-258 377 -327 520q-59 113 -60 185q4 20 29 20q63 0 63 53q0 6 -2 15q-2 12 -2 18q-18 47 -90 47q-68 -8 -151 -10q-98 -6 -156 -6q-43 0 -104 4h-7q-63 4 -104 10q-18 0 -55 -14q-29 -23 -29 -45z" />
<glyph unicode="Z" horiz-adv-x="2021" d="M41 72q0 -6 4 -15q2 -8 2 -14q23 -53 88 -53q131 8 277.5 11t423.5 3l235 -2q313 -4 471 -4q37 0 59.5 4t38.5 10q37 20 70 60l12 12q59 63 80 82q45 45 115 90q51 37 63 96q0 78 -92 78q-51 0 -94 -37q-25 -20 -65 -49q-98 -59 -252 -98q-143 -39 -279 -56 q-164 -18 -233 -20q-98 -6 -109 -6q-92 0 -133 2q-41 0 -92 -2h-37q2 0 2 -6q2 4 2 6q4 10 6 12q127 174 256 320q100 111 277 319q195 236 331 385q137 156 363 373q53 53 53 84q0 51 -78 51q-41 0 -194 -2q-53 -2 -115 -2l-434 -6q-219 0 -348 -2h-45q-162 4 -172 16 q-68 -4 -136 -84q-18 -35 -55 -98l-18 -33q-35 -31 -84 -65q-35 -35 -35 -78q10 -51 72 -51q45 0 96 34q43 29 76 62q63 53 288 108q176 43 408 43q80 0 166 -6q2 0 24 -4l31 -4q2 0 2 4q0 -6 -12 -16q-131 -180 -240 -303l-88 -103q-119 -139 -176 -205 q-154 -182 -352 -393q-182 -199 -387 -379q-37 -41 -37 -69z" />
<glyph unicode="[" horiz-adv-x="372" d="M41 -150h291v123h-152v1764h152v118h-291v-2005z" />
<glyph unicode="\" horiz-adv-x="976" d="M41 1649l758 -1604h137l-758 1604h-137z" />
<glyph unicode="]" horiz-adv-x="372" d="M41 -27v-123h291v2005h-291v-118h154v-1764h-154z" />
<glyph unicode="_" horiz-adv-x="1462" d="M41 -27v-104h1380v104h-1380z" />
<glyph unicode="`" horiz-adv-x="327" d="M41 1712l82 -162q51 -106 115 -106q49 0 49 49q0 33 -27 80l-72 139h-147z" />
<glyph unicode="a" horiz-adv-x="1533" d="M41 365q0 -250 270 -330q115 -39 260 -39q160 0 297 45q29 8 64 29q12 8 45 22l10 4q8 4 23 10h2q-18 0 -19 13v-4q-2 -4 -2 -6l-4 -37q0 -20 12 -43q14 -25 52 -25q33 4 79 4q16 -2 87 -2q76 0 106 -2q16 0 59 -6q29 -2 41 -4q70 0 70 41q0 14 -10 28q-14 53 -51 64 q-14 4 -27 20q-20 25 -35 89q-12 88 -14 245q6 188 6 289q2 70 2 150q4 25 6 43v8q2 6 2 22q0 33 -8 41v4q-172 86 -328 117q-162 37 -309 37q-282 0 -563 -172q-16 -16 -17 -41q0 -31 39 -64q23 -16 60 -28q14 -4 30 -4q14 0 28.5 5t14.5 13q143 113 396 113q94 -4 176 -17 q90 -12 110 -41q18 -31 23 -63q0 -43 -68 -43q-18 2 -53 2q-20 4 -57 4q-330 0 -563 -86q-242 -92 -242 -405zM434 401q0 127 113 215q127 97 430 99q12 0 35 -8q8 -2 8 -37v-27q-2 -20 -2 -27q-2 -18 -6 -59q-2 -23 -2 -53q-2 -43 -2 -53q0 -33 -4 -86q-4 -37 -9 -60 q-2 -18 -30 -35q-4 -2 -9 -4l-24 -12q-14 -10 -31 -16q-129 -55 -219 -56q-68 0 -125 29q-123 68 -123 190z" />
<glyph unicode="b" horiz-adv-x="1552" d="M41 1651q29 -61 76 -62q20 0 33 -33q23 -41 38 -194q10 -106 11 -264q0 -43 -2 -117q-2 -102 -2 -147q-12 -352 -27 -484q-16 -147 -33 -188q-8 -35 -16 -37q-33 -2 -58 -76q0 -2 -4 -4q0 -31 17.5 -41t54.5 -10q23 2 45.5 3t73.5 1q39 -2 117 -2q35 0 110 6q6 0 37 2h39 h43q35 -2 41 -2q25 0 39 -4h49q336 0 559 174q229 180 229 457q0 285 -223 426q-217 137 -485 143q-139 0 -176 -37q-33 -23 -88 -28q-6 0 -7 14q2 72 3 86q4 178 8 227q0 14 2 56q0 43 2 53q-12 4 -19 4q14 0 37 74q0 35 -18.5 48t-59.5 13q-37 -4 -57 -4q-18 2 -55 2h-127 q-68 0 -129 6q-27 0 -47 -10q-20 -6 -25.5 -16.5t-5.5 -34.5zM522 483q0 111 2 234q2 90 2 125v49v47q0 10 2 20q3 9 17 15q109 55 182 55q174 0 283 -82q55 -39 79.5 -127t24.5 -231q-18 -264 -133 -346q-125 -84 -291 -95h-35q-8 2 -18 3q-12 0 -21 2q-74 10 -86 112 q-4 63 -8 219z" />
<glyph unicode="c" horiz-adv-x="1337" d="M41 590q0 -246 186 -426q180 -174 504 -174q154 4 279 67q129 66 225 158q-2 0 -4 -2q6 0 12 8q4 4 8 10l2 2q6 2 29 48q14 33 14 43t-4 20q-12 76 -82 76q-45 0 -92 -66q-59 -70 -143 -96q-98 -37 -193 -39q-160 0 -282 133q-125 135 -135 258q0 37 4 95v12 q12 70 43 139q37 70 104 117q63 51 176 51q70 0 117 -29q53 -31 80 -61q33 -29 33 -43q0 6 4 10q-35 -18 -35 -106q0 -39 35 -58q10 -10 37 -10q20 0 38 14q18 10 54 35q39 25 45 29q47 31 94 43q68 23 68 104q0 27 -56 76q-6 4 -8 6q-47 35 -57 43q-154 117 -391 117 q-256 0 -482 -174q-227 -180 -227 -430z" />
<glyph unicode="d" horiz-adv-x="1546" d="M41 553q0 -248 178 -406q171 -161 401 -161h3q117 0 260 67q20 10 55 25q29 12 37 16h-2q4 0 6 -31q0 -20 35 -49q37 -20 57 -20q16 4 33 4q0 -2 84 -2q80 0 121 2q37 0 80 -2q27 -2 38 -2q20 0 56 29q23 29 22 51l-6 -13q-20 68 -74 68q-25 0 -43 33q-27 41 -49 192 q-12 109 -12 316q0 10 2 78v94q2 231 8 479v41q0 70 2 154v45q0 37 0 36q4 18 10 58q0 63 -63 63h-8l-8 -2q-49 -4 -82 -14q-20 -4 -68 -4q-45 0 -106 4l-35 4q-53 8 -78 10q-23 0 -51 -16q-25 -16 -25 -53q31 -61 82 -62q27 0 51 -24q23 -20 39 -109q10 -37 10 -158 q0 -27 -2 -73q-2 -68 -2 -99q0 -20 -12 -30v4q-22 0 -59 14q-8 4 -19 8q-59 23 -86 33q-55 25 -139 27q-299 0 -467 -187q-174 -195 -174 -438zM369 674q0 137 90 223q113 109 258 109q125 0 213 -70q41 -33 55 -57q12 -29 12 -64q-4 -104 -8 -192q-4 -113 -6 -179v-94 q-2 -31 -39 -69q-78 -72 -190 -72h-19q-16 2 -26 2q-131 16 -222 108q-90 92 -114 287q-4 23 -4 68z" />
<glyph unicode="e" horiz-adv-x="1333" d="M41 590q0 -279 197 -436q195 -164 475 -164q150 4 297 80q156 74 245 198l9 25l6 24q10 -6 12 -8q10 14 10 43q0 57 -57 74q-12 6 -35 6q-16 0 -51 -12l-10 -4q-47 -25 -64 -58q-35 -55 -96 -88q-57 -37 -152 -43q-178 0 -309 101q-18 12 -18 20q0 9 14 17 q121 92 246 178q53 35 151 102q76 51 119 80v4l154 115q20 16 30 43q0 2 3 10v8q0 31 -31 64q-88 98 -205 157q-127 61 -266 64q-213 0 -430 -160q-238 -166 -244 -440zM338 596q0 145 65 272q59 123 256 123q84 0 115 -30q39 -43 66 -99q6 -8 6 -18q0 -2 -2 -4 q-25 -21 -33 -29q-102 -90 -195 -149q-96 -66 -202 -148q-8 -8 -23 -8q-10 0 -22 12q-31 29 -31 78z" />
<glyph unicode="f" horiz-adv-x="1069" d="M41 1022q0 -16 12 -35q18 -20 53 -20q23 0 95 2l39 2q35 0 34 -25v-53v-59q-6 -305 -20 -484q-20 -147 -43 -186q-14 -37 -33 -41q-37 -2 -65 -74q0 -2 -2 -6t-2 -8q0 -41 69 -41q55 8 119 8h117h118q68 0 119 -8q72 0 72 53l-2 2q-23 63 -57 66q-12 2 -23 41 q-20 57 -35 198q-8 147 -8 320q0 10 2 76v92v57v53q0 10 -8 11q12 4 29 4q8 0 41 -2q20 0 38 -2q57 -4 86 -5q33 0 62 17q27 20 41 45q0 8 2 12t6 10q2 2 2 5q2 4 4 12q2 6 4 10q0 4 2 10l2 4q0 2 2 11v8q0 18 -10 31q-14 25 -55 24q-125 0 -234 -6q-12 0 -12 6v6 q4 86 4 119v86l12 12q-12 2 -12 17q0 111 15 139q12 -14 24 -14q14 0 23 -31q18 -47 18 -94v-4v-2t-2 -5q-2 -4 -2 -6q0 -12 7 -25.5t16 -13.5q23 -16 43 -16q4 0 14 2q6 2 10 2q47 16 62 29q37 29 61 39q14 6 41 18t39 17q53 25 53 98q0 8 -6 22q-43 164 -289 164 q-119 0 -276 -88q-109 -66 -174 -123q-33 -43 -33 -86q0 -10 6 -33q2 -12 4 -20l2 -10q2 -23 6 -80q4 -61 4 -105q0 -16 -22 -16q-16 2 -47 2h-41q-29 0 -58 -16q-29 -18 -38 -43q-14 -27 -19 -31q0 -14 -4 -25v-10q-2 -8 -2 -10z" />
<glyph unicode="g" horiz-adv-x="1642" d="M41 762q0 -113 78 -195q72 -82 190 -135l23 -22h6h-4q-10 -10 -45 -25q-18 -10 -33 -20l-27 -15q-33 -14 -79 -49q-18 -16 -60 -41l-8 -4q-18 -12 -19 -35q0 -10 23 -41q29 -29 59 -33q29 -6 91 -14q2 -2 4 -2l2 -2q2 0 14 6q23 11 37 19q-12 -18 -43 -23 q-45 -10 -100 -61q-45 -41 -46 -95q0 -2 2 -14v-14q25 -129 185 -228q158 -90 424 -90q250 0 428 119q180 119 200 227q4 2 7 13q4 12 10 28t10 29q8 18 27 55q0 4 2 13q2 6 2 10q0 45 -68 63q-29 4 -67 13q-29 6 -39 8q-23 4 -47 10q-25 6 -50 10q-6 2 -26 6 q-72 14 -146 29q-76 14 -147 29l-72 14q-102 20 -219 41q-2 2 -2 10q4 -2 12 -2q23 2 60 2q33 -2 92 -6q18 -2 25 -2q10 0 26 -2h21q244 0 415 109q201 127 201 307q0 125 -102 227l-2 2q-4 0 -4 2h6q2 2 6 2q31 0 63 -49q2 -4 9 -10q6 -8 8 -12q6 -49 57 -62q47 0 90 51 q27 39 53 56q47 35 48 69q0 25 -19 43q-70 98 -229 99q-94 0 -183 -54q-37 -24 -61 -24h-2q-4 0 -8 2q-160 82 -393 82q-274 0 -467 -119q-199 -127 -199 -305zM356 -66q4 72 115 113v2q35 23 35 53q0 -2 14 -8q92 0 215 -37q98 -27 269 -63l22 -4q2 -4 2 -15 q0 -59 -98 -120q-104 -68 -246 -68q-143 0 -242 51q-84 45 -86 96zM436 762q0 96 43 190q43 92 236 92q190 0 229 -94q41 -111 47 -188q0 -102 -73 -211q-72 -59 -216 -59q-139 6 -200 92q-66 90 -66 178z" />
<glyph unicode="h" horiz-adv-x="1533" d="M41 1659q16 -68 70 -68q20 0 34 -32q27 -37 50 -197q14 -109 14 -342v-86q-2 -53 -2 -100q-10 -358 -29 -490q-23 -145 -41 -184q-14 -35 -24 -39q-35 -4 -58 -72q0 -33 15.5 -44t54.5 -11q23 2 44 3t73 1q39 -2 120 -2q80 0 119 2q39 0 80 -2q31 -2 41 -2q37 0 52.5 7 t15.5 32v10q-2 6 -2 8q-35 61 -76 72q-23 4 -37 45q-23 47 -33 192q-6 47 -6 183q0 125 6 299q0 6 2 10q0 2 2 8v8q0 27 6 33q12 8 35 14l4 3l31 8q55 16 96 26q55 8 148 9q104 0 147 -25q47 -33 47 -199q0 -84 -6 -135v-20v10h-2v-31v-2v-2v-4q0 -18 2 -49v-37 q0 -53 -3 -90t-9 -84q-2 -27 -4 -41q-20 -92 -35 -117q-14 -25 -25 -26q-33 -4 -49 -60q0 -25 41 -53q33 -14 56 -14q33 4 92 12q4 0 12 2q43 6 100 6h109q51 0 106 -8q68 0 68 59q-23 37 -59 58q-16 6 -33 36q-12 31 -23 123v31q-2 23 -2 41q0 104 10 211v4v4v8q-2 8 -2 35 v33v35v33q0 133 -2 188q0 82 -18 137q-27 78 -76 105q-57 27 -106 34q-25 6 -84 7q-25 0 -97 -5h-8q-145 -16 -239 -38q-27 -4 -76 -21l-19 -6q-20 -6 -30 -10q-39 -14 -62 -21q-4 -2 -14 -2q-4 0 -12 2q-4 2 -9 2q4 4 5 35q4 147 8 291l2 51q0 43 2 96v29v4q2 0 6 35 q2 16 4 41q0 61 -80 61q-43 -4 -61 -8q-14 -2 -49 -2h-129q-72 0 -127 6q-72 0 -72 -57z" />
<glyph unicode="i" horiz-adv-x="679" d="M41 1133q29 -70 74 -74q23 -8 37 -31q25 -33 32 -125q4 -20 4 -80q0 -106 -14 -262q0 -190 -14 -291q-12 -78 -29 -106q-12 -23 -22 -25q-31 -2 -54 -65q0 -25 17 -47q20 -23 51 -23q31 4 110 4q33 -2 111 -2h117h55q33 -2 59 -2q27 0 46 12q12 12 15 20.5t3 22.5l-4 13 q-20 55 -51 59q-10 4 -19 16q-14 16 -26 82q-8 68 -13 242q4 299 6 416v153v27q6 20 7 59q0 33 -19.5 45.5t-58.5 12.5q-37 -4 -53 -4h-54q-80 0 -121 2q-82 4 -120 8q-39 0 -55.5 -11.5t-16.5 -45.5zM172 1513q0 -68 55 -114q57 -45 135 -45q76 0 138 45q59 47 59 114 q0 68 -59 117q-58 45 -138 45q-82 0 -135 -45q-55 -49 -55 -117z" />
<glyph unicode="j" horiz-adv-x="655" d="M41 -227q0 -76 90 -76q16 0 23 4q16 2 24 6q145 57 213 158q63 94 170 139q8 0 35 23q12 6 14 15t2 34q0 6 -2 10q-2 12 -2 16q0 41 -22.5 62.5t-36.5 28.5q0 -25 12 -32t21 -7q4 0 8 -3.5t4 -7.5q-4 12 -8 84q-2 8 -2 17q-8 106 -17 305q2 168 8 340v35q2 102 11 139v47 q8 8 8 27q0 45 -55 45h-11q-49 -4 -75 -4h-80h-94q-36 0 -89 4q-43 0 -60 -12.5t-17 -43.5q6 -57 53 -57q20 -4 35 -29q31 -41 47 -137q16 -86 16 -239v-56q-2 -35 -2 -65q-22 -173 -22 -373v-18q0 -174 -166 -324l-15 -10q-18 -27 -18 -45zM225 1497q0 -70 58 -115 q57 -45 137 -45q74 0 135 45q59 49 59 115q0 63 -59 117q-59 47 -135 47q-80 0 -137 -47q-57 -49 -58 -117z" />
<glyph unicode="k" horiz-adv-x="1548" d="M41 1669q0 -4 2 -8t2 -8q31 -59 66 -60l14 2l6 2q10 0 16 -28q25 -39 41 -197q12 -119 13 -362v-80q-2 -51 -2 -96q0 -330 -17 -488q-16 -147 -35 -186q-12 -37 -26 -39q-41 -2 -66 -72q0 -2 -4 -4q0 -31 17.5 -41t54.5 -10q23 2 45 3t74 1q39 -2 116 -2q78 0 121 2 q37 0 80 -2q27 -2 39 -2q72 0 72 39q0 4 -2 8q-4 4 -4 8q-14 43 -54 51q-10 2 -26 19q-14 16 -27 82q-12 84 -14 223q0 33 2 39q0 4 24 12q16 16 37 31q4 4 19 12q16 8 22 14q10 10 21 11q23 0 43 -31q152 -184 227 -301q41 -57 41 -94h-12q-51 0 -52 -64q0 -49 82 -49h11 q143 8 223 10q39 0 100 -4q4 0 21 -2q57 -4 90 -4q41 0 53 5t12 32q0 14 -14 35q-43 59 -72 63q-16 0 -51 27q-41 23 -133 100q-86 106 -270 393q-31 39 -35 62q0 16 63 61q164 135 250 185q61 43 103 59q18 4 30 6q12 4 17 4q23 0 86 51q18 12 18 39v4q-2 4 -2 9 q-10 37 -53 37q-37 -4 -129 -5h-123q-33 0 -107 5h-26q-90 4 -129 8q-61 0 -96 -43v-15q-2 -10 -3 -14q0 -53 54 -70q35 -10 43 -22q0 -27 -56 -74q-68 -70 -309 -235q-10 -8 -28 -11h8v70q0 45 2 70q6 373 6 522v199v41q2 16 8 53q0 63 -61 63h-9l-8 -2q-41 -4 -61 -8 q-16 -2 -51 -2h-127q-68 0 -129 6q-39 0 -55.5 -8t-16.5 -35z" />
<glyph unicode="l" horiz-adv-x="706" d="M41 1655q16 -66 68 -66q18 0 30 -33q25 -43 43 -196q14 -102 15 -330v-88q-2 -57 -2 -108q-10 -346 -27 -484q-23 -145 -39 -190q-12 -37 -23 -39q-33 -2 -55 -72q0 -33 15.5 -44t52.5 -11q23 2 45 3t74 1q39 -2 116 -2q78 0 121 2q37 0 80 -2q27 -2 39 -2q72 0 72 39 q0 4 -2 10q-4 4 -5 8q-20 49 -65 55q-12 0 -25 37q-18 59 -28 205q-4 53 -4 213q0 43 2 121q2 109 2 160q6 369 6 520v199v41q2 16 8 53q0 63 -61 63h-9l-8 -2q-41 -4 -61 -8q-16 -2 -51 -2h-127q-68 0 -129 6q-37 0 -52.5 -11t-15.5 -46z" />
<glyph unicode="m" horiz-adv-x="2449" d="M41 1122q29 -72 74 -73q20 -6 39 -31q20 -29 32 -123q4 -23 4 -88q0 -94 -12 -254q0 -203 -12 -295q-14 -90 -27 -113q-8 -23 -18 -26q-31 -14 -45 -72q0 -20 18 -45q23 -23 51 -22q31 4 107 4h113h116q55 0 113 -7q31 0 49 19q10 10 13 21.5t3 21.5l-8 12q-18 53 -49 60 q-14 4 -27 20q-23 29 -32 90q-12 74 -17 244q4 137 6 231q0 98 3 150v16q0 25 2 35q6 16 53 35q47 23 133 41q92 22 156 22h6q86 0 125 -32q57 -53 57 -254q0 -20 -2 -54q-2 -45 -2 -63v-17v-18v-4v22h12q-12 -20 -14 -26t-2 -29h4q0 -186 -16 -274q-12 -84 -33 -119 q-12 -23 -27 -27q-35 -4 -51 -59q0 -20 37 -51q37 -16 59 -17q23 2 66 9q23 4 41 6q57 4 100 4h107q49 0 106 -6q68 0 68 59q-23 37 -58 57q-18 6 -32 35q-16 39 -23 123v33q-2 23 -2 41q0 106 10 211v4q0 16 5 22.5t32 12.5h-43q2 2 2 12v33v35v32v78v70q0 25 14 45 q33 29 72 43q61 23 88 26q96 23 178 23q86 0 127 -27q61 -47 62 -256v-49q-2 -31 -2 -57v-17v9h-2v-31v-4v-4q0 -111 -4.5 -182.5t-10.5 -116.5q-16 -92 -32 -119q-12 -23 -27 -27q-35 -2 -51 -59q0 -18 39 -51q39 -16 59 -17q23 2 74 11l33 4q57 4 98 4q12 -2 45 -4 q39 -4 61 -6q16 -4 37 -4.5t72 -0.5q68 0 67 68q-23 37 -59 57q-16 6 -31 35q-12 29 -22 125v31q-2 23 -2 41q0 106 10 211v4v4v8q-2 8 -2 35v33v35v32q0 41 -2 109v80q-4 94 -19 137q-43 131 -170 152q-37 10 -122 10q-145 0 -328 -39q-53 -10 -109 -37q-31 -12 -77 -33 l-31 -12l-6 -2q-27 -10 -35 -10q-4 0 -12 4q-20 23 -37 43q-43 51 -133 71q-27 8 -66 9.5t-137 1.5q-121 -2 -254 -31q-47 -12 -105 -39q-45 -25 -98 -37q-6 -2 -16 -2q-2 0 -2 -2q-8 10 -8 25q0 4 2 14q0 2 2 8q0 35 -18.5 48.5t-59.5 13.5q-35 -4 -53 -4h-54q-84 0 -123 2 q-61 0 -122 6q-35 0 -51.5 -11.5t-16.5 -48.5z" />
<glyph unicode="n" horiz-adv-x="1540" d="M41 1120q29 -70 74 -73q27 -4 43 -27q27 -33 35 -119q4 -23 4 -86q0 -104 -15 -254q0 -201 -16 -293q-10 -92 -33 -139h-27q-35 -2 -53 -68q0 -8 17 -14q16 -55 51 -55q59 6 115 6q37 4 116 4q76 0 111 -4h12q61 -4 96 -8q72 0 72 41q0 4 -4 16q-4 6 -4 10q-18 55 -49 66 q-8 0 -15 -12q-14 31 -24 116q-8 70 -12 244q0 104 -1.5 145t-7.5 74q-2 43 -2 150q2 61 84 86q16 8 45 14q16 4 54 12q109 23 182 23q74 0 119 -23q59 -39 59 -245v-48q-2 -31 -2 -59v-6q-2 -6 -2 -8q-2 -8 -2 -21v-4v-2v-2v-4l4 -4q4 -49 4 -94q0 -80 -18 -176l-4 -25 q-14 -78 -41 -117q-18 -27 -37 -28q-37 -4 -54 -60q0 -25 41 -53q33 -14 56 -14q33 4 92 12q4 0 12 2q43 6 101 6h108q51 0 107 -8q68 0 67 57q-18 35 -45 58q-14 6 -27 36q-20 39 -28 127q-4 35 -5 89.5t-1 193.5v2v4v8q-2 8 -2 35v33v35v33q0 104 6 184q6 20 6 57 q0 57 -12 84q-25 74 -88 105q-78 29 -115 34q-25 6 -84 7q-25 0 -96 -5h-9q-141 -16 -241 -38q-37 -8 -82 -25q-45 -16 -82 -29q-35 -10 -51 -10h-2q4 2 4 21v12q2 8 2 24q0 33 -19.5 45.5t-58.5 12.5q-37 -4 -53 -4h-54q-41 0 -126 -4h-27q-25 -2 -29 -2q-12 0 -37 2t-34 2 q-37 0 -52.5 -11.5t-15.5 -46.5z" />
<glyph unicode="o" horiz-adv-x="1603" d="M41 590q0 -248 225 -426q219 -174 535 -174q313 0 536 174q225 182 226 426q0 246 -226 428q-221 176 -536 176t-535 -176q-225 -178 -225 -428zM410 588q0 190 84 319q80 131 303 131q227 0 301 -125q82 -135 94 -325q0 -106 -27.5 -183t-83.5 -139q-55 -61 -122.5 -90 t-155.5 -29q-162 8 -281 134q-113 127 -112 307z" />
<glyph unicode="p" horiz-adv-x="1531" d="M41 1137q16 -84 70 -84q18 0 39 -27q31 -45 49 -180q8 -66 12 -181.5t4 -340.5q-6 -225 -20 -367q-8 -66 -9 -170q0 -16 2 -43v-29q2 -33 13 -61q10 -27 69 -27q84 0 144 47q45 37 112 47q45 6 52 58q0 31 2 49v6q-2 41 -19 64q-10 16 -12 32v4q-4 33 -4 50q0 16 26 18 q365 33 643 240q276 211 277 460q0 258 -172 381q-166 123 -436 123q-113 -10 -185 -59q-67 -45 -98 -53h-59q-4 0 -4 8v10q6 18 8 37q0 35 -18.5 48t-59.5 13q-76 -10 -86 -16q-16 -4 -59 -4q-76 0 -109 -2q-31 0 -68 2q-27 2 -39 2v2q-66 0 -65 -57zM539 879q0 33 14 47 q20 16 43 28q74 35 176 37q180 0 260 -96q82 -100 82 -238q0 -68 -41 -161q-41 -88 -147 -172q-51 -39 -142 -84q-53 -27 -151 -64l-6 -2q-31 -10 -45 -10t-21 6q-20 8 -20 27v65v72v332q-2 88 -2 213z" />
<glyph unicode="q" horiz-adv-x="1552" d="M41 541q0 -242 170 -404q168 -162 418 -162h24q16 2 31 2q180 12 340 99q4 2 10 6q16 8 29 16q0 -4 -7 -5t-12 -1q-16 0 -16 -2q-14 -127 -31 -215q-18 -86 -18 -170q0 -27 12 -41q8 -16 78 -22q57 0 113 53q45 39 127 45q29 2 55 31q23 23 22 55v10q-2 8 -2 10 q-8 39 -11 88.5t-3 120.5q0 98 -1 154.5t-5 107.5q-8 137 -8 342q0 41 4 117q2 51 2 68q12 152 35 192q16 27 37 27q49 0 73 63q0 2 4 4q0 33 -16 43.5t-55 10.5q-23 -4 -66 -4q-10 0 -24 2h-21q-70 4 -112 4q-72 0 -74 -2q-6 0 -21 2q-18 2 -35 2q-67 0 -67 -56 q0 -18 8 -34q2 0 2 2q0 -8 23 -8q-10 4 -19 4q-8 4 -14 8q-12 8 -14 8q-55 25 -154 59q-78 27 -168 27q-268 0 -444 -170q-178 -168 -197 -442v-25q-2 -16 -2 -20zM387 571q0 4 2 21v20q0 174 74 289q74 119 231 119q141 0 297 -107q31 -18 31 -49q0 -119 2 -200l2 -60 q2 -139 6 -246q0 -63 -41 -86q-29 -14 -86 -36q-6 -2 -18 -9q-55 -20 -109 -20q-188 29 -295 141q-96 94 -96 223z" />
<glyph unicode="r" horiz-adv-x="1132" d="M41 1133q29 -70 74 -74q23 -8 37 -31q25 -33 32 -125q4 -20 4 -80q0 -106 -14 -262q0 -190 -14 -291q-12 -78 -29 -106q-12 -23 -22 -25q-31 -2 -54 -65q0 -25 17 -47q20 -23 51 -23q31 4 110 4q33 -2 111 -2h117h55q33 -2 59 -2q27 0 46 12q12 12 15 20.5t3 22.5l-4 13 q-20 55 -51 59q-10 4 -19 16q-14 16 -26 82q-8 68 -13 242v219q0 66 2 123v33q0 31 17 51q23 27 59 45q33 16 62 16q71 0 71 -42q0 -7 -12 -19q-47 -43 -47 -86v-25q6 -53 70 -53q61 0 86 31q27 39 77 49q53 10 119 45q61 35 62 92v8v5v4q-2 111 -97 176q-86 61 -180 61 q-100 0 -129 -26q-10 -8 -43 -27q-29 -16 -43 -27q-2 -2 -6 -4q-14 -8 -21 -10q-6 -2 -10 -4q-10 -4 -12 -6h-16h14q0 6 6 20q0 61 -80 62h-61q-35 -2 -60 -2q-80 0 -121 2q-82 4 -120 8q-39 0 -55.5 -11.5t-16.5 -45.5z" />
<glyph unicode="s" horiz-adv-x="1359" d="M41 489q0 -18 2 -45v-24v-88v-84q0 -82 45 -94q92 -63 262 -109q158 -41 357 -41q207 0 407 113q205 117 205 309q-6 145 -98 225q-74 74 -203 127q-121 45 -250 66h-4q-160 27 -234 41q-57 16 -108 45q-41 20 -41 43q0 29 37 37q68 18 137 20q106 0 240 -49 q151 -51 219 -129l10 -8q16 -14 29 -23q29 -18 55 -18q72 0 72 57v10q-2 6 -2 9q-10 29 -39 59q-20 41 -33 111q-8 37 -72 57q-45 12 -69 22q-68 23 -170 35q-49 6 -162 19q-43 4 -62 6v-4q-4 0 -26 2h-27q-147 0 -274 -43q-162 -61 -162 -236q0 -100 68 -162 q86 -72 186 -88q92 -39 239 -63q119 -18 238 -51q82 -37 123 -76q37 -39 39 -100q0 -84 -84 -138q-84 -102 -170 -102q0 27 -2 39t-10 12q-111 0 -187 20.5t-129 63.5q-111 92 -149 178q-8 12 -23 47q-2 4 -4 13q-20 63 -100 63q-76 0 -76 -74z" />
<glyph unicode="t" horiz-adv-x="999" d="M41 1151q6 -31 27 -49q23 -18 55 -19q74 0 113 9q2 0 6 2h6q4 0 12 -2h10q6 -2 6 -15q0 -33 -4 -110v-6v-132q-2 -301 -14 -479q-12 -147 -25 -178q-6 -31 -14 -33q-35 -4 -63 -90q0 -2 -4 -4q0 -31 17 -41t54 -10q6 0 19 2q61 6 100 8h117h119q39 -2 102 -8q10 -2 16 -2 q70 0 70 53q-12 84 -51 86q-14 4 -29 41q-20 37 -37 182q-8 131 -8 287q0 10 2 88v111v135q2 27 2 59q2 47 2 58q0 6 2 20l2 8q0 -8 6 -8h9q6 -2 10 -2l24 -4q25 -2 27 -4q12 -10 74 -10q35 0 63 14q14 12 35 43l10 10q8 10 13 17q10 8 20 24q16 16 16 45v13l-2 10 q-27 43 -86 43h-10q-8 2 -12 2q-18 6 -33 6q-86 -2 -139 -14h-6q-6 -2 -11 -2q-6 0 -6 22q0 156 2 189q0 51 2 59q0 4 2 8q2 2 7 57q0 27 -9 50q-8 36 -75 36h-4h-54q-68 0 -73 -55q-29 -121 -136 -258q-102 -141 -215 -176q-43 -14 -53 -49q-6 -31 -6 -37z" />
<glyph unicode="u" horiz-adv-x="1554" d="M41 1128q0 -73 52 -73h1q18 -2 37 -25q27 -29 45 -119q18 -68 19 -217q0 -18 -2 -53q-2 -43 -3 -61q-2 -25 -2 -54q-2 -45 -2 -55q-4 -66 -6 -92v-27v-24q0 -104 18.5 -169t53.5 -100q77 -75 210 -75h3q127 0 268 45q88 27 172 51q72 20 111 33q6 4 14 4v2q0 -2 -2 -4 q-2 -4 -2 -6q-10 -51 -10 -68q0 -43 55 -43q37 6 80 6q27 2 80 2q66 0 115 -2q33 0 88 -6q12 -2 24 -2q55 0 55 43q0 96 -45 100q-10 2 -30 23q-23 18 -41 98q-6 37 -9.5 107.5t-3.5 210.5q2 160 9 327v27q0 45 2 100v29q0 8 4 12v47q0 23 -23 47q-23 27 -67 27 q-18 -2 -45 -6q-16 -4 -25 -4h-25q-23 -2 -36 -2h-111q-57 0 -106 4q-29 0 -42.5 -8.5t-13.5 -36.5q6 -80 45 -88q18 -8 35 -29q27 -33 41 -121q10 -33 12 -96.5t2 -235.5q-2 -20 -6 -92q0 -18 -2 -49v-100q0 -33 -82 -58q-68 -29 -125 -41q-59 -12 -120 -26h-7 q-8 -2 -16 -2q-16 0 -57 2q-10 2 -21 2q-63 10 -67 246v32q-4 68 -5 142q4 158 9 301l2 47q6 80 10 115q0 -10 -16 -11q20 0 25 11.5t5 42.5q0 23 -35 43q-14 10 -45 10q-88 -8 -157 -8q-20 0 -84 -2l-35 -2h-31q-23 -2 -26 -3q-10 0 -37 3q-18 2 -25 2q-29 0 -40 -10.5 t-11 -37.5z" />
<glyph unicode="v" horiz-adv-x="1609" d="M41 1118q45 -47 63 -47q12 0 29 -27q35 -31 103 -139q111 -182 208 -366q61 -121 125 -238l19 -35q70 -133 100 -198q29 -78 121 -78q65 0 106 76q70 117 142 256q27 47 61 114q51 98 76 142q100 201 184 333q55 86 80 111q16 16 23 16q20 0 78 76l10 14q0 14 -21 46 q-20 16 -43 16q-70 -4 -108 -6q-39 -2 -103 -2q-102 0 -174 6q-55 0 -69 -45v-19q-2 -12 -2 -16q0 -76 63 -76q27 0 27 -31q0 -25 -33 -102q-43 -92 -135 -235q0 -2 -10 -17q-37 -70 -50 -100q-18 -47 -45 -94q-4 -20 -6 -21q-4 2 -12 23l-2 4q-16 29 -45 96q-16 45 -62 127 q-115 172 -141 258l-4 18q-8 39 -8 56q0 12 2 16q10 23 24 29q35 4 35 49q0 25 -4 35q-14 49 -88 49q-49 -4 -115 -6h-24q-68 -4 -92 -4q-47 0 -84 6l-11 2q-51 10 -84 14q-18 0 -63 -26q-41 -41 -41 -60z" />
<glyph unicode="w" horiz-adv-x="2121" d="M41 1108q53 -78 76 -78q12 0 16 -4q23 -20 74 -111q59 -104 184 -370q72 -137 109 -234q57 -137 104 -235q27 -88 119 -88q94 0 143 90h-24q49 150 108 280q68 145 119 318q4 8 21 18q0 -6 -6.5 -8t-10.5 -2t-6 -2q18 -43 35 -88q63 -158 90 -223q33 -92 106 -271l27 -61 h2q25 -47 105 -47q68 0 104 78q76 160 113 266q43 109 98 239q59 115 123 234q39 74 53 100q2 2 35 62q27 49 35 61q12 18 20 23q4 0 31 16q0 25 3 46.5t5 31.5q14 2 29 10q-27 37 -53 37q-27 -2 -70 -12q-12 -2 -16 -2q-33 -4 -74 -4q-45 0 -101 6q-16 2 -59 4q-39 4 -41 4 q-18 0 -43 -23q-23 -29 -22 -43v-10q-2 -8 -3 -10q0 -49 46 -49q23 -2 32 -23q2 -6 2 -26q0 -31 -12 -86q-23 -92 -145 -340q-29 -51 -29 -66q0 -2 -4 -12q-4 -8 -10 -23q2 -2 4 -2t4 -2q-23 57 -74 178q-25 61 -57 142q-70 154 -121 317q-37 98 -111 98q-92 0 -110 -110 q-31 -147 -113 -326q-102 -197 -139 -299v-12q2 4 2 12l-6 8q-14 18 -17 27q-6 25 -36 90q-131 248 -150 328q-2 8 -4 33q-6 29 -6 41q0 20 2 24q18 20 37 27q31 8 30 43q0 18 -26 71q-2 4 -8.5 9.5t-20.5 5.5h-6q-12 -2 -18 -2q-14 0 -31 -2q-47 -4 -82 -6q-61 -6 -109 -7 q-29 0 -86 4h-10q-16 0 -57 5q-23 2 -45 4q-27 0 -52 -23q-2 -4 -6 -10q-16 -25 -16 -39z" />
<glyph unicode="x" horiz-adv-x="1568" d="M41 68q0 -2 2 -9q2 -8 2 -14q14 -41 47 -41q80 8 150 8q20 0 75 -2l64 -2q35 -2 90 -4q37 0 45 -2q4 0 10 -2t9 -2q45 0 75 35q20 27 21 41q0 16 -12.5 30.5t-30.5 14.5q-31 10 -47 28v11q0 23 14 53q33 68 190 225q8 10 15 10q6 0 12 -8q164 -178 191 -237 q14 -35 14 -56v-6q-10 -12 -33 -16q-14 0 -25.5 -13.5t-11.5 -27.5q0 -16 31 -57q20 -27 61 -27h9q59 6 116 10q29 0 52 2q63 2 81 2q86 0 166 -8h17q23 0 53 19q35 33 35 59q-39 45 -72 59q-20 10 -70 47q-39 23 -141 101q-88 102 -262 342q-18 18 -18 41q0 18 12 30 q203 223 258 273q68 63 102 78q4 2 13 2q-16 0 -17 10q18 -18 19 -18q16 0 61 38q4 4 8 10.5t4 14.5t-12 33q-18 39 -47 39q-80 -8 -162 -8q-70 0 -127 2q-84 2 -123 6l-8 2h-8q-33 0 -45 -31q-12 -23 -12 -47q0 -33 9 -48.5t34 -23.5q23 -6 39 -22v-11q0 -10 -7 -26 q-16 -37 -112 -131q-14 -18 -27 -19q-94 111 -119 164l-4 12q-12 35 -12 58q2 12 10 20q12 8 15.5 13.5t3.5 19.5q0 4 -17 10l-4 2q-25 61 -65 62q-33 -6 -131 -6q-66 -2 -140 -2h-86q-27 0 -57 2h-31q-37 0 -43 -35q0 -4 -2 -8q0 -10 8 -27l2 -4q41 -61 56 -62l2 -2 q20 -8 35 -18q37 -29 112 -102q92 -94 250 -291q10 -10 10 -21q0 -8 -12 -24q-197 -211 -305 -314q-98 -90 -137 -116q-20 -18 -39 -19q-18 0 -56 -31q-14 0 -17 -9t-3 -29z" />
<glyph unicode="y" horiz-adv-x="1705" d="M41 1116q35 -57 76 -72q31 -10 71 -57q47 -49 136 -194q98 -162 229 -447q18 -31 55 -98q4 -10 21 -39q18 -45 45 -111l18 -49l2 -4q12 -31 13 -43q0 -2 -2 -8v-4q-2 -6 -3 -6q-12 -23 -20 -31q-82 -111 -141 -143q-59 -37 -115 -54q-41 -10 -90 -18q-47 -2 -86 -47 q-14 -10 -14 -33q0 -18 10 -37q20 -43 55 -47q4 0 23 -2h20q20 0 84 4h8q96 10 135 10h17q14 2 16 2q29 0 62 -6q74 0 98 39q104 133 192 367q76 211 181 354q172 344 264 485q82 131 131 181q33 33 51 32q37 0 82 72q0 18 -5 29.5t-20 23.5q-27 27 -45 27q-96 -8 -190 -8 q-25 0 -94 4h-19q-29 2 -53 2q-41 2 -53 2q-53 0 -76 -49q-10 -12 -10 -39q0 -43 55 -43q29 0 41 -27q4 -6 4 -26q0 -51 -29 -129q-39 -133 -233 -457q-18 -39 -31 -39q-8 0 -18 18q0 2 -4 9q-2 0 -6 6q-4 10 -11 20q-209 371 -250 473q-40 98 -40 131q0 4 2 9v2q2 4 6 4h8 q6 -2 8 -2l2 -2q45 0 45 43q0 27 -10 47q-4 23 -19.5 33t-50.5 10q-57 -8 -123 -10l-34 -3q-68 -2 -93 -2q-35 0 -92 9q-16 4 -51 8q-16 2 -26 4q0 6 -11.5 8t-19.5 2q-18 0 -43 -24q-35 -37 -35 -60z" />
<glyph unicode="z" horiz-adv-x="1458" d="M41 61q0 -4 2 -10q2 -4 2 -8q14 -47 68 -47q90 6 199.5 8t303.5 2q178 -2 510 -2q86 0 123 51q45 49 66 101q14 43 61 82q41 29 41 81q0 61 -78 68q-29 0 -73 -35q-2 0 -27 -18q-12 -10 -27 -21q-160 -94 -313 -120q-162 -31 -176 -31q-63 0 -94 2q-31 0 -62 -2h-26 q10 0 10 -15l2 7l2 6q86 115 156 182q76 72 172 188q18 23 94 113q80 96 135 166q150 168 252 268q39 39 39 62q0 43 -66 43q-115 0 -219 -2t-321 -6h-109q-100 -2 -186 -3q-115 1 -129 11q-45 -2 -101 -62q-10 -16 -30 -49q-18 -25 -23 -33q-20 -33 -63 -71 q-23 -20 -23 -49q0 -4 2 -11q2 -4 2 -8q14 -41 43 -51q14 -8 43 -8q33 0 60 20q35 18 77 55q37 35 154 72q92 31 248 31h49q43 -2 49 -2q2 0 17 -4q16 -2 24 -4q-8 0 -8 10l-2 -4l-2 -4q-80 -106 -152 -179q-49 -51 -153 -174q-10 -12 -17 -18l-14 -14q-147 -168 -223 -250 q-125 -137 -260 -258q-29 -23 -29 -56z" />
<glyph unicode="{" horiz-adv-x="630" d="M41 868q0 -61 102 -114q74 -33 80 -70q14 -291 96 -504q107 -246 269 -307q-90 145 -154 383q-45 195 -57 440q-2 59 -107 109q-70 31 -69 65q0 31 69 68q100 55 105 111q12 258 57 460q63 233 158 385q-162 -63 -273 -317q-82 -221 -96 -520q-4 -33 -80 -70 q-100 -63 -100 -119z" />
<glyph unicode="|" horiz-adv-x="212" d="M41 45h131v1604h-131v-1604z" />
<glyph unicode="}" horiz-adv-x="632" d="M41 1894q94 -145 158 -397q49 -203 61 -448q4 -57 100 -111q74 -37 74 -68q0 -35 -72 -65q-98 -47 -102 -109q-16 -246 -63 -440q-64 -248 -154 -385q156 59 270 309q78 205 101 504q4 37 75 70q102 53 103 114q0 53 -100 119q-72 37 -76 70q-18 305 -101 520 q-109 254 -274 317z" />
<glyph unicode="~" horiz-adv-x="915" d="M41 1386q86 117 147 175q47 41 91 41q59 0 139 -91q25 -31 41 -47q0 -23 57 -86v23q70 -47 121 -47q59 0 123 53q59 49 114 127v25v12v14v96q-76 -115 -147 -178q-43 -41 -90 -41q-61 0 -133 86q-12 16 -33 37q-8 10 -16 19q-4 6 -25 28q-20 23 -29 29v2q-70 47 -122 47 q-55 0 -123 -51q-43 -41 -115 -131v-23v-14v-14v-91z" />
<glyph horiz-adv-x="471" d="M41 1524q0 -99 59 -156q59 -61 113 -61q23 0 28 8t5 24q0 20 -29 62q-10 10 -16 20q14 8 35 9q76 0 135 43q59 53 59 116t-59 117q-53 45 -135 45q-162 0 -187 -158q-8 -25 -8 -69z" />
<glyph horiz-adv-x="473" d="M41 1589q0 -68 59 -116q59 -43 138 -43q16 0 26 -11l-8 -16l-2 -4q-29 -43 -29 -60q0 -33 33 -32q54 0 113 61q61 55 61 158q0 43 -8 67q-25 158 -186 158q-84 0 -138 -45q-59 -49 -59 -117z" />
<glyph horiz-adv-x="837" d="M41 1524q0 -99 59 -156q59 -61 113 -61q23 0 28 8t5 24q0 20 -29 62q-10 10 -16 20q14 8 35 9q76 0 135 43q59 53 59 116t-59 117q-53 45 -135 45q-162 0 -187 -158q-8 -25 -8 -69zM410 1526q0 -105 59 -158q55 -61 111 -61q23 0 28.5 8t5.5 24q0 12 -30 62q-4 6 -15 20 q14 8 33 9q74 0 137 43q57 51 58 116q0 66 -58 117q-57 45 -137 45q-160 0 -188 -160q-4 -25 -4 -65z" />
<glyph horiz-adv-x="837" d="M41 1589q0 -68 59 -116q59 -43 138 -43q16 0 26 -11l-8 -16l-2 -4q-29 -43 -29 -60q0 -33 33 -32q54 0 113 61q61 55 61 158q0 43 -8 67q-25 158 -186 158q-84 0 -138 -45q-59 -49 -59 -117zM412 1589q0 -68 57 -116q57 -43 133 -43q20 0 31 -11q-2 -6 -8 -14 q-4 -4 -4 -6q-29 -47 -29 -60q0 -33 35 -32q44 0 112 61q57 55 58 156q0 45 -9 69q-25 158 -186 158q-82 0 -133 -45q-57 -49 -57 -117z" />
<glyph unicode="&#xa3;" horiz-adv-x="1693" d="M41 66q0 -20 18 -39q25 -29 58 -29q295 16 553 18q182 0 329.5 -3t307.5 -9q86 0 118 53l5 6q20 45 32 78q20 45 39 78q20 35 62 80q43 43 73 88q16 16 17 45q0 14 -11 35q-20 39 -75 39q-104 0 -152 -68q-92 -109 -272 -137q-166 -27 -445 -31q-82 0 -82 33v16l11 35 q25 94 43 142q35 94 35 190q0 20 -11 72h80h287l-49 112h-346q-8 20 -15 41q-29 76 -39 109q-29 74 -28 147q0 84 55 166q29 53 106 94q63 41 111 52q47 6 133 6q55 0 127 -21q25 -6 35 -8l10 -2q0 -4 -22 -12q-57 -70 -58 -148q0 -96 84 -168q78 -68 191 -67q111 0 190 67 q84 78 84 168q0 66 -41 125q-78 137 -276 221q-193 80 -434 80q-238 0 -420 -94q-176 -86 -246 -217h-2q-63 -129 -68 -242q0 -86 29 -166q23 -57 43 -131h-98l45 -112h84q8 -35 8 -72q0 -156 -61 -301q-49 -125 -138 -285q-14 -8 -14 -34z" />
<glyph unicode="&#xad;" d="M41 508h1122v106h-1122v-106z" />
<glyph unicode="&#x2000;" horiz-adv-x="957" />
<glyph unicode="&#x2001;" horiz-adv-x="1915" />
<glyph unicode="&#x2002;" horiz-adv-x="957" />
<glyph unicode="&#x2003;" horiz-adv-x="1915" />
<glyph unicode="&#x2004;" horiz-adv-x="638" />
<glyph unicode="&#x2005;" horiz-adv-x="478" />
<glyph unicode="&#x2006;" horiz-adv-x="319" />
<glyph unicode="&#x2007;" horiz-adv-x="319" />
<glyph unicode="&#x2008;" horiz-adv-x="239" />
<glyph unicode="&#x2009;" horiz-adv-x="383" />
<glyph unicode="&#x200a;" horiz-adv-x="106" />
<glyph unicode="&#x2010;" d="M41 508h1122v106h-1122v-106z" />
<glyph unicode="&#x2011;" d="M41 508h1122v106h-1122v-106z" />
<glyph unicode="&#x2012;" d="M41 508h1122v106h-1122v-106z" />
<glyph unicode="&#x2013;" horiz-adv-x="1106" d="M41 508h1024v106h-1024v-106z" />
<glyph unicode="&#x2014;" horiz-adv-x="2130" d="M41 508h2048v106h-2048v-106z" />
<glyph unicode="&#x202f;" horiz-adv-x="383" />
<glyph unicode="&#x205f;" horiz-adv-x="478" />
<glyph unicode="&#x25fc;" horiz-adv-x="1187" d="M0 0v1188h1188v-1188h-1188z" />
</font>
</defs>
</svg>
