<?xml version="1.0" standalone="no"?>
<!DOCTYPE svg PUBLIC "-//W3C//DTD SVG 1.1//EN" "http://www.w3.org/Graphics/SVG/1.1/DTD/svg11.dtd" >
<svg xmlns="http://www.w3.org/2000/svg">
<metadata></metadata>
<defs>
<font id="boltonregular" horiz-adv-x="952" >
<font-face units-per-em="2048" ascent="1638" descent="-410" />
<missing-glyph horiz-adv-x="819" />
<glyph horiz-adv-x="0" />
<glyph horiz-adv-x="682" />
<glyph unicode=" "  horiz-adv-x="819" />
<glyph unicode="&#x09;" horiz-adv-x="819" />
<glyph unicode="&#xa0;" horiz-adv-x="819" />
<glyph unicode="!" horiz-adv-x="354" d="M41 139q0 -59 39 -98q41 -41 98 -41q55 0 96 41q39 39 39 98t-39 99q-41 41 -96 41q-57 0 -98 -41q-39 -39 -39 -99zM53 1204q0 -6 2 -45v-53l43 -780q61 35 76 39q12 0 84 -35q0 178 16 387q14 195 25 391h4q0 35 2 74v65q0 217 -29 326q-41 158 -92 158t-94 -156 q-37 -129 -37 -371z" />
<glyph unicode="&#x22;" horiz-adv-x="458" d="M41 1577q2 -100 20.5 -136t57.5 -36q37 0 53 35t16 137v129h-147v-129zM270 1577q2 -100 20.5 -136t57.5 -36q37 0 53.5 35t16.5 137v129h-148v-129z" />
<glyph unicode="#" d="M41 418h285l-47 -324h57l47 324h152l-46 -324h58l47 324h317v57h-311l21 154h290v57h-282l49 342h-60l-49 -342h-151l49 342h-59l-48 -342h-319v-57h311l-20 -154h-291v-57zM389 475l21 154h153l-20 -154h-154z" />
<glyph unicode="$" horiz-adv-x="1075" d="M41 231q0 -63 25 -73q127 -113 356 -148l-23 -225h45l23 219q27 -2 92 -2q160 0 322 115q154 111 153 295q-8 225 -166 301q-162 80 -321 114l20 207q74 -23 146 -67q74 -45 110 -99q12 -16 25 -28q16 -16 35 -17q37 0 37 35v8l-2 6q-10 45 -27 78q-18 37 -31 94 q-6 27 -43 39q-31 10 -59 23q-63 29 -185 43l23 237h-45l6 5l-20 -234q-23 2 -66 6v-2q-4 0 -31 2h-30q-119 0 -217 -43q-119 -55 -119 -215q0 -92 49 -147q59 -66 143 -86q43 -20 99 -37q37 -10 114 -31l-45 -461q-115 35 -178 113q-63 80 -92 158q-12 29 -23 67 q-12 45 -61 45q-39 0 -39 -47v-71v-91v-86zM270 971q0 47 49 61q53 16 117 23q41 0 86 -13l-2 2l-20 -210q-66 16 -90 24q-43 14 -93 47q-47 31 -47 66zM475 129l45 461q86 -20 129 -37q72 -41 109 -84q37 -41 39 -121q0 -102 -76 -164q-72 -57 -152 -57h-10q-25 0 -57 2 q-16 2 -25 2z" />
<glyph unicode="%" horiz-adv-x="1095" d="M41 891q0 -119 84 -203t203 -84q117 0 202 84q86 84 86 203q0 127 -96 213q117 -35 207 -35q109 0 238 45l-887 -1112h41l905 1133h2q4 0 6 2v6l10 16h-10v6q-2 -2 -12 -6h-21l-6 -10q-147 -55 -266 -55q-137 0 -301 69l-2 2v-6q-53 16 -96 17q-119 0 -203 -84t-84 -201z M203 889q0 100 24 170q25 72 97 71h4q72 0 96 -69q27 -74 29 -172q0 -115 -35 -172q-37 -66 -90 -66q-51 4 -88 72t-37 166zM481 276q0 -115 84 -198q84 -84 203 -84t203 84t84 198q0 117 -84 201t-203 84t-203 -84t-84 -201zM643 279q0 102 27 170q29 72 98 71v-4 q72 0 96 -67q27 -70 29 -170q0 -102 -35 -173q-35 -66 -88 -65q-53 4 -90 72t-37 166z" />
<glyph unicode="&#x26;" horiz-adv-x="1386" d="M41 590q0 -88 27 -168q76 -236 303 -346q139 -63 270 -64q90 0 199 33q4 0 8 2h6q20 0 31 -16q14 -27 49 -27q104 12 186 12q96 0 203 -12q23 0 23 10q0 8 -7 17q-37 61 -61 61q-27 0 -109 88q-6 4 -6 15q0 12 21 28q47 41 67 68q27 25 27 47q-12 31 -18 117 q-2 31 -3.5 53t-1.5 65q0 27 -18 27q-4 0 -8 -2q-8 -2 -12 -2h-3q-29 -10 -28 -45l2 -23q-23 -94 -92 -194q-14 -25 -27 -25l-6 4q-12 16 -19 27q-35 55 -133 203q-80 121 -184 295q-39 66 -74 123q-33 59 -61 110l-6 6q-6 8 -6 21q0 18 28 24q31 8 97 8q70 0 129 -14 q113 -25 200 -90q20 -23 45 -22l13 4q16 6 16 18q0 10 -16 33q-57 59 -93 117q-16 25 -30 34q-14 12 -51 15q-47 10 -136 10q-127 0 -225 -35q-6 -4 -20 -4q-29 0 -48 35q-14 23 -30 49q-14 29 -25 49q-12 29 -31 74q0 2 -2 8q-12 35 -12 47q0 2 2 6v6q12 33 45 48q8 6 25 6 q27 0 57 -25q47 -37 62 -63q8 -16 8 -29v-6q-2 -4 -2 -6q-8 -14 -8 -41q0 -23 8 -37q6 -14 10 -19q10 -16 27 -16q10 0 22 6q33 16 35 43q2 53 41 88q37 35 61 80q12 23 13 41q0 20 -13 41q-2 6 -6 14q-35 63 -86 91q-53 29 -104 28v4q-14 4 -45 4q-41 0 -84 -12 q-195 -57 -230 -201q-8 -25 -8 -75q0 -119 74 -273q14 -33 14 -47q0 -25 -22 -41q-143 -104 -209 -289q-35 -100 -35 -194zM301 745q0 125 51 207q16 31 27 35q16 0 31 -24v2q6 -10 20 -37q6 -8 19 -31l43 -74q147 -250 233 -409q68 -123 113 -219q8 -10 8 -29 q0 -31 -37 -31h-18q-10 -2 -21 -2q-121 0 -235 86q-133 102 -191 279q-43 127 -43 247z" />
<glyph unicode="'" horiz-adv-x="229" d="M41 1577q0 -100 17.5 -136t56.5 -36t56 36t17 136v129h-147v-129z" />
<glyph unicode="(" horiz-adv-x="315" d="M41 879q0 -369 68 -646q68 -274 165 -333v2q-63 145 -104 405q-41 268 -41 574q0 305 41 569q39 256 104 408q-98 -61 -165 -338q-68 -276 -68 -641z" />
<glyph unicode=")" horiz-adv-x="315" d="M41 -74v-6q98 61 166 338q68 276 67 645q0 365 -67 641q-68 276 -166 338q66 -152 104 -407q41 -264 41 -570q0 -307 -41 -571q-39 -256 -104 -408z" />
<glyph unicode="*" horiz-adv-x="360" d="M41 1374l2 -4q4 0 4 -2q18 0 111 82q4 -137 22 -137q16 0 25 137q86 -82 106 -82l6 2l2 2q0 10 -24 43q-31 41 -80 92q49 53 80 92q25 31 24 43l-2 3l-4 2q-23 0 -108 -82q-8 137 -25 137q-18 0 -22 -139q-94 84 -111 84l-4 -2l-2 -5q0 -10 25 -41q35 -45 81 -92 q-47 -47 -81 -92q-25 -31 -25 -41z" />
<glyph unicode="+" d="M41 520h408v-405h57v405h405v58h-405v407h-57v-407h-408v-58z" />
<glyph unicode="," horiz-adv-x="350" d="M41 137q0 -59 39 -98q39 -41 94 -41q4 0 25 -18q8 -8 8 -25q0 -20 -21 -72q-16 -35 -16 -53q0 -4 2 -4q33 0 76 57h2q29 35 47 109q12 53 12 102v21q-2 16 -2 20q-14 141 -133 141q-55 0 -96 -40q-37 -39 -37 -99z" />
<glyph unicode="-" d="M41 520h870v58h-870v-58z" />
<glyph unicode="." horiz-adv-x="354" d="M41 139q0 -59 39 -98q41 -41 98 -41q55 0 96 41q39 39 39 98t-39 99q-41 41 -96 41q-57 0 -98 -41q-39 -39 -39 -99z" />
<glyph unicode="/" horiz-adv-x="743" d="M41 45h65l596 1595h-65z" />
<glyph unicode="0" horiz-adv-x="1404" d="M41 858q0 -354 209 -606t450 -252q244 0 453 231q209 229 211 627q0 395 -215 623q-217 233 -447 233h-4q-227 0 -442 -252t-215 -604zM338 786q0 6 2 33v37q12 303 92 518t260 217l2 -4q182 0 277 -203q82 -170 82 -436v-45q-2 -27 -2 -47q-18 -330 -111 -526 q-92 -197 -246 -209q-158 0 -262 209q-94 201 -94 456z" />
<glyph unicode="1" horiz-adv-x="782" d="M41 1133q0 -20 35 -43q8 -8 35 -9h10q8 2 12 2q16 4 25 13l12 12q29 25 61 43q23 12 64 37l10 6q6 4 19 4q14 0 20 -4q20 -6 25 -29v-170v-168q0 -45 2 -96v-80q0 -217 -13 -325q-14 -145 -41 -197q-25 -47 -51 -51q-29 -2 -43 -64v-4q-2 -4 -2 -6q0 -16 35 -16 q49 6 117 12t116 6q68 0 109 -2q47 -2 111 -10q33 0 32 26q0 45 -22 46q-2 -2 -6 -3q-4 0 -8 -2q-20 0 -43 33q-29 41 -48 185q-10 68 -14 183.5t-4 317.5v174v244q0 164 2 238t2 159q14 31 14 56q0 41 -30 43l-6 2h-9q-18 0 -43 -10q-10 -6 -24 -33q-29 -53 -76 -133l-2 -4 q-33 -57 -88 -123q-47 -57 -133 -111q-82 -51 -133 -96q-10 -10 -23 -37q-6 -6 -6 -16z" />
<glyph unicode="2" horiz-adv-x="1255" d="M41 1251q6 -244 199 -366q16 -8 24 -13q6 -2 19 -10q49 -20 110 -20q197 0 254 119q4 8 6 14h2q2 6 2 16q0 57 -51 58q-20 0 -37 -17q-66 -57 -159 -57q-39 0 -76 24q-39 25 -55 52h-3q-41 72 -40 172q0 115 94 209t215 94q72 0 108 -6q35 -6 99 -54q70 -47 96 -110 q51 -90 51 -219q-8 -86 -47 -162q-41 -82 -82 -139q-47 -55 -92 -97q-57 -53 -100 -84q-41 -25 -66 -43l-2 -2q-174 -121 -270 -248t-172 -305q-4 -4 -5 -14q0 -8 9 -25q12 -20 28 -20q209 16 396 18q133 0 236.5 -3t217.5 -11q53 0 68 43q16 37 29 84q14 57 26 84 q16 43 47 88q29 41 49 92q6 8 7 27q0 16 -5 24q-8 27 -34 27l4 -4q-63 0 -92 -59q-82 -139 -256 -162q-172 -20 -410 -25q-16 0 -25 8q-4 0 -4 9q0 8 13 26q90 121 233 209q145 90 283 184q137 94 235 211q96 109 96 281q0 115 -47 244h-2q-59 137 -198 227q-141 92 -332 92 q-244 0 -420 -129q-174 -129 -174 -332z" />
<glyph unicode="3" horiz-adv-x="1349" d="M41 446q0 -164 156 -305q158 -141 393 -141q113 0 241 53q125 51 230 142q102 88 174 202q72 115 74 234q0 125 -22.5 219t-69.5 176q-98 170 -293 223q-31 6 -31 27q4 18 12 31q70 82 142 151l6 6q102 98 153 146q29 31 31 63q0 33 -25 33l11 4q-205 -12 -416 -12 q-121 0 -220.5 3t-199.5 11q-23 0 -35 -18q-12 -20 -18 -33q-70 -131 -154 -227q-20 -20 -26 -60q0 -39 26 -39q70 0 115 74q49 68 229 86q66 8 185 8q68 0 129 -6q23 -2 30 -6l2 -4q0 -8 -18 -33q-82 -94 -162 -172q-94 -92 -174 -160q-31 -27 -31 -65q0 -31 25 -31 q43 0 70 14q37 16 73 17q168 0 279 -135q88 -113 88 -252q0 -33 -6 -70q-2 -176 -117 -317q-113 -141 -295 -142q-129 0 -223 97q-92 96 -92 211v24q-2 16 -2 21q0 74 30 116q23 35 76 62q55 29 55 61v19q0 16 -10 22q-12 8 -30.5 11t-55.5 3q-53 -2 -92 -22 q-217 -92 -217 -320z" />
<glyph unicode="4" horiz-adv-x="1316" d="M41 391q0 -49 53 -57h703q25 0 37 -2q18 0 18 -49q-2 -102 -14 -131t-31 -39q-6 -2 -19 -9l-24 -12q-27 -12 -59 -74q0 -8 10 -16q14 -10 24 -10q49 6 117 12t115 6q49 0 106 -6q59 -6 105 -12q33 0 32 26q-2 41 -14 50q-12 10 -31 24q-18 16 -36 55q-18 41 -31 138 q0 14 10 34q12 23 45 23h62q57 0 57 55v64q0 53 -57 53h-74q-51 0 -58 25q-6 25 -6 53q-2 35 -2 117q0 90 2 141l6 399l7 400q-4 0 -11 30q-6 37 -43 39q-70 -2 -106 -71q-186 -303 -410 -594q-201 -262 -448 -574l8 -8q-37 -33 -43 -80zM299 512q0 18 12 33 q111 164 240 325q127 160 242 334l-5 4q6 10 31 37q4 8 10 8q12 0 13 -51q-2 -59 -2 -182v-182q4 -86 6 -146q2 -45 2 -125q0 -55 -31 -55h-39l-442 -10q-4 0 -10 -2h-7q-20 0 -20 12z" />
<glyph unicode="5" horiz-adv-x="1284" d="M41 369q0 -221 164 -314q168 -94 405 -94q252 0 449 191q184 178 184 415v19q-2 14 -2 16q0 295 -178 467q-182 178 -438 180q-129 -6 -246 -47q-8 -4 -23 -4q-20 0 -20 23q4 12 4 49v51v37v43q-2 6 -2 26t37 21q76 6 225 6q133 0 293 -10q12 -4 18 -4h2q27 0 48 2 q31 4 51 45q39 82 112 164q14 16 15 32q0 8 -6 15q-12 18 -48 18q-25 -8 -41 -22q-14 -12 -40 -19q-98 -14 -224 -14q-20 0 -65 2q-47 2 -70 2q-147 10 -381 29v-2l-12 4q-8 0 -12 2t-11 2l-8 2q-10 0 -20 -10t-11 -27q4 -82 13 -166q8 -74 8 -166t-8 -166q-8 -84 -13 -161 q-2 -27 -2 -82q0 -57 58 -58q16 0 49 27q23 23 111 76q61 37 139 37q35 0 71 -7q150 -23 246 -137q100 -119 103 -311q0 -203 -99 -313q-100 -115 -248 -138q-18 -2 -55 -2q-125 0 -213 84q-86 84 -86 203q0 186 170 233h2q35 4 35 48q0 47 -45 47q-12 0 -25 2h-22 q-135 0 -227 -74q-106 -86 -111 -272z" />
<glyph unicode="6" horiz-adv-x="1335" d="M41 737q0 -383 201 -575q207 -195 503 -195v2h7h6q186 2 362 176q174 172 174 420q0 289 -176 436q-176 152 -430 152q-35 0 -43 -14q-127 -172 -287 -314q-8 -12 -28 -12q-14 2 -15 12q10 180 80 312q72 133 166 227q96 96 193 154q98 59 159 86q45 0 68 28q4 12 4 19 q0 47 -70 47l-10 6q-147 0 -309 -96q-158 -94 -285 -240q-125 -143 -202 -313q-35 -80 -51.5 -155t-16.5 -163zM365 496q0 152 98 268q104 125 248 125q145 0 245 -117q100 -115 101 -278q0 -166 -101 -281q-100 -117 -245 -117l-2 4q-143 0 -246 154q-98 147 -98 242z" />
<glyph unicode="7" horiz-adv-x="1210" d="M41 1321q0 -12 4 -18q12 -23 41 -23q74 0 111 76q61 109 282 123q66 6 185 6q100 0 198 -10q41 0 41 -29q0 -8 -6 -21q-133 -262 -354 -684q-186 -354 -293 -698v-4q-2 -4 -2 -6q0 -10 6 -23q6 -14 29 -14q61 10 114 10q49 0 115 -10q4 0 10 -2h6q41 0 50 49 q82 436 243 840q152 381 342 776q6 10 6 24q0 25 -34 25q-27 0 -37 -2l2 2q-66 -4 -195 -4q-33 0 -98 2q-66 2 -98 2q-262 12 -392 18h-6h-6q-29 0 -67 -22q-39 -23 -48 -55q-23 -78 -57 -148q-43 -84 -82 -145q-10 -12 -10 -35z" />
<glyph unicode="8" horiz-adv-x="1286" d="M41 506q0 -236 172 -371t416 -135q242 0 430 158q186 156 186 366q0 162 -88 295q-90 137 -235 207q-43 18 -43 33q0 8 6 8q29 20 43 33q68 59 116 123q49 66 50 147q0 139 -133 248t-330 108l-4 -4q-195 0 -334 -110q-137 -111 -137 -264q4 -135 43 -203q39 -66 80 -101 q35 -31 65 -45q12 -6 12 -14q0 -6 -10 -16q-111 -82 -209 -201q-96 -119 -96 -262zM285 516q0 129 63 256q74 152 176 152q18 0 94 -29q72 -29 162 -90q84 -57 150 -141q55 -74 55 -187q-20 -211 -121 -284q-100 -74 -231 -84v-3q-141 0 -236 107q-100 115 -110 262v21 q-2 16 -2 20zM379 1395q0 96 76 166q72 65 174 65q78 -2 166 -70t88 -161q0 -96 -39 -172q-41 -78 -111 -90q-82 0 -219 84q-135 84 -135 178z" />
<glyph unicode="9" horiz-adv-x="1290" d="M41 1163q0 -10 2 -30t2 -31q0 -287 199 -434q207 -152 411 -152q31 0 43 14q29 86 62 129q33 41 129 113q10 12 26 12q14 -2 15 -12q-14 -137 -92 -252q-80 -119 -174 -201t-197 -143q-94 -55 -158 -86h-2q-53 -14 -63 -29q-6 -8 -6 -18q0 -45 69 -45l-2 -2q152 0 320 94 q172 96 311 240q143 147 231 313q43 78 62.5 153.5t19.5 161.5q0 389 -170 572q-172 193 -471 194q-184 0 -385 -174q-182 -158 -182 -387zM272 1262q0 125 80 211q84 96 223 96q41 0 64 -4l2 2q182 -29 244 -181q63 -158 71 -239l13 -92q0 -2 2 -13v-12q0 -27 -10 -51 q-25 -51 -123 -111q-98 -57 -203 -61q-287 0 -352 362q-10 55 -11 93z" />
<glyph unicode=":" horiz-adv-x="354" d="M41 139q0 -59 39 -98q41 -41 98 -41q55 0 96 41q39 39 39 98t-39 99q-41 41 -96 41q-57 0 -98 -41q-39 -39 -39 -99zM41 1020q0 -59 39 -98t98 -39q57 0 96 39t39 98q0 57 -39 98q-39 43 -96 43t-98 -43q-39 -41 -39 -98z" />
<glyph unicode=";" horiz-adv-x="354" d="M41 137q0 -59 39 -98q39 -41 94 -41q4 0 25 -18q8 -8 8 -25q0 -20 -21 -72q-16 -35 -16 -53q0 -4 2 -4q33 0 76 57h2q29 35 47 109q12 53 12 102v21q-2 16 -2 20q-14 141 -133 141q-55 0 -96 -40q-37 -39 -37 -99zM41 1018q0 -59 39 -98q41 -41 94 -41q57 0 98 41t41 98 q0 55 -41 98q-41 41 -98 41q-55 0 -96 -41q-37 -39 -37 -98z" />
<glyph unicode="=" d="M41 418h870v57h-870v-57zM41 629h870v57h-870v-57z" />
<glyph unicode="?" horiz-adv-x="1153" d="M41 1393q0 -78 51 -129q53 -53 125 -54q74 0 127 54q53 53 53 129q0 66 -39 110l-2 -2q61 41 142 60q20 4 57 4q55 0 100 -23q74 -33 117 -129q31 -68 31 -178q0 -45 -6 -100q-20 -211 -97 -277q-74 -63 -153 -104q-78 -39 -137 -117q-47 -59 -48 -225q0 -6 3 -39v-47 q61 35 75 39q12 0 82 -35q0 240 84 295t187 80q102 25 198 98q94 74 119 350q0 6 2 31v28q0 203 -121 342q-137 162 -395 162q-27 8 -84 8q-119 0 -270 -63q-201 -86 -201 -268zM301 141q0 -57 41 -98t96 -41q57 0 99 41q39 39 38 98q0 59 -38 99q-42 41 -99 41 q-55 0 -96 -41t-41 -99z" />
<glyph unicode="@" horiz-adv-x="1372" d="M41 860q0 -352 184 -604t447 -252q133 0 246 68q115 68 202 184q-150 0 -231 -57q-82 -57 -215 -58q-221 0 -350 211q-129 213 -129 510q0 299 129 510t350 211t356 -211t135 -510q0 -150 -43 -282l-4 -7q-2 -2 -2 -6v-6q-4 -14 -6 -16h2q-29 -109 -68 -109q-25 0 -43 43 q-20 45 -22 107v49v59q2 88 2 205v107q4 10 6 30q0 6 2 21q0 12 -6 18q-80 49 -170 76q-86 25 -166 25q-152 0 -301 -115q-4 -4 -4 -14q0 -14 16 -31q20 -20 37 -21q6 0 13 6q90 86 233 86q43 -2 98 -12q59 -10 72 -37q10 -25 14 -55q0 -47 -53 -47q-20 0 -31 2q-10 2 -30 2 q-176 0 -305 -59q-125 -57 -125 -265q0 -160 141 -215q68 -25 137 -24q82 0 162 33q41 14 76 14q31 0 55 -12q43 -25 80 -39q47 -39 117 -56q76 0 131 66q53 63 88 154q35 90 49 180q14 86 14 143q0 354 -198 604q-199 252 -461 252t-447 -252q-184 -252 -184 -604zM473 647 q0 94 68 162q70 70 243 72l2 2q2 0 7 -2q12 -4 18 -7q14 -6 14 -40q-2 -18 -6 -80q0 -51 -2 -74t-2 -62q-2 -61 -31 -79q-4 -4 -16 -13q-12 -8 -18 -10q-70 -39 -127 -39q-45 0 -74 23q-76 51 -76 147z" />
<glyph unicode="A" horiz-adv-x="1748" d="M41 23q0 -16 33 -17q109 10 202 12q90 0 191 -12q35 0 43 27q6 12 6 30q0 20 -12 21q-23 6 -49 22q-25 16 -31 66q0 63 43 180q8 27 31 27l-2 -4h702q31 -2 43 -41q39 -113 39 -160q0 -45 -12 -63q-14 -18 -33 -27q-18 -8 -18 -55q2 -14 30 -21q12 -4 39 -4q98 10 191 12 q80 0 198 -12q14 0 25 16q8 16 8 23l-2 8q-18 51 -37 51q-16 0 -55 45q-39 47 -109 195q-72 152 -202 506l-9 14l-301 795q-18 39 -32 39q-10 -2 -50 -2h-39h-36q-92 0 -179 2q-141 4 -182 8q-14 0 -20 -14q-4 -6 -4 -17l2 -6v-6q12 -66 141 -76q129 -8 137 -110 q0 -78 -67 -211q-78 -152 -183 -430q-152 -350 -233 -506q-80 -150 -117 -197q-35 -41 -51 -41q-12 0 -35 -49q-4 -8 -4 -18zM539 575q14 53 47 123q14 29 55 123l8 19q33 78 99 237q18 47 24 62q45 111 64 151q8 20 20 21q12 0 25 -23q84 -166 174 -454q35 -76 61 -142 q23 -55 49 -121q2 -6 2 -30q0 -23 -24 -23h-4h-582q-22 0 -22 19q0 18 4 38z" />
<glyph unicode="B" horiz-adv-x="1705" d="M41 1688q4 -51 31 -56q29 -2 55 -61q29 -61 47 -217q12 -111 12 -320v-92q-2 -59 -2 -113q-8 -356 -30 -510q-20 -154 -43 -202q-20 -49 -41 -49q-16 0 -21 -52q0 -22 32 -22h3q106 10 188 12h97q63 0 96 -2v-2h10h14q14 -2 68 -2q115 0 283 -4q82 0 133 3t96 11 q371 72 481 236q113 168 115 325q-2 211 -129 330q-127 121 -334 178q-14 6 -14 25q6 14 22 18q266 92 267 260q0 39 -25 103q-29 70 -137 127q-113 59 -330 90q-96 16 -256 16q-139 0 -348 -16h-64q-20 2 -61 2q-84 0 -182 10q-33 0 -33 -26zM416 1231q8 147 22 233 q10 68 23 111q10 41 47 41q455 -6 567 -55q113 -49 113 -170q0 -139 -172 -193q-82 -23 -209 -35t-322 -12q-63 0 -63 33v45zM424 844q0 70 2 102q2 33 2 94q0 23 45 23l25 -2q76 -6 116 -8h134h-5q209 -25 332 -72q119 -45 178 -109q57 -61 74 -133q16 -70 19 -141 q-16 -117 -39 -195q-25 -84 -103 -147q-76 -61 -225 -98q-152 -39 -406 -47q-47 0 -59 12q-20 16 -35 67q-27 72 -43 222q-6 61 -9 157.5t-3 274.5z" />
<glyph unicode="C" horiz-adv-x="1757" d="M41 848q0 -352 256 -602q254 -248 618 -248q143 0 347 37q203 37 319 110q55 25 55 54q0 47 31 166q27 106 47 161q0 2 2 6v5q0 14 -12 22q-14 14 -35 14h-4l10 13q-45 0 -55 -47l-8 -31q-80 -139 -256 -256q-174 -117 -318 -117q-231 0 -456 203q-223 203 -224 504 q0 299 183 516q182 215 415 215q4 0 23 2h22q164 0 330 -80q184 -88 289 -246q23 -49 49 -49h19q23 0 26 23q0 16 -2 32q-2 8 -2 13q-51 94 -74 200q-10 35 -24 60t-68 43q-178 90 -321 108q-147 18 -305 19q-156 0 -314 -68q-156 -68 -282 -184q-125 -117 -203 -270 q-78 -156 -78 -328z" />
<glyph unicode="D" horiz-adv-x="1673" d="M41 33q0 -27 31 -27q27 4 92 4h90h47h59v-8q4 0 74 6q16 2 29 2q51 4 55 6q465 41 789 303q326 264 325 592q-8 250 -108 406q-98 154 -256 239q-158 86 -359 117q-211 33 -417 35q-2 2 -11 2q-59 0 -92 -4t-84 -4h-104q-61 0 -105 8q-33 0 -33 -29q4 -51 23 -55 q18 -2 37 -59q18 -55 31 -213q8 -127 8 -262q0 -41 -2 -113q-2 -100 -2 -148q-8 -344 -29 -505q-18 -150 -37 -199q-18 -45 -35 -45q-16 0 -16 -49zM406 846q4 266 12 420q10 152 24 229l2 2q4 27 13 59q8 33 59 33q311 -8 553 -135q244 -127 256 -539q0 -279 -246 -503 q-248 -225 -600 -256q-27 0 -33 12q0 2 -6 18q-2 6 -2 9q-14 72 -24 221q-6 57 -7 140t-1 290z" />
<glyph unicode="E" horiz-adv-x="1626" d="M41 1677q4 -51 27 -51q25 0 51 -55q29 -57 47 -211q12 -100 12 -287q0 -39 -2 -104q-2 -90 -2 -129q-8 -358 -31 -510t-43 -201t-39 -49q-18 0 -18 -49q0 -27 33 -27q106 10 190 10h195q229 0 356 -2q193 -2 500 -6q29 0 43 19q4 6 20 22q4 6 21 23q29 43 80 104 q18 25 43 45q29 25 49 45q12 12 12 51q0 37 -39 37q-29 0 -80 -33q-53 -35 -88 -49q-127 -78 -379 -112q-213 -27 -360 -27q-6 0 -39 2h-41q-82 4 -117 92q-28 72 -28 209v10v406v92q0 57 2 80q0 29 26 29h439q109 -2 239 -13q133 -8 166 -104q14 -45 43 -45h6q47 0 47 35v6 l-2 4q-16 102 -16 186q0 82 16 174q0 4 2 9v6q0 31 -41 30h-2q-18 0 -26 -14t-25 -31q-76 -76 -174 -102q-104 -29 -264 -29h-385q-41 0 -41 35q8 121 14 176q10 72 19 117q6 37 26 68q22 34 79 34h3q63 -2 180 -6q135 -4 252 -14q133 -12 252 -37q121 -25 185 -76 q43 -45 98 -45h14q23 0 31 12q4 4 4 11q0 6 -10 20q-51 51 -94 107q-49 66 -95 108q-14 16 -49 25q-37 10 -55 10h-14q-14 0 -17 -2l-10 2q-270 0 -485 -8t-486 -8q-100 0 -192 14q-33 0 -33 -29z" />
<glyph unicode="F" horiz-adv-x="1517" d="M41 1677q4 -51 27 -51q25 0 51 -55q29 -57 47 -211q12 -111 12 -318v-92q-2 -59 -2 -110q-2 -14 -2 -39v-37q-10 -340 -27 -465q-18 -135 -36 -178q-18 -41 -31 -41q-14 0 -14 -49q0 -27 32 -27q100 10 195 12q49 0 106 -6q59 -6 105 -12q33 0 33 27q0 45 -17 51 q-14 6 -37 35q-20 25 -39 114q-18 86 -24 295l4 -4q0 68 -6 141q-2 29 -3 60t-1 112v97v80q0 29 26 28l332 -4q109 -2 242 -12q133 -8 166 -105q14 -45 45 -45h2q47 0 47 33v6l-2 6q-16 102 -17 187q0 84 17 176q0 4 2 8v6q0 31 -39 31h-6q-23 0 -31 -14t-24 -31 q-78 -76 -179 -102q-104 -29 -266 -29l-276 4q-41 0 -41 35q8 123 14 182q10 78 18 123q6 37 27 67q23 35 86 35q57 -2 164 -6q92 -2 219 -16q109 -12 219 -41q104 -27 170 -78q43 -45 98 -45h17q20 0 29 12q4 4 4 13q0 10 -9 18q-51 51 -94 106q-49 66 -94 109 q-14 16 -49 25q-37 10 -55 10h-15q-12 0 -16 -2q-309 0 -440 -2t-439 -2q-98 0 -192 14q-33 0 -33 -29z" />
<glyph unicode="G" horiz-adv-x="1798" d="M41 850q0 -352 256 -602q254 -248 618 -248q145 0 357 55q213 55 330 129q51 33 51 56l-2 4q-12 23 -23 53q0 225 3 338t9 174q16 150 39 190q18 39 47 39q25 0 31 58q0 10 -16 20q-8 6 -29 6q-45 -2 -98 -6q-35 -2 -98 -2h-101q-51 0 -100 6q-39 0 -39 -22q4 -45 20 -51 q18 -6 39 -39q20 -33 39 -131q20 -104 23 -330l2 10q-6 -92 -9.5 -155.5t-3.5 -116.5q0 -55 -86 -90q-63 -25 -122 -39q-45 -10 -142 -21q-231 0 -463 195q-111 92 -165 218t-54 294v28q-2 25 -2 29q0 283 156 473q168 205 403 205q6 0 35 2h33q150 0 272 -45 q156 -55 326 -211q23 -49 55 -49h19q20 0 24 22q0 2 2 9v6q0 16 -6 30q-43 72 -61 129q-18 59 -68 99q-178 90 -321 108q-147 18 -306 19q-309 0 -591 -228q-283 -227 -283 -618z" />
<glyph unicode="H" horiz-adv-x="1656" d="M41 1677q4 -51 25 -55q20 -2 43 -59t34 -213q8 -131 9 -275q0 -39 -2 -108q-2 -96 -3 -140q-8 -352 -24 -503q-14 -150 -31 -199q-14 -49 -29 -49q-12 0 -12 -51q0 -27 33 -27q111 12 192 12q96 0 197 -12q33 0 33 27q0 55 -19 55q-18 0 -41 49t-36 199q-12 109 -13 323 q0 10 2 82v98v93q0 59 2 86q0 14 2 22q4 12 35 12l209 -6q70 -2 211 -2h182q61 0 185 4q35 0 35 -14v-25q0 -119 -3 -186q-10 -365 -26 -504q-18 -143 -35 -198q-14 -49 -29 -50q-12 0 -12 -49q0 -26 31 -26h2q104 12 194 12t197 -12q33 0 33 26q0 55 -19 56q-18 0 -41 49 q-20 47 -39 198q-12 111 -12 332q0 12 2 80v90q4 371 23 537q18 158 37 203q18 43 36 43q16 0 17 55q0 29 -33 29q-94 -14 -194 -15q-90 0 -197 15q-33 0 -33 -29q4 -43 21 -49q18 -6 39 -33q23 -27 36 -105q8 -29 9.5 -78t1.5 -182q0 -49 -31 -49q-63 2 -186 6 q-61 2 -185 2q-139 0 -209 -2t-204 -6l-21 19q-35 0 -35 39q4 205 19 280q14 76 35 98q18 23 32 25t15 55q0 29 -33 29q-94 -14 -197 -14q-100 0 -192 14q-33 0 -33 -29z" />
<glyph unicode="I" horiz-adv-x="548" d="M41 1677q4 -51 25 -55q20 -2 43 -59t34 -213q8 -131 9 -275q0 -39 -2 -108q-2 -96 -3 -140q-8 -354 -24 -505q-14 -150 -31 -199q-16 -45 -29 -45q-12 0 -12 -49q0 -27 31 -27q100 10 194 12q96 0 197 -12q33 0 33 27q0 55 -19 55q-18 0 -41 49t-36 199q-12 111 -13 327 q0 10 2 84v99q4 369 23 534q18 158 37 203q18 43 35 43q14 0 14 57q0 29 -33 29q-94 -14 -196 -14t-197 14l-10 -2q-31 0 -31 -29z" />
<glyph unicode="J" horiz-adv-x="907" d="M41 -358q0 -25 18 -43q16 -14 43 -15q76 12 160 47q74 31 156 74q80 43 166 117q88 76 194 133q10 0 31 25q16 16 16 65q-12 86 -22 105q-8 16 -19 61q-8 39 -14 174q-4 80 -12 381q-2 31 -2 63q-8 129 -8 332q0 127 6 203q14 154 41 203q25 43 49 43q22 0 22 52 q0 34 -32 34q-94 -14 -195 -15q-100 0 -195 15l2 10q-45 0 -45 -29q4 -51 25 -55q20 -2 45 -59q23 -51 39 -213q8 -68 8 -293v-103q-2 -68 -2 -127q-8 -315 -24 -477q-14 -162 -31 -239q-16 -80 -27 -99q-12 -23 -18 -49q-66 -100 -150 -160q-84 -61 -164 -92 q-27 -10 -43 -24q-18 -18 -18 -45z" />
<glyph unicode="K" horiz-adv-x="1603" d="M41 31q0 -27 33 -27q111 12 192 12q96 0 197 -12q23 0 31 4q18 6 18 21q-2 47 -23 47q-18 0 -40 24q-20 23 -39 111q-18 86 -19 305q0 63 10 74q27 27 58 55q35 31 67 68q33 37 76 69q14 14 27 23q0 4 10 4q16 0 41 -33q231 -315 299 -438q74 -129 74 -178q0 -47 -39 -56 q-39 -8 -39 -73q8 -14 39 -21q14 -4 45 -4q61 4 137 4h141q61 0 88 -2q33 0 64 2h29q14 14 14 31q0 10 -6 22q-31 51 -49 52q-18 0 -62 37q-43 41 -153 188q-106 145 -326 504q-20 33 -31 51q-14 29 -31 49l-4 -4q-12 14 -24 47q-4 4 -4 14q0 29 39 68q274 276 393 381 q123 109 166 133q39 23 49 23l4 -2q14 0 63 49q6 4 7 12q0 12 -13 21q-20 16 -32 16q-39 -4 -113 -8q-39 -2 -105 -2q-76 0 -129 2q-80 4 -122 12q-31 0 -60 -29q-10 -20 -10 -30q0 -29 37 -29q55 -6 55 -64q0 -57 -123 -221q-123 -162 -504 -528q-31 -31 -43 -31l-4 2 q-8 10 -12 25v41q-4 96 -4 256q0 190 12 291q18 162 43 206q23 41 51 41q25 0 31 52q0 16 -18 16l-6 2q-23 2 -29 2q-106 -14 -197 -14q-100 0 -192 14q-33 0 -33 -29q4 -51 25 -55q20 -2 43 -59q20 -55 36 -213q8 -68 9 -287v-104q-2 -68 -2 -132q-8 -344 -29 -505 q-18 -150 -37 -199q-18 -45 -33 -45q-4 -4 -9 -16.5t-5 -32.5z" />
<glyph unicode="L" horiz-adv-x="1515" d="M41 29q0 -27 35 -27q102 10 180 12q63 0 100 -2q219 -6 424 -6h418q59 4 92 62l31 55q10 18 35 55q20 31 55 64t55 63q8 8 9 35v12q-2 10 -2 13q-4 23 -35 22h-17q-72 0 -114 -68q-25 -37 -191 -116q-164 -78 -350 -82h-109h-110q-61 0 -82 16q-16 14 -27 56 q-16 66 -26 221q-6 66 -6 254q0 10 2 80v92q4 379 24 534q20 154 47 203q23 43 45 43q20 0 21 57q0 10 -23 21q-18 8 -35 8q-57 -8 -116 -10h-23q-70 -4 -96 -4h-80q-31 0 -80 6l14 2q-4 0 -8 2q-23 0 -22 -29q4 -51 22 -55q18 -2 37 -57q18 -55 31 -211q8 -131 8 -275 q0 -39 -2 -108q-2 -96 -2 -140q-8 -354 -31 -505q-20 -150 -43 -199q-18 -45 -37 -45q-18 0 -18 -49z" />
<glyph unicode="M" horiz-adv-x="2109" d="M41 1671q16 -57 51 -72q39 -16 76 -24t80 -35q39 -25 63 -100q10 -35 16.5 -85t6.5 -128v-398q0 -201 -4 -321.5t-15 -192.5q-20 -150 -49 -196q-27 -45 -49 -45q-25 0 -24 -49q0 -27 43 -27q61 4 110 4h115q51 0 59 -2q4 -2 33 -4l27 -4q33 0 32 26q0 53 -22 58 q-20 4 -49 55q-29 55 -47 203q-14 133 -15 346q0 10 2 74v86v166q0 121 6 202q4 31 13 43q14 0 41 -43q49 -88 135 -239q115 -201 170 -301q84 -150 147 -265q6 -10 11 -18q57 -102 61 -111q16 -20 27 -20q12 0 24 27q180 348 268 522t269 522q12 18 22 18l6 -2 q14 -6 15 -20q-6 -92 -19 -217q-12 -123 -12 -273q0 -213 -3 -336.5t-9 -193.5q-14 -150 -35 -197q-18 -35 -31 -34q-4 2 -8 2l-4 2q-12 0 -12 -43q0 -27 32 -27q102 10 197 12q82 0 193 -12q35 0 34 27q0 51 -18 51q-20 0 -39 43q-20 43 -39 197q-18 152 -18 516 q0 209 6 337t18 199q25 154 56 197q25 37 49 37l8 -2q26 0 26 49q0 31 -22 31q-37 -4 -129 -9q-51 0 -80 2t-49 7q-16 4 -41 4q-20 0 -33 -9q-162 -244 -293 -495q-143 -274 -272 -504q-6 -10 -12 -10q-4 0 -13 8q-141 240 -276 485q-125 227 -287 482q-6 20 -22 30 q-4 4 -23.5 4h-89.5q-100 -2 -133 -6q-61 0 -111 6q-61 6 -110 13l2 6q-33 0 -33 -29z" />
<glyph unicode="N" horiz-adv-x="1792" d="M41 1686q16 -57 55 -74q41 -14 86 -25q41 -8 88 -35q43 -25 68 -100q16 -53 16 -133q0 -16 -2 -41q-2 -35 -2 -49q-4 -68 -7 -164t-3 -248q0 -199 -5 -320.5t-18 -193.5q-25 -154 -51 -197q-27 -43 -53 -43q-27 0 -27 -47q0 -27 43 -26q66 4 113 4h113q53 0 67 -2 q8 -2 27 -4q20 -2 45 -4q33 0 33 26q-6 66 -37 66q-33 0 -58 37q-29 43 -47 186q-8 53 -8 231q0 125 6 293q0 39 2 97q2 78 2 114q6 164 13 246q4 31 12 43q16 0 39 -43q47 -80 172 -258q158 -223 270 -379q86 -119 260 -356l15 -19q63 -86 137 -184q20 -29 45 -61v4v-17h6 h6q14 -20 19 -20q12 -18 43 -19q12 0 30 6q23 6 35.5 14.5t16.5 12.5q-6 66 -7 174v234q0 160 3 235q4 117 6 182q4 391 24 547q20 154 47 203q20 41 45 41q27 0 27 53q0 29 -33 29q-49 -6 -86 -12t-84 -7q-102 0 -196 15q-31 0 -31 -29q0 -49 29 -49t55 -49q29 -53 49 -211 q14 -129 14 -311q0 -37 -2 -103q-2 -86 -2 -123q-2 -57 -2 -157q0 -51 -4 -134q0 -59 -18 -59q-6 2 -10 6q-23 20 -50 60q-74 109 -194 280q-143 205 -215 305q-27 37 -92 129q-82 115 -115 160q-104 145 -160 236q-6 20 -22 30q-18 8 -111 11q-18 0 -47 2h-33q-14 0 -33 -2 h-18q-59 0 -133 8q-47 6 -66 8q-51 4 -67 6q-33 0 -33 -26z" />
<glyph unicode="O" horiz-adv-x="1835" d="M41 852q0 -352 256 -602q254 -248 618 -248q365 0 621 248q258 250 258 602q0 174 -80 328q-80 156 -205 270q-125 117 -282 184q-155 68 -309 68q-156 0 -314 -68q-156 -68 -282 -184q-125 -117 -203 -270q-78 -156 -78 -328zM356 844q0 301 166 516t400 215h-2 q233 0 405 -195q82 -94 121 -224t39 -314q-8 -342 -170 -537q-159 -192 -391 -192h-2q-233 0 -400 215q-166 215 -166 516z" />
<glyph unicode="P" horiz-adv-x="1519" d="M41 1677q4 -51 25 -55q20 -2 43 -59t34 -213q8 -131 9 -275q0 -39 -2 -108q-2 -96 -3 -140q-2 -358 -18 -510q-16 -154 -33 -198q-18 -45 -35 -45q-18 0 -18 -49q0 -27 31 -27q100 10 194 12q96 0 197 -12q33 0 33 27q0 39 -11 49q-2 2 -10 8l-12 12q-12 14 -29 47 q-16 35 -30 125v13q-2 10 -3 12q0 41 37 53q43 14 109 31q424 94 678 299q252 203 252 422q0 250 -131 377t-320 180q-184 49 -397 49q-190 0 -365 -10q-102 0 -196 14h2q-31 0 -31 -29zM381 668v172q4 311 18 467q16 158 25 227q4 23 18 41q12 14 66 14l4 -2 q422 -25 541 -172q118 -144 118 -331q0 -177 -227 -353t-481 -258q-12 -6 -31 -6q-18 0 -24 12q-12 20 -17 47q-8 84 -10 142z" />
<glyph unicode="Q" horiz-adv-x="1835" d="M41 856q0 -207 92 -385q94 -180 248 -293q43 -33 111 -74q72 -43 145 -77q8 0 8 -11q0 -8 -10 -18q-2 -2 -12 -18q-4 -6 -11 -13q-23 -31 -51 -61q-18 -20 -41 -45l-43 -43q-31 -31 -31 -43q0 -4 5 -6q10 -6 14 -29q0 -14 24 -14q4 0 13 2q16 2 20 2q47 49 170 49 q121 -4 252 -25q115 -18 250 -47q102 -20 139 -20q4 0 13 2h8q16 4 71 39q20 12 41 24q57 35 93 55q59 35 124 80q37 25 54 39q-2 0 -6 41q0 39 -52 39q-125 -88 -360 -100q-162 0 -279.5 10t-234.5 35l4 -8q-31 6 -35 16q-4 12 -4 25q0 27 43 26h10q6 -2 8 -2q29 -2 84 -2 q365 0 621 248q258 250 258 602q0 174 -80 328q-80 156 -205 270q-125 117 -282 184q-156 68 -309 68q-156 0 -314 -68q-156 -68 -282 -184q-125 -117 -203 -270q-78 -156 -78 -328zM350 852q0 301 166 516t399 215h-2q233 0 406 -194q82 -94 121 -224.5t39 -314.5 q-8 -342 -170 -537q-159 -192 -392 -192h-2q-233 0 -399 215t-166 516z" />
<glyph unicode="R" horiz-adv-x="1546" d="M41 1675q4 -51 25 -55q20 -2 43 -59t34 -213q8 -131 9 -275q0 -39 -2 -108q-2 -96 -3 -140q-2 -358 -18 -510q-16 -154 -33 -198q-18 -45 -35 -45q-18 0 -18 -49q0 -27 31 -27q100 10 194 12q96 0 197 -12q33 0 33 27q0 39 -11 49q-2 2 -10 8l-12 12q-12 14 -29 47 q-16 35 -30 125q0 4 -3 15v10q0 41 37 53q43 14 109 31l55 12l55 12q55 14 97 15q33 -4 96 -88q98 -131 121 -172q16 -31 16 -60q-6 -16 -26 -24q-14 -6 -15 -33v-8q2 -10 2 -17q8 -12 56 -14h59q102 12 184 12q74 -8 107 -8q51 0 108 10q23 0 23 8q0 4 -4 13q-4 4 -4 6 q-35 47 -52 49q-18 4 -57 27q-39 25 -113 100q-70 72 -217 276l2 9q-12 12 -12 24q0 18 27 35q10 6 39 25l57 36q154 102 254 228q98 123 98 248q0 248 -135 376q-133 129 -328 181q-190 49 -405 49q-195 0 -369 -10q-102 0 -196 14q-31 0 -31 -29zM387 662v172 q4 311 19 466q16 158 24 228q4 23 19 41q12 14 65 14l4 -4q240 -12 369 -57q133 -47 196 -113q66 -68 80 -154q14 -80 15 -178q0 -174 -228 -350q-227 -176 -481 -258q-12 -4 -29 -4q-20 0 -26 10q-14 20 -17 45q-8 84 -10 142z" />
<glyph unicode="S" horiz-adv-x="1492" d="M41 348q0 -74 45 -88q117 -102 301 -176q188 -74 412 -74q240 0 450 162q203 160 203 430q-6 188 -92 295q-86 109 -215 172q-127 63 -281 105q-147 39 -284 92q-66 27 -138 73q-72 47 -71 99q0 72 73 116q76 47 174 48q14 4 44 4q109 0 256 -93q182 -111 227 -233 l-10 -6q23 -59 73 -60q23 0 37 19q10 14 10 24q0 4 -2 11q-2 6 -2 8q-29 68 -47 121q-20 61 -37 123q-14 63 -67 63q-20 4 -29 6q-8 2 -20 2q-160 109 -394 129v-2q-211 -2 -352 -73q-141 -70 -153 -283q0 -100 79 -178q82 -78 193 -135q119 -59 252 -97q129 -35 264 -84 q115 -43 195 -135t79 -215q0 -154 -141 -264q-135 -104 -248 -104l4 2q-12 -2 -18 -2q-150 0 -256 36.5t-188 114.5q-172 160 -203 305q-2 84 -55 84q-55 0 -56 -88q0 -63 -6 -129q-6 -63 -6 -125z" />
<glyph unicode="T" horiz-adv-x="1669" d="M41 1380q0 -10 8 -26q16 -25 43 -25h2q74 0 107 64q47 78 194 133t244 67q6 0 16 2h9q16 0 16 -4q6 -16 10 -45q8 -70 15 -252q0 -203 -3 -376q-2 -59 -2 -91q-12 -346 -34 -505q-20 -150 -43 -199q-18 -49 -37 -49q-16 0 -17 -49q0 -27 33 -27q43 2 109 6h12q68 4 98 4 q96 0 209 -12q33 0 33 27q0 55 -19 55q-18 0 -43 49t-43 199q-18 152 -18 503q0 311 8 459q10 178 21 250q6 35 10 43q0 4 14 4h11q8 -2 14 -2q84 -8 235 -59q147 -49 203 -138q33 -69 109 -69h2q29 0 49 24q12 12 12 27q0 6 -6 18q-2 4 -2 5q-45 66 -98 133q-59 76 -84 139 q-18 47 -88 47q-223 -8 -486 -18q-61 -4 -192 -4q-176 0 -367 12l-4 10h-2h-2h-59q-27 0 -50 -68q-16 -47 -61 -114q-49 -74 -80 -125q-6 -8 -6 -23z" />
<glyph unicode="U" horiz-adv-x="1613" d="M41 1688q4 -51 22 -56q18 -2 39 -57q23 -59 35 -215q8 -131 8 -277q0 -39 -2 -108q-2 -96 -2 -139q-2 -86 -6 -168q-2 -76 -6 -142h2v-34v-35q4 -281 98 -377q90 -86 246 -86q152 6 332 74q188 70 356 108q16 4 31 4q0 -16 -4 -30q-20 -78 -49 -78q-27 0 -27 -52 q0 -26 31 -26h2q109 12 194 12q88 0 195 -12q33 0 33 26q0 55 -19 56q-18 0 -41 49t-36 199q-6 61 -9.5 173.5t-3.5 333.5q4 369 23 535q18 158 37 203q18 43 36 43q16 0 17 57q0 29 -23 29q-6 -2 -10 -2q-104 -12 -194 -13q-90 0 -195 13l-4 2h-6q-23 0 -23 -29 q4 -51 25 -55q20 -2 43 -60q20 -55 37 -213q8 -61 8 -256q0 -43 -2 -116q-2 -102 -2 -150v-80q-2 -84 -2 -170q2 -72 2 -184q0 -57 -113 -90l2 4q-133 -45 -248 -72q-133 -33 -227 -34q-76 0 -118 8t-66 26q-55 41 -60 318h-6q-2 41 -2 137q0 106 2 168q4 379 25 532 q20 150 47 199q18 39 41 39q18 0 18 55q0 10 -22 27q-18 12 -35 12q-100 -12 -197 -12q-82 0 -196 12q-31 0 -31 -26z" />
<glyph unicode="V" horiz-adv-x="1675" d="M41 1704q0 -10 4 -18q23 -49 41 -50q23 0 59 -49q39 -51 117 -219q76 -162 221 -557q43 -123 129 -365q66 -180 123 -362q20 -94 86 -94q53 0 92 94q6 16 19 51q16 43 43 113q23 53 43 114q18 51 22 56l2 -2q27 80 74 186q45 100 98 250q127 352 201 518q66 147 103 197 q35 45 53 45q20 0 57 63q6 6 6 17q0 12 -28 12q-57 -10 -97 -10h-90h-112q-70 0 -111 8q-43 0 -43 -29q-4 -8 -4 -22q0 -27 25 -27q37 0 51 -49q6 -12 6 -47q0 -45 -21 -162q-31 -158 -172 -530q-45 -119 -65 -179q-31 -88 -55 -153q-18 -49 -35 -49q-10 8 -33 55 q-14 37 -21 55l-30 86q0 2 -23 62q-25 66 -41 110q-162 391 -203 551q-30 113 -30 169q0 11 2 24q2 10 2 12q12 41 47 41q23 0 22 25q0 14 -6 34q-8 29 -43 29q-45 -6 -129 -6h-129q-88 0 -202 12q-25 0 -25 -10z" />
<glyph unicode="W" horiz-adv-x="2195" d="M41 1706q0 -2 2 -6q2 -6 2 -8q43 -78 66 -78t47 -37q25 -39 88 -203q63 -166 196 -567q57 -158 125 -363q78 -238 117 -358q25 -94 100 -94q41 0 68 51h-4q53 240 110 479q66 266 109 479q2 14 12 27l4 4q8 0 19 -28q45 -156 131 -467l129 -467q29 -72 92 -72q55 4 88 94 q25 84 43 158q16 66 31 108q14 45 14 52q27 72 62 188q37 117 86 256q121 340 194 518q63 156 88 197q27 45 39 45q14 0 51 63q4 6 4 17q0 12 -28 12q-55 -10 -92 -10h-90q-94 0 -179 12q-37 0 -43 -29q0 -4 -2 -12v-8q0 -33 25 -33q33 0 49 -53q6 -12 6 -47q0 -55 -22 -168 q-33 -162 -172 -535q-31 -76 -50 -147q-18 -70 -36 -129q-8 -31 -19 -31l-4 4q-10 12 -14 27q-59 211 -144 524q-70 264 -129 528q-12 47 -34 87q-19 36 -54 36h-2q-39 0 -59 -39q-23 -43 -29 -92q-29 -201 -100 -493q-27 -106 -49 -201l-74 -301l4 2q-8 -43 -22 -43 q-12 0 -25 39q-20 66 -31 100q-18 61 -45 129q-147 397 -184 559q-25 117 -25 177q0 10 2 24q2 8 2 12q12 49 43 50q18 0 19 20q0 16 -6 41q0 10 -9 10l-6 -2q-6 -4 -18 -8q-20 -2 -45 -3t-84 -1h-131q-47 0 -88 6q-39 6 -92 12q-27 0 -27 -14z" />
<glyph unicode="X" horiz-adv-x="1722" d="M41 16q0 -8 22 -8q53 4 93 6q53 4 88 4q47 0 133 -6q84 -6 131 -12q33 0 51 27q18 25 19 39q0 14 -21 14q-39 0 -57 37q-4 8 -4 24q0 41 41 135q51 119 274 416q18 27 39 27q18 0 37 -27q201 -293 246 -413q34 -86 34 -131q0 -19 -6 -31q-18 -41 -55 -41q-20 0 -21 -15 q0 -10 15 -34q14 -27 51 -27q43 6 152 12t153 6q96 0 203 -12q22 0 22 9t-6 18q-35 53 -61 69q-25 16 -80 74q-51 55 -166 207q-109 143 -315 469q-31 43 -31 84q0 37 27 76q219 305 319 424q106 127 143 157q35 35 54 35q6 4 20 18.5t31 36.5q0 2 4 7q4 8 4 12q0 10 -22 10 q-100 -14 -203 -14q-49 0 -123 6q-76 6 -121 12l-8 -6q-33 0 -51 -29q-12 -18 -13 -32q0 -16 21 -23q39 -10 59 -43q8 -10 8 -39q0 -33 -18 -88q-35 -94 -199 -307q-35 -47 -57 -47q-14 10 -49 55q-162 225 -197 320q-24 65 -24 99q0 21 6 30q16 33 47 36q18 0 18 17 q0 12 -12 31q-17 28 -49 28h-2q-37 -8 -129 -14q-82 -6 -129 -6q-102 0 -203 14q-14 0 -20 -20q0 -27 4 -33q37 -45 53 -45t57 -39q43 -39 138 -174q86 -123 301 -453q18 -27 18 -55q0 -29 -25 -57q-242 -338 -362 -486q-125 -154 -172 -200q-51 -51 -68 -58q-16 -6 -49 -57 q0 -2 -4 -6q-4 -8 -4 -13z" />
<glyph unicode="Y" horiz-adv-x="1722" d="M41 1675l2 -6q31 -57 59 -80q29 -20 80 -86q53 -63 142 -215q90 -150 239 -467q80 -168 129 -276q16 -35 17 -66q0 -12 -4 -18q-4 -8 -9 -17q-12 -25 -18 -36q-92 -154 -146 -228q-47 -66 -71 -84q-27 -20 -39 -22q-14 -2 -45 -43q-4 -4 -4 -15q0 -8 4 -14q6 -14 20 -14 l105 6h6q66 4 94 4q39 0 111 -10q33 -4 73 -11l37 -4q35 0 49 27q10 14 11 37q0 23 -23 22q-39 4 -55 60q-4 8 -4 31q0 57 43 180q57 162 266 514q219 369 326 530q100 154 145 201q37 43 51 43q12 0 45 57q4 6 4 15q0 12 -22 12q-51 -2 -100 -12q-43 -8 -99 -9 q-45 0 -117 7q-45 4 -55 6q-47 4 -57 4l-8 14q-37 0 -49 -26q-6 -12 -7 -29q0 -29 29 -29q43 -2 57 -61q0 -2 2 -13v-14q0 -63 -45 -190q-59 -164 -278 -523q-35 -59 -55 -59t-43 35l-13 18q-8 12 -10 19q-209 379 -270 534q-53 131 -54 203q6 45 48 45q31 0 30 31 q0 4 -2 12q-2 10 -2 14q-8 27 -49 27q-47 -6 -125 -12q-80 -6 -129 -6q-61 0 -86 2q-35 2 -88 12q-14 0 -31 -12q-12 -6 -12 -15z" />
<glyph unicode="Z" horiz-adv-x="1619" d="M43 33q2 -8 2 -13q12 -34 47 -34h2q115 8 242 11t330 3q289 -6 575 -6q53 0 72 12q20 14 51 53q47 66 74 99q29 35 98 92q37 31 43 80q0 53 -53 53q-33 0 -64 -31q-31 -33 -55 -55q-88 -68 -209 -104q-119 -37 -231 -56q-111 -18 -191 -24t-88 -7q-76 0 -110 3 q-33 0 -76 -3h-31q-18 0 -18 25q4 23 10 33q96 164 209 325q115 164 221 326q121 182 270 395q139 197 295 387q37 43 37 68t-43 25q-31 0 -156 -2q-41 0 -94 -2q-154 -2 -354 -7h-320q-139 4 -149 19l2 8q-39 -2 -82 -74q-31 -55 -61 -104q-23 -37 -72 -101 q-23 -27 -23 -57q4 -31 37 -31q35 0 68 31q35 31 59 60q53 59 246 116q147 45 336 45q68 0 137 -6q10 -2 43 -12q18 0 18 -21q0 -14 -12 -32q-88 -154 -196 -314q-143 -213 -215 -317q-147 -221 -285 -406q-152 -207 -316 -387q-22 -26 -22 -51q0 -6 2 -12z" />
<glyph unicode="[" horiz-adv-x="274" d="M41 -152h192v72h-122v1864h122v69h-192v-2005z" />
<glyph unicode="\" horiz-adv-x="743" d="M41 1640l598 -1595h63l-596 1595h-65z" />
<glyph unicode="]" horiz-adv-x="274" d="M41 -80v-72h192v2005h-192v-69h123v-1864h-123z" />
<glyph unicode="_" horiz-adv-x="1161" d="M41 -78v-55h1079v55h-1079z" />
<glyph unicode="`" horiz-adv-x="227" d="M41 1706l53 -129q33 -94 74 -94q18 0 18 24q0 25 -18 70l-53 129h-74z" />
<glyph unicode="a" horiz-adv-x="1218" d="M41 346q0 -236 205 -315q102 -37 205 -37q119 0 235 45q29 10 47 27q20 16 47 30q16 10 25 13q8 0 8 -13v-6q-2 -4 -2 -6l-4 -39q0 -14 6 -27q6 -12 23 -12q27 4 69 4h68q61 0 86 -2q20 -2 69 -8l15 -2q35 0 35 16q0 6 -7 19q-8 43 -26 49q-20 6 -35 31q-16 27 -29 100 q-10 70 -14 260l2 84q2 162 2 213q0 123 2 156q4 25 6 43v12v18q0 20 -6 27q-2 0 -2 2q-121 78 -248 111q-133 35 -245 35q-223 0 -443 -170l-4 -3q-6 -8 -6 -22q0 -20 22 -43q18 -14 43 -25q8 -4 19 -4q14 0 14 6q125 127 342 127q61 -2 148 -18q84 -16 102 -55 q20 -43 23 -80q0 -72 -78 -72l-43 6q-14 2 -43 2q-262 0 -451 -86q-182 -86 -182 -391zM319 383q0 141 101 242q102 102 362 104v6q16 0 35 -8q20 -6 21 -63q0 -37 -2 -58l-7 -61q-2 -39 -2 -109q0 -63 -2 -90q-4 -41 -8 -63q-6 -33 -37 -56q-4 -4 -18 -16l-6 -4 q-16 -14 -27 -19q-106 -59 -186 -59q-57 0 -111 33q-113 76 -113 221z" />
<glyph unicode="b" horiz-adv-x="1241" d="M41 1677q16 -47 41 -47q29 0 45 -43q23 -51 35 -211q8 -131 8 -274q0 -43 -2 -119q-2 -106 -2 -154q-10 -360 -21 -493q-12 -156 -26 -203q-14 -51 -31 -55q-14 -2 -27 -55q0 -4 -2 -11q0 -16 33 -16q18 2 36.5 3t61.5 1q33 -2 97 -2q10 0 53 2q16 2 35 2q4 0 31 2h32h35 q27 -2 33 -2v-2h35h37q266 0 444 172t178 449q0 276 -172 413q-170 137 -383 144q-100 0 -131 -31t-84 -37q-29 0 -29 43q4 236 7 324q4 90 6 114q4 25 6 25q4 0 6 53q0 33 -41 33q-31 -4 -47 -4q-16 2 -47 2h-105q-57 0 -106 6q-12 0 -27 -8q-12 -4 -12 -21zM391 473 q0 115 2 240q2 94 2 131v49v49q0 4 2 16q2 4 2 11q5 18 25 30q88 57 158 58q145 0 239 -88q94 -84 94 -389q-16 -287 -118 -379q-102 -90 -248 -101q-20 0 -31 2l-31 7q-74 10 -86 139q-8 102 -10 225z" />
<glyph unicode="c" horiz-adv-x="1056" d="M41 573q0 -242 145 -417q141 -172 394 -172q119 2 219 67q102 66 178 160l2 2l2 2l6 8l6 8q2 2 8 17l7 18l4 13q4 18 4 24q0 4 -2 8q-8 61 -49 62l6 4q-27 0 -56 -55q-49 -74 -127 -111q-74 -35 -163 -39q-139 0 -246 143q-106 147 -117 283q0 53 6 115q10 78 39 147 q31 76 88 129q59 55 158 55q63 0 106 -30q47 -33 72 -70q31 -43 31 -61q0 -8 -6 -15q-18 -12 -19 -84q0 -23 19 -39q4 -6 16 -6q10 0 21 11l24 20q39 33 55 45q47 37 82 49q41 16 41 82q0 23 -37 55l-10 9l-43 43q-118 112 -304 112h-3q-201 0 -379 -172 q-178 -174 -178 -420z" />
<glyph unicode="d" horiz-adv-x="1228" d="M41 545q0 -242 135 -400q134 -157 311 -157h2q90 0 205 65q51 31 72 41q4 4 8 4q20 0 27 -55q0 -12 18 -31q18 -18 35 -18q25 4 49 4q0 -2 47 -2q66 0 99 2q31 0 67 -2q18 -2 29 -2q12 0 31 22q12 18 12 29l-2 6q-12 29 -41 29q-31 0 -55 49q-27 55 -41 207 q-12 111 -13 328q0 12 2 81v97q4 379 6 534q2 104 3 203v43q4 18 8 57q0 35 -29 35h-6q-4 -2 -6 -2q-45 -6 -62 -12q-14 -6 -61 -6q-49 0 -90 6q-35 6 -90 12q-12 0 -29 -12q-12 -8 -12 -25q18 -47 49 -47q29 0 53 -26q23 -27 39 -127q8 -37 8 -166q0 -27 -2 -76 q-2 -70 -2 -103q0 -35 -14 -49q-4 -4 -17 -4q-23 0 -55 17l4 -4q-53 27 -84 43q-43 23 -108 26q-236 0 -365 -184q-135 -190 -135 -430zM262 666q0 156 80 249q98 117 225 117q111 0 187 -76q39 -39 51 -67q12 -27 12 -78q-2 -57 -4 -184q-6 -156 -6 -197l-2 4v-98 q0 -39 -37 -88q-68 -82 -168 -82q-2 0 -18 2h-21q-115 16 -194 117q-78 100 -101 307q-4 27 -4 74z" />
<glyph unicode="e" horiz-adv-x="1060" d="M41 575q0 -141 37 -244.5t115 -183.5q155 -161 371 -161h3q115 2 234 75q121 76 194 197l13 18q6 12 8 21q4 10 4 31q0 37 -33 51q-6 4 -20 4q-16 0 -41 -14q-31 -23 -41 -47q-35 -63 -88 -103q-57 -41 -135 -47q-152 0 -265 109q-25 23 -24 43q0 18 20 36l-2 9 q98 96 203 184l209 178v2l133 125q10 10 18 31q0 2 2 6v6q0 23 -18 49q-68 96 -162 154q-94 59 -209 61q-166 0 -338 -157q-182 -166 -188 -433zM242 578q0 150 55 290q55 141 227 142q80 0 111 -39q29 -37 57 -105q6 -12 6 -30q0 -16 -8 -25q-12 -12 -24 -29l-4 -2 q-78 -88 -160 -157q-100 -86 -164 -150q-14 -14 -31 -14q-16 0 -35 18q-31 37 -30 101z" />
<glyph unicode="f" horiz-adv-x="841" d="M41 1024q0 -8 6 -18q10 -12 25 -13q25 0 82 2q12 2 26 2q49 0 49 -51v-57v-62q-2 -346 -18 -497q-14 -150 -37 -203q-20 -51 -43 -55q-23 -2 -37 -52v-4q-2 -4 -2 -6q0 -16 35 -16q49 6 98 6h97h96q49 0 98 -6q35 0 35 18q-2 4 -2 8q-8 39 -29 43q-18 4 -35 60 q-14 51 -26 211q-8 152 -8 330q0 10 2 79v95v55v55q0 33 10 37q12 4 24 4l68 -6q23 -2 68 -2q23 0 36 12q16 16 23 31l6 18l6 19q2 6 6 14t7 15q0 2 2 8v6q0 10 -4 16q-8 14 -29 15q-111 0 -191 -9q-31 0 -30 35q2 47 2 127v98l2 3q-2 2 -2 16q0 102 18 129t39 27 q20 0 37 -48q14 -43 14 -108v-6v-2v-4q-2 -4 -2 -7q0 -14 6 -14q12 -16 27 -16q2 0 10 2q4 2 6 2q27 12 39 24q29 29 58 43l61 31q31 18 31 78q0 4 -2 10l-2 4v11q-33 149 -213 149h-2q-94 0 -215 -86q-76 -57 -136 -123q-22 -32 -22 -64q0 -9 2 -24l2 -8q2 -12 6 -33 q4 -45 6 -88q2 -33 2 -106q0 -43 -41 -43q-12 2 -36 2h-35q-20 0 -37 -15q-14 -12 -19 -30q-8 -27 -12 -31q0 -6 -4 -23v-6q-2 -6 -2 -8z" />
<glyph unicode="g" horiz-adv-x="1306" d="M41 758q0 -104 55 -185q55 -80 152 -133l12 -12q2 -4 10 -14q2 -2 4 -6q4 -8 5 -13q0 -2 -3 -4q-2 -4 -2 -6q-8 -14 -45 -39l-28 -20t-23 -15q-35 -25 -59 -49q-25 -25 -60 -49q-4 -4 -4 -12t13 -25q18 -23 36 -26q23 -6 72 -15q49 -8 72 -12l-6 -4q-4 -2 -6 -4l-5 -2 q-12 -25 -47 -29q-33 -14 -71 -57q-31 -35 -31 -78q0 -2 2 -15v-12q18 -121 141 -211q121 -88 334 -88q201 0 336 117t154 223q4 2 6 12l18 56l19 55q0 4 2 10v6q0 27 -39 39q-35 8 -84 23q-53 16 -80 22q-4 2 -19 7q-80 18 -239 59q-80 20 -244 57q-14 16 -14 39 q4 16 31 19q29 4 49 6q57 -8 96 -13h20q16 -2 19 -2q186 0 328 111q153 120 153 291q0 119 -76 215q-12 16 -12 24q0 12 14 23q6 4 17 4q31 0 69 -61l19 -31q4 -39 31 -49q33 0 55 43q20 39 49 63q29 25 29 49q0 14 -11 29q-53 90 -170 90q-74 0 -139 -51q-39 -29 -59 -29 q-8 0 -19 6q-119 80 -307 80q-219 0 -368 -118q-152 -121 -152 -289zM250 -96q4 90 94 135v2q27 14 27 39q0 6 -4 18l-2 -2q98 0 221 -39q127 -39 245 -73q8 -14 9 -37q0 -72 -88 -146q-87 -73 -208 -73h-3q-127 0 -207 55t-84 121zM315 756q0 96 37 207q37 110 206 110h3 l2 2q170 0 207 -117q35 -113 39 -202q0 -94 -66 -201q-61 -104 -190 -104q-121 6 -180 108q-57 100 -58 197z" />
<glyph unicode="h" horiz-adv-x="1224" d="M41 1694q10 -49 35 -49q31 0 47 -43q23 -47 39 -211q12 -117 12 -355v-88q-2 -55 -2 -104q-6 -336 -22 -498q-14 -145 -35 -203q-18 -51 -37 -55q-18 -2 -27 -51q0 -27 33 -27q18 4 36.5 4h61.5q33 -2 99 -2t98 2q29 0 65 -2q20 -2 33 -2q35 0 35 15v6l-2 6 q-18 45 -43 51q-23 6 -45 62q-20 55 -31 208q-4 49 -4 191q0 127 6 307v12v13q0 45 19 57q18 12 37 18q14 4 30 11q39 14 74 24q47 10 125 10q92 0 129 -30q47 -35 47 -228q0 -88 -4 -141v-18v-17h-2v-6v-2v-2v-2v2l4 -12q0 -125 -3 -199t-9 -117q-12 -92 -29 -129 q-14 -33 -35 -37q-16 -2 -26 -36q0 -14 22 -27q18 -12 35 -12q49 6 86 12t86 6h86q37 0 86 -6q33 0 33 27q-14 27 -37 39t-37 51q-16 43 -23 135v31q-2 29 -2 45q0 102 9 219v2v6v6q-2 8 -2 39v37v35v37v192q0 84 -13 135q-16 68 -51 90q-39 27 -82 35q-18 4 -63 4 q-37 0 -84 -6q-94 -12 -193 -39q-37 -8 -74 -24q-49 -20 -75 -31q-6 -4 -19 -4q-2 0 -8 2t-10 2q-16 6 -17 63q2 61 5 197q2 100 4 154q2 66 2 129v30q2 18 6 56q0 32 -41 32h-2q-31 -4 -45 -8q-14 -2 -45 -2h-107q-57 0 -104 6q-35 0 -35 -28z" />
<glyph unicode="i" horiz-adv-x="526" d="M41 1147q14 -51 41 -57q23 -6 45 -43q23 -37 31 -142q4 -23 4 -86q0 -100 -12 -270h-5q0 -211 -12 -301q-12 -94 -27 -121q-16 -33 -30 -35t-25 -47q0 -16 8 -27q10 -12 23 -12q27 4 90 4h92h96q31 0 93 -4q10 0 24 10q8 6 8 17l-2 8q-12 45 -26 47t-27 25q-14 25 -22 96 q-8 74 -13 256q0 14 2 184q2 178 2 240v155v35q4 18 4 58q0 31 -41 30q-31 -4 -45 -4h-43q-66 0 -100 2q-66 4 -98 9q-35 0 -35 -27zM143 1530q0 -59 39 -98q41 -41 99 -41q55 0 96 41t41 98t-41 98t-96 41q-57 0 -99 -41q-39 -39 -39 -98z" />
<glyph unicode="j" horiz-adv-x="503" d="M41 -258q0 -51 53 -51q8 0 10 2q8 2 21 6q109 53 164 154q55 102 149 153q6 0 21 19q4 4 4 26q-2 12 -2 29q0 23 -6 31q0 -4 -2 -5q-4 4 -4 13q-4 29 -11 104q-4 57 -12 295l-2 25q4 272 6 383q4 113 6 145q0 20 6 33q2 12 2 41q0 18 -24 18q-45 -4 -68 -4h-67h-76 q-29 0 -74 4l4 -2q-39 0 -39 -26q4 -37 25 -37q23 0 43 -37q20 -35 39 -152q12 -86 12 -252v-57q-2 -37 -2 -68q-16 -180 -16 -401q0 -190 -140 -350l-10 -12q-10 -14 -10 -27zM186 1516q0 -59 39 -99q41 -41 99 -41q55 0 96 41t41 99q0 57 -41 98t-96 41q-57 0 -99 -41 q-39 -39 -39 -98z" />
<glyph unicode="k" horiz-adv-x="1243" d="M41 1690l2 -7v-6q12 -41 29 -41l8 2l8 2q18 0 37 -41q23 -51 35 -213q10 -137 10 -374v-84q-2 -51 -2 -99q0 -346 -12 -497q-12 -150 -31 -203q-18 -53 -39 -55q-20 -2 -33 -51q0 -4 -2 -11q0 -16 33 -16q18 2 36.5 3t61.5 1q33 -2 97 -2q63 0 96 2q31 0 67 -2 q18 -2 29 -2q37 0 37 14q0 2 -2 6t-2 7q-8 29 -25 30q-16 4 -30 27t-27 96q-10 63 -14 234q0 37 2 43q4 10 30 30q20 20 33 31q12 10 33 31q18 14 31 14q27 0 51 -41q139 -217 184 -311q39 -78 39 -117q-6 -25 -31 -24q-23 0 -22 -37q0 -27 47 -27q96 10 190 12q35 0 84 -4 q39 -4 88 -6q33 0 33 14q0 8 -6 21q-27 51 -43 51q-12 0 -51 35q-37 35 -111 141q-74 109 -221 375q-31 53 -31 74q0 25 60 86q141 143 204 192q66 49 93 62q29 12 43 12t57 47q8 6 8 19v6l-2 4q-6 14 -20 14q-31 -4 -107 -4h-100q-70 0 -111 2q-51 2 -104 10q-33 0 -58 -26 q0 -4 -2 -13v-8q0 -35 31 -47q39 -12 49 -41q0 -39 -49 -100q-57 -74 -258 -246q-12 -12 -33 -18q-18 0 -18 28v72q0 49 2 76q6 379 6 534v203v43q2 16 6 57q0 35 -28 35h-7q-4 -2 -6 -2q-31 -4 -47 -8q-16 -2 -47 -2h-104q-57 0 -107 6l-14 -2q-33 0 -33 -16z" />
<glyph unicode="l" horiz-adv-x="544" d="M41 1677q10 -47 33 -47q27 0 43 -43q23 -49 37 -211q12 -117 12 -344v-92q-2 -59 -2 -111q-6 -336 -23 -497q-16 -154 -32 -203q-18 -51 -35 -55q-16 -2 -25 -51q0 -27 31 -27q18 2 36.5 3t61.5 1q33 -2 96 -2t97 2q31 0 67 -2q18 -2 29 -2q37 0 37 14q0 2 -2 6t-2 7 q-16 35 -37 34q-20 0 -37 60q-14 59 -25 217q-4 57 -4 223q0 43 2 123q2 113 2 166q6 379 7 534v203v43q2 16 6 57q0 35 -29 35h-6q-4 -2 -6 -2q-31 -4 -47 -8q-16 -2 -47 -2h-105q-57 0 -106 6l4 -6q-31 0 -31 -29z" />
<glyph unicode="m" horiz-adv-x="1970" d="M41 1137q14 -51 39 -58q27 -6 47 -39t31 -139q4 -25 4 -94q0 -82 -10 -262q0 -203 -11 -305q-8 -86 -22 -125q-12 -33 -27 -39q-14 -6 -24 -49q0 -16 8 -27q10 -12 24 -12q27 4 88 4h93h96q47 0 92 -6q16 0 25 12q6 4 6 14l-2 8q-12 43 -29 50q-16 6 -31 32 q-16 31 -28 101q-10 68 -15 256q4 139 6 239v170q0 27 7 47q6 23 51 48q51 29 110 45q80 22 133 22h5q80 0 114 -41q53 -55 53 -278q0 -20 -2 -56q-2 -47 -2 -65v-19v-18v-6v-6v-2h2q0 -217 -12 -314q-12 -94 -31 -129q-18 -33 -36 -37q-16 -2 -27 -36q0 -10 22 -27 q18 -12 35 -12q51 6 84 12q37 6 84 6h86q41 0 86 -6q33 0 33 27q-14 27 -37 38q-23 12 -37 52q-16 43 -22 135v31q-2 29 -2 45q0 102 8 219v2q0 6 2 8h-2q-2 8 -2 39v37v35v36v78v72q0 35 16 61q27 35 68 54q51 23 74 28q80 23 147 23q78 0 115 -35q59 -47 59 -281v-51 q-2 -31 -2 -59v-19v-18h-2v-6v-6v-4l23 -2q0 -125 -3.5 -198t-9.5 -116q-12 -94 -30 -129q-18 -33 -37 -37q-18 -2 -25 -37q0 -10 23 -26q18 -12 34 -12q51 6 84 12q37 6 86 6q49 -6 86 -12q12 -4 28.5 -4h57.5q33 0 33 34q-14 27 -37 39t-37 51q-16 43 -22 136v30 q-2 29 -2 45q0 102 8 220v2v2v4q-2 8 -2 39v37v34v37v193q0 84 -12 135q-29 121 -121 139q-29 8 -96 8q-117 0 -265 -39q-39 -8 -83 -34q-57 -33 -89 -50q-29 -14 -41 -14q-14 0 -24 12q-8 10 -21 29q-10 14 -12 19q-33 51 -96 67q-20 6 -51 7t-109 1q-100 -2 -201 -30 q-39 -12 -79 -37q-43 -27 -84 -41q-8 -4 -21 -4q-14 0 -20 12q-10 25 -11 39q0 12 2 24q0 35 -41 35q-29 -4 -45 -4h-45h-100q-51 0 -100 6q-31 0 -31 -28z" />
<glyph unicode="n" horiz-adv-x="1230" d="M41 1137q16 -53 39 -56q27 -4 47 -37q23 -33 31 -135q4 -25 4 -92q0 -98 -12 -262q0 -213 -13 -305q-12 -90 -31 -125q-18 -33 -36 -39q-16 -6 -27 -49q0 -14 6 -27q8 -14 25 -14q49 6 96 6h96q63 0 92 -2q57 -4 88 -8q35 0 35 16q0 10 -6 19q-8 43 -22 49q-12 6 -25 30 q-14 27 -22 99q-8 74 -13 256v144t-4 77q-2 35 -3 64.5t-1 93.5q4 82 80 112q14 6 39 15q12 4 41 12q90 25 153 25q72 0 107 -29q59 -41 59 -273v-49q-2 -33 -2 -61v-19v-16v-6v-2v-2v-2v2l17 -2q0 -123 -3.5 -197t-9.5 -119q-14 -94 -37 -129q-20 -33 -43 -37 q-20 -2 -30 -36q0 -14 22 -27q18 -12 35 -12q49 6 86 12t86 6h86q37 0 86 -6q33 0 33 27q-12 27 -27 39q-16 12 -30 51q-14 41 -25 135q-4 35 -5 91t-1 204v2v6v6q-2 8 -2 39v37v35v37q0 111 6 192q4 20 4 55q0 51 -8 78q-16 66 -60 90q-47 27 -88 35q-18 4 -63 4 q-37 0 -84 -6q-94 -12 -193 -39q-33 -8 -67 -24q-45 -20 -68 -29q-29 -14 -47 -14q-8 0 -14 6q-8 8 -8 45v14v25q0 30 -38 30h-3q-31 -4 -45 -4h-43t-99 -4h-6h-20q-18 -2 -23 -2q-10 0 -31 2q-20 2 -28 2q-33 0 -33 -28z" />
<glyph unicode="o" horiz-adv-x="1273" d="M41 580q0 -244 174 -416q176 -172 420 -172q250 0 424 172t174 416q0 246 -174 419q-174 175 -424 175q-246 0 -420 -175q-174 -174 -174 -419zM295 580q0 199 72 344t264 145l2 -2q197 0 264 -141q66 -139 76 -348q0 -115 -22.5 -198t-69.5 -149q-49 -68 -107.5 -100.5 t-136.5 -32.5q-145 10 -244 148q-98 139 -98 334z" />
<glyph unicode="p" horiz-adv-x="1216" d="M41 1147q8 -63 35 -64q29 0 49 -36q25 -43 43 -197q6 -66 9 -186.5t3 -354.5q-4 -240 -14 -381q-8 -68 -8 -174q0 -20 2 -41v-30q4 -37 8 -50q6 -14 39 -14q59 0 104 43q45 41 101 51q20 2 24 35v53q-2 33 -12 56t-12 45l-6 55q0 37 40 43q293 37 512 244 q217 205 218 454q0 250 -132 369q-127 119 -339 119q-86 -8 -142 -56q-55 -47 -88 -55l2 -2q-10 -4 -53 -4q-23 6 -23 37q0 6 2 14q4 12 7 37q0 33 -41 33q-49 -6 -62 -12q-12 -6 -59 -7q-61 0 -88 -2q-25 0 -56 2q-23 2 -32 3q-4 0 -9 2q-23 0 -22 -29zM408 178v68v76v337 v220q0 47 18 67q20 25 37 35l-4 -2q66 41 153 43q162 0 228 -109q71 -111 71 -256q0 -78 -37 -180q-39 -104 -124 -188q-49 -45 -117 -88q-63 -39 -123 -68q-33 -14 -49 -14q-12 0 -29 8q-25 18 -24 51z" />
<glyph unicode="q" horiz-adv-x="1232" d="M41 530q0 -233 131 -395q129 -158 324 -158h20q14 2 25 3q139 12 266 96q2 2 10 8t10 8q0 4 7 4q6 0 6 -30q-8 -137 -25 -224q-14 -80 -14 -172q0 -16 6 -24q6 -10 47 -13q39 0 80 48q39 45 117 51q16 2 30 24q12 18 13 41v8q-2 8 -2 11q-12 80 -13 217v155.5t-4 112.5 q-6 141 -6 354q0 51 2 121q2 53 2 70q10 160 31 209q18 41 45 41q29 0 41 47q0 4 2 10q0 16 -35 16q-18 -4 -55 -4q-2 0 -19 2h-18q-57 4 -90 4q-51 0 -53 -2q-4 0 -19 2q-18 2 -33 3q-37 0 -36 -31q0 -12 4 -21q4 -8 4 -12q0 -35 -11 -35q-6 4 -10 4q-18 14 -28 19l-2 -4 q-61 37 -121 59q-61 25 -129 25q-205 0 -344 -166q-137 -166 -154 -434v-23q-2 -20 -2 -25zM272 563q0 4 2 21v20q0 184 64 314q66 133 207 133q121 0 252 -113q33 -27 32 -72h7q0 -125 2 -209q4 -125 6 -313q0 -82 -43 -111q-45 -29 -88 -49q-47 -22 -95 -22h-4 q-158 29 -256 153q-86 109 -86 248z" />
<glyph unicode="r" horiz-adv-x="894" d="M41 1143q14 -51 41 -58q23 -6 45 -43q23 -37 31 -141q4 -23 4 -86q0 -100 -12 -270q0 -211 -13 -301q-12 -94 -26 -121q-16 -33 -31 -35q-14 -2 -25 -47q0 -16 8 -27q10 -12 23 -12q27 4 90 4h92h97q31 0 92 -4q10 0 24 10q8 6 8 17l-2 8q-12 45 -26 47t-27 25 q-14 25 -22 96q-8 74 -13 256v225v160q0 41 19 67q18 29 55 52q35 20 59 20q78 0 78 -70q0 -18 -14 -38q-35 -35 -35 -70v-23q4 -33 39 -32q37 0 51 24q29 47 74 60q47 12 92 43q37 25 37 71v6v5v4v2q-2 102 -68 159q-63 57 -135 58q-70 0 -92 -21q-12 -10 -41 -33 q-25 -20 -31 -24q-16 -14 -26 -19q-8 -4 -21 -12h-18q-10 0 -10 27q0 2 2 12l2 12q0 33 -43 33h-49h-50q-66 0 -100 2q-66 4 -98 8q-35 0 -35 -26z" />
<glyph unicode="s" horiz-adv-x="1073" d="M41 233q0 -63 25 -73q78 -68 208 -111q133 -43 283 -43q160 0 322 115q154 111 153 295q-6 135 -71 213q-63 76 -158 123q-92 47 -199 67q-106 23 -196 43q-43 14 -93 47q-47 31 -47 66q0 47 49 61q53 16 117 23q84 0 203 -53q129 -55 186 -138h6q12 -16 25 -28 q16 -16 35 -17q37 0 37 35v8l-2 6q-10 45 -27 78q-18 37 -31 94q-6 27 -43 39q-31 10 -59 23q-57 25 -135 37q-55 8 -160 20v-2q-4 0 -31 2h-30q-119 0 -218 -43q-118 -55 -118 -212q0 -95 49 -150q59 -66 143 -86q74 -39 191 -64q104 -23 196 -53q72 -41 109 -84 q37 -41 39 -121q0 -102 -76 -164q-72 -57 -152 -57h-10q-178 0 -268 92q-94 98 -129 195q-12 29 -23 67q-12 45 -61 45q-39 0 -39 -47v-71v-91v-86z" />
<glyph unicode="t" horiz-adv-x="790" d="M41 1159q4 -20 12 -37q12 -12 31 -12q59 0 90 8q2 0 6 2h6q4 0 11 -2q8 -2 12 -2q23 -6 22 -39q0 -80 -2 -123v-135q-2 -348 -12 -493q-10 -150 -20 -191q-12 -45 -29 -49q-16 -4 -35 -74q0 -4 -2 -10q0 -16 35 -16q49 6 98 6h96h97q49 0 98 -6q33 0 33 26q-2 59 -23 64 q-18 4 -37 53q-18 49 -30 199q-8 135 -9 297q0 12 3 92v112v136q0 84 2 122q0 16 2 31q0 16 28 17h6q6 -2 11 -2q39 -6 47 -13q10 -6 53 -6q18 0 39 14q10 10 25 37q6 10 18 27q12 16 18 27q8 10 9 28v8q-2 6 -2 7q-14 27 -50 26l-2 8q-8 0 -24 4t-23 5q-76 -2 -110 -13h-7 q-6 -2 -8 -2q-29 0 -28 49q2 96 2 197v63v15v6q2 14 4 43q0 18 -6 39q-6 18 -47 18h-43q-37 0 -41 -32q-23 -127 -111 -281q-88 -152 -184 -186q-23 -8 -27 -35q-2 -16 -2 -27z" />
<glyph unicode="u" horiz-adv-x="1239" d="M41 1139q4 -51 25 -52q20 0 45 -30q25 -31 43 -133q12 -74 12 -230v-55q-2 -33 -2 -64q-2 -55 -6 -112t-6 -96v-25v-25q0 -102 13 -163.5t42 -94.5q60 -69 155 -69h3q96 0 213 43q43 16 86 33q84 31 141 51q8 6 20 6q18 0 19 -23v-6q-2 -4 -2 -6q-8 -43 -8 -68 q0 -18 22 -18l68 6q23 2 67 2q53 0 92 -2q59 -2 93 -6q23 0 22 18q0 76 -18 78q-16 2 -39 29q-20 25 -37 115q-6 37 -9 110.5t-3 220.5q4 260 6 365q2 70 2 135q0 16 2 25v37q0 14 -12 32t-41 19q-33 -2 -56 -6q-29 -4 -55 -4h-88q-43 0 -88 4q-23 0 -23 -19q4 -59 23 -65 q20 -6 41 -39q23 -33 37 -135q8 -37 9 -102.5t1 -246.5q-2 -39 -2 -49q-2 -72 -2 -98v-100q0 -49 -80 -86l2 -13q-68 -33 -104 -43q-57 -14 -101 -26h-6q-8 -2 -14 -2q-23 0 -66 6q-68 10 -71 252h-3v39q-2 74 -2 168q4 260 7 358q4 100 6 121q0 12 8 12q4 0 4 31 q0 10 -14 18q-8 8 -25 8q-72 -8 -131 -8q-14 0 -68 -2q-23 -2 -30 -2h-25q-16 -2 -20 -2q-12 0 -33 2q-14 2 -19 2q-20 0 -20 -20z" />
<glyph unicode="v" horiz-adv-x="1280" d="M41 1133q20 -33 29 -33q10 0 36 -33q29 -33 87 -147q59 -113 172 -381q53 -125 104 -246q55 -127 98 -242q18 -63 80 -63q41 0 68 63l-2 2q70 154 114 264q55 135 111 265q98 238 152 346q47 92 67 116q23 25 33 25q14 0 47 70l2 8q0 6 -6 12q-12 12 -23 12 q-39 -2 -86 -6q-31 -2 -86 -2q-84 0 -143 6q-29 0 -35 -22v-19q-2 -12 -2 -14q0 -51 33 -51q41 0 41 -57q0 -31 -29 -117q-25 -76 -108 -246q-31 -61 -50 -117q-20 -61 -38 -98q-16 -35 -27 -35q-8 4 -25 37q-18 41 -37 105q-18 66 -49 122q-96 197 -114 277q-12 49 -13 82 q0 23 4 31q12 29 35 38q12 6 13 27q0 18 -5 29q-8 30 -48 30h-3q-37 -2 -92 -6q-37 -2 -96 -2q-43 0 -74 8q-25 6 -74 15q-10 0 -39 -23q-23 -18 -22 -30z" />
<glyph unicode="w" horiz-adv-x="1705" d="M41 1116q29 -61 39 -61q14 0 26 -13q16 -16 64 -116q39 -84 149 -379q55 -135 91 -246q31 -102 84 -246q23 -71 77 -71h2q47 0 72 39h-4q45 168 98 323q59 170 97 326q4 12 14 22q0 4 8 4q6 0 12 -16q63 -193 103 -326q55 -184 100 -321h2q23 -47 74 -47q43 0 68 63 q57 141 90 256q35 121 79 264l93 226q31 76 49 121q39 92 59 129q18 31 27 32q10 4 49 62q0 -4 2 -8q-6 4 -10 12q-14 25 -25 24q-43 -6 -65 -12q-25 -6 -64 -6q-41 0 -84 6l-12 2q-43 6 -68 8q-8 0 -20 -14t-12 -25q0 -4 -2 -12v-10q0 -25 18 -25q27 0 43 -34q6 -8 6 -41 q0 -35 -12 -97q-18 -100 -121 -356q-20 -47 -20 -55q0 -10 -15 -47q-8 -18 -20 -19q-8 6 -13 17q-55 170 -110 327q-51 145 -98 330q-20 82 -68 82q-57 0 -74 -90q-23 -133 -94 -320q-72 -182 -113 -327l15 4q-8 -31 -19 -31q-8 0 -18 27q-12 29 -21 55q-8 31 -26 74 q-106 244 -125 344l-2 14q-6 49 -6 68q0 29 6 41q16 29 37 34q10 6 10 21q0 16 -17 59q-2 2 -6 2h-6q-8 -2 -14 -2q-23 -2 -55 -6l-33 -4q-51 -6 -92 -6q-20 0 -74 4h-6q-29 2 -82 6q-12 0 -25 -14q-12 -12 -12 -25z" />
<glyph unicode="x" horiz-adv-x="1249" d="M41 39q0 -2 2 -8q2 -8 2 -11q6 -20 14 -20q63 8 123 8q35 0 117 -6q25 -2 55 -4q47 -4 56 -4q2 0 6 -2h6q25 0 45 26q10 16 10 25q0 18 -16 18q-29 10 -47 37q-8 8 -8 33q0 31 14 68q25 70 158 237q16 18 28 19q12 0 25 -17q135 -184 157 -252q14 -41 15 -67 q0 -18 -6 -25q-14 -20 -41 -26q-10 0 -11 -15q0 -12 19 -41q12 -18 35 -18h6q45 6 96 10q74 6 109 6q72 0 135 -8h6l4 -2q14 0 35 14q18 18 18 31q-29 39 -45 47q-18 10 -61 49q-39 37 -119 142q-76 102 -215 319q-20 29 -20 60q0 29 16 51q156 217 211 280q66 74 88 86 q8 4 20 4q8 0 9 -6l4 -4q6 0 26 31q2 4 2 8q0 10 -6 23q-8 25 -18 24q-63 -8 -133 -8q-57 0 -105 2q-70 4 -98 6l-10 2l-6 2h-7q-12 0 -18 -14q-8 -18 -8 -39q0 -37 22 -49q25 -12 39 -33q6 -6 6 -27q0 -14 -6 -38q-16 -45 -98 -146q-20 -27 -37 -26q-10 0 -16 10 q-80 117 -99 174q-12 47 -12 86q6 27 18 39q4 4 5 12q0 16 -11 31q-12 18 -34 18q-31 -6 -111 -6h-113h-69q-20 0 -45 2q-20 2 -27 2q-8 0 -12 -12q0 -4 -2 -10q0 -6 6 -13q20 -51 31 -51q10 0 36 -24q31 -27 97 -111q76 -96 206 -303q12 -18 13 -37q0 -20 -17 -41 q-166 -229 -245 -326q-78 -92 -115 -122q-31 -25 -45 -25q-12 0 -35 -33q-4 0 -4 -12z" />
<glyph unicode="y" horiz-adv-x="1353" d="M41 1126q20 -45 47 -55q25 -8 68 -67q41 -53 112 -203q68 -135 187 -461q31 -76 61 -166q37 -104 51 -141q12 -37 13 -60q0 -4 -2 -10v-8q-8 -25 -25 -49q-63 -109 -121 -154q-53 -41 -98 -57q-39 -14 -76 -21q-35 -6 -59 -43q-4 -4 -4 -14q0 -12 6 -27q10 -27 28 -30 q2 0 15 -2h18q31 0 74 6q78 10 110 10h13q8 2 16 2q25 0 49 -6q47 0 62 27q90 147 153 370q66 225 148 369q143 358 215 502q74 147 110 190q37 39 58 39q18 0 43 53q0 18 -10 31q-14 18 -25 18q-80 -8 -156 -8q-57 0 -92 2q-51 4 -86 6l-6 2q-29 0 -41 -36q-6 -10 -6 -27 q0 -18 24 -18q35 0 54 -39q4 -10 4 -39q0 -57 -23 -142q-33 -137 -190 -473q-27 -55 -43 -55t-31 33q-4 8 -6 14l-6 19q-166 362 -207 489q-35 111 -35 147q0 4 2 11v6q8 23 27 22h6l6 -2q4 0 8 -2q10 0 11 19q0 16 -7 41q-6 25 -36 24q-45 -8 -101 -10q-12 0 -24 -2 q-55 -2 -80 -2q-35 0 -80 10q-27 6 -80 15q0 6 -4 6q-8 0 -21 -17q-18 -20 -18 -37z" />
<glyph unicode="z" horiz-adv-x="1163" d="M41 37q0 -2 2 -8q2 -4 2 -6q10 -25 35 -25q84 4 177 7t232 3q143 -2 416 -2q53 0 84 45q35 47 49 99q14 51 60 98q25 23 24 61q0 41 -41 43q-20 0 -49 -28l-43 -43q-127 -96 -262 -127t-147 -31h-76h-72q-14 0 -14 14q2 6 4 13q4 10 4 12q63 111 129 192q59 74 141 195 q98 154 187 285q98 145 207 280q25 29 24 45q0 16 -31 17q-94 0 -180 -2q-129 -2 -264 -7h-88q-82 -2 -150 -2q-102 0 -112 11l-6 -15q-27 -2 -56 -49q-4 -8 -22 -43q-14 -29 -23 -43q-23 -43 -53 -80q-12 -12 -12 -28q0 -2 2 -11q2 -4 2 -6q10 -25 24 -31q8 -6 27 -6 q18 0 39 15q37 29 59 57q33 39 133 80q74 31 207 31h41q23 -2 43 -3q4 -2 13 -4q8 0 18 -4q12 0 12 -14q0 -10 -6 -23q-68 -115 -125 -188q-57 -74 -141 -195q-82 -123 -195 -276q-94 -129 -215 -266q-14 -16 -14 -37z" />
<glyph unicode="{" horiz-adv-x="456" d="M41 866q0 -53 72 -96t73 -92q14 -293 78 -512q61 -213 148 -266l2 2q-53 119 -95 329q-39 207 -49 457q-2 45 -73 88q-72 43 -72 92q0 43 70 93q72 49 73 92q10 256 49 467t99 340q-86 -51 -150 -273q-63 -221 -80 -528q-2 -41 -73 -94q-72 -53 -72 -99z" />
<glyph unicode="|" horiz-adv-x="147" d="M41 45h65v1595h-65v-1595z" />
<glyph unicode="}" horiz-adv-x="454" d="M41 1862q61 -133 96 -340q39 -219 47 -467q4 -43 74 -92q72 -49 72 -93q0 -49 -72 -92q-70 -43 -74 -88q-12 -250 -49 -457t-92 -329v-2q86 53 147 266q63 219 78 512q4 49 74 92q72 43 72 96q0 45 -72 99q-70 53 -74 94q-14 303 -78 528q-61 221 -149 273z" />
<glyph unicode="~" horiz-adv-x="720" d="M41 1477q45 74 86 120q43 49 86 50q59 0 129 -101q23 -33 37 -55l2 -2q0 -2 6 -12v2q68 -88 121 -88q43 0 86 49q41 47 86 121v14v14v13v14q-45 -76 -86 -121q-43 -47 -86 -47q-57 0 -129 98q-29 43 -39 58q-2 10 -6 12v-2q-63 88 -121 88q-43 0 -86 -49 q-41 -47 -86 -121v-14v-15v-14v-12z" />
<glyph horiz-adv-x="354" d="M41 1542q0 -90 41 -141l-2 -2q43 -57 76 -58q6 0 6 9q0 14 -21 49q-10 23 -26 86q27 -14 61 -15q57 0 98 41q39 39 39 99q0 59 -39 98q-41 41 -98 41q-113 0 -131 -141q-4 -23 -4 -66z" />
<glyph horiz-adv-x="356" d="M41 1608q0 -59 39 -99q41 -41 98 -41q35 0 62 15q-14 -57 -25 -86q-23 -39 -22 -49q0 -8 8 -9q33 0 75 58l-4 2q43 49 43 143q0 41 -4 64q-18 141 -133 141q-57 0 -98 -41q-39 -39 -39 -98z" />
<glyph horiz-adv-x="651" d="M41 1544q0 -90 41 -141l-2 -2q43 -57 76 -58q6 0 6 9q0 14 -21 49q-10 23 -26 86q27 -14 61 -14q57 0 98 40q39 39 39 99q0 59 -39 98q-41 41 -98 41q-113 0 -131 -141q-4 -23 -4 -66zM336 1544q0 -94 43 -143l-2 -2q43 -57 76 -58q6 0 6 9q0 14 -21 49q-10 23 -26 86 q27 -14 61 -15q57 0 98 41q39 39 39 99q0 59 -39 98q-41 41 -98 41q-115 0 -133 -141q-4 -23 -4 -64z" />
<glyph horiz-adv-x="657" d="M41 1608q0 -59 39 -99q41 -41 98 -41q35 0 62 15q-14 -57 -25 -86q-23 -39 -22 -49q0 -8 8 -9q33 0 75 58l-4 2q43 49 43 143q0 41 -4 64q-18 141 -133 141q-57 0 -98 -41q-39 -39 -39 -98zM344 1606q0 -59 39 -99q41 -41 96 -41q35 0 62 15q-14 -57 -25 -86 q-23 -39 -22 -49q0 -8 8 -9q31 0 76 58l-3 2q41 47 41 141q0 43 -4 66q-18 141 -133 141q-55 0 -96 -41q-39 -39 -39 -98z" />
<glyph unicode="&#xa3;" horiz-adv-x="1351" d="M41 41q0 -12 8 -23q14 -20 33 -20q238 16 448 18q154 0 273 -3t248 -11q55 0 75 43q8 16 27 66q2 10 6 18q4 10 6 18q18 49 27 66q18 43 53 88q27 35 58 92q8 10 8 29q0 10 -6 22q-12 27 -43 27q-76 0 -107 -59q-82 -119 -235 -150q-160 -31 -367 -35q-88 0 -88 62v10 q2 8 2 12q18 92 43 185q25 92 25 186q0 37 -13 100h92h201l-20 64h-285q-20 86 -49 172q-25 80 -25 162q0 94 49 182q27 63 97 111q59 47 96 53t110 6q53 0 111 -23q47 -23 49 -26q0 -8 -24 -39q-41 -63 -41 -133q0 -88 59 -154q57 -63 141 -63t142 63q59 66 59 154 q0 59 -29 112q-66 135 -217 215q-154 80 -344 80q-193 0 -332 -92q-137 -92 -196 -227h-2q-45 -123 -49 -221q0 -82 22 -162q16 -55 45 -170h-80l21 -64h72l6 -4q10 -61 10 -100q0 -162 -49 -320q-49 -156 -117 -301q-4 -4 -4 -16z" />
<glyph unicode="&#xad;" d="M41 520h870v58h-870v-58z" />
<glyph unicode="&#x2000;" horiz-adv-x="941" />
<glyph unicode="&#x2001;" horiz-adv-x="1882" />
<glyph unicode="&#x2002;" horiz-adv-x="941" />
<glyph unicode="&#x2003;" horiz-adv-x="1882" />
<glyph unicode="&#x2004;" horiz-adv-x="627" />
<glyph unicode="&#x2005;" horiz-adv-x="470" />
<glyph unicode="&#x2006;" horiz-adv-x="313" />
<glyph unicode="&#x2007;" horiz-adv-x="313" />
<glyph unicode="&#x2008;" horiz-adv-x="235" />
<glyph unicode="&#x2009;" horiz-adv-x="376" />
<glyph unicode="&#x200a;" horiz-adv-x="104" />
<glyph unicode="&#x2010;" d="M41 520h870v58h-870v-58z" />
<glyph unicode="&#x2011;" d="M41 520h870v58h-870v-58z" />
<glyph unicode="&#x2012;" d="M41 520h870v58h-870v-58z" />
<glyph unicode="&#x2013;" horiz-adv-x="1106" d="M41 520h1024v58h-1024v-58z" />
<glyph unicode="&#x2014;" horiz-adv-x="2130" d="M41 520h2048v58h-2048v-58z" />
<glyph unicode="&#x202f;" horiz-adv-x="376" />
<glyph unicode="&#x205f;" horiz-adv-x="470" />
<glyph unicode="&#x25fc;" horiz-adv-x="1167" d="M0 0v1167h1167v-1167h-1167z" />
</font>
</defs>
</svg>
