<?xml version="1.0" standalone="no"?>
<!DOCTYPE svg PUBLIC "-//W3C//DTD SVG 1.1//EN" "http://www.w3.org/Graphics/SVG/1.1/DTD/svg11.dtd" >
<svg xmlns="http://www.w3.org/2000/svg">
<metadata></metadata>
<defs>
<font id="autumnregular" horiz-adv-x="1014" >
<font-face units-per-em="2048" ascent="1638" descent="-410" />
<missing-glyph horiz-adv-x="508" />
<glyph horiz-adv-x="0" />
<glyph unicode="&#xd;" horiz-adv-x="508" />
<glyph unicode=" "  horiz-adv-x="508" />
<glyph unicode="&#x09;" horiz-adv-x="508" />
<glyph unicode="&#xa0;" horiz-adv-x="508" />
<glyph unicode="!" horiz-adv-x="343" d="M119 43v7q0 40 36 58h7q65 -9 65 -65q-6 -43 -43 -43q-38 0 -65 43zM119 504v266q0 234 7 626l29 22h22l28 -22q-7 -448 -7 -719v-173q0 -11 -29 -29h-21q-11 0 -29 29z" />
<glyph unicode="&#x22;" horiz-adv-x="672" d="M7 1383v11q0 24 37 37h6q23 0 63 -74q15 -19 117 -217q47 -73 54 -103v-5q-4 -26 -26 -26h-8q-13 0 -72 63q-51 54 -91 148q-71 135 -80 166zM432 1400q10 26 29 26q62 0 157 -212q31 -59 69 -108q11 -11 11 -31q0 -35 -46 -43h-3q-33 0 -71 68q-61 97 -143 280 q-3 11 -3 20z" />
<glyph unicode="#" horiz-adv-x="990" d="M117 512v20q0 10 26 26h125l33 -6q0 38 6 138q-6 77 -6 111q-66 7 -99 7h-32q-36 0 -53 33v19l20 27l79 -7h85q0 7 -7 7q0 169 66 525l20 13h19q27 -14 27 -33q-53 -362 -53 -440v-85q179 6 217 6l52 532l20 13h20q10 0 26 -26q0 -48 -39 -525h6q38 0 177 13l20 -26v-20 q0 -39 -210 -39v-7q7 -72 7 -125v-26l-7 -79h138q46 0 46 -39q-13 -30 -26 -33h-158v-112q0 -75 -13 -328q-13 -30 -26 -33h-27q-6 0 -26 26q20 201 20 355v92l-79 -7h-138q0 -49 -20 -374q7 -56 7 -85l-26 -20h-20q-33 0 -33 105q13 218 13 250v78l7 46l-79 7h-79 q-10 0 -26 26zM373 552q46 0 53 6q45 -6 72 -6q82 6 92 6l6 105q-6 89 -6 132l-13 6q-117 -6 -191 -6h-13q7 -66 7 -99q0 -46 -7 -144z" />
<glyph unicode="$" horiz-adv-x="1126" d="M113 231q8 93 8 134v87q0 56 47 56q31 0 87 -135q47 -63 333 -135l16 8l47 -8q221 0 293 167q24 66 32 126q-50 182 -158 182q0 22 -412 64q-238 68 -238 253v24q0 225 270 316q63 8 63 24v174q0 13 32 32h23q13 0 32 -32v-174h24q136 0 253 -111q5 127 40 127h23 q13 0 32 -32q0 -269 -71 -269h-8q-11 0 -95 127q-100 66 -151 71q-297 0 -372 -198l-8 -55v-24q0 -125 190 -166q540 -35 578 -198q40 -98 40 -143q0 -204 -198 -332q-126 -40 -230 -40h-31l8 -55v-253q0 -13 -32 -32h-24q-12 0 -31 32v166q0 51 -8 158q-191 48 -277 95 q0 13 -32 32q-10 -87 -32 -87h-39q-6 0 -24 24z" />
<glyph unicode="%" horiz-adv-x="1258" d="M147 578v12q0 15 242 98q102 40 297 104q102 58 282 111q37 18 135 52q39 -11 39 -40q0 -41 -104 -65q-73 -34 -239 -85q-81 -49 -303 -111q-128 -55 -328 -101q-18 0 -21 25zM196 1206q0 115 89 217q80 55 125 55q0 9 43 13h22q55 0 168 -43q126 -66 126 -261 q0 -242 -172 -291q-41 -18 -147 -27q-66 3 -165 89q-89 126 -89 248zM273 1203q0 -116 82 -209q65 -42 104 -42q85 9 147 36q80 45 80 196q0 167 -101 193q-77 28 -129 28h-43q-10 0 -21 9q-81 -46 -116 -162q-3 -16 -3 -31v-18zM499 336q0 67 71 153q76 51 76 58 q29 34 77 34q32 12 64 12q141 0 282 -144q46 -86 46 -147q0 -100 -98 -226q-99 -83 -248 -83q-113 0 -218 141q-52 77 -52 202zM579 336q0 -188 153 -254q11 -6 24 -6h37q109 0 184 79q55 98 55 144q0 66 -52 123q-110 89 -193 89q-91 -14 -125 -46q-77 -65 -77 -114 q-6 0 -6 -15z" />
<glyph unicode="&#x26;" horiz-adv-x="1092" d="M52 364v12q0 111 88 264q88 113 192 136q-108 165 -108 380q0 88 64 196q90 100 200 124q54 8 68 8q84 0 160 -60h8q0 10 64 32q20 0 36 -24v-12q0 -34 -116 -84h-4q-36 6 -36 36q-50 40 -100 40q-62 0 -180 -68q-84 -76 -84 -208q0 -217 184 -444q57 -71 152 -232 q4 -1 112 -140q83 143 132 380q30 28 76 28q104 -19 104 -56v-12q-16 -24 -32 -24h-76q-7 -89 -104 -312l-44 -76q71 -132 76 -132h112q36 -5 36 -36v-8q-5 -36 -36 -36h-80q-23 0 -64 -4q-32 0 -96 140h-4q-108 -136 -136 -136q-52 -28 -112 -36q-216 30 -216 56 q-35 3 -176 152q-60 79 -60 156zM136 352q0 -87 204 -232q107 -32 164 -32q86 0 180 140q3 0 16 20q-157 194 -240 348l-84 108q-81 0 -184 -132q-56 -119 -56 -208v-12z" />
<glyph unicode="'" horiz-adv-x="346" d="M34 981q0 59 89 228q38 59 71 163q21 48 43 48h13q30 0 30 -51q0 -69 -117 -279q-31 -66 -45 -129q-16 -23 -43 -23q-33 0 -41 43z" />
<glyph unicode="(" horiz-adv-x="758" d="M153 676q0 497 308 946q61 64 79 64q22 0 22 -26q-35 -98 -176 -342q-132 -288 -132 -560v-120q0 -234 94 -398q54 -128 211 -357q36 -64 49 -109v-26q0 -34 -42 -34q-57 17 -71 49q-191 233 -222 357q-120 309 -120 556z" />
<glyph unicode=")" horiz-adv-x="758" d="M194 1670v8q12 20 20 20q12 -4 12 -8l20 8q42 0 120 -116q138 -272 176 -432q76 -242 76 -432q0 -192 -156 -644q-86 -183 -144 -344q-16 -19 -28 -24h-24q-40 8 -40 40v4q0 38 40 124q48 97 152 428q92 268 92 536q0 169 -136 492q-125 253 -180 340z" />
<glyph unicode="*" horiz-adv-x="1191" d="M192 1031v13q0 5 10 11q99 0 375 -95v3q11 61 24 291q-3 57 -3 88q11 7 17 7q44 -17 44 -81q6 0 6 -203q0 -17 -6 -98q253 115 287 115l44 6q37 -8 37 -37v-7q0 -38 -85 -43q-24 -7 -246 -105l-24 -7q55 -59 169 -240q54 -56 54 -71v-20q-7 -16 -24 -24h-20 q-39 10 -121 135q-70 128 -126 193q-14 -93 -125 -281q-49 -47 -61 -47q-60 0 -60 30v4q0 17 60 108q103 170 122 226q-318 99 -345 122z" />
<glyph unicode="+" horiz-adv-x="1245" d="M144 688v20q8 17 34 17h69q36 0 205 7q30 0 137 -3l3 24q0 513 27 513l17 3q48 0 48 -123q0 -137 4 -137q-4 -36 -4 -79v-201h11q11 0 17 3l13 -3q78 3 96 3q12 0 72 -3q3 0 20 3q109 -14 260 -17q24 -19 24 -38v-6q0 -40 -82 -48q-241 17 -318 17q-46 -4 -65 -4l-7 4 q-6 -4 -13 -4h-14l-24 4q0 -4 -3 -4q3 -123 3 -178v-126q0 -47 7 -164q-16 -31 -41 -31h-7q-48 0 -48 106q-3 58 -3 130v113q0 12 -4 31l4 6q-4 7 -4 11q0 7 4 7l-4 34v61h-3q-421 18 -421 38z" />
<glyph unicode="," horiz-adv-x="557" d="M178 -215q35 115 140 345q38 92 67 92h12q16 -9 16 -31q0 -58 -129 -353q-26 -89 -42 -92q-9 -6 -16 -6h-9q-31 0 -39 45z" />
<glyph unicode="-" horiz-adv-x="1040" d="M17 696v11q0 38 85 45h7q54 -3 95 -3q117 14 169 14q473 -14 569 -14h31q43 -9 43 -42v-15q0 -45 -103 -45q-38 0 -38 -4l-18 4q-197 3 -318 3q-8 0 -14 4q-3 0 -3 -4l-18 4h-28q-31 0 -71 3l-21 -3l-7 3q-6 -3 -14 -3h-7q-4 0 -4 3l-7 -3h-28q-104 -7 -113 -7h-11 q-176 6 -176 49z" />
<glyph unicode="." horiz-adv-x="557" d="M173 120q0 59 88 98l24 3q58 0 78 -60l2 -23q-9 -50 -26 -62q-31 -21 -65 -29q-101 17 -101 73z" />
<glyph unicode="/" horiz-adv-x="810" d="M-87 -108q80 183 422 915q64 166 168 320q74 135 135 274q85 139 125 189q11 6 17 6q12 -12 17 -33q0 -69 -88 -230q-79 -209 -185 -368q-89 -172 -317 -681l-210 -439q-20 -10 -27 -10h-10q-47 7 -47 40v17z" />
<glyph unicode="0" d="M77 679q0 471 175 607q59 104 234 153h37q96 0 226 -124q153 -165 153 -541q0 -388 -153 -664q-73 -110 -256 -110q-331 0 -394 460q-22 110 -22 219zM157 672q0 -277 117 -482q101 -110 241 -110q185 0 249 278q58 262 58 416q0 437 -234 563q-65 22 -87 22 q-116 0 -285 -263q-59 -160 -59 -424z" />
<glyph unicode="1" horiz-adv-x="1090" d="M91 61v22q0 12 30 31h8q23 0 23 -8l38 8q55 0 83 -8q71 8 136 8h91v7l-30 334v113q0 188 -8 395q16 138 16 318v38q-135 -72 -334 -121h-8q-11 0 -30 30v23q0 27 220 91q80 53 212 83q20 0 38 -38q-13 -124 -30 -424q7 -174 7 -319v-189q0 -46 38 -341l288 -31l76 8 q38 -12 38 -46q0 -40 -106 -45l-341 30h-68q-93 0 -228 -7q-30 7 -53 7q-29 -7 -61 -7q-31 10 -45 38z" />
<glyph unicode="2" horiz-adv-x="1218" d="M114 63q0 36 228 260q240 304 441 424q181 173 181 307v71q0 129 -189 204q-43 8 -71 8h-16q-163 0 -330 -157q-78 -110 -87 -110h-23q-13 0 -32 31v8q0 108 276 275q84 40 196 40h24q251 0 338 -260v-110q0 -232 -315 -456q-126 -80 -369 -386q-20 0 -126 -125h63 q140 0 181 15q27 -8 472 -15l70 7l-7 48q11 39 55 39q39 -20 39 -63v-71q0 -42 -157 -47q-142 0 -386 8q-196 -8 -393 -8q-63 6 -63 63z" />
<glyph unicode="3" horiz-adv-x="1103" d="M83 168v23q0 12 31 31h15l214 -100q63 -30 215 -30q190 0 344 153q0 25 31 130q-38 367 -360 367q-40 -7 -92 -7l-23 30v23q0 29 191 69q238 69 238 245q7 0 7 46v8q0 134 -313 199l-16 -8h-53q-119 0 -291 -168h-23q-12 0 -31 30v8q0 101 299 214q62 0 122 8 q162 0 345 -153q46 -54 46 -107v-54q0 -238 -230 -321v-8q250 -92 268 -421q0 -100 -77 -222q-211 -153 -367 -153q-287 0 -490 168z" />
<glyph unicode="4" horiz-adv-x="1153" d="M112 438v15q0 61 189 340q139 303 317 521q31 98 128 98h23q64 0 91 -45q22 -332 22 -695q0 -6 -7 -181h136q30 -15 30 -45q-15 -35 -30 -38h-144v-325l76 8h22q53 0 53 -46q0 -45 -151 -45q-362 13 -362 60v23q0 12 30 30l242 -22v7q7 83 7 144v158q-42 0 -309 -7 q-363 0 -363 45zM218 483h7q85 0 257 -7q302 7 302 15q15 123 15 204q-5 634 -37 634q-76 -22 -76 -75q-143 -155 -317 -514l-144 -226z" />
<glyph unicode="5" horiz-adv-x="1244" d="M140 210q11 39 54 39q167 -140 335 -140q0 -13 124 -23q350 37 350 225q21 35 32 156q0 200 -234 358q-93 31 -117 31h-23q-178 0 -319 -133q-54 0 -54 55v132q0 195 23 443q-8 13 -8 39v16l24 31q146 -8 249 -31q77 8 116 8h296q54 0 54 -47q-11 -39 -54 -39h-171 q-113 0 -257 -8q-57 16 -163 16q-24 -265 -24 -451v-16q182 70 273 70h62q169 0 373 -272q39 -150 39 -218q0 -176 -109 -327q-141 -124 -358 -124q-177 0 -412 101q-101 73 -101 109z" />
<glyph unicode="6" horiz-adv-x="1167" d="M140 790q0 150 155 354q283 281 546 281h15q113 0 170 -66v-23q0 -11 -30 -29h-7q-105 37 -140 37q-267 0 -547 -325q-81 -168 -81 -251q8 -131 22 -185h8q97 266 236 266q44 30 133 30h29q239 0 296 -170q44 -92 44 -177v-104q0 -313 -244 -421q-15 0 -81 -7 q-251 54 -251 89q-273 224 -273 701zM302 369q102 -206 244 -258q21 0 126 -30q150 0 221 229q15 74 15 148v51q-27 281 -192 281l-37 7q-14 -7 -22 -7l-37 7q-253 0 -318 -339q15 -27 15 -59q-15 -18 -15 -30z" />
<glyph unicode="7" horiz-adv-x="1081" d="M96 1346h8l-8 16v24q16 31 39 31q103 0 166 -16l606 24q42 0 63 -126q0 -91 -252 -842q-73 -302 -126 -441l-24 -16h-23q-13 0 -32 31q110 448 362 1213v55l-7 39q-63 -7 -575 -23q-85 8 -103 16v-126q0 -56 -55 -56q-12 0 -31 32v71z" />
<glyph unicode="8" horiz-adv-x="1098" d="M161 349v52q12 129 134 259q55 45 66 45v7q-185 98 -185 290v37q0 250 319 386l44 7q248 0 371 -252q45 -120 45 -201v-14q0 -150 -111 -208q-82 -24 -82 -37q113 -75 193 -223q37 -69 37 -111v-82q0 -125 -171 -267q-81 -37 -118 -37h-37q-267 0 -475 230 q-30 54 -30 119zM243 371q0 -124 126 -186q140 -103 319 -103q156 0 222 244v38q0 111 -193 289q-48 28 -148 44q-116 -22 -193 -81q-89 -64 -126 -193l-7 -45v-7zM257 1016q17 -237 230 -237h23q348 19 348 119q15 0 15 67q0 202 -156 326q-94 52 -140 52q-126 0 -268 -148 q-52 -97 -52 -179z" />
<glyph unicode="9" horiz-adv-x="1063" d="M126 972v15q0 235 294 414q68 11 98 38h7q169 -47 226 -136q61 -79 151 -324q30 -15 30 -45l-7 -30q22 -113 22 -158q0 -399 -166 -580q-126 -83 -452 -166h-15q-158 0 -158 68q15 37 45 37q61 -22 128 -22q452 126 452 233q83 187 83 445q-7 15 -7 23h-8 q-191 -181 -361 -181q-160 30 -249 105q-113 95 -113 264zM209 964q0 -215 294 -278q132 0 316 195q2 31 15 31q-135 429 -301 429q-140 0 -294 -233q-30 -105 -30 -144z" />
<glyph unicode=":" horiz-adv-x="557" d="M199 1085v44q0 35 44 56q22 12 36 12q88 -16 88 -84v-12q0 -49 -88 -72h-16q-64 11 -64 56zM203 285q0 99 84 99q78 0 89 -110v-26q0 -53 -89 -63q-62 0 -84 100z" />
<glyph unicode=";" horiz-adv-x="557" d="M0 48v12q0 24 156 388q67 148 92 148h24q24 -14 24 -36v-8q0 -72 -176 -488q-20 -60 -52 -60q0 -4 -16 -4q-52 14 -52 48zM268 1176v28q23 72 52 72q2 8 44 12q68 -27 68 -120v-8q0 -41 -68 -56h-20q-63 0 -76 72z" />
<glyph unicode="&#x3c;" horiz-adv-x="1382" d="M123 717q0 31 130 111q246 176 352 197q10 0 245 133q135 61 349 197h15q59 -9 59 -60t-211 -155q-27 -19 -264 -141q-50 -42 -267 -126l-286 -175q112 -26 368 -193q175 -87 348 -189q111 -40 282 -152q15 -20 15 -33v-11q-9 -45 -44 -45h-15q-10 0 -193 111 q-36 0 -289 152q-160 79 -327 190q-75 45 -234 126q-33 53 -33 63z" />
<glyph unicode="=" d="M-137 778q0 36 117 36q0 4 25 4q19 0 55 -4q485 44 562 44h94q65 0 161 -4l7 4q20 -4 33 -4h131q55 -6 55 -51q0 -37 -44 -47h-40q-8 0 -14 -4l-8 4q-7 0 -7 -4l-37 4h-76q-48 0 -124 4q-4 0 -4 -4l-18 4q-215 0 -576 -37q-18 -4 -48 -4q-240 12 -240 48q-4 7 -4 11z M-133 398q0 44 197 44q412 48 517 48l358 -15l14 4q146 -7 146 -40v-26q-9 -21 -32 -29l-33 4q-46 -8 -91 -8q-82 0 -190 8q-5 0 -37 -4l-142 11q-164 -11 -394 -33q-310 0 -310 29z" />
<glyph unicode="&#x3e;" horiz-adv-x="1485" d="M89 1340q10 28 28 28q210 -99 412 -164q202 -130 420 -240q139 -83 272 -148q58 -41 124 -64q16 -22 16 -40q0 -96 -64 -96q-145 -68 -288 -164q-80 -33 -236 -128q-260 -128 -412 -216q-103 -45 -228 -108q-12 0 -24 24q0 64 272 212q97 69 360 192q145 94 244 136 q101 73 216 124v4q-158 82 -568 312q-164 112 -304 152q-240 111 -240 184z" />
<glyph unicode="?" horiz-adv-x="1126" d="M166 1272q0 30 128 82q140 59 210 59h38q177 -31 258 -65q125 -56 172 -166q17 -34 21 -76q0 -114 -72 -286q-64 -107 -138 -138q-56 -19 -207 -58q14 -82 14 -128v-20q-8 -42 -41 -42q-36 0 -42 45v24q0 28 -17 152q0 47 165 76q104 21 145 62q55 54 104 231l6 86 q-12 73 -93 138q-41 34 -227 75q-38 11 -55 11h-35q-113 0 -265 -83q0 -176 -31 -176h-4q-31 0 -31 166v10zM497 98v22q24 75 80 75h6q42 0 61 -72q0 -50 -64 -78h-28q-55 13 -55 53z" />
<glyph unicode="@" horiz-adv-x="973" d="M100 702v107q0 426 208 580q98 50 179 50h35q101 -13 179 -107q79 -140 115 -330l-7 -86v-315q0 -71 21 -71q24 0 36 -36q0 -43 -50 -43q-69 0 -86 57q-37 -21 -72 -21h-35q-175 0 -208 229v43q0 165 272 250h43q-68 351 -236 351q-160 0 -244 -164q-71 -214 -71 -401 v-65q0 -478 143 -615q62 -36 143 -36q185 0 279 114l29 15q21 0 43 -43q-88 -158 -301 -158q0 -7 -57 -7q-194 0 -258 136q-100 203 -100 566zM494 745q0 -179 157 -179q43 0 65 78q14 0 14 15v272h-7q-125 0 -215 -136q-14 -24 -14 -43v-7z" />
<glyph unicode="A" horiz-adv-x="1652" d="M112 58v25q0 13 33 33q57 -8 91 -8h9q0 74 249 556q149 521 215 655h-16q-103 0 -282 25q-45 -8 -75 -8l-25 33v25q13 41 108 41q211 -25 299 -25h24q19 0 34 -8q17 8 124 17q52 0 83 -249q180 -531 373 -929q34 -100 58 -133q21 0 117 16q41 -11 41 -58q0 -43 -191 -58 q-84 17 -265 17h-67q-13 0 -33 33v25q0 13 33 33h249v8q-58 164 -157 357q-224 0 -623 17q-182 -347 -182 -398q17 0 17 -9l99 9h83q58 0 58 -50q-9 -42 -66 -42q-78 0 -158 -8q-257 14 -257 58zM568 589l374 -17q16 9 24 9q46 -9 67 -9q58 0 58 17q-232 621 -232 722h-42 q-62 -80 -249 -722z" />
<glyph unicode="B" horiz-adv-x="1460" d="M119 1352v25q0 8 41 41l83 -8h115l83 8v-8q15 8 24 8q102 0 272 -16q46 8 66 8q150 0 289 -74q156 -127 156 -248q0 -218 -206 -297h-16v-8q102 0 255 -189q66 -107 66 -215q0 -301 -453 -379q-111 8 -165 8h-363q-231 0 -231 50v24q0 13 33 33l149 -16q33 8 33 33 l-25 528q0 10 8 82q-16 293 -16 412q8 123 8 165h-173q-13 0 -33 33zM408 1146q8 -230 8 -297q8 -16 8 -25l58 9h16q436 0 569 66q91 96 91 189q0 102 -190 206q-46 0 -156 25l-83 -8q-55 0 -231 16q-82 0 -82 -74q-8 -70 -8 -107zM416 676q25 -469 25 -569v-8h371l49 -8 q387 78 387 231q9 45 9 65q0 204 -272 314q-44 8 -83 8h-272q-70 0 -206 8q0 -27 -8 -41z" />
<glyph unicode="C" horiz-adv-x="1321" d="M105 812q56 381 153 445q129 130 315 130q0 14 115 16h153q117 0 222 -131v115q0 12 31 31h23q30 -16 30 -38q0 -182 -15 -269q8 -29 8 -61q0 -31 -39 -54h-23q-12 0 -30 31v8q0 17 7 30q0 94 -130 223q-60 30 -100 30h-107q-405 0 -475 -253q-54 -255 -54 -276 q0 -382 69 -444q97 -167 269 -230q115 -31 145 -31q242 0 322 138q35 23 138 146h31q30 -15 30 -46q-38 -87 -268 -284q-85 -38 -260 -38q-234 35 -315 107q-237 188 -237 476q-8 120 -8 229z" />
<glyph unicode="D" horiz-adv-x="1467" d="M112 1357v25q21 42 67 42h83q46 0 116 8q19 -12 242 -33l17 8q287 -25 391 -83q227 -135 275 -317q58 -167 58 -383q0 -161 -175 -424q-129 -132 -391 -183q-15 -9 -75 -17q-254 17 -375 17q-95 -17 -133 -17h-8q-13 0 -34 33v25q0 39 167 50v9q8 163 8 216 q-17 349 -42 608q0 34 9 391h-75l-100 -8zM395 941q42 -438 42 -650q0 -37 -9 -183q61 0 283 -16q245 49 375 141q140 152 183 391q0 480 -283 608q0 58 -583 92v-9q0 -83 -8 -374z" />
<glyph unicode="E" horiz-adv-x="1425" d="M98 33v25q0 49 214 49l17 231q-8 225 -8 429v140q8 247 8 421q-206 0 -206 49v25q0 13 33 33q132 -17 156 -17q59 9 66 9q66 -17 141 -17h222q77 0 454 17q43 0 66 -42v-24q0 -106 -17 -215q9 -44 9 -74l-33 -25h-25q-41 21 -41 83q0 21 16 206q-292 -17 -412 -17h-330 q-17 -315 -17 -453v-66q28 0 42 -8l74 8q20 0 124 -8q141 8 173 16v8q0 30 -17 141l33 24h25q41 0 49 -132q0 -346 -57 -346h-17q-41 24 -41 50q16 74 16 107v49q-129 -8 -189 -8q-39 0 -83 8q-42 -8 -99 -8h-33q0 -87 9 -330q-9 -177 -9 -264q136 17 190 17q103 0 206 -17 l413 17q28 347 41 363q4 0 33 8q41 -12 41 -58v-16q-25 -336 -25 -363q0 -13 -33 -33h-24q-58 0 -66 8q-59 -8 -99 -8q-126 0 -289 -9q-173 17 -206 17l-470 -33z" />
<glyph unicode="F" horiz-adv-x="1356" d="M105 32v25q21 40 65 40h138l8 41v40l32 478v25q0 8 8 8l-8 16q0 71 8 178q-8 208 -8 413q-8 16 -8 25q-172 -8 -203 -8l-24 32v24q0 41 251 41q65 0 170 8q81 -8 122 -8q28 0 170 8q454 -14 454 -49l8 -40q0 -16 -8 -16l8 -33q-8 -181 -8 -291q-31 -25 -49 -25 q-40 12 -40 57v49q0 77 8 186q-8 57 -24 57q-155 0 -341 16q-98 -8 -219 -8h-32q-34 0 -89 8q-57 -8 -57 -16q8 -489 8 -535q159 -24 252 -24h105q-8 80 -8 121v33q0 12 32 32h24l33 -24q8 -150 8 -219v-170q0 -57 -49 -57q-40 11 -40 57v137h-8q-37 0 -49 -8 q-191 8 -300 33l-40 -535v-57h348q44 0 57 -32v-33q0 -8 -32 -32l-41 8h-227q-85 0 -178 -8q-35 8 -122 8q-10 0 -81 -8z" />
<glyph unicode="G" horiz-adv-x="1467" d="M119 673q0 406 280 633q185 112 345 112h40q184 0 352 -216l8 16v104q0 12 32 32h25q12 0 32 -32v-40q0 -289 -73 -289h-8q-28 0 -80 145q-152 192 -312 192q-313 -52 -313 -112q-136 -71 -208 -329q-32 -200 -32 -216q0 -220 152 -401q158 -152 337 -152 q103 -19 144 -32q193 16 304 64q0 46 -8 200l-16 9l8 40v8q0 7 -16 64l8 32q-8 0 -8 -8q-148 -8 -216 -8q-149 6 -168 56v24q16 32 40 32q108 -24 144 -24q197 16 313 16h120q12 0 32 -32v-32q0 -8 -32 -32l-56 8h-64v-8q0 -75 8 -393q0 -61 -377 -104h-56q-237 40 -345 88 q-336 195 -336 585z" />
<glyph unicode="H" horiz-adv-x="1506" d="M105 41v33q0 13 33 33q46 0 156 -17v25q-16 200 -16 222v33q0 47 8 58q-8 44 -8 74v304q0 63 24 419q0 107 -41 107q-107 13 -107 41v33q0 13 33 33q222 -27 222 -33l41 8h99q49 0 66 -49q-8 -30 -33 -49q-7 0 -66 8l-131 -8v-9l8 -57q0 -67 -25 -469h8q138 -8 214 -8h25 q34 0 90 8l17 -8l246 16q47 -8 132 -8h16q-8 372 -16 518h-90q-110 0 -124 66v16q0 13 33 33h8q81 -24 91 -24q42 0 263 8q66 -10 66 -58q-1 -11 -33 -41l-82 8h-42q0 -5 9 -106q0 -154 8 -370q-8 -271 -41 -716q111 8 164 8h25q44 0 57 -33v-32q-3 -17 -41 -33l-57 8 q-34 0 -222 -25h-156q-13 0 -33 33v25q0 13 33 33h139v8l33 575l-16 9q-494 -9 -601 -9q-103 9 -123 9v-74q0 -103 8 -189q-8 -55 -8 -107l25 -198v-33q149 9 197 9q49 0 49 -58q-2 -22 -41 -41q-8 0 -24 8q-136 -8 -206 -8q-58 0 -238 8z" />
<glyph unicode="I" horiz-adv-x="1153" d="M119 1361v24l25 33q47 0 131 -8q94 0 287 8q261 -8 450 -8q41 -14 41 -49q-11 -41 -57 -41h-205q-53 0 -164 8v-49q0 -223 -8 -369q0 -137 41 -795l33 8q257 -8 311 -8q41 -12 41 -58v-8q0 -8 -33 -33q-45 9 -65 9q-83 0 -205 8q-171 -17 -344 -25q-124 8 -172 8 q-27 -16 -50 -16h-8q-13 0 -33 33v24q23 50 107 50q73 0 164 -9q74 9 164 9v8q-33 417 -41 819q8 189 8 336l-8 58q-96 -8 -140 -8h-106q-164 0 -164 41z" />
<glyph unicode="J" horiz-adv-x="1384" d="M84 257q8 250 8 346q6 49 48 49q41 -11 41 -57v-48q0 -105 -8 -273q148 -185 450 -185q114 0 209 160q49 106 49 153v370l8 49q-8 14 -8 32q0 133 24 467l-16 8h-322l-97 -8l-24 32v24q21 40 64 40q171 0 765 8q32 -12 32 -24v-40q-8 -24 -48 -24h-129q-42 0 -137 -8 q-8 -210 -24 -419q0 -24 8 -56q-8 -149 -8 -266v-209q0 -131 -137 -281q-84 -97 -217 -97q-324 0 -507 201q-24 40 -24 56z" />
<glyph unicode="K" horiz-adv-x="1551" d="M98 41v25q0 13 33 34h191l17 182l-9 17l9 16q-25 268 -34 713l25 307h-174q-13 0 -33 33v25q0 13 33 34h25q117 0 498 -17q24 -30 24 -58v-17l-16 -25l-266 17q0 -86 -24 -299q8 -32 8 -58q0 -27 -8 -41q8 -57 8 -91v-166h8q73 73 357 315q180 200 323 299q0 4 50 49 q-97 -8 -141 -8h-50q-33 17 -33 50q16 38 33 41q99 0 349 25q124 -14 124 -50q0 -44 -33 -58l-108 17q-110 -138 -282 -257q-65 -82 -282 -282v-9q174 -46 265 -182q42 -58 117 -265q122 -255 149 -257h99q67 0 67 -67l-25 -33q-83 8 -125 8h-49q-60 0 -133 183 q-54 76 -166 365q-142 174 -298 174q-193 -174 -208 -174q17 -151 17 -282q0 -57 -17 -174h8q203 -9 224 -9l25 -33v-25l-25 -33q-210 8 -306 8h-208q-13 0 -33 33z" />
<glyph unicode="L" horiz-adv-x="1377" d="M105 65v24q17 33 41 33l275 -33h25v65q0 66 -9 105l9 57q-13 903 -49 998h-16q-69 0 -244 8l-24 32v25l24 32q205 -8 325 -8h308q13 0 32 -33v-32q-8 -24 -48 -24h-260q33 -91 41 -1225q462 33 657 33v186q0 130 -17 260l33 24h24q49 0 49 -260v-259q-23 -41 -49 -41 q-139 0 -754 -32h-81q-292 21 -292 65z" />
<glyph unicode="M" horiz-adv-x="1572" d="M91 40v24q0 13 32 32h120v200q0 47 8 128q-8 16 -8 24l8 72q-16 272 -16 393v232q0 52 -8 160l-96 -8l-24 32v24q0 37 176 48q168 0 168 -64q-8 -24 -16 -24q91 -142 208 -440q76 -156 169 -297q97 366 240 593q85 219 112 224h240q56 0 56 -48q-16 -37 -32 -40h-88 q8 -320 8 -464q0 -284 -16 -737h72q56 0 56 -48q-11 -40 -56 -40h-40q-75 0 -136 8q-6 0 -48 -8q-77 8 -152 8h-24q-13 0 -32 32v24q0 13 32 32h120l48 -8q13 8 40 8h32q16 537 16 721q0 73 -8 456q-26 16 -40 16q-219 -448 -248 -536q-73 -313 -152 -313q0 -8 -24 -8 q-33 0 -249 433q-149 379 -224 424q10 -199 16 -216q-8 -55 -8 -88v-48q0 -155 16 -417q-8 -299 -8 -400l8 -40h120q92 0 104 -40v-24l-24 -32l-96 8q-85 0 -136 -8q-57 8 -144 8h-40q-12 0 -32 32z" />
<glyph unicode="N" horiz-adv-x="1565" d="M119 1363v25l25 33q151 -16 190 -16l115 8q191 -254 389 -661q230 -313 372 -562h8q-8 343 -8 512v612h-75q-206 0 -206 41v25q17 33 41 33q49 0 174 -8q112 16 148 16q182 0 182 -66q-16 -38 -33 -41q-135 8 -141 16v-16q0 -151 9 -182q-9 -147 -9 -240q0 -203 9 -851 l-50 -41h-8q-55 0 -157 198q-126 217 -347 521q-190 388 -314 553q-8 16 -8 25h-9q0 -96 -8 -132q8 -16 8 -25q-16 -117 -16 -248q0 -8 -8 -8l8 -41v-240q0 -48 8 -132q-8 -16 -8 -25q16 -212 16 -347h182q65 0 75 -58q-1 -12 -33 -41l-83 8h-264q-124 0 -124 42v24 q0 13 33 33q104 -8 124 -8v8q-17 377 -25 785q16 164 25 422h-9q-198 0 -198 49z" />
<glyph unicode="O" horiz-adv-x="1412" d="M112 504q0 360 181 677q115 157 402 228q90 16 126 16q217 -57 283 -165q181 -214 181 -544q0 -473 -315 -661q-168 -55 -275 -55q-383 0 -559 402zM206 504q0 -151 221 -339q0 -36 275 -78q206 23 284 78q212 201 212 551q0 384 -267 575l-118 47q-187 0 -410 -165 q-197 -274 -197 -630v-39z" />
<glyph unicode="P" horiz-adv-x="1356" d="M112 41v25q0 8 41 41q82 -8 124 -8h90l-16 156l8 41q-33 366 -33 601v173q0 106 16 255l-16 8h-165q-12 0 -33 33v25q0 13 33 33q345 8 428 8q593 -72 593 -189q60 -40 66 -297q0 -141 -181 -279q-159 -74 -412 -74h-222v-9l25 -477h74q296 0 296 -41v-25q-1 -12 -33 -41 l-58 8h-65q-9 0 -9 8q-8 0 -8 -8q-115 8 -148 8q-90 0 -206 -16q-63 8 -140 8h-16q-13 0 -33 33zM417 807q0 -42 8 -124h189q401 0 477 132q66 89 66 148q0 304 -173 304q-349 74 -461 74h-90v-8q0 -30 -16 -230q0 -28 8 -41q-8 -70 -8 -116v-139z" />
<glyph unicode="Q" horiz-adv-x="1481" d="M126 641v104q40 276 160 424q216 240 304 240q114 16 160 16q389 0 536 -472q48 -149 48 -336q0 -247 -304 -504q-208 -114 -344 -128q0 -6 -64 -64h16q227 0 416 -64q115 0 248 80q40 -11 40 -56q-75 -112 -288 -112q-249 64 -376 64q-101 -2 -224 -40h-24q-12 0 -32 32 q0 43 168 176v8q-250 94 -344 288q-92 207 -96 344zM214 657q10 -175 120 -376q155 -173 312 -200h32q143 0 360 152q208 220 208 408q0 203 -104 440q-144 256 -392 256q-212 0 -336 -176q-116 -70 -192 -360q-8 -43 -8 -72v-72z" />
<glyph unicode="R" horiz-adv-x="1607" d="M126 1337v24q0 13 32 33h25q54 0 235 24h259q384 0 551 -235q32 -97 32 -122v-64q0 -177 -194 -260q-130 -40 -154 -40q226 -173 292 -324q113 -276 129 -276h49q121 0 121 -40v-25q0 -12 -32 -32l-97 8q-45 -8 -65 -8q-58 0 -162 275q-93 210 -203 268q-89 91 -210 121 l-8 17q-133 -25 -284 -25v-105q0 -156 -8 -462h227q57 0 57 -48q-12 -41 -57 -41h-178q-341 0 -341 49v24l25 32q136 -8 178 -16l16 1232q-68 -16 -178 -16h-25q-12 0 -32 32zM442 745h8q543 33 616 98q73 0 105 170v32q0 227 -462 284h-259q-8 -373 -8 -567v-17z" />
<glyph unicode="S" horiz-adv-x="1293" d="M119 59l8 59v152q0 134 59 134q45 0 93 -168q97 -143 362 -143q379 11 379 75q30 0 51 203v75q0 161 -236 194q-420 45 -489 118q-143 94 -143 261v26q0 194 219 336q105 51 287 51q148 0 328 -160v93q0 45 42 67h26l33 -25q-17 -194 -17 -354l-33 -25h-34q-23 0 -67 143 q-64 110 -262 168h-25q-331 0 -387 -244q-14 0 -17 -59v-8q0 -222 345 -270q452 -23 489 -194q30 -17 42 -185q0 -142 -84 -295q-82 -84 -405 -84h-67q-264 0 -396 152v-68q0 -45 -34 -59h-33q-9 0 -34 34z" />
<glyph unicode="T" horiz-adv-x="1391" d="M119 1383q49 41 106 41h90q44 0 74 -8q12 8 385 16q43 -8 49 -8q8 0 8 8q82 -8 123 -8h262q57 0 57 -467l-33 -24h-24q-33 17 -33 41q0 149 -17 352l-98 8h-237q-29 0 -74 8q-16 -8 -24 -8q0 -233 8 -884q-8 -265 -8 -352h131q8 0 8 -8q94 10 106 25h25q13 0 32 -33v-25 q0 -45 -147 -57q-564 21 -564 41l-9 16v25l25 33q164 -9 245 -9h58q0 166 8 410q-8 476 -8 777l-8 41h-66q-109 0 -180 -8q-56 8 -172 8v-360q0 -13 -33 -33h-24q-13 0 -33 33v286q0 41 -8 123z" />
<glyph unicode="U" horiz-adv-x="1530" d="M126 1360v25q0 41 147 41h122q69 0 220 -9l24 -32v-25q0 -12 -32 -32q-171 8 -237 8v-179q0 -123 -16 -399q0 -473 73 -522q175 -146 334 -146h57q270 0 334 423q17 201 17 318v212q0 90 -17 293h-8q-83 -8 -130 -8l-33 8q-13 -8 -40 -8h-17q-12 0 -32 32v25q20 41 81 41 q25 0 57 -9l74 9q170 -9 277 -9q24 -31 24 -48q-11 -41 -57 -41h-106q16 -140 16 -228v-277q0 -823 -431 -823h-98q-158 0 -375 171q-90 136 -90 375q0 8 9 8l-9 57v90q17 431 17 480v155l-131 -8z" />
<glyph unicode="V" horiz-adv-x="1663" d="M112 1343v24q0 13 33 33h49q124 0 206 -8q58 8 165 8q49 -6 49 -49q0 -50 -238 -50q113 -437 247 -659l206 -494h16q198 347 313 766q0 43 173 404h-8q-44 0 -74 -8q-161 8 -173 57v25q0 13 33 33h8q59 -16 66 -16h321q13 0 33 -33v-25q0 -13 -33 -33h-74 q-157 -325 -239 -610q0 -101 -264 -601q-42 -88 -90 -107q-69 0 -280 560q-150 263 -247 626l-33 124h-132q-13 0 -33 33z" />
<glyph unicode="W" horiz-adv-x="1586" d="M91 1350v24q0 58 288 58h148q44 0 58 -33v-8q0 -43 -41 -58l-83 8h-90l-99 -8q107 -605 148 -1111h17q164 475 164 659q52 238 83 238q20 0 41 17h24q131 -106 280 -692q53 -229 107 -321q25 177 132 1210q-152 -8 -222 -8h-50q-13 0 -33 33v25q0 12 33 33q255 8 404 8 h32q13 0 33 -33v-25q0 -13 -33 -33h-74q-118 -1300 -164 -1300q-50 -19 -50 -33q-92 0 -139 189q-167 633 -264 807v8h-16q-99 -595 -206 -815q-62 -189 -99 -189h-16q-67 0 -83 288q-32 388 -139 1037l-58 -8q-13 0 -33 33z" />
<glyph unicode="X" horiz-adv-x="1579" d="M133 41v25q0 13 33 33l75 -8q156 236 397 530q0 11 66 116q-142 215 -397 488q-44 100 -91 100q-66 0 -66 33v25q0 13 33 33q64 0 116 -8l58 8q198 0 198 -66q0 -12 -33 -42l-157 17v-8q46 -69 248 -299q141 -172 141 -190h8q242 275 365 472h-100q-45 0 -66 41v25l25 33 l99 -8h42q85 0 124 25l74 -8q7 0 50 8q41 -12 41 -58q0 -50 -157 -50q-232 -315 -414 -538q-16 -20 -16 -33q146 -202 347 -414q169 -224 207 -224q50 -6 50 -49q-12 -42 -58 -42h-240q-166 0 -166 42v25q0 12 33 33q117 -9 199 -9h33l-472 555q-59 -123 -281 -381 l-116 -165v-9h8q40 0 191 9q41 -14 41 -50q0 -50 -240 -50q-17 0 -182 -8q-34 11 -50 41z" />
<glyph unicode="Y" horiz-adv-x="1502" d="M133 1350v24q0 42 165 42h214q57 0 57 -58v-8q0 -8 -33 -33l-57 8h-74q127 -200 345 -510q17 -58 33 -58q206 276 371 568h-9q-44 -8 -74 -8h-49q-13 0 -33 33v24q0 13 33 33h8q67 0 206 25q148 -5 148 -41v-25q0 -13 -33 -33h-66q-271 -419 -370 -543q0 -11 -91 -123 v-255q0 -40 -8 -83q8 -29 8 -82q0 -34 -8 -148q97 -8 140 -8h156q13 0 33 -33v-25q0 -13 -33 -33h-156q-70 0 -148 8q-9 0 -25 -8q-10 0 -82 8q-227 -8 -288 -8l-25 33v25q16 29 50 41q18 0 32 -8q116 8 198 8h58q0 54 8 140q0 29 -8 74q8 101 8 197v148q-211 335 -453 667 q-82 -8 -123 -8z" />
<glyph unicode="Z" horiz-adv-x="1250" d="M126 49v17q62 160 189 329q166 166 329 453q121 216 330 477v8q-98 0 -181 -24q-7 0 -50 8l-280 -8q-48 8 -148 8q0 -76 9 -272q-11 -66 -58 -66q-22 0 -41 42q0 18 8 32q-8 258 -25 338l58 41l214 -33q301 8 485 25h50q64 0 82 -41v-9q0 -65 -263 -386 q-171 -340 -453 -667q-35 -22 -132 -214q16 -8 25 -8q89 0 469 24q52 -8 115 -8h190v8q8 335 8 371q11 34 41 49h25l33 -25q-17 -195 -17 -452l9 -41q-9 0 -9 -9q-177 9 -263 9h-132q-163 0 -535 -25q-81 31 -82 49z" />
<glyph unicode="[" horiz-adv-x="758" d="M122 402q0 28 4 127q0 4 4 4l-4 16q12 412 36 692q8 96 8 185q0 74 -36 161q0 54 96 54q87 -13 140 -13h104q108 0 108 -51q0 -40 -144 -40v3l-8 -3h-64q-51 0 -104 7q16 -93 16 -141q-40 -611 -40 -639q0 -137 -8 -198l4 -23q-12 -127 -12 -168q0 -44 4 -239 q24 -125 32 -154q42 0 168 -27q103 -3 116 -3q16 0 72 6q37 0 44 -47q0 -40 -144 -40q-98 0 -220 27q-108 9 -108 27q-27 0 -60 245q-4 129 -4 232z" />
<glyph unicode="\" horiz-adv-x="819" d="M-187 1684q0 23 21 31h18q37 0 158 -165l121 -185q130 -191 223 -383q66 -114 244 -377q192 -246 365 -631q-9 -45 -47 -45h-17q-17 0 -39 18q-139 290 -215 407q-152 216 -210 309q-154 204 -274 459q-150 225 -232 363q-116 152 -116 199z" />
<glyph unicode="]" horiz-adv-x="758" d="M112 1597v4q0 37 140 58q226 0 344 -38q16 -18 16 -31q-20 -114 -20 -206q4 -80 4 -164q0 -7 4 -7l-4 -17v-11q0 -122 4 -223q-4 -57 -4 -86q17 -402 24 -443l-12 -240l4 -7l-4 -13q4 -77 4 -83q0 -8 -4 -27q8 -63 8 -79q-16 -93 -44 -93q-19 -14 -40 -14q-28 7 -48 7 h-60q-32 0 -164 -17q-116 5 -116 38v17q0 20 32 34h16q47 0 64 -7q102 18 168 18h92q-4 193 -8 254q4 33 8 158l-4 13l4 17q-12 90 -28 467q0 39 4 72l-8 454l8 147q-81 17 -204 17q0 5 -32 7q-52 -7 -112 -7q-32 9 -32 31z" />
<glyph unicode="^" horiz-adv-x="972" d="M55 897v7q0 42 185 273q109 177 123 195q49 63 79 63h9q39 0 82 -82q78 -81 220 -254q129 -141 129 -161q6 -25 6 -31q0 -34 -47 -41q-24 0 -72 72q-56 52 -202 236q-90 98 -119 142v3q-25 -21 -88 -139q-71 -105 -211 -273q-41 -35 -66 -35h-3q-25 0 -25 25z" />
<glyph unicode="_" horiz-adv-x="1024" d="M-213 -1q0 39 306 56q327 -12 408 -12h161q189 -16 216 -16q1 0 13 4q4 0 4 -4q7 0 13 4q57 -4 88 -4q105 0 158 8q3 0 3 -4l17 4h20q44 -12 44 -52q0 -56 -88 -56q-96 -8 -158 -8h-64q-87 0 -293 16h-175l-437 16h-4q-7 0 -13 -4l-7 4q-7 0 -7 -4l-33 4h-44 q-128 0 -128 28v20z" />
<glyph unicode="`" horiz-adv-x="1024" d="M309 1415v28q0 15 38 38h29q361 -320 361 -427v-10q0 -15 -38 -38h-29q-135 173 -275 323q-47 22 -86 86z" />
<glyph unicode="a" horiz-adv-x="1652" d="M112 58v25q0 13 33 33q57 -8 91 -8h9q0 74 249 556q149 521 215 655h-16q-103 0 -282 25q-45 -8 -75 -8l-25 33v25q13 41 108 41q211 -25 299 -25h24q19 0 34 -8q17 8 124 17q52 0 83 -249q180 -531 373 -929q34 -100 58 -133q21 0 117 16q41 -11 41 -58q0 -43 -191 -58 q-84 17 -265 17h-67q-13 0 -33 33v25q0 13 33 33h249v8q-58 164 -157 357q-224 0 -623 17q-182 -347 -182 -398q17 0 17 -9l99 9h83q58 0 58 -50q-9 -42 -66 -42q-78 0 -158 -8q-257 14 -257 58zM568 589l374 -17q16 9 24 9q46 -9 67 -9q58 0 58 17q-232 621 -232 722h-42 q-62 -80 -249 -722z" />
<glyph unicode="b" horiz-adv-x="1460" d="M119 1352v25q0 8 41 41l83 -8h115l83 8v-8q15 8 24 8q102 0 272 -16q46 8 66 8q150 0 289 -74q156 -127 156 -248q0 -218 -206 -297h-16v-8q102 0 255 -189q66 -107 66 -215q0 -301 -453 -379q-111 8 -165 8h-363q-231 0 -231 50v24q0 13 33 33l149 -16q33 8 33 33 l-25 528q0 10 8 82q-16 293 -16 412q8 123 8 165h-173q-13 0 -33 33zM408 1146q8 -230 8 -297q8 -16 8 -25l58 9h16q436 0 569 66q91 96 91 189q0 102 -190 206q-46 0 -156 25l-83 -8q-55 0 -231 16q-82 0 -82 -74q-8 -70 -8 -107zM416 676q25 -469 25 -569v-8h371l49 -8 q387 78 387 231q9 45 9 65q0 204 -272 314q-44 8 -83 8h-272q-70 0 -206 8q0 -27 -8 -41z" />
<glyph unicode="c" horiz-adv-x="1321" d="M105 812q56 381 153 445q129 130 315 130q0 14 115 16h153q117 0 222 -131v115q0 12 31 31h23q30 -16 30 -38q0 -182 -15 -269q8 -29 8 -61q0 -31 -39 -54h-23q-12 0 -30 31v8q0 17 7 30q0 94 -130 223q-60 30 -100 30h-107q-405 0 -475 -253q-54 -255 -54 -276 q0 -382 69 -444q97 -167 269 -230q115 -31 145 -31q242 0 322 138q35 23 138 146h31q30 -15 30 -46q-38 -87 -268 -284q-85 -38 -260 -38q-234 35 -315 107q-237 188 -237 476q-8 120 -8 229z" />
<glyph unicode="d" horiz-adv-x="1467" d="M112 1357v25q21 42 67 42h83q46 0 116 8q19 -12 242 -33l17 8q287 -25 391 -83q227 -135 275 -317q58 -167 58 -383q0 -161 -175 -424q-129 -132 -391 -183q-15 -9 -75 -17q-254 17 -375 17q-95 -17 -133 -17h-8q-13 0 -34 33v25q0 39 167 50v9q8 163 8 216 q-17 349 -42 608q0 34 9 391h-75l-100 -8zM395 941q42 -438 42 -650q0 -37 -9 -183q61 0 283 -16q245 49 375 141q140 152 183 391q0 480 -283 608q0 58 -583 92v-9q0 -83 -8 -374z" />
<glyph unicode="e" horiz-adv-x="1425" d="M98 33v25q0 49 214 49l17 231q-8 225 -8 429v140q8 247 8 421q-206 0 -206 49v25q0 13 33 33q132 -17 156 -17q59 9 66 9q66 -17 141 -17h222q77 0 454 17q43 0 66 -42v-24q0 -106 -17 -215q9 -44 9 -74l-33 -25h-25q-41 21 -41 83q0 21 16 206q-292 -17 -412 -17h-330 q-17 -315 -17 -453v-66q28 0 42 -8l74 8q20 0 124 -8q141 8 173 16v8q0 30 -17 141l33 24h25q41 0 49 -132q0 -346 -57 -346h-17q-41 24 -41 50q16 74 16 107v49q-129 -8 -189 -8q-39 0 -83 8q-42 -8 -99 -8h-33q0 -87 9 -330q-9 -177 -9 -264q136 17 190 17q103 0 206 -17 l413 17q28 347 41 363q4 0 33 8q41 -12 41 -58v-16q-25 -336 -25 -363q0 -13 -33 -33h-24q-58 0 -66 8q-59 -8 -99 -8q-126 0 -289 -9q-173 17 -206 17l-470 -33z" />
<glyph unicode="f" horiz-adv-x="1356" d="M105 32v25q21 40 65 40h138l8 41v40l32 478v25q0 8 8 8l-8 16q0 71 8 178q-8 208 -8 413q-8 16 -8 25q-172 -8 -203 -8l-24 32v24q0 41 251 41q65 0 170 8q81 -8 122 -8q28 0 170 8q454 -14 454 -49l8 -40q0 -16 -8 -16l8 -33q-8 -181 -8 -291q-31 -25 -49 -25 q-40 12 -40 57v49q0 77 8 186q-8 57 -24 57q-155 0 -341 16q-98 -8 -219 -8h-32q-34 0 -89 8q-57 -8 -57 -16q8 -489 8 -535q159 -24 252 -24h105q-8 80 -8 121v33q0 12 32 32h24l33 -24q8 -150 8 -219v-170q0 -57 -49 -57q-40 11 -40 57v137h-8q-37 0 -49 -8 q-191 8 -300 33l-40 -535v-57h348q44 0 57 -32v-33q0 -8 -32 -32l-41 8h-227q-85 0 -178 -8q-35 8 -122 8q-10 0 -81 -8z" />
<glyph unicode="g" horiz-adv-x="1467" d="M119 673q0 406 280 633q185 112 345 112h40q184 0 352 -216l8 16v104q0 12 32 32h25q12 0 32 -32v-40q0 -289 -73 -289h-8q-28 0 -80 145q-152 192 -312 192q-313 -52 -313 -112q-136 -71 -208 -329q-32 -200 -32 -216q0 -220 152 -401q158 -152 337 -152 q103 -19 144 -32q193 16 304 64q0 46 -8 200l-16 9l8 40v8q0 7 -16 64l8 32q-8 0 -8 -8q-148 -8 -216 -8q-149 6 -168 56v24q16 32 40 32q108 -24 144 -24q197 16 313 16h120q12 0 32 -32v-32q0 -8 -32 -32l-56 8h-64v-8q0 -75 8 -393q0 -61 -377 -104h-56q-237 40 -345 88 q-336 195 -336 585z" />
<glyph unicode="h" horiz-adv-x="1506" d="M105 41v33q0 13 33 33q46 0 156 -17v25q-16 200 -16 222v33q0 47 8 58q-8 44 -8 74v304q0 63 24 419q0 107 -41 107q-107 13 -107 41v33q0 13 33 33q222 -27 222 -33l41 8h99q49 0 66 -49q-8 -30 -33 -49q-7 0 -66 8l-131 -8v-9l8 -57q0 -67 -25 -469h8q138 -8 214 -8h25 q34 0 90 8l17 -8l246 16q47 -8 132 -8h16q-8 372 -16 518h-90q-110 0 -124 66v16q0 13 33 33h8q81 -24 91 -24q42 0 263 8q66 -10 66 -58q-1 -11 -33 -41l-82 8h-42q0 -5 9 -106q0 -154 8 -370q-8 -271 -41 -716q111 8 164 8h25q44 0 57 -33v-32q-3 -17 -41 -33l-57 8 q-34 0 -222 -25h-156q-13 0 -33 33v25q0 13 33 33h139v8l33 575l-16 9q-494 -9 -601 -9q-103 9 -123 9v-74q0 -103 8 -189q-8 -55 -8 -107l25 -198v-33q149 9 197 9q49 0 49 -58q-2 -22 -41 -41q-8 0 -24 8q-136 -8 -206 -8q-58 0 -238 8z" />
<glyph unicode="i" horiz-adv-x="1153" d="M119 1361v24l25 33q47 0 131 -8q94 0 287 8q261 -8 450 -8q41 -14 41 -49q-11 -41 -57 -41h-205q-53 0 -164 8v-49q0 -223 -8 -369q0 -137 41 -795l33 8q257 -8 311 -8q41 -12 41 -58v-8q0 -8 -33 -33q-45 9 -65 9q-83 0 -205 8q-171 -17 -344 -25q-124 8 -172 8 q-27 -16 -50 -16h-8q-13 0 -33 33v24q23 50 107 50q73 0 164 -9q74 9 164 9v8q-33 417 -41 819q8 189 8 336l-8 58q-96 -8 -140 -8h-106q-164 0 -164 41z" />
<glyph unicode="j" horiz-adv-x="1384" d="M84 257q8 250 8 346q6 49 48 49q41 -11 41 -57v-48q0 -105 -8 -273q148 -185 450 -185q114 0 209 160q49 106 49 153v370l8 49q-8 14 -8 32q0 133 24 467l-16 8h-322l-97 -8l-24 32v24q21 40 64 40q171 0 765 8q32 -12 32 -24v-40q-8 -24 -48 -24h-129q-42 0 -137 -8 q-8 -210 -24 -419q0 -24 8 -56q-8 -149 -8 -266v-209q0 -131 -137 -281q-84 -97 -217 -97q-324 0 -507 201q-24 40 -24 56z" />
<glyph unicode="k" horiz-adv-x="1551" d="M98 41v25q0 13 33 34h191l17 182l-9 17l9 16q-25 268 -34 713l25 307h-174q-13 0 -33 33v25q0 13 33 34h25q117 0 498 -17q24 -30 24 -58v-17l-16 -25l-266 17q0 -86 -24 -299q8 -32 8 -58q0 -27 -8 -41q8 -57 8 -91v-166h8q73 73 357 315q180 200 323 299q0 4 50 49 q-97 -8 -141 -8h-50q-33 17 -33 50q16 38 33 41q99 0 349 25q124 -14 124 -50q0 -44 -33 -58l-108 17q-110 -138 -282 -257q-65 -82 -282 -282v-9q174 -46 265 -182q42 -58 117 -265q122 -255 149 -257h99q67 0 67 -67l-25 -33q-83 8 -125 8h-49q-60 0 -133 183 q-54 76 -166 365q-142 174 -298 174q-193 -174 -208 -174q17 -151 17 -282q0 -57 -17 -174h8q203 -9 224 -9l25 -33v-25l-25 -33q-210 8 -306 8h-208q-13 0 -33 33z" />
<glyph unicode="l" horiz-adv-x="1377" d="M105 65v24q17 33 41 33l275 -33h25v65q0 66 -9 105l9 57q-13 903 -49 998h-16q-69 0 -244 8l-24 32v25l24 32q205 -8 325 -8h308q13 0 32 -33v-32q-8 -24 -48 -24h-260q33 -91 41 -1225q462 33 657 33v186q0 130 -17 260l33 24h24q49 0 49 -260v-259q-23 -41 -49 -41 q-139 0 -754 -32h-81q-292 21 -292 65z" />
<glyph unicode="m" horiz-adv-x="1572" d="M91 40v24q0 13 32 32h120v200q0 47 8 128q-8 16 -8 24l8 72q-16 272 -16 393v232q0 52 -8 160l-96 -8l-24 32v24q0 37 176 48q168 0 168 -64q-8 -24 -16 -24q91 -142 208 -440q76 -156 169 -297q97 366 240 593q85 219 112 224h240q56 0 56 -48q-16 -37 -32 -40h-88 q8 -320 8 -464q0 -284 -16 -737h72q56 0 56 -48q-11 -40 -56 -40h-40q-75 0 -136 8q-6 0 -48 -8q-77 8 -152 8h-24q-13 0 -32 32v24q0 13 32 32h120l48 -8q13 8 40 8h32q16 537 16 721q0 73 -8 456q-26 16 -40 16q-219 -448 -248 -536q-73 -313 -152 -313q0 -8 -24 -8 q-33 0 -249 433q-149 379 -224 424q10 -199 16 -216q-8 -55 -8 -88v-48q0 -155 16 -417q-8 -299 -8 -400l8 -40h120q92 0 104 -40v-24l-24 -32l-96 8q-85 0 -136 -8q-57 8 -144 8h-40q-12 0 -32 32z" />
<glyph unicode="n" horiz-adv-x="1565" d="M119 1363v25l25 33q151 -16 190 -16l115 8q191 -254 389 -661q230 -313 372 -562h8q-8 343 -8 512v612h-75q-206 0 -206 41v25q17 33 41 33q49 0 174 -8q112 16 148 16q182 0 182 -66q-16 -38 -33 -41q-135 8 -141 16v-16q0 -151 9 -182q-9 -147 -9 -240q0 -203 9 -851 l-50 -41h-8q-55 0 -157 198q-126 217 -347 521q-190 388 -314 553q-8 16 -8 25h-9q0 -96 -8 -132q8 -16 8 -25q-16 -117 -16 -248q0 -8 -8 -8l8 -41v-240q0 -48 8 -132q-8 -16 -8 -25q16 -212 16 -347h182q65 0 75 -58q-1 -12 -33 -41l-83 8h-264q-124 0 -124 42v24 q0 13 33 33q104 -8 124 -8v8q-17 377 -25 785q16 164 25 422h-9q-198 0 -198 49z" />
<glyph unicode="o" horiz-adv-x="1412" d="M112 504q0 360 181 677q115 157 402 228q90 16 126 16q217 -57 283 -165q181 -214 181 -544q0 -473 -315 -661q-168 -55 -275 -55q-383 0 -559 402zM206 504q0 -151 221 -339q0 -36 275 -78q206 23 284 78q212 201 212 551q0 384 -267 575l-118 47q-187 0 -410 -165 q-197 -274 -197 -630v-39z" />
<glyph unicode="p" horiz-adv-x="1356" d="M112 41v25q0 8 41 41q82 -8 124 -8h90l-16 156l8 41q-33 366 -33 601v173q0 106 16 255l-16 8h-165q-12 0 -33 33v25q0 13 33 33q345 8 428 8q593 -72 593 -189q60 -40 66 -297q0 -141 -181 -279q-159 -74 -412 -74h-222v-9l25 -477h74q296 0 296 -41v-25q-1 -12 -33 -41 l-58 8h-65q-9 0 -9 8q-8 0 -8 -8q-115 8 -148 8q-90 0 -206 -16q-63 8 -140 8h-16q-13 0 -33 33zM417 807q0 -42 8 -124h189q401 0 477 132q66 89 66 148q0 304 -173 304q-349 74 -461 74h-90v-8q0 -30 -16 -230q0 -28 8 -41q-8 -70 -8 -116v-139z" />
<glyph unicode="q" horiz-adv-x="1481" d="M126 641v104q40 276 160 424q216 240 304 240q114 16 160 16q389 0 536 -472q48 -149 48 -336q0 -247 -304 -504q-208 -114 -344 -128q0 -6 -64 -64h16q227 0 416 -64q115 0 248 80q40 -11 40 -56q-75 -112 -288 -112q-249 64 -376 64q-101 -2 -224 -40h-24q-12 0 -32 32 q0 43 168 176v8q-250 94 -344 288q-92 207 -96 344zM214 657q10 -175 120 -376q155 -173 312 -200h32q143 0 360 152q208 220 208 408q0 203 -104 440q-144 256 -392 256q-212 0 -336 -176q-116 -70 -192 -360q-8 -43 -8 -72v-72z" />
<glyph unicode="r" horiz-adv-x="1607" d="M126 1337v24q0 13 32 33h25q54 0 235 24h259q384 0 551 -235q32 -97 32 -122v-64q0 -177 -194 -260q-130 -40 -154 -40q226 -173 292 -324q113 -276 129 -276h49q121 0 121 -40v-25q0 -12 -32 -32l-97 8q-45 -8 -65 -8q-58 0 -162 275q-93 210 -203 268q-89 91 -210 121 l-8 17q-133 -25 -284 -25v-105q0 -156 -8 -462h227q57 0 57 -48q-12 -41 -57 -41h-178q-341 0 -341 49v24l25 32q136 -8 178 -16l16 1232q-68 -16 -178 -16h-25q-12 0 -32 32zM442 745h8q543 33 616 98q73 0 105 170v32q0 227 -462 284h-259q-8 -373 -8 -567v-17z" />
<glyph unicode="s" horiz-adv-x="1293" d="M119 59l8 59v152q0 134 59 134q45 0 93 -168q97 -143 362 -143q379 11 379 75q30 0 51 203v75q0 161 -236 194q-420 45 -489 118q-143 94 -143 261v26q0 194 219 336q105 51 287 51q148 0 328 -160v93q0 45 42 67h26l33 -25q-17 -194 -17 -354l-33 -25h-34q-23 0 -67 143 q-64 110 -262 168h-25q-331 0 -387 -244q-14 0 -17 -59v-8q0 -222 345 -270q452 -23 489 -194q30 -17 42 -185q0 -142 -84 -295q-82 -84 -405 -84h-67q-264 0 -396 152v-68q0 -45 -34 -59h-33q-9 0 -34 34z" />
<glyph unicode="t" horiz-adv-x="1391" d="M119 1383q49 41 106 41h90q44 0 74 -8q12 8 385 16q43 -8 49 -8q8 0 8 8q82 -8 123 -8h262q57 0 57 -467l-33 -24h-24q-33 17 -33 41q0 149 -17 352l-98 8h-237q-29 0 -74 8q-16 -8 -24 -8q0 -233 8 -884q-8 -265 -8 -352h131q8 0 8 -8q94 10 106 25h25q13 0 32 -33v-25 q0 -45 -147 -57q-564 21 -564 41l-9 16v25l25 33q164 -9 245 -9h58q0 166 8 410q-8 476 -8 777l-8 41h-66q-109 0 -180 -8q-56 8 -172 8v-360q0 -13 -33 -33h-24q-13 0 -33 33v286q0 41 -8 123z" />
<glyph unicode="u" horiz-adv-x="1530" d="M126 1360v25q0 41 147 41h122q69 0 220 -9l24 -32v-25q0 -12 -32 -32q-171 8 -237 8v-179q0 -123 -16 -399q0 -473 73 -522q175 -146 334 -146h57q270 0 334 423q17 201 17 318v212q0 90 -17 293h-8q-83 -8 -130 -8l-33 8q-13 -8 -40 -8h-17q-12 0 -32 32v25q20 41 81 41 q25 0 57 -9l74 9q170 -9 277 -9q24 -31 24 -48q-11 -41 -57 -41h-106q16 -140 16 -228v-277q0 -823 -431 -823h-98q-158 0 -375 171q-90 136 -90 375q0 8 9 8l-9 57v90q17 431 17 480v155l-131 -8z" />
<glyph unicode="v" horiz-adv-x="1663" d="M112 1343v24q0 13 33 33h49q124 0 206 -8q58 8 165 8q49 -6 49 -49q0 -50 -238 -50q113 -437 247 -659l206 -494h16q198 347 313 766q0 43 173 404h-8q-44 0 -74 -8q-161 8 -173 57v25q0 13 33 33h8q59 -16 66 -16h321q13 0 33 -33v-25q0 -13 -33 -33h-74 q-157 -325 -239 -610q0 -101 -264 -601q-42 -88 -90 -107q-69 0 -280 560q-150 263 -247 626l-33 124h-132q-13 0 -33 33z" />
<glyph unicode="w" horiz-adv-x="1586" d="M91 1350v24q0 58 288 58h148q44 0 58 -33v-8q0 -43 -41 -58l-83 8h-90l-99 -8q107 -605 148 -1111h17q164 475 164 659q52 238 83 238q20 0 41 17h24q131 -106 280 -692q53 -229 107 -321q25 177 132 1210q-152 -8 -222 -8h-50q-13 0 -33 33v25q0 12 33 33q255 8 404 8 h32q13 0 33 -33v-25q0 -13 -33 -33h-74q-118 -1300 -164 -1300q-50 -19 -50 -33q-92 0 -139 189q-167 633 -264 807v8h-16q-99 -595 -206 -815q-62 -189 -99 -189h-16q-67 0 -83 288q-32 388 -139 1037l-58 -8q-13 0 -33 33z" />
<glyph unicode="x" horiz-adv-x="1579" d="M133 41v25q0 13 33 33l75 -8q156 236 397 530q0 11 66 116q-142 215 -397 488q-44 100 -91 100q-66 0 -66 33v25q0 13 33 33q64 0 116 -8l58 8q198 0 198 -66q0 -12 -33 -42l-157 17v-8q46 -69 248 -299q141 -172 141 -190h8q242 275 365 472h-100q-45 0 -66 41v25l25 33 l99 -8h42q85 0 124 25l74 -8q7 0 50 8q41 -12 41 -58q0 -50 -157 -50q-232 -315 -414 -538q-16 -20 -16 -33q146 -202 347 -414q169 -224 207 -224q50 -6 50 -49q-12 -42 -58 -42h-240q-166 0 -166 42v25q0 12 33 33q117 -9 199 -9h33l-472 555q-59 -123 -281 -381 l-116 -165v-9h8q40 0 191 9q41 -14 41 -50q0 -50 -240 -50q-17 0 -182 -8q-34 11 -50 41z" />
<glyph unicode="y" horiz-adv-x="1502" d="M133 1350v24q0 42 165 42h214q57 0 57 -58v-8q0 -8 -33 -33l-57 8h-74q127 -200 345 -510q17 -58 33 -58q206 276 371 568h-9q-44 -8 -74 -8h-49q-13 0 -33 33v24q0 13 33 33h8q67 0 206 25q148 -5 148 -41v-25q0 -13 -33 -33h-66q-271 -419 -370 -543q0 -11 -91 -123 v-255q0 -40 -8 -83q8 -29 8 -82q0 -34 -8 -148q97 -8 140 -8h156q13 0 33 -33v-25q0 -13 -33 -33h-156q-70 0 -148 8q-9 0 -25 -8q-10 0 -82 8q-227 -8 -288 -8l-25 33v25q16 29 50 41q18 0 32 -8q116 8 198 8h58q0 54 8 140q0 29 -8 74q8 101 8 197v148q-211 335 -453 667 q-82 -8 -123 -8z" />
<glyph unicode="z" horiz-adv-x="1250" d="M126 49v17q62 160 189 329q166 166 329 453q121 216 330 477v8q-98 0 -181 -24q-7 0 -50 8l-280 -8q-48 8 -148 8q0 -76 9 -272q-11 -66 -58 -66q-22 0 -41 42q0 18 8 32q-8 258 -25 338l58 41l214 -33q301 8 485 25h50q64 0 82 -41v-9q0 -65 -263 -386 q-171 -340 -453 -667q-35 -22 -132 -214q16 -8 25 -8q89 0 469 24q52 -8 115 -8h190v8q8 335 8 371q11 34 41 49h25l33 -25q-17 -195 -17 -452l9 -41q-9 0 -9 -9q-177 9 -263 9h-132q-163 0 -535 -25q-81 31 -82 49z" />
<glyph unicode="{" horiz-adv-x="944" d="M126 598v12q0 35 116 100q120 103 120 164q11 4 16 128l-20 236v28q0 301 124 376q60 40 140 40q48 -9 48 -40q0 -34 -120 -80q-53 -45 -68 -112q-16 -130 -20 -196q24 -226 24 -256q0 -246 -152 -344q-24 -26 -24 -28q52 -20 88 -88q44 -46 44 -240q0 -402 84 -512 q29 -44 52 -44q44 4 76 4h20q44 -8 44 -40v-12q-8 -40 -40 -40h-20q-52 0 -72 -8q-170 0 -232 348q-8 87 -8 120v48l-4 24q0 4 4 4q-2 280 -28 280q-30 80 -100 80q-92 0 -92 48z" />
<glyph unicode="|" horiz-adv-x="500" d="M179 155q0 20 8 312v148q0 14 4 36q-3 11 -8 80q4 139 4 220v276q0 191 8 296l-8 184l20 16h12q76 0 76 -224l-4 -40v-300q0 -171 -4 -424q5 -72 8 -80q-4 -8 -4 -12t4 -4l-4 -20v-72q0 -124 -16 -456q8 -178 8 -344v-4q0 -32 -44 -40h-4q-48 0 -48 104q-8 162 -8 348z " />
<glyph unicode="}" horiz-adv-x="787" d="M70 -276q14 36 40 36h12q119 -8 124 -8q88 27 128 88q32 112 32 196v48q0 12 4 12l-4 20v248q0 21 -4 68h4q0 4 -4 4q6 112 64 232q3 0 28 28q-88 54 -104 120q-36 66 -36 152v36q20 300 20 356v24q0 116 -76 196q-37 19 -156 64l-4 8v8q0 18 72 24h60q159 0 212 -248 l8 -88q-24 -335 -24 -372q0 -126 80 -176q112 -18 112 -36q24 -26 24 -44v-16q0 -33 -68 -68q-51 -17 -68 -56q-32 -80 -32 -164q0 -611 -92 -656q-99 -96 -164 -96h-20q-164 0 -164 40q-4 7 -4 20z" />
<glyph unicode="~" d="M94 744v8q78 222 260 222q195 0 337 -268q23 0 23 -8q90 0 199 184h7q43 0 54 -38q-85 -230 -268 -230q-70 0 -191 199q-84 76 -153 76q-113 0 -199 -168l-15 -8h-23q-12 0 -31 31z" />
<glyph unicode="&#xa1;" horiz-adv-x="672" d="M200 1195q0 83 75 118q13 3 23 3q75 -14 75 -68v-10q-11 -88 -75 -88q-29 -10 -49 -10q-25 0 -49 55zM232 104q9 505 32 552v76q0 6 16 16h4q64 0 64 -156h-4q0 -4 4 -4l-4 -20v-48l-4 -24l4 -8l-4 -8l4 -20l-4 -8q4 -7 4 -16q0 -4 -4 -4l4 -20v-64q0 -114 -4 -256 l24 -428q-20 -44 -48 -44h-4q-64 0 -64 156q-4 138 -16 328z" />
<glyph unicode="&#xa2;" horiz-adv-x="1139" />
<glyph unicode="&#xa3;" horiz-adv-x="1334" d="M34 840v20q30 36 136 36h72q28 0 88 -4q-76 281 -76 376q0 182 192 344q113 64 228 64q243 0 336 -160q12 -54 12 -64q-12 -39 -24 -40h-8q-129 160 -264 160q-10 0 -60 4q-210 0 -304 -240q-8 -36 -8 -52v-20q0 -124 84 -380h304q88 0 88 -44v-12q0 -26 -36 -40l-40 4 h-172q-37 0 -104 4q-16 -3 -16 -8q16 -75 16 -124v-36q0 -298 -184 -520l200 12q245 -28 360 -28q110 0 204 52q98 73 136 172q23 12 32 12q40 -11 40 -40v-8q0 -61 -120 -180q-112 -96 -284 -96q-86 0 -400 24q-225 -12 -248 -12h-12q-59 -16 -64 -16q-40 17 -40 48 q9 37 100 92q123 147 140 240q44 115 44 248v32q0 65 -24 140q-174 12 -296 16q-28 17 -28 24z" />
<glyph unicode="&#xa4;" d="M122 413l118 117q-32 46 -48 103q-12 42 -12 84q0 44 13 87q16 55 47 99l-118 118l80 81l118 -118q44 30 99 46q44 14 89 14q41 0 83 -12q57 -17 102 -48l118 118l80 -81l-117 -117q31 -46 48 -102q12 -42 12 -85q0 -42 -12 -85q-17 -56 -48 -102l117 -117l-80 -81 l-118 118q-45 -32 -101 -48q-42 -12 -85 -12q-42 0 -85 12q-57 16 -102 48l-118 -118zM284 716q0 -28 9 -56q16 -59 57 -100q41 -40 99 -57q29 -8 58 -8t58 8q58 17 99 57q40 41 57 99q9 29 9 58t-9 58q-17 58 -57 99q-41 40 -100 57q-29 8 -58 8t-58 -9q-58 -17 -98 -56 q-39 -40 -56 -98q-10 -30 -10 -60z" />
<glyph unicode="&#xa5;" horiz-adv-x="1262" />
<glyph unicode="&#xa6;" d="M427 371h160v-789h-160v789zM427 789v789h160v-789h-160z" />
<glyph unicode="&#xa7;" d="M170 1130q0 148 89 237q82 79 216 86q8 1 17 1h3q66 0 163 -16.5t97 -41.5v-194h-51q-5 81 -80 132q-70 47 -149 51h-15q-78 0 -125 -44.5t-47 -117.5q0 -132 287 -269q149 -67 204.5 -143.5t55.5 -187.5q0 -171 -101 -282q-47 -39 -99 -64q108 -56 154 -118 q55 -77 55 -187q0 -171 -101 -283q-124 -102 -277 -105v1q-6 -1 -13 -1h-3q-66 0 -163 16.5t-97 41.5v194h51q5 -81 80 -132q68 -45 145 -50q113 6 185 69q72 64 72 165q0 125 -316 276q-123 64 -175.5 137t-52.5 177q0 148 89 237q67 65 170 82l-40 19q-123 64 -175.5 137 t-52.5 177zM297 571q0 -123 248 -250q56 16 97 53q73 65 73 166q0 5 -1 10h-2q-1 14 -4 27q-22 61 -113 127q-59 29 -126 29q-78 0 -125 -44.5t-47 -117.5z" />
<glyph unicode="&#xa8;" horiz-adv-x="1024" d="M209 1263q0 13 14 26l71 72q13 12 25 12q11 0 27 -14l69 -73q10 -14 10 -25q0 -13 -12 -27l-69 -75q-17 -17 -25 -17q-14 0 -25 12l-76 86q-9 12 -9 23zM574 1263q0 13 14 26l71 72q13 12 25 12q11 0 27 -13l69 -74q10 -14 10 -25q0 -13 -12 -26l-69 -76q-17 -17 -25 -17 q-14 0 -25 12l-76 87q-9 11 -9 22z" />
<glyph unicode="&#xa9;" horiz-adv-x="1885" d="M89 804q20 220 148 468q84 137 188 240q210 208 392 208q32 0 116 -4l20 4q278 -80 452 -240q184 -146 260 -292q100 -228 100 -436q0 -246 -136 -456q-197 -212 -284 -236q-56 -38 -348 -60q-326 0 -480 132q-70 39 -176 148q-215 235 -224 360q-9 0 -28 164zM189 808 q0 -256 264 -496q45 -55 204 -152q139 -60 348 -60q284 26 336 72q30 0 224 212q96 182 96 364q0 214 -108 420q-94 142 -336 320q-93 62 -284 120q-22 0 -112 4q-81 0 -224 -100q-288 -314 -320 -424q-88 -169 -88 -280zM513 856v8q0 248 132 336q64 96 332 96h24 q70 0 200 -116q0 36 4 48q-4 7 -4 16q4 36 16 36h12q28 0 32 -148v-12q0 -4 -4 -4l4 -8v-40q-14 -24 -36 -24q-30 0 -56 68q-121 108 -192 108q-244 0 -292 -92q-88 -57 -88 -188q-6 0 -8 -84q39 -232 80 -232q86 -104 144 -104q0 -8 136 -20q97 17 148 32q50 0 128 112 q23 32 52 32q15 0 36 -28v-20q0 -25 -112 -136q-93 -60 -200 -60q0 -8 -36 -8q-247 0 -332 124q-66 46 -96 172q-24 90 -24 136z" />
<glyph unicode="&#xaa;" horiz-adv-x="648" />
<glyph unicode="&#xab;" horiz-adv-x="944" d="M174 479l342 303h14v-37l-205 -266l205 -266v-37h-14zM487 479l342 303h14v-37l-205 -266l205 -266v-37h-14z" />
<glyph unicode="&#xac;" d="M87 667v100h840v-491l-1 -1h-98v392h-741z" />
<glyph unicode="&#xad;" horiz-adv-x="1040" d="M17 696v11q0 38 85 45h7q54 -3 95 -3q117 14 169 14q473 -14 569 -14h31q43 -9 43 -42v-15q0 -45 -103 -45q-38 0 -38 -4l-18 4q-197 3 -318 3q-8 0 -14 4q-3 0 -3 -4l-18 4h-28q-31 0 -71 3l-21 -3l-7 3q-6 -3 -14 -3h-7q-4 0 -4 3l-7 -3h-28q-104 -7 -113 -7h-11 q-176 6 -176 49z" />
<glyph unicode="&#xae;" horiz-adv-x="1674" />
<glyph unicode="&#xaf;" horiz-adv-x="670" />
<glyph unicode="&#xb0;" horiz-adv-x="674" />
<glyph unicode="&#xb1;" />
<glyph unicode="&#xb2;" />
<glyph unicode="&#xb3;" />
<glyph unicode="&#xb4;" horiz-adv-x="1024" d="M316 1078l291 297q35 35 55.5 47t40.5 12q33 0 53.5 -20t20.5 -51q0 -22 -15.5 -42t-46.5 -40l-330 -203h-69z" />
<glyph unicode="&#xb5;" horiz-adv-x="1180" />
<glyph unicode="&#xb6;" horiz-adv-x="1024" d="M93 1086q0 157 107.5 253t285.5 96h443v-70h-127v-1365h-82v1365h-166v-1365h-84v738q-174 8 -275.5 102.5t-101.5 245.5z" />
<glyph unicode="&#xb7;" horiz-adv-x="508" d="M129 709q0 15 16 31l82 84q15 14 29 14q13 0 31 -16l80 -86q12 -16 12 -29q0 -15 -14 -31l-80 -88q-20 -20 -29 -20q-16 0 -29 14l-88 101q-10 13 -10 26z" />
<glyph unicode="&#xb8;" horiz-adv-x="1024" d="M360 -290q85 -52 152 -52q66 0 94.5 21.5t28.5 66.5t-49 64q-40 16 -102 16q-16 0 -34 -2l48 176h63l-37 -104q32 4 62 5q86 0 134 -40.5t48 -113.5q0 -76 -58.5 -120.5t-160.5 -44.5q-109 0 -189 32v96z" />
<glyph unicode="&#xb9;" />
<glyph unicode="&#xba;" horiz-adv-x="718" />
<glyph unicode="&#xbb;" horiz-adv-x="944" d="M101 176v37l205 266l-205 266v37h14l342 -303l-342 -303h-14zM414 176v37l205 266l-205 266v37h14l342 -303l-342 -303h-14z" />
<glyph unicode="&#xbc;" horiz-adv-x="1708" />
<glyph unicode="&#xbd;" horiz-adv-x="1964" />
<glyph unicode="&#xbe;" horiz-adv-x="1708" />
<glyph unicode="&#xbf;" horiz-adv-x="748" />
<glyph unicode="&#xc0;" horiz-adv-x="1540" />
<glyph unicode="&#xc1;" horiz-adv-x="1540" />
<glyph unicode="&#xc2;" horiz-adv-x="1540" />
<glyph unicode="&#xc3;" horiz-adv-x="1540" />
<glyph unicode="&#xc4;" horiz-adv-x="1540" />
<glyph unicode="&#xc5;" horiz-adv-x="1540" />
<glyph unicode="&#xc6;" horiz-adv-x="2118" />
<glyph unicode="&#xc7;" horiz-adv-x="1399" />
<glyph unicode="&#xc8;" horiz-adv-x="1425" d="M98 33v25q0 49 214 49l17 231q-8 225 -8 429v140q8 247 8 421q-206 0 -206 49v25q0 13 33 33q132 -17 156 -17q59 9 66 9q66 -17 141 -17h222q77 0 454 17q43 0 66 -42v-24q0 -106 -17 -215q9 -44 9 -74l-33 -25h-25q-41 21 -41 83q0 21 16 206q-292 -17 -412 -17h-330 q-17 -315 -17 -453v-66q28 0 42 -8l74 8q20 0 124 -8q141 8 173 16v8q0 30 -17 141l33 24h25q41 0 49 -132q0 -346 -57 -346h-17q-41 24 -41 50q16 74 16 107v49q-129 -8 -189 -8q-39 0 -83 8q-42 -8 -99 -8h-33q0 -87 9 -330q-9 -177 -9 -264q136 17 190 17q103 0 206 -17 l413 17q28 347 41 363q4 0 33 8q41 -12 41 -58v-16q-25 -336 -25 -363q0 -13 -33 -33h-24q-58 0 -66 8q-59 -8 -99 -8q-126 0 -289 -9q-173 17 -206 17l-470 -33zM616 1685q0 29 29 29h12q21 0 41 -28q31 -59 67 -93q84 -97 84 -130q-8 -25 -38 -25q-26 0 -41 13 q-14 36 -44 74q-110 120 -110 160z" />
<glyph unicode="&#xc9;" horiz-adv-x="1425" d="M98 33v25q0 49 214 49l17 231q-8 225 -8 429v140q8 247 8 421q-206 0 -206 49v25q0 13 33 33q132 -17 156 -17q59 9 66 9q66 -17 141 -17h222q77 0 454 17q43 0 66 -42v-24q0 -106 -17 -215q9 -44 9 -74l-33 -25h-25q-41 21 -41 83q0 21 16 206q-292 -17 -412 -17h-330 q-17 -315 -17 -453v-66q28 0 42 -8l74 8q20 0 124 -8q141 8 173 16v8q0 30 -17 141l33 24h25q41 0 49 -132q0 -346 -57 -346h-17q-41 24 -41 50q16 74 16 107v49q-129 -8 -189 -8q-39 0 -83 8q-42 -8 -99 -8h-33q0 -87 9 -330q-9 -177 -9 -264q136 17 190 17q103 0 206 -17 l413 17q28 347 41 363q4 0 33 8q41 -12 41 -58v-16q-25 -336 -25 -363q0 -13 -33 -33h-24q-58 0 -66 8q-59 -8 -99 -8q-126 0 -289 -9q-173 17 -206 17l-470 -33zM623 1463q0 33 89 130q38 34 71 93q21 28 43 28h13q30 0 30 -29q0 -40 -117 -160q-31 -38 -45 -74 q-16 -13 -43 -13q-33 0 -41 25z" />
<glyph unicode="&#xca;" horiz-adv-x="1151" />
<glyph unicode="&#xcb;" horiz-adv-x="1151" />
<glyph unicode="&#xcc;" horiz-adv-x="657" />
<glyph unicode="&#xcd;" horiz-adv-x="657" />
<glyph unicode="&#xce;" horiz-adv-x="657" />
<glyph unicode="&#xcf;" horiz-adv-x="657" />
<glyph unicode="&#xd0;" horiz-adv-x="1518" />
<glyph unicode="&#xd1;" horiz-adv-x="1565" d="M119 1363v25l25 33q151 -16 190 -16l115 8q191 -254 389 -661q230 -313 372 -562h8q-8 343 -8 512v612h-75q-206 0 -206 41v25q17 33 41 33q49 0 174 -8q112 16 148 16q182 0 182 -66q-16 -38 -33 -41q-135 8 -141 16v-16q0 -151 9 -182q-9 -147 -9 -240q0 -203 9 -851 l-50 -41h-8q-55 0 -157 198q-126 217 -347 521q-190 388 -314 553q-8 16 -8 25h-9q0 -96 -8 -132q8 -16 8 -25q-16 -117 -16 -248q0 -8 -8 -8l8 -41v-240q0 -48 8 -132q-8 -16 -8 -25q16 -212 16 -347h182q65 0 75 -58q-1 -12 -33 -41l-83 8h-264q-124 0 -124 42v24 q0 13 33 33q104 -8 124 -8v8q-17 377 -25 785q16 164 25 422h-9q-198 0 -198 49zM497 1537v6q58 151 195 151q146 0 252 -182q17 0 17 -6q68 0 149 125h6q32 0 40 -25q-64 -157 -201 -157q-52 0 -143 135q-63 52 -114 52q-85 0 -149 -114l-12 -6h-17q-9 0 -23 21z" />
<glyph unicode="&#xd2;" horiz-adv-x="1614" />
<glyph unicode="&#xd3;" horiz-adv-x="1614" />
<glyph unicode="&#xd4;" horiz-adv-x="1614" />
<glyph unicode="&#xd5;" horiz-adv-x="1614" />
<glyph unicode="&#xd6;" horiz-adv-x="1614" />
<glyph unicode="&#xd7;" d="M161 470l247 247l-247 248l99 98l247 -247l248 247l98 -99l-247 -247l247 -247l-99 -99l-247 247l-247 -247z" />
<glyph unicode="&#xd8;" horiz-adv-x="1614" />
<glyph unicode="&#xd9;" horiz-adv-x="1501" />
<glyph unicode="&#xda;" horiz-adv-x="1501" />
<glyph unicode="&#xdb;" horiz-adv-x="1501" />
<glyph unicode="&#xdc;" horiz-adv-x="1501" />
<glyph unicode="&#xdd;" horiz-adv-x="1233" />
<glyph unicode="&#xde;" horiz-adv-x="1120" />
<glyph unicode="&#xdf;" horiz-adv-x="1251" />
<glyph unicode="&#xe0;" horiz-adv-x="922" />
<glyph unicode="&#xe1;" horiz-adv-x="922" />
<glyph unicode="&#xe2;" horiz-adv-x="922" />
<glyph unicode="&#xe3;" horiz-adv-x="922" />
<glyph unicode="&#xe4;" horiz-adv-x="922" />
<glyph unicode="&#xe5;" horiz-adv-x="922" />
<glyph unicode="&#xe6;" horiz-adv-x="1454" />
<glyph unicode="&#xe7;" horiz-adv-x="905" />
<glyph unicode="&#xe8;" horiz-adv-x="1425" d="M98 33v25q0 49 214 49l17 231q-8 225 -8 429v140q8 247 8 421q-206 0 -206 49v25q0 13 33 33q132 -17 156 -17q59 9 66 9q66 -17 141 -17h222q77 0 454 17q43 0 66 -42v-24q0 -106 -17 -215q9 -44 9 -74l-33 -25h-25q-41 21 -41 83q0 21 16 206q-292 -17 -412 -17h-330 q-17 -315 -17 -453v-66q28 0 42 -8l74 8q20 0 124 -8q141 8 173 16v8q0 30 -17 141l33 24h25q41 0 49 -132q0 -346 -57 -346h-17q-41 24 -41 50q16 74 16 107v49q-129 -8 -189 -8q-39 0 -83 8q-42 -8 -99 -8h-33q0 -87 9 -330q-9 -177 -9 -264q136 17 190 17q103 0 206 -17 l413 17q28 347 41 363q4 0 33 8q41 -12 41 -58v-16q-25 -336 -25 -363q0 -13 -33 -33h-24q-58 0 -66 8q-59 -8 -99 -8q-126 0 -289 -9q-173 17 -206 17l-470 -33zM568 1672q0 29 29 29h12q21 0 41 -28q31 -59 67 -93q84 -97 84 -130q-8 -25 -38 -25q-26 0 -41 13 q-14 36 -44 74q-110 120 -110 160z" />
<glyph unicode="&#xe9;" horiz-adv-x="1425" d="M98 33v25q0 49 214 49l17 231q-8 225 -8 429v140q8 247 8 421q-206 0 -206 49v25q0 13 33 33q132 -17 156 -17q59 9 66 9q66 -17 141 -17h222q77 0 454 17q43 0 66 -42v-24q0 -106 -17 -215q9 -44 9 -74l-33 -25h-25q-41 21 -41 83q0 21 16 206q-292 -17 -412 -17h-330 q-17 -315 -17 -453v-66q28 0 42 -8l74 8q20 0 124 -8q141 8 173 16v8q0 30 -17 141l33 24h25q41 0 49 -132q0 -346 -57 -346h-17q-41 24 -41 50q16 74 16 107v49q-129 -8 -189 -8q-39 0 -83 8q-42 -8 -99 -8h-33q0 -87 9 -330q-9 -177 -9 -264q136 17 190 17q103 0 206 -17 l413 17q28 347 41 363q4 0 33 8q41 -12 41 -58v-16q-25 -336 -25 -363q0 -13 -33 -33h-24q-58 0 -66 8q-59 -8 -99 -8q-126 0 -289 -9q-173 17 -206 17l-470 -33zM623 1463q0 33 89 130q38 34 71 93q21 28 43 28h13q30 0 30 -29q0 -40 -117 -160q-31 -38 -45 -74 q-16 -13 -43 -13q-33 0 -41 25z" />
<glyph unicode="&#xea;" horiz-adv-x="909" />
<glyph unicode="&#xeb;" horiz-adv-x="909" />
<glyph unicode="&#xec;" horiz-adv-x="514" />
<glyph unicode="&#xed;" horiz-adv-x="514" />
<glyph unicode="&#xee;" horiz-adv-x="514" />
<glyph unicode="&#xef;" horiz-adv-x="514" />
<glyph unicode="&#xf0;" horiz-adv-x="1139" />
<glyph unicode="&#xf1;" horiz-adv-x="1565" d="M119 1363v25l25 33q151 -16 190 -16l115 8q191 -254 389 -661q230 -313 372 -562h8q-8 343 -8 512v612h-75q-206 0 -206 41v25q17 33 41 33q49 0 174 -8q112 16 148 16q182 0 182 -66q-16 -38 -33 -41q-135 8 -141 16v-16q0 -151 9 -182q-9 -147 -9 -240q0 -203 9 -851 l-50 -41h-8q-55 0 -157 198q-126 217 -347 521q-190 388 -314 553q-8 16 -8 25h-9q0 -96 -8 -132q8 -16 8 -25q-16 -117 -16 -248q0 -8 -8 -8l8 -41v-240q0 -48 8 -132q-8 -16 -8 -25q16 -212 16 -347h182q65 0 75 -58q-1 -12 -33 -41l-83 8h-264q-124 0 -124 42v24 q0 13 33 33q104 -8 124 -8v8q-17 377 -25 785q16 164 25 422h-9q-198 0 -198 49zM497 1537v6q58 151 195 151q146 0 252 -182q17 0 17 -6q68 0 149 125h6q32 0 40 -25q-64 -157 -201 -157q-52 0 -143 135q-63 52 -114 52q-85 0 -149 -114l-12 -6h-17q-9 0 -23 21z" />
<glyph unicode="&#xf2;" horiz-adv-x="1010" />
<glyph unicode="&#xf3;" horiz-adv-x="1010" />
<glyph unicode="&#xf4;" horiz-adv-x="1010" />
<glyph unicode="&#xf5;" horiz-adv-x="1010" />
<glyph unicode="&#xf6;" horiz-adv-x="1010" />
<glyph unicode="&#xf7;" d="M87 647v140h839l1 -1v-139h-840zM382 377q0 15 16 31l82 84q15 14 29 14q13 0 31 -16l80 -86q12 -16 12 -29q0 -15 -14 -31l-80 -88q-20 -20 -29 -20q-16 0 -29 14l-88 101q-10 13 -10 26zM382 1070q0 15 16 31l82 84q15 14 29 14q13 0 31 -16l80 -86q12 -16 12 -29 q0 -15 -14 -31l-80 -88q-20 -20 -29 -20q-16 0 -29 14l-88 101q-10 13 -10 26z" />
<glyph unicode="&#xf8;" horiz-adv-x="1010" />
<glyph unicode="&#xf9;" horiz-adv-x="1059" />
<glyph unicode="&#xfa;" horiz-adv-x="1059" />
<glyph unicode="&#xfb;" horiz-adv-x="1059" />
<glyph unicode="&#xfc;" horiz-adv-x="1059" />
<glyph unicode="&#xfd;" horiz-adv-x="868" />
<glyph unicode="&#xfe;" horiz-adv-x="1010" />
<glyph unicode="&#xff;" horiz-adv-x="868" />
<glyph unicode="&#x2c6;" horiz-adv-x="1024" d="M221 1079l232 355h118l232 -355h-58l-233 216l-233 -216h-58z" />
<glyph unicode="&#x2dc;" horiz-adv-x="1024" d="M234 1132q19 106 68 158.5t129 52.5q46 -1 113 -24q64 -23 112 -23h4q36 0 58 20t36 66h54q-20 -103 -68.5 -154t-126.5 -51h-4q-50 0 -113 23q-66 24 -114 24q-39 0 -60.5 -20.5t-33.5 -71.5h-54z" />
<glyph unicode="&#x2000;" horiz-adv-x="861" />
<glyph unicode="&#x2001;" horiz-adv-x="1723" />
<glyph unicode="&#x2002;" horiz-adv-x="861" />
<glyph unicode="&#x2003;" horiz-adv-x="1723" />
<glyph unicode="&#x2004;" horiz-adv-x="574" />
<glyph unicode="&#x2005;" horiz-adv-x="430" />
<glyph unicode="&#x2006;" horiz-adv-x="287" />
<glyph unicode="&#x2007;" horiz-adv-x="287" />
<glyph unicode="&#x2008;" horiz-adv-x="215" />
<glyph unicode="&#x2009;" horiz-adv-x="344" />
<glyph unicode="&#x200a;" horiz-adv-x="95" />
<glyph unicode="&#x2010;" horiz-adv-x="1040" d="M17 696v11q0 38 85 45h7q54 -3 95 -3q117 14 169 14q473 -14 569 -14h31q43 -9 43 -42v-15q0 -45 -103 -45q-38 0 -38 -4l-18 4q-197 3 -318 3q-8 0 -14 4q-3 0 -3 -4l-18 4h-28q-31 0 -71 3l-21 -3l-7 3q-6 -3 -14 -3h-7q-4 0 -4 3l-7 -3h-28q-104 -7 -113 -7h-11 q-176 6 -176 49z" />
<glyph unicode="&#x2011;" horiz-adv-x="1040" d="M17 696v11q0 38 85 45h7q54 -3 95 -3q117 14 169 14q473 -14 569 -14h31q43 -9 43 -42v-15q0 -45 -103 -45q-38 0 -38 -4l-18 4q-197 3 -318 3q-8 0 -14 4q-3 0 -3 -4l-18 4h-28q-31 0 -71 3l-21 -3l-7 3q-6 -3 -14 -3h-7q-4 0 -4 3l-7 -3h-28q-104 -7 -113 -7h-11 q-176 6 -176 49z" />
<glyph unicode="&#x2012;" horiz-adv-x="1040" d="M17 696v11q0 38 85 45h7q54 -3 95 -3q117 14 169 14q473 -14 569 -14h31q43 -9 43 -42v-15q0 -45 -103 -45q-38 0 -38 -4l-18 4q-197 3 -318 3q-8 0 -14 4q-3 0 -3 -4l-18 4h-28q-31 0 -71 3l-21 -3l-7 3q-6 -3 -14 -3h-7q-4 0 -4 3l-7 -3h-28q-104 -7 -113 -7h-11 q-176 6 -176 49z" />
<glyph unicode="&#x2013;" horiz-adv-x="1108" d="M56 419v120h996v-120h-996z" />
<glyph unicode="&#x2014;" horiz-adv-x="2048" d="M0 419v120h2048v-120h-2048z" />
<glyph unicode="&#x2018;" horiz-adv-x="346" d="M34 981q0 59 89 228q38 59 71 163q21 48 43 48h13q30 0 30 -51q0 -69 -117 -279q-31 -66 -45 -129q-16 -23 -43 -23q-33 0 -41 43z" />
<glyph unicode="&#x2019;" horiz-adv-x="346" d="M34 981q0 59 89 228q38 59 71 163q21 48 43 48h13q30 0 30 -51q0 -69 -117 -279q-31 -66 -45 -129q-16 -23 -43 -23q-33 0 -41 43z" />
<glyph unicode="&#x201a;" horiz-adv-x="557" d="M119 114v42l119 125q44 0 88.5 -65.5t44.5 -151.5q0 -109 -71 -226.5t-139 -117.5v43q73 43 87 190q0 119 -129 161z" />
<glyph unicode="&#x201c;" horiz-adv-x="672" d="M7 1383v11q0 24 37 37h6q23 0 63 -74q15 -19 117 -217q47 -73 54 -103v-5q-4 -26 -26 -26h-8q-13 0 -72 63q-51 54 -91 148q-71 135 -80 166zM432 1400q10 26 29 26q62 0 157 -212q31 -59 69 -108q11 -11 11 -31q0 -35 -46 -43h-3q-33 0 -71 68q-61 97 -143 280 q-3 11 -3 20z" />
<glyph unicode="&#x201d;" horiz-adv-x="672" d="M7 1383v11q0 24 37 37h6q23 0 63 -74q15 -19 117 -217q47 -73 54 -103v-5q-4 -26 -26 -26h-8q-13 0 -72 63q-51 54 -91 148q-71 135 -80 166zM432 1400q10 26 29 26q62 0 157 -212q31 -59 69 -108q11 -11 11 -31q0 -35 -46 -43h-3q-33 0 -71 68q-61 97 -143 280 q-3 11 -3 20z" />
<glyph unicode="&#x201e;" horiz-adv-x="910" d="M119 114v42l119 125q44 0 88.5 -65.5t44.5 -151.5q0 -109 -71 -226.5t-139 -117.5v43q73 43 87 190q0 119 -129 161zM472 114v42l119 125q44 0 88.5 -65.5t44.5 -151.5q0 -109 -71 -226.5t-139 -117.5v43q73 43 87 190q0 119 -129 161z" />
<glyph unicode="&#x2022;" horiz-adv-x="1024" d="M216 718q0 123 87 209t210 86q122 0 208.5 -86.5t86.5 -208.5t-87.5 -209.5t-209.5 -87.5q-123 0 -209 87t-86 210z" />
<glyph unicode="&#x2026;" horiz-adv-x="2048" d="M129 136q0 15 16 31l82 84q15 14 29 14q13 0 31 -16l80 -86q12 -16 12 -29q0 -15 -14 -31l-80 -88q-20 -20 -29 -20q-16 0 -29 14l-88 101q-10 13 -10 26zM812 136q0 15 16 31l82 84q15 14 29 14q13 0 31 -16l80 -86q12 -16 12 -29q0 -15 -14 -31l-80 -88 q-20 -20 -29 -20q-16 0 -29 14l-88 101q-10 13 -10 26zM1495 136q0 15 16 31l82 84q15 14 29 14q13 0 31 -16l80 -86q12 -16 12 -29q0 -15 -14 -31l-80 -88q-20 -20 -29 -20q-16 0 -29 14l-88 101q-10 13 -10 26z" />
<glyph unicode="&#x202f;" horiz-adv-x="344" />
<glyph unicode="&#x2039;" horiz-adv-x="631" d="M174 479l342 303h14v-37l-205 -266l205 -266v-37h-14z" />
<glyph unicode="&#x203a;" horiz-adv-x="631" d="M101 176v37l205 266l-205 266v37h14l342 -303l-342 -303h-14z" />
<glyph unicode="&#x205f;" horiz-adv-x="430" />
<glyph unicode="&#x20ac;" horiz-adv-x="1553" d="M34 908v4q0 25 196 60q16 110 216 432q122 141 216 164q73 32 188 44q353 0 532 -308q11 80 24 272q11 16 28 16q36 -16 36 -204v-12q-17 -239 -32 -268q-20 -12 -32 -12q-43 0 -72 124q-115 200 -264 264q-105 36 -208 36q-167 -28 -240 -80q-102 -76 -144 -172 q-148 -245 -148 -296h20q143 8 160 8h140l20 4v-4l8 4q10 0 32 -4q92 8 104 8q65 -4 100 -12q7 0 72 4q176 0 176 -36v-16q-20 -28 -36 -28q-97 8 -136 8h-12q-25 0 -60 -4l-80 12l-460 -12h-68q-12 -47 -16 -136l8 -4h128q65 0 196 12q270 -8 484 -8q36 -7 36 -36v-8 q0 -40 -76 -40q-326 4 -412 12l-204 -12q-30 4 -160 12q0 -124 100 -288q71 -189 232 -272q132 -36 184 -36q325 0 464 172q50 37 120 132q25 8 40 8q40 -15 40 -56q-22 -65 -176 -200q-150 -156 -496 -156q-252 42 -252 72q-140 55 -264 336q-88 143 -88 292 q-148 7 -148 32v8q0 19 148 24q9 144 16 144h-4q-107 -4 -160 -12q-16 6 -16 12z" />
<glyph unicode="&#x2122;" horiz-adv-x="1497" />
<glyph unicode="&#x25fc;" horiz-adv-x="1415" d="M0 0v1415h1415v-1415h-1415z" />
</font>
</defs>
</svg>
