<?xml version="1.0" standalone="no"?>
<!DOCTYPE svg PUBLIC "-//W3C//DTD SVG 1.1//EN" "http://www.w3.org/Graphics/SVG/1.1/DTD/svg11.dtd" >
<svg>
<metadata>
Created by FontForge 20120731 at Wed Oct 16 16:28:26 2019
 By www-data
Freeware from Alan Carr. Rember to vote! If you don't vote, you can't bitch!
</metadata>
<defs>
<font id="Animals" horiz-adv-x="2641" >
  <font-face 
    font-family="Animals"
    font-weight="400"
    font-stretch="normal"
    units-per-em="2048"
    panose-1="0 0 0 0 0 0 0 0 0 0"
    ascent="1638"
    descent="-410"
    x-height="1102"
    cap-height="1620"
    bbox="-10 -393 3333.31 1737"
    underline-thickness="40"
    underline-position="-252"
    unicode-range="U+0020-E000"
  />
<missing-glyph horiz-adv-x="2048" 
 />
    <glyph glyph-name=".notdef" horiz-adv-x="2048" 
 />
    <glyph glyph-name="glyph1" horiz-adv-x="0" 
 />
    <glyph glyph-name="glyph2" horiz-adv-x="2048" 
 />
    <glyph glyph-name="space" unicode=" " horiz-adv-x="512" 
 />
    <glyph glyph-name="exclam" unicode="!" horiz-adv-x="2242" 
d="M100 1329q41 18 103.5 46t100.5 40t88 18.5t85 6.5q82 0 232 -115q96 -74 145 -100q127 -74 258 -105q96 -23 199 -22h53.5t52.5 2q78 0 158 -1t148.5 -16.5t127.5 -42.5q20 -8 50 -26q49 0 98 92q41 78 41 113q0 43 -11.5 126.5t-11.5 124.5q6 0 21.5 11.5t30 15.5
t24.5 4q25 0 37 -14t16 -57.5t4 -77.5v-27q0 -35 -67 -231q-45 -133 -62 -205q-6 -29 -6 -55q0 -37 4 -68q14 -104 15 -115q0 -43 -23.5 -117.5t-23.5 -103.5q0 -41 38 -82q33 -33 68 -65q12 -16 12 -50q0 -47 -6 -137t-6 -155q-39 -8 -49 -9.5t-33 -1.5q-43 0 -110 33
q27 20 53 41q6 2 27.5 4t28.5 12.5t13.5 35t6.5 42.5q0 43 -14.5 91.5t-37.5 74.5q-31 37 -81 65.5t-97 28.5q-41 0 -80 -39q-10 -10 -10 -38q0 -16 6 -59.5t6 -59.5q0 -8 -4 -21q-20 -53 -32.5 -80.5t-30 -55.5t-23.5 -38q-12 -20 -25.5 -29.5t-42 -15.5t-59.5 -6
q-33 0 -48 7t-15 22q0 18 14 37q8 10 51 23t54 24q25 25 37 69.5t12 85.5q0 20 -1 50t-8.5 62t-18.5 61.5t-20.5 55t-16.5 52.5t-21 41q-20 20 -48 25.5t-83 5.5q-57 0 -188.5 -14.5t-198.5 -14.5q0 -98 -7.5 -203.5t-31.5 -173.5q-12 -41 -21.5 -56.5t-35 -28.5t-40.5 -13
q-14 0 -43 18q-18 8 -32.5 13.5t-20.5 13.5q-8 10 0 24.5t21.5 20.5t31 10t25.5 6q20 8 29.5 33t9.5 68q0 18 -1 39.5t-3 46.5v28q0 61 -5 100.5t-26 116.5q-27 -57 -72 -264q-70 -319 -190 -319q-39 0 -100 22q12 8 28.5 29.5t22.5 26.5q14 10 42.5 21t33.5 15
q14 12 18 21.5t13.5 35t11.5 50t2 70.5q0 25 -1 50t-1 52v106v27q0 39 -5.5 70.5t-15.5 56.5q-18 41 -35 84q-29 106 -55 213q-14 41 -45 79t-59 75q-8 10 -25 41q-29 51 -47 61q-29 16 -160 53q-90 25 -117 82z" />
    <glyph glyph-name="quotedbl" unicode="&#x22;" horiz-adv-x="2508" 
d="M102 762l15 24q61 10 141 52.5t156 83.5q63 29 141 47t214 38.5t300 55.5q55 12 180 113q78 63 150 102l6 -25q-12 -37 -24.5 -76.5t-12.5 -68.5q0 -10 4 -27q53 -39 184.5 -83t292.5 -85q53 -14 328 -77q4 -2 37 12l90 29q16 4 57 8t45 4q-92 -76 -92 -141
q0 -72 105 -138q-61 12 -121 40t-117 57l-55 34q-10 2 -33 2q-55 0 -145 -21.5t-133 -25.5t-259 -34q-332 -47 -600 -48l84 -211q-86 12 -174 93q-80 72 -116 155q-10 6 -76 10.5t-72 6.5q-143 35 -287 71q-70 14 -147 15z" />
    <glyph glyph-name="numbersign" unicode="#" horiz-adv-x="1081" 
d="M70 520q0 137 19.5 211t78.5 168l80 123q29 51 110 133q53 53 54 113q2 33 2 45q0 20 -7.5 34.5t-21.5 29t-16 18.5q-8 16 -29 32q-4 4 -82 50q-2 2 -2 10v18q23 -4 55.5 -8t77.5 -4q35 0 58.5 2t46.5 10q16 6 24 8q25 8 47 9q25 0 58 -17q20 -10 43.5 -29.5t35 -49
t11.5 -66.5q0 -25 -3 -67t-3 -46q0 -27 3 -50t15 -58t53 -105q51 -74 84 -122t51 -87q29 -63 52 -131q12 -35 26 -94l13 -41l12 -70q-12 4 -21.5 8.5t-17.5 12.5t-16.5 20.5t-16.5 23.5t-17 30.5t-16 29.5l-34 45q-8 12 -41 41q-4 4 -15 13q-12 -20 -12 -31q-2 -10 2 -21.5
t8 -24.5t45 -161q16 -57 17 -82q0 -37 -26 -108.5t-50 -118.5q-12 -23 -13 -42.5t-4 -27.5q4 -10 34 -23.5t51.5 -23.5t21.5 -26q0 -10 -2 -16.5t-8 -12.5q-4 0 -18.5 2t-24.5 2q-14 0 -24.5 -3t-26 -24.5t-27.5 -21.5q-23 12 -33 20q-23 18 -35 19q-6 0 -20 -10.5
t-23 -10.5q-27 0 -26 25q6 23 18 35l45 45q8 14 2 30.5t-23.5 23.5t-34 8t-22.5 1q-10 0 -18 -4q-23 -12 -56.5 -22.5t-62.5 -10.5h-33.5t-35.5 2q4 -4 -2.5 -12t-11.5 -28.5t1 -26.5t12.5 -19.5t12.5 -40.5q2 -10 -10.5 -16t-24.5 -6q-10 2 -19.5 16.5t-15.5 16.5
q-8 4 -20.5 0t-22.5 -9q-10 -8 -20.5 -17t-22.5 -1q-4 2 -8 14q-12 31 -27 39q-12 6 -24.5 2t-24.5 -12q-16 2 -6 41q6 20 45 31.5t67.5 8.5t28.5 36q0 25 -14 35q-23 16 -49.5 62t-30.5 75q-12 74 -12 153q0 18 10 133q4 45 4 93q0 2 -12 10t-14 14q-27 -47 -43.5 -82
t-20.5 -51t-8 -44t-2 -46t11 -47t9 -41q0 -10 -28 -10q-18 0 -26.5 30.5t-8.5 65.5q0 12 -4 24.5t-4 28.5z" />
    <glyph glyph-name="dollar" unicode="$" horiz-adv-x="737" 
d="M53 377q0 96 13.5 147t56.5 117l55 86q20 37 78 94q37 37 37 78q2 20 2 29q0 16 -8 33q-12 14 -25 28q-6 14 -31 31q-2 2 -47 27v18q18 -4 41 -6t54 -2q40 0 71 8q33 12 49 12q20 0 36 -8t35 -23.5t26.5 -34t7.5 -46.5q-2 -53 -4 -107q8 -51 49 -123q35 -51 57.5 -81.5
t40 -67.5t33.5 -88q8 -27 18 -66l9 -29l8 -49q-6 2 -12.5 4t-14.5 9.5t-10 11.5q-10 18 -14 24q-12 27 -21 39l-25 31q-8 10 -22 25q-4 4 -16 14q-4 -6 -6.5 -11t-2.5 -12q6 -20 7 -30q6 -35 24.5 -93.5t18.5 -78.5q2 -27 -15.5 -75t-38.5 -83q-8 -16 -9 -27.5t-1 -21.5
q2 -6 29.5 -18.5t36 -17.5t8.5 -15t-2 -14.5t-4 -6.5q-12 2 -26.5 3t-23.5 -3q-4 -2 -16 -16.5t-20 -14.5q-6 0 -23.5 13.5t-23.5 13.5q-20 -14 -29 -14q-20 0 -21 16q6 18 17.5 28.5t27.5 26.5q14 25 -12 39q-18 4 -33.5 6.5t-21.5 -2.5q-37 -23 -82 -22h-49q0 -4 -2 -8
t-6.5 -19.5t0.5 -19.5q12 -12 16 -41q2 -16 -25 -17q-10 6 -12 11q-8 10 -12 12q-4 4 -12.5 2t-13.5 -4t-15 -12.5t-19 -3.5l-11 22t-13 14t-17.5 2t-17.5 -8q-12 2 -4 29q4 12 32.5 21.5t47 6.5t18.5 23q4 18 -11 28.5t-32.5 42.5t-23.5 63.5t-6 92.5q0 29 5 86.5t5 75.5
q-18 6 -19 17q-20 -35 -24 -43q-14 -29 -22.5 -61t-4.5 -54q6 -31 14 -61q0 -6 -6 -6.5t-14 -0.5q-14 -2 -19.5 19.5t-5.5 48.5q-4 18 -6 37z" />
    <glyph glyph-name="percent" unicode="%" horiz-adv-x="2027" 
d="M6 1163l17 17h172q287 -45 366 -72q205 -68 436 -256q23 4 28 6t9 6q-8 4 -17 19.5t-7 23.5q8 33 41 45q10 0 19 -4t20 -18q6 -23 14 -45l24 28q35 12 56 64q29 74 95.5 140.5t98.5 96.5q55 53 111 97q158 121 199 145q143 84 284 84l33 -106v-9q0 -6 -8 -32
q-25 -78 -25 -99q0 -10 -18 -41q-10 -18 -12.5 -24t-43.5 -156q-25 -88 -24 -131q0 -135 -131 -188q18 -23 62 -47.5t55 -36.5q4 -6 1 -29t1 -30t24.5 -15t20.5 -23v-122q0 -96 -148 -207q-137 -104 -221 -105q-47 0 -90 45q-61 63 -90 78q-53 27 -98 62q-55 43 -82 86
q-4 -4 -11.5 -4t-11.5 -13.5t-11 -57.5t-7 -48q-2 4 -11 10q-20 16 -24 29q-6 49 -12 100q-16 20 -33 41q-45 -137 -66 -180q-41 -90 -108 -158q-96 -96 -320 -96q-86 0 -157.5 110.5t-71.5 200.5q0 55 30.5 94t43.5 62q-80 16 -122 67t-42 113q0 29 -150 252
q-76 115 -88 231z" />
    <glyph glyph-name="ampersand" unicode="&#x26;" 
d="M2 1548v54q70 -6 136.5 -51.5t97.5 -45.5q43 12 67 19q78 18 129 18q20 0 77.5 -8t88.5 -8q23 0 33 2q55 10 119 28q20 4 49 15q-12 -23 -21 -35q-27 -39 -53 -53q31 -8 80 -8q61 0 110.5 2t94.5 4q20 2 30 2q33 0 121 -12.5t146 -12.5q27 0 94 6t106 6q78 0 209 23
t223 23q176 0 283 -72q94 -63 156 -191q33 -70 96 -272q20 -66 113 -217q33 -53 47 -133v-129q-12 -2 -20.5 -1t-24.5 7q-88 98 -133 240q-51 170 -103 339q-31 -53 -53 -129q-31 -98 -31 -170q0 -51 25 -94q59 -106 59 -260q0 -76 -33 -168q-2 -6 -63 -151q-8 -25 -8 -43
q0 -14 2 -22.5t6 -12.5q-4 -12 -31.5 -18.5t-58.5 -12.5t-113 -43q-63 -29 -86 -37q18 53 68 166q74 168 73 289q0 92 -77 291q-88 223 -158 223q-74 -63 -160 -111.5t-194 -48.5q-88 0 -190.5 -4t-248.5 -8q25 -150 49.5 -298.5t24.5 -299.5q0 -35 -39 -123
q-49 -113 -98 -113q-8 0 -15.5 31t-35.5 47q-8 2 -52.5 -2t-58.5 -2q2 18 76 156q33 61 33 121q0 68 -14.5 132t-26 121.5t-28.5 106.5t-46 92q-12 20 -54 33.5t-59 30.5q-111 133 -221 268q-84 -86 -133 -221q-33 -90 -92 -90q-80 0 -103.5 164.5t-46.5 336.5
q-4 16 13.5 58.5t17.5 83.5q0 47 -57 74q-74 32 -113 118z" />
    <glyph glyph-name="quotesingle" unicode="'" horiz-adv-x="2445" 
d="M43 244q0 82 6 110q14 66 57 86q45 47 66 74q68 84 68 123l-21 51q-2 29 -2 60q2 23 23 53q49 78 53 92q4 25 -21 70q-4 6 -5 13t-3 20.5t-2 21.5q0 16 6 20l11 6q8 -6 13 -11t9 -13t8 -19q14 -4 23.5 5.5t19.5 21.5q27 20 56 41q18 20 98 117q111 133 164 153
q133 53 225 80q135 39 235 39q94 0 313.5 33t307.5 33q276 0 465 -213q172 -195 172 -437q0 -45 -23 -106q-29 -76 -81 -145q-27 -35 -42.5 -103.5t-29.5 -134.5t-45 -137q-39 -84 -56 -119q-23 -51 -46 -71.5t-52 -20.5q-16 0 -51 -3t-39 -3q-41 0 -69.5 12t-36 39t-7.5 35
q0 41 35 89t70 93q4 6 -2 18.5t-4 16.5q-41 -6 -107.5 -35t-89.5 -35q-12 -23 -31.5 -71t-31 -55t-50 -12t-54 -11t-21.5 -49t-10.5 -57.5t-21.5 -37t-36.5 -40t-56.5 -22.5t-88 -5q-53 0 -85 10t-59 43q-10 14 -10 29q0 27 33 63.5t63 71.5q14 16 17.5 33.5t3.5 42.5
q0 12 -10.5 47t-18.5 67q-10 2 -37.5 26.5t-38.5 10.5q-14 -18 -51 -172q-16 -66 -33 -76q-39 -25 -90 -34q-63 -8 -90 -13l-47 2q-45 0 -55 5.5t-26.5 29t-16.5 25.5q-6 12 -2 22q2 10 17.5 25.5l21.5 21.5q23 14 30 21q18 12 20.5 26.5t2.5 44.5v43q-6 31 -8 41
q-12 0 -39 -8t-43 -8t-49 6t-45 6h-13q-8 -4 -10 -4q-18 -10 -35 -35q-37 -57 -45 -61q-74 -41 -106 -88q-18 -27 -70 -35q-33 -10 -65 -18h-35q-102 0 -142.5 10t-64.5 35q-16 16 -21 22q-16 23 -16 62z" />
    <glyph glyph-name="parenleft" unicode="(" horiz-adv-x="1628" 
d="M12 453q-12 23 25 41q20 10 39 10q27 0 89 -32t87 -38l373 170l16 19q-8 -2 -25 -2q-47 0 -87 31.5t-40 64.5v26q0 125 105 199q92 66 215 66q18 2 18 36q0 29 -9 43.5t-47 39t-38 44.5q0 18 9.5 35t19.5 35q20 53 50 104.5t60 75.5q18 14 35 76t25 74q12 14 26 14
t105 -76q39 -33 59 -24q70 25 92 31q37 12 58 30q8 8 22 8q27 0 57.5 -22.5t30.5 -38.5q2 -14 2 -27.5v-27.5q0 -18 -1 -36t-1 -34q0 -23 2 -29q96 -143 154.5 -256.5t69.5 -230.5q2 -14 2 -45q0 -29 -7.5 -101.5t-7.5 -105.5q0 -412 -174 -594q-182 -190 -606 -190h-36.5
t-47.5 -2q-133 0 -199 18q-98 27 -120 100q-12 33 -19 52q-12 35 -12 57q0 23 10 39q25 35 70 35q86 -14 174 -27l-4 51q-16 27 -55 55.5t-62 28.5q-25 0 -72 -22q-119 -57 -166 -62q-104 0 -163 103q-20 35 -101 211z" />
    <glyph glyph-name="parenright" unicode=")" horiz-adv-x="1966" 
d="M8 1049q4 29 19.5 57.5t31 49t26.5 39.5t19 32q20 6 21 10q12 45 25 90q18 23 36 47q35 139 121 193q53 32 127 32q57 0 106.5 -12t84 -40.5t59.5 -78.5q16 -35 31 -88l-88 103l53 -121q-41 55 -95.5 100t-88.5 41q-84 -12 -136 -82q-6 -8 -10 -28.5t-10 -30.5
q78 -55 124 -113.5t56 -126.5q2 -6 19.5 -29.5t38 -31.5t55.5 -8q31 0 51 2q82 8 92 8q16 -2 25 -2q12 0 37.5 -9.5t37 -11.5t23.5 -2h25q61 0 137 23q172 51 223 51h27q18 -4 26 -4q106 -14 199 -68q49 -29 172 -120q12 -10 33.5 -14.5t44.5 -4.5q47 0 65.5 5t34.5 5
q33 0 45 -30q4 -16 -38 -52t-93 -36q-33 0 -54.5 7t-49 27.5t-45.5 16.5q-10 -2 -20.5 -20.5t-18.5 -37.5q-18 -31 -23 -38q-10 -23 -10 -46q0 -12 2 -20t17.5 -6t17.5 -4q2 -10 -18.5 -39t-14.5 -35q12 -12 43 -12q14 0 43 4t39 4q8 0 12 -8t9 -17q-6 -55 -62 -182
q-37 -86 -47 -115q-2 -8 12.5 -12t12.5 -12l-39 -123q-35 12 -60.5 45t-25.5 61q0 23 51 144q25 57 24 96q-2 6 -17 1t-28 -5h-34q-16 0 -23 -6q-12 -16 -31.5 -52t-23.5 -49.5t-7.5 -41t-13.5 -37.5q-23 -25 -43 -36.5t-37 -13.5q-14 27 -19 48.5t-5 62.5q0 31 35 72
q53 61 55 65q-39 20 -83 36.5t-58 16.5q-47 0 -133.5 -38.5t-186.5 -38.5q-20 0 -43 8q-63 23 -74 22q-23 0 -28.5 -20.5t-10 -35.5t-10.5 -23q-25 -33 -121 -70q-51 -20 -76.5 -44t-93.5 -108q-45 -57 -94 -73q-25 37 -24 59q0 29 32 61q45 45 56.5 64.5t31.5 46.5
q4 4 13 14q-25 -14 -49 -34q-33 -31 -48 -46q-33 -20 -63 -38q-10 -10 -21 -37q0 -4 -4 -15q-18 -16 -63 -26q-6 -2 -39 -10v30q0 27 6 43q25 59 119 133q102 80 119 111q-74 61 -129 119q-70 74 -101 143q-18 39 -32.5 115t-16.5 84q-8 23 -18 41q-2 6 -10 16
q-6 -6 -19.5 -5t-20 -7t-12.5 -17q-4 -2 -16 -4l-8 4l-2 15q-25 10 -47 22q-6 14 -12.5 30.5t-4.5 25.5z" />
    <glyph glyph-name="asterisk" unicode="*" horiz-adv-x="3096" 
d="M35 995q-2 25 26 39q45 23 60 39q74 127 124 196.5t107 94.5q14 6 47 109q16 49 31 53q29 8 67 -51.5t58 -65.5q78 -25 195 -63q205 -70 299 -70q16 0 170 24q78 12 110 13q16 0 33 -4q63 -20 151 -21q74 0 193 15q272 33 358 32q92 0 210 -44t227 -124
q92 -72 157.5 -202.5t165.5 -210.5q139 -104 166 -144q53 -76 53 -168q-4 -20 -61 -26q-25 -10 -49 -19q20 -70 36.5 -127t28.5 -71q12 -20 17 -33q18 -41 18 -64q0 -14 -6 -26q-12 -20 -58.5 -40t-84.5 -20q-51 0 -39 35q6 16 36.5 30.5t30.5 29.5q0 100 -100 200
q-74 74 -227 166q-125 72 -248 146q-4 -4 -34 -1t-56 11q-2 -16 -3 -34.5t-1 -29.5q0 -76 32.5 -170t32.5 -108q0 -8 -6 -19q-90 -121 -129 -168q-63 -80 -145 -135q-25 -14 -60 -25.5t-82 -11.5q-31 0 -51 2.5t-37 4.5q-4 8 -8 17t-4 24q0 12 10 22q39 29 76 45t94 29.5
t94 64.5q29 41 64 142q4 16 4 24q0 35 -103 182q-61 88 -94 168q-31 0 -141 -30q-59 -16 -131 -17h-78q-41 6 -61 8q47 -117 94 -231q18 -74 55 -146.5t47 -93t10 -49.5q0 -35 -17 -72.5t-32 -68.5q-6 -14 -50 -24.5t-95 -10.5q-43 0 -64.5 9.5t-11.5 31.5q12 31 49 50.5
t90 35.5q-31 119 -114.5 250t-145.5 225q-29 41 -102.5 49.5t-104.5 10.5q-2 -12 4.5 -51t6.5 -50q0 -37 -19 -45q-121 -57 -248 -157q-106 -90 -213 -181q-125 -104 -225 -157q-10 -4 -21.5 -2t-41.5 20q-27 12 -37 21q-20 14 -29 30q-14 37 74 70q113 43 133 65
q66 72 180 185q190 188 191 221q0 39 -52 115q-31 45 -49 45q-78 0 -200 84q-63 43 -164 129q-51 -41 -80 -58q-41 -25 -98 -43q-6 12 -44 26.5t-32 31.5q4 14 117 69q47 23 43 56q-2 14 -27 14q-37 0 -117 -31q-88 -39 -110 -47q-12 8 -17 12q-18 19 -18 39z" />
    <glyph glyph-name="plus" unicode="+" horiz-adv-x="1744" 
d="M70 -12q78 39 104 51q39 18 64.5 25.5t83 9.5t102.5 20q-35 127 -115 264q-72 119 -96 174q-47 106 -47 207q0 59 14 97q4 10 72 110q4 4 22.5 15.5t22.5 25.5t4 35q0 31 -5 52.5t-40 129.5q-2 14 -33 33q-10 8 -35 8q-23 -2 -34 -2q-18 0 -28.5 3t-19 14.5t-8.5 21.5
q0 14 15 37q18 23 24 33l35 51q4 10 9 20.5t16 24.5q-4 8 -35 47q-23 30 -31 59l14 17h19.5t21.5 -10q20 -16 58 -60q6 -6 16 -20l39 59l4 6q10 4 22.5 0t26.5 -22l13 -29q2 -16 -5 -33q-20 -47 -18 -63q0 -72 41 -187q12 -35 78 -186q18 -41 155 -233q57 -80 74 -146
q10 -35 23 -67q6 -27 6 -127v-88q0 -55 24 -99q74 -125 189 -162q76 -25 252 -24h258q27 0 96.5 5t83.5 5q33 0 55 -6q12 -6 13 -16q0 -20 -25 -39l-604 -47q-115 0 -225.5 32.5t-282.5 114.5l10 -18l60 -123q-84 -20 -163 -32.5t-143 -12.5q-61 0 -122.5 10t-124.5 35z" />
    <glyph glyph-name="comma" unicode="," horiz-adv-x="2785" 
d="M20 719q0 39 53.5 126t61.5 128t33 95t31 85q4 14 -8.5 56t-12.5 53q0 10 8.5 25.5t20.5 37t26 23.5q33 6 53.5 -12.5t41.5 -35.5q51 -35 84 -34q41 0 103.5 32.5t94.5 36.5q137 18 351 115q94 43 139 43q43 0 86 -12q68 -20 135 -39q29 -4 55.5 -4h55.5q76 0 124 2
q197 8 218 8q31 0 112.5 22.5t114.5 22.5q285 0 383 -147q72 -109 72 -365q0 -37 -2.5 -117t-2.5 -123q0 -47 39 -104t39 -121q0 -37 -12 -92q-2 -14 33 -65.5t76 -86.5q23 -18 112 -75q29 -18 33 -25q20 -31 20 -43q0 -18 -32 -35q-12 -6 -27 -6q-27 0 -78 31
q-131 80 -172 90q-18 -70 -37 -137q-25 -59 -78 -60q-16 0 -39.5 6.5t-33.5 31t-10 59.5q0 43 12 106q29 150 28 164q0 14 -2 20q6 25 -2 33q-66 70 -106 115q-76 82 -100 117l-19 36q-23 -53 -31 -79q-18 -51 -18 -86q0 -31 16.5 -94.5t16.5 -102.5q0 -23 -5.5 -45.5
t-15.5 -44.5q-43 -84 -51 -101q-47 -84 -104 -124q-10 -8 -29 -27q-27 -27 -48.5 -34t-35.5 -7q-18 0 -43 8t-56.5 15.5t-70.5 15.5q-35 10 -37 24q-8 68 70 88q63 12 129 25q37 14 52 52t15 96q0 63 -18 151q-41 197 -41 252l-10 27q-158 -41 -232 -62q-131 -37 -131 -108
q0 -168 -33 -326q-47 -227 -143 -326q-35 -41 -59 -61q-39 -33 -74 -33q-45 0 -97.5 25.5t-99.5 50.5l9 68q96 51 106 57q51 33 72 72q33 59 42 132.5t9 176.5v114q-45 0 -88 21q-18 8 -74 45q-10 8 -31 8q-27 0 -63 -14q-113 -43 -148 -49q8 -6 156 -101q63 -41 64 -110
q0 -4 -9 -10q-18 -14 -18 -17q-6 0 -29.5 -10t-34.5 -6q-72 16 -110 26q-72 18 -126 47t-92 90.5t-38 114.5t31 76q18 14 102 43l21 39h-70q-39 0 -59.5 -2t-39 -15.5t-29.5 -53.5t-22 -52q-31 -33 -60.5 -64.5t-53.5 -31.5q-8 0 -37 33q-35 39 -43 70.5t-51 45.5
q-41 10 -80 21q-39 16 -72 53q-10 10 -25 33z" />
    <glyph glyph-name="hyphen" unicode="-" 
d="M39 758q0 27 45 78q53 59 70 110q10 31 28 58q4 6 39 47q16 20 47 20q16 0 29.5 -2t28.5 -4q23 0 71 -21q29 -12 45 -12q59 0 179 66q135 74 223 90q33 6 85 8t60 2q66 0 367 -24q151 -13 241 -13q49 0 160 39q57 20 105 21q150 0 387 -185q113 -88 231 -88q47 12 70 19
q78 20 92 20l-2 -14q-45 -33 -92 -48.5t-92 -15.5q-66 0 -160 33q-49 16 -96 35q-14 -68 -86 -238q-57 -135 -58 -239q0 -31 19.5 -83t40.5 -106q0 -47 -34 -131t-34 -117q0 -41 25 -71q-37 -4 -71 -16.5t-75 -12.5q41 98 41 238q0 66 -12 121t-41 90q-6 -43 -10 -73
t-18.5 -61.5t-47.5 -95.5q-53 -102 -53 -155q-23 -18 -54.5 -25.5t-70.5 -7.5q61 123 77.5 185.5t16.5 146.5v116q-20 0 -63 10.5t-68 6.5q-88 -12 -263 -23.5t-220 -21.5q-39 -33 -55.5 -97.5t-16.5 -150.5v-70q-20 -6 -35.5 -10t-36.5 -4q-20 0 -51 10q4 16 7 35.5t9.5 33
t26.5 32.5q6 6 19 14q0 57 -19 123q-16 33 -33 67l-22 -39q-14 -43 -21 -65q-16 -55 -16 -100q0 -16 -5 -42t-5 -30q0 -18 8 -33q-33 0 -53.5 -9t-32.5 -9q-16 0 -72 12q12 27 26.5 45t33 25.5t18.5 31.5q-2 29 -2 43q0 49 -31 113q-41 84 -118 139q-18 12 -27.5 57.5
t-20.5 59.5q-20 25 -73 57q-74 45 -80 49q-29 20 -57.5 42t-51.5 20q-31 -4 -49 -8q-51 -12 -104 -35q-18 -8 -46 -14.5t-44 -6.5q-72 0 -72 58z" />
    <glyph glyph-name="period" unicode="." horiz-adv-x="2482" 
d="M76 922q59 8 101 14t52 31q82 215 103 260q76 160 170 243q23 18 57.5 36t61 27t46 10t38.5 3q59 0 94 25q63 35 143 55q8 2 29 2q39 -2 55 -2q20 0 39.5 -4t56.5 -16q39 -18 78 -37q117 -43 301 -43q14 0 168 28q78 14 143 15q213 0 342 -148q109 -125 152 -342
q10 -53 12 -112.5t2 -135.5q0 -111 8.5 -190.5t32.5 -155.5q16 -51 21.5 -94t5.5 -96q-4 25 -22.5 72t-22.5 67q-14 68 -31 203q-23 193 -28 237q-10 -14 -14.5 -24t-8.5 -32.5t-8 -31.5q-18 -39 -12 -71q10 -86 22 -172q39 -217 195 -500q-29 -8 -45 -12q-53 -12 -89 -13
q-29 -2 -57 -2q-12 2 -18 7.5t-8 7.5q-2 12 1 23.5t7 27.5q0 31 -15.5 72t-44.5 106q-14 41 -21 60.5t-24 44.5l-22 -74q-4 -37 -21.5 -89t-20.5 -67.5t-3 -44.5q0 -12 2 -45t2 -53q-53 0 -100.5 -5t-100.5 -12q-43 0 -61 31q-6 8 16 47q4 6 24.5 23.5t22.5 23.5
q68 150 68 297q0 49 -5.5 82t-23.5 64q-8 10 -32.5 15t-32 11t-15.5 21q-18 35 -32.5 42t-34.5 7q-12 0 -43 -4t-50 -4q-18 0 -28 2q-156 47 -312 96h-69q2 -23 4 -37q14 -109 14 -143q0 -23 -6 -57.5t-9 -56t-3 -44.5v-16t2 -8q29 -154 59 -308q4 -12 17.5 -33.5
t29.5 -45.5q2 -8 -43 -18.5t-100 -10.5q-37 0 -77 4t-60 8l12 33q8 12 23.5 31.5t19.5 23.5l10 10q14 14 11 33q-6 29 -17.5 50.5t-23 44t-33.5 90.5q-29 86 -49 139q-27 -27 -54 -70q-10 -16 -47 -86q-23 -37 -43 -72q-49 -106 -49 -231q-33 0 -69.5 -2t-79.5 -6
q-31 0 -62 20q-18 12 -55 52q14 16 29.5 33.5t38 39t47.5 41.5q12 14 12 35q0 74 39 162q113 256 117 275.5t27.5 92t19.5 103.5q0 43 -4.5 72.5t-23.5 40t-52 10.5q-18 0 -39 -3t-43 -7q-23 -4 -58.5 4t-47 10t-11.5 16q0 16 2 37t0 23q-10 8 -53 -10.5t-78 -34.5
q-31 -10 -61 -19q-23 -10 -35 -24q-66 -74 -125 -289q-31 -109 -61.5 -218.5t-49 -205.5t-18.5 -168q-2 -18 1 -33.5t5 -25.5q-6 -8 -39 4t-37 4q4 8 8.5 19t4.5 34q0 166 20 344q10 117 45 311q10 63 33 172q-57 12 -91 18.5t-40 35.5z" />
    <glyph glyph-name="slash" unicode="/" horiz-adv-x="2498" 
d="M68 993q14 37 67 90l58 62q31 25 49 72q8 27 18 55q29 59 85.5 102t117.5 43q86 0 161.5 -113.5t75.5 -222.5q0 -78 -26 -155q-14 -43 -62 -142q23 2 45 4q131 78 236 111q139 45 307 45q233 0 445 -65q68 -20 309 -123q156 -66 252 -66l186 6l-8 -88h-8
q-29 -45 -123 -86q-59 -27 -114.5 -39t-151.5 -116q-57 -61 -103 -95q-182 -131 -315 -182q-111 -43 -209 -43q-211 0 -412 33q-303 49 -477 160q-227 143 -227 378q0 86 66.5 193t195.5 207q12 16 14 24q12 27 -2 31q-14 6 -82.5 16.5t-81.5 10.5q-49 0 -93 -19.5
t-87 -58.5q-18 -18 -48 -22.5t-58 -6.5z" />
    <glyph glyph-name="zero" unicode="0" horiz-adv-x="942" 
d="M31 1004q0 59 43 108q33 37 106 86q6 4 14.5 36t14.5 38q16 16 32.5 23.5t22.5 9.5t6 18q0 14 -6 37q-14 51 -12 57q8 31 47 74l39 39q25 27 35 39q20 23 33.5 29t27.5 8t39 2q100 0 154 -113q43 -90 71 -129q8 -14 64 -27q29 -6 39 -20q66 -90 108 -203q37 -98 37 -158
q0 -51 -12 -63t-57 -12h-74t-84 -4q14 -57 129 -297q39 -82 39 -142q0 -18 -17.5 -70.5t-17.5 -58.5q0 -143 -66 -256q-2 -6 10.5 -21.5t8.5 -23.5q-27 -72 -51 -104q-31 -41 -70 -41h-35q-25 4 -31 25.5t-12 46.5q-2 4 -15 -5.5t-20 -9.5q-10 2 -1.5 19.5t30.5 33.5
q33 27 66 56q8 18 8 51q0 12 -2 41t-2 45q0 41 -21 78q-63 117 -69 139h-33l-78 -80l-8 -10l41 -78q0 -14 19.5 -51t19.5 -53l6 -43q0 -8 -24.5 -24.5t-35.5 -29.5q-49 -53 -96 -53q4 23 8 43q-35 -16 -61.5 -24.5t-46.5 -1.5q-10 0 -15 4q-10 14 -10 36q0 12 6.5 19.5
t16.5 17t33 15.5q18 -8 28 -6q12 2 29 10q20 14 24 16q-61 29 -90 62q-45 49 -45 129q0 37 -22 114q-12 43 -13 78q0 25 3 41q0 74 51 92q18 6 36.5 13.5t14.5 13.5q-14 23 -41 86q-43 102 -82 133q-2 2 -4 20.5t-8 18.5q-86 0 -129 29.5t-43 81.5z" />
    <glyph glyph-name="one" unicode="1" horiz-adv-x="1208" 
d="M74 1440q39 25 53 35q27 18 43 38q37 55 76 111q26 31 53 31q150 0 213 -139q57 -143 115 -287q47 -78 124.5 -183.5t100.5 -146.5q47 -86 86 -225q55 -201 88 -283q18 -51 70 -125q29 -43 59 -86q-25 -23 -55.5 -36t-52.5 -13q-41 0 -82 14q-20 6 -142 68
q-27 -35 -26 -82q0 -31 13 -64.5t28 -68.5q-23 12 -42.5 22.5t-32.5 14.5t-48 7t-57.5 7t-53.5 17q-4 2 -14 6q-20 0 -47 -5.5t-31 -5.5q-39 0 -78 6.5t-108 24.5q16 16 75.5 55t76 65t17.5 58.5t1 44.5q2 20 2 33q0 25 -13 45q-106 123 -141 174q-90 135 -90 256
q0 92 57 197q129 236 129 264q0 70 -11 106.5t-32 49.5q-8 2 -26.5 -1t-33.5 -4t-38 -1q-6 -2 -29 -11l-59 -14q-10 -2 -31 -2q-53 0 -106 33zM569 199q0 -16 2 -21v-10l19 -23q20 4 31 9q29 10 59 32q16 12 23.5 44t9.5 40q-53 25 -105 49q-16 -6 -27.5 -43.5t-11.5 -76.5z
" />
    <glyph glyph-name="two" unicode="2" horiz-adv-x="1263" 
d="M96 1280q111 -25 221 -49q-4 -23 -64 -120t-60 -189q0 -115 60 -275t159 -278q6 -8 39 -45q25 -29 35 -41.5t10 -26.5q-4 -23 -7 -43q0 -102 -38 -184q-4 -12 -43 -20.5t-84 -16.5q4 -8 8 -17.5t10 -19.5q14 -2 45 -2q35 0 84 7t64 7q0 10 10 24.5t4 20.5q-6 4 -20.5 2
t-26.5 -4l28 107l37 129q72 -29 109 -46.5t76 -43.5q-2 -4 -16.5 -56.5t-30.5 -70.5q-6 -10 -21 -11q-10 0 -30.5 6.5t-28.5 6.5q0 -12 2 -27.5t-4 -17.5q51 -20 93 -32.5t81 -12.5q16 0 28.5 3t28.5 7l-27 33q-27 -4 -36 -4q-14 0 -25 6q0 27 20.5 76t20.5 71
q49 -10 92 -35q55 -35 111 -67q49 0 63 2q27 8 45 12q-12 31 -20 49q-37 78 -51 115q-4 10 -6.5 20.5t1.5 16.5q4 4 29 15t25 22q0 8 -26 19t-26 15v88t2.5 54.5t2.5 48.5q0 106 -52.5 222t-138.5 220q-57 66 -115 131q-25 37 -24 86q0 10 14 99q8 51 8 73q0 15 -4 35
q-29 100 -94 147.5t-160 47.5q-70 0 -136 -23.5t-126 -75.5q-39 -37 -67 -81q-18 -29 -58 -109z" />
    <glyph glyph-name="three" unicode="3" horiz-adv-x="2347" 
d="M27 600v25q4 14 4 18t5 25.5t15 31.5q16 16 31 -4q6 -10 18.5 -40.5t20.5 -39.5q41 35 55 54q31 39 43 82v59q29 39 57 80q4 12 4.5 29.5t0.5 23.5q-2 18 -2 37q4 35 22 51q10 8 16 12q27 18 35 19q8 0 16.5 -17.5t16.5 -31.5l8 16q10 18 17 19q14 -2 19 -6.5t6 -7.5
l3 -9q4 2 39 33t81 37t106 6q86 0 139 -23q71 -39 145 -78q53 -16 152.5 -19t134.5 -7q35 0 110.5 6t116.5 6q45 0 101 -10q123 -27 249 -162q31 -35 136 -160q41 -51 116 -102q59 -41 119 -80q6 -4 53.5 14.5t57.5 12.5q27 -25 26 -49q0 -12 -6 -20.5t-14 -21t-28.5 -25.5
t-28 -17.5t-17.5 -4.5q-45 0 -94 44.5t-39 54.5q2 6 -8 11t-19 11q-25 39 -79 72q-8 4 -25 12q0 -57 -20 -123q-45 -143 -46 -168q0 -12 -20.5 -18t-17.5 -16q2 -14 5 -25.5t3 -32.5q0 -25 -13 -59q-8 -16 -8 -66v-24q2 -16 9.5 -23.5t7.5 -25.5q-27 -23 -41 -33
q-47 -33 -74 -33q-33 2 -35 4q-12 12 -37 27q-10 6 -10 16q0 8 12 27q29 43 31 51t2 19.5v15.5q0 10 -12 53t-12 131l-21 -6q-20 -10 -18 -22q2 -8 2 -25q0 -51 -17 -80q-27 -25 -51 -47q-18 -25 -18 -61v-33q0 -10 -14.5 -16.5t-39.5 -6.5q-57 0 -96 23q-18 10 -22 16
q-12 16 16 37q37 27 42 44t7 40t2 43q-2 20 -2 33q0 10 4 35q2 12 -6 11t-12 -3q-31 -10 -65 -17.5t-66 -7.5q-16 0 -49 5t-99 44q-20 -53 -30 -84q-39 -106 -54 -155q-4 -43 -5 -70t-23 -41q-6 -4 -23 -4q-12 0 -36.5 8t-35.5 8q-33 -2 -65 -4q-12 4 -4 36t6 40q0 4 -23 4
q-10 0 -76.5 -5t-68.5 1q-2 31 34 57.5t44 36.5q2 6 2 9.5t2 13.5q0 41 -25 94q-51 111 -55 123q-2 4 -2 8q12 35 6 39l-74 209q-10 -29 -21 -40t-40 -28q-8 -29 -18 -37q-2 -12 -3 -24q-6 0 -34.5 15.5t-34.5 6.5q-29 -43 -98 -100q-47 -39 -172 -131q-14 -10 -39 -10
q-16 0 -31 10q27 10 63 61q12 16 33 54q-45 -14 -84 -37q-51 -31 -76 -70q-16 6 -20 10q-23 10 -27 32t-4 42q0 16 12 76q4 23 3 41q0 10 -12.5 24.5t-14.5 22.5q-12 43 -12 88z" />
    <glyph glyph-name="four" unicode="4" horiz-adv-x="1634" 
d="M23 1436q57 0 104 8q119 20 121 20q106 0 139 -49q14 -23 14 -61q0 -33 -2 -51q-10 -90 -10 -95q0 -115 13.5 -180t68.5 -96q10 -6 61.5 -20.5t71.5 -26.5q4 -2 154 -129q57 -49 107 -63.5t67 -74.5q8 -31 8 -102q0 -35 -9 -100.5t-20 -136.5v-48q0 -68 -5 -118t-25 -88
q-8 -14 -32 1t-30 13q6 -10 15 -19q25 -23 26 -28q0 -8 -22.5 -28.5t-16.5 -26.5q8 -10 32 13t36 25q20 -10 26 -20q8 -4 17 -10q4 16 -7.5 30.5t-11.5 24.5q6 12 9 23q10 33 17 67.5t8 102t1 102.5q2 10 10.5 20.5t10.5 16.5q-6 37 -4 49l55 272q2 6 8 8.5t14 4.5
q72 -16 105 -27q102 -35 86 -70q-2 -35 -2 -69q-16 -39 -33 -76q-45 -63 -88 -125q-57 -102 -100 -190q-16 -33 -39 -82q-12 -8 -17 -11q-18 -12 -16 -20h25q29 8 36 -1t10 -44t11 -35t10 29.5t6 31.5q2 2 31 -20q6 -2 14 -4q6 18 -27.5 39.5t-29.5 40.5q23 106 170 323
q82 121 115 224q-12 10 -19 14q-25 18 -37 24q29 14 55.5 17.5t47.5 5.5l47 18q39 -29 59 -45q72 -57 99 -86q33 53 42 81t9 53q-2 25 -2 38q0 119 -21 174q-31 84 -119 107q-45 12 -98 51q-152 111 -164 117q-117 55 -216 84t-169 29q-14 -2 -20 -2q-47 -6 -113.5 -62.5
t-97.5 -56.5q-14 0 -21 4q-16 16 -24 22q-16 6 -27.5 10.5t-15.5 16.5q-6 20 -8 61t-2 48v49t2 49q0 104 -23 151q-33 68 -121 68q-27 0 -63 -25l-29 -22q-63 -49 -67 -51q-84 -59 -170 -86z" />
    <glyph glyph-name="five" unicode="5" horiz-adv-x="1761" 
d="M18 1180q1 18 5 34q0 76 101 177.5t183 101.5q68 0 205 -155.5t193 -155.5q35 0 111.5 11t96.5 11q27 0 78 -8t76 -8q20 0 40.5 3t115 23.5t141.5 20.5q82 0 151.5 -23.5t118.5 -74.5q61 -61 94 -143.5t33 -157.5q0 -63 -26.5 -100.5t-61.5 -37.5q-8 0 -41 -10
q-12 -4 -24 -4q29 -131 57.5 -261t28.5 -259q0 -57 -20.5 -98t-55.5 -72q-23 -18 -69 -21.5t-66 -5.5l2 17q57 84 67 106q31 59 31 119q0 78 -82 256q-90 197 -158 197q-4 0 -104 -31q-43 -12 -76 -8q-41 8 -129 13t-114.5 9t-55.5 10q-16 0 -30 -24q-92 -154 -107.5 -372
t-52.5 -247q-27 -18 -45 -20q-12 0 -40 -3t-32 -3q-23 0 -45 6q59 70 84 137q18 51 18 115q0 20 -2 59t-2 57q10 55 16.5 106.5t6.5 65.5q0 29 -6 54q-12 37 -54 65q-53 37 -75 66q-35 49 -53.5 95t-27.5 104.5t-65 121.5q-35 41 -43 54q-43 -20 -84 -39l-41 10l2 33l4 41
q-39 -8 -74.5 -14.5t-45.5 -6.5q-14 0 -23.5 8.5t-19 22.5t-9.5 33z" />
    <glyph glyph-name="six" unicode="6" horiz-adv-x="1720" 
d="M20 666q0 100 107 245q115 156 209 142q8 -2 15.5 35t21.5 53q18 18 76 106q88 133 151 144q12 0 24.5 -24t18.5 -28l39 11q4 2 15.5 3t21.5 3q6 -16 8 -25q10 -35 10 -53v-12q-4 -8 -4 -11q-47 -100 -76 -163q-55 -123 -55 -191q-2 -16 20.5 -28.5t43.5 -6.5
q70 29 108 45q78 31 127 27q66 -14 107 -25q246 -68 352 -147q45 -33 81 -70t51 -74.5t21.5 -91t10.5 -85t6 -71.5t4 -50q8 -8 16 -15q20 16 31 23q35 23 53 22q10 0 17 -8q16 -27 16 -55q0 -33 -25.5 -70t-87.5 -78q-10 -6 -20 -6q-6 0 -13.5 3t-9.5 5q-27 12 -32 7
q-25 -27 -52 -46q-49 -35 -51 -36q-35 -37 -69 -72q-39 -18 -125 -29q-150 -18 -164 -35q-18 0 -41 -2t-25 -2q-25 0 -41 7.5t-28 27.5q-4 6 -6.5 12.5t-2.5 16.5q0 14 11.5 25.5t44.5 35t33 29.5q-18 8 -36 13t-28 5q-39 0 -55 4l-86 29q-12 -16 -19 -22q-18 -20 -37 -33
l-51 -35q-12 4 -37 18q-8 4 -24 15q-6 0 -22.5 -39t-45.5 -59q-16 -12 -47 -21.5t-57 -13.5q-25 0 -38 5t-24 27q-8 10 2.5 30t26.5 34q47 39 94 80q14 25 15 43q0 10 -9 16q-80 41 -149.5 134.5t-69.5 181.5q-66 -8 -149 41q-96 57 -97 129z" />
    <glyph glyph-name="seven" unicode="7" horiz-adv-x="2842" 
d="M43 541l20 45q51 -23 105 -43q41 -14 88 -15q51 0 106 23q35 14 83.5 45t81 68.5t67.5 99.5q74 129 147 260q100 131 277 131h65q20 0 79 81t132 81q76 0 129.5 -68.5t61.5 -150.5q33 0 81 13t62 15q88 14 203 15q283 0 420 -105q109 -82 151 -252q8 -35 48 -63.5
t79 -54.5q63 -61 125 -107q82 -59 174 -100q-4 0 -18 -13q-4 -4 -14 -12q-109 14 -187 55q-94 51 -199 166l-16 -49h8q-4 -23 -31.5 -95.5t-23.5 -104.5q4 -37 61.5 -134.5t57.5 -138.5q0 -39 -37 -55q-106 -51 -141 -63.5t-88 -16.5q-31 0 -66 37q-20 20 -43 55
q-57 -20 -156 -33q-33 -4 -90 -8q14 53 25 80q39 104 51 145q-63 -8 -143 -14t-152 -6q-119 0 -212 10t-216 43q-18 -98 -29 -153q-20 -104 -57 -160q-23 -37 -70 -52.5t-116 -15.5h-39q-41 0 -62.5 6.5t-42.5 30.5q-10 14 13 53q14 23 10 41q-4 23 -33 35q-66 29 -65 43
q0 8 75.5 111.5t83.5 130.5q2 8 -13 16t-15 17l-82 49q-68 -68 -148 -115q-96 -57 -192 -74l-17 17q47 16 131 88q68 57 119 117q-59 -25 -98 -35q-119 -35 -219 -35q-76 0 -160 39q-61 29 -129 80z" />
    <glyph glyph-name="eight" unicode="8" horiz-adv-x="1320" 
d="M74 197q0 -35 47 -35q6 -2 22 -2q12 0 46 2t53 2q98 0 133 67q8 16 15 64.5t16 75.5q8 14 35.5 56t37.5 62l45 -51q0 -98 -45 -155q-66 -57 -98 -93q-2 -2 -15.5 -25.5t-33.5 -37.5q-10 -10 -53 -37t-52 -45q-4 -6 11.5 -23.5t15.5 -23.5l-70 -70q23 -27 51.5 -44
t59.5 -17q8 0 27.5 5t45 28.5t44.5 54.5q55 100 61 108q27 37 53.5 55.5t91 42t105.5 27.5q16 2 24.5 -2t14.5 -12q-41 -33 -137 -72q-74 -29 -74 -47q0 -20 -34 -50t-34 -50q0 -25 37 -41t80 -16q29 0 71 33.5t58 37.5q68 12 101.5 18.5t62.5 28.5q16 16 20.5 65.5t13.5 67
t35.5 25.5t63.5 8q25 0 58.5 -54t33.5 -95q0 -47 -110 -127q-90 -66 -250 -154q-80 -43 -143.5 -61.5t-106.5 -18.5q-33 4 -64 6q-8 -12 0.5 -33.5t34.5 -21.5q12 0 31.5 -2t38.5 -2q55 0 111.5 16.5t134.5 59.5q201 106 295 182q145 115 145 213q0 35 -61 160
q-31 63 -31 102v83t2 85q0 109 -12.5 182.5t-49 139t-69.5 127.5q-47 74 -117 104q-39 18 -181.5 24.5t-201.5 22.5q-12 2 -62 28t-79 26q-88 0 -150 -58q-74 -70 -73 -198q0 -55 40.5 -179.5t79.5 -124.5q12 0 29.5 5.5t19.5 5.5q8 0 15.5 -11.5t7.5 -27.5q0 -31 -25 -76
q-55 -102 -55 -107v-51q0 -25 -2 -39t-16.5 -29.5t-65.5 -29.5t-61 -21q-18 -6 -29.5 -13t-13.5 -23z" />
    <glyph glyph-name="nine" unicode="9" horiz-adv-x="1269" 
d="M92 854q4 27 10 53q43 61 95 148q59 102 120 205q27 39 39 59q25 39 41.5 79t36.5 73t47 53q23 16 55.5 25.5t59.5 9.5q55 0 66 -15q14 12 18 15l6 -5l-12 -32q10 -27 10 -56q0 -27 -10 -61.5t-28.5 -69.5t-88.5 -141q-102 -158 -102 -242q0 -106 155.5 -110t163.5 -31
q12 -6 21 -10q27 -14 49 -29q33 -23 60.5 -48.5t43.5 -53.5q6 -10 72 -88q51 -59 70 -119q43 -137 43 -221q0 -18 -3 -41q-8 -47 -10 -72q-2 -16 19 -43q31 -39 39 -55q-23 -8 -43 -15q-25 -2 -39 -2q-23 0 -41 9q-61 47 -123 94q-33 12 -71 19t-62 7q-35 0 -52.5 -9
t-22.5 -49t-7 -65q-16 0 -48 2.5t-46 2.5q-31 0 -58.5 -7.5t-101.5 -7.5h-54.5t-56.5 2q-16 -8 -30 -8q12 10 16 22.5t9 29t21.5 21.5t32.5 5q18 0 47 -6t60 -10q12 0 24.5 5t18.5 18t14 28l37 37q6 10 6 43q-72 63 -108 100q-117 113 -140 166q-47 109 -59 147.5t-12 87.5
v74q-2 20 -2 31q0 53 18 121q27 84 41 133q-33 -23 -74 -52.5t-66.5 -52t-45.5 -47.5q-35 -41 -39 -45zM606 74q16 2 37 4t37 14t25 35l6 18q-4 4 -6 9q-20 6 -41 12q0 -6 -29 -49q-9 -14 -29 -43z" />
    <glyph glyph-name="colon" unicode=":" horiz-adv-x="3389" 
d="M45 168q147 53 332 88q199 29 397 59q-12 68 -22 136q-14 59 -39 86q-37 27 -209 51q-113 16 -113 133q0 33 60 119q70 102 147 147q27 16 89.5 28.5t103 37t73.5 90.5q45 90 58 106q43 55 110 111q68 51 86 65q8 -8 8 -45t17 -41q14 -6 42.5 24t47.5 26q-4 -20 -4 -29
q0 -16 5 -41t5 -29q0 -18 -10 -37q-45 -88 -142.5 -173t-193.5 -124q88 -156 117 -155q68 0 227 92q223 129 338 174q242 96 475 96q33 0 99.5 -28.5t136.5 -59.5q8 23 18 45q23 47 76 47q12 -2 34.5 -27.5t32.5 -49.5l9 -9q-23 -23 -62 -39q-12 -4 -35 -12q12 -33 41 -96
q20 -47 33 -82q16 -66 35 -129q10 -33 24 -49q45 -53 166 -53q31 0 108 2t87 2q29 0 50.5 -3.5t51.5 -19.5q61 -31 144 -94q76 -57 120 -105q80 -82 84 -86q43 -47 25 -61q-16 -14 -43 -14q-33 0 -74 18q-8 4 -123 72l-276 168q45 -59 121 -144.5t153 -158.5q10 -10 72 -52
q39 -27 39 -43q0 -12 -17.5 -24t-34 -14.5t-38.5 -2.5q-61 0 -137 54q-41 29 -101 88l-82 86q-39 35 -116 65q-37 14 -72 19.5t-90 5.5q-41 0 -84 -2t-84 -4q-61 0 -82 3t-61 15q-16 4 -154 84q-53 31 -96 31t-228 -105q-90 -51 -161 -51q-143 0 -220 -6t-161 -39
q-8 -2 -14.5 -18.5t-16.5 -20.5q-137 -53 -275 -104q-164 -53 -305 -53q-119 -53 -246.5 -97.5t-246.5 -44.5q0 2 -5.5 33t-0.5 37q4 10 26.5 22.5t22.5 28.5q0 12 -21 29q-51 43 -51 51z" />
    <glyph glyph-name="semicolon" unicode=";" horiz-adv-x="2744" 
d="M14 702q35 90 115 123q49 20 133 21h33q6 0 22.5 -4t26.5 -4q63 0 115.5 8t79.5 35q43 41 63 59q49 43 92 43q31 0 127 -39q51 -20 80 -20q72 0 139.5 -28t112.5 -75l57 -57q23 -18 54 -19h82q45 0 122.5 44.5t130.5 44.5q37 0 76 -1.5t80 -3.5q35 0 76 6.5t125 26.5
q-27 20 -59.5 41t-61.5 33q-98 39 -242.5 79t-187.5 40q-51 0 -95 -1t-81 -1q-70 0 -100.5 2t-92.5 16q33 37 126 85t110 48l65 8l52 27l75 25l60 8q33 0 74.5 1t148.5 11q12 2 37 2q55 0 108.5 -10t120.5 -29q150 -41 344.5 -142t243.5 -157q39 -43 78 -153.5t39 -173.5
q0 -27 -45 -103t-43 -96q0 -84 -11.5 -153.5t-29.5 -100.5q-4 -6 -56 -68q-33 -39 -32 -69q0 -27 17 -92.5t17 -77.5q0 -16 -8 -17q-4 0 -12 5.5t-12 27t-11 21.5q-6 0 -14 -11l-35 -65q-6 18 -8 26q-8 29 -8 43q-16 -10 -28.5 -20t-33.5 -37q-18 0 -19 30t-1 46l-41 -57
q-4 0 -14 57q0 8 -6 29q-25 -14 -37 -21q-43 -23 -47 -22q-14 6 22 79q29 53 41 78q20 20 41 43q4 14 18.5 30.5t14.5 39.5q0 6 -4 39q-57 -31 -95 -43q-61 -16 -86 -25q-72 -27 -141 -53q-78 -25 -205 -25q-55 0 -93 4.5t-95 16.5q-10 -37 -16.5 -59.5t-24.5 -22.5
q-53 0 -147.5 -28.5t-133.5 -51.5q-4 -12 23 -33.5t27 -34.5q-12 -10 -58 17q-25 14 -41 14q-12 0 -22.5 -6t-10.5 -31q6 -39 7 -55q0 -25 -21 -33q-12 20 -28.5 51t-24.5 52q-14 -4 -51 -32t-66 -34q-4 8 14.5 49t10.5 49q-12 4 -31 -12q-51 -45 -70 -45q0 4 16.5 27.5
t12.5 29.5q-2 4 -22.5 3.5t-30.5 -0.5q63 53 147 108q59 39 86 74l17 35q-127 0 -236 46t-125 46q-27 0 -77 2t-87 8q4 8 9 16l30 15q0 12 -33.5 16t-37.5 16q10 4 16 5q27 6 43 6q12 0 41 -8.5t41 -8.5q0 6 2 13q-66 49 -78 68.5t-37.5 42t-46.5 32.5q-18 6 -51 6h-39
q-14 0 -32.5 3t-63.5 30t-80 27q-92 0 -145 10q-55 14 -87 21t-36 36l10 64q6 2 19.5 4t25.5 0t47 -17.5t53 -15.5q25 0 80 -9.5t74 -9.5q31 0 88 16.5t84 16.5q16 0 38.5 2t41.5 2q37 0 63.5 -2t28.5 -2q-4 4 -9 8.5t-22 8.5q-39 14 -100 14q-39 0 -65.5 -3t-106.5 -13
q-25 -4 -53.5 -6.5t-47.5 -2.5q-31 0 -53 6.5t-35 10.5q-33 10 -77 31q-8 2 -23 12z" />
    <glyph glyph-name="less" unicode="&#x3c;" horiz-adv-x="2672" 
d="M68 80q14 12 45.5 23.5t53 21.5t59.5 52t55 54q84 61 98 74q51 47 80 107q-18 20 -29 28q-20 16 -32.5 26.5t-15.5 24t0 36t-3 24.5q-25 -16 -47 -33q-49 -37 -72 -37q-14 0 -36.5 13.5t-33 19.5t-28 19.5t-27.5 25.5q-39 45 -39 76q-2 18 -4 39q0 6 6 19.5t6 15.5
q-8 14 -17 33.5t-9 43.5q0 10 4 23q14 23 31 16q10 -4 41 -43q14 -18 22 -20q16 -4 39 11t33 15q43 -12 88 -22q16 0 38.5 20.5t33.5 36.5q25 4 30 4q8 -2 17 -10q6 -14 4 -39q-8 -27 -15 -51q4 -14 37 -4l29 4q41 6 82 14q37 27 139.5 29t183.5 33q100 37 206 56.5
t155 19.5q96 0 190 -37q43 -16 267 -150q74 -45 132 -64.5t195 -37.5q45 -4 47 -4q45 0 66 2q53 10 90 12q72 16 125 27.5t96 11.5q18 2 27 2q33 0 75 -11.5t42 -19.5q0 -4 -40 -9t-70 -13t-62.5 -17.5t-55 -12.5t-153.5 -32q-100 -23 -170 -22q-98 0 -193 24l-172 58
q25 -41 49 -80q16 -12 41 -52t36 -45.5t37 -11.5t79 -14q27 -37 43 -68q25 -47 24 -79q0 -12 5.5 -42t5.5 -38q0 -16 -5.5 -27.5t-35.5 -30.5q-14 -12 -29 -24q-23 -10 -39 9t-16 46q0 12 25.5 24.5t25.5 24.5q0 14 -10 33q-39 74 -50 100h-20l-66 6l-165 11q-23 0 -50 10
q-43 16 -84 35q-41 8 -53 8q-4 -6 -6 -10q18 -16 33 -29q29 -27 32 -52.5t7 -47.5q0 -23 -8.5 -36t-40.5 -30q-27 -31 -51.5 -55.5t-51 -37.5t-74.5 -13q-25 0 -37 9t-12 25q0 12 6.5 18.5t36 10.5t42 9t30.5 22.5t27 25.5l30 33q18 23 19 41q0 14 -12 33q-6 2 -19.5 -7
t-19.5 -7q-63 16 -125 43q-27 10 -86 41q-16 6 -29 6q-12 0 -39 -8.5t-47 -8.5q-12 0 -101.5 9.5t-140.5 9.5q-8 -61 -24 -129q-6 -29 -29 -103q-14 -12 -18 -18t-13.5 -37t-23.5 -35q-49 -16 -90 -16q-25 0 -23 12q6 20 37 41q20 12 43 27q10 18 16.5 40.5t10.5 51.5l8 43
l-10 49q8 20 8 29q-51 8 -103 18q-47 0 -73 -22q-6 0 -9 -2q-29 -29 -49 -45q-33 -27 -69 -41q-8 -4 -17 -15q-23 -31 -31 -38t-28 -17q-61 -31 -64 -33q-33 -27 -70.5 -53.5t-99.5 -34.5q-16 -2 -32.5 9.5t-1.5 23.5z" />
    <glyph glyph-name="equal" unicode="=" horiz-adv-x="983" 
d="M25 1561v10q6 4 10 6q16 10 22 12q25 0 33 2l72 8q16 4 27.5 7.5t17.5 1.5q29 -12 35 -13l30 25q10 -2 17.5 -4t5.5 -8q-11 -13 -19 -25l11 -6l16 -4l19 -8q8 -6 11 -10.5t5 -6.5q-4 -2 -18.5 -13t-14.5 -15q0 -10 4 -16.5t4 -12.5l37 -252q4 -25 4 -48.5v-47.5
q0 -25 12.5 -49.5t36.5 -57.5q12 -16 46 -39.5t36 -25.5q16 -29 25 -37l31 -23q10 -10 21 -19t27.5 -17.5t53.5 -16.5q84 -20 112.5 -34.5t49.5 -35.5q10 -10 33 -43q35 -47 45 -106t10 -117l10 -51q4 -20 23.5 -54t19.5 -50q0 -14 -8 -25q-14 -20 -37 -35q-6 0 -10 2
q8 35 8 62q0 23 -9 54.5t-11 45.5l-17 55q-2 -10 -13 -68.5t-11 -95.5q0 -12 6 -30q14 -43 14 -49t-4 -17.5t-6 -19.5l-2 -146l-2 -106q-4 -27 -22.5 -45.5t-14.5 -46.5l-37 -6q-14 2 -18 6t-4 6q-18 2 -27.5 4t-5.5 8q8 14 16 26.5t21.5 28t21.5 37.5q2 4 6 23.5t6 40
t2 61.5v47q0 20 2.5 45t2.5 27q0 20 -5.5 31.5t-89.5 118.5q-39 49 -57 98q-23 -2 -39 -3t-27 -1q-53 0 -99 11t-91 38q0 -61 9 -137t9 -84v-84t3 -49l6 -64l4 -14l2 -11l-2 -20v-68l-15 -32q-6 -25 -8 -29t-6 -6q-37 -16 -41 0q0 20 4 24q23 18 30 46t7 47l-2 28l-4 90
q0 8 -12.5 10.5t-12.5 -3.5q-2 -14 -2 -23q0 -23 2 -44.5t4 -41.5v-10l-4 -8q-2 -8 -12 -40t-16 -59v-28l-41 -11q-6 4 -8 4q-10 6 -13 13q-2 6 6 20q14 12 17 19q14 33 27.5 68.5t13.5 82.5q0 51 -2 74q-10 111 -11 145q0 33 -4 54.5t-8 46.5l-24 123q-4 37 -27 75.5
t-23 71.5q0 31 17 59q10 12 12 19q12 20 12 33q0 31 -28 73q-35 53 -40 75t-5 34t10 80q4 27 4 53v106v93.5t2 83.5q0 2 -18.5 25.5t-20.5 25.5q-35 8 -59.5 14t-46.5 21q-14 4 -21.5 8t-12.5 10t-7 10l10 6q-14 2 -14 7z" />
    <glyph glyph-name="greater" unicode="&#x3e;" horiz-adv-x="2396" 
d="M39 655q-6 41 51 89.5t98 48.5q102 0 246 -78q109 -59 154 -76l-56 86q70 23 101 37q49 23 82 53q113 129 227 260q154 144 408 144q123 0 184 -9q121 -16 203 -65q96 -57 188 -182q37 -49 135 -205q10 -16 45 -56q23 -25 23 -53q0 -8 22.5 -13t26.5 -13q4 -12 -38 -37
t-42 -37q102 0 252 49l25 8q-10 -53 -170 -96q-53 -14 -158 -33q0 -4 -72 -35q-10 -4 -32 -14q14 -27 30 -51q51 -14 70 -25q53 -31 53 -106l-2 -31q2 -16 4 -31q-14 -14 -18 -20v-25q-23 -4 -29 -10q-6 -20 -12 -25q-18 4 -27 2l-14 -14q-6 4 -11.5 8t-11.5 6
q-57 16 -119 105q-18 29 -67 113q-4 -4 -21 -5h-24q-14 0 -19 -4q-20 -106 -26 -149q-14 -76 -31 -115q-16 -20 -64.5 -29.5t-101.5 -9.5q-35 0 -45 3t-21.5 5.5t-16.5 7.5t-3 12t0 11q-16 4 -31 10v27q-4 4 -8 5l-12 3q8 8 16 17l-8 20q6 4 54.5 10.5t52.5 13.5t10 41.5
t13 54t7 32.5q0 4 -5 6t-15 -4q-12 4 -26.5 8t-30.5 4q-76 0 -170.5 -4t-174.5 -8q6 -20 33 -125q16 -61 17 -88q0 -45 -49.5 -65.5t-110.5 -20.5q-31 0 -86 10q-18 2 -49 10l14 23l-25 8l9 20l-21 9q0 4 6 9t9 7q-6 4 -9 4q-10 6 -10 10q0 6 12 15q57 35 66.5 43t9.5 28
q0 23 -17.5 68t-19.5 59q-10 0 -35.5 5.5t-29.5 5.5q-8 0 -26.5 -7.5t-65.5 -42.5q-129 -94 -170 -116q-16 -8 -39 -31q-14 -14 -23 -19q-6 6 -12 26t-10 25t-22.5 5h-20.5q-2 12 -2 16q-6 16 -17 21q-25 -2 -35 -2q-8 0 -6 17t0 22.5t-15 8.5t-20 7q49 25 90.5 33l83 16
t69.5 19.5t48.5 17.5t44.5 12q-25 18 -90 43q-20 8 -108 35q-133 37 -267 74q-133 51 -149 153z" />
    <glyph glyph-name="question" unicode="?" horiz-adv-x="2836" 
d="M41 510q0 35 6 64.5t12.5 48t18.5 30.5q6 6 21.5 4t23.5 -13t25.5 -56t27.5 -56q49 43 78 78q47 57 61 117q2 8 0 28.5t-2 32.5v13q4 8 4 10q41 57 82 115q4 16 5.5 41.5t1.5 33.5q-2 25 -5 52q4 31 10.5 46t22.5 27q6 4 35 24.5t37 20.5q10 0 27.5 -32.5t19.5 -36.5
q8 14 18.5 30.5t16.5 16.5q20 0 28 -6q4 -8 7.5 -12.5t7.5 -12.5q18 10 74 74q33 37 57 57q125 109 239 160q84 36 203 59q25 4 39 5q49 0 121 -25q176 -61 225 -66q47 0 167 8.5t155 8.5q82 0 166 -17.5t182 -87.5q82 -57 178 -164q43 -47 172 -204q100 -125 131 -174
q59 -96 60 -181q0 -18 -2 -28q0 -12 12 -37t10 -41q-4 -20 -18.5 -38.5t-26.5 -35.5q-2 -2 -15.5 -34.5t-30.5 -44t-44 -11.5q-43 0 -94 18q-8 2 -23 11q25 25 62 80q31 45 61 92q8 12 23.5 27.5l21.5 21.5q2 35 4 49q6 66 -51 139q-18 25 -59 62q0 -98 -48.5 -230.5
t-48.5 -185.5q-18 -53 -34 -106q6 -25 8 -37.5t2 -40.5q0 -31 -3 -44.5t-12.5 -36t-11.5 -50t-2 -31.5v-53q4 -25 13.5 -36t9.5 -36q-37 -31 -58 -45q-68 -47 -106 -47q-43 0 -49 4q-27 20 -52 39q-16 8 -16 24t29.5 54.5t33 62t3.5 35.5q0 31 -27 113t-27 213
q-20 -6 -28 -11q-31 -14 -27 -30q2 -10 2 -35q0 -35 -6 -63.5t-16.5 -44t-40 -39t-35.5 -33.5q-16 -23 -20.5 -40.5t-4.5 -47.5v-48q0 -31 -76 -30q-43 0 -74.5 7t-61 22.5t-35 25.5t-5.5 16q0 12 25 31q57 43 64.5 69.5t11.5 45t4 41.5q0 20 -2 30q-2 37 -2 58q0 10 4 39
q2 16 -10 16l-17 -4q-41 -14 -91 -25.5t-95 -11.5q-29 0 -64 6q-55 12 -147 64q-29 -76 -45 -121q-53 -147 -74 -221q-2 -8 -7 -72.5t-36 -83.5q-14 -8 -33 -8q-18 0 -53 12.5t-47 12.5q-8 0 -35 -4.5t-41 -4.5q-12 0 -20.5 2t-8.5 19q0 16 8.5 48t6.5 42q-2 12 -49 12
q-43 0 -43 12q-4 39 37 72q63 49 73 64q2 2 2 12t2 18q0 49 -20 103q-47 104 -92 209q-16 -6 -35 5t-35 23v-26q-14 -39 -31.5 -56.5t-54.5 -37.5q-4 -4 -12 -26t-13.5 -28t-1.5 -22q-2 -8 -4 -15q-6 0 -61 25q-27 12 -37 8q-59 -16 -170 -153q-100 -125 -149 -183
q-10 -16 -46 -16q-37 0 -53 14q35 12 56 92q6 27 14 80q-66 -18 -121 -53q-76 -45 -108 -100q-6 2 -12.5 4t-16.5 10q-35 18 -39 48t-4 59q0 41 11 90t9 77q0 12 -17.5 32t-21.5 34q-18 66 -18 127z" />
    <glyph glyph-name="at" unicode="@" horiz-adv-x="3010" 
d="M27 1057q-1 36 24 65q33 35 95.5 49.5t117.5 14.5q66 0 117 -14.5t100 -53.5q96 -100 152 -147q98 -84 239 -84q16 -4 41 -8.5t56 -4.5q59 0 164 9q238 18 256 18q152 0 297 -98q86 -59 235 -209q141 -141 211 -184q150 -96 213 -136q104 -66 195 -96q12 -4 208 -69
q133 -45 248 -89l-61 -36q-129 0 -289 24q-217 33 -489 107q-84 23 -168 63q-154 74 -191 74q-66 0 -102 -53q-51 -74 -64 -82q-76 -49 -190 -49q-25 0 -115 -60q-43 -29 -70 -28q-41 0 -62 10t-28 41q-8 41 97 92q8 16 16 33q-16 8 -44 12t-60 4q-33 0 -120 -4t-104 -4
q-27 0 -44 -6t-25 -17q-8 -23 -17 -43q-53 -47 -132 -87t-124 -40q-25 0 -39 16.5t-36 20.5q2 16 7 37t23.5 38t59.5 39.5t90 49.5q-18 53 -33 82q-20 39 -55 72q-115 104 -228 211q-35 49 -72.5 155.5t-62.5 134.5q-8 10 -139 80q-98 51 -98 150z" />
    <glyph glyph-name="A" unicode="A" horiz-adv-x="2744" 
d="M31 633q0 61 40 173t76 155q47 53 245 155.5t343 143.5q66 18 122 28t112 10q23 -2 32 -2q68 -6 129.5 -8t94.5 -4l59 -8l76 -25l51 -26l66 -8q20 0 110 -46.5t125 -87.5q-43 -10 -92 -14t-100 -4h-78t-70 2h-29q-51 0 -183 -37t-247 -82q-47 -18 -82 -43
q-20 -16 -38 -31q88 -20 125.5 -26t74.5 -6q20 0 75.5 2t80.5 2q49 0 160 -60q51 -28 91 -28h3h82q29 0 53 18q33 33 57 58q45 47 111 74.5t141 27.5q35 0 129 39q49 20 78 20q43 0 92 -41q31 -31 60.5 -59.5t81 -36.5t116.5 -8q8 0 24.5 4t25.5 4h30q84 0 131 -18
q84 -33 119 -125l-117 -29q-23 -10 -34 -16q-41 -18 -63.5 -25.5t-46.5 -12.5t-48 -5h-53q-29 6 -58.5 10t-52.5 6q-68 8 -104 8q-61 0 -101 -14q-12 -4 -18 -8t-13 -8q10 -2 46 1t53 3h33q27 -4 41 -4q23 0 102 -21q47 -12 70 -12q31 0 57 4q94 14 96 14q23 0 59.5 16.5
t40.5 16.5q18 2 27.5 1t18.5 -5l10 -64q-4 -29 -40 -37t-89 -19t-140 -11q-33 0 -61 -15q-82 -41 -93 -43t-54 -2t-60.5 -7t-43 -29.5t-40.5 -47.5q-6 -10 -73 -63v-14q10 0 38.5 8t42.5 8q29 0 52 -6q4 0 8 -4q-4 -12 -38 -16.5t-34 -16.5q29 -14 37 -18q0 -7 2 -13
q-31 -4 -80 -7t-84 -3q-92 -35 -176 -63.5t-184 -28.5l16 -35q27 -33 86 -74q86 -57 148 -108q-10 0 -31 1t-23 -3q-4 -6 6.5 -22.5t22.5 -35.5q-18 0 -68 43q-20 18 -32 15q-8 -8 10 -49t14 -50q-29 6 -66.5 35t-49.5 31q-14 -37 -23 -51q-18 -31 -31 -51q-20 8 -20 34
q6 39 6 58q0 20 -10.5 26.5t-22.5 6.5q-14 0 -49 -20.5t-49 -10.5q0 14 26.5 34.5t22.5 32.5q-39 23 -133 51.5t-148 28.5q-16 0 -24 29q-14 47 -17 53q-57 -12 -95 -16t-93 -4q-127 0 -205 24q-82 35 -141 54q-39 10 -64 16q-43 12 -116 51q-4 -37 -4 -41q0 -23 10 -35
q18 -23 21 -31t19.5 -21t22.5 -23q47 -90 52 -101q25 -51 12 -57q-8 0 -60 29q-8 4 -24 14q-4 -29 -6 -43q-8 -43 -15 -43l-41 57q0 -25 -2 -50.5t-18 -25.5q-20 27 -31 37q-16 10 -30 21q0 -16 -11 -51q0 -6 -6 -19l-35 66q-8 10 -14 10q-4 0 -10 -22.5t-10 -24.5
q-10 -6 -16.5 -6t-6.5 16q0 18 17.5 84t17.5 86q0 33 -45 84q-33 37 -43 53q-16 27 -28.5 106t-12.5 148q2 20 -43 97t-45 102z" />
    <glyph glyph-name="B" unicode="B" horiz-adv-x="2600" 
d="M57 885q-2 5 -2 10q0 15 17 31q31 29 32 37q2 6 -6 30.5t-4 38.5q8 25 49 25q27 0 60 -8q10 -2 30 -11l641 -125q135 0 310 43q379 94 477 95q98 0 270.5 93t225.5 93q80 0 145 -37q43 -25 113 -86q18 -16 53 -29q53 -20 65 -26q-27 -14 -67.5 -19.5t-71.5 -8.5t-43 -15
q-45 -43 -70.5 -103.5t-25.5 -121.5q0 -49 -17.5 -98.5t-46.5 -106.5q-61 -113 -188 -158q-88 -31 -213 -31h-50.5t-45.5 2q-27 0 -50.5 -4t-37 -6t-41.5 -2q-45 0 -66.5 4t-150.5 39q12 -72 30 -125q63 -178 67.5 -189.5t45.5 -11.5q27 0 76 5.5t55 5.5q0 -6 -14.5 -18.5
t-26.5 -14.5t-33 -2q-6 -2 -10 -4q10 -8 16 -10q23 -12 36.5 -15.5t37.5 -3.5h21q14 -2 22 -6t15 -8q-4 -2 -29 -5t-23 -22q-2 -2 -50 15.5t-52 15.5q10 -12 23.5 -22.5t27.5 -20.5l-37 4q-27 4 -59 35q-41 37 -54.5 43t-33.5 6h-66l-8 24q10 2 31 3q27 -2 35 -3q20 0 20 13
q0 37 -30.5 112.5t-59.5 151.5q-4 14 -16 31q-4 6 -15 18q-8 -6 -43 -24q-25 -12 -30 -29q0 -35 47 -201q22 -77 22 -130q0 -25 20.5 -33.5t54.5 -12.5t69 -20q20 -10 43 -21l-17 -6q-8 -4 -45 11.5t-53 15.5q-4 -10 16.5 -20.5t69.5 -29.5q8 -2 24 -8q-2 -8 -6 -14t-16 -2
q-12 6 -84 43q-49 27 -53 24q-4 -2 4 -19t20 -32q6 -8 21 -16q0 -2 2 -4l-25 -10q-18 20 -31.5 37.5t-23.5 37.5q-8 29 -13.5 43.5t-13.5 21.5t-54 10t-56 9q-4 2 2 15v8q18 6 45.5 -2t34.5 -8q16 0 30 8q0 23 -1 40t-7 36q-27 59 -47 138t-20 146q0 10 24 27q8 4 25 14
q2 6 -23 21q-41 25 -59 36l-115 68q-37 -6 -96.5 -13t-95.5 -7q-55 0 -86 10q8 16 15 28.5t19.5 24.5t62.5 34.5t71 31.5l-109 26q-20 6 -90 45q-33 18 -45 19q-4 0 -39 -2t-62 -2q-104 0 -194 9t-164 36q-23 6 -59.5 10t-69.5 14q0 4 -9 9.5t-20 11.5z" />
    <glyph glyph-name="C" unicode="C" horiz-adv-x="2672" 
d="M31 588q4 6 10 8t31 8q43 12 75 12q16 -2 27 -2q61 0 117.5 -14t103.5 -25q43 -4 94.5 -9t63.5 -5q4 0 45 4q135 18 194.5 38t133.5 65q186 111 207 120q133 66 249 66q78 0 191 -25q78 -16 165 -48.5t189.5 -35t138.5 -28.5q12 -8 34 -10t48 -5l29 -4q16 -4 25 -4
q10 0 12 8t-6 27t-8 25q-2 25 4 39q8 8 16 10q6 2 15.5 0t15.5 -4q10 -16 28 -33q27 -25 43 -25q16 -2 47 10.5t41 12.5q35 -14 72 -27q8 2 30.5 31t33.5 33q16 6 30 -17q4 -6 4 -24q0 -23 -9 -42.5t-17 -33.5q6 -18 12 -35q-4 -29 -4 -39q0 -31 -39 -75q-14 -18 -33 -31
q-6 -4 -23.5 -14.5t-38 -21.5t-30.5 -11q-20 0 -53 22.5t-66 46.5q-4 -2 -1 -21.5t-1 -34.5t-18 -30q-6 -8 -31 -24q-14 -14 -28 -29q27 -59 77 -104q16 -14 101 -76q6 -4 69 -72q23 -25 47 -37q8 -4 44 -16t53 -27q6 -6 6 -12q-1 -7 -9 -13q-16 -10 -32 -7q-61 8 -105 36
q-43 37 -65 52q-49 27 -96 53q-23 25 -43 49q-29 12 -54.5 29.5t-64.5 56.5q-2 2 -4 2h-4q-27 23 -74 23q-25 0 -51.5 -6.5t-50.5 -12.5q8 -18 8 -29l-10 -49l8 -43q4 -25 9 -47t17 -45q31 -18 43 -26q31 -20 37 -41q2 -8 -4 -10.5t-20 -2.5q-43 0 -88 17q-14 4 -24.5 35.5
t-12.5 33.5q-10 10 -19 21q-12 39 -20 74q-25 94 -33 157q-66 0 -121 -6t-121 -12q-20 0 -46.5 8t-39.5 8q-12 0 -28 -6q-35 -18 -60 -29q-76 -35 -151 -55q-6 -2 -19.5 7t-19.5 7q-12 -18 -12 -32t6 -27q10 -10 12 -14l31 -33q12 -12 30.5 -28.5t30.5 -20.5t39 -7.5
t34 -11.5t7 -18q0 -16 -14 -27q-4 -4 -15.5 -6t-23.5 -2q-43 0 -68 12q-35 18 -67 54q-18 20 -37 41q-29 14 -39 30.5t-10 36.5q4 29 7 49.5t29 46.5q16 14 35 31q6 8 -5 10t-54 -8q-4 0 -82 -31q-37 -14 -51 -14l-166 -10l-66 -6h-20q-14 -43 -37 -82t-23 -51t26 -24.5
t26 -25.5q0 -25 -17.5 -44t-38.5 -11q-8 2 -16 12.5t-12 12.5q-31 18 -36 33.5t-5 23.5q0 18 3 36.5t7 43.5q0 35 22 78q14 29 46 69q31 4 63.5 10.5t47.5 12.5t40 47t39 51t28.5 40t22.5 42q-80 -31 -179 -56.5t-185 -25.5q-68 0 -168 23q-127 29 -160 33t-47 8
q-51 16 -69.5 21t-62.5 12.5t-44 11.5z" />
    <glyph glyph-name="D" unicode="D" horiz-adv-x="1941" 
d="M104 1237q0 61 18.5 92t52.5 58.5t67 27.5t75 -16q12 -4 35 -17l25 -51q10 -33 9 -41t-3 -12q-10 2 -21 6q-8 53 -40.5 74.5t-63.5 21.5q-25 0 -41 -8q-35 -16 -49 -62t-14 -112q6 -68 51 -136.5t98 -100.5q31 23 73 45t81 22q74 0 158.5 -10t148.5 -19h74q186 0 274 27
t170 84q43 37 74 61q59 47 119 72q18 8 45 8q47 0 108 -34q41 -27 55.5 -35t67.5 -14.5t68 -26.5q4 -7 4 -16q-1 -12 -7 -27q-12 -27 -40.5 -42.5t-56 -22.5t-52.5 -7q-20 0 -35.5 3t-36.5 7q-18 0 -34 -14q-29 -25 -80 -82q-39 -43 -62.5 -70.5t-29 -70.5t-5.5 -97
q0 -31 -18 -108q-10 -43 -10 -66q0 -16 4 -36.5t18.5 -152.5t28.5 -192q6 -25 39 -45q45 -29 56 -41t11 -22q0 -6 -16 -14.5t-16 -14.5q-51 0 -71.5 3t-41 21.5t-32 57.5t-21.5 76q-27 86 -53 172q-14 41 -33 63l-17 -67l-30 -193q-2 -11 -2 -21q0 -33 20 -54q12 -12 64 -41
q16 -8 16 -25q0 -29 -26.5 -33t-34.5 -4q-31 0 -54 15q-25 20 -32 26q-43 61 -46.5 237.5t-11.5 239.5q-109 14 -237.5 69.5t-208.5 90.5q-4 -20 -90 -266q-33 -94 -33 -144q0 -74 51 -124q18 -18 55 -41q29 -16 29 -27q0 -8 -13.5 -17.5t-29.5 -9.5q-20 2 -33 2
q-66 0 -98.5 73t-63.5 151q18 53 28.5 115.5t10.5 119.5q0 25 -2 37q-102 -147 -204 -295q-31 -68 -35 -76q-19 -46 -18 -75q0 -9 1 -17q4 -14 45 -29.5t31 -35.5q-12 -35 -47 -43q-4 -1 -9 -1q-22 0 -50 23q-10 8 -31 31q-14 12 -14 33q4 31 8 63q-1 10 -1 21q0 20 4 46
q7 40 7 56q-2 17 -2 29q0 29 27 65q76 102 80 124t4 40q0 29 -21 125q-12 57 -12 82q0 33 8 57q-4 12 -4 21q-6 35 -6 55q0 12 4 39t16 47.5t12 26.5q0 8 -12 14q-55 43 -86 128t-31 171z" />
    <glyph glyph-name="E" unicode="E" horiz-adv-x="2482" 
d="M33 31q80 143 127 262t67 237q4 16 9.5 74t13.5 98q2 8 2 17q0 26 -14 55q-4 6 -7 19q-8 39 -8 41l-16 28q-6 -45 -25.5 -209t-34.5 -231q-6 -29 -14 -49q-27 -68 -31 -90q0 70 6.5 107.5t24 92t27.5 146.5t10 190q0 61 1 119.5t13 128.5q43 219 150 342q129 147 344 147
q72 0 139 -12q170 -31 172 -31q184 0 301 43q18 6 38 16.5t40 20.5q33 10 53 15.5t43 5.5q41 2 60 2q18 0 24 -2q80 -20 144 -55q35 -25 94 -25q20 -2 37.5 -3t36.5 -7q41 -14 70.5 -28.5t58.5 -37.5q94 -82 170 -244q20 -43 102 -260q10 -25 59.5 -32t94.5 -13
q-6 -27 -48 -35q-78 -16 -83 -18q23 -106 32 -170q35 -195 45 -313q20 -178 21 -344q0 -20 4 -32.5t8 -21.5q-4 8 -37 -4t-39 -4q-2 10 2 30.5t4 29.5q0 70 -17 165t-54 224t-76 270q-47 156 -106 221q-16 18 -49 28.5t-48 14.5q-43 20 -69 31q-37 17 -53 17q-6 0 -9 -3
q-4 -4 -1 -27.5t3 -31.5q0 -14 -26.5 -19.5t-49 -9.5t-40.5 -2q-20 4 -40 7t-44 3q-33 0 -48.5 -9t-22.5 -33.5t-7 -79.5q-1 -6 -1 -12q0 -33 17 -87q31 -96 34 -112.5t112 -259.5q40 -90 40 -159q0 -28 19.5 -45.5t40.5 -33.5q12 -10 35.5 -38t31.5 -36q-35 -37 -59.5 -54
t-56.5 -17q-16 0 -65.5 4t-84.5 4q0 70 -10 120t-39 111q-6 16 -18.5 34.5t-24.5 37.5q-49 92 -57 104q-16 27 -43 52q-20 -51 -39 -109q-31 -94 -44.5 -118.5t-17.5 -35.5q-16 -31 -22 -61q-4 -18 20 -43q20 -29 43 -55l13 -33q-57 -12 -138 -12q-59 0 -100 8
q-23 10 -43 20q4 10 23.5 38t23.5 42q14 43 27 119q29 172 33 188q2 23 2 35q0 16 -2 25q-8 61 -17 123q0 47 8 114q2 23 11 66q-10 -2 -33 0t-37 0q-57 -10 -154 -45q-119 -43 -157 -51q-12 -2 -33 -3q-16 0 -45 4.5t-39 4.5q-25 0 -39 -7.5t-27.5 -33t-21.5 -31.5t-33 -10
t-31 -15q-18 -31 -23 -63.5t-5 -81.5q0 -80 14 -145.5t53 -151.5q6 -8 26.5 -26.5t20.5 -20.5q10 -14 13 -18q10 -16 4 -29q-18 -31 -64 -31q-16 0 -81.5 8.5t-116.5 8.5q0 20 2 53t2 45q0 31 -3 45t-20.5 66.5t-21.5 89.5l-23 73q-16 -25 -26.5 -52.5t-18.5 -51.5
q-16 -37 -33 -74q-27 -63 -26 -100q4 -29 8 -56q-4 -4 -9 -8t-18 -6q-41 2 -57 2q-33 0 -86 12q-16 4 -47 13z" />
    <glyph glyph-name="F" unicode="F" horiz-adv-x="1056" 
d="M98 854q0 37 1 78t18 74q29 66 100 155q59 74 121 150q27 35 72 105.5t63 90.5q33 37 63.5 49.5t57.5 12.5q45 0 143 -47q117 -57 162 -121q-84 -16 -113.5 -24.5t-132.5 -47.5q0 -33 1 -59.5t20 -38.5q109 -88 178 -197q102 -158 102 -329q0 -197 -69 -412
q-10 -37 -18.5 -64.5t-12.5 -31.5t-12 -8.5t-11 -12.5q-6 20 7 55q2 33 6 55.5t0 28.5q-2 6 -19 17q-10 -27 -28.5 -59.5t-36 -62.5t-31.5 -44q-20 -23 -43 -27q8 23 18.5 47.5t20.5 51.5q-4 -2 -30.5 -40t-48 -54.5t-53.5 -20.5t-42 -4l-8 -99q12 -4 20 -6q29 -29 15 -49
q-8 2 -11 6q-18 23 -24 21q-4 -6 -4 -8q-6 -14 -13 -21q-15 -24 -23 -24h-1q4 6 6 14t6 18l6 37q-4 2 -26 -24q-14 -12 -29 -25q0 20 6 28.5t27.5 24t19.5 19.5q6 31 7 48t1 38q-6 0 -19 -1t-20 1q-27 4 -36 6t-13 -2q-6 -6 -11 -29.5t1 -34.5q0 -10 18 -18q-2 -2 -1 -8
t4 -15q-2 -8 -4.5 -14t-6.5 -12q-4 8 -6 20.5t-6 12.5q-6 0 -11 -7.5t-12.5 -16.5t-14.5 -11t-13 -4l10 26q4 12 8 27q-2 2 -22.5 -8.5t-22.5 -8.5l-18 13l30 10l41 25q8 10 9.5 25.5t3.5 27.5q-43 14 -84 31q-115 111 -173.5 305t-58.5 397z" />
    <glyph glyph-name="G" unicode="G" horiz-adv-x="3010" 
d="M10 33q102 39 248 88q104 35 198.5 67.5t202 99t215.5 134.5q76 45 211 182q154 154 234 209q147 100 299 100q39 0 137 -8q223 -18 283 -18q31 0 55.5 4t40.5 8q143 0 240 82q76 74 151 149q43 33 100.5 50.5t116.5 17.5q80 0 133.5 -17.5t79 -46t25.5 -65.5
q0 -96 -96 -147q-131 -70 -143.5 -85.5t-71.5 -166.5q-29 -74 -64 -122t-111 -112q-98 -82 -114 -98q-31 -31 -51.5 -66.5t-36.5 -87.5q37 -20 80 -41.5t69 -46.5q18 -18 27 -47q2 -10 4 -29q-23 -4 -37 -20t-39 -16q-41 0 -123 41t-133 86q-8 33 -18.5 44t-28.5 16t-39 5
q-43 0 -121 4t-106 4q-41 0 -59.5 -3t-41.5 -13q6 -16 15 -31q99 -47 99 -88q0 -3 -1 -6q-6 -33 -26.5 -42t-63.5 -9q-29 0 -91.5 44t-92.5 44q-61 0 -104.5 10t-86.5 39q-12 8 -63 82q-37 53 -103 53q-43 0 -104 -28q-199 -94 -254 -109q-182 -49 -383 -86
q-246 -45 -395 -45z" />
    <glyph glyph-name="H" unicode="H" horiz-adv-x="2424" 
d="M82 719q109 53 231 239q92 139 142.5 199t154 88.5t248.5 28.5q68 0 172.5 -31t177.5 -31h25q66 0 96 9q70 18 164 90q23 45 49.5 82t77.5 69.5t104 67.5q68 41 118 58.5t116.5 25.5t132.5 16q23 12 23 49v14.5t-3 10.5q6 -2 31 -28.5t43 -26.5q12 14 25.5 28.5
t27.5 30.5q0 -59 3.5 -92t15.5 -74l74 -225q14 -45 23 -76t13 -45l-65 -70q-53 6 -109 82q-74 100 -104 123q-10 6 -18 19q-27 39 -31 41q-10 0 -20.5 -1t-19.5 -6.5t-22 -19.5q-2 -4 -10 -12q-37 -88 -50 -144.5t-13 -109.5q0 -27 5 -98.5t5 -100.5q0 -106 -41 -174
q-53 -63 -74 -90q-35 -47 -53 -109.5t-18 -169.5q0 -106 -9 -159q-12 -59 -22 -119q0 -25 4 -51.5t14 -42t22.5 -33t20.5 -42t10 -28.5h-9q-37 0 -79 27q-18 12 -26 4q-27 68 -36 111t-9 90q0 31 2 59.5t4 58.5q0 47 -6 78t-23 80q-37 -47 -55 -72q-59 -74 -86 -94
q-33 -33 -55 -51q-45 -37 -111 -37l33 121q4 6 21.5 8t20.5 5t17 1t17 0q12 20 32 41q72 68 78 76q25 29 39 62.5t27 74.5q-25 14 -46.5 41t-54.5 35q-49 14 -303 41q-113 12 -188 31q-2 1 -4 1q-23 -1 -71 -57q-52 -62 -62.5 -71.5t-57.5 -36.5q-31 -18 -33 -31
q-1 -6 -1 -12q0 -31 24 -72q23 -41 72 -100q20 -25 38.5 -61.5t34.5 -79.5q6 -16 7 -31q0 -31 -33 -71t-35 -57.5t-12.5 -28.5t-26.5 -19l-33 110q0 35 11 35q6 -2 12 -1t6 26q0 100 -86 200q-123 143 -129 156l106 96l-20 74l-107 -33q-127 -115 -155.5 -262t-55.5 -305
l15 -21q18 -25 36.5 -38t55.5 -50q10 -10 31 -30q-35 0 -96.5 12t-75.5 33q-6 16 -10.5 25.5t-16.5 41t-12 58.5q0 23 14 196q8 100 8 215q12 37 97 131q35 39 34 56q0 49 -13 107.5t-32 119.5q-49 -74 -80 -111q-93 -112 -158 -112h-1q-16 0 -29.5 7t-32.5 24z" />
    <glyph glyph-name="I" unicode="I" horiz-adv-x="983" 
d="M41 369q0 14 27 59q12 23 16 43l10 51q0 70 9.5 121t46.5 102q18 25 32 41q25 25 53.5 39.5t85 27.5t73 20.5t24.5 13.5q20 18 28 24l31 23q14 27 22.5 35t40 28.5t47 42t31 52t15.5 51.5v45t4 51l37 252q4 14 8 29q0 20 -33 28q10 12 17 17l18 8l16 4l11 6
q2 2 -8.5 11.5t-10.5 13.5q-2 4 9.5 8t13.5 4l30 -25q6 0 35 13q8 4 20.5 0t24.5 -9l72 -8q16 -2 28.5 -3t24.5 -9q4 -2 13 -8v-10q-6 -4 -8.5 -4.5t-6.5 -2.5l10 -6q-4 -4 -4 -6q-6 -10 -17 -14t-19 -8q-27 -14 -63 -22.5t-41 -11.5t-21 -24q-8 -10 -14.5 -17t-6.5 -11
v-93.5t2 -83.5v-106q0 -18 10 -86q4 -27 4 -47q0 -12 -5 -37t-36.5 -72t-31.5 -73q0 -12 10 -27.5t14 -24.5q16 -29 17 -59q0 -31 -13 -55q-35 -68 -36 -92l-25 -123q-4 -20 -8 -51t-4 -50q0 -59 -6.5 -120.5t-6.5 -98.5q0 -39 4.5 -56.5t36.5 -94.5q14 -12 19.5 -22.5
t3.5 -16.5t-7 -10.5t-14 -6.5l-41 11q-4 2 -2 13t2 15q-8 39 -15 58.5t-13 40.5l-4 8v10q2 53 4 109q-6 0 -13 2q-12 -2 -12 -9l-4 -90l-2 -28v-19q4 -14 9 -34.5t28 -39.5q4 -4 4 -10v-14q-2 -6 -14 -6q-20 4 -27 6q-4 2 -6 5t-1 7t-2 10.5t-5 12.5l-15 32v68l-2 20l2 11
l4 14l7 64q2 14 2 44.5v49.5v39q0 25 9 100.5t9 120.5q-45 -27 -89 -38t-101 -11h-31q-25 4 -35 4q-20 -55 -55 -98q-88 -111 -92 -120.5t-4 -29.5q0 -8 2 -32.5t2 -39.5v-76.5t6 -60t11 -41t17 -31.5q4 -4 21 -28l18 -27q-8 -4 -14 -10q-4 0 -18 -2q-10 -12 -23 -12l-37 6
q4 29 -14.5 47t-22.5 45l-2 106l-2 146q-6 18 -10 37q0 10 10.5 40.5t10.5 38.5q0 35 -11.5 91.5t-13.5 72.5l-16 -55q-2 -23 -11.5 -51.5t-9.5 -48.5q0 -27 8 -62q-8 0 -16 2q-23 18 -31 29.5t-8 28.5z" />
    <glyph glyph-name="J" unicode="J" horiz-adv-x="1781" 
d="M72 475q6 14 8 34.5t4 29t21.5 81t27.5 119.5q10 86 19.5 146.5t35.5 99.5q88 129 304 129q18 0 126 -27q49 -12 82 -12q135 0 224.5 -3t130.5 -15q8 -2 38.5 -14.5t39.5 -12.5q53 0 86 57q23 55 47 111q16 14 34 31q-2 10 -4 20.5t-12 24.5q-18 25 -35 49l-4 37
q23 -4 27 3t2 16.5t0 15.5q6 0 14 -4.5t17 -8.5q6 -20 23.5 -40.5t33.5 -38.5q8 -2 18.5 -2.5t14.5 4.5q4 4 3 12t-3 18q-25 102 -47 207q-51 111 -215 164h-11q129 -12 222.5 -93t93.5 -186q0 -33 10 -57t31 -47q111 -76 223 -149q14 -14 8 -27q-2 -14 -2 -27l-14 -6
q6 -4 12 -7t8 -5q-20 -8 -37 -8q-18 0 -71.5 6t-83.5 6q-27 0 -41.5 -3t-28.5 -16q-41 -37 -43 -38q-33 -10 -49.5 -16.5t-24.5 -28.5q-27 -78 -55 -142q-35 -76 -74 -127q-74 -70 -105.5 -109.5t-31.5 -86.5q0 -43 2 -137.5t2 -145.5q2 -29 4 -49.5t10.5 -54t11.5 -49
t10 -26.5t24.5 -30.5t56.5 -46.5l-70 8q-20 8 -22 20.5t-8.5 20.5t-16.5 6t-16 13.5t-11.5 57.5t-9.5 95l-28 170q-4 -29 -7.5 -49t-11.5 -47q-27 -94 -34 -125t-7 -59l6 -7l-8 -14q-2 -10 1 -22.5t3 -18.5q6 -16 24.5 -35.5t37.5 -38.5q-47 6 -94 13q0 8 5 18t5 14
q0 6 -11.5 16.5t-11.5 16.5q0 41 29 176q14 68 14 115q0 39 -4 150.5t-4 130.5q-55 0 -115 -7q-141 -14 -163 -14q-88 0 -187 39q-27 -41 -51 -82q-14 -16 -34.5 -32.5t-27.5 -24.5q-12 -23 -16 -49.5t-4 -59.5l6 -51q12 -31 27 -59q12 -45 27.5 -82t35.5 -66l39 -35l25 -28
l41 -31q-6 0 -32 -6t-26 -12q-8 4 -15 25.5t-17 31.5q-18 4 -27 8q-8 10 -12 14q-16 20 -35 63.5t-35 84.5q-2 6 -47 86q-31 55 -31 86q14 27 19 41q2 12 0 20.5t-4 10.5l-78 -58q-51 -43 -51 -76q0 -23 -2.5 -78t-2.5 -57v-41t6.5 -45.5t12.5 -52.5q8 -18 30.5 -34.5
t49.5 -26.5q-4 -2 -3 -13.5t-8.5 -19.5t-13.5 -8q-12 4 -43 4q-6 0 -8 14t-4 16q-10 18 -16 25l-31 41q0 23 -5 45.5t-7.5 70.5t-2.5 72q0 33 -4 65t-8 77q0 29 66.5 91t66.5 95q0 59 -18 125q-10 33 -21 66q-4 -8 -6 -13q-12 -20 -15 -31.5t-3 -29.5q0 -20 -2 -29
q-25 -98 -70 -178q-10 -18 -18 -37z" />
    <glyph glyph-name="K" unicode="K" horiz-adv-x="1744" 
d="M84 84q23 6 61 6q41 0 87.5 -4t86.5 -6h259q180 0 249 22q115 37 191 164q25 43 24 99v88q0 106 5 127q14 29 27 81t69 130q141 199 157 235q53 125 76 186q43 121 43 187q2 20 -11 50t-11 46l12 29q23 31 49 22l4 -6l39 -59q16 20 25 30q29 33 49 50q6 6 17.5 7t23.5 3
l14 -17q-6 -25 -32.5 -59.5t-32.5 -46.5q6 -10 12 -22.5t12 -22.5l35 -51q12 -16 25.5 -36t13.5 -36q0 -8 -6 -18q-12 -18 -47 -19q-27 2 -39 2q-23 0 -33 -8q-31 -18 -33 -33q-27 -84 -36 -119.5t-9 -62.5q0 -20 4 -34.5t23.5 -27t21.5 -14.5q29 -43 60 -86q26 -47 26 -116
v-5q0 -121 -67 -252q-12 -25 -76 -129q-39 -68 -67.5 -133t-47.5 -131q45 -18 102.5 -20t84 -9.5t88 -38t80.5 -38.5q-66 -25 -126.5 -35t-125.5 -10q-72 0 -133.5 10t-167.5 35l59 123l10 18q-172 -84 -282.5 -115.5t-225.5 -31.5l-604 47q-24 17 -24 37q0 12 12 18z" />
    <glyph glyph-name="L" unicode="L" horiz-adv-x="1484" 
d="M63 840q0 139 84 199.5t256 60.5q92 0 320 -21q115 -10 190 -10q16 0 45 -4t41 -4q8 0 17 6q23 16 33 57q18 68 31.5 189t13.5 166q4 12 5 25.5t-3 21.5q-27 4 -62 20.5t-49 28.5l19 20q16 8 55 9q29 -6 41 -7q14 0 22 9q47 34 78 34q27 0 47.5 -3t52 -20.5t62.5 -43
t57 -51.5q16 -23 17 -49q0 -10 -2 -13.5t-4 -5.5q0 -23 -52 -35q-45 -10 -73 -10h-9q-14 0 -30 -66q-4 -14 -29 -143q-14 -78 -23 -117q-18 -68 -22 -88q-20 -88 -41 -176q-27 -96 -72 -129q-2 -2 -67 -35q-20 -10 -33 -22q-29 -31 -37 -68t-8 -88v-51q0 -43 -2 -64.5
t-12 -48.5q-16 -35 -22.5 -55t-6.5 -53q0 -31 10 -74t27 -90q4 -10 27.5 -27.5t19.5 -31.5l-8 -21l-54 16q-14 -4 -28 -20q-4 -4 -11 -14q-12 0 -28 14q-16 18 -21.5 23.5t-13.5 5.5t-12 12t0 33q-4 16 -4 26q-10 72 -11 142q0 113 -4 244.5t-10 168.5q-33 -8 -59.5 -12
t-53.5 -4q-70 0 -204 72q-10 -41 -45 -133q-66 -174 -66 -218q0 -76 41 -174q12 -31 51 -112q20 -18 31 -31l35 -43l-45 2q-10 14 -15 14q-4 -14 -3 -19t-1 -7l-4 -4q-20 37 -33 57q-49 84 -61 110.5t-47 112.5q-10 25 -27 68l-8 -6l2 -70q0 -41 1 -79t5 -59.5t13 -50
t8 -40.5q16 -14 16 -19q8 -14 0 -24l-14 2q-16 8 -31 14l-6 -16l-19 -2q-6 16 -6 24l-4 23q0 31 -4 58.5t-6 43.5q-12 86 -29 176q-6 33 -18 84q4 53 43 133q16 35 12 45q-14 43 -47 88q-59 82 -66 91q-18 35 -20 38q-23 49 -23 95z" />
    <glyph glyph-name="M" unicode="M" horiz-adv-x="942" 
d="M12 958q0 57 40 165t106 196q10 12 52 23.5t50 23.5q55 98 111 197q39 45 114 45q14 0 32 -1t32 -8.5t33.5 -28t38.5 -40.5q35 -35 49 -51q31 -35 37 -62q2 -12 -8.5 -51t-10.5 -45q0 -14 9.5 -17.5t19.5 -5.5q12 -6 33 -26q4 -4 13 -37t15 -37q78 -51 107 -84
q43 -49 43 -110q0 -53 -41 -82t-131 -29q-6 0 -8.5 -18.5t-4.5 -20.5q-29 -23 -53 -70q-35 -76 -69 -149q-4 -6 3 -9t25.5 -8.5t36.5 -15.5q37 -23 37 -86q2 -16 2 -41q0 -47 -17.5 -101.5t-17.5 -90.5q0 -78 -45 -129q-29 -31 -90 -62q16 -10 30.5 -17t22.5 -9q14 2 29 6
q23 -6 33 -15q12 -14 17 -21t5 -18q0 -20 -7 -29t-17 -9q-25 -6 -42.5 -1t-66.5 27q2 -12 6 -26q0 -8 2 -17q-14 0 -44.5 15.5t-51.5 37.5q-8 10 -29 23q-31 20 -30 31l6 43q0 18 19.5 55t19.5 49l41 78l-9 10l-77 80h-33q-12 -49 -55 -117q-35 -57 -35 -100q0 -16 -2 -49
t-2 -45q0 -27 8 -42.5t34.5 -35t30.5 -21.5q20 -14 31 -36q-2 -8 -2 -17q-18 8 -35 15q-4 -4 -7 -19.5l-6 -31t-21.5 -18.5t-43.5 -3q-35 0 -65.5 39t-54.5 106q-4 8 8 23.5t10 21.5q-66 113 -66 256q0 10 -17 62.5t-17 66.5q0 61 39 142q113 236 129 297q-35 4 -67 4h-46
h-33q-53 0 -67.5 11t-14.5 64z" />
    <glyph glyph-name="N" unicode="N" horiz-adv-x="2912" 
d="M10 1061q29 0 129 -29q16 -4 49 -14q125 0 232 76q92 72 184 145q119 78 266 78q66 0 151 -32t140 -32q111 0 266 13q324 26 403 26h5q41 0 81 -2t77 -8q82 -14 295 -125q90 -47 147 -47q23 0 78 25q29 12 49 12q39 6 61 6q18 0 32 -4t28 -21.5t36.5 -51.5t35.5 -60
q14 -47 90 -144q31 -39 30 -65q0 -61 -75 -62q-49 0 -99 25q-57 20 -114 35q-20 4 -56 12h-6q-29 0 -65 -31q-25 -20 -50 -41q-72 -41 -108.5 -63.5t-58.5 -50.5q-10 -14 -21.5 -64.5t-32.5 -64.5q-82 -59 -127 -154q-37 -76 -37 -127q-2 -31 -2 -45q0 -27 15 -31
q27 -12 42 -30.5t29 -51.5q-57 -14 -81 -14q-14 0 -37 10.5t-58 10.5q8 16 9 34q0 12 -6.5 39t-6.5 41q0 39 -5 71t-30 112l-26 43q-14 -27 -23.5 -43.5t-13.5 -28.5q-18 -74 -19 -137q14 -10 21 -17q23 -20 29 -34.5t10 -36t6 -39.5q-27 -10 -61 -11q-16 0 -36 4.5t-40 8.5
v80q0 104 -15.5 169.5t-60.5 104.5q-47 10 -156 19q-319 23 -379 30q-29 4 -53 -2q-84 -18 -92 -18v-127q0 -92 17.5 -156.5t89.5 -208.5q-45 0 -78 7.5t-60 29.5q0 55 -41 135q-39 70 -75 142q-8 20 -13.5 67t-13.5 80q-29 -41 -44 -102.5t-15 -137.5q0 -68 11 -136
t32 -120q-41 0 -78 14.5t-80 18.5q27 33 27 78q0 39 -37 129t-37 143q0 12 31.5 91t31.5 118q0 115 -61 262q-78 188 -94 265q-70 -25 -148 -49.5t-137 -24.5q-55 0 -101 15.5t-100 54.5z" />
    <glyph glyph-name="O" unicode="O" horiz-adv-x="2764" 
d="M66 -29q14 -6 46.5 -12t44 -10t34 -28.5t38.5 -24.5q18 4 19 36q0 16 -6 35q-8 12 -17 25v39t8 84q2 31 3.5 51t13.5 33q55 61 213 84q20 -117 51 -203q6 -18 12 -36.5t17 -29.5q16 -6 34.5 -13t47.5 -7q20 0 69 12t51 12l-40 39q-16 12 -42 24.5t-37.5 25t-14.5 53.5
t-3 104v10q6 -2 18.5 12.5t47.5 23.5t52 18.5t50 36t41 26.5q43 0 135 -24q129 -35 176 -41q195 -25 390 -47q49 -12 124 -50q92 -45 107 -49q47 -14 242 -43q70 -10 120 -33q14 -6 29 -20q51 -49 53 -51q6 6 4 19.5t-6 27.5q-4 10 -6 17t6 7t18.5 -9t22.5 -17l29 -17l12 17
q-6 8 -8 12q-10 14 -10 19l35 12q6 -2 19 -5t20 3q12 14 -13 41q-31 33 -93 67.5t-124 57.5q-23 8 -43 18q-66 33 -80 37q-53 12 -79.5 19.5t-41.5 19.5q27 6 68 26.5t70.5 25.5t64.5 5t135 -14q57 -8 86 -8q35 0 76 6q88 8 147.5 12t98.5 33q25 29 36 43t15 20
q16 23 20.5 48.5t4.5 62.5q0 10 -2 13t-4 5q-18 0 -41 -3t-25 -3q-86 8 -153.5 36t-122.5 75q-16 25 -27 33l-29 22q-6 12 -6 21q0 2 10 34q4 12 4 31q6 25 7 43q0 27 -12.5 47.5t-53.5 46.5q-14 -27 -63 -69q-34 -29 -50 -29q-133 0 -292.5 65.5t-221.5 65.5q-68 0 -177 5
t-132 5q-55 0 -174 -8t-182 -8q-20 0 -154 -25q-88 -16 -174 -32q-45 -6 -88 -13q-35 -8 -61.5 -27.5t-69.5 -78.5q-29 -39 -39 -49l-29 -31q-8 -6 -25.5 -6t-27.5 -2q-20 -6 -20 18q0 12 6 23.5t19.5 22t27.5 20.5q4 4 0 9t-19 5q-14 0 -33.5 -21.5t-25.5 -43.5l-4 -37
q2 -8 11 -15.5t23.5 -11.5t22.5 -4q20 0 31.5 3t40.5 15q18 16 39 33l-6 -164q0 -61 -7.5 -109t-29.5 -85q6 -8 12 -17q-78 -61 -119 -94q-80 -63 -101 -111.5t-36.5 -122t-27.5 -145.5z" />
    <glyph glyph-name="P" unicode="P" horiz-adv-x="1081" 
d="M78 489l12 70l12 41q16 59 27 94q23 70 51 131q20 43 51 88q41 59 84 121q29 49 47.5 93t21.5 69t3 51q0 31 -2 58.5t-4 56.5q0 29 6 58.5t43 58.5q20 16 41 26q30 17 57 17q23 0 41.5 -6.5t36 -12.5t41 -8t58.5 -2q43 0 75.5 4t57.5 8v-17t-2 -11q-33 -18 -67 -39
t-41 -36.5t-21.5 -29.5t-16.5 -18q-10 -20 -10 -45q2 -23 2 -37q6 -61 57 -117q78 -84 107 -133l80 -123q55 -88 76.5 -169t21.5 -210q0 -16 -4 -28.5t-4 -24.5q0 -33 -8 -64.5t-27 -31.5q-29 0 -29 10q0 16 9.5 47t11.5 41q4 25 -2 51.5t-8 38.5q-8 31 -29 72
q-27 45 -35 61q-14 -14 -27 -28q6 -68 10.5 -120t4.5 -104q0 -78 -9.5 -129t-34 -96t-48.5 -63q-14 -10 -15 -39q0 -35 27 -32q6 1 12 1q23 0 55 -10q40 -12 47 -30.5t7 -29.5q0 -8 -13 -12q-10 6 -16 8q-20 8 -33 2q-12 -8 -22 -29.5t-13 -23.5q-12 -8 -23 1t-20 17
q-12 4 -24 7.5t-19 1.5q-18 -16 -34 -33q-10 0 -24.5 4t-10.5 18q4 25 9 37.5t15 22.5q6 6 0 26.5t-9 27.5t-3 13q-18 0 -35.5 -1t-34.5 -1q-29 0 -62.5 10.5t-55.5 22.5q-8 4 -21 4q-33 0 -52 -8t-25.5 -24.5t1.5 -30.5q23 -23 46 -45q12 -12 18 -35q0 -12 -8 -18.5
t-19 -6.5q-6 0 -20 10.5t-23 10.5q-12 0 -35.5 -19.5t-31.5 -19.5q-12 0 -27.5 21.5t-26 24.5t-26.5 3q-12 0 -22.5 -1t-18.5 -3q-4 6 -4 8q-6 14 -6 23q0 14 14 22q39 16 55 25q33 14 37 24q0 12 -2 28.5t-14 41.5q-27 47 -51.5 116.5t-24.5 110.5q0 31 14 80
q45 160 46 165t7.5 21.5t4.5 22.5q-12 23 -13 31q-8 -6 -12 -11q-31 -25 -43 -43l-35 -45q-16 -29 -31.5 -54t-31.5 -48q-12 -12 -22.5 -16t-18.5 -7z" />
    <glyph glyph-name="Q" unicode="Q" horiz-adv-x="2498" 
d="M94 684l187 -6q96 0 251 65q244 102 308 123q211 66 446 66q133 0 252 -27.5t291 -128.5q8 -4 22.5 -2t22.5 -2q-39 82 -59 141q-29 84 -29 156q0 104 75.5 220t161.5 116q59 0 117 -44t86 -101q8 -33 17 -56q16 -45 51 -71q12 -10 27.5 -28t29.5 -34q29 -29 45.5 -51.5
t22.5 -38.5q-39 4 -63.5 7t-43.5 22q-37 35 -85 56t-95 21q-31 0 -89 -10t-75 -16q-16 -6 2 -39q2 -4 10 -16q127 -98 195 -206t68 -194q0 -236 -228 -379q-176 -111 -475 -159q-201 -33 -414 -33q-100 0 -206 41q-129 49 -318 184q-35 25 -129 125q-70 74 -125 86t-115 39
q-94 41 -122 86h-9z" />
    <glyph glyph-name="R" unicode="R" horiz-adv-x="3389" 
d="M47 244q-6 5 -6 12q1 10 13 26q20 26 102 109q45 47 123.5 107.5t140.5 91.5q27 14 44 18t58 4t104.5 -2t84.5 -2q72 0 108.5 10.5t63.5 43.5q18 23 31.5 72.5t27.5 105.5q6 20 32.5 80.5t41.5 97.5q-20 6 -33 10q-39 16 -63 41l8 8q12 29 31.5 52.5t35.5 25.5
q43 0 66 -29q14 -33 29 -63q6 0 102 44t133 44q240 0 471 -92q119 -47 340 -174q168 -96 229 -97q29 0 117 156q-96 39 -193.5 123t-142.5 174q-10 18 -10 39q0 12 5 35.5t5 32.5q0 8 -4 28q18 4 47 -25.5t43 -23.5q14 4 14.5 39t10.5 47q43 -33 86 -65q66 -53 111 -111
q14 -18 57 -104q35 -70 72.5 -92.5t100 -35t93.5 -30.5q76 -45 145 -146q61 -88 62 -120q0 -115 -111 -131q-170 -25 -211 -54q-23 -25 -36 -84q-4 -14 -25 -137q180 -23 301 -41q227 -35 428 -106q0 -12 -20 -29q-51 -43 -52 -51q0 -18 22.5 -30.5t27.5 -20.5
q6 -10 0.5 -33t-7.5 -37q-129 0 -254 43q-121 49 -239 98q-115 0 -232 31q-45 12 -348 127q-8 2 -14 18.5t-16 20.5q-70 27 -153 36t-179 9h-49q-72 0 -160 49q-190 106 -230 107q-47 0 -94 -27q-154 -88 -155 -88q-35 -10 -73 -14.5t-77 -4.5q-41 0 -84 2.5t-84 4.5
q-90 0 -155 -25q-82 -33 -134 -84q-33 -35 -65 -68q-59 -59 -100 -88q-76 -53 -138 -53q-18 0 -34.5 1t-36 14.5t-19.5 25.5q0 16 39 43q59 39 72 51q66 61 152.5 158.5t121.5 144.5l-276 -168q-49 -29 -97 -57q-61 -33 -100 -33q-27 0 -43 15z" />
    <glyph glyph-name="S" unicode="S" horiz-adv-x="2693" 
d="M12 123q51 0 221 18q94 10 150 11q27 0 54.5 -1t49.5 -12q6 -14 15 -26l264 -84q37 -12 84 -37t63 -25q12 -6 16.5 -6t2.5 6q-2 2 -18.5 13.5t-20.5 15.5t2 14l61 -41q6 -2 11.5 -2t3.5 6q-8 8 -12.5 13.5t-6.5 9.5q4 2 27 -12q6 -4 22 -15l19 6q-8 10 -18.5 19.5
t-18.5 19.5l70 -37l16 7q-18 12 -35.5 24t-34.5 25q6 2 58.5 -20.5t54.5 -22.5l31 12l-64 39q6 4 37 -4q10 -2 36 -9.5t54.5 -9.5t53.5 -2q80 0 152.5 8.5t178.5 24.5q2 -6 2 -22t-6 -39v-21q4 -20 2 -30q-12 -23 -14 -35q10 -18 10 -27q-2 -16 -4 -27.5t-7 -14.5t-7 -5
q0 -39 4 -49q100 23 184 73t137 128q27 41 43 98q10 39 21 112q8 0 43 -8t57 -8q37 0 53 21q53 63 152 94q33 8 88 16q-39 12 -78 27q-37 -6 -76 -6q-55 0 -98 14q55 88 146 344q72 203 165 291q18 16 71.5 23.5t66 10.5t30 7t25.5 8t12 20q-8 0 -14 3q-31 -4 -49 -5
q-27 0 -39 6.5t-14 20.5q31 10 63 21q51 18 74 45q12 12 12 36q0 10 -4 18.5t-10 6.5q-39 -4 -60 -4q-14 0 -22 2q-35 6 -87.5 18.5t-78.5 12.5q-131 0 -229.5 -75t-153.5 -212q-12 -31 -133 -89t-148 -85q-100 -104 -199.5 -159.5t-260.5 -92.5q-240 -45 -480 -88
q-51 -14 -121 -47q-111 -51 -219 -101q-47 -25 -92 -49q-104 -23 -178 -47q-96 -37 -158 -57z" />
    <glyph glyph-name="T" unicode="T" horiz-adv-x="2396" 
d="M31 606l24 -8q150 -49 252 -49q0 12 -42 36.5t-38 37.5q25 12 49 26q0 29 23 53q37 41 45 56q100 160 133 203q95 125 191 184q78 47 177 60.5t210 13.5q291 0 467 -205q84 -100 168 -199q33 -31 79 -53q20 -10 103 -37l-55 -86q55 20 153 74q147 80 246 80q40 -1 98 -49
q51 -43 52 -80q0 -5 -1 -9q-12 -82 -94 -129q-2 -2 -321 -98q-74 -23 -107 -35q-70 -25 -92 -43q31 -6 46 -12t48 -17.5t76 -21.5q10 -2 60.5 -10t105.5 -37q-6 -4 -19.5 -7t-15.5 -8.5t0 -22.5t-6 -17q-18 0 -35 2q-10 -2 -13 -15.5t-5 -21.5q-23 -2 -43 -4
q-2 -4 -8.5 -23.5t-14.5 -28.5q-31 25 -61 50q-53 29 -137 91t-105 70q-12 6 -44 0t-42 -6q-18 -49 -27.5 -78.5t-9.5 -48.5q0 -20 10 -28q18 -16 54 -35q25 -12 24 -23q0 -6 -12 -12q-2 0 -6 -2q14 -12 14 -16l-20 -9l8 -20l-25 -8l15 -23q-31 -8 -50 -10q-55 -10 -86 -10
q-61 0 -110 20.5t-49 65.5q0 35 15 92t34 121q-78 4 -172 8t-172 4q-16 0 -30.5 -4t-27.5 -8q-12 6 -16 4t-4 -6q6 -23 11 -41.5t10.5 -49t9.5 -37.5t52 -13.5t54 -10.5l-8 -20q2 -6 9 -10.5t7 -6.5q-18 -6 -20 -8q4 -18 0 -27q-2 -6 -14.5 -6t-16.5 -4q-2 -12 -2 -22
q-18 -6 -33.5 -11.5t-50.5 -5.5q-55 0 -102 9.5t-64 29.5q-18 41 -31.5 115t-25.5 149q-4 4 -19.5 4h-23.5q-16 0 -21 5q-70 -121 -109.5 -164t-76.5 -54q-2 0 -12 -8q-2 -2 -10 -6l-15 14q-14 -2 -26 -2q-6 20 -13 25q-23 4 -28 10q2 18 0 25q-10 10 -19 20q6 20 4 31
l-2 31q0 61 35 92q25 23 88 39q6 6 14.5 23.5t16.5 27.5q-35 14 -51 21q-53 23 -54 28q-104 18 -157 33q-160 43 -170 96z" />
    <glyph glyph-name="U" unicode="U" horiz-adv-x="2836" 
d="M27 477v5q0 17 10 40q12 27 12 33q-2 10 -2 31q0 96 88 221q33 45 103 131q127 156 172 205q98 109 176 164q96 68 202 90q66 14 150 14q55 0 163.5 -8t155.5 -8q53 4 226 63q78 27 123 27q12 0 36 -4q125 -23 201 -58q115 -51 242 -161q25 -20 70 -71.5t61 -60.5
q2 4 5 11.5t10 13.5t14.5 6h13.5t20 -26q6 -10 15 -21q14 29 23.5 49.5t23.5 20.5q12 0 32.5 -16.5t37 -28t23.5 -29.5t11 -45q2 -8 0 -21.5t-4 -29.5v-37t6.5 -39t49.5 -68q23 -25 32 -47q4 -12 4 -22q-2 -31 -2 -62q14 -61 60 -116q23 -29 80 -78q8 8 25.5 51t29.5 63
q10 12 27 13q10 0 19 -9.5t15 -34t12.5 -48t6.5 -58.5q0 -61 -19 -127q-20 -33 -39 -65v-8q0 -26 10 -68q12 -49 11 -92v-29q-2 -12 -2 -18q-6 -41 -41 -60q-10 -8 -17.5 -10t-11.5 -4q-33 53 -106 98q-59 37 -123 56q6 -51 12 -78q20 -82 57 -94q-16 -14 -53 -15
q-35 0 -45 17q-94 115 -186 229q-80 92 -133 106q-14 4 -51 -14t-48 -18q-6 0 -3 15t-1 20.5t-12 27t-14 27.5q-39 23 -52 33q-20 18 -34 61v27q-20 -14 -31 -21q-23 -14 -39 -8q-8 -25 -78 -174q-35 -76 -35 -137q0 -27 7.5 -36t70.5 -59q37 -30 37 -64v-7q0 -12 -44 -12.5
t-48 -12.5t5 -47t9 -43q0 -16 -10 -18q-14 -4 -51 1t-43 5q-12 0 -47 -12.5t-54 -12.5q-18 0 -32 8q-27 14 -33 48q-6 55 -10 108q-27 98 -72 221q-16 45 -47 121q-23 -12 -66 -33.5t-79.5 -29t-69.5 -7.5q-49 0 -85 8.5t-97 28.5q-10 6 -19.5 4t-7.5 -16q4 -33 4 -45
q-2 -35 -2 -51q-2 -20 -2 -31q0 -33 16 -86q6 -25 62 -68q27 -20 26 -32q0 -6 -5 -15.5t-16 -16.5t-18 -9q-55 -31 -139 -31q-74 0 -74 31v47q0 37 -3 49t-21 39q-6 12 -23 24q-47 39 -51 43q-24 39 -24 111v6q0 20 2 31q4 16 -25 31q-8 4 -31 10q0 -139 -34 -240
q-18 -53 -19 -86q0 -12 3 -32.5t44 -79.5q18 -27 18 -41q0 -12 -16 -23q-45 -33 -52 -38t-48 -5q-39 0 -105 45q-20 14 -59 47q0 27 10.5 39t12.5 33v53q0 47 -10.5 73t-14.5 47.5t-4 41.5q0 14 1 27.5t9 50.5q4 18 -15.5 54t-19.5 52q0 43 -63 238q-33 100 -33 178
q-37 -37 -55 -61q-55 -76 -56 -146q0 -29 5 -43q10 -10 23 -24.5t22 -24.5q61 -86 123 -172q-23 -10 -37 -14q-45 -14 -80 -15q-27 0 -43.5 10.5t-26.5 34.5q-16 39 -20 45q-16 20 -25 31q-16 23 -20 43z" />
    <glyph glyph-name="V" unicode="V" horiz-adv-x="3096" 
d="M53 455q0 119 84 207q8 8 135 104q98 78 164 210t160 204q109 80 224.5 124t211.5 44q90 0 217 -15q289 -33 338 -33q86 0 148 21q16 4 34 4q45 0 109 -10q166 -27 170 -27q94 0 229.5 44t264.5 89q10 2 73 88q23 30 44 30q4 0 7 -1q18 -6 39 -80t39 -82q68 -29 135 -139
q91 -144 97 -152q12 -14 59 -36q29 -14 27 -41q0 -23 -17 -39q-4 -4 -18 -13q-55 23 -109 45q-86 33 -118 33q-25 0 -27 -14v-5q0 -28 41 -48q115 -57 119 -72q6 -16 -32 -30.5t-44 -26.5q-49 16 -96 43q-33 18 -82 57q-109 -92 -162 -129q-123 -84 -203 -84
q-25 0 -62.5 -67.5t-37.5 -92.5q0 -35 188 -221q143 -143 183 -184q20 -23 133 -66q75 -28 75 -59q0 -5 -2 -10q-8 -18 -26 -31q-4 -4 -36 -20.5t-42 -20.5t-25 2q-94 51 -223 158q-106 88 -213 178q-131 102 -250 160q-18 8 -18 45q0 20 6 56t4 44q-59 -6 -119 -10
q-61 -10 -88 -49q-131 -201 -143 -222q-88 -139 -117 -254q47 -14 87 -35.5t52 -50.5q10 -20 -14 -30.5t-63 -10.5q-49 0 -93.5 10.5t-50.5 24.5q-23 45 -36 81t-13 61q0 29 10 49q20 37 33 61q47 90 70 178q10 39 47 118t47 114q-76 -8 -141 -8q-76 0 -127 14
q-117 33 -144 33q-25 -57 -153 -248q-43 -63 -43 -103q0 -8 4 -24q37 -106 61 -141q37 -51 107 -66q45 -12 82 -27.5t77 -46.5q10 -8 11 -22q0 -12 -4 -22.5t-9 -18.5q-12 0 -48 -3t-44 -3q-37 0 -69.5 7t-67.5 30q-76 53 -142.5 136t-131.5 167q-6 6 -7 18
q25 80 45.5 151.5t20.5 131.5q0 39 -4 59q-14 -4 -49 -10t-41 0q-184 -113 -369 -223q-207 -147 -207 -289q0 -12 31 -27.5t37 -32.5q2 -6 2 -12q0 -22 -40 -22h-3q-37 0 -83 18.5t-55.5 35.5t-9.5 32q0 27 17 63q4 12 17.5 29.5t23.5 50.5q20 76 43 152q-14 6 -27 14
q-80 8 -84 31z" />
    <glyph glyph-name="W" unicode="W" horiz-adv-x="3020" 
d="M55 649q25 -4 66 -4q66 0 106 21q35 25 72 49q127 -25 205 -37q242 -41 387 -57q10 -2 27 -19q4 -4 14 -16q4 0 24.5 12t34.5 12q35 0 188.5 -12t247.5 -12q141 0 560 49q201 24 332 24h10q8 0 76.5 15.5t99.5 23.5q121 25 190 37q123 25 203 56q29 20 43 26
q0 10 -1 19.5t-14.5 12.5t-17.5 3q-6 0 -20.5 -6t-36.5 -6q-39 -4 -121 -20.5t-107 -16.5v16q14 18 29 37q16 6 48 8t55.5 6t100.5 11.5t103 13.5q-2 27 -4 53q-115 100 -387 162q-215 49 -366 49q-51 -2 -102.5 -4t-127.5 -12q-311 -41 -710 -109q-264 -45 -648 -116
q-141 -29 -282 -56q-78 70 -92.5 80t-157.5 33q37 -59 53 -84q29 -45 29 -98q0 -20 -35 -69.5t-74 -74.5z" />
    <glyph glyph-name="X" unicode="X" horiz-adv-x="1101" 
d="M100 -55l6 248q0 33 -1 66.5t-1 70.5q0 51 2.5 77.5t14.5 73.5q31 121 31 238q0 129 -33 248q-6 20 -10 41v26q0 74 59 170q80 129 92 164q4 8 4 25.5t2 29.5q0 18 -1 39t-1 41q0 25 3 46.5t30 58.5q74 100 77 110.5t12 13.5t11 5q54 -23 107 -43q72 0 141 -31
q109 -49 219 -96q-2 -6 -4 -20.5t-6 -18.5q-25 -27 -115 -84q-71 -44 -71 -71q0 -7 11 -21.5t87 -65.5q66 -45 86 -78q149 -238 149 -580q0 -46 -4 -57l-32 -28l-17 -4v16q-16 -25 -26 -23l4 11l-31 -6q12 8 12 12q2 4 -3 8t-7 6q-18 -8 -27 -6q10 2 7 11.5t-17 29.5
q6 37 6 53q0 8 -10 45q-23 31 -33 47q-2 -6 -20.5 -35.5t-18.5 -60.5q-2 -8 -7 -32.5t-5 -36.5q0 -33 13.5 -78t43.5 -123q8 -23 9 -51q0 -35 -15 -86q-32 -116 -32 -135q0 -13 4 -28.5t16 -27.5l41 -41q-33 -6 -58.5 -12t-35.5 -6q-53 0 -82 11t-49 44q-31 72 -60 145
q-47 88 -129 117q-43 -72 -86 -143q-57 -104 -57 -156q0 -29 37 -53q8 -6 10 -15.5t6 -21.5q-18 -2 -53 -4t-49 -2h-25q-16 4 -33.5 5t-52.5 13q-12 4 -35 15z" />
    <glyph glyph-name="Y" unicode="Y" horiz-adv-x="1269" 
d="M100 31q20 -8 43 -15q27 -2 39 -2q25 0 41 9q61 47 123 94q33 12 71 19t62 7q35 0 52.5 -9t23.5 -48q0 -6 6 -66q18 0 50 2.5t44 2.5q31 0 58.5 -7.5t101.5 -7.5h52.5t58.5 2q16 -8 30 -8q-12 10 -16 22.5t-9 29t-21.5 21.5t-32.5 5q-18 0 -48 -6t-59 -10q-12 0 -24.5 5
t-19.5 18t-13 28l-37 37q-6 10 -6 43q72 63 108 100q117 113 140 166q47 109 59 147.5t12 87.5v74q2 20 2 31q0 53 -18 121q-27 84 -41 133q33 -23 74 -52.5t66.5 -52t45.5 -47.5q35 -41 39 -45l29 -6q-6 27 -10 53q-43 61 -95 148q-61 102 -120 205q-27 39 -39 59
q-25 39 -41.5 79t-36.5 73t-47 53q-23 16 -55.5 25.5t-59.5 9.5q-55 0 -66 -15q-14 12 -18 15l-6 -5l12 -32q-10 -27 -10 -56q0 -27 10 -61.5t28.5 -69.5t88.5 -141q102 -158 102 -242q0 -106 -155.5 -110t-163.5 -31q-12 -6 -21 -10q-27 -14 -49 -29q-33 -23 -60.5 -48.5
t-43.5 -53.5q-6 -10 -72 -88q-51 -59 -70 -119q-43 -137 -43 -221q0 -25 3.5 -51.5t9.5 -61.5q2 -16 -19 -43q-31 -39 -39 -55zM567 145q2 -12 7.5 -25.5t21.5 -25.5q18 -14 37.5 -16t38.5 -4q-20 29 -29 43q-29 43 -29 49q-2 -4 -20 -8q-14 -6 -27 -13z" />
    <glyph glyph-name="Z" unicode="Z" horiz-adv-x="1935" 
d="M33 602q8 0 19 -1t14 1q2 4 -7.5 18.5t-7.5 16.5l33 -4q-8 12 -14 26q18 4 32.5 -1t17.5 -6t23 -1q31 -14 70 -26q12 -4 39 1t37 5q20 -4 33 -4q12 0 22 10q-37 8 -55 12q-57 16 -74 31q2 16 4 33q-6 4 -24.5 2t-22.5 0q-62 49 -62 96q0 6 1 12q8 90 30 125q33 37 66 76
q10 31 14 67.5t4 73.5q0 59 -10 127q0 10 -4 27q53 -102 106 -205q12 -12 27 -12q29 0 59 35q39 43 74 145q4 16 15 45q27 -20 44 -89t19 -73q27 -63 38 -103t11 -65q0 -18 -2 -28q-8 -35 -6 -43q0 -6 151.5 -21.5t200.5 -60.5q8 -8 15 -8q-4 41 -7 82q-25 104 -24 122
q0 231 119 361q126 139 372 139q137 0 299 -100q201 -125 201 -310q0 -47 -10 -74.5t-49 -27.5q-12 0 -28.5 3t-211.5 73q-80 29 -113 29q-10 0 -22 -5q-29 -12 -41 -42.5t-12 -71.5q0 -43 16 -135.5t16 -124.5q0 -12 -4 -33q-33 -233 -65 -467q-55 -182 -182 -238
q-31 -14 -56 -14q-14 0 -20 2q-35 10 -47 10q-12 -2 -27 -24q-20 -33 -23 -35q-8 14 -16 27q-4 18 0 26q-2 -12 -4 -24.5t-8 -23.5t-21 -7v41q0 29 -14 29t-14 -29v-23q0 -20 -13 -24q-16 -6 -20 18q-10 70 -31.5 78t-34 11t-37.5 3t-31.5 -18.5t-13 -53t-13.5 -51
t-28 -16.5q-4 0 -8 31q-4 14 -8 26q-20 -20 -27.5 -28t-17.5 -19l-18 43q-2 -12 -7 -24.5t-12 -12.5l-20 11q0 39 18 80q12 25 45 75q-43 33 -59.5 49.5t-28.5 35t-14 34.5q0 29 -4 33q-18 16 -63.5 36.5t-53.5 30.5q-18 23 -35.5 67t-37 63.5t-60.5 21.5t-63.5 12.5
t-63.5 20.5q-66 16 -76 18q-41 12 -57 25q-27 18 -41 55z" />
    <glyph glyph-name="bracketleft" unicode="[" horiz-adv-x="2160" 
d="M66 825v24.5t2 20.5q35 59 38 68q33 55 68 90q25 25 57 47q19 13 58 33q4 2 22.5 18.5t24.5 16.5q2 -6 6 -13q-2 -37 4 -36q6 0 25.5 7t25.5 9h41q0 -18 -22.5 -38.5t-22.5 -39.5q41 -10 66 -18q76 -25 131 -56q100 -63 203 -124q74 -33 164 -51.5t167 -18.5q59 0 226 41
q82 20 139 20q184 0 274 -100q8 -10 26.5 -19.5t41 -20.5t47.5 -29.5t49.5 -33t49 -28.5t33.5 -41t54 -102q31 -51 31 -97q-72 20 -114 43t-68 60q-14 18 -25 47q-16 43 -33 86q-10 18 -38 39q-4 4 -54 35q-10 -16 -16 -42t-10 -43.5t-14.5 -39t-16.5 -34.5t-8 -36
q-4 -14 -4 -18q-12 -31 -13 -43q0 -10 8.5 -24.5t49.5 -37t57 -38t39 -68.5q12 -31 25 -45q4 -12 10 -23q12 -12 44 -31.5t38 -38.5q2 -4 0 -11t-4 -20.5t-19 -41.5q-6 -8 -28 14q-12 33 -21.5 42t-29 21.5t-29 21.5t-15.5 25.5t-10 24.5q-16 37 -22 53q-12 29 -29 41
q-37 27 -94 43q-35 -53 -68 -104l-18 -57q-12 -35 -23.5 -70t-30.5 -55q-8 -16 -16 -31q-20 -12 -70 -12h-34l16 28q16 6 35 15q23 27 30 64.5t9 48t12 37t10 48.5q0 33 -8 43.5t-32.5 28.5t-39.5 33q-39 39 -75 78q-20 14 -41 20t-25 6q-47 0 -115 -24q-94 -35 -109.5 -37
t-33.5 -3t-27 -1q-33 0 -64.5 2t-62.5 4q-47 0 -78.5 -17.5t-56 -59.5t-34 -86t-9.5 -79v-22l6 -47q-6 -12 -6 -17q6 -16 13 -31q0 -8 -41 -22t-60 -23q-2 23 0 50q12 14 12 20l2 88q0 37 9.5 74t19.5 69q2 12 2 22.5v16.5q-14 -6 -22 -10q-35 -16 -49.5 -25.5t-27.5 -17.5
t-18.5 -24.5t-5.5 -40.5q0 -25 5.5 -69t5.5 -50v-80q0 -16 8 -31q2 -4 10 -10l-86 -31q-2 6 8 44t10 59q0 47 -17 132t-17 99q0 20 52 66.5t52 78.5q0 23 -32.5 56t-39 50t-8.5 44t-2 31q0 29 2 55.5t4 52.5l-14 21q-45 55 -131 135q-39 -14 -64.5 -27.5t-40.5 -27.5
q-27 -37 -41 -56q-29 -37 -86 -49q-8 12 -12 21q-14 27 -18 40t-6 42.5t-2 33.5z" />
    <glyph glyph-name="backslash" unicode="\" horiz-adv-x="1118" 
d="M59 555q4 37 32 69.5t52 32.5q20 0 40 -10l44 -22q41 0 98.5 43t80.5 88q-47 16 -72 30.5t-41 38.5q-12 41 -19 66q-12 49 -34 53q-53 12 -89 63.5t-30 88.5q6 55 14 112q14 33 53 47q12 6 51.5 -3t41.5 -9q29 0 72.5 17.5t64.5 17.5q16 2 43.5 -3t32.5 -5q16 0 24 10
q20 33 68.5 56.5t79.5 23.5t74.5 -25.5t72.5 -58.5q39 -45 39 -100q0 -14 -2 -23l-8 -31q-12 -18 -45 -30q23 -39 63 -88q59 -72 64 -78q63 -92 90.5 -163t27.5 -163q0 -41 -20.5 -102.5t-40.5 -118.5q-8 -25 -8 -74q0 -29 -2 -40t-12.5 -46t-10.5 -47q8 -31 8 -51
q0 -14 -6 -31.5t-10 -32.5q-16 -33 -63 -86q-29 -33 -80 -88q-12 -14 -43 -29.5t-42.5 -24.5t-26.5 -21.5t-30 -12.5q-8 6 -18 12q-18 12 -34.5 27.5t-16.5 32.5q0 14 9 27.5t40 37.5q8 6 31.5 15.5t29.5 13.5q-4 10 -8 19q-12 4 -106 59q-39 23 -76 29q-4 -12 -8 -13
q0 -31 -9.5 -46t-25.5 -15q-53 0 -95 14.5t-55 50.5q43 39 60 56q31 29 30 57q0 8 -10 37t-10 53q0 14 10 94q4 31 4 60q-33 6 -55 14q-88 35 -96 37q-59 10 -119 20q-68 18 -68 68z" />
    <glyph glyph-name="bracketright" unicode="]" horiz-adv-x="2600" 
d="M80 1059q14 8 57.5 23.5t61.5 31.5q74 66 110 86q66 37 148 37q55 0 227 -93t268 -93q104 0 475 -93q182 -45 312 -45l641 125q18 6 28 9q41 10 62 10q41 0 49 -25q4 -12 -4 -36.5t-6 -32.5q4 -12 29.5 -36t17.5 -42q-10 -4 -19.5 -9.5t-9.5 -11.5q-33 -10 -69.5 -14
t-59.5 -10q-68 -23 -173 -34t-191 -11q-23 0 -55.5 2t-39.5 2q-18 0 -64 -29t-71 -35l-108 -26q33 -12 63 -27q55 -25 72 -41q10 -8 17 -23.5t16 -27.5q-18 -6 -51 -8t-39 -2q-49 0 -106.5 8t-82.5 12l-115 -68q-33 -18 -45 -26q-39 -23 -36 -31l24 -12q25 -16 25 -29
q0 -72 -18.5 -143.5t-49.5 -140.5q-4 -10 -6 -36t-2 -40q14 -8 31 -8q10 0 37.5 8t42.5 2v-8q8 -10 2 -15q-2 0 -50.5 -6t-59.5 -14t-16.5 -24.5t-11.5 -39.5q-10 -25 -28.5 -45t-26.5 -30l-25 10q10 6 21.5 20.5t21 31.5t5.5 19t-54 -24q-72 -37 -84 -43q-12 -4 -16 2
t-6 14q25 8 37 13q35 12 57.5 23t19 16.5t-12.5 5.5t-62 -23q-20 -8 -27 -4l-16 6q35 16 59.5 27.5t53 14.5t51 11.5t22.5 28.5q0 63 35 176t35 160q-6 12 -26.5 24.5t-47.5 28.5q-4 -6 -6 -10q-23 -31 -25 -39q-16 -49 -57 -150q-33 -82 -33 -114q0 -10 19 -10q25 2 39 2
h18l10 -5q-4 0 -4 -11t-4 -13h-68q-18 0 -25 -3t-73 -56q-27 -20 -47 -25l-37 -4q12 8 25.5 19.5t25.5 23.5q-4 2 -51 -16.5t-51 -14.5q2 18 -22.5 21.5t-28.5 5.5q6 2 10 4q18 8 27 10h34q14 0 25.5 3t34.5 16q6 2 16 10q-6 2 -10 4q-20 0 -33.5 3t-32.5 19q-8 8 -8 13
q29 0 79 -5.5t54 -5.5q39 0 45.5 20.5t63.5 178.5q23 59 33 127q-57 -16 -111.5 -29.5t-107.5 -13.5h-33q-39 8 -53.5 10t-38.5 2q-25 0 -51.5 -1t-55.5 -1q-129 0 -209 29q-121 43 -184 160q-27 53 -45.5 103t-18.5 102q0 59 -25.5 120.5t-70.5 104.5q-10 10 -54 16t-50 6
q-51 6 -78 21z" />
    <glyph glyph-name="asciicircum" unicode="^" horiz-adv-x="1400" 
d="M25 1364q8 20 10 31q10 35 10 57q2 20 2 31q0 27 -5 62.5t-7 49.5q-2 16 2 27.5t12 19.5q6 -2 8 -68.5t13 -66.5v26.5t5 53.5t31 90q4 6 13 19q0 -14 -9.5 -53t-9.5 -48v-57q18 -10 50 7.5t67 39.5q-2 -8 -2 -12q-10 -31 -27 -37q-74 -27 -98 -76t-24 -135q8 10 18 23.5
t20 27.5q2 -2 1 -28.5t-1 -51.5t7.5 -35t37 -29.5t35.5 -4.5q-4 20 -8 42.5t-7 44t-3 25.5q0 14 4 24.5t8 20.5l19 -102l51 -41q0 25 4 45q14 68 14 80q0 27 2 55q6 4 15 9q8 -8 8 -25q0 -12 -3 -32.5t-18 -106.5q-6 -35 -6 -41q104 10 139 61q2 10 7 21l16 16q0 12 -8 35
q-18 51 -19 69v34t7 38q4 4 8 10q6 -43 11 -76.5t14.5 -60t21.5 -51.5q53 31 87 66.5t34 58.5q0 20 -4.5 37.5t-18.5 40.5q-18 14 -37 30q-12 20 -16 37t-6 31q16 0 37 -33q10 -12 20 -22q4 8 0 48t-4 66q8 0 19.5 -52t15.5 -68q2 -10 9 -7.5t7 11.5q0 25 -3 51t-7 63
q-2 16 -1 23.5t5 13.5q16 -16 23.5 -43.5t7.5 -60.5q0 -27 -3 -68t-6.5 -81t-17.5 -66q-23 -45 -74 -80q-59 -35 -86 -51q-14 -8 -32 -27q-8 -8 -17.5 -16.5t-14.5 -27.5t-10.5 -34.5t-19.5 -19.5t-14 -17q8 -16 12 -30q12 -35 28.5 -65t37 -40t40 -12t48.5 -2h30
q16 0 150.5 -8.5t181.5 -8.5q244 0 326 -43t82 -124q0 -18 -5 -35t-8.5 -31t-44.5 -139q-16 -53 -22 -92q-2 -14 37 -31t55 -43q35 -61 63.5 -183t38.5 -243q0 -18 -22.5 -29.5t-26.5 -17.5q-14 -16 -22 -17q-6 0 -4 34t2 48q0 51 -15.5 107.5t-46.5 142.5q-12 35 -53 60
q-33 -76 -63 -150q-27 -55 -64 -100q-6 -8 -6 -17.5t-1 -15.5t-12.5 -8t-17.5 -4t-31.5 -19.5t-37.5 -17.5q-10 -2 -15.5 4t-11.5 16q20 27 57 64q29 29 37 43t14.5 48t10.5 42t23.5 34.5t19.5 47.5q0 51 -38 116.5t-93 129.5q-10 10 -17 10q-4 0 -18 -10.5t-25 -10.5
q-14 0 -49 4t-55 4q-39 0 -60.5 -4t-48.5 -4q-31 0 -59.5 -1t-46.5 -15q-76 -55 -76 -186q0 -41 29 -60q12 -8 57 -29q74 -35 94 -77q2 -6 -25.5 -10.5t-27.5 -8.5q-49 14 -75.5 28.5t-57.5 33.5l-19 -113q4 -14 6.5 -27.5t-6.5 -21.5q-23 -23 -42 -35t-39 -12q-16 0 -27 10
q33 43 52.5 89t19.5 97v37q0 37 -6.5 49.5t-33 29.5t-26.5 34q0 23 12 47q29 57 29 78q4 31 4 47q0 23 -10 33t-36 17t-34 13q-41 27 -61 41q-41 27 -66 58q-14 18 -34.5 59t-25.5 65.5t-7 118.5q-4 49 -6.5 61.5t-10.5 14.5t-16 6q-23 12 -28 19.5t-5 19.5l-4 25
q-8 14 -6 18q4 6 29.5 21.5t25.5 25.5q0 4 -12 11.5t-19 13.5q-2 16 -4 22q-8 20 -18 37q-39 68 -41 72q-8 18 -12 42t-4 42z" />
    <glyph glyph-name="underscore" unicode="_" horiz-adv-x="1280" 
d="M29 -6l22 26q16 2 46 -4t36 -6q31 0 61.5 26.5t30.5 49.5q0 80 -13 194.5t-13 155.5q-94 96 -136 176q-33 63 -32 123q0 166 69.5 233.5t89.5 98.5q39 59 66 153.5t37 182.5q-4 0 -17.5 9t-27.5 18q-33 -6 -64 -11q-6 4 -6 21q4 33 4 41q35 53 77 79.5t103 26.5
q188 0 234 -192q57 -248 80.5 -267.5t128.5 -83.5q35 -20 67 -51q27 -23 76 -98.5t74 -99.5q82 -82 127 -168q55 -106 76 -252l-76 47q23 -96 40 -150.5t17 -115.5q0 -12 -7 -62.5t-7 -77.5q0 -25 8 -55.5t35 -75.5t53 -90q0 -12 -26.5 -34.5t-30.5 -52.5t-88 -54
q-96 -18 -123 -25q-14 -2 -57 43q-27 33 -31 37q-18 20 -44 31.5t-69 21.5q-78 20 -90 36t-19.5 76t-19.5 60q-14 -4 -24.5 -5t-12.5 3q-25 31 -45 48q-4 2 -28 18l-7 -43q6 -12 44 -31.5t45 -23.5q8 -10 18 -23q-53 0 -129 41q-94 51 -131 59q4 8 15 16.5t18 -5.5
q10 4 22 -1t21 -10q6 0 11 15.5t11 36.5q-4 35 -6 53q-10 53 -31 65q-18 12 -24 -12q-4 -31 -8 -61q-4 0 -66 37q-33 18 -37 18q-10 -2 -20.5 -46t-20.5 -44l51 -29q-4 -2 6 -18q2 -8 7 -17q-53 6 -107 11q-47 -8 -92 -9q-55 0 -94 25q-25 -4 -47 -8z" />
    <glyph glyph-name="grave" unicode="`" horiz-adv-x="3020" 
d="M59 834q2 27 4 53q115 100 388 162q215 49 366 49q51 -2 102.5 -4.5t127.5 -12.5q311 -41 710 -108q264 -45 647 -117q141 -29 283 -55q78 70 92 80t158 32q-37 -59 -53 -84q-29 -45 -29 -98q0 -20 35 -69.5t73 -73.5q-25 -4 -65 -4q-66 0 -107 20q-37 25 -71 49
q-127 -25 -205 -37q-242 -41 -387 -57q-10 -2 -27 -18q-4 -4 -14 -17q-4 0 -24.5 12.5t-34.5 12.5q-35 0 -188.5 -12.5t-248.5 -12.5q-150 0 -553 49q-201 25 -323 25q-27 0 -92.5 13.5t-108.5 25.5q-121 25 -190 37q-123 25 -203 55q-29 20 -43 27q0 10 1 19t14 12.5
t18 3.5q6 0 20 -6.5t37 -6.5q39 -4 121 -20.5t106 -16.5v17q-14 18 -28 37q-16 6 -48 8t-55.5 6t-100.5 11t-104 14z" />
    <glyph glyph-name="a" unicode="a" horiz-adv-x="3235" 
d="M18 317q2 35 52.5 47.5t132.5 12.5q25 0 47 -1t45 -1h246q16 0 50 -8.5t44 -8.5q88 0 209 105q106 102 215 207q133 121 237 143q178 39 199 43q103 18 199 18q188 0 401 -86q184 -76 371 -151q25 -8 59 -8q25 0 80 8t86 8q47 0 78 -11t61 -42l103 -103q35 -25 123 -53
t149 -71v-25q-4 -47 -44 -83t-85 -36q-49 0 -139 50.5t-113 50.5q-6 0 -29.5 -8.5t-41.5 -4.5q-29 -16 -101 -48t-190 -58q20 -18 43 -35q16 -10 57 -33l-39 -24q10 -16 23 -31q0 -6 2 -12l-41 26q-18 -6 -31 -6l-8 -43q-4 14 -8 22.5t-11 18.5l-34 -12l-15 -37
q-6 23 -12 42t-16 19q-8 0 -22.5 -16t-18.5 -16q-4 14 -7 20q-8 23 -14 23q-55 0 -86 5t-133 31q-8 2 -25 2q-25 0 -60.5 -9t-82.5 -21q-106 -18 -261 -34.5t-259 -16.5q-72 0 -107 8q-2 -14 6.5 -43t8.5 -35q2 -23 1 -36t-5 -26l-27 35l-41 -8l-6 -51q-8 10 -14 20
q-12 27 -17 27l-26 -4l-15 -47l-6 24q-8 27 -16 31q-4 2 -17.5 -22.5t-19.5 -28.5q-2 6 -1 16.5t1 20.5q0 14 -6 14q-20 0 -23.5 34t-7.5 40q-10 20 -37 32.5t-84 28.5q-47 16 -114.5 22.5t-137.5 12.5q-227 18 -454 39q-111 16 -156 41q-63 35 -64 106z" />
    <glyph glyph-name="b" unicode="b" horiz-adv-x="2027" 
d="M18 1425v9l33 106q141 0 285 -84q41 -25 199 -145q55 -45 133 -119q51 -49 80 -78q63 -63 92 -137q20 -51 55 -64l25 -28q6 0 8 19.5t6 25.5q14 23 39 22q33 -12 41 -45q2 -6 -8.5 -23.5t-16.5 -19.5q10 -6 18.5 -8t18.5 -4q231 188 436 256q80 27 367 72h172l16 -17
q-14 -141 -125.5 -285.5t-111.5 -197.5q0 -61 -39 -109q-45 -55 -125 -71q39 -55 51 -74q23 -33 23 -82q0 -90 -68 -194q-76 -117 -162 -117q-106 0 -190 25.5t-129 70.5q-63 63 -107 156q-25 51 -67 182q-8 -10 -18.5 -19.5t-14.5 -21.5t-6 -61q-4 -29 -7 -39.5
t-17.5 -21.5t-16.5 -17q-8 43 -11.5 66.5t-9.5 45.5q-10 4 -20 11q-29 -47 -80 -86q-41 -33 -100 -62q-33 -16 -91 -76q-45 -47 -90 -47q-86 0 -221 103q-147 111 -147 209v122q0 14 21.5 23.5t23.5 13.5q0 29 2 60q2 4 72 45q27 16 45 39q-131 53 -131 188q0 43 -25 131
q-41 150 -43 154q-16 33 -31 67q0 25 -16 78q-8 27 -17 53z" />
    <glyph glyph-name="c" unicode="c" horiz-adv-x="1669" 
d="M18 852q10 6 15 8q18 8 30 8q14 0 17 -8q53 -139 108 -276q37 -51 110 -125t91 -99q2 10 18.5 137.5t69.5 237.5q43 92 115 148q2 2 172 108q-39 57 -66 121q-32 74 -32 126t22 89q26 31 53 64q0 37 -28.5 107.5t-34.5 107.5q33 0 106.5 -39t85.5 -39q6 0 49.5 5t61.5 5
q72 0 133 -22q84 -31 170 -107q37 -10 51 -18l13 -13q14 -16 16 -26l4 -43l-12 -27q-8 -12 -11.5 -15t-9.5 -10q0 -6 19 -16q8 -4 11 -21.5t7 -41.5q-2 -6 -28.5 -22.5t-26.5 -33.5q0 -10 14 -28q4 -6 15.5 1t15.5 13q66 94 131 190q25 35 57 52q16 -2 32.5 -6.5t29 -16.5
t17.5 -29.5t5 -40.5q0 -43 -73 -129q-80 -94 -93 -167q-55 -332 -108 -664q0 -82 71.5 -162t71.5 -119q0 -25 -89 -46t-130 -21q-37 0 -102.5 12t-128.5 35q-27 10 -66 10q-35 0 -66.5 -17.5t-84 -28.5t-95.5 -11q-334 0 -528 323q-115 188 -155 318.5t-40 261.5z" />
    <glyph glyph-name="d" unicode="d" horiz-adv-x="2242" 
d="M115 1300v27q0 55 4 86t16 47.5t41 16.5h12q9 -4 11 -4q25 -14 49 -27q0 -53 -11.5 -134t-11.5 -118q0 -35 39 -111q49 -94 101 -94q29 16 49 25q68 31 118 42t117.5 15t120.5 4h78q31 0 57.5 -1t48.5 -1q111 0 199 21q123 29 258 106q23 12 191 133q115 82 186 82
q51 0 88 -5t88 -21.5t100.5 -39t100.5 -44.5q-27 -55 -115 -80q-129 -35 -162 -56q-14 -8 -37 -45q-31 -51 -34 -57q-39 -49 -58 -72q-33 -43 -47 -82q-4 -14 -33 -129q-14 -55 -22 -84q-25 -68 -49 -135q-4 -18 -5 -56t-1 -60v-93q0 -27 -1.5 -53.5t-1.5 -52.5
q0 -41 3.5 -66.5t9.5 -45t10 -32t23 -28.5q6 -6 22 -12q43 -18 54.5 -25.5t27.5 -29t23 -25.5q-61 -23 -101 -23q-123 0 -190 318q-45 211 -72 266q-20 -74 -25.5 -125t-5.5 -121q0 -12 -2 -48t-2 -44q0 -39 9.5 -62.5t29.5 -31.5q8 -2 22.5 -5.5t31 -10.5t25.5 -21.5
t-1 -24.5q-8 -8 -22.5 -14t-30.5 -12q-25 -18 -43 -19q-12 0 -39 14.5t-35 26.5t-23 57q-27 74 -32.5 200t-5.5 177q-68 0 -199 14.5t-189 14.5h-59q-45 -4 -72 -31q-14 -14 -23 -44.5t-15.5 -50t-18.5 -54.5t-18.5 -58.5t-8.5 -51t-2 -62.5q0 -45 11.5 -87t38.5 -69
q12 -14 53 -24.5t53 -25.5t12 -36q0 -12 -15 -19.5t-50 -7.5q-66 0 -101 23q-14 10 -26.5 30.5t-18.5 30.5q-12 20 -33.5 68.5t-28.5 67t-7 30.5q0 14 6 57.5t6 61.5q0 25 -10 35q-39 39 -80 39q-49 0 -100 -29q-41 -23 -78 -65q-23 -27 -37 -74t-14 -92q0 -49 20 -80
q6 -8 27.5 -10t30 -6t26.5 -19.5t25 -19.5q-63 -33 -113 -33q-25 0 -80 10q0 63 -6 153.5t-6 139.5q0 33 12 49q33 31 49 47q57 55 58 101q0 31 -15 77q-33 109 -33 144q0 37 5 67q14 109 14 117q0 29 -6 53q-20 92 -60 205q-70 201 -69 231z" />
    <glyph glyph-name="e" unicode="e" horiz-adv-x="2842" 
d="M27 459q92 41 172 98q59 43 127 109q6 6 75 55q43 31 52 63q43 172 149 252q137 104 422 105q115 0 194.5 -14.5t151.5 -28.5q8 82 61.5 150.5t129.5 68.5q63 0 111 -53.5t100 -108.5h65q141 0 227 -76q23 -20 197 -315q37 -61 63 -94q35 -43 84 -74q63 -39 105.5 -53.5
t85.5 -14.5q49 0 108 23q51 23 84 35l21 -45q-66 -49 -129 -80q-84 -39 -160 -39q-100 0 -219 35q-39 10 -98 35q43 -51 118 -115q88 -74 132 -90l-17 -17q-98 16 -190 72q-80 47 -150 117l-82 -49q0 -8 -15 -16.5t-13 -16.5q8 -31 83.5 -134.5t75.5 -107.5q0 -18 -47 -34.5
t-51 -43.5q-4 -20 15.5 -48.5t7.5 -45.5q-16 -23 -43 -30t-62 -7h-39q-66 0 -115 15.5t-71 52.5q-37 55 -54.5 145t-31.5 168q-106 -27 -215 -40t-215 -13q-119 0 -187 6q-72 10 -106 14q12 -43 49 -143q16 -45 27 -82q-33 0 -54 2q-117 10 -192 39q-27 -41 -41 -55
q-35 -37 -68 -37q-68 6 -108 22q-6 2 -121 58q-37 16 -37 55q0 29 80 172q39 70 39 109q0 29 -12 63q-41 121 -43 129h8l-17 49q-104 -115 -198 -166q-78 -41 -187 -55l-12 12q-14 12 -20 13z" />
    <glyph glyph-name="f" unicode="f" horiz-adv-x="1280" 
d="M-10 -193q0 8 22 43q55 82 68 132q6 25 6 49q0 18 -7 67t-7 70q0 61 10 92q25 76 47 174l-76 -47q20 143 76 250q47 90 127 170q74 98 150 199q31 29 90 63q67 41 102 70q27 20 84 268q45 192 231 192h2q59 0 103.5 -27.5t77.5 -78.5q4 -27 4 -41q0 -16 -6 -20
q-6 -6 -33 4t-31 6l-20 -12q-20 -14 -25 -15q10 -94 34.5 -183t67.5 -153q82 -84 111 -121q49 -61 49 -210q0 -59 -30 -121q-39 -78 -138 -178q0 -47 -8 -121q-18 -164 -18 -230q0 -25 29.5 -50t62.5 -25q14 0 41.5 6t40.5 4l22 -27q-4 -4 -24.5 3t-22.5 5q-38 -24 -93 -24
h-5h-51q-25 6 -37 8q-20 4 -55 -4t-52 -6q2 10 9.5 21t3.5 14l51 28q-10 0 -17 27q-16 61 -24 63t-39 -16.5t-64 -38.5q-4 39 -9 62.5t-23 11.5q-20 -12 -33 -84q-2 -12 -4 -35q2 -2 8 -27.5t14 -23.5q14 6 24.5 10t18.5 0q4 12 21 4q6 -6 12 -14q-12 -2 -160 -74
q-55 -27 -100 -27q6 4 8 11.5t10 11.5q35 16 52 25q31 14 37 30l-7 43q-14 -8 -30.5 -19t-42.5 -46q-4 -4 -15.5 -2t-21.5 4q-10 0 -17.5 -58.5t-20.5 -76t-74.5 -34t-83 -25.5t-44.5 -32q-14 -14 -33 -36q-41 -43 -56 -43h-1q-61 12 -123 24q-84 25 -88 55.5t-39 61.5
q-18 16 -18 24z" />
    <glyph glyph-name="g" unicode="g" horiz-adv-x="1646" 
d="M31 674q2 25 2 39q0 119 20 174q31 84 119 106q45 12 98 51q152 111 164 117q117 55 216.5 84t168.5 29q14 -2 21 -2q47 -6 113.5 -62.5t97.5 -56.5q16 0 25 8t20 19q16 6 27.5 10t15.5 16q6 20 8 61.5t2 47.5q0 25 -1 49.5t-1 48.5q0 104 22 152q33 67 118 67h3
q27 0 64 -24l28 -23q63 -49 68 -51q84 -59 170 -86q-57 0 -104 8q-119 20 -121 21q-106 0 -140 -50q-14 -23 -14 -61q0 -33 2 -51q10 -90 10 -94q0 -115 -10 -164q-16 -82 -72 -113q-10 -6 -61 -20.5t-72 -26.5q-4 -2 -153 -129q-57 -49 -107.5 -63.5t-66.5 -73.5
q-8 -31 -9 -103q0 -35 9.5 -100.5t19.5 -136.5q0 -115 5 -164t26 -90q8 -14 31.5 1t29.5 13q-4 -6 -6 -12q-35 -33 -35 -35q0 -8 22.5 -28.5t16.5 -26.5q-8 -10 -28 10q-27 27 -39 29q-20 -10 -27 -21q-8 -4 -16 -10q-4 16 7 30.5t11 24.5q-6 12 -8 23q-10 33 -16.5 59.5
t-8.5 77.5t-2 82v53q-2 10 -10 20.5t-10 16.5q6 37 4 49l-55 273q-2 6 -8.5 8t-14.5 4q-72 -16 -104 -27q-88 -30 -88 -60q0 -4 2 -9q0 -35 2 -70q16 -39 32 -76q43 -63 88 -125q57 -102 101 -190q16 -33 39 -82q12 -8 16 -10q18 -12 17 -21q-12 -2 -25 0q-29 8 -36 -1
t-10 -44t-11 -35t-10.5 30t-6.5 32q-2 2 -31 -21q-8 -2 -14 -4q-6 18 28 40t29 40q-23 106 -169 324q-82 121 -115 223q12 10 18 14q25 18 37 25q-29 14 -55.5 17t-46.5 5l-47 19q-39 -29 -60 -45q-72 -57 -98 -86q-33 53 -42 80.5t-9 52.5z" />
    <glyph glyph-name="h" unicode="h" horiz-adv-x="2160" 
d="M72 342q0 45 30 96q45 76 58 111q6 14 20 26q39 23 58 33q51 33 104 68q20 10 31 14q20 10 30 23q90 100 275 100q59 0 225 -41q82 -20 139 -20q170 0 332 69q55 25 133 78q63 43 70 47q55 31 131 55q25 8 66 19q0 18 -22.5 38.5t-22.5 39.5h40q25 -8 52 -17q6 0 4 17
q2 16 6 32q6 0 24.5 -16t22.5 -18q41 -23 55 -31q33 -20 60 -49q37 -37 67.5 -90.5t38.5 -67.5v-18.5t2 -26.5q0 -14 -1 -33.5t-7 -41t-20 -48.5q-2 -4 -11 -14q-55 12 -80.5 44t-46.5 60q-25 25 -104 56q-72 -66 -115 -117q-14 -16 -30 -39q0 -25 3 -68t3 -45
q0 -33 -8.5 -60.5t-41 -60t-32.5 -55.5q0 -29 71 -94q33 -29 33 -51q0 -23 -10 -72q-25 -119 -25 -160q0 -29 10.5 -63.5t8.5 -38.5l-86 31q6 6 8 10q10 16 10 31v79q0 23 5 69t5 54q0 23 -5 38.5t-20.5 25.5t-23.5 14q-25 16 -59 31q-4 2 -14 6v-16.5t5 -33t15 -63.5
t10 -69l2 -88q2 -8 6.5 -13.5t6.5 -7.5q2 -27 0 -49q-45 16 -64 23q-37 14 -37 22q10 20 13 31q2 6 -1.5 10t-5.5 6l7 47q0 61 -8.5 102.5t-33 84.5t-59.5 61q-12 8 -35.5 12.5t-44.5 4.5q-29 0 -78 -3.5t-51 -3.5h-26q-20 4 -29 4q-113 31 -225 62q-8 0 -27.5 -6t-37 -19.5
t-38.5 -36.5q-37 -41 -39 -43q-35 -31 -69 -59q-12 -14 -11 -27.5t1 -17.5q0 -20 9 -45t12 -43t10 -50t30 -61q4 -4 16.5 -7t18.5 -7q10 -23 16 -29h-49q-35 0 -55 13q-10 23 -17 30q-18 23 -31.5 61t-21.5 64l-18 58q-8 16 -32 50t-36 54q-27 -8 -48.5 -16t-45.5 -27
q-16 -12 -28.5 -39.5t-20.5 -48t-12.5 -32t-11.5 -19.5t-26.5 -20.5t-35.5 -28.5q-12 -33 -21 -41q-23 -23 -28 -15q-16 29 -19.5 49.5t-3.5 24.5q6 16 23 29q29 20 59 41q4 2 6 9t4 13q31 55 64 113q10 10 53 34.5t52 42t9 25.5q0 10 -12 41l-12 54q-10 18 -15 30
q-12 27 -18 50.5t-10 44t-15 34.5q-27 -16 -53 -34.5t-39 -38.5q-29 -68 -57 -134q-27 -37 -69 -59.5t-113 -42.5z" />
    <glyph glyph-name="i" unicode="i" horiz-adv-x="1400" 
d="M20 -43q10 119 38 240.5t65 185.5q14 25 41 37q51 24 51 36q0 29 -20 91q-43 129 -47.5 144.5t-8.5 36t-4 26.5q0 104 127 141q90 27 281 27q74 0 190.5 8t140.5 8h46q25 0 40 3t34.5 13.5t37.5 40.5q10 20 27 62q6 14 12 30q0 12 -14.5 17.5t-18.5 11.5q-6 25 -9 41.5
t-17 28.5q-2 2 -21.5 20.5t-27.5 22.5q-43 25 -86 49q-49 33 -74 82q-16 31 -19.5 85t-5.5 95q-2 8 -2 37q0 31 7.5 58.5t23.5 43.5q2 -2 6 -4q-2 -27 -2 -33q2 -12 -4 -58t-6 -56t7 -13.5t9 9.5q6 37 15.5 79t19.5 42q-2 -27 -2 -52q-6 -55 -2 -63q10 10 20 22q20 33 37 33
q-4 -18 -8 -33.5t-14 -33.5q-27 -16 -37 -30.5t-16.5 -39.5t-6.5 -39q0 -23 34 -58.5t87 -66.5q6 12 18.5 50t16.5 60.5t7 52.5t7 30q6 -8 8.5 -19.5t3.5 -31t1 -35.5t-9 -41q-18 -55 -18 -64l16 -16q2 -14 6 -21q35 -51 140 -61q0 12 -10.5 69.5t-13.5 80t-3 30.5
q0 16 8 25q6 -4 13 -7q4 -47 4 -57q0 -29 4 -49q14 -72 14 -76l51 41l19 103q4 -10 8 -20.5t4 -24.5q0 -27 -4 -46.5t-7 -32t-6 -22.5t-1 -12q6 -14 35.5 4t36.5 29.5t7 36.5t-1 51t1 28q8 -14 18.5 -26.5t20.5 -24.5q0 88 -20 129q-27 55 -102 82q-12 4 -25 33q-2 4 -4 16
q41 -27 69.5 -42t47.5 -5v58q0 16 -9.5 55t-9.5 45q12 -18 19 -31q20 -39 24 -70.5t5 -53t1 -34.5q10 0 12.5 67t8.5 69q6 -10 11 -21.5t3 -25.5q-2 -12 -7 -49t-5 -72q2 -14 2 -21q4 -31 8 -49t12 -41q0 -27 -2 -42t-14 -42q-31 -55 -59 -108q-2 -12 -5 -23
q-16 -12 -30 -25q0 -10 26.5 -27.5t28.5 -19.5q2 -4 -6 -18l-4 -25q0 -12 -9.5 -21t-30 -19.5t-22.5 -22.5t-4 -80t-7 -97.5t-22.5 -64.5t-37.5 -59q-27 -33 -62 -55.5t-65 -42.5q-10 -6 -36 -13.5t-35 -17.5t-9 -33q4 -35 4 -47q0 -23 12 -47q29 -57 29 -78
q0 -16 -26.5 -33.5t-33 -30t-6.5 -49.5v-36q0 -49 18.5 -95.5t53.5 -91.5q-10 -10 -27 -10q-20 0 -43 14q-10 6 -38 33q-8 8 -5.5 22.5t5.5 26.5l-19 113q-2 0 -59 -33q-29 -16 -74 -29q0 4 -29 9q-12 4 -24 10q20 41 69 67q41 18 82 39q29 18 29 60q0 131 -76 186
q-10 8 -33.5 12t-42.5 4h-43q-18 0 -39.5 4.5t-64.5 4.5q-25 0 -41 -1t-57 -8q-8 -2 -18.5 5.5t-22.5 15.5q-6 0 -17 -10q-55 -63 -90 -123q-41 -72 -41 -123q0 -23 17 -45q27 -35 26 -37q10 -43 23 -86q6 -10 26 -33q51 -53 70 -78q-6 -8 -8 -10q-10 -12 -19 -10
q-14 0 -33.5 13.5t-33.5 23.5q-6 2 -18.5 4t-14.5 6q0 12 -1 20.5t-5 14.5q-39 49 -78 133q-25 57 -49 117q-41 -25 -53 -60q-33 -94 -43 -129q-18 -68 -19 -121v-33.5t2 -29.5q0 -18 -6 -18t-20 16q-27 18 -38.5 25.5t-11.5 21.5z" />
    <glyph glyph-name="j" unicode="j" horiz-adv-x="1966" 
d="M23 905q12 31 47 31q14 0 34.5 -5t63.5 -5q35 0 49 3t29 15q94 72 129 94q115 78 241 95q37 4 54 4q57 0 223 -50q79 -24 135 -24h4h29q12 2 18 2l74 20q18 2 29 2q31 0 82 -5t59 -5q37 0 51.5 6.5t23.5 14.5t21.5 25.5t14.5 23.5q10 66 56 125t124 114q-6 12 -9 31
t-12 29q-25 33 -60.5 54.5t-74.5 27.5h-6q-35 0 -86 -41q-47 -39 -92 -101l53 121l-88 -102q18 70 39.5 105.5t50.5 60.5q35 27 83 40t108 13q74 0 127 -33q86 -53 120 -192q2 -10 18.5 -26.5t21.5 -28t13.5 -45t9.5 -39t7 -7.5t12 -2q10 -18 22.5 -37.5t22.5 -31.5
q25 -31 36.5 -58.5t15.5 -50.5q0 -6 -2 -16q-10 -27 -13.5 -35t-24 -14.5t-24.5 -12.5l-2 -14l-8 -4q-14 2 -17 4q-2 2 -11 13.5t-21.5 10.5t-18.5 5q-6 -8 -8 -15q-14 -27 -20 -43q-14 -74 -22.5 -116.5t-27.5 -81.5q-33 -72 -98 -144q-45 -49 -131 -118q20 -35 116.5 -111
t121.5 -133q6 -14 6 -39v-35q-27 6 -55.5 14.5t-47.5 22.5q-4 14 -6 20q-8 20 -17 29.5t-34 22t-31 18.5q-23 23 -49 45.5t-47 34.5q12 -14 19 -23q16 -23 26 -40t55 -62q33 -33 33 -61q0 -23 -24 -60q-51 18 -115 98q-45 57 -72.5 83t-100.5 54.5t-97 59.5
q-8 10 -12.5 25.5t-9.5 35t-28 19.5q-12 0 -71 -21q-29 -10 -45 -10q-82 0 -150 25q-145 53 -170 53q-10 0 -56 -17.5t-85 -35.5q37 -43 55 -64q35 -41 35 -73q0 -35 -4 -59.5t-21 -51.5q-16 2 -35.5 12.5t-43.5 36.5q-10 10 -12.5 35t-8.5 45.5t-21.5 49t-33.5 50.5
q-6 6 -23 7h-39q-8 0 -23.5 5t-17.5 -1q0 -47 38 -129t38 -111t-24.5 -61.5t-61.5 -44.5l-39 122q-2 8 12.5 12.5t12.5 12.5q-10 29 -62 152q-41 98 -47 145q2 8 6.5 16t14.5 8q8 0 36.5 -4t45.5 -4q31 0 43 13q6 6 -14.5 34.5t-18.5 38.5q2 4 18.5 3t17.5 6.5t1 14.5v9
q0 20 -4 32.5t-29 49.5q-12 25 -16 35q-10 20 -23 22q-20 4 -43 -12q-35 -27 -54.5 -32t-25.5 -7h-26q-27 0 -48.5 7t-42.5 26q-31 27 -32 29q-10 12 -8 26z" />
    <glyph glyph-name="k" unicode="k" horiz-adv-x="1118" 
d="M63 600q0 88 29 162t90 164q63 82 127 166q-33 12 -45 30l-8 31q-2 6 -2 13.5v9.5q0 55 39 100q31 37 73 60.5t74 23.5q27 0 77 -24.5t71 -55.5q8 -10 24 -10q37 4 76 8q25 0 70 -17.5t67 -17.5q12 0 47 8.5t46 3.5q53 -18 61 -90q2 -35 6 -69q1 -5 1 -10q0 -32 -32 -78
q-36 -52 -88 -64q-20 -4 -34.5 -58.5t-18.5 -60.5q-16 -27 -55 -45l-58 -24q23 -45 80.5 -88t98.5 -43q8 0 34.5 16t49.5 16t52 -33.5t32 -68.5q0 -57 -97 -74q-45 -8 -82 -14t-104 -33q-39 -16 -55 -18q0 -31 7 -85.5t7 -68.5q0 -23 -10.5 -53.5t-10.5 -36.5
q0 -29 30 -56.5t61 -56.5q-10 -35 -55.5 -50t-94.5 -15q-20 0 -27.5 21.5t-7.5 39.5q-4 0 -8 13q-39 -6 -74 -27q-98 -59 -108 -61q-4 -8 -8 -19q4 -2 26.5 -11t34.5 -18q23 -18 36 -32.5t13 -32.5t-16 -35q-8 -10 -35 -25q-4 -2 -8 -7t-10 -5q-14 0 -32 14.5t-27 21.5
t-39.5 22.5t-43.5 29.5q-41 43 -82 90t-61 84q-2 4 -9 29t-7 35t4 28.5t4 22.5q0 10 -9.5 43t-12.5 44t-4 56t-7 64q-27 80 -39 117q-23 70 -23 104z" />
    <glyph glyph-name="l" unicode="l" horiz-adv-x="1761" 
d="M16 836q0 78 31 157.5t96 143.5q47 47 121 72.5t150 25.5q45 0 96 -10q84 -18 170 -35q10 -2 33 -2q25 0 74 8t77 8q27 0 127 -14q57 -8 82 -8q55 0 192 155.5t205 155.5q82 0 183.5 -101.5t101.5 -177.5q4 -16 4 -34t-8 -29q-18 -35 -43 -35q-20 0 -43 4q-45 10 -78 17
l4 -41l2 -33l-41 -10q-4 0 -24 10q-55 27 -60 29q-39 -47 -59 -72q-41 -47 -45 -90q-20 -127 -84 -213q-20 -25 -76 -64q-41 -29 -50 -60.5t-9 -62.5q0 -47 7 -90t15 -80q0 -18 -2 -57t-2 -59q0 -66 19.5 -122t83.5 -130q-23 -6 -45 -6q-23 0 -40.5 2t-31.5 4t-25 6
q-14 10 -20 14q-37 29 -45 150q-20 313 -115 469q-14 25 -31 24q-6 0 -26.5 -5t-32.5 -7q-121 -10 -240 -20q-10 -2 -21 -2q-26 0 -59 10q-47 14 -100 31q-66 0 -152.5 -187.5t-86.5 -265.5q0 -49 14 -85t84 -140l2 -17q-33 2 -71 3t-66.5 25.5t-51 70t-22.5 98.5
q0 147 39 319q23 100 47 201q-8 0 -30.5 7t-35.5 7q-33 0 -60.5 37t-27.5 101z" />
    <glyph glyph-name="m" unicode="m" horiz-adv-x="1320" 
d="M96 78q0 35 62 160q31 63 30 102q0 41 -1 83t-1 85q0 109 12.5 182.5t51.5 143.5q33 61 67 122q47 74 117 105q39 18 181.5 24.5t201.5 22.5q12 2 62 27.5t79 25.5q88 0 150 -57q74 -70 74 -199q0 -55 -41 -179t-80 -124q-12 0 -29.5 5t-19.5 5q-8 0 -15.5 -11t-7.5 -28
q0 -31 25 -75q55 -102 55 -107v-51q0 -25 2 -39t16.5 -29.5t65.5 -30t61 -20.5q18 -6 29.5 -13t13.5 -24q0 -34 -44 -34h-3q-6 -2 -22 -3q-10 0 -44 2.5t-54 2.5q-98 0 -134 67q-8 16 -15 64.5t-15 74.5q-8 14 -36 56.5t-38 62.5l-45 -51q0 -98 45 -156q66 -57 98 -92
q2 -2 15.5 -25.5t33.5 -37.5q10 -10 53.5 -37t51.5 -45q4 -6 -11.5 -23.5t-15.5 -23.5l70 -70q-23 -27 -51.5 -44t-59.5 -17q-8 0 -27.5 5t-45 28.5t-43.5 54.5q-55 100 -62 108q-27 37 -53.5 55.5t-91 42t-105.5 27.5q-16 2 -24.5 -2t-14.5 -12q41 -33 138 -72
q74 -29 73 -47q0 -20 34 -50t34 -50q0 -25 -37 -41.5t-80 -16.5q-29 0 -71 34t-58 38q-68 12 -101.5 18.5t-62.5 28.5q-16 16 -20 65.5t-10 61.5q-12 23 -39 31t-64 8q-25 0 -58.5 -54.5t-33.5 -95.5q0 -47 111 -126q90 -66 249 -154q80 -43 143.5 -61.5t106.5 -18.5
q25 0 43.5 4t20.5 2q8 -12 0 -33.5t-35 -21.5q-18 0 -38.5 -2t-31.5 -2q-55 0 -111.5 16.5t-133.5 59.5q-201 106 -295 182q-145 115 -146 213z" />
    <glyph glyph-name="n" unicode="n" horiz-adv-x="2629" 
d="M31 596q0 -12 9 -27.5t44 -15.5q47 0 108.5 39t114.5 117q37 51 53 135q14 90 19 121q-8 -18 -8 -50q-1 -53 31 -167q26 -95 27 -126q0 -6 -1 -10q-2 -10 -80 -114q-31 -41 -31 -78q0 -18 11 -123q4 -41 4 -80v-63q0 -57 7 -94t32 -70q20 -23 60 -29t69 -10q0 8 19.5 14
t29.5 4q-70 59 -98 105q-36 53 -36 110q0 8 1 17q0 70 28 123q53 82 103 161l49 47l-23 -147q18 -43 109 -170q35 -49 53 -104q6 -18 6 -41q0 -14 -2 -42t-2 -38q37 -4 51 -4q31 0 57.5 6t84.5 28q-131 117 -179.5 197t-48.5 152q2 14 3 22q2 25 31.5 68t32.5 57t45 31.5
t58 44.5q74 -51 131.5 -69.5t120.5 -18.5q18 0 67.5 2t84.5 2h47.5t56.5 -4q0 -12 -1 -26.5t-1 -33.5q0 -45 5.5 -78.5t21.5 -60.5q6 -12 46 -18t44 -24.5t4 -55.5q0 -20 -4 -63.5t-4 -59.5q0 -51 25 -59q8 -2 43.5 -19.5t56.5 -17.5q45 0 88 19.5t53 49.5q1 3 1 7
q0 23 -44 55q-31 23 -36 37t-6 34.5t-1 34.5v26.5t2 20.5q20 61 76 82q72 16 105.5 28.5t99.5 41.5q94 41 136 41h7q59 0 133 -141q29 -59 58 -117l30 -41q14 37 31.5 143.5t35 138t70 43t66.5 25.5q43 43 64 117q14 49 21 121.5t7 142.5q0 131 -30 203q-43 100 -144 100
q-16 -4 -24 -4q-16 0 -26.5 11.5t-10.5 41.5v14.5t2 8.5l-64 -43l-37 -39q-35 41 -61 96q-53 106 -70 123q-27 29 -85 44t-148 24h-98.5t-98.5 2q-201 0 -352 -31q-123 -25 -268 -80q-199 -59 -396 -119q-162 -61 -303 -162q-53 -37 -77.5 -173t-50 -169.5t-118 -56
t-112.5 -55.5q-10 -20 -10 -37z" />
    <glyph glyph-name="o" unicode="o" horiz-adv-x="1935" 
d="M23 1130q0 184 200 310q162 100 299 100q244 0 371 -139q121 -131 121 -361q0 -20 -18.5 -96t-18.5 -94q0 -12 4 -14t16 8q47 43 200 58.5t153 23.5q2 14 -3.5 37.5t-5.5 33.5q0 29 8.5 61t41.5 107q14 55 20 84q14 53 43 78q14 -47 23 -72q29 -78 65 -118q31 -35 62 -35
q14 0 24 12q23 29 52.5 98.5t54.5 106.5q-4 -27 -6 -45q-8 -68 -9 -109q0 -53 3 -77.5t16 -63.5q4 -14 57 -57q39 -33 39 -133q0 -70 -61 -119q-25 -2 -48 -2q-6 -4 1.5 -16.5t3.5 -16.5q-16 -16 -93 -35q-12 -2 -36 -8q10 -10 24 -10q20 4 31 4q18 0 42.5 -4t33.5 -2
q14 4 38.5 15t30.5 11q12 0 25 2q4 4 8 4q16 6 41 2q4 -2 -1 -10t-13 -16l32 4q2 -4 -7 -18.5t-7 -16.5h33q-12 -33 -38 -51.5t-60 -28.5q-74 -20 -146 -41q-16 -8 -57 -10t-58.5 -19.5t-29.5 -43.5q-33 -74 -43.5 -86.5t-36.5 -24.5q-66 -31 -82 -45q-6 -4 -5 -15.5
t1 -17.5q-2 -16 -13.5 -33.5t-26.5 -34t-63 -51.5q29 -43 46.5 -79.5t17.5 -75.5l-21 -11q-8 0 -16 25q0 4 -2 12l-18 -43q-12 14 -19 21q-20 23 -26 26q-4 -12 -7.5 -34.5t-9.5 -22.5q-14 0 -24.5 12.5t-16.5 56.5t-14 57t-31 13q-20 0 -35.5 -3t-42.5 -13q-12 -4 -19 -52
t-26 -42q-14 4 -14 37q0 39 -12 39q-14 0 -15 -29v-24.5v-16.5q-14 -4 -20 5t-8 25.5t-4 24.5q8 -14 -7 -43q-6 -4 -10 -10q-18 31 -29.5 45t-19.5 14q-18 0 -38.5 -6t-29.5 -6q-25 0 -55 14q-158 70 -205 342q-23 180 -43 363q-4 20 -4 39q0 33 16.5 123t16.5 135
q0 86 -53 110q-12 4 -23 5q-39 0 -164 -47.5t-168 -55.5q-6 -2 -13 -2h-9q-37 0 -47 27.5t-10 74.5z" />
    <glyph glyph-name="p" unicode="p" horiz-adv-x="757" 
d="M55 342l8 49l9 29q18 76 23 89t32 69q16 37 49 81q23 31 42.5 61t33.5 65.5t17 52t3 34.5q0 12 -2 40t-2 42q0 27 7.5 45.5t25.5 34.5q10 8 31 19.5t39 11.5q16 0 49 -12q31 -8 74 -9q29 0 51 2.5t41 6.5v-19q-45 -25 -47 -26q-25 -14 -31 -31q-20 -20 -26.5 -33.5
t-6.5 -32.5q2 -12 2 -20q4 -37 25 -64q45 -57 90 -112l55 -86q41 -63 55.5 -115.5t14.5 -148.5q0 -14 -3 -22.5t-3 -14.5q0 -23 -5.5 -46.5t-19.5 -21.5q-20 0 -20 6q0 12 7 31.5t7 30.5q2 12 0 28.5t-6 35t-19.5 47t-25.5 46.5q-10 -10 -19 -20q10 -102 11 -166
q0 -25 -3.5 -53.5t-6.5 -46t-20.5 -49t-32.5 -42t-11 -28.5q0 -27 17.5 -24t47 -6t33.5 -21q8 -27 -4 -29q-8 6 -17.5 8t-17.5 -2t-13 -14t-11 -23q-8 -6 -18.5 4.5t-14.5 12.5t-13.5 4t-13.5 -2q-12 -10 -24 -23q-27 0 -25 17q4 29 16 41q6 6 3 18t-7 18.5t-4 10.5h-49
q-45 0 -82 22q-10 8 -55 -4q-27 -14 -12 -39q14 -16 30 -31q8 -6 15 -24q0 -16 -21 -17q-18 14 -28 15q-4 0 -17 -8q-27 -18 -31 -19q-10 0 -22 15.5t-16.5 16.5t-20.5 1h-15t-12 -2q-6 14 -6 20q0 10 11 17q27 12 38 16q23 10 25 19q0 14 -1 22t-9 27q-20 37 -38 83
q-15 39 -15 66v8q0 29 22 101q16 55 21 71q0 2 4 13.5t2 17.5q0 6 -2 11.5t-7 11.5q-10 -8 -14 -13q-14 -14 -24 -26l-25 -31q-10 -20 -21 -39q-20 -31 -25 -36t-26 -13z" />
    <glyph glyph-name="q" unicode="q" horiz-adv-x="1208" 
d="M70 156q37 53 73.5 106t55.5 105q35 88 88 280q41 143 86 227q25 43 100.5 145.5t124.5 184.5q78 203 115 285q63 141 213 141q33 0 65.5 -48t63.5 -93q14 -18 40.5 -36.5t55.5 -37.5q-53 -33 -109 -33q-18 0 -28 2l-60 15q-14 6 -37.5 9t-35.5 3q-20 4 -33.5 5t-20.5 -1
q-25 -16 -34 -60t-9 -95q0 -57 93.5 -207t93.5 -254q0 -121 -88 -254q-33 -51 -144 -176q-12 -20 -12 -47q2 -20 2 -31q0 -35 3 -58.5t15.5 -44t49.5 -47.5q100 -72 102 -73q-68 -18 -105.5 -24.5t-80.5 -6.5q-29 4 -49.5 7t-28.5 3q-14 -6 -23 -8q-35 -12 -69.5 -18.5
t-83.5 -12.5q-14 -4 -42 -19.5t-30 -15.5q16 39 28.5 74t12.5 62q0 25 -5 41t-22 38q-55 -29 -113.5 -55.5t-109.5 -26.5q-55 0 -108 50zM512 246q4 -20 10.5 -45t22.5 -39q23 -16 59 -31q10 -4 31 -10l18 22v11q2 6 2 22q0 37 -11 75t-28 44q-16 0 -56 -23.5t-48 -25.5z
" />
    <glyph glyph-name="r" unicode="r" horiz-adv-x="1720" 
d="M41 293q0 27 16 53q6 8 19 8q18 0 51 -22q10 -6 31 -23q14 4 16 13.5t6 55.5t7 78.5t9.5 81t20.5 87.5q14 29 37 55q33 39 96 86q84 66 281 125q63 18 178 47q9 1 18 1q47 0 109 -26q53 -25 108 -47q18 -6 41 7.5t21 27.5q0 70 -53 189q-39 82 -78 165q-4 12 -4 23
q0 27 12 63q2 6 6 15q10 0 19.5 -1t17.5 -5l41 -11q2 2 15.5 27t27.5 25q57 -8 123 -103q51 -74 102 -147q18 -18 24.5 -54t14.5 -34q8 1 15 1q86 0 192 -141q109 -145 109 -247q0 -72 -92 -126q-78 -46 -137 -45q-10 0 -19 1q0 -88 -66.5 -180.5t-150.5 -135.5
q-10 -6 -11 -18q0 -18 17 -41q8 -18 26 -33q33 -25 68 -47q16 -14 24.5 -34.5t4.5 -29.5q-10 -18 -25.5 -25t-38.5 -7q-27 4 -39 6q-37 8 -64.5 28.5t-45 59.5t-23.5 39q-10 -6 -14 -8q-39 -23 -45 -25l-53 35q-14 10 -41 41q-4 4 -13 14l-86 -29q-14 -4 -24.5 -4h-14.5
q-14 0 -29.5 -1t-52.5 -17q0 -8 43 -37q25 -16 36.5 -27.5t11.5 -25.5q0 -8 -4.5 -16.5t-6.5 -12.5q-10 -20 -26.5 -27.5t-40.5 -7.5q-45 4 -68 4q-14 16 -126.5 28.5t-162.5 35.5q-16 6 -38.5 35.5t-31.5 38t-45 33t-57 47.5q-8 8 -30 -7q-12 -8 -25 -8q-8 0 -18 6
q-61 41 -88 78t-27 72z" />
    <glyph glyph-name="s" unicode="s" horiz-adv-x="970" 
d="M12 715q0 59 7.5 103t40 48t49.5 41q4 10 6 35q-2 8 -25 8q-31 0 -33 8q29 41 49.5 67t14.5 32q-4 4 -15.5 8t-5.5 14q16 25 22.5 42.5t2.5 41.5q-2 14 -12 15q-27 0 -39 12q2 25 10 29q20 14 47 28q4 2 16 6q0 10 -6 20.5t-6 22.5q0 4 15.5 11.5t17.5 9.5q35 35 25 49
q-2 2 -20.5 1t-35.5 -1q-10 0 -16 1t-4 5q16 35 59 51q35 10 72 23q-2 6 -4 14q-35 33 -35 37q23 -2 45 -2q51 -12 57 -6t-2 39t-4 37q18 12 51 -23t43 -31q4 2 -8 35q-4 16 -8 33q8 0 12 2t6 6q4 0 23 -12q8 -4 18 -6q4 20 9 41q4 6 22 6q4 0 15.5 -18.5t27 -27t33.5 -18.5
q10 6 20 13q14 -14 28.5 -23.5t31.5 -13.5h39l4 20q-16 38 -16 53q0 7 3 9q0 -8 32 -23.5t50 -19.5q10 -4 -2 -24.5t-12 -29.5q0 -47 33 -79q6 -6 26.5 -11.5t32.5 -11.5q0 -2 -34.5 -18.5t-34.5 -28.5q0 -25 8 -50.5t18 -35.5q6 -6 26.5 1t22.5 7q4 0 8.5 -13t8.5 -16
q-2 -10 -19.5 -20t-21.5 -16.5t-4 -16.5q4 -31 4 -47q14 -16 29.5 -31.5t15.5 -21.5t-20.5 -6t-20.5 -4q0 -18 7 -39t19 -43q27 -53 39 -76q20 -39 43 -64q33 -8 43 -14q4 -6 8.5 -12t4.5 -15q2 -12 -12.5 -18t-34.5 -6t-31.5 1t-24.5 5q-35 31 -139 211q-84 145 -190 176
q-6 2 -11.5 -14.5t-11.5 -16.5q-2 6 -4 11q-8 14 -17.5 16t-18.5 3t-11 11t11 16.5t13 12.5q1 4 1 8q0 23 -31 47q-10 4 -21 9q-6 -29 -6 -58q0 -20 4 -37.5t16.5 -47.5t14.5 -36q29 -86 42 -170t13 -202q0 -53 -45 -130t-88 -147q-25 -43 -32 -100.5t-7 -126.5
q0 -76 58 -158q66 -94 149 -94q104 0 195 160q79 141 79 263q0 42 -14 94t-39 97q14 -2 24.5 -8t18.5 -24q25 -47 38 -75t24 -52q2 -4 -4.5 -6.5t-6.5 -6.5q0 -8 21 -26q-4 -4 -11.5 -8.5t-7.5 -8.5q0 -10 29 -22q-2 -4 -10 -9.5t-8 -17.5q0 -8 6 -24q2 -4 -6.5 -9.5
t-8.5 -7.5q0 -10 33 -24q-4 -4 -6 -7q-35 -10 -35 -22q0 -8 13 -21q4 -6 -8.5 -14t-12.5 -12q0 -12 31 -23q-10 -4 -28.5 -10t-22.5 -12q-2 -4 11 -17.5t9 -17.5t-17.5 -10t-13.5 -13q0 -8 7 -20q6 -10 -12.5 -14.5t-18.5 -10.5q0 -14 26 -30q4 -2 13 -7q-31 -8 -60.5 -19
t-40.5 -28q-4 -6 13 -26q10 -14 10 -19q0 -2 -31 -2q-29 0 -39 -5t-11 -20.5t-1 -23.5q-6 8 -8 12q-10 12 -21 17q-14 4 -28 -8q-4 -6 6 -35q2 -10 12 -31q-10 0 -21.5 15.5t-21.5 27.5q-2 2 -27 2q-4 -16 -8 -30.5t-10 -14.5q-4 0 -8 29.5t-10 29.5q-20 2 -39 3
q-4 -4 -10.5 -29t-16.5 -25q-4 0 -8 24.5t-10 31.5q-6 4 -25.5 -4.5t-24.5 -6.5q-2 2 17 39q10 18 8 21q-2 2 -25.5 -15.5t-25.5 -15.5q0 18 -2 36.5t-19 18.5q-10 0 -20 -12q-2 -2 -4 -8q-8 2 -15 2q0 20 -4 22q-6 4 -26 -4h-19q0 12 6 19q23 23 25 35q2 8 -4 28
q-4 6 -37 -2q-8 -2 -16 -2q4 33 4 49q0 18 -6 25q-4 4 -28 -3t-28 -7q-6 18 -2 28q14 12 29 27q-6 20 -10 41q-12 10 -25 20l10 9q0 39 -10 49q-4 4 -20.5 0t-22.5 -2t-5 8t1 12q4 12 27.5 21.5t13.5 21.5q-4 6 -36 18.5t-32 26.5q18 2 40 6t24 11q-14 10 -28.5 17t-10.5 13
q16 8 35 19q-4 12 -31 20t-27 15q0 4 29 6q12 4 27 8q-4 8 -24.5 26.5t-20.5 24.5q12 0 26 2q25 -2 27 2q4 29 4 39q0 14 -14.5 17.5t-24.5 3.5q-31 0 -36 -19.5t-14 -62.5t-24 -43q-16 18 -16 39q8 23 8 36q0 12 -7 27.5t-24 38.5q-8 12 -8 78z" />
    <glyph glyph-name="t" unicode="t" horiz-adv-x="2785" 
d="M-6 141q0 12 20 43q6 8 33 25q80 49 113 76q43 37 76.5 86t31.5 65q-12 55 -12 94q0 61 39 119t39 105q0 41 -2 121.5t-2 119.5q0 258 69 363q98 147 385 147q33 0 115 -22.5t113 -22.5q74 0 196.5 -5t145.5 -5h43h33q24 4 34 4q35 4 104.5 27.5t117.5 23.5q45 0 137 -41
q221 -98 352 -116q33 -4 95.5 -37t103.5 -33q33 0 84 35q27 23 39 33q25 20 55 14q12 -2 26 -25q4 -6 23 -41q6 -10 6 -20q0 -16 -12 -56t-8 -53q4 -23 41 -108q14 -33 21 -71t65 -130q51 -84 51 -125q-12 -23 -23 -33q-31 -37 -73 -53q-55 -14 -80 -20q-43 -14 -51.5 -47
t-39 -68t-40.5 -35q-31 0 -66 40t-46 53.5t-19 41.5q-14 51 -35 68q-12 8 -42 12t-57 4h-69l20 -39q70 -25 82 -30q51 -27 51 -88q0 -53 -36.5 -114t-93 -90.5t-119 -46t-117.5 -28.5q-8 -2 -23 2q-39 14 -41 14q0 4 -13 12.5t-13 14.5q0 76 94 129q82 45 125 82
q-47 8 -118 35.5t-93 27.5q-20 0 -31 -8q-61 -39 -72 -45q-41 -20 -90 -20v-115q0 -104 10.5 -177t41.5 -132q23 -43 94 -84q18 -10 84 -45l8 -68q-63 -33 -94 -47q-59 -29 -103 -29q-37 0 -73 31q-18 14 -60 64q-94 96 -141 323q-35 166 -35 328q0 70 -124 103.5t-238 66.5
l-11 -27q0 -63 -18 -151q-41 -197 -41 -252t15.5 -94t52.5 -54q80 -12 120 -24q78 -25 78 -96q0 -10 -43 -18.5t-66.5 -13.5t-54 -14.5t-45.5 -9.5q-12 0 -33.5 7.5t-45 31t-31.5 29.5q-43 31 -84 94q-27 43 -72 131q-12 23 -16 45.5t-4 46.5q0 37 20 123q12 51 12 72
q0 39 -16 82t-33 84l-18 -37q-29 -39 -129 -148q-74 -80 -80 -86t0 -30q-1 -6 -1 -15q0 -35 18 -121q22 -110 22 -155q0 -80 -34 -88t-50 -8q-59 0 -86 88q-14 53 -29 108q-41 -10 -172 -88q-55 -33 -80 -33q-12 0 -24 6q-33 20 -33 35z" />
    <glyph glyph-name="u" unicode="u" horiz-adv-x="2367" 
d="M47 451q0 29 27 49q8 6 56 -12.5t54 -14.5q12 10 86 57q102 66 150 125q129 156 180 205q100 94 205 117q23 6 46 8t56 2q39 0 115 -6t111 -6q25 2 130 6t156 20q92 53 148.5 77t140.5 24q57 0 102 -6t76 -33q39 -35 43 -37q6 14 10.5 18.5t10.5 4.5h8q4 0 14 -17
q2 -4 10 -18q12 27 19.5 38t13.5 11q8 0 23.5 -11.5t31 -23.5t19.5 -47q-2 -25 -2 -37q0 -39 4 -53t26.5 -40t30.5 -40q2 -8 0 -27.5t0 -31.5q10 -41 43 -80q20 -25 56 -56q4 4 15 34t24.5 48.5t29.5 1.5q10 -10 14.5 -28.5t7.5 -29.5t3 -46q0 -41 -12 -84q-14 -25 -27 -47
q-4 -23 5 -56.5t9 -60.5q0 -20 -4 -41.5t-26 -32.5q-6 -6 -12.5 -8t-8.5 -2q-23 37 -69 64.5t-91 42.5q20 -35 33 -52q39 -55 64 -63q-14 -10 -33 -10q-23 0 -37 10q-129 96 -170 129q-72 59 -100 102q-4 6 -24.5 -3t-45.5 -19q-2 4 -1 11t-1 13q-10 18 -18 37
q-23 12 -38.5 26.5t-23.5 41.5l-74 -209q-6 -4 4 -29v-18q-12 -33 -43 -96q-37 -76 -36 -121q2 -20 6 -25.5t47 -40.5q29 -23 28 -49q0 -6 -20 -6q-16 0 -65.5 4t-63.5 4t-18 -4q-2 -10 4 -34.5t6 -26.5q0 -12 -8 -15q-8 -4 -34 0t-32 4q-8 0 -32.5 -8t-39.5 -8q-16 0 -22 4
q-23 14 -25 47t-4 64q-18 66 -51 153q-10 31 -33 86q-66 -39 -92.5 -44t-56.5 -5q-37 0 -56.5 4t-72.5 21q-10 4 -14.5 3t-4.5 -13q4 -29 4 -41q-2 -16 -2 -25q0 -20 1 -37.5t10 -44.5q2 -10 51 -53q16 -14 6 -29q-4 -6 -21.5 -15t-46 -16.5t-53.5 -7.5q-51 0 -51 23v33
q0 25 -2 34t-17 27q-6 10 -21 22.5t-30 24.5q-16 29 -16 82q0 16 2 23q2 12 -25 24q-4 2 -14 4q0 -80 -6 -112q-10 -37 -19 -74q0 -20 2.5 -32.5t22.5 -39t20 -39.5q0 -10 -14 -19t-33 -22q-6 -4 -34 -6q-31 0 -89 43q-8 6 -26 23q0 16 7 25t9 24v37q0 35 -10 61.5t-10 52.5
q0 12 1 21.5t7 34.5q2 12 -18.5 17t-20.5 17q0 29 -43 164q-23 72 -22 127q-25 -12 -39 -20q-45 -29 -66 -64q-2 -2 -15.5 -9t-11.5 -13q2 -2 2 -4q0 -13 -41 -51q-49 -44 -94 -44q-18 0 -22 3q-12 12 -25 20q-20 14 -41 47q-6 6 -6 19z" />
    <glyph glyph-name="v" unicode="v" horiz-adv-x="2445" 
d="M41 874q0 242 172 437q188 213 465 213q86 0 305 -33t315 -33t234 -39q96 -27 227 -80q49 -18 129 -110q66 -80 133 -160q6 -8 28 -21.5t28 -19.5q14 -14 21 -22.5t22 -4.5q2 4 2 7q8 18 18 28q2 2 5 4t5 4l11 -6q6 -4 6 -20q0 -10 -1 -16.5t-4 -20.5t-5 -18
q-22 -39 -22 -63q0 -4 1 -7q6 -25 39 -73t37 -72q2 -16 0 -36t-2 -24l-21 -51q0 -39 66 -121q20 -27 67 -76q41 -18 56 -84q8 -39 8 -112q0 -29 -9.5 -47.5t-27.5 -36.5q-27 -27 -75 -36t-113 -9h-54q-14 2 -33.5 8t-31.5 10q-49 8 -70 35q-33 47 -106 88q-12 6 -35 45
t-45 51q-12 4 -23 4q-12 0 -44.5 -6t-49.5 -6q-14 0 -40.5 8t-41.5 8q-4 -14 -6 -40.5t-2 -51.5t2 -37t18.5 -24t32.5 -23q10 -10 23.5 -22t15.5 -25q4 -10 -4 -23.5t-12 -19.5q-18 -27 -28.5 -33t-55.5 -6l-47 -2q-45 6 -94.5 14.5t-86.5 32.5q-18 12 -40.5 117t-42.5 131
q-10 14 -35 -6q-33 -29 -41 -31q-14 -45 -19 -65q-10 -37 -10 -49v-35q4 -20 21 -41q41 -45 59 -68q37 -43 37 -67q0 -14 -10 -29q-25 -31 -59 -42t-85 -11q-63 0 -93 4t-54 26q-16 14 -31 33q-20 27 -24.5 42.5t-10.5 57.5t-22.5 49t-54 11t-48 11t-24.5 40q-31 70 -39 86
q-8 2 -115 45q-49 20 -82 25q4 -6 -2 -18.5t-4 -16.5q47 -59 68 -88q36 -52 36 -92q0 -10 -4 -31q-10 -31 -39.5 -44t-70.5 -13q-27 0 -48.5 2t-39.5 4q-29 0 -52.5 20.5t-46.5 71.5q-63 139 -67 150q-23 57 -37 124.5t-23 108.5q-16 74 -45 111q-55 72 -79.5 138t-24.5 113
z" />
    <glyph glyph-name="w" unicode="w" horiz-adv-x="2508" 
d="M80 623q104 66 104 137q0 66 -92 141q20 0 47 -3t56 -9l90 -29q33 -14 37 -12q250 59 325 78q195 49 291 82q129 43 188 86q4 16 4 28q0 27 -9 58t-27 86l6 24q76 -41 186 -133q84 -70 144 -82q164 -35 309 -56.5t208.5 -35.5t137.5 -49q74 -39 147 -78q90 -47 150 -57
l14 -25l-65 -8q-92 0 -204 -27.5t-231 -58.5q-14 -4 -73.5 -6t-73.5 -10q-37 -82 -115 -154q-88 -82 -176 -94l84 211q-236 0 -495 32q-190 25 -351 49.5t-293 47.5q-20 0 -30 -2l-56 -35q-72 -35 -141 -68q-41 -16 -96 -28z" />
    <glyph glyph-name="x" unicode="x" horiz-adv-x="1628" 
d="M16 821q0 29 2 43q12 143 107 295q113 182 116 190.5t3 24.5q0 18 -1 40t-1 46q0 29 2 45q0 16 30.5 39t57.5 23q8 0 14 -2q6 -6 8 -6q18 -16 56 -29q74 -25 94 -33q18 -8 55 23q91 77 109 77q14 0 25.5 -14t27.5 -74.5t33 -74.5q31 -25 59.5 -72t50.5 -109
q8 -18 18.5 -35.5t10.5 -33.5q0 -18 -21 -33q-61 -45 -67 -57.5t-6 -38.5q0 -31 18 -35q125 0 215 -64q104 -74 105 -200v-25q-4 -33 -42 -65.5t-85 -32.5q-16 0 -25 2l16 -19l373 -170q25 6 87.5 38t88.5 32q22 0 48 -18q18 -13 19 -24q0 -5 -3 -9q-76 -168 -101 -209
q-61 -104 -163 -104q-57 6 -137 45t-101 39q-20 0 -61 -30t-56 -54l-4 -52q7 -1 15 -1q32 1 80 13q60 16 81 15q43 0 68 -35q10 -16 10 -41t-10 -52.5t-21 -53.5q-23 -70 -120 -99q-74 -20 -199 -20q-29 0 -55.5 1t-53.5 1q-416 37 -585.5 211t-169.5 573q0 23 -7.5 97.5
t-7.5 111.5z" />
    <glyph glyph-name="y" unicode="y" horiz-adv-x="1263" 
d="M135 45q12 31 21 49q37 78 51 115q6 10 8 19.5t-4 17.5q-4 4 -28.5 15t-24.5 22q0 8 25.5 19t25.5 15v95q0 35 -2 50t-2 46q0 106 55 227q49 111 135 215q57 66 115 131q25 37 25 86q0 10 -11.5 80t-11.5 92q0 15 4 35q29 100 94.5 147.5t159.5 47.5q70 0 136.5 -23.5
t125.5 -75.5q39 -37 68 -81q18 -29 57 -109q-111 -25 -221 -49q4 -23 68 -125q57 -92 57 -184q0 -115 -57 -267q-63 -168 -162 -286q-6 -8 -39 -45q-25 -29 -35 -41.5t-10 -26.5q2 -23 6 -43q0 -102 39 -184q4 -12 43 -20.5t84 -16.5q-4 -8 -9.5 -17.5t-9.5 -19.5
q-14 -2 -45 -2q-35 0 -84 7t-63 7q0 10 -10.5 24.5t-3.5 20.5q6 4 20 2t27 -4l-29 107l-37 129q-72 -29 -108.5 -46.5t-75.5 -43.5q23 -63 47 -127q6 -10 20 -11q10 0 31 6.5t29 6.5q0 -12 -2 -27.5t4 -17.5q-51 -20 -93 -32.5t-81 -12.5q-35 6 -58 10l27 33q27 -4 37 -4
q14 0 24 6q0 27 -20.5 76t-20.5 71q-49 -10 -92 -35q-55 -35 -110 -67q-49 0 -64 2q-27 8 -45 12z" />
    <glyph glyph-name="z" unicode="z" 
d="M-8 502v129q14 76 47 131q92 154 113 219q109 348 224.5 441.5t309.5 93.5q92 0 223 -23t209 -23q53 0 96 -4t105 -8q49 0 176 17q63 8 90 8q20 -2 31 -2q68 0 116 -2t93 -4q49 0 76 8q-25 14 -52 51q-8 12 -22 37q31 -10 49 -15q61 -16 119 -28q10 -2 35 -2q14 0 82 9
q56 7 79 7h9q57 -6 122 -20q25 -4 68 -17q33 0 74 27q98 64 159 70v-54q-39 -86 -112 -118q-57 -27 -57 -74q0 -45 22 -101q10 -27 8 -41q-12 -55 -35.5 -278t-113.5 -223q-59 0 -92 90q-49 135 -134 221q-49 -49 -92 -104q-119 -154 -131 -166.5t-54 -25.5t-56 -36
q-31 -45 -47.5 -91t-26.5 -103q-23 -100 -32 -155.5t-9 -102.5q0 -61 31 -119q76 -143 77 -158q-20 -4 -60 2t-50 2q-27 -14 -34 -46t-17 -32q-47 0 -97 111q-41 92 -41 125q0 160 25 306.5t49 291.5q-104 0 -203.5 3t-234.5 9q-106 0 -195 49q-80 55 -159 111
q-68 0 -156 -221q-80 -203 -80 -293q0 -113 47 -229.5t94 -225.5q-35 12 -110 47q-59 27 -90 33t-56.5 11.5t-31.5 19.5q4 6 6 13t2 22q0 20 -8 43q-47 111 -62 151q-35 96 -35 168q0 152 42 234t42 120q0 76 -25.5 158t-58.5 141q-27 -39 -78 -249.5t-157 -329.5
q-16 -6 -25.5 -7t-19.5 1z" />
    <glyph glyph-name="braceleft" unicode="{" horiz-adv-x="2693" 
d="M25 1184q0 10 4 18t10 6q39 -4 59 -4q15 0 23 2q35 6 87 18.5t79 12.5q131 0 229 -75t154 -212q12 -31 133 -89t147 -85q100 -104 199.5 -159.5t261.5 -92.5q240 -45 479 -88q51 -14 121 -47q109 -51 219 -100q45 -25 92 -49q104 -23 179 -47q96 -37 157 -58
q-51 0 -221 19q-94 10 -149 10q-27 0 -54.5 -1t-50.5 -11q-8 -14 -14 -27l-264 -84q-37 -12 -84 -36.5t-64 -24.5q-12 -6 -16 -6.5t-2 6.5q2 2 18.5 13t20.5 15t-2 15l-62 -41q-8 2 -14 4q0 4 6 9t12 13q-4 2 -26 -12q-6 -4 -23 -14l-18 6q8 10 18 18q8 10 19 21l-70 -37
l-16 6q16 12 33.5 24.5t35.5 24.5q-6 2 -58 -20.5t-54 -22.5l-31 12l63 39q-6 4 -37 -4q-10 -2 -35.5 -9t-54 -9t-53.5 -2q-80 0 -152.5 8t-179.5 24q-2 -6 -2 -22t6 -39v-20q-4 -20 -2 -31q12 -23 15 -35q-10 -18 -11 -27q2 -16 4.5 -27.5t10.5 -17.5q2 0 4 -2v-24
q0 -16 -4 -25q-100 23 -184.5 73t-137.5 128q-27 41 -40 89t-23 122q-8 0 -43 -8.5t-58 -8.5q-37 0 -53 21q-53 63 -151 94q-33 8 -88 16q39 12 77 27q37 -6 76 -6q55 0 98 14q-55 88 -145 344q-72 203 -166 291q-18 16 -71.5 23.5t-65.5 10.5t-29.5 7t-26 8t-12.5 21
q6 0 15 2q31 -4 49 -4q27 0 39 6t14 20q-33 10 -63 21q-51 18 -74 45q-12 12 -12 37z" />
    <glyph glyph-name="bar" unicode="|" horiz-adv-x="1941" 
d="M82 1153q14 20 67.5 26.5t63.5 12.5q59 35 80 45q53 27 88 27q27 0 45 -9q55 -23 117 -71q37 -31 75 -62q117 -80 246 -100q66 -10 273 -10q94 14 173 21t134 7q45 0 84 -20q35 -25 69 -47q53 33 98.5 101.5t51.5 135.5q0 66 -13.5 111t-50.5 63q-16 8 -41 9
q-31 0 -63 -21q-14 -10 -25.5 -29.5t-15.5 -46.5q-12 4 -20 -6q-2 8 -1 18.5t7 34.5l24 52q23 12 35 16q41 16 76 16t70 -28q29 -23 48 -55.5t19 -96.5q0 -84 -30.5 -169t-86.5 -128q-12 -6 -12 -14q0 -6 12.5 -26.5t16.5 -39t4 -47.5q0 -35 -3 -51t-7 -24q8 -25 8 -58
q0 -37 -16.5 -106.5t-16.5 -100.5q0 -18 5 -42.5t75 -118.5q31 -41 31 -70q-2 -18 -2 -27q0 -29 6 -65.5t4 -55t3 -40t5 -25.5q0 -20 -14 -33q-20 -20 -31 -29q-37 -29 -59 -24q-35 8 -48 43q-10 20 31 36.5t44 26t3 23.5q0 35 -20 82q-27 53 -33 65q-25 53 -100.5 148.5
t-104.5 146.5q-2 -8 -2 -22.5v-20.5q0 -55 10.5 -112.5t28.5 -116.5q-45 -113 -63 -154q-33 -70 -99 -69q-23 -2 -35 -2q-16 0 -28 8t-12 18t26 27q41 27 60.5 45t34 53t14.5 68q0 51 -31 141q-92 266 -92 268q-184 -80 -199 -86q-143 -59 -248 -73q-6 -41 -9 -227.5
t-48 -250.5q-16 -12 -31 -24q-27 -16 -57 -17q-10 0 -34.5 4.5t-24.5 32.5q0 16 16 25q47 27 57 35q27 25 27 61q0 12 -2 21l-31 192l-16 68q-16 -20 -40 -93t-46 -143q-4 -8 -16.5 -60t-34 -70.5t-48 -22.5t-67.5 -4q0 8 -16.5 14t-16.5 14q0 10 12.5 23.5t50 38t46 57.5
t20.5 131q27 213 28 219t1 25q0 27 -19 102q-10 43 -10 68q0 68 -4 102.5t-31 65.5q-35 41 -59 69q-37 41 -82 82q-16 14 -35 15q-10 0 -35.5 -5.5t-38.5 -5.5q-25 0 -49 7.5t-63 25.5q-20 10 -33.5 38t-3.5 44z" />
    <glyph glyph-name="braceright" unicode="}" horiz-adv-x="1032" 
d="M86 692q0 172 102 330q70 109 179 197q16 12 17 41.5t3 56.5q-80 31 -131.5 45.5t-114.5 26.5q47 66 160 120q98 47 145 47q35 0 64 -15t55.5 -44t63.5 -88q51 -80 71.5 -108.5t90.5 -112.5q100 -123 133 -195q10 -20 14 -53t4 -63v-35q0 -207 -53 -385
q-61 -205 -178 -318q-10 -10 -42 -16t-42 -14q2 -16 3 -29.5t9 -24.5l41 -24l31 -11l-19 -12q-2 -2 -22.5 8.5t-22.5 8.5q6 -18 8 -27l11 -27q-6 2 -13.5 4t-17.5 13.5t-21 21.5q-4 0 -6 -16.5t-6 -16.5q-4 6 -6 12.5t-4 14.5q4 20 2 23q6 2 11 4t7 14q8 16 2 36.5t-12 27.5
q-4 4 -21.5 0.5l-27.5 -5.5q-12 -2 -22.5 -1t-16.5 1q0 -20 1 -37.5t7 -48.5q-2 -4 8 -12q39 -29 42 -34t3 -11v-14q-6 -4 -28 22l-27 27l6 -37q2 -4 11 -27q0 -2 2 -6q-8 0 -25 25q-6 8 -10 14t-6 15q-6 2 -25 -21q-2 -2 -5 -3t-5 -3q-8 12 -2 25.5t16 23.5q14 6 16.5 6
h4.5l-9 98q-27 2 -50 5.5t-41.5 16.5t-47 54t-35.5 43q8 -25 18.5 -49t20.5 -49q-23 4 -43 25q-8 8 -32 45q-12 23 -25 47q-31 59 -39 75q-16 -10 -18 -16t1 -33.5t5 -50.5q12 -35 6 -55q-12 8 -19.5 16t-10.5 17.5t-3 11.5q-8 12 -12 31.5t-8 40.5q-70 215 -70 411z" />
    <glyph glyph-name="asciitilde" unicode="~" horiz-adv-x="2629" 
d="M25 909q0 127 30 203q41 100 131 100q25 -4 37 -4q16 0 26.5 11.5t10.5 42.5v13t-2 9l64 -43l36 -39q35 41 62 96q53 106 69 123q27 29 85.5 44.5t148.5 23.5h96t101 2q201 0 352 -31q123 -25 268 -80q193 -53 307 -88q213 -66 391 -192q53 -37 78 -173t50.5 -170
t117.5 -56.5t113 -55.5q10 -20 10 -37q0 -12 -6 -22q-12 -20 -47 -21q-47 0 -108.5 39t-114.5 117q-37 51 -54 135q-14 90 -18 121q8 -18 8 -49q0 -53 -31.5 -167t-25.5 -136q2 -10 80 -115q31 -41 30 -78q0 -18 -7 -91t-7 -112v-63q0 -55 -7 -93t-32 -71q-20 -23 -60 -29
t-69 -10q0 8 -19.5 14.5t-29.5 4.5q70 59 98 104q41 61 35 127q0 70 -29 123q-53 82 -102 162l-49 47l22 -148q-18 -43 -108 -170q-35 -49 -53 -104q-6 -18 -7 -41q0 -12 2.5 -40t2.5 -40q-37 -4 -52 -4q-31 0 -57.5 6t-83.5 29q131 117 182 200q45 76 45 148q-2 14 -2 22
q-2 25 -28 64q-33 47 -36 61.5t-45 32t-59 43.5q-74 -51 -131 -69.5t-121 -18.5q-18 0 -67 2t-84 2h-47.5t-57.5 -4v-26.5t3 -32.5q0 -45 -5.5 -79t-21.5 -61q-6 -12 -46 -18t-44 -24.5t-4 -55.5q0 -20 4 -63t4 -60q0 -51 -25 -59q-8 -2 -44 -19.5t-56 -17.5q-45 0 -88 19.5
t-53 50.5q-8 25 43 61q31 23 36 37t5 34.5t2 35.5v26t-2 21q-20 61 -76 82q-72 16 -105.5 28.5t-99.5 40.5q-102 45 -143 41q-59 0 -133 -141q-29 -59 -58 -117l-31 -41q-14 37 -31.5 143.5t-34.5 138.5t-69.5 43t-66.5 25q-43 43 -60.5 104.5t-23.5 126t-7 90t-1 60.5z" />
    <glyph glyph-name="uni0080" horiz-adv-x="1935" 
 />
    <glyph glyph-name="uni0081" horiz-adv-x="1669" 
 />
    <glyph glyph-name="uni00A0" unicode="&#xa0;" horiz-adv-x="512" 
 />
    <glyph glyph-name="yen" unicode="&#xa5;" horiz-adv-x="1263" 
 />
    <glyph glyph-name="section" unicode="&#xa7;" horiz-adv-x="3235" 
d="M39 412v26q57 41 145 69t127 56q20 14 82 82q45 47 73 58.5t45 13.5t42 2q31 0 86 -8.5t82 -8.5q32 1 57 9q90 29 279 110q291 127 493 127q96 0 199 -18q20 -4 199 -43q104 -23 235 -142q106 -104 215 -206q123 -106 211 -107q14 0 45 8.5t49 8.5h246h46.5t47.5 2
q80 0 130.5 -12.5t52.5 -47.5q0 -72 -64 -106q-45 -25 -156 -41q-66 -10 -190.5 -19.5t-245.5 -18.5t-171 -14.5t-99 -21.5q-31 -10 -62 -18q-47 -18 -59 -43q-4 -8 -8 -41t-23 -33q-8 0 -7 -17.5t1 -33.5q-6 4 -19.5 28.5t-17.5 22.5q-10 -6 -20 -39q0 -4 -2 -16l-15 47
l-26 4q-4 0 -12.5 -15.5t-18.5 -31.5l-6 51l-41 8l-27 -35q-2 10 -4 28.5t0 33.5q0 14 8.5 40.5t6.5 36.5q-18 -4 -61.5 -6t-51.5 -2q-121 0 -250 14.5t-264 36.5q-18 2 -71.5 16.5t-73.5 14.5q-16 0 -23 -2q-76 -20 -125 -28.5t-94 -8.5q-4 0 -14 -28q0 -4 -7 -15
q-6 0 -18 16.5t-23 16.5q-8 0 -16 -28.5t-12 -32.5l-15 36l-34 13q-8 -14 -10.5 -22.5t-8.5 -18.5l-8 43q-8 0 -17.5 4t-13.5 2l-41 -27q2 8 6 19q18 23 19 24l-39 25q41 20 57 31q20 18 43 36q-113 27 -192 62q-49 23 -98 45q-23 -6 -40.5 0t-31.5 12q-12 0 -146 -67
q-63 -33 -106 -33q-47 0 -88 33.5t-41 83.5z" />
    <glyph glyph-name="dieresis" unicode="&#xa8;" horiz-adv-x="2347" 
 />
    <glyph glyph-name="copyright" unicode="&#xa9;" horiz-adv-x="1634" 
 />
    <glyph glyph-name="logicalnot" unicode="&#xac;" horiz-adv-x="1761" 
 />
    <glyph glyph-name="uni00AD" unicode="&#xad;" 
d="M39 758q0 27 45 78q53 59 70 110q10 31 28 58q4 6 39 47q16 20 47 20q16 0 29.5 -2t28.5 -4q23 0 71 -21q29 -12 45 -12q59 0 179 66q135 74 223 90q33 6 85 8t60 2q66 0 367 -24q151 -13 241 -13q49 0 160 39q57 20 105 21q150 0 387 -185q113 -88 231 -88q47 12 70 19
q78 20 92 20l-2 -14q-45 -33 -92 -48.5t-92 -15.5q-66 0 -160 33q-49 16 -96 35q-14 -68 -86 -238q-57 -135 -58 -239q0 -31 19.5 -83t40.5 -106q0 -47 -34 -131t-34 -117q0 -41 25 -71q-37 -4 -71 -16.5t-75 -12.5q41 98 41 238q0 66 -12 121t-41 90q-6 -43 -10 -73
t-18.5 -61.5t-47.5 -95.5q-53 -102 -53 -155q-23 -18 -54.5 -25.5t-70.5 -7.5q61 123 77.5 185.5t16.5 146.5v116q-20 0 -63 10.5t-68 6.5q-88 -12 -263 -23.5t-220 -21.5q-39 -33 -55.5 -97.5t-16.5 -150.5v-70q-20 -6 -35.5 -10t-36.5 -4q-20 0 -51 10q4 16 7 35.5t9.5 33
t26.5 32.5q6 6 19 14q0 57 -19 123q-16 33 -33 67l-22 -39q-14 -43 -21 -65q-16 -55 -16 -100q0 -16 -5 -42t-5 -30q0 -18 8 -33q-33 0 -53.5 -9t-32.5 -9q-16 0 -72 12q12 27 26.5 45t33 25.5t18.5 31.5q-2 29 -2 43q0 49 -31 113q-41 84 -118 139q-18 12 -27.5 57.5
t-20.5 59.5q-20 25 -73 57q-74 45 -80 49q-29 20 -57.5 42t-51.5 20q-31 -4 -49 -8q-51 -12 -104 -35q-18 -8 -46 -14.5t-44 -6.5q-72 0 -72 58z" />
    <glyph glyph-name="registered" unicode="&#xae;" horiz-adv-x="1720" 
 />
    <glyph glyph-name="acute" unicode="&#xb4;" horiz-adv-x="2842" 
 />
    <glyph glyph-name="uni00B5" unicode="&#xb5;" horiz-adv-x="1320" 
 />
    <glyph glyph-name="Aacute" unicode="&#xc1;" horiz-adv-x="1269" 
 />
    <glyph glyph-name="Acircumflex" unicode="&#xc2;" horiz-adv-x="3389" 
 />
    <glyph glyph-name="Adieresis" unicode="&#xc4;" horiz-adv-x="2764" 
d="M84 627q0 10 2 13t4 5q18 0 41 -3t25 -3q86 8 153.5 35.5t122.5 75.5q16 25 27 32l28 23q6 12 7 20q0 2 -7.5 24.5t-7.5 41.5q-6 25 -6 43q0 27 12.5 47t53.5 47q14 -27 63 -70q33 -28 49 -28q133 0 293 65.5t221 65.5q68 0 177.5 5t132.5 5q55 0 173.5 -8t182.5 -8
q20 0 154 -25q86 -16 174 -33q33 -4 67 -8q51 -10 84 -35q20 -14 43 -43q31 -41 64 -82l28 -30q8 -6 25.5 -6t28.5 -2q20 -6 20 18q0 12 -6 23.5t-19.5 21.5t-27.5 20q-4 4 1 9.5t13 5.5q16 0 36.5 -20.5t27.5 -45.5l4 -37q-2 -8 -11.5 -15t-23.5 -11t-23 -4q-20 0 -31.5 3
t-33 12t-27.5 21.5t-18 14.5l6 -164q0 -61 7 -109.5t30 -84.5q-6 -8 -13 -17q78 -61 119 -94q80 -63 101.5 -111.5t38.5 -124.5q12 -72 26 -143q-14 -6 -47 -12t-44 -10.5t-33.5 -29t-39.5 -24.5q-18 4 -18 37q0 16 6 35q8 12 16 25v49q-6 47 -8 75.5t-3 49t-13 32.5
q-55 61 -213 84q-20 -117 -51 -202q-10 -27 -14.5 -41.5t-14.5 -24.5q-16 -6 -34.5 -13t-47.5 -7q-20 0 -69.5 12t-51.5 12l41 39q16 12 42 24.5t37 24.5t14 53t3 105v10q-6 -2 -18 12.5t-47 23.5t-52.5 18.5t-50 36t-40.5 26.5q-43 0 -136 -25q-129 -35 -176 -41
q-195 -25 -389 -47q-49 -12 -125 -49q-92 -45 -106 -49q-47 -14 -242 -43q-70 -10 -121 -33q-14 -6 -28 -20q-51 -49 -54 -52q-6 6 -4 19.5t6 28.5q4 10 6.5 17t-6.5 7q-8 0 -19 -9t-22 -17l-28 -17l-13 17l9 12q10 14 10 18l-35 13q-6 -2 -19.5 -5.5t-19.5 2.5
q-12 14 15.5 44t90 65t124.5 57q23 8 43 19q66 33 79 37q53 12 80 19t41 20q-27 6 -67.5 26.5t-70.5 25.5t-65 5t-135 -14q-57 -8 -86 -9q-35 0 -75 7q-88 8 -147.5 12t-98.5 33q-25 29 -36 43t-15 20q-16 23 -20.5 48.5t-4.5 62.5z" />
    <glyph glyph-name="Aring" unicode="&#xc5;" horiz-adv-x="2744" 
 />
    <glyph glyph-name="Ccedilla" unicode="&#xc7;" horiz-adv-x="2672" 
 />
    <glyph glyph-name="Egrave" unicode="&#xc8;" horiz-adv-x="983" 
 />
    <glyph glyph-name="Ecircumflex" unicode="&#xca;" horiz-adv-x="2396" 
 />
    <glyph glyph-name="Edieresis" unicode="&#xcb;" horiz-adv-x="2836" 
 />
    <glyph glyph-name="Igrave" unicode="&#xcc;" horiz-adv-x="3010" 
 />
    <glyph glyph-name="Iacute" unicode="&#xcd;" horiz-adv-x="2693" 
 />
    <glyph glyph-name="Icircumflex" unicode="&#xce;" horiz-adv-x="1941" 
 />
    <glyph glyph-name="Idieresis" unicode="&#xcf;" horiz-adv-x="1032" 
 />
    <glyph glyph-name="Ograve" unicode="&#xd2;" horiz-adv-x="1484" 
 />
    <glyph glyph-name="Oacute" unicode="&#xd3;" horiz-adv-x="2424" 
 />
    <glyph glyph-name="Ocircumflex" unicode="&#xd4;" horiz-adv-x="1781" 
 />
    <glyph glyph-name="Odieresis" unicode="&#xd6;" horiz-adv-x="1101" 
d="M100 598q0 346 150 586q20 31 84 76q76 51 88 66t12 24q0 20 -41 49q-135 94 -142 101t-9 21.5t-4 20.5q55 12 178 76q100 51 182 51q14 0 64 27q25 12 43 16q2 -2 11 -5t11 -9q10 -31 57 -90.5t50.5 -82t3.5 -46.5q0 -20 -1 -41t-1 -39q0 -39 6 -56q18 -51 63 -122
q88 -139 88 -213q0 -29 -10 -66q-33 -119 -33 -250q0 -119 31 -235q8 -29 12 -78t4 -82q0 -35 -1 -66.5t-1 -62.5l6 -248q-23 -8 -34 -12q-43 -14 -70 -17.5t-49 -3.5q-55 0 -69.5 1t-24.5 6q2 4 4 16t13 20.5t23.5 24.5t12.5 29q0 61 -78 194q-33 51 -65 105
q-80 -29 -127 -117q-43 -104 -62 -146q-18 -31 -49 -43t-82 -12q-18 0 -44 6t-50 13q6 12 29.5 31.5t27.5 38t4 28.5q0 27 -14 76q-33 113 -33 145q0 31 8 49q57 143 58 201q0 20 -4 36.5t-9 33.5q0 31 -16 57q-23 35 -22 39q-16 -25 -33 -47q-10 -31 -10 -47q0 -10 3 -26.5
t3 -25.5q-10 -12 -11.5 -21t0.5 -20q-8 -2 -26 7q-10 -10 -10 -15q2 -6 6 -9t6 -3l-31 6l4 -10q-10 -2 -26 22v-16l-17 4q-4 12 -17.5 18.5t-15.5 12.5t-3 12t-1 37z" />
    <glyph glyph-name="Oslash" unicode="&#xd8;" horiz-adv-x="2764" 
 />
    <glyph glyph-name="Ugrave" unicode="&#xd9;" horiz-adv-x="1101" 
 />
    <glyph glyph-name="Ucircumflex" unicode="&#xdb;" horiz-adv-x="2611" 
 />
    <glyph glyph-name="Udieresis" unicode="&#xdc;" horiz-adv-x="970" 
d="M-6 831q0 6 4 12.5t8 14.5q20 6 43 14q23 25 42.5 63t39.5 77q10 18 18.5 40.5t8.5 41.5q0 4 -25 4q-16 0 -16 6q0 2 30 33q14 14 15 20q4 33 4 47q0 10 -5 18.5t-21.5 17.5t-18.5 17q8 14 16 29q16 -6 29.5 -10t19.5 2q27 27 27 86q0 10 -35 26.5t-35 20.5q14 8 35 13.5
t25 9.5q33 33 33 79q0 6 -13.5 28t-1.5 26q25 6 53.5 20.5t28.5 22.5q8 -4 -12 -58l4 -24q25 -4 39 0q12 2 22 8q21 13 37 29q10 -14 21 -13q6 0 16 7.5t20.5 13.5t22.5 24.5t16 18.5q18 0 22.5 -15.5t8.5 -31.5q8 2 17 4q20 14 24 14q10 -8 19 -8q-4 -16 -9 -31
q-14 -35 -8 -37q10 -4 43 32t51 22q6 -4 -2 -38t-4 -38q6 -6 72 8h31q0 -6 -25 -29q-8 -12 -14 -22q49 -14 71 -23q43 -16 60 -51q-10 -4 -21 -6h-55q-2 -4 6 -21.5t19 -27.5q16 -10 32 -21q0 -12 -6 -22t-6 -21q14 -6 23 -10q23 -12 41 -24q8 -6 9 -13.5t1 -15.5
q-12 -12 -29 -12q-23 0 -22 -13q0 -45 24 -86q6 -10 -5 -13t-15 -9q-8 -8 39 -62q25 -29 24 -37q0 -8 -24 -8q-31 0 -33 -8q2 -33 12 -47q20 -25 47 -29t35 -53t8 -98q0 -66 -10 -80t-19.5 -31.5t-9.5 -32.5q8 -27 9 -41q0 -16 -17 -34q-12 0 -20.5 30.5t-15.5 62.5t-40 32
q-8 0 -22 -3.5t-14 -17.5q4 -25 4 -39q12 0 31.5 1t21.5 -5q0 -6 -10 -16q-35 -33 -35 -35l24 -8q31 -2 31 -6q0 -6 -14 -11q-39 -12 -43 -24q-2 -4 15.5 -10.5t19.5 -8.5q2 -4 -11 -12q-29 -16 -28 -18q2 -4 22.5 -8.5t40.5 -8.5q0 -16 -31.5 -28.5t-35.5 -16.5
q-8 -8 2 -14q37 -23 39 -29q2 -20 -5 -20q-6 -2 -23.5 2t-19.5 0q-10 -10 -10 -49l10 -9l-8 -8q-16 -6 -16 -12q-10 -27 -10 -41q0 -6 13 -14.5t15 -12.5q4 -10 -2 -28q-2 0 -26.5 7t-28.5 3q-6 -6 -6 -25q4 -37 4 -49q-12 0 -31.5 4t-21.5 0q-6 -20 -4 -28q4 -16 17 -29.5
t13 -24.5h-16q-20 8 -29 4q-8 -4 -5 -15t-13 -9q-4 8 -6 10q-8 10 -19 10q-14 0 -16 -17.5t-4 -37.5q-2 -2 -25.5 15.5t-25.5 15.5q-2 -4 12 -31t12 -29q-25 6 -49 11q-6 -6 -10 -31t-8 -25q-10 0 -17.5 24.5t-9.5 29.5q-4 4 -19.5 0.5t-19.5 -3.5q-6 0 -10 -29.5t-8 -29.5
q-6 0 -15 31q0 4 -4 14q-25 0 -27 -2q-16 -25 -25 -34t-18 -9q8 20 11 31q10 31 8 35q-12 12 -29 8q-10 -4 -20 -17q-2 -4 -8 -12q0 12 -1 25.5t-13.5 18.5t-30.5 5q-37 0 -37 2q0 6 12 23.5t10 21.5q-10 16 -47 31q-14 6 -53 16l18 9q20 12 21 24q0 6 -18.5 12.5
t-12.5 16.5q6 16 6 20q0 8 -14.5 14.5t-16.5 8.5q-2 4 11.5 17.5t9.5 17.5q-2 4 -19.5 10t-31.5 12q31 10 30 23q0 4 -12 13t-8 13q12 12 12 21q0 10 -14 16t-27 13q33 14 33 24q-8 8 -14 17q6 16 6 24q0 14 -9.5 19.5t-9.5 7.5q29 12 29 22q-10 8 -18 17q20 18 20 26
q-6 6 -10 13q10 27 27 59q33 61 34 68q10 20 20.5 25t22.5 7q-20 -35 -36.5 -94t-16.5 -94q0 -123 80 -266q90 -160 195 -160q82 0 147 92q59 84 59 160v28q0 61 -7 109.5t-32 89.5q-59 92 -86 139q-47 82 -47 138q0 117 13.5 202.5t42.5 169.5l28 78q6 25 6 47q0 29 -6 54
q-14 -8 -28 -17q-29 -27 -23 -47q0 -6 13.5 -12t11.5 -17q-2 -8 -15.5 -10t-19.5 -5t-14 -17q0 -2 -2 -9q-4 0 -10.5 16.5t-12.5 14.5q-106 -31 -190 -176q-104 -180 -140 -211q-10 -2 -29.5 -4t-25.5 -2q-47 0 -47 24z" />
    <glyph glyph-name="germandbls" unicode="&#xdf;" horiz-adv-x="1669" 
d="M12 1257q0 27 6.5 43.5t15.5 25.5t27.5 14.5t34.5 9.5q33 -16 56 -50q57 -86 133 -192q14 -8 30 -14q14 18 15 28q0 18 -27 35t-29 21q6 37 7.5 47t15.5 17t14 15l-6 9q-8 8 -14 16l-12 27l4 43q2 14 14 26q4 4 14 13q25 8 51 18q82 72 170 104q68 25 134 25
q33 0 60.5 -4t49.5 -6q6 0 113 51q55 27 80 27q-33 -109 -64 -215q31 -27 53.5 -64t22.5 -86q0 -55 -27.5 -120.5t-70.5 -129.5q170 -106 172 -108q72 -53 115.5 -147.5t62.5 -211.5l24 -164q10 14 119 127q47 49 82 97q29 39 49 100q57 172 59.5 178t18.5 6q14 0 29.5 -9
t13.5 -21q-18 -164 -74 -316q-47 -131 -120 -250q-195 -324 -529 -323q-51 0 -97 9t-85 34q-23 14 -68 14q-35 0 -61 -10q-137 -47 -232 -47q-47 0 -122 18q-96 25 -97 49q0 37 72 117t72 164q0 145 -58 403q-37 162 -49 246t-121 213q-47 57 -47 98z" />
    <glyph glyph-name="adieresis" unicode="&#xe4;" horiz-adv-x="1484" 
d="M47 1473q-2 23 16 49q27 27 57.5 52.5t61.5 41.5q16 8 47 16t54 8q31 0 77 -34q8 -8 25 -9q25 6 39 7q39 0 55 -9l19 -20q-12 -10 -50 -27.5t-61 -21.5q-4 -6 -2 -21.5t4 -25.5q0 -59 11.5 -164t33.5 -191q8 -33 23.5 -48t25.5 -15q14 0 47 4t39 4q76 0 310 21
q117 10 200 10q174 0 257 -59.5t83 -200.5q0 -41 -14 -78q-2 -6 -29 -55q-16 -27 -63 -91q-37 -47 -49 -88q-4 -12 10 -43q41 -84 45 -135q-10 -49 -16 -82q-23 -119 -29 -166t-9 -72.5t-3 -41.5l-5 -23q0 -14 -1 -18t-5 -6l-18 2l-6 16q-23 -14 -31 -14l-14 -2q-8 10 0 24
q2 6 7 11.5t9 7.5q0 18 5 37.5t16 52.5q4 14 4 60t2 79l2 70l-8 6q-18 -41 -27 -66q-35 -88 -49 -119q-25 -51 -58 -106q-12 -20 -34 -57q-4 8 -3 12t-2.5 10t-3.5 8q-4 0 -9 -6t-5 -8l-45 -2l35 43l31 31q47 100 63 145q29 78 29 141q0 47 -64 215q-39 104 -47 136
q-68 -35 -116 -53.5t-91 -18.5q-41 0 -110 16q-6 -33 -10.5 -157.5t-4.5 -255.5q0 -63 -4 -100.5t-10 -67.5q4 -20 0 -31.5t-12 -13.5t-10 -2q-12 -12 -25.5 -26.5t-28.5 -14.5q-4 6 -6 8q-16 20 -33 26q-4 2 -26.5 -7t-26.5 -9l-8 21q-4 14 20.5 32.5t26.5 26.5
q16 47 26.5 88t10.5 76q0 29 -7 53.5t-19.5 53t-14.5 50t-2 64.5v51q0 57 -6 90t-39 66q-12 12 -45 29q-47 23 -56 28q-51 37 -81 170q-16 68 -31 135q-4 23 -20.5 92.5t-24.5 112.5q-25 129 -29 143q-16 66 -31 66q-29 -2 -81 10.5t-52 34.5q-6 14 -6 19z" />
    <glyph glyph-name="aring" unicode="&#xe5;" horiz-adv-x="3235" 
 />
    <glyph glyph-name="ccedilla" unicode="&#xe7;" horiz-adv-x="1669" 
 />
    <glyph glyph-name="egrave" unicode="&#xe8;" horiz-adv-x="2611" 
d="M-6 535q14 31 22.5 61t8.5 61q0 61 30 119q82 152 86 178q2 -10 2 -20v-21q0 -35 -2 -49q-10 -74 -10 -76q0 -45 19 -71q2 -4 10 -12q0 -16 -51 -95q-16 -25 -54 -75h-61zM184 766l4 115q4 37 11.5 89t38.5 150q4 10 25.5 33t27.5 43q133 -123 371 -174q66 -14 65 -82
q-2 -16 -2 -27v-20q-35 16 -57 43q-31 37 -115 37q-66 0 -89.5 -3t-41.5 -16q-43 0 -94 74q-16 25 -41 74q-18 -37 -50 -166t-53 -170zM266 1255q68 0 135 -32q82 -43 166 -84q121 -14 187 -90q49 -84 63 -103q4 10 4 41q0 182 -121 197l-110 12q-59 55 -135 96t-148 41
q-12 0 -20 -18.5t-21 -59.5zM276 465q2 10 3 29q0 12 -3 22q37 14 66 14q14 0 40 -5t40 -5q-8 35 -20.5 47.5t-28.5 12.5q-16 -2 -25 -2q-16 0 -29.5 11t-23.5 48q31 6 47 6q18 0 30.5 -8t18.5 -8q10 0 43 24q-27 31 -37 35t-63 8q8 18 15 30.5t22 33.5q25 -18 51 -33
q14 23 30.5 43t53.5 20q61 0 100 -28q6 -4 17 -15q0 -31 -33 -51q-25 8 -43.5 15.5t-30.5 7.5q-14 0 -82 -12v-43q47 0 67.5 -4.5t47.5 -26.5q6 -23 6 -37q0 -10 -6 -27q-14 10 -25.5 18.5t-27.5 14.5h-74q10 -51 26.5 -63.5t79.5 -12.5q-16 -35 -70.5 -52t-76.5 -32
q-4 6 -8 13q-12 12 -35 12h-62zM303 389q86 0 93 18.5t122 32.5v-61q-55 0 -96 -17q-57 -29 -115 -57zM317 254q78 25 132.5 52.5t87.5 29.5l-5 -62q-45 -4 -88 -38.5t-106 -47.5q-4 31 -21 66zM338 1376l22 33q20 29 31 27q31 -10 66 -11q31 0 49 3.5t43 7.5q37 6 59 6
q57 0 72 -49q27 -88 63 -133q-68 0 -78 33.5t-47.5 50t-144 20.5t-135.5 12zM365 160q63 12 107 41.5t56 29.5q18 4 23 5q8 0 24 -48l-204 -84zM371 809v61q27 23 39 28t45 5q78 0 125 -16q31 -10 86 -58q-37 -10 -48 -10q-8 0 -33.5 11.5t-66.5 11.5q-39 0 -81 -13.5
t-66 -19.5zM381 86q125 0 141 41q8 20 39 20t39 -20q23 -53 53 -92v-66q-16 4 -48 19.5t-46 15.5q-59 0 -110.5 22.5t-67.5 59.5zM440 1448q16 20 101 49q27 9 82 25q10 -4 16 -9q23 -18 45 -53q-14 -4 -25.5 -4h-21.5t-43 7t-45 7q-29 0 -44.5 -11t-64.5 -11zM707 1522
q25 -14 51 -68.5t53 -136.5q18 -55 37.5 -108.5t46.5 -73.5v53q0 10 -21.5 69.5t-105.5 253.5h53q43 -27 88 -145q39 -102 39 -137v-369q-10 10 -63.5 148.5t-108.5 294.5q-25 63 -47 126.5t-22 92.5zM885 1487q53 -4 61 -27q18 -55 55 -119q8 12 9 25q0 25 -21 61v43
q39 -27 55 -172q8 -78 9 -163q0 -147 -15.5 -218t-31.5 -98q-8 31 -9 86v30.5t2 20.5q0 59 -7 64.5t-15 9.5q0 18 10 48t23 67q0 70 -47 188q-39 97 -78 154zM1057 1460q29 -4 45 -12q4 -2 12 -8l41 20v-295l-65 -346q-16 20 -22.5 47t-6.5 62q0 49 16 125q37 170 37 176
q0 104 -16 137q-35 70 -41 94zM1167 905v31q0 61 15.5 126.5t15.5 82.5q-4 25 -8 67.5t-4 90.5q0 55 7 94t28 63v-178q39 27 49 88t53 90v-65q-88 -281 -117 -412q-18 -86 -18 -168q-10 27 -15.5 51.5t-5.5 38.5zM1251 801v205q49 154 80 276q20 88 41 178q21 -6 35 0v-65
q-16 -92 -42 -202t-56 -192q-14 -37 -25.5 -104.5t-21.5 -87.5zM1356 842v123q72 221 84 274t33 240h51q-2 -14 -2 -23q0 -20 8 -78.5t8 -77.5q0 -51 -27.5 -92t-54.5 -112q-78 -211 -100 -254zM1440 819v94q70 131 94 187q43 94 43 200v191h51q-14 -49 -14 -90q0 -25 7 -71
t7 -58q0 -55 -78 -230q-63 -143 -110 -223zM1462 119q72 31 144 65q22 11 53 27v-64q-20 -8 -53 -25.5t-39 -17.5q-2 -8 -4 -10q-8 -10 -25 -10q-14 0 -30.5 7t-45.5 28zM1473 180v64q12 -4 21 -4h19q18 0 42 2t30 2q-12 33 -28.5 41t-49.5 8q-23 0 -34 2v63q45 -12 57 -12
q14 0 26.5 5t28.5 20q-27 4 -45 8t-57 33v43q20 -12 35.5 -19.5t37.5 -7.5q14 0 25 2q-4 33 -25 49q-33 25 -65 51q29 0 41 -2l24 -4q4 0 41 11q-23 16 -46 34t-33 41q10 4 14 6q18 8 27 9q10 0 23 -7.5t36 -27.5h84q-8 -49 -44 -61.5t-61 -55.5q43 0 74 10v-71
q-25 -6 -47 -8.5t-39 -4.5q14 -8 34.5 -17t29.5 -11v-43q-16 0 -25.5 1t-15.5 7q-6 -14 -23 -31q14 -8 27 -16q29 -18 37 -25q-23 -16 -23 -24q-2 0 -10 2t-39 2q-8 -45 -17.5 -50.5t-86.5 -13.5zM1513 -8v51q68 0 101 23q39 36 74 63l22 -41q-14 -2 -24 -10
q-35 -25 -37 -25q8 -4 26.5 -1t40.5 7q20 0 37 -16q8 -6 4 -24.5t-4 -26.5h-61q-45 0 -45 10t-50 10q-33 0 -42 -2t-42 -18zM1524 -31h125q-4 -18 -9 -37q-6 -14 -32 -14q-37 0 -49 10q-4 2 -25 31zM1524 788v72q41 82 74.5 173t46.5 155q43 -156 96 -266q72 -150 67 -187
q-39 55 -82 137t-88 148q-41 -39 -52 -115t-62 -117zM1534 662v63q31 -14 62.5 -27.5t62.5 -13.5l74 -4q-12 -31 -19 -41q-12 -20 -33 -21zM1585 766v43q12 39 19 61q27 88 30 107q10 -37 66 -133q33 -55 53 -119q-37 14 -63.5 52t-51.5 75q-14 -20 -28.5 -44t-24.5 -42z
M1608 735q18 0 39 2q23 -6 45 -12q-14 -2 -33 -2q-8 0 -51 12zM1681 1229v250h52q0 -289 49 -437q55 -113 110 -223q-6 -6 -8 -10q-14 -20 -24 -43q-12 41 -105 235q-74 156 -74 228zM1753 1417v62h43q0 -285 49 -412q53 -94 109 -186q0 -12 -12.5 -25.5t-24.5 -26.5
q-12 41 -72.5 160t-65.5 147.5t-5 40v15.5q0 12 2 36.5t2 39.5q0 31 -5.5 63.5t-19.5 85.5zM1802 1575h53q29 -4 58 -16q47 -20 62.5 -24.5t48 -13t73.5 -8.5l45 11q47 25 64 28l16 -8q-2 -14 -21.5 -20t-25.5 -15q-16 -20 -23 -28q-16 -27 -16 -60q-39 41 -90 47
q-31 6 -41 2q2 -6 6 -12q57 -23 57 -41q-6 -6 -14 -9t-18 -1q-18 2 -35 6q-86 51 -133 82q-53 37 -66 80zM1819 1483l36 -4q0 -133 43 -277q37 -127 115 -248l-33 -43q-57 88 -77 131q-33 68 -48 146q-20 102 -28 159.5t-8 135.5zM1905 1309q0 31 6 65.5l10 57.5
q16 -6 30.5 -22.5t21.5 -28t7 -31.5q-4 -27 -4 -43q0 -6 5.5 -42t11.5 -87q4 -14 16 -40t17.5 -47.5t11.5 -50t6 -61.5q0 -25 -6 -25q-12 0 -48 88t-67 168q-10 27 -14 51.5t-4 47.5zM2017 1311q0 33 13 75q10 -4 22 -8t12 -12q0 -27 -1 -48.5t-1 -37.5q0 -29 3 -59.5
t24.5 -70.5t58.5 -75q53 -51 105 -117q4 -8 0 -26q-4 -6 -8 -10q-18 37 -54 63q-51 41 -59 49q-25 23 -35 33q-20 18 -26 41q-8 27 -31 94.5t-23 108.5zM2052 1092q20 -16 29 -23q16 -14 18 -33v-30q-18 20 -37 41q-6 23 -10 45zM2089 1303q0 30 10 75q0 -51 11.5 -92
t35.5 -90q10 -25 22.5 -47.5t37.5 -32.5q6 -4 25.5 7.5t23.5 0.5q10 -23 26.5 -46t34.5 -48q-4 -16 -8 -31q-12 16 -21.5 36t-24.5 28t-26 14l45 -96q-25 20 -48 41.5t-40.5 43t-29.5 34.5q-27 29 -37 51q-37 84 -37 152zM2148 1341q0 18 6 43q14 68 68 107q-2 -29 -6 -45
t-21 -76l-36 -84q-10 35 -11 55zM2159 1233l79 -33v-49l-32 -2zM2175 1262l47 131q2 4 10.5 9t16.5 9q10 0 8 -10q-14 -33 -18.5 -47.5t-8.5 -30.5q-10 -31 -30 -45q-4 -2 -13.5 -6t-11.5 -10zM2195 877q55 6 95 47q12 12 28 41q39 -4 68 -31t29 -53q0 -57 -26 -96.5
t-71 -39.5q-63 0 -82.5 42t-40.5 90zM2226 1255.5q-2 12.5 2 16.5q14 14 26.5 53t33.5 53q0 -20 -3.5 -33.5t-23.5 -66.5q-6 -14 -10 -21.5t-19 -25.5q-4 12 -6 24.5zM2249 1522q10 -4 22 -6q61 -43 123 -84q-14 4 -53 26q-51 31 -92 64zM2263 1188q0 35 15.5 70.5
t29.5 70.5q8 -14 14.5 -31.5t11.5 -42t7 -48t8 -46.5q-8 -8 -16 -14q-6 12 -15 82l-12 4q-6 -10 -6 -27q2 -18 2 -32q0 -27 22 -64q14 -25 19 -39l12 -67q-18 31 -32.5 55t-24.5 49q-18 39 -35 80zM2267 1454q70 -16 109 -47t55 -88l6 -33l-86 80q-8 8 -47 51q-18 20 -37 37
zM2329 1352l108 -109l2 -96q-16 45 -43 96q-10 20 -36.5 53t-30.5 56zM2357 1262q0 -29 4.5 -45.5t18.5 -63.5q12 -33 19 -46t30 -40q0 37 -5 55.5t-20.5 59.5t-46.5 80zM2378 1096l55 -109l-20 -43zM2384 1507q0 4 51 33t107 66q14 10 28 10q13 0 23 -10q6 -6 6 -21
q0 -12 -1 -19t-5 -14l-45 -114q-16 12 -18.5 42.5t-30.5 30.5q-35 2 -39 2t-6 -2q-16 -14 -56 -32q-2 12 -8 19t-6 9zM2425 1448q18 18 53 22l10 -22q-8 -37 -10 -53q-8 -16 -14 -31q-2 14 -21 49q-6 12 -18 35z" />
    <glyph glyph-name="eacute" unicode="&#xe9;" horiz-adv-x="2611" 
d="M14 1585q0 14 8.5 22.5t20.5 8.5q14 0 29 -10q51 -33 104 -65t53 -34q-12 -6 -14 -28q-33 14 -51 28q-8 6 -10 6q-12 -2 -39 -2t-29 -29.5t-20 -43.5l-46 114q-6 23 -6 33zM125 1448l10 22q35 -4 53 -22q-10 -23 -16 -35q-20 -43 -22 -49q-8 14 -15 31q-2 16 -10 53z
M174 1147q16 45 43 96q10 20 37 53t31 56l-109 -109zM176 1286l6 33q29 104 164 135q-29 -25 -47 -47q-27 -31 -37 -41zM180 987l56 109l-35 -152zM184 1067q0 37 5.5 55.5t23.5 63.5q12 37 43 76q0 -29 -4.5 -45.5t-18.5 -63.5q-12 -33 -19 -46t-30 -40zM199 881
q0 27 28.5 53.5t67.5 30.5q14 -27 27 -39q41 -43 96 -49q-25 -55 -49 -109q-16 -23 -74 -23q-43 0 -69.5 40.5t-26.5 95.5zM219 1432q61 39 123 79q10 4 23 11q-39 -31 -87.5 -59.5t-58.5 -30.5zM258 1004l12 67q4 12 22.5 45t18.5 58q2 25 2 34q0 16 -6 25q-6 -2 -10 -2
q-8 -68 -16 -84q-8 6 -17 14q6 25 9.5 48.5t5.5 43.5q8 39 10 45.5t16 30.5q4 -14 24.5 -60t20.5 -73q0 -25 -12 -46.5t-23 -41.5q-12 -33 -24 -53q-23 -33 -33 -51zM295 1016.5q-4 7.5 2 13.5q12 18 31.5 45t29.5 49q4 10 22.5 -1t27.5 -7q20 8 35.5 36t23.5 44
q25 47 36 88t11 94q10 -47 10 -78q0 -35 -9 -71.5t-28 -77.5q-10 -25 -27.5 -44.5t-37 -41t-43 -43t-47.5 -41.5l45 96q-16 -10 -33 -18q-10 -8 -16 -25q-16 -20 -23 -35q-6 10 -10 17.5zM326 1378q0 -20 3 -33.5t23 -66.5q6 -14 10.5 -21.5t18.5 -25.5l7 24.5t-3 16.5
q-14 14 -26.5 53t-32.5 53zM356 1401q14 -33 17.5 -47.5t11.5 -38t29 -37.5q4 -2 13 -6t11 -10l-47 131q-2 4 -10 9t-16 9q-10 0 -9 -10zM360 932q4 -6 9 -10q18 37 53 63q51 41 59 49q25 23 35 33q21 18 27 41q8 27 30.5 94.5t22.5 108.5q0 33 -12 75q-10 -4 -22.5 -8
t-12.5 -12v-44.5t2 -41.5q0 -29 -3 -59.5t-24.5 -70.5t-58.5 -75q-53 -51 -105 -117q-4 -8 0 -26zM375 1151l33 -2l47 84l-80 -33v-49zM391 1491q2 -29 6 -45t21 -76l37 -84q10 35 10 55q0 18 -6 43q-14 68 -68 107zM391 1544q2 -14 21.5 -20t25.5 -15q16 -20 23 -28
q16 -25 16 -60q39 41 90 47q31 6 41 2l-20 -16q-43 -16 -43 -37q6 -6 14 -9t19 -1q16 2 34 6q86 51 136.5 85t62.5 77h-53q-29 -4 -58 -16q-47 -20 -63 -24.5t-48 -13t-73 -8.5l-45 11q-6 2 -53 24q-14 -2 -27 -4zM514 1006q23 31 45 63q0 10 2 23q-20 -16 -29 -23
q-16 -14 -18 -33v-30zM569 979q0 41 7.5 71.5t13.5 53.5q14 37 31 74q4 18 6 43.5t6 52t4 35.5q-4 29 -4 43q0 18 7 30.5t17 22.5q18 20 35 27q6 -35 11.5 -73t5.5 -50q0 -35 -3.5 -50.5t-15.5 -48.5q-41 -102 -61 -155q-41 -100 -54 -101q-6 0 -6 25zM600 954
q43 66 68.5 120t46.5 128q43 143 43 277l37 4q0 -76 -8.5 -136.5t-28.5 -158.5q-10 -61 -30.5 -112.5t-94.5 -164.5zM659 881q0 41 50 92q109 113 108 506h43v-62q-14 -51 -19 -84t-5 -67q0 -25 2 -50.5t2 -31.5q0 -18 -2 -29q-8 -45 -67.5 -163t-74.5 -163q-16 16 -22 25
q-15 17 -15 27zM721 819q63 82 111.5 228.5t48.5 431.5h51v-250q0 -74 -72 -225q-96 -203 -106 -238q-14 31 -20.5 39t-12.5 14zM805 735q39 55 82 137t88 148q41 -39 52 -115t63 -117v72q-41 82 -75 173t-46 155q-43 -156 -97 -266q-72 -150 -67 -187zM856 18.5
q-4 18.5 4 24.5q16 16 37 16q33 -4 68 -6q-31 17 -62 35l23 41q37 -33 73 -63q33 -23 101 -23v-51q-25 10 -40.5 15t-43.5 5q-49 0 -49 -10t-45 -10h-62q0 8 -4 26.5zM860 725q37 14 62.5 52t52.5 75q14 -20 31 -47q10 -20 22 -39v43q-12 39 -18 61q-27 88 -31 107
q-10 -37 -66 -133q-33 -55 -53 -119zM881 680q12 -31 21 -46.5t30 -15.5l147 44v63q-33 -14 -63.5 -27.5t-61.5 -13.5zM911 590h84q37 35 60 35q10 0 24.5 -7.5t16.5 -7.5q-10 -25 -33 -43q-31 -20 -47 -32q31 -10 43 -11q6 0 26.5 3t36.5 3q-10 -16 -47 -38.5t-43 -61.5
q10 -2 27 -2q25 0 40 8t31 19v-43q-39 -29 -54 -31t-48 -10q31 -25 57 -25q10 0 56 12v-63l-66 -4q-31 -6 -47 -47q12 0 37 -2t37 -2q25 0 39 4v-64q-76 8 -86.5 13.5t-18.5 50.5q-27 0 -36 -1t-13 -3q-6 12 -22 24q27 18 30 21q12 8 33 20q-16 16 -19 20.5t-3 10.5
q-12 -8 -41 -8v43q20 6 30.5 10t32.5 18q-23 2 -44 4.5t-42 8.5v71q16 -6 32.5 -8t41.5 -2q-25 43 -60.5 55.5t-44.5 61.5zM922 725q33 6 67 12q8 -2 17 -2q-37 -12 -56 -12q-14 0 -28 2zM954 147v64q31 -16 54 -27q72 -35 143 -65q-25 -18 -44.5 -26.5t-31.5 -8.5
q-20 0 -23 7t-5 13q-8 0 -39 17q-42 22 -54 26zM965 -31h125l-11 -10q-20 -27 -32.5 -34t-40.5 -7q-25 0 -31 18.5t-10 32.5zM985 1272q0 23 7 67.5t7 63.5q0 39 -14 88h51v-191q0 -106 45 -200t93 -187v-94q-51 86 -111 221q-78 175 -78 232zM1075 1305q0 25 9.5 86t5.5 88
h51q23 -201 31 -239t85 -275v-123q-27 51 -100 252q-26 75 -55 114q-27 41 -27 97zM1206 1395v65h35q6 -37 14 -74q27 -129 107 -380v-205l-10 8q-6 14 -17.5 80.5t-29.5 111.5q-39 109 -72 256q-15 68 -27 138zM1290 1395v65q43 -29 53.5 -90t49.5 -88v178q20 -25 27 -62.5
t7 -94.5q0 -47 -5 -89.5t-7 -68.5q0 -8 21 -109q10 -51 10 -100v-31q0 -27 -3 -41t-18 -49q0 90 -16 168q-25 113 -119 412zM1458 1165v295l41 -20q6 6 10 8q14 8 47 12q-12 -45 -30 -78q-27 -45 -27 -153q0 -14 35 -174q18 -86 18 -129q0 -39 -5 -60.5t-23 -46.5z
M1561 1135q0 102 6 163q14 143 57 172v-43q-20 -39 -20 -63q0 -8 2 -13.5t6 -9.5q35 61 53 115q8 27 64 31q-39 -57 -78 -154q-47 -119 -47 -188q0 -6 16 -51t16 -64q-8 0 -15 -8t-7 -66v-20t2 -31v-45q-6 -31 -8 -41q-18 31 -32.5 125t-14.5 191zM1665 860v369q0 39 37 137
q45 117 90 145h53q-74 -172 -102 -247q-12 -39 -25 -76v-53q25 20 54 98q16 47 30 84q25 74 53.5 133t51.5 72q0 -31 -32 -117t-38 -102q-55 -156 -108.5 -294.5t-63.5 -148.5zM1792 987q0 182 121 197l110 12q59 55 135 96t148 41q12 0 20.5 -18.5t20.5 -59.5
q-68 0 -135 -32q-84 -43 -166 -84q-121 -14 -186 -90q-49 -84 -64 -103q-4 10 -4 41zM1870 1260q37 45 63 131q16 51 74 51q23 0 51.5 -4t57 -8.5t43.5 -4.5q35 0 63 11q10 2 29 -25q12 -18 24 -35q-143 -18 -284 -35q-33 -14 -43 -47.5t-78 -33.5zM1886 942q0 68 115 88
q174 31 321 166q6 -20 28 -43t26 -33q31 -100 37 -148t12 -91l4 -115l-102 336q-25 -49 -41 -74q-49 -74 -95 -74q-10 6 -20 9q-41 10 -111 10q-78 0 -102 -25q-45 -43 -70 -55v20q-2 20 -2 29zM1929 1460q27 43 51 58q4 2 11 4q53 -16 80 -25q86 -29 102 -49
q-51 0 -66.5 11t-42.5 11q-4 0 -53 -10q-20 -4 -35 -4h-18.5t-28.5 4zM1948 829q37 -10 47 -10q8 0 33.5 11.5t66.5 11.5q39 0 81 -13.5t67 -19.5v61q-27 23 -39 28t-45 5q-78 0 -125 -16q-31 -10 -86 -58zM1960 -31v66q33 43 53 90q10 23 39 22q23 0 43.5 -30.5
t136.5 -30.5q-16 -37 -67 -59.5t-111 -22.5q-18 0 -45 -12q-43 -20 -49 -23zM1991 745q14 14 26 21q41 23 90 22q39 0 54 -16q16 -29 30 -47q27 14 52 33q16 -25 22 -34t14 -30q-53 -4 -63 -8t-37 -35q35 -25 45 -24q14 16 49 16q16 0 45 -6q-10 -37 -23.5 -48t-31.5 -11
q-16 2 -25 2q-14 0 -26 -7.5t-21 -52.5q25 0 50.5 5t29.5 5q23 0 66 -14q-2 -10 -2 -27q0 -16 2 -24h-62q-23 0 -43 -25q-18 12 -73.5 29.5t-73.5 54.5q66 0 81 10.5t25 65.5h-73q-10 -4 -28.5 -16.5t-25.5 -16.5q-6 16 -6 29q0 12 6 35q25 20 50.5 25.5t64.5 5.5v43
q-68 12 -82 12q-16 0 -37.5 -9.5t-36.5 -13.5q-16 10 -24 21.5t-8 29.5zM2038 188q16 47 24 48q10 -4 23 -5q14 0 39 -16q61 -43 125 -55l-6 -56zM2077 336q31 -2 59 -17q102 -47 160 -65q-16 -35 -21 -66q-61 12 -103 47t-91 39zM2095 379v61q113 -14 120 -32.5t95 -18.5
l-4 -84q-72 39 -116 56.5t-95 17.5zM2454 705q10 10 14 18q14 27 14 65q0 25 -6 64t-6 66q0 22 2 36q4 -27 84 -176q33 -61 33 -121q0 -61 30 -122h-61q-35 51 -51 75q-53 80 -53 95z" />
    <glyph glyph-name="odieresis" unicode="&#xf6;" horiz-adv-x="2424" 
d="M86 1196q8 41 19.5 71.5t17.5 49.5l74 225q10 29 14 76t4 90q12 -14 25.5 -29.5t27.5 -29.5q16 0 41 25.5t33 29.5q-2 -16 -2 -25q0 -37 22 -49q90 -12 144.5 -18t106 -23.5t114.5 -56.5q74 -47 114 -72.5t68 -66.5q25 -41 52 -82q119 -90 182 -94.5t102 -4.5
q66 0 217 41q76 20 133 21q154 0 252.5 -27.5t152.5 -92t140 -193.5q125 -188 232 -242q-8 -10 -13 -14q-14 -14 -30.5 -22.5t-32.5 -8.5q-68 0 -160 110q-31 37 -80 113q-20 -68 -32.5 -122t-12.5 -105q0 -18 33 -56q86 -96 98 -131q0 -160 15 -288q8 -74 8 -123
q0 -23 -8.5 -47.5t-17.5 -44t-13 -33.5q-16 -23 -113 -39q-37 -6 -59 -6q18 20 28 30q31 31 62 54q16 12 33 32q6 6 14 23q-10 47 -23 119q-27 168 -32 196q-29 137 -156 252l-106 33l-21 -74l107 -96q-6 -14 -127 -154q-88 -102 -88 -202q0 -29 8 -29q6 2 13 3t7 -34
l-33 -110q-35 18 -38 51q-29 49 -48.5 75.5t-19.5 51.5q0 12 6 29q23 59 31 75q16 35 43 66q51 63 72 98q29 51 22 86q-2 10 -47 37q-27 14 -45 33q-53 59 -76 84q-41 45 -59 41q-246 -37 -492 -72q-33 -8 -49 -29q-27 -33 -51 -47q12 -47 14 -49q18 -47 51 -88
q55 -59 111 -117q27 6 35 -2q20 -6 41 -12l33 -121q-76 0 -125 49q-37 37 -41 39q-20 16 -84 94q-18 25 -58 72q-8 -27 -18 -76t-10 -90q0 -29 2 -56.5t4 -53.5q0 -43 -9.5 -88t-35.5 -113q-8 8 -25 -2q-47 -33 -90 -29q6 18 12 34.5t19.5 37t23 34t13.5 40t4 51.5
q0 29 -8 61q-23 92 -23 217q0 102 -18.5 167t-54.5 111t-72 91q-41 68 -41 174q0 55 5 123t5 74q0 53 -13.5 110.5t-50.5 145.5q-6 8 -8 12q-10 12 -19 17t-20.5 6.5t-23.5 3.5q-25 -31 -49 -60q-35 -25 -105 -121q-57 -78 -108 -84z" />
    <glyph glyph-name="oslash" unicode="&#xf8;" horiz-adv-x="1935" 
 />
    <glyph glyph-name="udieresis" unicode="&#xfc;" horiz-adv-x="1781" 
d="M68 1126q4 4 10 7.5t10 5.5l-14 6q0 18 -2 26q-2 6 0 13.5t8 13.5q29 33 82 62q123 68 141 88q41 45 41 104q0 104 93 185.5t222 93.5h-10q-164 -53 -213 -162q-2 -4 -49 -209q-2 -12 -2 -20.5t2 -10.5q4 -4 14.5 -3t18.5 1q2 2 31 37q20 25 26 43q6 4 14.5 8t16.5 4
q0 -6 2 -10q-4 -14 0 -20.5t11 -6.5t16 2l-5 -36q-2 -10 -8 -19q-14 -16 -23 -28.5t-12.5 -24.5t-7.5 -23q2 -4 16.5 -13t20.5 -20.5t20.5 -51.5t27 -60.5t37 -36.5t46.5 -16q8 0 40 12t38 14q33 10 153.5 14.5t200.5 4.5q27 0 133 26q49 12 76 13q215 0 303 -129
q27 -39 37 -111t18.5 -127t22.5 -110q8 -29 27 -95q2 -18 5 -36.5t7 -30.5q-6 6 -10 15t-8 22q-45 80 -70 178q-2 8 -2 28q0 18 -2 27q-8 23 -12 31t-11 16q-2 -18 -8 -33.5t-12 -31.5q-18 -66 -19 -125q0 -35 67 -97.5t67 -89.5q0 -20 -6.5 -69t-6.5 -72v-27
q0 -29 -2 -61.5t-8 -56.5q-2 -23 -4 -43l-31 -41q-8 -12 -16 -25q-6 -16 -12 -31q-39 -4 -43 -4t-13.5 8.5t-7.5 19.5t-4 13q27 10 37 17q31 18 43 45q6 31 10 50t6 48t2 55q0 23 -2 65t-2 56q0 39 -71 92q-29 20 -58 41q-4 -18 -4 -31q8 -20 19 -38q4 -35 -25 -83.5
t-53 -91.5q-25 -57 -35 -81q-18 -43 -35 -66q-6 -8 -12 -14q-14 -4 -27 -9q-10 -10 -18 -31.5t-15 -25.5q0 6 -23.5 12.5t-33.5 6.5l41 30l25 29l38 35q23 31 39 71q10 23 25 76q2 8 16 37q8 18 11 23l6 51q0 31 -5 59.5t-16 48.5q-8 10 -26 27q-29 25 -38 33t-23.5 38.5
t-24.5 41.5q-53 -23 -99.5 -31t-91.5 -8q-39 0 -94 6q-129 14 -180 14q0 -51 -3 -123.5t-5 -156.5q0 -55 28 -187q14 -66 15 -104q-12 -16 -23 -33q10 -16 10 -33q-16 4 -48 -4t-46 -8q18 16 35.5 34.5t25.5 39.5q6 33 5 41l-9 14l7 6q0 47 -17.5 104.5t-21.5 73t-8.5 35
t-12.5 68.5l-29 -170q-4 -41 -7 -85t-15 -73q-2 -8 -14.5 -8t-16.5 -5t-6 -18.5t-24 -23.5l-70 -8q31 23 47 36q25 23 37 45q6 10 10 29t9 42.5t8.5 52t5.5 51.5q0 51 2 145t2 137q0 47 -31 86q-53 55 -107 111q-39 51 -70.5 120.5t-58.5 147.5q-8 23 -29.5 30t-38 13
t-38 29.5t-37.5 26.5t-45 3t-82 -6t-72 -6q-16 0 -36 8z" />
    <glyph glyph-name="ydieresis" unicode="&#xff;" horiz-adv-x="614" 
d="M102 1296l19 236q0 16 18 16q23 0 23 -22l-19 -205l62 6q23 4 22 -18q0 -19 -18 -19l-86 -12q-20 -2 -21 18zM250 1485q0 18 20 18q18 0 19 -18l8 -99l74 224q2 14 18 14q27 0 21 -25l-107 -323q-6 -23 -24 -23q-16 0 -17 19zM362 1241q12 45 56.5 80t54.5 63q4 16 4 25
q0 12 -7 15t-24 3q-14 0 -22 -4t-3 -14t-3 -20.5t-19 -10.5q-12 0 -15 10.5t-3 16.5q0 27 24.5 43t55.5 16q18 0 37.5 -13t19.5 -42q0 -6 -6 -34.5t-46 -62.5t-52 -55q16 0 31.5 -1t29.5 -1q25 0 29 7q12 16 28.5 0.5t2.5 -29.5q-16 -14 -46 -14q-35 2 -57 2q-10 0 -47 -4
q-14 -4 -20.5 3t-2.5 21z" />
    <glyph glyph-name="OE" unicode="&#x152;" horiz-adv-x="2498" 
 />
    <glyph glyph-name="oe" unicode="&#x153;" horiz-adv-x="1208" 
 />
    <glyph glyph-name="circumflex" unicode="&#x2c6;" horiz-adv-x="1669" 
 />
    <glyph glyph-name="tilde" unicode="&#x2dc;" horiz-adv-x="942" 
 />
    <glyph glyph-name="uni2000" unicode="&#x2000;" horiz-adv-x="868" 
 />
    <glyph glyph-name="uni2001" unicode="&#x2001;" horiz-adv-x="1737" 
 />
    <glyph glyph-name="uni2002" unicode="&#x2002;" horiz-adv-x="868" 
 />
    <glyph glyph-name="uni2003" unicode="&#x2003;" horiz-adv-x="1737" 
 />
    <glyph glyph-name="uni2004" unicode="&#x2004;" horiz-adv-x="579" 
 />
    <glyph glyph-name="uni2005" unicode="&#x2005;" horiz-adv-x="434" 
 />
    <glyph glyph-name="uni2006" unicode="&#x2006;" horiz-adv-x="289" 
 />
    <glyph glyph-name="uni2007" unicode="&#x2007;" horiz-adv-x="289" 
 />
    <glyph glyph-name="uni2008" unicode="&#x2008;" horiz-adv-x="217" 
 />
    <glyph glyph-name="uni2009" unicode="&#x2009;" horiz-adv-x="347" 
 />
    <glyph glyph-name="uni200A" unicode="&#x200a;" horiz-adv-x="96" 
 />
    <glyph glyph-name="uni2010" unicode="&#x2010;" 
d="M39 758q0 27 45 78q53 59 70 110q10 31 28 58q4 6 39 47q16 20 47 20q16 0 29.5 -2t28.5 -4q23 0 71 -21q29 -12 45 -12q59 0 179 66q135 74 223 90q33 6 85 8t60 2q66 0 367 -24q151 -13 241 -13q49 0 160 39q57 20 105 21q150 0 387 -185q113 -88 231 -88q47 12 70 19
q78 20 92 20l-2 -14q-45 -33 -92 -48.5t-92 -15.5q-66 0 -160 33q-49 16 -96 35q-14 -68 -86 -238q-57 -135 -58 -239q0 -31 19.5 -83t40.5 -106q0 -47 -34 -131t-34 -117q0 -41 25 -71q-37 -4 -71 -16.5t-75 -12.5q41 98 41 238q0 66 -12 121t-41 90q-6 -43 -10 -73
t-18.5 -61.5t-47.5 -95.5q-53 -102 -53 -155q-23 -18 -54.5 -25.5t-70.5 -7.5q61 123 77.5 185.5t16.5 146.5v116q-20 0 -63 10.5t-68 6.5q-88 -12 -263 -23.5t-220 -21.5q-39 -33 -55.5 -97.5t-16.5 -150.5v-70q-20 -6 -35.5 -10t-36.5 -4q-20 0 -51 10q4 16 7 35.5t9.5 33
t26.5 32.5q6 6 19 14q0 57 -19 123q-16 33 -33 67l-22 -39q-14 -43 -21 -65q-16 -55 -16 -100q0 -16 -5 -42t-5 -30q0 -18 8 -33q-33 0 -53.5 -9t-32.5 -9q-16 0 -72 12q12 27 26.5 45t33 25.5t18.5 31.5q-2 29 -2 43q0 49 -31 113q-41 84 -118 139q-18 12 -27.5 57.5
t-20.5 59.5q-20 25 -73 57q-74 45 -80 49q-29 20 -57.5 42t-51.5 20q-31 -4 -49 -8q-51 -12 -104 -35q-18 -8 -46 -14.5t-44 -6.5q-72 0 -72 58z" />
    <glyph glyph-name="uni2011" unicode="&#x2011;" 
d="M39 758q0 27 45 78q53 59 70 110q10 31 28 58q4 6 39 47q16 20 47 20q16 0 29.5 -2t28.5 -4q23 0 71 -21q29 -12 45 -12q59 0 179 66q135 74 223 90q33 6 85 8t60 2q66 0 367 -24q151 -13 241 -13q49 0 160 39q57 20 105 21q150 0 387 -185q113 -88 231 -88q47 12 70 19
q78 20 92 20l-2 -14q-45 -33 -92 -48.5t-92 -15.5q-66 0 -160 33q-49 16 -96 35q-14 -68 -86 -238q-57 -135 -58 -239q0 -31 19.5 -83t40.5 -106q0 -47 -34 -131t-34 -117q0 -41 25 -71q-37 -4 -71 -16.5t-75 -12.5q41 98 41 238q0 66 -12 121t-41 90q-6 -43 -10 -73
t-18.5 -61.5t-47.5 -95.5q-53 -102 -53 -155q-23 -18 -54.5 -25.5t-70.5 -7.5q61 123 77.5 185.5t16.5 146.5v116q-20 0 -63 10.5t-68 6.5q-88 -12 -263 -23.5t-220 -21.5q-39 -33 -55.5 -97.5t-16.5 -150.5v-70q-20 -6 -35.5 -10t-36.5 -4q-20 0 -51 10q4 16 7 35.5t9.5 33
t26.5 32.5q6 6 19 14q0 57 -19 123q-16 33 -33 67l-22 -39q-14 -43 -21 -65q-16 -55 -16 -100q0 -16 -5 -42t-5 -30q0 -18 8 -33q-33 0 -53.5 -9t-32.5 -9q-16 0 -72 12q12 27 26.5 45t33 25.5t18.5 31.5q-2 29 -2 43q0 49 -31 113q-41 84 -118 139q-18 12 -27.5 57.5
t-20.5 59.5q-20 25 -73 57q-74 45 -80 49q-29 20 -57.5 42t-51.5 20q-31 -4 -49 -8q-51 -12 -104 -35q-18 -8 -46 -14.5t-44 -6.5q-72 0 -72 58z" />
    <glyph glyph-name="figuredash" unicode="&#x2012;" 
d="M39 758q0 27 45 78q53 59 70 110q10 31 28 58q4 6 39 47q16 20 47 20q16 0 29.5 -2t28.5 -4q23 0 71 -21q29 -12 45 -12q59 0 179 66q135 74 223 90q33 6 85 8t60 2q66 0 367 -24q151 -13 241 -13q49 0 160 39q57 20 105 21q150 0 387 -185q113 -88 231 -88q47 12 70 19
q78 20 92 20l-2 -14q-45 -33 -92 -48.5t-92 -15.5q-66 0 -160 33q-49 16 -96 35q-14 -68 -86 -238q-57 -135 -58 -239q0 -31 19.5 -83t40.5 -106q0 -47 -34 -131t-34 -117q0 -41 25 -71q-37 -4 -71 -16.5t-75 -12.5q41 98 41 238q0 66 -12 121t-41 90q-6 -43 -10 -73
t-18.5 -61.5t-47.5 -95.5q-53 -102 -53 -155q-23 -18 -54.5 -25.5t-70.5 -7.5q61 123 77.5 185.5t16.5 146.5v116q-20 0 -63 10.5t-68 6.5q-88 -12 -263 -23.5t-220 -21.5q-39 -33 -55.5 -97.5t-16.5 -150.5v-70q-20 -6 -35.5 -10t-36.5 -4q-20 0 -51 10q4 16 7 35.5t9.5 33
t26.5 32.5q6 6 19 14q0 57 -19 123q-16 33 -33 67l-22 -39q-14 -43 -21 -65q-16 -55 -16 -100q0 -16 -5 -42t-5 -30q0 -18 8 -33q-33 0 -53.5 -9t-32.5 -9q-16 0 -72 12q12 27 26.5 45t33 25.5t18.5 31.5q-2 29 -2 43q0 49 -31 113q-41 84 -118 139q-18 12 -27.5 57.5
t-20.5 59.5q-20 25 -73 57q-74 45 -80 49q-29 20 -57.5 42t-51.5 20q-31 -4 -49 -8q-51 -12 -104 -35q-18 -8 -46 -14.5t-44 -6.5q-72 0 -72 58z" />
    <glyph glyph-name="endash" unicode="&#x2013;" horiz-adv-x="1062" 
d="M39 758q0 27 18 78q21 59 27 110q4 31 11 58q2 6 16 47q6 20 18 20q6 0 11.5 -2t11.5 -4q9 0 28 -21q11 -12 18 -12q23 0 70 66q53 74 88 90q13 6 33.5 8t23.5 2q26 0 144 -24q59 -13 95 -13q19 0 63 39q22 20 41 21q59 0 152 -185q45 -88 91 -88q19 12 28 19
q30 20 36 20l-1 -14q-17 -33 -35.5 -48.5t-36.5 -15.5q-26 0 -63 33q-19 16 -38 35q-5 -68 -34 -238q-22 -135 -23 -239q0 -31 8 -83t16 -106q0 -47 -13.5 -131t-13.5 -117q0 -41 10 -71q-14 -4 -27.5 -16.5t-29.5 -12.5q16 98 16 238q0 66 -5 121t-16 90q-2 -43 -4 -73
t-7.5 -61.5t-18.5 -95.5q-21 -102 -21 -155q-9 -18 -21.5 -25.5t-27.5 -7.5q24 123 30.5 185.5t6.5 146.5v116q-8 0 -25 10.5t-26 6.5q-35 -12 -104 -23.5t-86 -21.5q-16 -33 -22.5 -97.5t-6.5 -150.5v-70q-8 -6 -14 -10t-14 -4t-20 10q1 16 2.5 35.5t4 33t10.5 32.5
q2 6 7 14q0 57 -7 123q-7 33 -13 67l-9 -39q-5 -43 -8 -65q-6 -55 -6 -100q0 -16 -2 -42t-2 -30q0 -18 3 -33q-13 0 -21 -9t-13 -9q-6 0 -28 12q4 27 10 45t13 25.5t7 31.5q-1 29 -1 43q0 49 -12 113q-16 84 -46 139q-7 12 -11 57.5t-8 59.5q-8 25 -29 57q-29 45 -31 49
q-12 20 -23 42t-20 20q-12 -4 -19 -8q-20 -12 -41 -35q-7 -8 -18 -14.5t-18 -6.5q-28 0 -28 58z" />
    <glyph glyph-name="emdash" unicode="&#x2014;" horiz-adv-x="2086" 
d="M39 758q0 27 35 78q42 59 55 110q8 31 23 58q3 6 30 47q13 20 37 20q13 0 23.5 -2t22.5 -4q18 0 56 -21q22 -12 35 -12q46 0 141 66q106 74 175 90q26 6 67 8t47 2q52 0 289 -24q119 -13 190 -13q38 0 126 39q45 20 82 21q118 0 305 -185q89 -88 182 -88q37 12 55 19
q61 20 72 20l-2 -14q-35 -33 -72 -48.5t-72 -15.5q-52 0 -126 33q-39 16 -76 35q-11 -68 -67 -238q-45 -135 -46 -239q0 -31 15.5 -83t31.5 -106q0 -47 -26.5 -131t-26.5 -117q0 -41 19 -71q-29 -4 -55.5 -16.5t-59.5 -12.5q33 98 33 238q0 66 -9.5 121t-32.5 90
q-5 -43 -8 -73t-14.5 -61.5t-37.5 -95.5q-41 -102 -41 -155q-19 -18 -43.5 -25.5t-55.5 -7.5q48 123 61 185.5t13 146.5v116q-16 0 -49.5 10.5t-53.5 6.5q-69 -12 -207 -23.5t-173 -21.5q-31 -33 -44 -97.5t-13 -150.5v-70q-15 -6 -27.5 -10t-28.5 -4t-40 10q3 16 5 35.5
t7.5 33t20.5 32.5q5 6 15 14q0 57 -15 123q-12 33 -26 67l-17 -39q-11 -43 -16 -65q-13 -55 -13 -100q0 -16 -4 -42t-4 -30q0 -18 6 -33q-25 0 -41.5 -9t-25.5 -9q-13 0 -57 12q10 27 21 45t26 25.5t15 31.5q-2 29 -2 43q0 49 -24 113q-33 84 -93 139q-14 12 -21.5 57.5
t-16.5 59.5q-16 25 -57 57q-59 45 -63 49q-23 20 -45.5 42t-40.5 20q-25 -4 -39 -8q-40 -12 -82 -35q-14 -8 -36 -14.5t-34 -6.5q-57 0 -57 58z" />
    <glyph glyph-name="quotesinglbase" unicode="&#x201a;" horiz-adv-x="1781" 
 />
    <glyph glyph-name="quotedblbase" unicode="&#x201e;" horiz-adv-x="1101" 
 />
    <glyph glyph-name="ellipsis" unicode="&#x2026;" horiz-adv-x="970" 
 />
    <glyph glyph-name="uni202F" unicode="&#x202f;" horiz-adv-x="347" 
 />
    <glyph glyph-name="uni205F" unicode="&#x205f;" horiz-adv-x="434" 
 />
    <glyph glyph-name="uniE000" unicode="&#xe000;" horiz-adv-x="1597" 
d="M0 0v1597h1597v-1597h-1597z" />
  </font>
</defs>
</svg>
