<?xml version="1.0" standalone="no"?>
<!DOCTYPE svg PUBLIC "-//W3C//DTD SVG 1.1//EN" "http://www.w3.org/Graphics/SVG/1.1/DTD/svg11.dtd" >
<svg>
<metadata>
Created by FontForge 20120731 at Wed Oct 16 16:13:40 2019
 By www-data
Attypestudio
</metadata>
<defs>
<font id="WarmSnowDingbatsRegular" horiz-adv-x="1172" >
  <font-face 
    font-family="Warm Snow Dingbats"
    font-weight="400"
    font-stretch="normal"
    units-per-em="1000"
    panose-1="0 0 0 0 0 0 0 0 0 0"
    ascent="800"
    descent="-200"
    x-height="659"
    cap-height="713.5"
    bbox="-10.125 -28 1298.12 783"
    underline-thickness="50"
    underline-position="-100"
    unicode-range="U+000A-00AD"
  />
<missing-glyph horiz-adv-x="527" 
d="M50 700h427v-700h-427v700zM78 680l185 -309l186 309h-371zM251 350l-180 300v-601zM264 329l-185 -308h370zM276 350l181 -303v605z" />
    <glyph glyph-name=".notdef" horiz-adv-x="527" 
d="M50 700h427v-700h-427v700zM78 680l185 -309l186 309h-371zM251 350l-180 300v-601zM264 329l-185 -308h370zM276 350l181 -303v605z" />
    <glyph glyph-name=".null" horiz-adv-x="0" 
 />
    <glyph glyph-name=".null" horiz-adv-x="0" 
 />
    <glyph glyph-name="nonmarkingreturn" horiz-adv-x="333" 
 />
    <glyph glyph-name="LF" unicode="&#xa;" horiz-adv-x="0" 
 />
    <glyph glyph-name="controlCR" unicode="&#xd;" horiz-adv-x="0" 
 />
    <glyph glyph-name="space" unicode=" " horiz-adv-x="390" 
 />
    <glyph glyph-name="A" unicode="A" horiz-adv-x="704" 
d="M353 567q20 -64 72 -108q-84 -12 -151 -64q-58 73 -150 85q-17 73 -74 123q13 1 43 6q44 8 84 18q29 -34 61 -48q55 -23 115 -12zM350 298q21 -2 43 0q-22 -22 -38 -42q-31 -38 -40 -67q-65 12 -121 -23q-41 29 -90 32q3 4 8 10t7 8q20 23 37 48q33 -5 59 4q39 13 67 45
q24 -12 68 -15zM596 477q26 -6 41.5 -26t16.5 -46q0 -15 -6 -29t-17 -24.5t-25 -15.5q-24 -9 -49 -1l-2 1v0q-35 14 -46 50q-9 38 19 69t68 22zM550 396q8 0 11.5 6.5t0 13.5t-11.5 7t-11 -7t0 -13.5t11 -6.5zM563 444v1q0 6 -4 9q-4 4 -9 4q-6 0 -9 -4q-4 -4 -4 -9v-1
q0 -5 4 -9t9 -4q6 0 9 4q4 4 4 9zM585 426q8 0 11 6.5t0 13t-11 6.5t-11.5 -6.5t0 -13t11.5 -6.5zM494 355q13 -23 36 -36t49 -14q-10 -20 -32 -27.5t-43 3.5q-21 13 -24.5 37.5t11.5 42.5z" />
    <glyph glyph-name="A" unicode="&#xc5;" horiz-adv-x="704" 
d="M353 567q20 -64 72 -108q-84 -12 -151 -64q-58 73 -150 85q-17 73 -74 123q13 1 43 6q44 8 84 18q29 -34 61 -48q55 -23 115 -12zM350 298q21 -2 43 0q-22 -22 -38 -42q-31 -38 -40 -67q-65 12 -121 -23q-41 29 -90 32q3 4 8 10t7 8q20 23 37 48q33 -5 59 4q39 13 67 45
q24 -12 68 -15zM596 477q26 -6 41.5 -26t16.5 -46q0 -15 -6 -29t-17 -24.5t-25 -15.5q-24 -9 -49 -1l-2 1v0q-35 14 -46 50q-9 38 19 69t68 22zM550 396q8 0 11.5 6.5t0 13.5t-11.5 7t-11 -7t0 -13.5t11 -6.5zM563 444v1q0 6 -4 9q-4 4 -9 4q-6 0 -9 -4q-4 -4 -4 -9v-1
q0 -5 4 -9t9 -4q6 0 9 4q4 4 4 9zM585 426q8 0 11 6.5t0 13t-11 6.5t-11.5 -6.5t0 -13t11.5 -6.5zM494 355q13 -23 36 -36t49 -14q-10 -20 -32 -27.5t-43 3.5q-21 13 -24.5 37.5t11.5 42.5z" />
    <glyph glyph-name="A" unicode="&#xc4;" horiz-adv-x="704" 
d="M353 567q20 -64 72 -108q-84 -12 -151 -64q-58 73 -150 85q-17 73 -74 123q13 1 43 6q44 8 84 18q29 -34 61 -48q55 -23 115 -12zM350 298q21 -2 43 0q-22 -22 -38 -42q-31 -38 -40 -67q-65 12 -121 -23q-41 29 -90 32q3 4 8 10t7 8q20 23 37 48q33 -5 59 4q39 13 67 45
q24 -12 68 -15zM596 477q26 -6 41.5 -26t16.5 -46q0 -15 -6 -29t-17 -24.5t-25 -15.5q-24 -9 -49 -1l-2 1v0q-35 14 -46 50q-9 38 19 69t68 22zM550 396q8 0 11.5 6.5t0 13.5t-11.5 7t-11 -7t0 -13.5t11 -6.5zM563 444v1q0 6 -4 9q-4 4 -9 4q-6 0 -9 -4q-4 -4 -4 -9v-1
q0 -5 4 -9t9 -4q6 0 9 4q4 4 4 9zM585 426q8 0 11 6.5t0 13t-11 6.5t-11.5 -6.5t0 -13t11.5 -6.5zM494 355q13 -23 36 -36t49 -14q-10 -20 -32 -27.5t-43 3.5q-21 13 -24.5 37.5t11.5 42.5z" />
    <glyph glyph-name="A" unicode="&#xc3;" horiz-adv-x="704" 
d="M353 567q20 -64 72 -108q-84 -12 -151 -64q-58 73 -150 85q-17 73 -74 123q13 1 43 6q44 8 84 18q29 -34 61 -48q55 -23 115 -12zM350 298q21 -2 43 0q-22 -22 -38 -42q-31 -38 -40 -67q-65 12 -121 -23q-41 29 -90 32q3 4 8 10t7 8q20 23 37 48q33 -5 59 4q39 13 67 45
q24 -12 68 -15zM596 477q26 -6 41.5 -26t16.5 -46q0 -15 -6 -29t-17 -24.5t-25 -15.5q-24 -9 -49 -1l-2 1v0q-35 14 -46 50q-9 38 19 69t68 22zM550 396q8 0 11.5 6.5t0 13.5t-11.5 7t-11 -7t0 -13.5t11 -6.5zM563 444v1q0 6 -4 9q-4 4 -9 4q-6 0 -9 -4q-4 -4 -4 -9v-1
q0 -5 4 -9t9 -4q6 0 9 4q4 4 4 9zM585 426q8 0 11 6.5t0 13t-11 6.5t-11.5 -6.5t0 -13t11.5 -6.5zM494 355q13 -23 36 -36t49 -14q-10 -20 -32 -27.5t-43 3.5q-21 13 -24.5 37.5t11.5 42.5z" />
    <glyph glyph-name="A" unicode="&#xc2;" horiz-adv-x="704" 
d="M353 567q20 -64 72 -108q-84 -12 -151 -64q-58 73 -150 85q-17 73 -74 123q13 1 43 6q44 8 84 18q29 -34 61 -48q55 -23 115 -12zM350 298q21 -2 43 0q-22 -22 -38 -42q-31 -38 -40 -67q-65 12 -121 -23q-41 29 -90 32q3 4 8 10t7 8q20 23 37 48q33 -5 59 4q39 13 67 45
q24 -12 68 -15zM596 477q26 -6 41.5 -26t16.5 -46q0 -15 -6 -29t-17 -24.5t-25 -15.5q-24 -9 -49 -1l-2 1v0q-35 14 -46 50q-9 38 19 69t68 22zM550 396q8 0 11.5 6.5t0 13.5t-11.5 7t-11 -7t0 -13.5t11 -6.5zM563 444v1q0 6 -4 9q-4 4 -9 4q-6 0 -9 -4q-4 -4 -4 -9v-1
q0 -5 4 -9t9 -4q6 0 9 4q4 4 4 9zM585 426q8 0 11 6.5t0 13t-11 6.5t-11.5 -6.5t0 -13t11.5 -6.5zM494 355q13 -23 36 -36t49 -14q-10 -20 -32 -27.5t-43 3.5q-21 13 -24.5 37.5t11.5 42.5z" />
    <glyph glyph-name="A" unicode="&#xc1;" horiz-adv-x="704" 
d="M353 567q20 -64 72 -108q-84 -12 -151 -64q-58 73 -150 85q-17 73 -74 123q13 1 43 6q44 8 84 18q29 -34 61 -48q55 -23 115 -12zM350 298q21 -2 43 0q-22 -22 -38 -42q-31 -38 -40 -67q-65 12 -121 -23q-41 29 -90 32q3 4 8 10t7 8q20 23 37 48q33 -5 59 4q39 13 67 45
q24 -12 68 -15zM596 477q26 -6 41.5 -26t16.5 -46q0 -15 -6 -29t-17 -24.5t-25 -15.5q-24 -9 -49 -1l-2 1v0q-35 14 -46 50q-9 38 19 69t68 22zM550 396q8 0 11.5 6.5t0 13.5t-11.5 7t-11 -7t0 -13.5t11 -6.5zM563 444v1q0 6 -4 9q-4 4 -9 4q-6 0 -9 -4q-4 -4 -4 -9v-1
q0 -5 4 -9t9 -4q6 0 9 4q4 4 4 9zM585 426q8 0 11 6.5t0 13t-11 6.5t-11.5 -6.5t0 -13t11.5 -6.5zM494 355q13 -23 36 -36t49 -14q-10 -20 -32 -27.5t-43 3.5q-21 13 -24.5 37.5t11.5 42.5z" />
    <glyph glyph-name="A" unicode="&#xc0;" horiz-adv-x="704" 
d="M353 567q20 -64 72 -108q-84 -12 -151 -64q-58 73 -150 85q-17 73 -74 123q13 1 43 6q44 8 84 18q29 -34 61 -48q55 -23 115 -12zM350 298q21 -2 43 0q-22 -22 -38 -42q-31 -38 -40 -67q-65 12 -121 -23q-41 29 -90 32q3 4 8 10t7 8q20 23 37 48q33 -5 59 4q39 13 67 45
q24 -12 68 -15zM596 477q26 -6 41.5 -26t16.5 -46q0 -15 -6 -29t-17 -24.5t-25 -15.5q-24 -9 -49 -1l-2 1v0q-35 14 -46 50q-9 38 19 69t68 22zM550 396q8 0 11.5 6.5t0 13.5t-11.5 7t-11 -7t0 -13.5t11 -6.5zM563 444v1q0 6 -4 9q-4 4 -9 4q-6 0 -9 -4q-4 -4 -4 -9v-1
q0 -5 4 -9t9 -4q6 0 9 4q4 4 4 9zM585 426q8 0 11 6.5t0 13t-11 6.5t-11.5 -6.5t0 -13t11.5 -6.5zM494 355q13 -23 36 -36t49 -14q-10 -20 -32 -27.5t-43 3.5q-21 13 -24.5 37.5t11.5 42.5z" />
    <glyph glyph-name="B" unicode="B" horiz-adv-x="704" 
d="M129 331h-3h-4h-2t-4 1q-3 0 -6 1q-26 5 -42.5 25t-17.5 47q0 23 14 41.5t33 26t41 4t39 -20.5q30 -32 16 -74q-4 -13 -12.5 -23.5t-20 -17t-24.5 -9.5h-1h-5zM153.5 396q12.5 0 12.5 13.5t-12.5 13.5t-12.5 -13.5t12.5 -13.5zM141 445v-1q0 -5 3 -9q4 -4 10 -4t9 4
q4 4 4 9v1q0 6 -4 9q-4 4 -9 4q-6 0 -10 -4q-3 -4 -3 -9zM119.5 426q12.5 0 12.5 13t-12.5 13t-12.5 -13t12.5 -13zM548 264q17 -25 37 -48q2 -2 7 -8t8 -10q-49 -3 -90 -32q-56 35 -121 23q-9 29 -40 67q-16 20 -38 42q22 -2 43 0q44 3 68 15q28 -32 67 -45q25 -9 59 -4z
M610 609q31 -5 44 -6q-57 -50 -74 -123q-92 -12 -150 -85q-68 52 -151 64q52 44 71 108q60 -11 116 12q32 14 61 48q40 -10 83 -18zM201 342q7 9 12 19q15 -18 11.5 -42.5t-24.5 -37.5q-21 -11 -43 -3.5t-32 27.5q47 1 76 37z" />
    <glyph glyph-name="C" unicode="C" horiz-adv-x="380" 
d="M317 42q8 0 11 -6.5t0 -13t-11 -6.5h-32h-222q-8 0 -11 6.5t0 13t11 6.5h32h82v17v195q-21 0 -36 5q-44 13 -69 50q-22 33 -22 93v73q2 43 50 43q21 0 51 -15q27 -13 53 -22q61 -22 100 -3q14 6 26 16v-68q0 -53 -1 -59q-5 -48 -41.5 -80.5t-84.5 -33.5v-15v-196h114z
M97 352q8 0 11 6.5t0 13t-11 6.5t-11.5 -6.5t0 -13t11.5 -6.5zM127 324q8 0 11 7t0 13.5t-11 6.5t-11.5 -6.5t0 -13.5t11.5 -7zM143 366q4 4 3 9q0 6 -3 10q-5 3 -10 3h-1q-5 0 -9 -3q-4 -4 -4 -10t4 -9q4 -4 9 -4h1q6 0 10 4zM157 529q-49 23 -88 11q-11 -4 -19 -10v107v60
h254h26v-157q-4 -17 -22.5 -30.5t-37.5 -15.5q-5 -2 -15 0t-14.5 2t-14.5 3.5t-14.5 5t-14.5 6t-13.5 6t-13.5 6t-13 6.5z" />
    <glyph glyph-name="C" unicode="&#xc7;" horiz-adv-x="380" 
d="M317 42q8 0 11 -6.5t0 -13t-11 -6.5h-32h-222q-8 0 -11 6.5t0 13t11 6.5h32h82v17v195q-21 0 -36 5q-44 13 -69 50q-22 33 -22 93v73q2 43 50 43q21 0 51 -15q27 -13 53 -22q61 -22 100 -3q14 6 26 16v-68q0 -53 -1 -59q-5 -48 -41.5 -80.5t-84.5 -33.5v-15v-196h114z
M97 352q8 0 11 6.5t0 13t-11 6.5t-11.5 -6.5t0 -13t11.5 -6.5zM127 324q8 0 11 7t0 13.5t-11 6.5t-11.5 -6.5t0 -13.5t11.5 -7zM143 366q4 4 3 9q0 6 -3 10q-5 3 -10 3h-1q-5 0 -9 -3q-4 -4 -4 -10t4 -9q4 -4 9 -4h1q6 0 10 4zM157 529q-49 23 -88 11q-11 -4 -19 -10v107v60
h254h26v-157q-4 -17 -22.5 -30.5t-37.5 -15.5q-5 -2 -15 0t-14.5 2t-14.5 3.5t-14.5 5t-14.5 6t-13.5 6t-13.5 6t-13 6.5z" />
    <glyph glyph-name="D" unicode="D" horiz-adv-x="630" 
d="M402 551q79 -27 128.5 -96.5t49.5 -153.5q0 -79 -43.5 -145.5t-115.5 -98.5q-73 -32 -153 -17.5t-137 69.5q-58 56 -75 136t13 155q25 62 76.5 104.5t116.5 55.5q71 15 140 -9zM228 93q11 -7 18 5q6 11 -5 18q-54 32 -88.5 85.5t-41.5 116.5q0 7 -7 10.5t-13.5 0
t-5.5 -10.5q7 -70 45 -129.5t98 -95.5zM378 491q-8 0 -11.5 -6.5t0 -13t11.5 -6.5t11 6.5t0 13t-11 6.5zM400 433v1q0 6 -4 9q-4 5 -9 4q-6 0 -10 -4q-3 -4 -3 -9v-1q0 -6 3 -10q5 -4 10 -4q6 1 9 4q4 4 4 10zM427 433q8 0 11 6.5t0 13.5t-11 7t-11.5 -7t0 -13.5t11.5 -6.5z
M313 592h-0.5h-1.5q-44 -1 -85 -14q6 28 27 48t49 24v116q0 5 2.5 8t6.5 4t8 0t6.5 -4t2.5 -8v-116q14 -2 27 -8t22.5 -15.5t16.5 -22t10 -26.5q-41 14 -85 14h-6z" />
    <glyph glyph-name="E" unicode="E" horiz-adv-x="1002" 
d="M532 294q34 -10 59 -35t36 -59h-270l4 10q13 34 41 57t63 30q33 6 66 -3h1zM395 56q-25 24 -36 58h267q-21 -60 -77 -85q-39 -17 -81.5 -9.5t-72.5 36.5zM352 174h140.5h139.5q1 -8 1 -15q0 -10 -1 -19h-279q-3 17 -1 34zM218 491q-24 4 -49 1q-3 -1 -5 -1q4 11 14 16v3
v32v223q0 4 2.5 7.5t6.5 4t8 0t6.5 -4t2.5 -7.5v-33v-222v-3q10 -5 14 -16zM270 301q41 23 59 2q0 -1 1 -1q-3 -18 -11 -34q-24 -3 -60 -21q-42 -22 -64 -18q-11 2 -33 10.5t-34 10.5q-30 4 -50 -9q-11 15 -18 33q1 2 1 4q5 17 25 21.5t35 -2.5q9 -2 25 -8t29.5 -9.5
t25.5 -3.5q6 0 11 0.5t10.5 2.5t9.5 3t10 4.5t9 4.5t10 5t9 5zM231 462q42 -13 70 -48.5t31 -80.5q-24 12 -54 1q-10 -4 -26.5 -13.5t-31 -14.5t-29.5 -3q-12 2 -44.5 13.5t-51.5 10.5q-26 -1 -44 -18q-4 36 9 69t41 56t62 30t67 -2h1zM146 218q46 -17 62 -16q20 1 52.5 17
t40.5 19q-22 -27 -53 -41q-38 -17 -79.5 -10t-72.5 35q17 8 50 -4zM520 324q-25 4 -50 0q-2 0 -5 -1q4 12 14 16v2v53v371q0 4 3 7.5t6.5 4t7.5 0t6.5 -4t2.5 -7.5v-54v-370v-2q10 -5 15 -15zM945 433q-2 1 -195 102q-2 1 -7 4q14 4 28 6q33 5 65 -4h1q39 -12 67.5 -40.5
t40.5 -67.5zM668 488q28 -14 251 -125q4 -3 13.5 -7.5t14.5 -6.5q-9 -33 -29 -59q-41 19 -124 56.5t-125 55.5q-3 2 -8 4t-8.5 3.5t-8 4t-8.5 3.5q2 14 7 26q9 24 25 45zM951 400q1 -6 1 -12t-1 -13q-81 41 -243 122q-2 1 -21 10q12 10 26 18l211 -110q4 -3 13.5 -7.5
t13.5 -7.5zM633 390q41 -19 123 -55.5t123 -55.5l21 -9q-13 -12 -28 -20q-34 15 -102.5 46.5t-102.5 47.5q-5 2 -15 7t-16 7q-3 16 -3 32zM646 325q42 -20 190 -87q1 -1 2.5 -1.5t2.5 -0.5q-40 -13 -82.5 -4t-73.5 38q-25 23 -39 55zM825 570q-25 5 -51 2l-14 -2q5 17 20 22
q-1 2 -1 3v171q0 3 1.5 6t4 4.5t5 2t5.5 0t5.5 -2t3.5 -4.5t1 -6v-171v-3q15 -6 20 -22z" />
    <glyph glyph-name="E" unicode="&#xcb;" horiz-adv-x="1002" 
d="M532 294q34 -10 59 -35t36 -59h-270l4 10q13 34 41 57t63 30q33 6 66 -3h1zM395 56q-25 24 -36 58h267q-21 -60 -77 -85q-39 -17 -81.5 -9.5t-72.5 36.5zM352 174h140.5h139.5q1 -8 1 -15q0 -10 -1 -19h-279q-3 17 -1 34zM218 491q-24 4 -49 1q-3 -1 -5 -1q4 11 14 16v3
v32v223q0 4 2.5 7.5t6.5 4t8 0t6.5 -4t2.5 -7.5v-33v-222v-3q10 -5 14 -16zM270 301q41 23 59 2q0 -1 1 -1q-3 -18 -11 -34q-24 -3 -60 -21q-42 -22 -64 -18q-11 2 -33 10.5t-34 10.5q-30 4 -50 -9q-11 15 -18 33q1 2 1 4q5 17 25 21.5t35 -2.5q9 -2 25 -8t29.5 -9.5
t25.5 -3.5q6 0 11 0.5t10.5 2.5t9.5 3t10 4.5t9 4.5t10 5t9 5zM231 462q42 -13 70 -48.5t31 -80.5q-24 12 -54 1q-10 -4 -26.5 -13.5t-31 -14.5t-29.5 -3q-12 2 -44.5 13.5t-51.5 10.5q-26 -1 -44 -18q-4 36 9 69t41 56t62 30t67 -2h1zM146 218q46 -17 62 -16q20 1 52.5 17
t40.5 19q-22 -27 -53 -41q-38 -17 -79.5 -10t-72.5 35q17 8 50 -4zM520 324q-25 4 -50 0q-2 0 -5 -1q4 12 14 16v2v53v371q0 4 3 7.5t6.5 4t7.5 0t6.5 -4t2.5 -7.5v-54v-370v-2q10 -5 15 -15zM945 433q-2 1 -195 102q-2 1 -7 4q14 4 28 6q33 5 65 -4h1q39 -12 67.5 -40.5
t40.5 -67.5zM668 488q28 -14 251 -125q4 -3 13.5 -7.5t14.5 -6.5q-9 -33 -29 -59q-41 19 -124 56.5t-125 55.5q-3 2 -8 4t-8.5 3.5t-8 4t-8.5 3.5q2 14 7 26q9 24 25 45zM951 400q1 -6 1 -12t-1 -13q-81 41 -243 122q-2 1 -21 10q12 10 26 18l211 -110q4 -3 13.5 -7.5
t13.5 -7.5zM633 390q41 -19 123 -55.5t123 -55.5l21 -9q-13 -12 -28 -20q-34 15 -102.5 46.5t-102.5 47.5q-5 2 -15 7t-16 7q-3 16 -3 32zM646 325q42 -20 190 -87q1 -1 2.5 -1.5t2.5 -0.5q-40 -13 -82.5 -4t-73.5 38q-25 23 -39 55zM825 570q-25 5 -51 2l-14 -2q5 17 20 22
q-1 2 -1 3v171q0 3 1.5 6t4 4.5t5 2t5.5 0t5.5 -2t3.5 -4.5t1 -6v-171v-3q15 -6 20 -22z" />
    <glyph glyph-name="E" unicode="&#xca;" horiz-adv-x="1002" 
d="M532 294q34 -10 59 -35t36 -59h-270l4 10q13 34 41 57t63 30q33 6 66 -3h1zM395 56q-25 24 -36 58h267q-21 -60 -77 -85q-39 -17 -81.5 -9.5t-72.5 36.5zM352 174h140.5h139.5q1 -8 1 -15q0 -10 -1 -19h-279q-3 17 -1 34zM218 491q-24 4 -49 1q-3 -1 -5 -1q4 11 14 16v3
v32v223q0 4 2.5 7.5t6.5 4t8 0t6.5 -4t2.5 -7.5v-33v-222v-3q10 -5 14 -16zM270 301q41 23 59 2q0 -1 1 -1q-3 -18 -11 -34q-24 -3 -60 -21q-42 -22 -64 -18q-11 2 -33 10.5t-34 10.5q-30 4 -50 -9q-11 15 -18 33q1 2 1 4q5 17 25 21.5t35 -2.5q9 -2 25 -8t29.5 -9.5
t25.5 -3.5q6 0 11 0.5t10.5 2.5t9.5 3t10 4.5t9 4.5t10 5t9 5zM231 462q42 -13 70 -48.5t31 -80.5q-24 12 -54 1q-10 -4 -26.5 -13.5t-31 -14.5t-29.5 -3q-12 2 -44.5 13.5t-51.5 10.5q-26 -1 -44 -18q-4 36 9 69t41 56t62 30t67 -2h1zM146 218q46 -17 62 -16q20 1 52.5 17
t40.5 19q-22 -27 -53 -41q-38 -17 -79.5 -10t-72.5 35q17 8 50 -4zM520 324q-25 4 -50 0q-2 0 -5 -1q4 12 14 16v2v53v371q0 4 3 7.5t6.5 4t7.5 0t6.5 -4t2.5 -7.5v-54v-370v-2q10 -5 15 -15zM945 433q-2 1 -195 102q-2 1 -7 4q14 4 28 6q33 5 65 -4h1q39 -12 67.5 -40.5
t40.5 -67.5zM668 488q28 -14 251 -125q4 -3 13.5 -7.5t14.5 -6.5q-9 -33 -29 -59q-41 19 -124 56.5t-125 55.5q-3 2 -8 4t-8.5 3.5t-8 4t-8.5 3.5q2 14 7 26q9 24 25 45zM951 400q1 -6 1 -12t-1 -13q-81 41 -243 122q-2 1 -21 10q12 10 26 18l211 -110q4 -3 13.5 -7.5
t13.5 -7.5zM633 390q41 -19 123 -55.5t123 -55.5l21 -9q-13 -12 -28 -20q-34 15 -102.5 46.5t-102.5 47.5q-5 2 -15 7t-16 7q-3 16 -3 32zM646 325q42 -20 190 -87q1 -1 2.5 -1.5t2.5 -0.5q-40 -13 -82.5 -4t-73.5 38q-25 23 -39 55zM825 570q-25 5 -51 2l-14 -2q5 17 20 22
q-1 2 -1 3v171q0 3 1.5 6t4 4.5t5 2t5.5 0t5.5 -2t3.5 -4.5t1 -6v-171v-3q15 -6 20 -22z" />
    <glyph glyph-name="E" unicode="&#xc9;" horiz-adv-x="1002" 
d="M532 294q34 -10 59 -35t36 -59h-270l4 10q13 34 41 57t63 30q33 6 66 -3h1zM395 56q-25 24 -36 58h267q-21 -60 -77 -85q-39 -17 -81.5 -9.5t-72.5 36.5zM352 174h140.5h139.5q1 -8 1 -15q0 -10 -1 -19h-279q-3 17 -1 34zM218 491q-24 4 -49 1q-3 -1 -5 -1q4 11 14 16v3
v32v223q0 4 2.5 7.5t6.5 4t8 0t6.5 -4t2.5 -7.5v-33v-222v-3q10 -5 14 -16zM270 301q41 23 59 2q0 -1 1 -1q-3 -18 -11 -34q-24 -3 -60 -21q-42 -22 -64 -18q-11 2 -33 10.5t-34 10.5q-30 4 -50 -9q-11 15 -18 33q1 2 1 4q5 17 25 21.5t35 -2.5q9 -2 25 -8t29.5 -9.5
t25.5 -3.5q6 0 11 0.5t10.5 2.5t9.5 3t10 4.5t9 4.5t10 5t9 5zM231 462q42 -13 70 -48.5t31 -80.5q-24 12 -54 1q-10 -4 -26.5 -13.5t-31 -14.5t-29.5 -3q-12 2 -44.5 13.5t-51.5 10.5q-26 -1 -44 -18q-4 36 9 69t41 56t62 30t67 -2h1zM146 218q46 -17 62 -16q20 1 52.5 17
t40.5 19q-22 -27 -53 -41q-38 -17 -79.5 -10t-72.5 35q17 8 50 -4zM520 324q-25 4 -50 0q-2 0 -5 -1q4 12 14 16v2v53v371q0 4 3 7.5t6.5 4t7.5 0t6.5 -4t2.5 -7.5v-54v-370v-2q10 -5 15 -15zM945 433q-2 1 -195 102q-2 1 -7 4q14 4 28 6q33 5 65 -4h1q39 -12 67.5 -40.5
t40.5 -67.5zM668 488q28 -14 251 -125q4 -3 13.5 -7.5t14.5 -6.5q-9 -33 -29 -59q-41 19 -124 56.5t-125 55.5q-3 2 -8 4t-8.5 3.5t-8 4t-8.5 3.5q2 14 7 26q9 24 25 45zM951 400q1 -6 1 -12t-1 -13q-81 41 -243 122q-2 1 -21 10q12 10 26 18l211 -110q4 -3 13.5 -7.5
t13.5 -7.5zM633 390q41 -19 123 -55.5t123 -55.5l21 -9q-13 -12 -28 -20q-34 15 -102.5 46.5t-102.5 47.5q-5 2 -15 7t-16 7q-3 16 -3 32zM646 325q42 -20 190 -87q1 -1 2.5 -1.5t2.5 -0.5q-40 -13 -82.5 -4t-73.5 38q-25 23 -39 55zM825 570q-25 5 -51 2l-14 -2q5 17 20 22
q-1 2 -1 3v171q0 3 1.5 6t4 4.5t5 2t5.5 0t5.5 -2t3.5 -4.5t1 -6v-171v-3q15 -6 20 -22z" />
    <glyph glyph-name="E" unicode="&#xc8;" horiz-adv-x="1002" 
d="M532 294q34 -10 59 -35t36 -59h-270l4 10q13 34 41 57t63 30q33 6 66 -3h1zM395 56q-25 24 -36 58h267q-21 -60 -77 -85q-39 -17 -81.5 -9.5t-72.5 36.5zM352 174h140.5h139.5q1 -8 1 -15q0 -10 -1 -19h-279q-3 17 -1 34zM218 491q-24 4 -49 1q-3 -1 -5 -1q4 11 14 16v3
v32v223q0 4 2.5 7.5t6.5 4t8 0t6.5 -4t2.5 -7.5v-33v-222v-3q10 -5 14 -16zM270 301q41 23 59 2q0 -1 1 -1q-3 -18 -11 -34q-24 -3 -60 -21q-42 -22 -64 -18q-11 2 -33 10.5t-34 10.5q-30 4 -50 -9q-11 15 -18 33q1 2 1 4q5 17 25 21.5t35 -2.5q9 -2 25 -8t29.5 -9.5
t25.5 -3.5q6 0 11 0.5t10.5 2.5t9.5 3t10 4.5t9 4.5t10 5t9 5zM231 462q42 -13 70 -48.5t31 -80.5q-24 12 -54 1q-10 -4 -26.5 -13.5t-31 -14.5t-29.5 -3q-12 2 -44.5 13.5t-51.5 10.5q-26 -1 -44 -18q-4 36 9 69t41 56t62 30t67 -2h1zM146 218q46 -17 62 -16q20 1 52.5 17
t40.5 19q-22 -27 -53 -41q-38 -17 -79.5 -10t-72.5 35q17 8 50 -4zM520 324q-25 4 -50 0q-2 0 -5 -1q4 12 14 16v2v53v371q0 4 3 7.5t6.5 4t7.5 0t6.5 -4t2.5 -7.5v-54v-370v-2q10 -5 15 -15zM945 433q-2 1 -195 102q-2 1 -7 4q14 4 28 6q33 5 65 -4h1q39 -12 67.5 -40.5
t40.5 -67.5zM668 488q28 -14 251 -125q4 -3 13.5 -7.5t14.5 -6.5q-9 -33 -29 -59q-41 19 -124 56.5t-125 55.5q-3 2 -8 4t-8.5 3.5t-8 4t-8.5 3.5q2 14 7 26q9 24 25 45zM951 400q1 -6 1 -12t-1 -13q-81 41 -243 122q-2 1 -21 10q12 10 26 18l211 -110q4 -3 13.5 -7.5
t13.5 -7.5zM633 390q41 -19 123 -55.5t123 -55.5l21 -9q-13 -12 -28 -20q-34 15 -102.5 46.5t-102.5 47.5q-5 2 -15 7t-16 7q-3 16 -3 32zM646 325q42 -20 190 -87q1 -1 2.5 -1.5t2.5 -0.5q-40 -13 -82.5 -4t-73.5 38q-25 23 -39 55zM825 570q-25 5 -51 2l-14 -2q5 17 20 22
q-1 2 -1 3v171q0 3 1.5 6t4 4.5t5 2t5.5 0t5.5 -2t3.5 -4.5t1 -6v-171v-3q15 -6 20 -22z" />
    <glyph glyph-name="F" unicode="F" horiz-adv-x="870" 
d="M360 464q-16 32 -24 47q-3 7 1 13.5t10.5 6.5t11.5 -6q8 -16 23 -48q4 -7 -0.5 -13t-11 -6t-10.5 6zM646 514q5 -3 6.5 -8.5t-1.5 -9.5q-9 -12 -28 -37q-8 -11 -18 -5q-4 3 -6 8.5t1 9.5q10 12 28 37q8 11 18 5zM293 437q6 -5 5.5 -13t-6 -11t-12.5 1l-128 94
q-12 9 -2 21q6 8 15 2zM232 366q8 0 11.5 -7t0 -13t-11.5 -6q-15 1 -49 3q-8 0 -11.5 6.5t0 13t11.5 6.5q8 -1 24.5 -1.5t24.5 -1.5zM224 288q8 1 11.5 -5.5t0 -13t-11.5 -7.5q-26 -2 -80 -7t-81 -8q-8 0 -11.5 6t0 13t11.5 8q27 2 81 7t80 7zM218 164q-11 -7 -18 5
q-6 11 5 18q6 4 19 12t20 12q6 4 12.5 0t6.5 -11t-6 -12q-7 -4 -20 -12t-19 -12zM270 135q6 6 13 3.5t8.5 -9t-2.5 -12.5q-2 -3 -89 -96q-5 -5 -12 -3t-9 8.5t3 13.5q2 2 88 95zM801 490q7 4 13 0t6 -11t-6 -12q-42 -31 -128 -92q-6 -4 -12 0t-6.5 10.5t5.5 12.5
q12 9 128 92zM703 250q-8 0 -11.5 6.5t0 13t11.5 6.5l91 3q8 1 11.5 -5.5t0 -13.5t-11.5 -7zM702 163q68 -69 102 -103q6 -6 3.5 -13t-9 -8.5t-12.5 2.5q-17 18 -51.5 52t-51.5 52q-5 5 -2.5 12t9 9t12.5 -3zM620 109q17 -23 26 -35q3 -4 1 -9.5t-6 -7.5q-10 -6 -18 4
q-3 5 -8 11t-9.5 12.5t-7.5 11.5q-3 4 -1.5 9.5t5.5 8.5q10 5 18 -5zM486 68q0 -5 1 -16.5t1 -17.5q0 -5 -4 -9t-9 -4q-12 0 -13 13q-1 12 -3 34q0 5 4 9t9 4q13 0 14 -13zM380 98q4 -2 5.5 -7.5t-1.5 -10.5q-25 -34 -32 -43q-8 -11 -18 -5q-4 3 -6 8t1 10q26 34 33 43
q8 11 18 5zM400 392q-2 1 -6.5 3.5t-8 4t-6.5 3.5q12 10 26 18l211 -111q4 -2 13.5 -7t13.5 -7q1 -7 1 -13t-1 -12q-47 24 -136.5 68.5t-106.5 52.5zM610 186q-99 44 -249 112q-5 2 -16.5 7t-16.5 8q2 13 7 26q9 24 25 44q42 -21 125.5 -62.5t125.5 -62.5l28 -14
q-9 -32 -29 -58zM637 329q-98 51 -195 102q-2 1 -7 3q14 5 28 7q33 4 65 -5h1q39 -11 67.5 -40t40.5 -67zM325 285q88 -39 246 -110q7 -3 21 -10q-13 -11 -28 -20q-137 63 -205 94q-10 5 -30 14h-1q-3 16 -3 32zM517 466q-25 4 -51 1q-7 0 -14 -1q5 16 19 22v32v246
q0 8 6.5 11t13 0t6.5 -11v-36v-242q15 -7 20 -22zM338 220q42 -19 190 -87q1 0 2.5 -1t2.5 -1q-40 -13 -82.5 -3.5t-73.5 38.5q-25 23 -39 54z" />
    <glyph glyph-name="G" unicode="G" horiz-adv-x="517" 
d="M416 442h-205q0 8 1 16h204h3v-16h-3zM211 484v29.5v29.5q1 3 1 5q0 20 18 27q12 5 30 -7q4 -3 9.5 -7.5t9.5 -7.5t9 -6.5t10 -6t11 -4.5t12 -2q28 -3 48 32q9 18 26.5 17.5t23.5 -19.5v-80h-3h-205zM316 561q-11 4 -35 22.5t-43 19.5q-14 0 -27 -8v32h70h122h16v-24
q-18 10 -38 6q-21 -6 -33 -26q-1 -2 -3.5 -6t-3.5 -5.5l-3 -4.5t-4 -4t-4.5 -2.5t-6 -1t-7.5 1.5zM419 350q-42 -8 -57.5 -48t9.5 -73l-106 -107q-4 -3 -12.5 -12t-13 -13.5t-12.5 -12t-14.5 -11.5t-15 -8.5t-17 -7t-18.5 -3.5q-30 -2 -57.5 12.5t-42.5 41.5q-14 27 -12 57
t20 54q6 7 13 14.5t17.5 17.5t14.5 14q40 40 46 48q37 45 47 103h208h3v-20v-46zM454 698q17 -8 12.5 -26t-22.5 -19h-12h-205h-29h-16q-10 0 -12 1q-15 2 -18.5 17.5t9.5 24.5q4 2 9.5 3t10 1h11h9.5h164h71q14 0 18 -2zM419 310v-14.5v-13.5v-2.5v-2.5v-1q-1 0 -5 -4
q-2 -2 -3.5 -4t-4 -4.5t-4.5 -3.5l-12 -12q-13 21 -4 44.5t33 30.5v-13z" />
    <glyph glyph-name="H" unicode="H" horiz-adv-x="635" 
d="M179 521q-16 -9 -49 -6.5t-51 -1.5q-16 -5 -28 -17q-6 56 29 101q32 43 86 52.5t98 -16.5q30 -18 48 -46q5 -8 9 -16q-14 -6 -35 -2q-30 7 -47 2q-15 -4 -32.5 -24.5t-27.5 -25.5zM120 258q-8 26 -23 75.5t-21 70.5v5q-1 6 3 12.5t10 10.5t12 6q12 4 46 1q50 -3 75 20
q3 3 14.5 16.5t20.5 18.5t23 3q4 0 19 -3.5t24 -3.5q11 1 22 6q5 -16 15 -49q3 -8 11.5 -9.5t12.5 6.5q13 27 26 34q5 2 10 3t10 0q2 0 4 -1q2 0 4 -1q12 -5 19 -18q7 -16 -1 -34q-4 -9 -10 -22t-12.5 -25.5t-10.5 -22.5q-2 -3 -6 -12q-2 0 -3 -1q-22 -15 -42 -14
q-6 1 -23 4.5t-26 2.5q-21 -2 -38 -18q-4 -4 -13 -15t-15 -15q-11 -10 -31 -11.5t-36 1.5t-34 -1q-22 -5 -36 -20zM194 471q-16 -9 -49 -6.5t-51 -1.5q-18 -5 -30 -19q-1 2 -1.5 4l-1.5 6v5q-2 9 6.5 17.5t18.5 11.5q12 3 46 1q50 -3 75 20q3 3 14.5 16.5t20.5 18t22 3.5
q5 -1 11 -2t11 -2.5t11 -2t11 -0.5q11 1 22 6q1 -3 4 -11q0 -2 1.5 -6.5t2.5 -6.5q-15 -8 -37 -3q-30 7 -47 2q-15 -4 -32.5 -24.5t-27.5 -25.5zM321 620q-11 12 -24 22q-5 4 -10 7q73 14 126 -35q-7 -2 -14.5 -0.5t-18 4.5t-13.5 3q-28 6 -46 -1zM416 533q23 -3 40 7
q7 -22 17 -55q-13 15 -32 20q-8 3 -16 3q-17 0 -32 -9l-1 -1q-1 -1 -2 -1l-2 -1v-1q-3 -2 -6 -5l-0.5 -0.5t-1 -0.5t-0.5 -1l-4 -4q-3 11 -9 31q-2 5 -5 17q6 6 14 7t23.5 -2t16.5 -4zM383 590q30 -7 49 2q9 -13 15 -27q-7 -6 -17 -6.5t-24 2.5t-19 3q-19 2 -33 -5
q-6 16 -11 28q-3 4 -6 10q3 2 11 1t12 -2l12 -3t11 -3zM544 278q30 7 32 -17q-1 -6 -3 -10t-7.5 -7t-8.5 -4.5t-10.5 -3.5t-9.5 -2l-39 -12l-39 -12q-76 -23 -176 -53q-2 -1 -8.5 -3.5t-10.5 -3.5t-10 -2t-10.5 0.5t-7.5 4.5q14 4 61 18q19 6 57 17.5t57 17.5l12.5 3.5
t18.5 5.5q32 10 36 42v1q22 7 66 20zM509 312q10 0 18 2q-1 -6 1 -13q-9 -3 -28 -8.5t-29 -8.5q-3 5 -7 10q-1 0 -1.5 0.5t-0.5 1.5q-11 9 -25 11q6 6 16 8t18.5 1.5t20.5 -2t17 -2.5zM544 481q21 3 33.5 -14t4.5 -36q-4 -8 -9 -18.5t-9 -18.5t-9 -18.5t-8 -18.5q-1 0 -1 -1
q-1 -2 -2 -3q-5 -8 -15 -11.5t-18 -3.5t-22 2t-18 2q-15 0 -28 -4l29 62l7 15l0.5 1t1 1.5t0.5 1.5l2 4q3 10 4 19q4 -5 11 -4.5t10 6.5q1 1 1 3q5 10 8.5 15.5t10.5 11.5t16 7zM351 308q27 -7 52 1q0 -3 1 -8q-55 -17 -167 -51q-12 -4 -35.5 -11t-35.5 -11q-2 0 -4 -1
q-4 -1 -14.5 -3.5t-14.5 -4.5q0 2 -1 3q-1 7 3.5 13.5t10.5 10.5t12 6q11 3 50 1q50 -3 76 25q1 1 9.5 11.5t14.5 14.5q13 11 43 4zM263 188l-18 -6q-12 -3 -31 -9q-4 -1 -10.5 -3t-10.5 -3q-8 -3 -23.5 -7.5t-22.5 -6.5q-1 0 -5.5 -1.5l-6 -2t-5.5 -1.5t-6.5 -0.5t-5.5 1.5
t-6 3q-7 7 -6 17.5t10 15.5q3 2 11 4q1 0 1.5 0.5l0.5 0.5l8 2t7 2l7.5 2.5l7.5 2.5q82 25 123 37q29 9 88 27h1l51 16q12 2 19 -1q8 -4 10 -13q1 -2 1 -4q-1 -11 -12 -18q-4 -2 -16 -6q-6 -2 -20 -6l-90 -27q-8 -3 -25.5 -8t-25.5 -8z" />
    <glyph glyph-name="I" unicode="I" horiz-adv-x="502" 
d="M449.5 568.5q-6.5 -9.5 -25 -7.5t-38.5 15t-29.5 29t-3 26t25.5 8t38.5 -15t29 -29.5t3 -26zM218 160q21 -4 43 -2q0 -14 1 -43.5t1 -43.5h-1h-2q-21 -2 -42 1v88zM366 390v25q12 -5 35.5 -16t35.5 -16v-16v-30q-23 11 -71 32v21zM100 309q18 -8 22 -36q-10 -5 -22.5 -11
l-25 -12t-22.5 -10q-3 23 -1 39q2 18 17.5 28t31.5 2zM159 192l3 -3q14 -12 30 -20v-92q-64 19 -104 72q8 5 71 43zM127 246q5 -18 15 -34l-68 -40q-11 19 -17 41q12 6 35 16.5t35 16.5zM419.5 400q-19.5 -4 -38.5 19t-26.5 59t1 64.5t28 32.5t38.5 -19t26.5 -59t-1 -64.5
t-28 -32.5zM438 309q0 -32 -1 -54q-1 -19 -6 -37q-23 10 -69 31q4 14 4 28q1 24 1 63q11 -5 35 -15.5t36 -15.5zM326 190q16 15 26 34q24 -10 71 -31q-8 -20 -20 -38q-26 12 -77 35zM437 679v-44q-12 6 -35.5 16.5t-35.5 15.5q0 34 20 44q12 5 23.5 2.5t19.5 -12.5t8 -22z
M302 172l84 -38q-40 -45 -97 -59q0 15 -1 45t-2 45q4 1 6 2q5 2 10 5z" />
    <glyph glyph-name="I" unicode="&#xcf;" horiz-adv-x="502" 
d="M449.5 568.5q-6.5 -9.5 -25 -7.5t-38.5 15t-29.5 29t-3 26t25.5 8t38.5 -15t29 -29.5t3 -26zM218 160q21 -4 43 -2q0 -14 1 -43.5t1 -43.5h-1h-2q-21 -2 -42 1v88zM366 390v25q12 -5 35.5 -16t35.5 -16v-16v-30q-23 11 -71 32v21zM100 309q18 -8 22 -36q-10 -5 -22.5 -11
l-25 -12t-22.5 -10q-3 23 -1 39q2 18 17.5 28t31.5 2zM159 192l3 -3q14 -12 30 -20v-92q-64 19 -104 72q8 5 71 43zM127 246q5 -18 15 -34l-68 -40q-11 19 -17 41q12 6 35 16.5t35 16.5zM419.5 400q-19.5 -4 -38.5 19t-26.5 59t1 64.5t28 32.5t38.5 -19t26.5 -59t-1 -64.5
t-28 -32.5zM438 309q0 -32 -1 -54q-1 -19 -6 -37q-23 10 -69 31q4 14 4 28q1 24 1 63q11 -5 35 -15.5t36 -15.5zM326 190q16 15 26 34q24 -10 71 -31q-8 -20 -20 -38q-26 12 -77 35zM437 679v-44q-12 6 -35.5 16.5t-35.5 15.5q0 34 20 44q12 5 23.5 2.5t19.5 -12.5t8 -22z
M302 172l84 -38q-40 -45 -97 -59q0 15 -1 45t-2 45q4 1 6 2q5 2 10 5z" />
    <glyph glyph-name="I" unicode="&#xce;" horiz-adv-x="502" 
d="M449.5 568.5q-6.5 -9.5 -25 -7.5t-38.5 15t-29.5 29t-3 26t25.5 8t38.5 -15t29 -29.5t3 -26zM218 160q21 -4 43 -2q0 -14 1 -43.5t1 -43.5h-1h-2q-21 -2 -42 1v88zM366 390v25q12 -5 35.5 -16t35.5 -16v-16v-30q-23 11 -71 32v21zM100 309q18 -8 22 -36q-10 -5 -22.5 -11
l-25 -12t-22.5 -10q-3 23 -1 39q2 18 17.5 28t31.5 2zM159 192l3 -3q14 -12 30 -20v-92q-64 19 -104 72q8 5 71 43zM127 246q5 -18 15 -34l-68 -40q-11 19 -17 41q12 6 35 16.5t35 16.5zM419.5 400q-19.5 -4 -38.5 19t-26.5 59t1 64.5t28 32.5t38.5 -19t26.5 -59t-1 -64.5
t-28 -32.5zM438 309q0 -32 -1 -54q-1 -19 -6 -37q-23 10 -69 31q4 14 4 28q1 24 1 63q11 -5 35 -15.5t36 -15.5zM326 190q16 15 26 34q24 -10 71 -31q-8 -20 -20 -38q-26 12 -77 35zM437 679v-44q-12 6 -35.5 16.5t-35.5 15.5q0 34 20 44q12 5 23.5 2.5t19.5 -12.5t8 -22z
M302 172l84 -38q-40 -45 -97 -59q0 15 -1 45t-2 45q4 1 6 2q5 2 10 5z" />
    <glyph glyph-name="I" unicode="&#xcd;" horiz-adv-x="502" 
d="M449.5 568.5q-6.5 -9.5 -25 -7.5t-38.5 15t-29.5 29t-3 26t25.5 8t38.5 -15t29 -29.5t3 -26zM218 160q21 -4 43 -2q0 -14 1 -43.5t1 -43.5h-1h-2q-21 -2 -42 1v88zM366 390v25q12 -5 35.5 -16t35.5 -16v-16v-30q-23 11 -71 32v21zM100 309q18 -8 22 -36q-10 -5 -22.5 -11
l-25 -12t-22.5 -10q-3 23 -1 39q2 18 17.5 28t31.5 2zM159 192l3 -3q14 -12 30 -20v-92q-64 19 -104 72q8 5 71 43zM127 246q5 -18 15 -34l-68 -40q-11 19 -17 41q12 6 35 16.5t35 16.5zM419.5 400q-19.5 -4 -38.5 19t-26.5 59t1 64.5t28 32.5t38.5 -19t26.5 -59t-1 -64.5
t-28 -32.5zM438 309q0 -32 -1 -54q-1 -19 -6 -37q-23 10 -69 31q4 14 4 28q1 24 1 63q11 -5 35 -15.5t36 -15.5zM326 190q16 15 26 34q24 -10 71 -31q-8 -20 -20 -38q-26 12 -77 35zM437 679v-44q-12 6 -35.5 16.5t-35.5 15.5q0 34 20 44q12 5 23.5 2.5t19.5 -12.5t8 -22z
M302 172l84 -38q-40 -45 -97 -59q0 15 -1 45t-2 45q4 1 6 2q5 2 10 5z" />
    <glyph glyph-name="I" unicode="&#xcc;" horiz-adv-x="502" 
d="M449.5 568.5q-6.5 -9.5 -25 -7.5t-38.5 15t-29.5 29t-3 26t25.5 8t38.5 -15t29 -29.5t3 -26zM218 160q21 -4 43 -2q0 -14 1 -43.5t1 -43.5h-1h-2q-21 -2 -42 1v88zM366 390v25q12 -5 35.5 -16t35.5 -16v-16v-30q-23 11 -71 32v21zM100 309q18 -8 22 -36q-10 -5 -22.5 -11
l-25 -12t-22.5 -10q-3 23 -1 39q2 18 17.5 28t31.5 2zM159 192l3 -3q14 -12 30 -20v-92q-64 19 -104 72q8 5 71 43zM127 246q5 -18 15 -34l-68 -40q-11 19 -17 41q12 6 35 16.5t35 16.5zM419.5 400q-19.5 -4 -38.5 19t-26.5 59t1 64.5t28 32.5t38.5 -19t26.5 -59t-1 -64.5
t-28 -32.5zM438 309q0 -32 -1 -54q-1 -19 -6 -37q-23 10 -69 31q4 14 4 28q1 24 1 63q11 -5 35 -15.5t36 -15.5zM326 190q16 15 26 34q24 -10 71 -31q-8 -20 -20 -38q-26 12 -77 35zM437 679v-44q-12 6 -35.5 16.5t-35.5 15.5q0 34 20 44q12 5 23.5 2.5t19.5 -12.5t8 -22z
M302 172l84 -38q-40 -45 -97 -59q0 15 -1 45t-2 45q4 1 6 2q5 2 10 5z" />
    <glyph glyph-name="J" unicode="J" horiz-adv-x="531" 
d="M265 70q-16 0 -28 9.5t-16 23.5h88q-4 -14 -16 -23.5t-28 -9.5zM294 611q-32 6 -63 -1q7 24 30 26q14 2 24.5 -5.5t13.5 -20.5q-2 0 -4 1h-1zM459 170q21 -2 22 -20q-1 -14 -9.5 -17.5t-24.5 -3.5h-52h-70h-93h-26h-113q-23 0 -24 1q-19 2 -18.5 20t19.5 20q32 4 39 31
q2 3 4 39q1 8 2 18.5t1.5 19t1 19t1.5 18.5l11 134q3 52 26 84q29 38 76 50q36 9 72 -1q54 -16 80 -66q13 -24 17 -73l11 -146q3 -34 6 -69q0 -2 0.5 -6.5t0.5 -5.5t0.5 -5t1 -6t1 -5.5t1.5 -5.5t2.5 -4.5t3.5 -5t4 -4.5q10 -8 26 -10zM176 488q8 0 11.5 6.5t0 13t-11.5 6.5
t-11 -6.5t0 -13t11 -6.5zM209 464q8 0 11.5 6.5t0 13t-11.5 6.5t-11 -6.5t0 -13t11 -6.5zM225 507q4 4 4 9q-1 6 -4 10q-4 4 -9 4h-3q-5 0 -9 -4t-4 -10q1 -6 4 -9q4 -4 9 -4h3q5 0 9 4z" />
    <glyph glyph-name="K" unicode="K" horiz-adv-x="762" 
d="M397 268v-2v2zM606 129q-3 -17 -20.5 -23t-29.5 6q9 3 25.5 9t24.5 8zM414 448l-8 -8q-5 5 -10 9q2 6 2 11q4 0 7 1q3 -1 7 -1q0 -6 2 -12zM438 467q3 11 15 15.5t21 -3.5q-19 -3 -36 -12zM359 131q0 -2 -1 -5.5t-2 -6t-1 -5.5q-4 -16 4 -30q4 -5 14 -11t13 -11
q3 -11 -4 -16.5t-18 -2.5l-18 6q-9 4 -21.5 8.5l-25 9t-22.5 7.5q-29 11 -87.5 31.5t-87.5 31.5l-42 15q-10 5 -10 14t5.5 11.5t16.5 1t13 -0.5q21 1 31 22q11 22 22 47t24.5 55.5t20.5 47.5q2 5 7.5 18t9 20t9 17t11.5 17q34 38 86 37t84 -41q-15 -28 -14 -58q0 -6 1 -13
q2 -17 18 -73q1 -3 1 -5q-3 -9 -5.5 -19.5t-5.5 -23t-5 -19.5q-4 -13 -10.5 -38.5t-10.5 -37.5zM235 343q8 0 11.5 6.5t0 13t-11.5 6.5t-11 -6.5t0 -13t11 -6.5zM253 397q1 6 -1.5 10t-7.5 6q-1 0 -2 1q-5 1 -10 -2t-6 -8t1.5 -9.5t7.5 -6.5h2q5 -2 10 1t6 8zM277.5 361
q12.5 0 12.5 13t-12.5 13t-12.5 -13t12.5 -13zM697 214q8 1 12 -3t2 -12q-3 -5 -18 -10l-10 -4t-9 -3t-9.5 -3t-9.5 -4q-18 -6 -55 -19.5t-56 -19.5q-15 -5 -44.5 -16t-44.5 -16q-16 -6 -17 -6q-6 0 -10 4t-3 10q1 0 2 2t2.5 3.5t0.5 2.5l6 1q10 5 15 15t3 20q0 3 -8 32
l-16 57l-9 33l-7 25l-4 16q-10 37 -7 57q3 18 13 35q11 17 28 29q23 14 50 15q49 1 77 -38q5 -7 19 -37q7 -15 16 -35.5t18 -40.5t15 -35l17 -37q6 -12 17 -17q8 -3 24 -1zM439 344q8 0 11 6.5t0 13t-11 6.5t-11.5 -6.5t0 -13t11.5 -6.5zM458 376q2 -5 6 -8q6 -3 10 -1h0.5
t1.5 1q5 2 7 6q3 5 2 10q-2 5 -6 7q-6 3 -10 2q-1 0 -1.5 -0.5l-0.5 -0.5q-5 -2 -8 -6q-3 -5 -1 -10zM475 329q8 0 11 6.5t0 13t-11 6.5t-11.5 -6.5t0 -13t11.5 -6.5zM245 673q-5 8 -8 24q-3 21 -3 46q10 -11 24 -21q5 -4 29 -18.5t34 -24.5q10 -12 25 -45t31 -45
q-8 -26 -1 -58q-38 34 -84 55q2 36 -22 61q-1 0 -11.5 10t-13.5 16zM196 50q-22 9 -23 33q9 -3 20.5 -7l23 -8t20.5 -7q-17 -20 -41 -11zM324 484q12 14 30 7t19 -24q-22 13 -49 17zM560 562q-59 -9 -111 -38q18 34 16 67q16 7 30.5 22.5t29 33.5t27.5 27t42.5 17.5
t35.5 11.5q21 9 37 20q-7 -30 -17 -53q-7 -16 -14 -24q-3 -4 -7.5 -7.5t-8.5 -5.5t-9.5 -5t-8.5 -5q-35 -21 -42 -61z" />
    <glyph glyph-name="L" unicode="L" horiz-adv-x="482" 
d="M414 362q18 0 18 -9q1 -3 -1 -5.5t-3 -3.5t-5 -3.5t-4 -3.5q-6 -4 -17 -12t-16 -12q-33 -23 -34 -24q-17 -13 -21 -22q-4 -4 -2.5 -16.5t3 -18t6.5 -18t6 -15.5q7 -21 13 -42q7 -19 5 -22q-4 -12 -21 1q-5 3 -10.5 7t-11 8.5t-10.5 7.5q-23 17 -35 25q-16 12 -22 14
q-9 0 -14 1t-14.5 -4t-13.5 -8t-12.5 -10t-11.5 -9q-6 -4 -17.5 -12.5t-17.5 -12.5q-17 -13 -18 -13q-9 -4 -11.5 3.5t0.5 14.5q2 5 4 11t4 12.5t3 10.5q2 7 7 20t8.5 24t5.5 20q1 8 -0.5 15t-8 14t-10 10t-13.5 10t-12 8q-6 5 -18.5 14t-17.5 12l-21 16q-5 5 -2 10.5
t10 6.5h30h74q26 1 37 33q2 4 4 11l1 4l24 74q3 7 9 9t10 -5q3 -11 10 -32t10 -31q2 -4 4.5 -13.5t4.5 -15.5t6 -13.5t9 -12.5t12 -7q6 -1 27 -1h42h39zM184.5 288q7.5 0 11 6.5t0.5 13t-11 6.5t-11.5 -6.5t0 -13t11 -6.5zM200 327q8 0 11.5 6.5t0 13t-11.5 6.5t-11 -6.5
t0 -13t11 -6.5zM224 300q8 0 11 6.5t0 13t-11 6.5t-11.5 -6.5t0 -13t11.5 -6.5z" />
    <glyph glyph-name="M" unicode="M" horiz-adv-x="817" 
d="M760 402zM502 118l2 -1l2 -2q-3 0 -9 0.5t-7 0.5q-28 3 -31 2q-6 -1 -11 -5.5t-6 -7.5t-5 -12q-1 -2 -8 -17q0 -1 -1.5 -3.5t-2.5 -3.5q0 1 -0.5 3l-1 4t-1.5 3l-6 29q-5 16 -29 18q-3 0 -14 2t-17 2l3 2l30 18q6 4 9 9.5t3 13.5t-1 14t-4 15.5t-3 12.5l3 -3q2 -1 3 -2
q25 -22 26 -23q5 -3 9.5 -4t10.5 1t8.5 3.5t9.5 5.5q10 6 20 11q0 1 2 2h2q-2 -3 -4.5 -9t-4.5 -9q-10 -25 -10 -31l2 -6t3.5 -6t3.5 -4.5t5.5 -5l4.5 -3.5q2 -2 7 -6.5t8 -7.5zM503 593q14 0 15 -2t-1.5 -5.5t-7.5 -7.5t-9.5 -7t-9.5 -6.5t-6 -3.5q-3 -2 -14 -9t-18 -12.5
t-10 -12.5q-4 -6 -4 -14t1.5 -12.5t5 -15.5t4.5 -13q2 -5 11 -32q5 -16 5 -17q-1 -8 -13 0l-12 9l-12 9t-13 10t-16 12t-14 8q-3 1 -6.5 1.5t-6.5 0.5t-6 -1t-6 -2.5l-6 -3t-6 -3.5t-5.5 -4t-5.5 -4.5t-5 -3.5q-4 -3 -13 -10t-14 -10l-15 -11q-6 -3 -7.5 0.5t0.5 8.5l9 26
l15 48q3 3 1.5 8.5t-1 8t-3 6.5t-4.5 5.5t-5.5 5.5t-6 5t-6.5 4.5t-6 4.5l-29 21q-1 1 -5.5 3.5t-7.5 5t-5 4.5q-1 10 29 8h14h14h14h14q15 1 22 10t13 27q1 6 4 14.5t5 15t4.5 14.5t5.5 15q1 4 3.5 6t5.5 -2q3 -8 8 -24t8 -23q1 -3 2.5 -9t2.5 -9.5t3 -9t4 -9t5.5 -7
t7.5 -5.5q6 -4 14.5 -4.5t22 0t16.5 0.5h32zM352 535v1q0 6 -4 9q-4 5 -10 4q-5 0 -9 -4t-4 -9v-1q0 -6 4 -9q4 -4 9 -4q6 0 10 4t4 9zM348 561q8 0 11 6.5t0 13t-11 6.5t-11.5 -6.5t0 -13t11.5 -6.5zM388 549v2q0 5 -4 9t-9 4q-6 -1 -9 -4q-4 -4 -4 -9v-2q0 -5 4 -9t9 -4
q6 0 9 4q4 4 4 9zM346 130q0 1 1 0h-1zM439 209zM208 275q-1 -1 -5.5 -6.5t-7 -8t-5 -7.5t-2.5 -9t1.5 -9.5t3 -8t5.5 -9t5 -7.5l3 -4.5l6 -9l6 -9t3 -5.5q-1 1 -27 12q-2 1 -8 3.5t-9.5 4t-8.5 2.5t-10 1q-3 -1 -6.5 -2t-6.5 -4l-5 -5t-5.5 -6.5t-4.5 -5.5l-14 -17
q-1 -1 -3.5 -5t-4.5 -5l0.5 3.5t0.5 7t0.5 8t0.5 6.5q2 31 2 34q-1 7 -6.5 12.5t-9 7t-12.5 5.5q-2 0 -9.5 3t-11.5 5q-1 0 -5.5 2.5t-7.5 3.5q3 0 7.5 2t5.5 2q4 1 11.5 2.5t13.5 3t11 3.5q17 6 19 31l3 42v1q2 -3 5 -7t3 -5q21 -32 22 -34q3 -3 5.5 -5t6 -3t6 -1t7 0.5
t6.5 1t7 2t6 1.5l24 6l3.5 0.5t4.5 1.5q-6 -8 -19 -23zM123 242q8 0 11 6.5t0 13t-11 6.5t-11.5 -6.5t0 -13t11.5 -6.5zM652 353zM763 360q1 -1 2 -3l2 -3q-2 1 -7.5 2t-8.5 2q-27 6 -31 5q-6 -1 -11.5 -5.5t-6.5 -6.5t-6 -11q-2 -3 -5 -8t-5 -8q0 -1 -2 -4l-2 -2
q0 1 -0.5 4t-0.5 4l-1.5 12t-1.5 18q-3 18 -25 23q-3 0 -14.5 3.5t-17.5 3.5q1 1 3.5 2.5t3.5 1.5q30 14 32 15q8 6 9.5 16.5t-1.5 19.5l-2 23v4q2 -3 7 -8.5t8 -8.5q1 -1 4 -4.5t4.5 -5.5t4.5 -4.5t5.5 -4t5.5 -2.5q8 -2 31 9q1 0 9 3t12 5l-9 -16q-13 -23 -13 -28
q-1 -3 0 -6t1.5 -5t3 -5t3.5 -4.5t4 -5t4 -3.5zM679 310v1v-1zM666 470v1v-1z" />
    <glyph glyph-name="N" unicode="N" 
d="M1162 720q7 4 13 0t6.5 -10.5t-5.5 -12.5q-48 -31 -134 -66q-24 -10 -50 -20q8 -9 23.5 -27.5t23.5 -28.5q5 -6 2.5 -13t-9 -9t-12.5 4q-9 11 -27 32.5t-27 32.5q-179 -61 -366 -64v-81q0 -8 -6.5 -11.5t-13 0t-6.5 11.5v81q-103 1 -203 20q-52 9 -103 24
q-29 -73 -32 -82q-3 -7 -10.5 -8.5t-13 3.5t-2.5 12q6 14 17 41.5t16 40.5q-74 23 -145 55q-65 29 -102 53q-7 5 -6 12.5t6.5 11t12.5 -0.5q46 -30 124 -63q156 -66 323.5 -85.5t333.5 11.5q141 26 270 83q65 30 102 54zM586 401q2 0 16 -0.5t16 -0.5q6 -15 7 -42
q-1 -48 -17 -76q-16 -27 -33 -12q-19 16 -25 60q-6 45 5 70q2 0 15.5 0.5t15.5 0.5zM171 462q4 -2 9.5 -4t11.5 -4l9 -3q1 0 12 -5t17 -7q0 -16 -11 -43q-16 -40 -40 -61q-25 -21 -36 -4q-14 21 -2 68q11 45 30 63zM213 487q2 0 7 -1.5t9.5 -3.5l9 -4t7 -5t1.5 -6
q-1 -2 -4 -1.5t-9 2.5t-10 4t-8.5 4l-4.5 2q-1 0 -6 1.5t-10 3.5t-10 4.5t-7 5t0 5.5q2 1 5 1t8 -2t9 -3.5t8 -3.5t5 -3zM586 429h-5.5t-9.5 -0.5t-10.5 0t-8.5 2t-3.5 4t3 3.5t8.5 1.5t10 0.5t9.5 -0.5t5.5 -0.5t6 0.5t10 0.5h10.5t9 -1.5t3.5 -4.5q0 -2 -3.5 -3.5t-8.5 -2
t-10 0t-10 0.5h-6zM1121 488q28 -42 30 -74q0 -13 -5 -21.5t-17 -5.5q-25 4 -54 36q-30 33 -35 59q5 3 14.5 10t10.5 7q1 2 11.5 8.5t15.5 10.5q14 -10 29 -30zM1077 549q1 -3 -1 -6t-5.5 -6t-7.5 -5t-8 -4.5t-5 -3.5q-1 0 -4.5 -3.5t-7.5 -6t-8.5 -5.5t-7.5 -4t-6 0
q-1 3 -0.5 5t5.5 6t8.5 6.5t8 5.5t5.5 3q3 2 10 7t11 8q9 6 13 3z" />
    <glyph glyph-name="N" unicode="&#xd1;" 
d="M1162 720q7 4 13 0t6.5 -10.5t-5.5 -12.5q-48 -31 -134 -66q-24 -10 -50 -20q8 -9 23.5 -27.5t23.5 -28.5q5 -6 2.5 -13t-9 -9t-12.5 4q-9 11 -27 32.5t-27 32.5q-179 -61 -366 -64v-81q0 -8 -6.5 -11.5t-13 0t-6.5 11.5v81q-103 1 -203 20q-52 9 -103 24
q-29 -73 -32 -82q-3 -7 -10.5 -8.5t-13 3.5t-2.5 12q6 14 17 41.5t16 40.5q-74 23 -145 55q-65 29 -102 53q-7 5 -6 12.5t6.5 11t12.5 -0.5q46 -30 124 -63q156 -66 323.5 -85.5t333.5 11.5q141 26 270 83q65 30 102 54zM586 401q2 0 16 -0.5t16 -0.5q6 -15 7 -42
q-1 -48 -17 -76q-16 -27 -33 -12q-19 16 -25 60q-6 45 5 70q2 0 15.5 0.5t15.5 0.5zM171 462q4 -2 9.5 -4t11.5 -4l9 -3q1 0 12 -5t17 -7q0 -16 -11 -43q-16 -40 -40 -61q-25 -21 -36 -4q-14 21 -2 68q11 45 30 63zM213 487q2 0 7 -1.5t9.5 -3.5l9 -4t7 -5t1.5 -6
q-1 -2 -4 -1.5t-9 2.5t-10 4t-8.5 4l-4.5 2q-1 0 -6 1.5t-10 3.5t-10 4.5t-7 5t0 5.5q2 1 5 1t8 -2t9 -3.5t8 -3.5t5 -3zM586 429h-5.5t-9.5 -0.5t-10.5 0t-8.5 2t-3.5 4t3 3.5t8.5 1.5t10 0.5t9.5 -0.5t5.5 -0.5t6 0.5t10 0.5h10.5t9 -1.5t3.5 -4.5q0 -2 -3.5 -3.5t-8.5 -2
t-10 0t-10 0.5h-6zM1121 488q28 -42 30 -74q0 -13 -5 -21.5t-17 -5.5q-25 4 -54 36q-30 33 -35 59q5 3 14.5 10t10.5 7q1 2 11.5 8.5t15.5 10.5q14 -10 29 -30zM1077 549q1 -3 -1 -6t-5.5 -6t-7.5 -5t-8 -4.5t-5 -3.5q-1 0 -4.5 -3.5t-7.5 -6t-8.5 -5.5t-7.5 -4t-6 0
q-1 3 -0.5 5t5.5 6t8.5 6.5t8 5.5t5.5 3q3 2 10 7t11 8q9 6 13 3z" />
    <glyph glyph-name="O" unicode="O" horiz-adv-x="1178" 
d="M574 457v81q-103 1 -203 20q-52 9 -103 24q-3 -7 -14.5 -36.5t-17.5 -45.5q-3 -7 -10.5 -8.5t-13 3.5t-2.5 12q6 14 17 41.5t16 40.5q-74 23 -145 55q-65 29 -102 53q-7 5 -6 12.5t6.5 11t12.5 -0.5q46 -30 124 -63q156 -66 323.5 -85.5t333.5 11.5q141 26 270 83
q65 30 102 54q7 4 13 0t6.5 -10.5t-5.5 -12.5q-48 -31 -134 -66q-24 -10 -50 -20q8 -9 23.5 -27.5t23.5 -28.5q5 -6 2.5 -13t-9 -9t-12.5 4q-9 11 -27 32.5t-27 32.5q-179 -61 -366 -64v-81q0 -8 -6.5 -11.5t-13 0t-6.5 11.5zM98 551q3 -4 6.5 -9t6.5 -9t6.5 -8.5t6.5 -8.5
q3 -5 1.5 -10.5t-6.5 -7.5q-10 -6 -17 5q-9 11 -27 34q-3 5 -1 10.5t6 7.5q10 6 18 -4zM329 456q8 2 12.5 -3t3 -12.5t-8.5 -10.5q-7 -2 -21 -7t-20 -7q-8 -3 -13 2t-3.5 12.5t9.5 10.5q5 2 12.5 4.5t15 5.5t13.5 5zM286 374q4 -4 15.5 -13.5t17.5 -14.5q4 -4 4 -9.5
t-4 -9.5q-8 -8 -18 0q-5 4 -11 9l-12 10t-11 9q-4 4 -3.5 9.5t3.5 9.5q9 8 19 0zM236 289q30 -77 38 -97q3 -7 -2 -12t-12.5 -3.5t-10.5 8.5q-7 18 -20 51.5t-18 45.5q-3 8 2 12.5t12.5 3t10.5 -8.5zM175 267q1 -6 3.5 -17.5t3.5 -17.5q2 -8 -3.5 -13t-12.5 -3.5t-9 9.5
q-1 6 -3.5 17.5t-3.5 17.5q-2 8 4 12.5t13 3t8 -8.5zM95 283q6 6 13 3.5t8.5 -9t-3.5 -12.5q-32 -31 -70 -55q-7 -4 -13 0t-6.5 11t6.5 12q35 21 65 50zM38 357q27 -1 42 -2q5 0 8 -3t4 -6.5t0 -7.5t-4 -6.5t-8 -2.5q-7 0 -21 1t-21 1q-8 0 -11 6.5t0 13t11 6.5zM98 443
q10 -8 0 -17q-9 -9 -19 -1l-66 51q-10 8 0 17q9 9 19 1zM615 209q3 -10 14 -45q3 -8 -2.5 -12.5t-13 -3t-9.5 9t-7 22.5t-7 22.5t3 12.5t12.5 3.5t9.5 -9.5zM664 225q50 -49 75 -74q4 -3 4.5 -7.5t-2 -7.5t-5.5 -5.5t-7.5 -2t-7.5 3.5q-8 9 -18.5 19t-19 18.5l-19 19
t-19.5 18.5q-3 3 -3.5 7.5t2 7.5t5.5 5t7.5 2t7.5 -4zM740 304q8 0 11.5 -6.5t0 -13t-11.5 -6.5q-6 0 -61 1q-4 0 -7.5 3t-4 6.5t0 7.5t4 6.5t7.5 2.5zM758 432q7 3 13.5 -1t6.5 -10.5t-7 -11.5q-43 -23 -81 -52q-11 -8 -17 4q-6 11 3 18q39 30 82 53zM465 430
q19 -14 23 -17q10 -8 4 -18q-2 -4 -7.5 -6t-10.5 1q-7 6 -23 17q-10 8 -4 18q2 5 7.5 6.5t10.5 -1.5zM495 350q8 1 11 -5.5t-0.5 -13t-10.5 -7.5q-39 -5 -79 -3q-8 1 -11 7.5t0 13t11 5.5q40 -2 79 3zM497 277q7 3 12 -2.5t3.5 -13t-8.5 -9.5l-42 -14q-13 -5 -16 9
q-2 12 9 16zM530 227q4 6 10.5 6t11 -6t1.5 -14q-6 -11 -20.5 -43t-22.5 -49q-5 -7 -11 -7t-10.5 6.5t-1.5 13.5q7 16 21.5 47t21.5 46zM1172 323q21 -109 26 -136q1 -8 -4.5 -13t-12.5 -3.5t-8 9.5q-11 58 -26 136q-1 7 4.5 12t12.5 3.5t8 -8.5zM1245 353q4 -4 3.5 -9.5
t-3.5 -9.5q-8 -8 -19 0q-12 10 -29 14q-8 2 -9 9.5t3.5 13t12.5 3.5q22 -6 41 -21zM1279 454q8 2 12.5 -3.5t3.5 -12.5t-9 -9q-10 -3 -27.5 -7.5t-24.5 -6.5q-8 -3 -13 2.5t-3.5 13t9.5 9.5q9 2 27 7t25 7zM1207 486q-10 -8 -17 4q-5 11 4 18q39 30 83 49q12 6 19 -6
q6 -11 -5 -16q-45 -20 -84 -49zM1168 541q-4 -6 -12 -5.5t-11 6t1 12.5q24 35 36 53q4 6 12 5.5t11 -6t-1 -12.5q-24 -35 -36 -53zM1050 361q4 6 11 6t11 -6.5t0 -12.5q-32 -55 -47 -118q-2 -7 -9 -8.5t-12.5 3.5t-3.5 12q16 65 50 124zM981 460q5 0 8 -2.5t4 -6.5t0 -8
t-4 -6.5t-8 -3.5q-35 -1 -70 -10q-4 -1 -8 1t-6 5.5t-2 7t2.5 7t6.5 5.5q38 9 77 11zM999 402q3 -4 3 -9.5t-3 -8.5q-2 -2 -28 -23q-10 -9 -19 0q-3 3 -3.5 9t3.5 9q2 2 28 23q10 8 19 0zM1108 339q12 -3 9 -16q-1 -5 -2.5 -14.5t-2.5 -13.5q-1 -5 -6 -8t-10 -1q-12 3 -9 16
q1 4 2.5 13.5t2.5 14.5q1 3 3.5 5.5t6 3.5t6.5 0zM608 282q-16 -27 -33 -12q-19 16 -25 60q-6 45 5 70q2 0 15.5 0.5t15.5 0.5t16 -0.5t16 -0.5q6 -15 7 -42q-1 -48 -17 -76zM585 439q1 0 6 0.5t10 0.5h10.5t9 -1.5t3.5 -4.5q0 -2 -3.5 -3.5t-8.5 -2t-10 0t-10 0.5h-6h-5.5
t-9.5 -0.5t-10.5 0t-8.5 2t-3.5 4t3 3.5t8.5 1.5t10 0.5t9.5 -0.5t5.5 -0.5zM247 467q-1 -2 -4 -1.5t-9 2.5t-10 4t-8.5 4l-4.5 2q-1 0 -6 1.5t-10 3.5t-10 4.5t-7 5t0 5.5q2 1 5 1t8 -2t9 -3.5t8 -3.5t5 -3q2 0 7 -1.5t9.5 -3.5l9 -4t7 -5t1.5 -6zM230 439q0 -16 -11 -43
q-16 -40 -40 -61q-25 -21 -36 -4q-14 21 -2 68q11 45 30 63q6 -2 17 -6.5t13 -4.5q1 0 12 -5t17 -7zM1151 414q0 -13 -5 -21.5t-17 -5.5q-25 4 -54 36q-30 33 -35 59q5 3 14.5 10t10.5 7q1 2 11.5 8.5t15.5 10.5q14 -10 29 -30q28 -42 30 -74zM1064 546q9 6 13 3q1 -3 -1 -6
t-5.5 -6t-7.5 -5t-8 -4.5t-5 -3.5q-1 0 -4.5 -3.5t-7.5 -6t-8.5 -5.5t-7.5 -4t-6 0q-1 3 -0.5 5t5.5 6t8.5 6.5t8 5.5t5.5 3q1 1 2.5 2l3 2l3 2l3 2l3 2t3 2.5t3.5 2.5z" />
    <glyph glyph-name="O" unicode="&#xd8;" horiz-adv-x="1178" 
d="M574 457v81q-103 1 -203 20q-52 9 -103 24q-3 -7 -14.5 -36.5t-17.5 -45.5q-3 -7 -10.5 -8.5t-13 3.5t-2.5 12q6 14 17 41.5t16 40.5q-74 23 -145 55q-65 29 -102 53q-7 5 -6 12.5t6.5 11t12.5 -0.5q46 -30 124 -63q156 -66 323.5 -85.5t333.5 11.5q141 26 270 83
q65 30 102 54q7 4 13 0t6.5 -10.5t-5.5 -12.5q-48 -31 -134 -66q-24 -10 -50 -20q8 -9 23.5 -27.5t23.5 -28.5q5 -6 2.5 -13t-9 -9t-12.5 4q-9 11 -27 32.5t-27 32.5q-179 -61 -366 -64v-81q0 -8 -6.5 -11.5t-13 0t-6.5 11.5zM98 551q3 -4 6.5 -9t6.5 -9t6.5 -8.5t6.5 -8.5
q3 -5 1.5 -10.5t-6.5 -7.5q-10 -6 -17 5q-9 11 -27 34q-3 5 -1 10.5t6 7.5q10 6 18 -4zM329 456q8 2 12.5 -3t3 -12.5t-8.5 -10.5q-7 -2 -21 -7t-20 -7q-8 -3 -13 2t-3.5 12.5t9.5 10.5q5 2 12.5 4.5t15 5.5t13.5 5zM286 374q4 -4 15.5 -13.5t17.5 -14.5q4 -4 4 -9.5
t-4 -9.5q-8 -8 -18 0q-5 4 -11 9l-12 10t-11 9q-4 4 -3.5 9.5t3.5 9.5q9 8 19 0zM236 289q30 -77 38 -97q3 -7 -2 -12t-12.5 -3.5t-10.5 8.5q-7 18 -20 51.5t-18 45.5q-3 8 2 12.5t12.5 3t10.5 -8.5zM175 267q1 -6 3.5 -17.5t3.5 -17.5q2 -8 -3.5 -13t-12.5 -3.5t-9 9.5
q-1 6 -3.5 17.5t-3.5 17.5q-2 8 4 12.5t13 3t8 -8.5zM95 283q6 6 13 3.5t8.5 -9t-3.5 -12.5q-32 -31 -70 -55q-7 -4 -13 0t-6.5 11t6.5 12q35 21 65 50zM38 357q27 -1 42 -2q5 0 8 -3t4 -6.5t0 -7.5t-4 -6.5t-8 -2.5q-7 0 -21 1t-21 1q-8 0 -11 6.5t0 13t11 6.5zM98 443
q10 -8 0 -17q-9 -9 -19 -1l-66 51q-10 8 0 17q9 9 19 1zM615 209q3 -10 14 -45q3 -8 -2.5 -12.5t-13 -3t-9.5 9t-7 22.5t-7 22.5t3 12.5t12.5 3.5t9.5 -9.5zM664 225q50 -49 75 -74q4 -3 4.5 -7.5t-2 -7.5t-5.5 -5.5t-7.5 -2t-7.5 3.5q-8 9 -18.5 19t-19 18.5l-19 19
t-19.5 18.5q-3 3 -3.5 7.5t2 7.5t5.5 5t7.5 2t7.5 -4zM740 304q8 0 11.5 -6.5t0 -13t-11.5 -6.5q-6 0 -61 1q-4 0 -7.5 3t-4 6.5t0 7.5t4 6.5t7.5 2.5zM758 432q7 3 13.5 -1t6.5 -10.5t-7 -11.5q-43 -23 -81 -52q-11 -8 -17 4q-6 11 3 18q39 30 82 53zM465 430
q19 -14 23 -17q10 -8 4 -18q-2 -4 -7.5 -6t-10.5 1q-7 6 -23 17q-10 8 -4 18q2 5 7.5 6.5t10.5 -1.5zM495 350q8 1 11 -5.5t-0.5 -13t-10.5 -7.5q-39 -5 -79 -3q-8 1 -11 7.5t0 13t11 5.5q40 -2 79 3zM497 277q7 3 12 -2.5t3.5 -13t-8.5 -9.5l-42 -14q-13 -5 -16 9
q-2 12 9 16zM530 227q4 6 10.5 6t11 -6t1.5 -14q-6 -11 -20.5 -43t-22.5 -49q-5 -7 -11 -7t-10.5 6.5t-1.5 13.5q7 16 21.5 47t21.5 46zM1172 323q21 -109 26 -136q1 -8 -4.5 -13t-12.5 -3.5t-8 9.5q-11 58 -26 136q-1 7 4.5 12t12.5 3.5t8 -8.5zM1245 353q4 -4 3.5 -9.5
t-3.5 -9.5q-8 -8 -19 0q-12 10 -29 14q-8 2 -9 9.5t3.5 13t12.5 3.5q22 -6 41 -21zM1279 454q8 2 12.5 -3.5t3.5 -12.5t-9 -9q-10 -3 -27.5 -7.5t-24.5 -6.5q-8 -3 -13 2.5t-3.5 13t9.5 9.5q9 2 27 7t25 7zM1207 486q-10 -8 -17 4q-5 11 4 18q39 30 83 49q12 6 19 -6
q6 -11 -5 -16q-45 -20 -84 -49zM1168 541q-4 -6 -12 -5.5t-11 6t1 12.5q24 35 36 53q4 6 12 5.5t11 -6t-1 -12.5q-24 -35 -36 -53zM1050 361q4 6 11 6t11 -6.5t0 -12.5q-32 -55 -47 -118q-2 -7 -9 -8.5t-12.5 3.5t-3.5 12q16 65 50 124zM981 460q5 0 8 -2.5t4 -6.5t0 -8
t-4 -6.5t-8 -3.5q-35 -1 -70 -10q-4 -1 -8 1t-6 5.5t-2 7t2.5 7t6.5 5.5q38 9 77 11zM999 402q3 -4 3 -9.5t-3 -8.5q-2 -2 -28 -23q-10 -9 -19 0q-3 3 -3.5 9t3.5 9q2 2 28 23q10 8 19 0zM1108 339q12 -3 9 -16q-1 -5 -2.5 -14.5t-2.5 -13.5q-1 -5 -6 -8t-10 -1q-12 3 -9 16
q1 4 2.5 13.5t2.5 14.5q1 3 3.5 5.5t6 3.5t6.5 0zM608 282q-16 -27 -33 -12q-19 16 -25 60q-6 45 5 70q2 0 15.5 0.5t15.5 0.5t16 -0.5t16 -0.5q6 -15 7 -42q-1 -48 -17 -76zM585 439q1 0 6 0.5t10 0.5h10.5t9 -1.5t3.5 -4.5q0 -2 -3.5 -3.5t-8.5 -2t-10 0t-10 0.5h-6h-5.5
t-9.5 -0.5t-10.5 0t-8.5 2t-3.5 4t3 3.5t8.5 1.5t10 0.5t9.5 -0.5t5.5 -0.5zM247 467q-1 -2 -4 -1.5t-9 2.5t-10 4t-8.5 4l-4.5 2q-1 0 -6 1.5t-10 3.5t-10 4.5t-7 5t0 5.5q2 1 5 1t8 -2t9 -3.5t8 -3.5t5 -3q2 0 7 -1.5t9.5 -3.5l9 -4t7 -5t1.5 -6zM230 439q0 -16 -11 -43
q-16 -40 -40 -61q-25 -21 -36 -4q-14 21 -2 68q11 45 30 63q6 -2 17 -6.5t13 -4.5q1 0 12 -5t17 -7zM1151 414q0 -13 -5 -21.5t-17 -5.5q-25 4 -54 36q-30 33 -35 59q5 3 14.5 10t10.5 7q1 2 11.5 8.5t15.5 10.5q14 -10 29 -30q28 -42 30 -74zM1064 546q9 6 13 3q1 -3 -1 -6
t-5.5 -6t-7.5 -5t-8 -4.5t-5 -3.5q-1 0 -4.5 -3.5t-7.5 -6t-8.5 -5.5t-7.5 -4t-6 0q-1 3 -0.5 5t5.5 6t8.5 6.5t8 5.5t5.5 3q1 1 2.5 2l3 2l3 2l3 2l3 2t3 2.5t3.5 2.5z" />
    <glyph glyph-name="O" unicode="&#xd6;" horiz-adv-x="1178" 
d="M574 457v81q-103 1 -203 20q-52 9 -103 24q-3 -7 -14.5 -36.5t-17.5 -45.5q-3 -7 -10.5 -8.5t-13 3.5t-2.5 12q6 14 17 41.5t16 40.5q-74 23 -145 55q-65 29 -102 53q-7 5 -6 12.5t6.5 11t12.5 -0.5q46 -30 124 -63q156 -66 323.5 -85.5t333.5 11.5q141 26 270 83
q65 30 102 54q7 4 13 0t6.5 -10.5t-5.5 -12.5q-48 -31 -134 -66q-24 -10 -50 -20q8 -9 23.5 -27.5t23.5 -28.5q5 -6 2.5 -13t-9 -9t-12.5 4q-9 11 -27 32.5t-27 32.5q-179 -61 -366 -64v-81q0 -8 -6.5 -11.5t-13 0t-6.5 11.5zM98 551q3 -4 6.5 -9t6.5 -9t6.5 -8.5t6.5 -8.5
q3 -5 1.5 -10.5t-6.5 -7.5q-10 -6 -17 5q-9 11 -27 34q-3 5 -1 10.5t6 7.5q10 6 18 -4zM329 456q8 2 12.5 -3t3 -12.5t-8.5 -10.5q-7 -2 -21 -7t-20 -7q-8 -3 -13 2t-3.5 12.5t9.5 10.5q5 2 12.5 4.5t15 5.5t13.5 5zM286 374q4 -4 15.5 -13.5t17.5 -14.5q4 -4 4 -9.5
t-4 -9.5q-8 -8 -18 0q-5 4 -11 9l-12 10t-11 9q-4 4 -3.5 9.5t3.5 9.5q9 8 19 0zM236 289q30 -77 38 -97q3 -7 -2 -12t-12.5 -3.5t-10.5 8.5q-7 18 -20 51.5t-18 45.5q-3 8 2 12.5t12.5 3t10.5 -8.5zM175 267q1 -6 3.5 -17.5t3.5 -17.5q2 -8 -3.5 -13t-12.5 -3.5t-9 9.5
q-1 6 -3.5 17.5t-3.5 17.5q-2 8 4 12.5t13 3t8 -8.5zM95 283q6 6 13 3.5t8.5 -9t-3.5 -12.5q-32 -31 -70 -55q-7 -4 -13 0t-6.5 11t6.5 12q35 21 65 50zM38 357q27 -1 42 -2q5 0 8 -3t4 -6.5t0 -7.5t-4 -6.5t-8 -2.5q-7 0 -21 1t-21 1q-8 0 -11 6.5t0 13t11 6.5zM98 443
q10 -8 0 -17q-9 -9 -19 -1l-66 51q-10 8 0 17q9 9 19 1zM615 209q3 -10 14 -45q3 -8 -2.5 -12.5t-13 -3t-9.5 9t-7 22.5t-7 22.5t3 12.5t12.5 3.5t9.5 -9.5zM664 225q50 -49 75 -74q4 -3 4.5 -7.5t-2 -7.5t-5.5 -5.5t-7.5 -2t-7.5 3.5q-8 9 -18.5 19t-19 18.5l-19 19
t-19.5 18.5q-3 3 -3.5 7.5t2 7.5t5.5 5t7.5 2t7.5 -4zM740 304q8 0 11.5 -6.5t0 -13t-11.5 -6.5q-6 0 -61 1q-4 0 -7.5 3t-4 6.5t0 7.5t4 6.5t7.5 2.5zM758 432q7 3 13.5 -1t6.5 -10.5t-7 -11.5q-43 -23 -81 -52q-11 -8 -17 4q-6 11 3 18q39 30 82 53zM465 430
q19 -14 23 -17q10 -8 4 -18q-2 -4 -7.5 -6t-10.5 1q-7 6 -23 17q-10 8 -4 18q2 5 7.5 6.5t10.5 -1.5zM495 350q8 1 11 -5.5t-0.5 -13t-10.5 -7.5q-39 -5 -79 -3q-8 1 -11 7.5t0 13t11 5.5q40 -2 79 3zM497 277q7 3 12 -2.5t3.5 -13t-8.5 -9.5l-42 -14q-13 -5 -16 9
q-2 12 9 16zM530 227q4 6 10.5 6t11 -6t1.5 -14q-6 -11 -20.5 -43t-22.5 -49q-5 -7 -11 -7t-10.5 6.5t-1.5 13.5q7 16 21.5 47t21.5 46zM1172 323q21 -109 26 -136q1 -8 -4.5 -13t-12.5 -3.5t-8 9.5q-11 58 -26 136q-1 7 4.5 12t12.5 3.5t8 -8.5zM1245 353q4 -4 3.5 -9.5
t-3.5 -9.5q-8 -8 -19 0q-12 10 -29 14q-8 2 -9 9.5t3.5 13t12.5 3.5q22 -6 41 -21zM1279 454q8 2 12.5 -3.5t3.5 -12.5t-9 -9q-10 -3 -27.5 -7.5t-24.5 -6.5q-8 -3 -13 2.5t-3.5 13t9.5 9.5q9 2 27 7t25 7zM1207 486q-10 -8 -17 4q-5 11 4 18q39 30 83 49q12 6 19 -6
q6 -11 -5 -16q-45 -20 -84 -49zM1168 541q-4 -6 -12 -5.5t-11 6t1 12.5q24 35 36 53q4 6 12 5.5t11 -6t-1 -12.5q-24 -35 -36 -53zM1050 361q4 6 11 6t11 -6.5t0 -12.5q-32 -55 -47 -118q-2 -7 -9 -8.5t-12.5 3.5t-3.5 12q16 65 50 124zM981 460q5 0 8 -2.5t4 -6.5t0 -8
t-4 -6.5t-8 -3.5q-35 -1 -70 -10q-4 -1 -8 1t-6 5.5t-2 7t2.5 7t6.5 5.5q38 9 77 11zM999 402q3 -4 3 -9.5t-3 -8.5q-2 -2 -28 -23q-10 -9 -19 0q-3 3 -3.5 9t3.5 9q2 2 28 23q10 8 19 0zM1108 339q12 -3 9 -16q-1 -5 -2.5 -14.5t-2.5 -13.5q-1 -5 -6 -8t-10 -1q-12 3 -9 16
q1 4 2.5 13.5t2.5 14.5q1 3 3.5 5.5t6 3.5t6.5 0zM608 282q-16 -27 -33 -12q-19 16 -25 60q-6 45 5 70q2 0 15.5 0.5t15.5 0.5t16 -0.5t16 -0.5q6 -15 7 -42q-1 -48 -17 -76zM585 439q1 0 6 0.5t10 0.5h10.5t9 -1.5t3.5 -4.5q0 -2 -3.5 -3.5t-8.5 -2t-10 0t-10 0.5h-6h-5.5
t-9.5 -0.5t-10.5 0t-8.5 2t-3.5 4t3 3.5t8.5 1.5t10 0.5t9.5 -0.5t5.5 -0.5zM247 467q-1 -2 -4 -1.5t-9 2.5t-10 4t-8.5 4l-4.5 2q-1 0 -6 1.5t-10 3.5t-10 4.5t-7 5t0 5.5q2 1 5 1t8 -2t9 -3.5t8 -3.5t5 -3q2 0 7 -1.5t9.5 -3.5l9 -4t7 -5t1.5 -6zM230 439q0 -16 -11 -43
q-16 -40 -40 -61q-25 -21 -36 -4q-14 21 -2 68q11 45 30 63q6 -2 17 -6.5t13 -4.5q1 0 12 -5t17 -7zM1151 414q0 -13 -5 -21.5t-17 -5.5q-25 4 -54 36q-30 33 -35 59q5 3 14.5 10t10.5 7q1 2 11.5 8.5t15.5 10.5q14 -10 29 -30q28 -42 30 -74zM1064 546q9 6 13 3q1 -3 -1 -6
t-5.5 -6t-7.5 -5t-8 -4.5t-5 -3.5q-1 0 -4.5 -3.5t-7.5 -6t-8.5 -5.5t-7.5 -4t-6 0q-1 3 -0.5 5t5.5 6t8.5 6.5t8 5.5t5.5 3q1 1 2.5 2l3 2l3 2l3 2l3 2t3 2.5t3.5 2.5z" />
    <glyph glyph-name="O" unicode="&#xd5;" horiz-adv-x="1178" 
d="M574 457v81q-103 1 -203 20q-52 9 -103 24q-3 -7 -14.5 -36.5t-17.5 -45.5q-3 -7 -10.5 -8.5t-13 3.5t-2.5 12q6 14 17 41.5t16 40.5q-74 23 -145 55q-65 29 -102 53q-7 5 -6 12.5t6.5 11t12.5 -0.5q46 -30 124 -63q156 -66 323.5 -85.5t333.5 11.5q141 26 270 83
q65 30 102 54q7 4 13 0t6.5 -10.5t-5.5 -12.5q-48 -31 -134 -66q-24 -10 -50 -20q8 -9 23.5 -27.5t23.5 -28.5q5 -6 2.5 -13t-9 -9t-12.5 4q-9 11 -27 32.5t-27 32.5q-179 -61 -366 -64v-81q0 -8 -6.5 -11.5t-13 0t-6.5 11.5zM98 551q3 -4 6.5 -9t6.5 -9t6.5 -8.5t6.5 -8.5
q3 -5 1.5 -10.5t-6.5 -7.5q-10 -6 -17 5q-9 11 -27 34q-3 5 -1 10.5t6 7.5q10 6 18 -4zM329 456q8 2 12.5 -3t3 -12.5t-8.5 -10.5q-7 -2 -21 -7t-20 -7q-8 -3 -13 2t-3.5 12.5t9.5 10.5q5 2 12.5 4.5t15 5.5t13.5 5zM286 374q4 -4 15.5 -13.5t17.5 -14.5q4 -4 4 -9.5
t-4 -9.5q-8 -8 -18 0q-5 4 -11 9l-12 10t-11 9q-4 4 -3.5 9.5t3.5 9.5q9 8 19 0zM236 289q30 -77 38 -97q3 -7 -2 -12t-12.5 -3.5t-10.5 8.5q-7 18 -20 51.5t-18 45.5q-3 8 2 12.5t12.5 3t10.5 -8.5zM175 267q1 -6 3.5 -17.5t3.5 -17.5q2 -8 -3.5 -13t-12.5 -3.5t-9 9.5
q-1 6 -3.5 17.5t-3.5 17.5q-2 8 4 12.5t13 3t8 -8.5zM95 283q6 6 13 3.5t8.5 -9t-3.5 -12.5q-32 -31 -70 -55q-7 -4 -13 0t-6.5 11t6.5 12q35 21 65 50zM38 357q27 -1 42 -2q5 0 8 -3t4 -6.5t0 -7.5t-4 -6.5t-8 -2.5q-7 0 -21 1t-21 1q-8 0 -11 6.5t0 13t11 6.5zM98 443
q10 -8 0 -17q-9 -9 -19 -1l-66 51q-10 8 0 17q9 9 19 1zM615 209q3 -10 14 -45q3 -8 -2.5 -12.5t-13 -3t-9.5 9t-7 22.5t-7 22.5t3 12.5t12.5 3.5t9.5 -9.5zM664 225q50 -49 75 -74q4 -3 4.5 -7.5t-2 -7.5t-5.5 -5.5t-7.5 -2t-7.5 3.5q-8 9 -18.5 19t-19 18.5l-19 19
t-19.5 18.5q-3 3 -3.5 7.5t2 7.5t5.5 5t7.5 2t7.5 -4zM740 304q8 0 11.5 -6.5t0 -13t-11.5 -6.5q-6 0 -61 1q-4 0 -7.5 3t-4 6.5t0 7.5t4 6.5t7.5 2.5zM758 432q7 3 13.5 -1t6.5 -10.5t-7 -11.5q-43 -23 -81 -52q-11 -8 -17 4q-6 11 3 18q39 30 82 53zM465 430
q19 -14 23 -17q10 -8 4 -18q-2 -4 -7.5 -6t-10.5 1q-7 6 -23 17q-10 8 -4 18q2 5 7.5 6.5t10.5 -1.5zM495 350q8 1 11 -5.5t-0.5 -13t-10.5 -7.5q-39 -5 -79 -3q-8 1 -11 7.5t0 13t11 5.5q40 -2 79 3zM497 277q7 3 12 -2.5t3.5 -13t-8.5 -9.5l-42 -14q-13 -5 -16 9
q-2 12 9 16zM530 227q4 6 10.5 6t11 -6t1.5 -14q-6 -11 -20.5 -43t-22.5 -49q-5 -7 -11 -7t-10.5 6.5t-1.5 13.5q7 16 21.5 47t21.5 46zM1172 323q21 -109 26 -136q1 -8 -4.5 -13t-12.5 -3.5t-8 9.5q-11 58 -26 136q-1 7 4.5 12t12.5 3.5t8 -8.5zM1245 353q4 -4 3.5 -9.5
t-3.5 -9.5q-8 -8 -19 0q-12 10 -29 14q-8 2 -9 9.5t3.5 13t12.5 3.5q22 -6 41 -21zM1279 454q8 2 12.5 -3.5t3.5 -12.5t-9 -9q-10 -3 -27.5 -7.5t-24.5 -6.5q-8 -3 -13 2.5t-3.5 13t9.5 9.5q9 2 27 7t25 7zM1207 486q-10 -8 -17 4q-5 11 4 18q39 30 83 49q12 6 19 -6
q6 -11 -5 -16q-45 -20 -84 -49zM1168 541q-4 -6 -12 -5.5t-11 6t1 12.5q24 35 36 53q4 6 12 5.5t11 -6t-1 -12.5q-24 -35 -36 -53zM1050 361q4 6 11 6t11 -6.5t0 -12.5q-32 -55 -47 -118q-2 -7 -9 -8.5t-12.5 3.5t-3.5 12q16 65 50 124zM981 460q5 0 8 -2.5t4 -6.5t0 -8
t-4 -6.5t-8 -3.5q-35 -1 -70 -10q-4 -1 -8 1t-6 5.5t-2 7t2.5 7t6.5 5.5q38 9 77 11zM999 402q3 -4 3 -9.5t-3 -8.5q-2 -2 -28 -23q-10 -9 -19 0q-3 3 -3.5 9t3.5 9q2 2 28 23q10 8 19 0zM1108 339q12 -3 9 -16q-1 -5 -2.5 -14.5t-2.5 -13.5q-1 -5 -6 -8t-10 -1q-12 3 -9 16
q1 4 2.5 13.5t2.5 14.5q1 3 3.5 5.5t6 3.5t6.5 0zM608 282q-16 -27 -33 -12q-19 16 -25 60q-6 45 5 70q2 0 15.5 0.5t15.5 0.5t16 -0.5t16 -0.5q6 -15 7 -42q-1 -48 -17 -76zM585 439q1 0 6 0.5t10 0.5h10.5t9 -1.5t3.5 -4.5q0 -2 -3.5 -3.5t-8.5 -2t-10 0t-10 0.5h-6h-5.5
t-9.5 -0.5t-10.5 0t-8.5 2t-3.5 4t3 3.5t8.5 1.5t10 0.5t9.5 -0.5t5.5 -0.5zM247 467q-1 -2 -4 -1.5t-9 2.5t-10 4t-8.5 4l-4.5 2q-1 0 -6 1.5t-10 3.5t-10 4.5t-7 5t0 5.5q2 1 5 1t8 -2t9 -3.5t8 -3.5t5 -3q2 0 7 -1.5t9.5 -3.5l9 -4t7 -5t1.5 -6zM230 439q0 -16 -11 -43
q-16 -40 -40 -61q-25 -21 -36 -4q-14 21 -2 68q11 45 30 63q6 -2 17 -6.5t13 -4.5q1 0 12 -5t17 -7zM1151 414q0 -13 -5 -21.5t-17 -5.5q-25 4 -54 36q-30 33 -35 59q5 3 14.5 10t10.5 7q1 2 11.5 8.5t15.5 10.5q14 -10 29 -30q28 -42 30 -74zM1064 546q9 6 13 3q1 -3 -1 -6
t-5.5 -6t-7.5 -5t-8 -4.5t-5 -3.5q-1 0 -4.5 -3.5t-7.5 -6t-8.5 -5.5t-7.5 -4t-6 0q-1 3 -0.5 5t5.5 6t8.5 6.5t8 5.5t5.5 3q1 1 2.5 2l3 2l3 2l3 2l3 2t3 2.5t3.5 2.5z" />
    <glyph glyph-name="O" unicode="&#xd4;" horiz-adv-x="1178" 
d="M574 457v81q-103 1 -203 20q-52 9 -103 24q-3 -7 -14.5 -36.5t-17.5 -45.5q-3 -7 -10.5 -8.5t-13 3.5t-2.5 12q6 14 17 41.5t16 40.5q-74 23 -145 55q-65 29 -102 53q-7 5 -6 12.5t6.5 11t12.5 -0.5q46 -30 124 -63q156 -66 323.5 -85.5t333.5 11.5q141 26 270 83
q65 30 102 54q7 4 13 0t6.5 -10.5t-5.5 -12.5q-48 -31 -134 -66q-24 -10 -50 -20q8 -9 23.5 -27.5t23.5 -28.5q5 -6 2.5 -13t-9 -9t-12.5 4q-9 11 -27 32.5t-27 32.5q-179 -61 -366 -64v-81q0 -8 -6.5 -11.5t-13 0t-6.5 11.5zM98 551q3 -4 6.5 -9t6.5 -9t6.5 -8.5t6.5 -8.5
q3 -5 1.5 -10.5t-6.5 -7.5q-10 -6 -17 5q-9 11 -27 34q-3 5 -1 10.5t6 7.5q10 6 18 -4zM329 456q8 2 12.5 -3t3 -12.5t-8.5 -10.5q-7 -2 -21 -7t-20 -7q-8 -3 -13 2t-3.5 12.5t9.5 10.5q5 2 12.5 4.5t15 5.5t13.5 5zM286 374q4 -4 15.5 -13.5t17.5 -14.5q4 -4 4 -9.5
t-4 -9.5q-8 -8 -18 0q-5 4 -11 9l-12 10t-11 9q-4 4 -3.5 9.5t3.5 9.5q9 8 19 0zM236 289q30 -77 38 -97q3 -7 -2 -12t-12.5 -3.5t-10.5 8.5q-7 18 -20 51.5t-18 45.5q-3 8 2 12.5t12.5 3t10.5 -8.5zM175 267q1 -6 3.5 -17.5t3.5 -17.5q2 -8 -3.5 -13t-12.5 -3.5t-9 9.5
q-1 6 -3.5 17.5t-3.5 17.5q-2 8 4 12.5t13 3t8 -8.5zM95 283q6 6 13 3.5t8.5 -9t-3.5 -12.5q-32 -31 -70 -55q-7 -4 -13 0t-6.5 11t6.5 12q35 21 65 50zM38 357q27 -1 42 -2q5 0 8 -3t4 -6.5t0 -7.5t-4 -6.5t-8 -2.5q-7 0 -21 1t-21 1q-8 0 -11 6.5t0 13t11 6.5zM98 443
q10 -8 0 -17q-9 -9 -19 -1l-66 51q-10 8 0 17q9 9 19 1zM615 209q3 -10 14 -45q3 -8 -2.5 -12.5t-13 -3t-9.5 9t-7 22.5t-7 22.5t3 12.5t12.5 3.5t9.5 -9.5zM664 225q50 -49 75 -74q4 -3 4.5 -7.5t-2 -7.5t-5.5 -5.5t-7.5 -2t-7.5 3.5q-8 9 -18.5 19t-19 18.5l-19 19
t-19.5 18.5q-3 3 -3.5 7.5t2 7.5t5.5 5t7.5 2t7.5 -4zM740 304q8 0 11.5 -6.5t0 -13t-11.5 -6.5q-6 0 -61 1q-4 0 -7.5 3t-4 6.5t0 7.5t4 6.5t7.5 2.5zM758 432q7 3 13.5 -1t6.5 -10.5t-7 -11.5q-43 -23 -81 -52q-11 -8 -17 4q-6 11 3 18q39 30 82 53zM465 430
q19 -14 23 -17q10 -8 4 -18q-2 -4 -7.5 -6t-10.5 1q-7 6 -23 17q-10 8 -4 18q2 5 7.5 6.5t10.5 -1.5zM495 350q8 1 11 -5.5t-0.5 -13t-10.5 -7.5q-39 -5 -79 -3q-8 1 -11 7.5t0 13t11 5.5q40 -2 79 3zM497 277q7 3 12 -2.5t3.5 -13t-8.5 -9.5l-42 -14q-13 -5 -16 9
q-2 12 9 16zM530 227q4 6 10.5 6t11 -6t1.5 -14q-6 -11 -20.5 -43t-22.5 -49q-5 -7 -11 -7t-10.5 6.5t-1.5 13.5q7 16 21.5 47t21.5 46zM1172 323q21 -109 26 -136q1 -8 -4.5 -13t-12.5 -3.5t-8 9.5q-11 58 -26 136q-1 7 4.5 12t12.5 3.5t8 -8.5zM1245 353q4 -4 3.5 -9.5
t-3.5 -9.5q-8 -8 -19 0q-12 10 -29 14q-8 2 -9 9.5t3.5 13t12.5 3.5q22 -6 41 -21zM1279 454q8 2 12.5 -3.5t3.5 -12.5t-9 -9q-10 -3 -27.5 -7.5t-24.5 -6.5q-8 -3 -13 2.5t-3.5 13t9.5 9.5q9 2 27 7t25 7zM1207 486q-10 -8 -17 4q-5 11 4 18q39 30 83 49q12 6 19 -6
q6 -11 -5 -16q-45 -20 -84 -49zM1168 541q-4 -6 -12 -5.5t-11 6t1 12.5q24 35 36 53q4 6 12 5.5t11 -6t-1 -12.5q-24 -35 -36 -53zM1050 361q4 6 11 6t11 -6.5t0 -12.5q-32 -55 -47 -118q-2 -7 -9 -8.5t-12.5 3.5t-3.5 12q16 65 50 124zM981 460q5 0 8 -2.5t4 -6.5t0 -8
t-4 -6.5t-8 -3.5q-35 -1 -70 -10q-4 -1 -8 1t-6 5.5t-2 7t2.5 7t6.5 5.5q38 9 77 11zM999 402q3 -4 3 -9.5t-3 -8.5q-2 -2 -28 -23q-10 -9 -19 0q-3 3 -3.5 9t3.5 9q2 2 28 23q10 8 19 0zM1108 339q12 -3 9 -16q-1 -5 -2.5 -14.5t-2.5 -13.5q-1 -5 -6 -8t-10 -1q-12 3 -9 16
q1 4 2.5 13.5t2.5 14.5q1 3 3.5 5.5t6 3.5t6.5 0zM608 282q-16 -27 -33 -12q-19 16 -25 60q-6 45 5 70q2 0 15.5 0.5t15.5 0.5t16 -0.5t16 -0.5q6 -15 7 -42q-1 -48 -17 -76zM585 439q1 0 6 0.5t10 0.5h10.5t9 -1.5t3.5 -4.5q0 -2 -3.5 -3.5t-8.5 -2t-10 0t-10 0.5h-6h-5.5
t-9.5 -0.5t-10.5 0t-8.5 2t-3.5 4t3 3.5t8.5 1.5t10 0.5t9.5 -0.5t5.5 -0.5zM247 467q-1 -2 -4 -1.5t-9 2.5t-10 4t-8.5 4l-4.5 2q-1 0 -6 1.5t-10 3.5t-10 4.5t-7 5t0 5.5q2 1 5 1t8 -2t9 -3.5t8 -3.5t5 -3q2 0 7 -1.5t9.5 -3.5l9 -4t7 -5t1.5 -6zM230 439q0 -16 -11 -43
q-16 -40 -40 -61q-25 -21 -36 -4q-14 21 -2 68q11 45 30 63q6 -2 17 -6.5t13 -4.5q1 0 12 -5t17 -7zM1151 414q0 -13 -5 -21.5t-17 -5.5q-25 4 -54 36q-30 33 -35 59q5 3 14.5 10t10.5 7q1 2 11.5 8.5t15.5 10.5q14 -10 29 -30q28 -42 30 -74zM1064 546q9 6 13 3q1 -3 -1 -6
t-5.5 -6t-7.5 -5t-8 -4.5t-5 -3.5q-1 0 -4.5 -3.5t-7.5 -6t-8.5 -5.5t-7.5 -4t-6 0q-1 3 -0.5 5t5.5 6t8.5 6.5t8 5.5t5.5 3q1 1 2.5 2l3 2l3 2l3 2l3 2t3 2.5t3.5 2.5z" />
    <glyph glyph-name="O" unicode="&#xd3;" horiz-adv-x="1178" 
d="M574 457v81q-103 1 -203 20q-52 9 -103 24q-3 -7 -14.5 -36.5t-17.5 -45.5q-3 -7 -10.5 -8.5t-13 3.5t-2.5 12q6 14 17 41.5t16 40.5q-74 23 -145 55q-65 29 -102 53q-7 5 -6 12.5t6.5 11t12.5 -0.5q46 -30 124 -63q156 -66 323.5 -85.5t333.5 11.5q141 26 270 83
q65 30 102 54q7 4 13 0t6.5 -10.5t-5.5 -12.5q-48 -31 -134 -66q-24 -10 -50 -20q8 -9 23.5 -27.5t23.5 -28.5q5 -6 2.5 -13t-9 -9t-12.5 4q-9 11 -27 32.5t-27 32.5q-179 -61 -366 -64v-81q0 -8 -6.5 -11.5t-13 0t-6.5 11.5zM98 551q3 -4 6.5 -9t6.5 -9t6.5 -8.5t6.5 -8.5
q3 -5 1.5 -10.5t-6.5 -7.5q-10 -6 -17 5q-9 11 -27 34q-3 5 -1 10.5t6 7.5q10 6 18 -4zM329 456q8 2 12.5 -3t3 -12.5t-8.5 -10.5q-7 -2 -21 -7t-20 -7q-8 -3 -13 2t-3.5 12.5t9.5 10.5q5 2 12.5 4.5t15 5.5t13.5 5zM286 374q4 -4 15.5 -13.5t17.5 -14.5q4 -4 4 -9.5
t-4 -9.5q-8 -8 -18 0q-5 4 -11 9l-12 10t-11 9q-4 4 -3.5 9.5t3.5 9.5q9 8 19 0zM236 289q30 -77 38 -97q3 -7 -2 -12t-12.5 -3.5t-10.5 8.5q-7 18 -20 51.5t-18 45.5q-3 8 2 12.5t12.5 3t10.5 -8.5zM175 267q1 -6 3.5 -17.5t3.5 -17.5q2 -8 -3.5 -13t-12.5 -3.5t-9 9.5
q-1 6 -3.5 17.5t-3.5 17.5q-2 8 4 12.5t13 3t8 -8.5zM95 283q6 6 13 3.5t8.5 -9t-3.5 -12.5q-32 -31 -70 -55q-7 -4 -13 0t-6.5 11t6.5 12q35 21 65 50zM38 357q27 -1 42 -2q5 0 8 -3t4 -6.5t0 -7.5t-4 -6.5t-8 -2.5q-7 0 -21 1t-21 1q-8 0 -11 6.5t0 13t11 6.5zM98 443
q10 -8 0 -17q-9 -9 -19 -1l-66 51q-10 8 0 17q9 9 19 1zM615 209q3 -10 14 -45q3 -8 -2.5 -12.5t-13 -3t-9.5 9t-7 22.5t-7 22.5t3 12.5t12.5 3.5t9.5 -9.5zM664 225q50 -49 75 -74q4 -3 4.5 -7.5t-2 -7.5t-5.5 -5.5t-7.5 -2t-7.5 3.5q-8 9 -18.5 19t-19 18.5l-19 19
t-19.5 18.5q-3 3 -3.5 7.5t2 7.5t5.5 5t7.5 2t7.5 -4zM740 304q8 0 11.5 -6.5t0 -13t-11.5 -6.5q-6 0 -61 1q-4 0 -7.5 3t-4 6.5t0 7.5t4 6.5t7.5 2.5zM758 432q7 3 13.5 -1t6.5 -10.5t-7 -11.5q-43 -23 -81 -52q-11 -8 -17 4q-6 11 3 18q39 30 82 53zM465 430
q19 -14 23 -17q10 -8 4 -18q-2 -4 -7.5 -6t-10.5 1q-7 6 -23 17q-10 8 -4 18q2 5 7.5 6.5t10.5 -1.5zM495 350q8 1 11 -5.5t-0.5 -13t-10.5 -7.5q-39 -5 -79 -3q-8 1 -11 7.5t0 13t11 5.5q40 -2 79 3zM497 277q7 3 12 -2.5t3.5 -13t-8.5 -9.5l-42 -14q-13 -5 -16 9
q-2 12 9 16zM530 227q4 6 10.5 6t11 -6t1.5 -14q-6 -11 -20.5 -43t-22.5 -49q-5 -7 -11 -7t-10.5 6.5t-1.5 13.5q7 16 21.5 47t21.5 46zM1172 323q21 -109 26 -136q1 -8 -4.5 -13t-12.5 -3.5t-8 9.5q-11 58 -26 136q-1 7 4.5 12t12.5 3.5t8 -8.5zM1245 353q4 -4 3.5 -9.5
t-3.5 -9.5q-8 -8 -19 0q-12 10 -29 14q-8 2 -9 9.5t3.5 13t12.5 3.5q22 -6 41 -21zM1279 454q8 2 12.5 -3.5t3.5 -12.5t-9 -9q-10 -3 -27.5 -7.5t-24.5 -6.5q-8 -3 -13 2.5t-3.5 13t9.5 9.5q9 2 27 7t25 7zM1207 486q-10 -8 -17 4q-5 11 4 18q39 30 83 49q12 6 19 -6
q6 -11 -5 -16q-45 -20 -84 -49zM1168 541q-4 -6 -12 -5.5t-11 6t1 12.5q24 35 36 53q4 6 12 5.5t11 -6t-1 -12.5q-24 -35 -36 -53zM1050 361q4 6 11 6t11 -6.5t0 -12.5q-32 -55 -47 -118q-2 -7 -9 -8.5t-12.5 3.5t-3.5 12q16 65 50 124zM981 460q5 0 8 -2.5t4 -6.5t0 -8
t-4 -6.5t-8 -3.5q-35 -1 -70 -10q-4 -1 -8 1t-6 5.5t-2 7t2.5 7t6.5 5.5q38 9 77 11zM999 402q3 -4 3 -9.5t-3 -8.5q-2 -2 -28 -23q-10 -9 -19 0q-3 3 -3.5 9t3.5 9q2 2 28 23q10 8 19 0zM1108 339q12 -3 9 -16q-1 -5 -2.5 -14.5t-2.5 -13.5q-1 -5 -6 -8t-10 -1q-12 3 -9 16
q1 4 2.5 13.5t2.5 14.5q1 3 3.5 5.5t6 3.5t6.5 0zM608 282q-16 -27 -33 -12q-19 16 -25 60q-6 45 5 70q2 0 15.5 0.5t15.5 0.5t16 -0.5t16 -0.5q6 -15 7 -42q-1 -48 -17 -76zM585 439q1 0 6 0.5t10 0.5h10.5t9 -1.5t3.5 -4.5q0 -2 -3.5 -3.5t-8.5 -2t-10 0t-10 0.5h-6h-5.5
t-9.5 -0.5t-10.5 0t-8.5 2t-3.5 4t3 3.5t8.5 1.5t10 0.5t9.5 -0.5t5.5 -0.5zM247 467q-1 -2 -4 -1.5t-9 2.5t-10 4t-8.5 4l-4.5 2q-1 0 -6 1.5t-10 3.5t-10 4.5t-7 5t0 5.5q2 1 5 1t8 -2t9 -3.5t8 -3.5t5 -3q2 0 7 -1.5t9.5 -3.5l9 -4t7 -5t1.5 -6zM230 439q0 -16 -11 -43
q-16 -40 -40 -61q-25 -21 -36 -4q-14 21 -2 68q11 45 30 63q6 -2 17 -6.5t13 -4.5q1 0 12 -5t17 -7zM1151 414q0 -13 -5 -21.5t-17 -5.5q-25 4 -54 36q-30 33 -35 59q5 3 14.5 10t10.5 7q1 2 11.5 8.5t15.5 10.5q14 -10 29 -30q28 -42 30 -74zM1064 546q9 6 13 3q1 -3 -1 -6
t-5.5 -6t-7.5 -5t-8 -4.5t-5 -3.5q-1 0 -4.5 -3.5t-7.5 -6t-8.5 -5.5t-7.5 -4t-6 0q-1 3 -0.5 5t5.5 6t8.5 6.5t8 5.5t5.5 3q1 1 2.5 2l3 2l3 2l3 2l3 2t3 2.5t3.5 2.5z" />
    <glyph glyph-name="O" unicode="&#xd2;" horiz-adv-x="1178" 
d="M574 457v81q-103 1 -203 20q-52 9 -103 24q-3 -7 -14.5 -36.5t-17.5 -45.5q-3 -7 -10.5 -8.5t-13 3.5t-2.5 12q6 14 17 41.5t16 40.5q-74 23 -145 55q-65 29 -102 53q-7 5 -6 12.5t6.5 11t12.5 -0.5q46 -30 124 -63q156 -66 323.5 -85.5t333.5 11.5q141 26 270 83
q65 30 102 54q7 4 13 0t6.5 -10.5t-5.5 -12.5q-48 -31 -134 -66q-24 -10 -50 -20q8 -9 23.5 -27.5t23.5 -28.5q5 -6 2.5 -13t-9 -9t-12.5 4q-9 11 -27 32.5t-27 32.5q-179 -61 -366 -64v-81q0 -8 -6.5 -11.5t-13 0t-6.5 11.5zM98 551q3 -4 6.5 -9t6.5 -9t6.5 -8.5t6.5 -8.5
q3 -5 1.5 -10.5t-6.5 -7.5q-10 -6 -17 5q-9 11 -27 34q-3 5 -1 10.5t6 7.5q10 6 18 -4zM329 456q8 2 12.5 -3t3 -12.5t-8.5 -10.5q-7 -2 -21 -7t-20 -7q-8 -3 -13 2t-3.5 12.5t9.5 10.5q5 2 12.5 4.5t15 5.5t13.5 5zM286 374q4 -4 15.5 -13.5t17.5 -14.5q4 -4 4 -9.5
t-4 -9.5q-8 -8 -18 0q-5 4 -11 9l-12 10t-11 9q-4 4 -3.5 9.5t3.5 9.5q9 8 19 0zM236 289q30 -77 38 -97q3 -7 -2 -12t-12.5 -3.5t-10.5 8.5q-7 18 -20 51.5t-18 45.5q-3 8 2 12.5t12.5 3t10.5 -8.5zM175 267q1 -6 3.5 -17.5t3.5 -17.5q2 -8 -3.5 -13t-12.5 -3.5t-9 9.5
q-1 6 -3.5 17.5t-3.5 17.5q-2 8 4 12.5t13 3t8 -8.5zM95 283q6 6 13 3.5t8.5 -9t-3.5 -12.5q-32 -31 -70 -55q-7 -4 -13 0t-6.5 11t6.5 12q35 21 65 50zM38 357q27 -1 42 -2q5 0 8 -3t4 -6.5t0 -7.5t-4 -6.5t-8 -2.5q-7 0 -21 1t-21 1q-8 0 -11 6.5t0 13t11 6.5zM98 443
q10 -8 0 -17q-9 -9 -19 -1l-66 51q-10 8 0 17q9 9 19 1zM615 209q3 -10 14 -45q3 -8 -2.5 -12.5t-13 -3t-9.5 9t-7 22.5t-7 22.5t3 12.5t12.5 3.5t9.5 -9.5zM664 225q50 -49 75 -74q4 -3 4.5 -7.5t-2 -7.5t-5.5 -5.5t-7.5 -2t-7.5 3.5q-8 9 -18.5 19t-19 18.5l-19 19
t-19.5 18.5q-3 3 -3.5 7.5t2 7.5t5.5 5t7.5 2t7.5 -4zM740 304q8 0 11.5 -6.5t0 -13t-11.5 -6.5q-6 0 -61 1q-4 0 -7.5 3t-4 6.5t0 7.5t4 6.5t7.5 2.5zM758 432q7 3 13.5 -1t6.5 -10.5t-7 -11.5q-43 -23 -81 -52q-11 -8 -17 4q-6 11 3 18q39 30 82 53zM465 430
q19 -14 23 -17q10 -8 4 -18q-2 -4 -7.5 -6t-10.5 1q-7 6 -23 17q-10 8 -4 18q2 5 7.5 6.5t10.5 -1.5zM495 350q8 1 11 -5.5t-0.5 -13t-10.5 -7.5q-39 -5 -79 -3q-8 1 -11 7.5t0 13t11 5.5q40 -2 79 3zM497 277q7 3 12 -2.5t3.5 -13t-8.5 -9.5l-42 -14q-13 -5 -16 9
q-2 12 9 16zM530 227q4 6 10.5 6t11 -6t1.5 -14q-6 -11 -20.5 -43t-22.5 -49q-5 -7 -11 -7t-10.5 6.5t-1.5 13.5q7 16 21.5 47t21.5 46zM1172 323q21 -109 26 -136q1 -8 -4.5 -13t-12.5 -3.5t-8 9.5q-11 58 -26 136q-1 7 4.5 12t12.5 3.5t8 -8.5zM1245 353q4 -4 3.5 -9.5
t-3.5 -9.5q-8 -8 -19 0q-12 10 -29 14q-8 2 -9 9.5t3.5 13t12.5 3.5q22 -6 41 -21zM1279 454q8 2 12.5 -3.5t3.5 -12.5t-9 -9q-10 -3 -27.5 -7.5t-24.5 -6.5q-8 -3 -13 2.5t-3.5 13t9.5 9.5q9 2 27 7t25 7zM1207 486q-10 -8 -17 4q-5 11 4 18q39 30 83 49q12 6 19 -6
q6 -11 -5 -16q-45 -20 -84 -49zM1168 541q-4 -6 -12 -5.5t-11 6t1 12.5q24 35 36 53q4 6 12 5.5t11 -6t-1 -12.5q-24 -35 -36 -53zM1050 361q4 6 11 6t11 -6.5t0 -12.5q-32 -55 -47 -118q-2 -7 -9 -8.5t-12.5 3.5t-3.5 12q16 65 50 124zM981 460q5 0 8 -2.5t4 -6.5t0 -8
t-4 -6.5t-8 -3.5q-35 -1 -70 -10q-4 -1 -8 1t-6 5.5t-2 7t2.5 7t6.5 5.5q38 9 77 11zM999 402q3 -4 3 -9.5t-3 -8.5q-2 -2 -28 -23q-10 -9 -19 0q-3 3 -3.5 9t3.5 9q2 2 28 23q10 8 19 0zM1108 339q12 -3 9 -16q-1 -5 -2.5 -14.5t-2.5 -13.5q-1 -5 -6 -8t-10 -1q-12 3 -9 16
q1 4 2.5 13.5t2.5 14.5q1 3 3.5 5.5t6 3.5t6.5 0zM608 282q-16 -27 -33 -12q-19 16 -25 60q-6 45 5 70q2 0 15.5 0.5t15.5 0.5t16 -0.5t16 -0.5q6 -15 7 -42q-1 -48 -17 -76zM585 439q1 0 6 0.5t10 0.5h10.5t9 -1.5t3.5 -4.5q0 -2 -3.5 -3.5t-8.5 -2t-10 0t-10 0.5h-6h-5.5
t-9.5 -0.5t-10.5 0t-8.5 2t-3.5 4t3 3.5t8.5 1.5t10 0.5t9.5 -0.5t5.5 -0.5zM247 467q-1 -2 -4 -1.5t-9 2.5t-10 4t-8.5 4l-4.5 2q-1 0 -6 1.5t-10 3.5t-10 4.5t-7 5t0 5.5q2 1 5 1t8 -2t9 -3.5t8 -3.5t5 -3q2 0 7 -1.5t9.5 -3.5l9 -4t7 -5t1.5 -6zM230 439q0 -16 -11 -43
q-16 -40 -40 -61q-25 -21 -36 -4q-14 21 -2 68q11 45 30 63q6 -2 17 -6.5t13 -4.5q1 0 12 -5t17 -7zM1151 414q0 -13 -5 -21.5t-17 -5.5q-25 4 -54 36q-30 33 -35 59q5 3 14.5 10t10.5 7q1 2 11.5 8.5t15.5 10.5q14 -10 29 -30q28 -42 30 -74zM1064 546q9 6 13 3q1 -3 -1 -6
t-5.5 -6t-7.5 -5t-8 -4.5t-5 -3.5q-1 0 -4.5 -3.5t-7.5 -6t-8.5 -5.5t-7.5 -4t-6 0q-1 3 -0.5 5t5.5 6t8.5 6.5t8 5.5t5.5 3q1 1 2.5 2l3 2l3 2l3 2l3 2t3 2.5t3.5 2.5z" />
    <glyph glyph-name="P" unicode="P" 
d="M1162 720q7 4 13 0t6.5 -10.5t-5.5 -12.5q-40 -25 -97 -51q7 4 13 6q-2 -47 -4 -70q-50 -22 -103 -38q-4 5 -11.5 15t-11.5 15q-8 11 -15 21v1q-61 -20 -123 -33q-4 -23 -11 -58q-6 -4 -32 0q-19 2 -32 -2q-19 -6 -32 -20q-8 15 -22 44q-6 11 -8 16q-67 -6 -134 -4
q-20 -33 -31 -51q-3 2 -7 3q-39 2 -108 8h-3q-2 5 -4 16.5t-3 16.5q-1 4 -2.5 11t-2.5 11q-10 2 -21 4q-42 8 -85 19l-44 -53l-2 -2q-14 -10 -35 19q-19 26 -28 33q-16 12 -35 8q0 5 0.5 13t1.5 12v8.5t1 8.5q-24 10 -47 20q-65 29 -102 53q-7 5 -6 12.5t6.5 11t12.5 -0.5
q46 -30 124 -63q156 -66 323.5 -85.5t333.5 11.5q141 26 270 83q65 30 102 54zM397 553q10 -1 16 -2q-6 1 -16 2zM424 549h3t3.5 -0.5t2.5 -0.5q-1 0 -2.5 0.5t-3.5 0.5h-3zM469 544q1 0 2.5 -0.5l1.5 -0.5l-1.5 0.5t-2.5 0.5zM491 542h1h1h-1h-1zM512 540h1h-1zM701 544
q4 1 5 1q-1 0 -3 -0.5zM740 549h-1v0h1zM790 557zM1042 631q7 3 15 6q-8 -4 -15 -6zM193 514q11 -13 26 -17q-15 -18 -44.5 -53t-44.5 -53q1 25 4.5 79.5t5.5 82.5q6 7 14 3.5t14 -9.5q5 -5 13 -16.5t12 -16.5zM776 479q24 -2 32 -2q-15 -77 -25 -128q-18 36 -53 107
q15 27 46 23zM434 347q-14 70 -25 126q33 -3 98 -8l-72 -117q0 -1 -1 -1zM1081 414q-71 96 -80 108q44 14 86 31q-4 -91 -6 -139z" />
    <glyph glyph-name="Q" unicode="Q" horiz-adv-x="481" 
d="M246 741q21 -38 51 -90q-20 -6 -61.5 -18t-62.5 -18q22 38 67 115q1 2 3 5.5t3 5.5zM327 345q18 -30 47 -82q-54 -19 -249 -86q-4 -2 -9.5 -3.5t-9.5 -3t-9 -3t-9 -3.5h-8h-30q14 24 41.5 72t41.5 72q38 12 110.5 34.5t105.5 33.5q8 2 23 7q9 -16 10 -19h-43
q-8 0 -11.5 -6.5t-0.5 -12.5zM155 236q8 0 11 6.5t0 13.5t-11 7t-11.5 -7t0 -13.5t11.5 -6.5zM159 279q8 0 11 6.5t0 13t-11 6.5t-11.5 -6.5t0 -13t11.5 -6.5zM208 277q0 6 -4 10t-9 3q-6 0 -10 -3q-3 -5 -3 -10q0 -6 3 -10q4 -4 10 -4q6 1 9 4q4 4 4 10zM201 523
q3 7 -0.5 13.5t-11.5 6.5h-57q3 6 11 19.5t11 19.5q26 8 78.5 23t78.5 23q7 -13 21.5 -37.5t21.5 -37.5q1 -1 3 -4.5t3 -5.5h-58q-7 0 -11 -6.5t0 -13.5q3 -6 11 -18q-23 -7 -67.5 -20t-66.5 -19zM262 590v-1q0 -5 4 -9t9 -4q6 1 9 4q4 4 4 9v1q0 6 -4 9q-4 5 -9 4
q-6 0 -9 -4q-4 -4 -4 -9zM154 345q2 4 1.5 8.5t-4 7.5t-8.5 3h-34q7 12 20 35t20 34q111 32 166 48q23 -39 43 -75q-24 -8 -95.5 -30l-110.5 -34l1 1zM207 138h68q6 -21 18 -62.5t18 -62.5h-140q6 21 18 62.5t18 62.5zM284 164h-87h-29q27 10 61.5 21.5t68.5 23.5t61 21
q5 2 14.5 5.5t14.5 4.5q7 -13 21.5 -38t18.5 -32q1 -1 2 -3t1 -3h-147z" />
    <glyph glyph-name="R" unicode="R" horiz-adv-x="1022" 
d="M959 13q5 0 8.5 -2.5t4 -6.5t0 -8t-4 -6.5t-8.5 -2.5h-1q-13 -1 -28 -1h-26.5t-27.5 0.5t-27 0.5h-224h-259h-214h-89q-13 0 -13 13t13 13h1q13 1 28 1h26.5t27.5 -0.5t27 -0.5h17v138h-75q16 28 49 85q3 6 -0.5 12.5t-11.5 6.5h-6q7 13 21 37.5t21 36.5q2 4 1.5 8.5
t-4.5 7.5t-8 3h-20q8 15 24.5 43t24.5 42q8 -14 24.5 -42t24.5 -43h-20q-7 0 -11 -6.5t0 -12.5q2 -3 42 -74h-12q-4 0 -8 -3t-4.5 -7.5t1.5 -8.5q6 -10 12.5 -21.5t12 -21t12.5 -21.5t12 -21h-76v-138h181h101v110h-51q12 20 36 61q3 7 -0.5 13.5t-11.5 6.5q5 9 15.5 26.5
t15.5 25.5q3 7 -0.5 13.5t-11.5 6.5h-10q6 9 17 28t16 29q5 -10 16 -29t17 -28h-10q-5 0 -8.5 -3t-4.5 -7.5t2 -9.5q5 -8 15 -25.5t15 -26.5h-4q-8 0 -11.5 -6.5t-0.5 -13.5q12 -20 36 -61h-51v-110h132h181v160h-83h-10q9 17 29 51t29 51q4 7 0.5 13.5t-11.5 6.5h-12
q9 15 26 44.5t26 43.5q3 7 -0.5 13.5t-11.5 6.5h-26l60 104l61 -104h-26q-5 0 -8.5 -3t-4.5 -7.5t1 -9.5q9 -14 26 -43.5t25 -44.5h-17q-8 0 -11.5 -6.5t-0.5 -13.5q9 -15 19 -32.5t21.5 -37t18.5 -32.5h-93v-160h6h89z" />
    <glyph glyph-name="S" unicode="S" horiz-adv-x="299" 
d="M145 427q3 7 10.5 8.5t12.5 -3t2 -12.5q-17 -42 9 -79q4 -7 0 -13t-10.5 -6t-12.5 6q-33 47 -11 99zM236 518q10 1 13 -9.5t-6 -14.5q-23 -11 -27 -55q-4 -51 -18 -70q-5 -6 -13 -5.5t-11 6t1 12.5q7 10 10.5 22.5t5 30.5t2.5 25q1 8 4 15q-3 -2 -6 -5q-6 -6 -13.5 -2.5
t-8.5 12.5q-5 55 25 104q-46 -9 -72 -47.5t-16 -85.5q2 -8 -5 -13.5t-14 -1.5l-4 3q12 -33 41 -57q7 -5 4.5 -11.5t-9 -8.5t-13.5 2q-48 38 -56 103q-1 7 6.5 11t13.5 0q2 -2 8 -5q-1 58 41 100t102 39q8 -1 11.5 -8.5t-2.5 -14.5q-31 -35 -35 -84q19 11 41 13zM186 246
q3 18 17 15q4 -1 20 -9v-20.5t-0.5 -21t-0.5 -20.5v-21v-20v-133h-106v81v83q12 -7 28 -5t27 13q7 8 10 16t4 23t1 19zM126 308q11 12 40 12h10.5h11.5t10 -1t10 -2.5t7 -4.5t5.5 -8t1.5 -12v-4v-4v-4q-19 10 -31 8q-23 -5 -29 -32q-2 -5 -2 -17t-1.5 -20.5t-8.5 -13.5
q-11 -8 -21.5 -2t-12.5 19v2v55q0 18 10 29z" />
    <glyph glyph-name="T" unicode="T" horiz-adv-x="739" 
d="M275 421h9.5h9.5h10v-125h-195h-17v90v35h18h165zM92 270h195h17v-44h-195h-17v44zM331 386v35h76v-138v-70v-115v-35h-76v150v70v103zM92 200h195h17v-102v-35h-154h-58v137zM229 661q-38 22 -49 44q-9 15 -6 31.5t18 24.5q17 11 38 8t38 -13t31 -24q33 -34 58 -113
q-69 7 -128 42zM159 447h-9h-58h-13h-3h-13q-13 2 -13 22v46v48q0 7 0.5 10.5t3.5 7.5t9 5h8.5h10h8.5h65h126v-139h-122zM571 705q-12 -22 -49 -44q-60 -35 -129 -42q25 79 58 113q14 14 31.5 24t38 13t38.5 -8q14 -8 17 -24.5t-5 -31.5zM307 586h46h78v-139h-11h-102h-11
v139zM688 493q0 -3 0.5 -10.5t0 -12t-1.5 -10.5t-4.5 -9t-9.5 -4h-11h-3h-98h-98h-6v139h102h35.5h41.5h36q15 -1 16 -13v-80zM521 421h67h58v-125h-196h-17v90v35h11h77zM433 270h196h17v-44h-196h-17v44zM433 200h196h17v-102v-35h-183h-30v137z" />
    <glyph glyph-name="U" unicode="U" horiz-adv-x="1153" 
d="M1092 495q15 -22 9 -50.5t-32 -39.5q-12 -5 -15 9q-2 12 8 17q11 4 13.5 17.5t-1.5 22.5q-7 27 -45 36q-35 9 -124 6q-68 -3 -134 -13q-142 -22 -253 -73h-1q-6 -3 -12 0q-16 9 -32.5 16t-37 11t-33.5 6.5t-39 3.5t-35 1.5t-39.5 0.5h-35.5q-24 0 -39.5 1t-41 3.5t-43 9
t-35.5 16.5t-29 26.5t-15 39.5q-2 13 12 16q12 2 13 -9q3 -16 11.5 -29t18.5 -21t26.5 -13.5t29 -8.5t33 -4t32 -1h32h26.5q81 0 126 -7q-26 11 -46 22q-85 49 -90 105q-3 33 22.5 52t58.5 11q57 -12 103 -87q36 -59 42 -128q6 -3 13 -7q9 4 19 8q5 59 32 110q40 77 96 99
q28 14 60.5 2.5t36.5 -44.5q9 -58 -73 -110q-11 -8 -23 -14l2 0.5t4 0.5q152 38 304 34q28 0 46 -2.5t41 -12.5t34 -29zM489 464h-1h1zM467 472h-1h1zM957 368v-6.5v-6.5v-6.5v-6.5v-2.5v-2.5q-3 -4 -21 -5h-22h-1h-6h-183h-78h-13v89h163h42.5h50h42.5h1.5h1.5q22 0 23 -5
v-48zM461 286v20h114v-223v-20h-114v223zM221 332h-3h-3h-92h-3h-18q-21 1 -23 5v17v58v2v2q2 5 22 5h1h1h4h3.5h3.5h3h166h119v-89h-181zM389 306h27h19v-223v-20h-214h-85v223v20h24h224h5zM815 306h34h35h16v-223v-20h-254h-45v223v20h19h46h149zM607 421v-89h-19h-130
h-10h-19v89h115h63z" />
    <glyph glyph-name="U" unicode="&#xdc;" horiz-adv-x="1153" 
d="M1092 495q15 -22 9 -50.5t-32 -39.5q-12 -5 -15 9q-2 12 8 17q11 4 13.5 17.5t-1.5 22.5q-7 27 -45 36q-35 9 -124 6q-68 -3 -134 -13q-142 -22 -253 -73h-1q-6 -3 -12 0q-16 9 -32.5 16t-37 11t-33.5 6.5t-39 3.5t-35 1.5t-39.5 0.5h-35.5q-24 0 -39.5 1t-41 3.5t-43 9
t-35.5 16.5t-29 26.5t-15 39.5q-2 13 12 16q12 2 13 -9q3 -16 11.5 -29t18.5 -21t26.5 -13.5t29 -8.5t33 -4t32 -1h32h26.5q81 0 126 -7q-26 11 -46 22q-85 49 -90 105q-3 33 22.5 52t58.5 11q57 -12 103 -87q36 -59 42 -128q6 -3 13 -7q9 4 19 8q5 59 32 110q40 77 96 99
q28 14 60.5 2.5t36.5 -44.5q9 -58 -73 -110q-11 -8 -23 -14l2 0.5t4 0.5q152 38 304 34q28 0 46 -2.5t41 -12.5t34 -29zM489 464h-1h1zM467 472h-1h1zM957 368v-6.5v-6.5v-6.5v-6.5v-2.5v-2.5q-3 -4 -21 -5h-22h-1h-6h-183h-78h-13v89h163h42.5h50h42.5h1.5h1.5q22 0 23 -5
v-48zM461 286v20h114v-223v-20h-114v223zM221 332h-3h-3h-92h-3h-18q-21 1 -23 5v17v58v2v2q2 5 22 5h1h1h4h3.5h3.5h3h166h119v-89h-181zM389 306h27h19v-223v-20h-214h-85v223v20h24h224h5zM815 306h34h35h16v-223v-20h-254h-45v223v20h19h46h149zM607 421v-89h-19h-130
h-10h-19v89h115h63z" />
    <glyph glyph-name="U" unicode="&#xdb;" horiz-adv-x="1153" 
d="M1092 495q15 -22 9 -50.5t-32 -39.5q-12 -5 -15 9q-2 12 8 17q11 4 13.5 17.5t-1.5 22.5q-7 27 -45 36q-35 9 -124 6q-68 -3 -134 -13q-142 -22 -253 -73h-1q-6 -3 -12 0q-16 9 -32.5 16t-37 11t-33.5 6.5t-39 3.5t-35 1.5t-39.5 0.5h-35.5q-24 0 -39.5 1t-41 3.5t-43 9
t-35.5 16.5t-29 26.5t-15 39.5q-2 13 12 16q12 2 13 -9q3 -16 11.5 -29t18.5 -21t26.5 -13.5t29 -8.5t33 -4t32 -1h32h26.5q81 0 126 -7q-26 11 -46 22q-85 49 -90 105q-3 33 22.5 52t58.5 11q57 -12 103 -87q36 -59 42 -128q6 -3 13 -7q9 4 19 8q5 59 32 110q40 77 96 99
q28 14 60.5 2.5t36.5 -44.5q9 -58 -73 -110q-11 -8 -23 -14l2 0.5t4 0.5q152 38 304 34q28 0 46 -2.5t41 -12.5t34 -29zM489 464h-1h1zM467 472h-1h1zM957 368v-6.5v-6.5v-6.5v-6.5v-2.5v-2.5q-3 -4 -21 -5h-22h-1h-6h-183h-78h-13v89h163h42.5h50h42.5h1.5h1.5q22 0 23 -5
v-48zM461 286v20h114v-223v-20h-114v223zM221 332h-3h-3h-92h-3h-18q-21 1 -23 5v17v58v2v2q2 5 22 5h1h1h4h3.5h3.5h3h166h119v-89h-181zM389 306h27h19v-223v-20h-214h-85v223v20h24h224h5zM815 306h34h35h16v-223v-20h-254h-45v223v20h19h46h149zM607 421v-89h-19h-130
h-10h-19v89h115h63z" />
    <glyph glyph-name="U" unicode="&#xda;" horiz-adv-x="1153" 
d="M1092 495q15 -22 9 -50.5t-32 -39.5q-12 -5 -15 9q-2 12 8 17q11 4 13.5 17.5t-1.5 22.5q-7 27 -45 36q-35 9 -124 6q-68 -3 -134 -13q-142 -22 -253 -73h-1q-6 -3 -12 0q-16 9 -32.5 16t-37 11t-33.5 6.5t-39 3.5t-35 1.5t-39.5 0.5h-35.5q-24 0 -39.5 1t-41 3.5t-43 9
t-35.5 16.5t-29 26.5t-15 39.5q-2 13 12 16q12 2 13 -9q3 -16 11.5 -29t18.5 -21t26.5 -13.5t29 -8.5t33 -4t32 -1h32h26.5q81 0 126 -7q-26 11 -46 22q-85 49 -90 105q-3 33 22.5 52t58.5 11q57 -12 103 -87q36 -59 42 -128q6 -3 13 -7q9 4 19 8q5 59 32 110q40 77 96 99
q28 14 60.5 2.5t36.5 -44.5q9 -58 -73 -110q-11 -8 -23 -14l2 0.5t4 0.5q152 38 304 34q28 0 46 -2.5t41 -12.5t34 -29zM489 464h-1h1zM467 472h-1h1zM957 368v-6.5v-6.5v-6.5v-6.5v-2.5v-2.5q-3 -4 -21 -5h-22h-1h-6h-183h-78h-13v89h163h42.5h50h42.5h1.5h1.5q22 0 23 -5
v-48zM461 286v20h114v-223v-20h-114v223zM221 332h-3h-3h-92h-3h-18q-21 1 -23 5v17v58v2v2q2 5 22 5h1h1h4h3.5h3.5h3h166h119v-89h-181zM389 306h27h19v-223v-20h-214h-85v223v20h24h224h5zM815 306h34h35h16v-223v-20h-254h-45v223v20h19h46h149zM607 421v-89h-19h-130
h-10h-19v89h115h63z" />
    <glyph glyph-name="U" unicode="&#xd9;" horiz-adv-x="1153" 
d="M1092 495q15 -22 9 -50.5t-32 -39.5q-12 -5 -15 9q-2 12 8 17q11 4 13.5 17.5t-1.5 22.5q-7 27 -45 36q-35 9 -124 6q-68 -3 -134 -13q-142 -22 -253 -73h-1q-6 -3 -12 0q-16 9 -32.5 16t-37 11t-33.5 6.5t-39 3.5t-35 1.5t-39.5 0.5h-35.5q-24 0 -39.5 1t-41 3.5t-43 9
t-35.5 16.5t-29 26.5t-15 39.5q-2 13 12 16q12 2 13 -9q3 -16 11.5 -29t18.5 -21t26.5 -13.5t29 -8.5t33 -4t32 -1h32h26.5q81 0 126 -7q-26 11 -46 22q-85 49 -90 105q-3 33 22.5 52t58.5 11q57 -12 103 -87q36 -59 42 -128q6 -3 13 -7q9 4 19 8q5 59 32 110q40 77 96 99
q28 14 60.5 2.5t36.5 -44.5q9 -58 -73 -110q-11 -8 -23 -14l2 0.5t4 0.5q152 38 304 34q28 0 46 -2.5t41 -12.5t34 -29zM489 464h-1h1zM467 472h-1h1zM957 368v-6.5v-6.5v-6.5v-6.5v-2.5v-2.5q-3 -4 -21 -5h-22h-1h-6h-183h-78h-13v89h163h42.5h50h42.5h1.5h1.5q22 0 23 -5
v-48zM461 286v20h114v-223v-20h-114v223zM221 332h-3h-3h-92h-3h-18q-21 1 -23 5v17v58v2v2q2 5 22 5h1h1h4h3.5h3.5h3h166h119v-89h-181zM389 306h27h19v-223v-20h-214h-85v223v20h24h224h5zM815 306h34h35h16v-223v-20h-254h-45v223v20h19h46h149zM607 421v-89h-19h-130
h-10h-19v89h115h63z" />
    <glyph glyph-name="V" unicode="V" horiz-adv-x="725" 
d="M663 416q8 0 11 -6.5t0 -13t-11 -6.5h-65q9 -11 26.5 -31.5t20.5 -23.5q5 -6 2.5 -13t-9 -8.5t-12.5 3.5q-33 38 -63 73h-98q-4 -33 -26 -58q-3 -1 -4 -4q-17 -16 -38 -24q-11 -3 -22 -5v-99q12 -10 36.5 -31t36.5 -32q6 -5 3.5 -12t-9 -9t-13.5 3q-36 31 -54 47v-64
q0 -8 -6.5 -11.5t-13 0t-6.5 11.5v60q-9 -7 -26.5 -22t-26.5 -23q-6 -5 -13 -2.5t-9 9t4 11.5q19 18 70 62v193v-91q-41 6 -67 37q-19 24 -23 54h-97q-23 -26 -63 -73q-5 -6 -12 -3.5t-9 9t2 12.5q8 9 24 27.5t23 27.5h-63q-8 0 -11.5 6.5t0 13t11.5 6.5h60q-17 20 -45 53
q-5 6 -2.5 13t8.5 8.5t12 -3.5q10 -12 30.5 -35.5t30.5 -35.5h101q2 22 14 41q26 43 77 50v-91v187q-24 20 -71 61q-6 5 -4 12t8.5 9t13.5 -3q33 -28 53 -45v65q0 5 2.5 8t6.5 4t7.5 0t6.5 -4t3 -8v-65q18 16 54 47q6 5 13.5 2.5t9 -9t-3.5 -11.5q-10 -9 -23.5 -20.5
t-26.5 -23t-23 -19.5v-96q3 0 6 -1q34 -7 57 -31.5t27 -58.5h98q15 17 61 71q6 6 12.5 3.5t8.5 -9t-2 -12.5q-6 -8 -14.5 -17.5t-16.5 -19t-14 -16.5h65z" />
    <glyph glyph-name="W" unicode="W" horiz-adv-x="725" 
d="M663 416q8 0 11 -6.5t0 -13t-11 -6.5h-65q8 -9 23.5 -27.5t23.5 -27.5q5 -6 2.5 -13t-9 -8.5t-12.5 3.5q-10 12 -31 36.5t-32 36.5h-169l89 -89q9 -9 -0.5 -18.5t-17.5 -0.5l-90 90v-172q48 -42 73 -63q6 -5 3.5 -12t-9 -9t-13.5 3q-36 31 -54 47v-64q0 -8 -6.5 -11.5
t-13 0t-6.5 11.5v60q-9 -7 -26.5 -22t-26.5 -23q-6 -5 -13 -2.5t-9 9t4 11.5q19 18 71 62v173l-88 -88q-6 -5 -13 -2.5t-9 9t3 12.5l28 28l33 33l28 28h-170q-11 -12 -32 -36.5t-31 -36.5q-5 -6 -12 -3.5t-9 9t2 12.5q6 6 12.5 14t11.5 14t11.5 13.5t11.5 13.5h-63
q-8 0 -11.5 6.5t0 13t11.5 6.5h60q-8 9 -23 26.5t-22 26.5q-5 6 -2.5 13t8.5 8.5t12 -3.5q10 -12 30.5 -35.5t30.5 -35.5h174l-88 88q-6 6 -3.5 13t9 8.5t13.5 -3.5l86 -87v168q-23 20 -70 61q-6 5 -4 12t8.5 9t13.5 -3q33 -28 52 -45v65q0 5 3 8t7 4t7.5 0t6.5 -4t3 -8v-65
q18 16 54 47q6 5 13.5 2.5t9 -9t-3.5 -11.5q-49 -42 -73 -63v-170l28 28l33 33l28 28q5 6 12.5 3.5t9 -9t-3.5 -12.5l-88 -88h169q9 10 20 23t22 25.5t19 22.5q6 6 12.5 3.5t8.5 -9t-2 -12.5q-28 -33 -45 -53h65z" />
    <glyph glyph-name="X" unicode="X" horiz-adv-x="806" 
d="M207 371q-27 29 -76 70q-2 0 -5 -0.5t-6 -0.5h-5l-49 -7q-13 -2 -16 12q0 11 9 13q2 0 40 5q1 1 5 1q-16 13 -26 22q-6 5 -3.5 12t9 9t13.5 -3q10 -9 27 -22q-2 9 -3 14.5t-2 12.5t-2.5 14t-2.5 12q-1 8 4.5 13t12.5 3.5t8 -9.5q2 -9 5 -26t4 -25q6 -29 5 -34
q46 -39 73 -68q3 -3 3.5 -7.5t-2 -7.5t-5.5 -5.5t-7.5 -2t-7.5 4.5zM747 458q13 -2 8 -15q-4 -12 -15 -10q-9 1 -26 3.5t-26 3.5q-2 0 -6.5 0.5t-6.5 0.5q-49 -41 -76 -70q-6 -6 -13 -3.5t-8.5 9t2.5 12.5q27 29 73 68q-1 3 -0.5 9t1.5 9.5t2.5 9.5t1.5 8q1 9 4 25t5 24
q1 8 8 9.5t12.5 -3.5t4.5 -13q-4 -24 -7 -39q0 -2 -1 -7t-2 -7q17 13 27 22q6 6 13.5 3t9 -9t-3.5 -12q-10 -9 -26 -22q2 0 5 -1q13 -1 40 -5zM341 486q-44 28 -54.5 79.5t20.5 94.5q30 41 81.5 48t91.5 -24q46 -35 46 -95q-1 -67 -57 -103q-37 10 -76 8q-26 -1 -52 -8z
M463 653q-16 0 -28 -12t-12 -29q0 -16 11.5 -28t27.5 -12.5t27.5 10t13.5 26.5q1 2 1 4t-1 4q-2 16 -13 26.5t-27 10.5zM461 552q-24 -16 -53.5 -16t-54.5 16q-10 8 -17 -4q-4 -11 4 -18q30 -20 67.5 -20t67.5 20q6 4 5.5 11.5t-6 11t-13.5 -0.5zM351 653q-10 0 -19.5 -5.5
t-15 -15t-5.5 -20.5q0 -16 11.5 -28t27.5 -12q11 -1 20 4t14.5 13t7.5 19v4t-1 4q-1 10 -6.5 18.5t-14 13.5t-19.5 5zM366 612q-1 -14 -15 -14t-14 14t14 14t15 -14zM478 612q-1 -14 -15 -14t-14 14t14 14t15 -14zM461 461q44 -13 78 -42.5t53.5 -70.5t19.5 -86
q0 -62 -34.5 -114t-90.5 -77q-58 -24 -120.5 -12t-106.5 55q-45 45 -57.5 108t12.5 121q11 27 30 50t43 39t51.5 25.5t56.5 10.5q12 1 24 0q3 0 8 -1h1q3 0 7 -1h0.5h1.5q2 0 6 -1q2 0 3 -1q2 0 5 -1t5 -1l2 -0.5zM416 220q0 5 -4 9t-9 4q-6 0 -9 -4q-4 -4 -4 -9v-2
q0 -5 4 -9t9 -4q6 0 9 4q4 4 4 9v2zM403 303q8 0 11 6.5t0 13t-11 6.5t-11.5 -6.5t0 -13t11.5 -6.5zM401 414q-13 0 -13 -13t13 -13h1q13 0 13 13t-13 13h-1zM414 120q4 4 4 9q-1 6 -4 9q-4 4 -9 4h-2q-6 0 -9 -4q-4 -4 -4 -9q0 -6 4 -9q4 -4 9 -4h2q5 0 9 4z" />
    <glyph glyph-name="Y" unicode="Y" horiz-adv-x="893" 
d="M287 468q-86 8 -162 -26q-48 -22 -59 -50l-1 -3q-8 17 -12 37q-6 31 2 93q6 48 15 73q15 37 45 49q31 13 75 0q29 -8 75.5 -36t62.5 -35q-45 -40 -41 -102zM301 417q-1 -1 -2 -1q-28 -23 -44 -35t-44.5 -25.5t-54.5 -14.5q-32 -1 -56 12l-2 2q-12 9 -8.5 22t14.5 23
q18 15 57 28q64 22 131 13q3 -12 9 -24zM374 356q-14 -108 27 -207q-33 13 -66 18q-34 6 -54 0q11 106 58 202q1 2 1 4q15 -11 34 -17zM571 514q20 -49 -10 -93t-83 -45q-7 0 -26 -0.5t-30 -0.5t-26 2.5t-26 7.5q-41 20 -53.5 64t12.5 82q11 18 29 29q4 1 7 4q16 9 35 11
q6 1 53 1q41 0 57 -5q43 -14 61 -57zM347.5 515q-7.5 0 -11 -6.5t0 -13t11 -6.5t11 6.5t0 13t-11 6.5zM353 450q8 0 11 6.5t0 13t-11 6.5t-11.5 -6.5t0 -13t11.5 -6.5zM381 476q8 0 11.5 6.5t0 13t-11 6.5t-11 -6.5t-0.5 -13t11 -6.5zM529 361q12 5 23 13q58 -122 69 -207
q-19 6 -52 0.5t-66 -18.5q42 102 26 212zM789 400q9 -8 13.5 -20t-2.5 -22q-20 -14 -46 -17q-29 -2 -61 10.5t-50.5 26t-49.5 38.5q-1 1 -3 2q6 11 10 23q67 9 132 -13q39 -13 57 -28zM835 540q9 -58 7 -92q-1 -32 -15 -57q-10 29 -59 51q-77 34 -164 26q1 8 0 15
q-3 52 -41 86q19 9 59 33t63 33q24 10 47.5 12t46.5 -7.5t36 -32.5t20 -67z" />
    <glyph glyph-name="Y" unicode="&#xdd;" horiz-adv-x="893" 
d="M287 468q-86 8 -162 -26q-48 -22 -59 -50l-1 -3q-8 17 -12 37q-6 31 2 93q6 48 15 73q15 37 45 49q31 13 75 0q29 -8 75.5 -36t62.5 -35q-45 -40 -41 -102zM301 417q-1 -1 -2 -1q-28 -23 -44 -35t-44.5 -25.5t-54.5 -14.5q-32 -1 -56 12l-2 2q-12 9 -8.5 22t14.5 23
q18 15 57 28q64 22 131 13q3 -12 9 -24zM374 356q-14 -108 27 -207q-33 13 -66 18q-34 6 -54 0q11 106 58 202q1 2 1 4q15 -11 34 -17zM571 514q20 -49 -10 -93t-83 -45q-7 0 -26 -0.5t-30 -0.5t-26 2.5t-26 7.5q-41 20 -53.5 64t12.5 82q11 18 29 29q4 1 7 4q16 9 35 11
q6 1 53 1q41 0 57 -5q43 -14 61 -57zM347.5 515q-7.5 0 -11 -6.5t0 -13t11 -6.5t11 6.5t0 13t-11 6.5zM353 450q8 0 11 6.5t0 13t-11 6.5t-11.5 -6.5t0 -13t11.5 -6.5zM381 476q8 0 11.5 6.5t0 13t-11 6.5t-11 -6.5t-0.5 -13t11 -6.5zM529 361q12 5 23 13q58 -122 69 -207
q-19 6 -52 0.5t-66 -18.5q42 102 26 212zM789 400q9 -8 13.5 -20t-2.5 -22q-20 -14 -46 -17q-29 -2 -61 10.5t-50.5 26t-49.5 38.5q-1 1 -3 2q6 11 10 23q67 9 132 -13q39 -13 57 -28zM835 540q9 -58 7 -92q-1 -32 -15 -57q-10 29 -59 51q-77 34 -164 26q1 8 0 15
q-3 52 -41 86q19 9 59 33t63 33q24 10 47.5 12t46.5 -7.5t36 -32.5t20 -67z" />
    <glyph glyph-name="Z" unicode="Z" horiz-adv-x="927" 
d="M583 514q10 -24 6 -48.5t-16.5 -44.5t-35 -32.5t-47.5 -12.5q-7 0 -26.5 -0.5t-30 -0.5t-25.5 2.5t-27 7.5q-40 20 -52.5 64t12.5 82q25 39 71 45h53q41 0 57 -5q43 -14 61 -57zM394 459q4 4 4 9q-1 6 -4 9q-4 4 -9 4h-3q-5 0 -9 -4t-4 -9q0 -6 4 -9q4 -4 9 -4h3q5 0 9 4
zM392.5 507q7.5 0 11 7t0 13.5t-11 6.5t-11 -6.5t0 -13.5t11 -7zM421 476q8 0 11.5 6.5t0 13t-11.5 6.5t-11 -6.5t0 -13t11 -6.5zM341 571q-40 -34 -42.5 -88.5t33.5 -92.5q-39 -39 -86.5 -57.5t-95.5 -3.5q-53 16 -70 61q-9 21 -6.5 46t17.5 43v0q9 -3 17 -5q8 -1 13 4.5
t3.5 12.5t-9.5 8q-22 4 -38.5 20t-22.5 38q-14 46 19 86q25 28 60.5 38t71 2.5t67.5 -26.5q41 -26 83 -76q-7 -4 -14 -10zM386 356q-13 -99 20 -191q-29 31 -38 74q-1 5 -7.5 8t-11.5 -1q-30 -22 -52 -50q14 90 53 173l2 4q15 -11 34 -17zM811 499q-7 -1 -8.5 -8t3.5 -12.5
t12 -4.5q9 2 17 5h1q30 -37 11 -87q-17 -47 -70 -63q-49 -15 -98 4.5t-88 60.5q-2 2 -4 3q32 38 29 86q-4 57 -49 92q87 108 180 112q59 2 97 -35q40 -37 32 -83q-3 -17 -11.5 -31.5t-22.5 -24.5t-31 -14zM575 373q1 -2 1 -4q40 -83 54 -173q-22 28 -52 50q-5 4 -11.5 1
t-7.5 -8q-10 -43 -38 -74q34 95 20 196q15 7 29 18l2 -4q1 0 2 -1z" />
    <glyph glyph-name="a" unicode="a" horiz-adv-x="796" 
d="M167 452q-18 91 -97 140q-9 3 -15 8q-11 8 -1 19q8 10 17 2q6 -3 11 -6q7 -1 32 1q4 0 48 7q35 5 82 18q8 3 13 -3q28 -34 53 -46q55 -25 116 -10q5 1 9.5 -1.5t6.5 -7.5q20 -83 93 -126q8 -5 5.5 -14.5t-12.5 -9.5q-103 -3 -181 -69q-12 -10 -20 2q-26 37 -64.5 59.5
t-83.5 26.5q-10 1 -12 10zM160 596q-31 -5 -44 -6q57 -50 74 -123q93 -13 150 -85q68 52 152 64q-53 43 -72 108q-60 -11 -115 12q-33 14 -62 48q-40 -11 -83 -18zM494 314q9 2 14.5 -6.5t-2.5 -15.5q-37 -32 -61 -61q-35 -42 -41 -75q-1 -5 -6 -7.5t-10 -1.5
q-65 18 -121 -22q-8 -4 -16 3q-49 38 -113 30q-8 -3 -16 -2h-1q-7 1 -10 8t0 13t11 5q5 1 7 1q4 3 17 16q3 3 24 26q16 19 35 47q5 8 15 6q30 -6 50 0q40 12 64 46q8 11 18 5q22 -16 68 -19q39 -2 74 4zM421 243q16 20 38 41q-21 -1 -43 0q-44 3 -68 16q-28 -32 -67 -46
q-25 -8 -59 -3q-17 -25 -37 -48q-2 -2 -7 -8t-8 -10q49 -4 90 -32q56 34 122 22q8 30 39 68zM746 390q-1 -33 -21.5 -59.5t-51.5 -35.5q-10 -37 -45 -53t-71 3q-36 21 -38 63t29 67q-7 47 25 83q20 23 51 30.5t59 -4.5q19 -7 33 -21t21.5 -31.5t8.5 -37.5v-2.5v-1.5z
M570 268q21 -12 43 -4.5t32 28.5q-17 0 -33 6t-29.5 17t-22.5 26q-1 3 -3 6q-15 -17 -11.5 -41.5t24.5 -37.5zM672 322q22 8 35 27t13 42q0 26 -16 46t-41 26q-41 10 -69 -21t-19 -69q11 -37 46 -50l0.5 -0.5t1.5 -0.5q25 -8 49 0zM616 445q6 0 10 -4t4 -9v-1q0 -5 -4 -10
q-4 -3 -10 -3q-5 -1 -9 3t-4 10v1q0 5 4 9t9 4zM616.5 409q7.5 0 11 -6.5t0 -13t-11 -6.5t-11 6.5t0 13t11 6.5zM651 438q8 0 11 -6.5t0 -13t-11 -6.5t-11.5 6.5t0 13t11.5 6.5z" />
    <glyph glyph-name="a" unicode="&#xe5;" horiz-adv-x="796" 
d="M167 452q-18 91 -97 140q-9 3 -15 8q-11 8 -1 19q8 10 17 2q6 -3 11 -6q7 -1 32 1q4 0 48 7q35 5 82 18q8 3 13 -3q28 -34 53 -46q55 -25 116 -10q5 1 9.5 -1.5t6.5 -7.5q20 -83 93 -126q8 -5 5.5 -14.5t-12.5 -9.5q-103 -3 -181 -69q-12 -10 -20 2q-26 37 -64.5 59.5
t-83.5 26.5q-10 1 -12 10zM160 596q-31 -5 -44 -6q57 -50 74 -123q93 -13 150 -85q68 52 152 64q-53 43 -72 108q-60 -11 -115 12q-33 14 -62 48q-40 -11 -83 -18zM494 314q9 2 14.5 -6.5t-2.5 -15.5q-37 -32 -61 -61q-35 -42 -41 -75q-1 -5 -6 -7.5t-10 -1.5
q-65 18 -121 -22q-8 -4 -16 3q-49 38 -113 30q-8 -3 -16 -2h-1q-7 1 -10 8t0 13t11 5q5 1 7 1q4 3 17 16q3 3 24 26q16 19 35 47q5 8 15 6q30 -6 50 0q40 12 64 46q8 11 18 5q22 -16 68 -19q39 -2 74 4zM421 243q16 20 38 41q-21 -1 -43 0q-44 3 -68 16q-28 -32 -67 -46
q-25 -8 -59 -3q-17 -25 -37 -48q-2 -2 -7 -8t-8 -10q49 -4 90 -32q56 34 122 22q8 30 39 68zM746 390q-1 -33 -21.5 -59.5t-51.5 -35.5q-10 -37 -45 -53t-71 3q-36 21 -38 63t29 67q-7 47 25 83q20 23 51 30.5t59 -4.5q19 -7 33 -21t21.5 -31.5t8.5 -37.5v-2.5v-1.5z
M570 268q21 -12 43 -4.5t32 28.5q-17 0 -33 6t-29.5 17t-22.5 26q-1 3 -3 6q-15 -17 -11.5 -41.5t24.5 -37.5zM672 322q22 8 35 27t13 42q0 26 -16 46t-41 26q-41 10 -69 -21t-19 -69q11 -37 46 -50l0.5 -0.5t1.5 -0.5q25 -8 49 0zM616 445q6 0 10 -4t4 -9v-1q0 -5 -4 -10
q-4 -3 -10 -3q-5 -1 -9 3t-4 10v1q0 5 4 9t9 4zM616.5 409q7.5 0 11 -6.5t0 -13t-11 -6.5t-11 6.5t0 13t11 6.5zM651 438q8 0 11 -6.5t0 -13t-11 -6.5t-11.5 6.5t0 13t11.5 6.5z" />
    <glyph glyph-name="a" unicode="&#xe4;" horiz-adv-x="796" 
d="M167 452q-18 91 -97 140q-9 3 -15 8q-11 8 -1 19q8 10 17 2q6 -3 11 -6q7 -1 32 1q4 0 48 7q35 5 82 18q8 3 13 -3q28 -34 53 -46q55 -25 116 -10q5 1 9.5 -1.5t6.5 -7.5q20 -83 93 -126q8 -5 5.5 -14.5t-12.5 -9.5q-103 -3 -181 -69q-12 -10 -20 2q-26 37 -64.5 59.5
t-83.5 26.5q-10 1 -12 10zM160 596q-31 -5 -44 -6q57 -50 74 -123q93 -13 150 -85q68 52 152 64q-53 43 -72 108q-60 -11 -115 12q-33 14 -62 48q-40 -11 -83 -18zM494 314q9 2 14.5 -6.5t-2.5 -15.5q-37 -32 -61 -61q-35 -42 -41 -75q-1 -5 -6 -7.5t-10 -1.5
q-65 18 -121 -22q-8 -4 -16 3q-49 38 -113 30q-8 -3 -16 -2h-1q-7 1 -10 8t0 13t11 5q5 1 7 1q4 3 17 16q3 3 24 26q16 19 35 47q5 8 15 6q30 -6 50 0q40 12 64 46q8 11 18 5q22 -16 68 -19q39 -2 74 4zM421 243q16 20 38 41q-21 -1 -43 0q-44 3 -68 16q-28 -32 -67 -46
q-25 -8 -59 -3q-17 -25 -37 -48q-2 -2 -7 -8t-8 -10q49 -4 90 -32q56 34 122 22q8 30 39 68zM746 390q-1 -33 -21.5 -59.5t-51.5 -35.5q-10 -37 -45 -53t-71 3q-36 21 -38 63t29 67q-7 47 25 83q20 23 51 30.5t59 -4.5q19 -7 33 -21t21.5 -31.5t8.5 -37.5v-2.5v-1.5z
M570 268q21 -12 43 -4.5t32 28.5q-17 0 -33 6t-29.5 17t-22.5 26q-1 3 -3 6q-15 -17 -11.5 -41.5t24.5 -37.5zM672 322q22 8 35 27t13 42q0 26 -16 46t-41 26q-41 10 -69 -21t-19 -69q11 -37 46 -50l0.5 -0.5t1.5 -0.5q25 -8 49 0zM616 445q6 0 10 -4t4 -9v-1q0 -5 -4 -10
q-4 -3 -10 -3q-5 -1 -9 3t-4 10v1q0 5 4 9t9 4zM616.5 409q7.5 0 11 -6.5t0 -13t-11 -6.5t-11 6.5t0 13t11 6.5zM651 438q8 0 11 -6.5t0 -13t-11 -6.5t-11.5 6.5t0 13t11.5 6.5z" />
    <glyph glyph-name="a" unicode="&#xe3;" horiz-adv-x="796" 
d="M167 452q-18 91 -97 140q-9 3 -15 8q-11 8 -1 19q8 10 17 2q6 -3 11 -6q7 -1 32 1q4 0 48 7q35 5 82 18q8 3 13 -3q28 -34 53 -46q55 -25 116 -10q5 1 9.5 -1.5t6.5 -7.5q20 -83 93 -126q8 -5 5.5 -14.5t-12.5 -9.5q-103 -3 -181 -69q-12 -10 -20 2q-26 37 -64.5 59.5
t-83.5 26.5q-10 1 -12 10zM160 596q-31 -5 -44 -6q57 -50 74 -123q93 -13 150 -85q68 52 152 64q-53 43 -72 108q-60 -11 -115 12q-33 14 -62 48q-40 -11 -83 -18zM494 314q9 2 14.5 -6.5t-2.5 -15.5q-37 -32 -61 -61q-35 -42 -41 -75q-1 -5 -6 -7.5t-10 -1.5
q-65 18 -121 -22q-8 -4 -16 3q-49 38 -113 30q-8 -3 -16 -2h-1q-7 1 -10 8t0 13t11 5q5 1 7 1q4 3 17 16q3 3 24 26q16 19 35 47q5 8 15 6q30 -6 50 0q40 12 64 46q8 11 18 5q22 -16 68 -19q39 -2 74 4zM421 243q16 20 38 41q-21 -1 -43 0q-44 3 -68 16q-28 -32 -67 -46
q-25 -8 -59 -3q-17 -25 -37 -48q-2 -2 -7 -8t-8 -10q49 -4 90 -32q56 34 122 22q8 30 39 68zM746 390q-1 -33 -21.5 -59.5t-51.5 -35.5q-10 -37 -45 -53t-71 3q-36 21 -38 63t29 67q-7 47 25 83q20 23 51 30.5t59 -4.5q19 -7 33 -21t21.5 -31.5t8.5 -37.5v-2.5v-1.5z
M570 268q21 -12 43 -4.5t32 28.5q-17 0 -33 6t-29.5 17t-22.5 26q-1 3 -3 6q-15 -17 -11.5 -41.5t24.5 -37.5zM672 322q22 8 35 27t13 42q0 26 -16 46t-41 26q-41 10 -69 -21t-19 -69q11 -37 46 -50l0.5 -0.5t1.5 -0.5q25 -8 49 0zM616 445q6 0 10 -4t4 -9v-1q0 -5 -4 -10
q-4 -3 -10 -3q-5 -1 -9 3t-4 10v1q0 5 4 9t9 4zM616.5 409q7.5 0 11 -6.5t0 -13t-11 -6.5t-11 6.5t0 13t11 6.5zM651 438q8 0 11 -6.5t0 -13t-11 -6.5t-11.5 6.5t0 13t11.5 6.5z" />
    <glyph glyph-name="a" unicode="&#xe2;" horiz-adv-x="796" 
d="M167 452q-18 91 -97 140q-9 3 -15 8q-11 8 -1 19q8 10 17 2q6 -3 11 -6q7 -1 32 1q4 0 48 7q35 5 82 18q8 3 13 -3q28 -34 53 -46q55 -25 116 -10q5 1 9.5 -1.5t6.5 -7.5q20 -83 93 -126q8 -5 5.5 -14.5t-12.5 -9.5q-103 -3 -181 -69q-12 -10 -20 2q-26 37 -64.5 59.5
t-83.5 26.5q-10 1 -12 10zM160 596q-31 -5 -44 -6q57 -50 74 -123q93 -13 150 -85q68 52 152 64q-53 43 -72 108q-60 -11 -115 12q-33 14 -62 48q-40 -11 -83 -18zM494 314q9 2 14.5 -6.5t-2.5 -15.5q-37 -32 -61 -61q-35 -42 -41 -75q-1 -5 -6 -7.5t-10 -1.5
q-65 18 -121 -22q-8 -4 -16 3q-49 38 -113 30q-8 -3 -16 -2h-1q-7 1 -10 8t0 13t11 5q5 1 7 1q4 3 17 16q3 3 24 26q16 19 35 47q5 8 15 6q30 -6 50 0q40 12 64 46q8 11 18 5q22 -16 68 -19q39 -2 74 4zM421 243q16 20 38 41q-21 -1 -43 0q-44 3 -68 16q-28 -32 -67 -46
q-25 -8 -59 -3q-17 -25 -37 -48q-2 -2 -7 -8t-8 -10q49 -4 90 -32q56 34 122 22q8 30 39 68zM746 390q-1 -33 -21.5 -59.5t-51.5 -35.5q-10 -37 -45 -53t-71 3q-36 21 -38 63t29 67q-7 47 25 83q20 23 51 30.5t59 -4.5q19 -7 33 -21t21.5 -31.5t8.5 -37.5v-2.5v-1.5z
M570 268q21 -12 43 -4.5t32 28.5q-17 0 -33 6t-29.5 17t-22.5 26q-1 3 -3 6q-15 -17 -11.5 -41.5t24.5 -37.5zM672 322q22 8 35 27t13 42q0 26 -16 46t-41 26q-41 10 -69 -21t-19 -69q11 -37 46 -50l0.5 -0.5t1.5 -0.5q25 -8 49 0zM616 445q6 0 10 -4t4 -9v-1q0 -5 -4 -10
q-4 -3 -10 -3q-5 -1 -9 3t-4 10v1q0 5 4 9t9 4zM616.5 409q7.5 0 11 -6.5t0 -13t-11 -6.5t-11 6.5t0 13t11 6.5zM651 438q8 0 11 -6.5t0 -13t-11 -6.5t-11.5 6.5t0 13t11.5 6.5z" />
    <glyph glyph-name="a" unicode="&#xe1;" horiz-adv-x="796" 
d="M167 452q-18 91 -97 140q-9 3 -15 8q-11 8 -1 19q8 10 17 2q6 -3 11 -6q7 -1 32 1q4 0 48 7q35 5 82 18q8 3 13 -3q28 -34 53 -46q55 -25 116 -10q5 1 9.5 -1.5t6.5 -7.5q20 -83 93 -126q8 -5 5.5 -14.5t-12.5 -9.5q-103 -3 -181 -69q-12 -10 -20 2q-26 37 -64.5 59.5
t-83.5 26.5q-10 1 -12 10zM160 596q-31 -5 -44 -6q57 -50 74 -123q93 -13 150 -85q68 52 152 64q-53 43 -72 108q-60 -11 -115 12q-33 14 -62 48q-40 -11 -83 -18zM494 314q9 2 14.5 -6.5t-2.5 -15.5q-37 -32 -61 -61q-35 -42 -41 -75q-1 -5 -6 -7.5t-10 -1.5
q-65 18 -121 -22q-8 -4 -16 3q-49 38 -113 30q-8 -3 -16 -2h-1q-7 1 -10 8t0 13t11 5q5 1 7 1q4 3 17 16q3 3 24 26q16 19 35 47q5 8 15 6q30 -6 50 0q40 12 64 46q8 11 18 5q22 -16 68 -19q39 -2 74 4zM421 243q16 20 38 41q-21 -1 -43 0q-44 3 -68 16q-28 -32 -67 -46
q-25 -8 -59 -3q-17 -25 -37 -48q-2 -2 -7 -8t-8 -10q49 -4 90 -32q56 34 122 22q8 30 39 68zM746 390q-1 -33 -21.5 -59.5t-51.5 -35.5q-10 -37 -45 -53t-71 3q-36 21 -38 63t29 67q-7 47 25 83q20 23 51 30.5t59 -4.5q19 -7 33 -21t21.5 -31.5t8.5 -37.5v-2.5v-1.5z
M570 268q21 -12 43 -4.5t32 28.5q-17 0 -33 6t-29.5 17t-22.5 26q-1 3 -3 6q-15 -17 -11.5 -41.5t24.5 -37.5zM672 322q22 8 35 27t13 42q0 26 -16 46t-41 26q-41 10 -69 -21t-19 -69q11 -37 46 -50l0.5 -0.5t1.5 -0.5q25 -8 49 0zM616 445q6 0 10 -4t4 -9v-1q0 -5 -4 -10
q-4 -3 -10 -3q-5 -1 -9 3t-4 10v1q0 5 4 9t9 4zM616.5 409q7.5 0 11 -6.5t0 -13t-11 -6.5t-11 6.5t0 13t11 6.5zM651 438q8 0 11 -6.5t0 -13t-11 -6.5t-11.5 6.5t0 13t11.5 6.5z" />
    <glyph glyph-name="a" unicode="&#xe0;" horiz-adv-x="796" 
d="M167 452q-18 91 -97 140q-9 3 -15 8q-11 8 -1 19q8 10 17 2q6 -3 11 -6q7 -1 32 1q4 0 48 7q35 5 82 18q8 3 13 -3q28 -34 53 -46q55 -25 116 -10q5 1 9.5 -1.5t6.5 -7.5q20 -83 93 -126q8 -5 5.5 -14.5t-12.5 -9.5q-103 -3 -181 -69q-12 -10 -20 2q-26 37 -64.5 59.5
t-83.5 26.5q-10 1 -12 10zM160 596q-31 -5 -44 -6q57 -50 74 -123q93 -13 150 -85q68 52 152 64q-53 43 -72 108q-60 -11 -115 12q-33 14 -62 48q-40 -11 -83 -18zM494 314q9 2 14.5 -6.5t-2.5 -15.5q-37 -32 -61 -61q-35 -42 -41 -75q-1 -5 -6 -7.5t-10 -1.5
q-65 18 -121 -22q-8 -4 -16 3q-49 38 -113 30q-8 -3 -16 -2h-1q-7 1 -10 8t0 13t11 5q5 1 7 1q4 3 17 16q3 3 24 26q16 19 35 47q5 8 15 6q30 -6 50 0q40 12 64 46q8 11 18 5q22 -16 68 -19q39 -2 74 4zM421 243q16 20 38 41q-21 -1 -43 0q-44 3 -68 16q-28 -32 -67 -46
q-25 -8 -59 -3q-17 -25 -37 -48q-2 -2 -7 -8t-8 -10q49 -4 90 -32q56 34 122 22q8 30 39 68zM746 390q-1 -33 -21.5 -59.5t-51.5 -35.5q-10 -37 -45 -53t-71 3q-36 21 -38 63t29 67q-7 47 25 83q20 23 51 30.5t59 -4.5q19 -7 33 -21t21.5 -31.5t8.5 -37.5v-2.5v-1.5z
M570 268q21 -12 43 -4.5t32 28.5q-17 0 -33 6t-29.5 17t-22.5 26q-1 3 -3 6q-15 -17 -11.5 -41.5t24.5 -37.5zM672 322q22 8 35 27t13 42q0 26 -16 46t-41 26q-41 10 -69 -21t-19 -69q11 -37 46 -50l0.5 -0.5t1.5 -0.5q25 -8 49 0zM616 445q6 0 10 -4t4 -9v-1q0 -5 -4 -10
q-4 -3 -10 -3q-5 -1 -9 3t-4 10v1q0 5 4 9t9 4zM616.5 409q7.5 0 11 -6.5t0 -13t-11 -6.5t-11 6.5t0 13t11 6.5zM651 438q8 0 11 -6.5t0 -13t-11 -6.5t-11.5 6.5t0 13t11.5 6.5z" />
    <glyph glyph-name="b" unicode="b" horiz-adv-x="796" 
d="M742 619q10 -11 -1 -19q-6 -6 -15 -8q-78 -49 -97 -140q-1 -9 -12 -10q-44 -4 -83 -26.5t-64 -59.5q-9 -12 -21 -2q-78 66 -181 69q-10 0 -12.5 9.5t5.5 14.5q74 43 94 126q1 5 6 7.5t10 1.5q60 -15 115 10q26 12 54 46q4 6 12 3q47 -13 82 -18q44 -7 50 -7q24 -2 30 -1
q6 3 11 6q9 8 17 -2zM606 467q17 73 74 123q-13 1 -43 6q-44 7 -84 18q-29 -34 -61 -48q-55 -23 -115 -12q-20 -65 -72 -108q84 -12 151 -64q58 72 150 85zM675 182q7 1 10 -5q4 -6 1 -13t-10 -8h-2q-8 -1 -16 2q-63 8 -112 -30q-9 -7 -16 -3q-56 40 -121 22
q-5 -1 -10.5 1.5t-6.5 7.5q-6 33 -40 75q-25 29 -62 61q-8 7 -2.5 15.5t15.5 6.5q34 -6 73 -4q46 3 69 19q9 6 17 -5q25 -34 64 -46q21 -6 50 0q10 2 15 -6q19 -28 35 -47q22 -24 25 -28q12 -12 16 -14q3 0 8 -1zM536 153q41 28 90 32q-2 3 -5 6.5t-5.5 6.5t-4.5 5
q-19 23 -37 48q-33 -5 -59 3q-39 14 -67 46q-24 -13 -68 -16q-21 -1 -43 0q22 -21 38 -41q31 -38 40 -68q65 12 121 -22zM248 375q31 -25 29 -67t-38 -63q-35 -19 -70 -3t-45 53q-5 1 -9 3q-28 11 -46 35.5t-19 55.5v2.5v1.5q1 35 23 62t55 34q31 6 59.5 -5.5t45.5 -37.5
q21 -32 15 -71zM76 391q1 -26 17.5 -46.5t42.5 -25.5q3 0 6 -1h4h2h4h3h1q3 0 5 1h1q20 4 35.5 17t21.5 33q14 42 -16 73q-17 17 -39 21t-41 -4t-32.5 -26t-14.5 -42zM226 268q22 13 25 37.5t-12 41.5q-5 -10 -12 -18q-29 -36 -75 -37q9 -21 31 -28.5t43 4.5zM180 418
q-5 -1 -9 3t-4 10v1q0 5 4 9q3 4 9 4q5 0 9 -4t4 -9v-1q0 -5 -4 -10q-3 -3 -9 -3zM179.5 409q12.5 0 12.5 -13t-12.5 -13t-12.5 13t12.5 13zM145 412q-8 0 -11 6.5t0 13t11 6.5q5 0 8.5 -2.5t4 -6.5t0 -7.5t-4 -6.5t-8.5 -3z" />
    <glyph glyph-name="c" unicode="c" horiz-adv-x="433" 
d="M383 532q0 -3 -1 -6v-135q0 -58 -15 -89q-18 -40 -56 -63.5t-82 -24.5v-185h114q8 0 11 -6.5t0 -13t-11 -6.5h-32h-222q-8 0 -11 6.5t0 13t11 6.5h32h82v185q-31 1 -53 10q-49 18 -77 63q-23 37 -23 101v112v196q0 4 2 7t5 4.5t6 1.5h38h268q5 0 9 -3.5t4 -9.5v-71v-88
q1 -2 1 -5zM331 683h-255v-59v-107q8 6 19 9q39 13 88 -10q3 -1 15 -7l16 -8t15 -6.5t17.5 -6.5t16 -4.5t17.5 -3t16 0.5q12 1 25 7t23 16.5t12 22.5v156h-25zM355 353q1 7 1 60v68q-11 -10 -25 -17q-40 -18 -101 3q-26 10 -53 23q-30 14 -51 15q-48 0 -50 -43v-74
q0 -60 22 -92q26 -38 69 -51q18 -5 61 -5q32 0 60 15t46 41t21 57zM123 365q8 0 11 -6.5t0 -13t-11 -6.5t-11.5 6.5t0 13t11.5 6.5zM153 337q8 0 11.5 -6.5t0 -13t-11.5 -6.5t-11 6.5t0 13t11 6.5zM160 375q5 0 9 -4q3 -3 4 -9q0 -5 -4 -9t-9 -4h-2q-5 0 -9 4q-4 3 -4 9
q0 5 4 9t9 4h2z" />
    <glyph glyph-name="c" unicode="&#xe7;" horiz-adv-x="433" 
d="M383 532q0 -3 -1 -6v-135q0 -58 -15 -89q-18 -40 -56 -63.5t-82 -24.5v-185h114q8 0 11 -6.5t0 -13t-11 -6.5h-32h-222q-8 0 -11 6.5t0 13t11 6.5h32h82v185q-31 1 -53 10q-49 18 -77 63q-23 37 -23 101v112v196q0 4 2 7t5 4.5t6 1.5h38h268q5 0 9 -3.5t4 -9.5v-71v-88
q1 -2 1 -5zM331 683h-255v-59v-107q8 6 19 9q39 13 88 -10q3 -1 15 -7l16 -8t15 -6.5t17.5 -6.5t16 -4.5t17.5 -3t16 0.5q12 1 25 7t23 16.5t12 22.5v156h-25zM355 353q1 7 1 60v68q-11 -10 -25 -17q-40 -18 -101 3q-26 10 -53 23q-30 14 -51 15q-48 0 -50 -43v-74
q0 -60 22 -92q26 -38 69 -51q18 -5 61 -5q32 0 60 15t46 41t21 57zM123 365q8 0 11 -6.5t0 -13t-11 -6.5t-11.5 6.5t0 13t11.5 6.5zM153 337q8 0 11.5 -6.5t0 -13t-11.5 -6.5t-11 6.5t0 13t11 6.5zM160 375q5 0 9 -4q3 -3 4 -9q0 -5 -4 -9t-9 -4h-2q-5 0 -9 4q-4 3 -4 9
q0 5 4 9t9 4h2z" />
    <glyph glyph-name="d" unicode="d" horiz-adv-x="682" 
d="M458 554q78 -34 126 -107t48 -160q0 -98 -61 -177.5t-155 -104.5q-84 -22 -168 6.5t-137 96.5q-55 71 -60.5 162.5t41.5 168.5t132 114q2 28 16 52t37 39.5t51 18.5v90q0 8 6.5 11t13 0t6.5 -11v-90q42 -4 71 -35t33 -74zM339 638q-21 0 -39.5 -10t-31 -26.5t-16.5 -36.5
q41 13 85 14h1.5h0.5h6q44 -1 85 -14q-7 32 -32.5 53t-58.5 20zM447 44q72 31 115.5 97.5t43.5 145.5q0 85 -49.5 154t-128.5 97q-69 23 -141 9q-42 -9 -79.5 -31t-67 -55t-45.5 -74q-30 -75 -13 -155t75 -136q57 -55 137 -69.5t153 17.5zM267 102q7 -5 6.5 -11.5
t-6.5 -10.5t-13 0q-60 35 -98 95t-45 129q-1 8 5.5 11.5t13.5 0t7 -11.5q7 -62 41.5 -116t88.5 -86zM404 478q8 0 11 -7t0 -13.5t-11 -6.5t-11.5 6.5t0 13.5t11.5 7zM453 446q8 0 11 -6.5t0 -13t-11 -6.5t-11.5 6.5t0 13t11.5 6.5zM413 434q5 0 9 -4t4 -9v-2q0 -5 -4 -9
q-3 -4 -9 -4t-10 4q-3 4 -3 9v2q0 5 3 9q4 4 10 4z" />
    <glyph glyph-name="e" unicode="e" horiz-adv-x="1054" 
d="M273 471q49 -18 80 -61.5t31 -96.5q0 -57 -35 -102.5t-90 -59.5q-48 -13 -96 3.5t-79 56.5q-31 41 -34 93.5t25 96.5q30 49 86 69q2 18 13.5 32.5t29.5 18.5v19v211q0 8 6.5 11.5t13 0t6.5 -11.5v-30v-200q11 -3 20.5 -10t15 -17.5t7.5 -22.5zM104 228q20 13 50 8
q9 -1 21 -5.5l24 -9t22 -5.5q22 -4 64 17q36 19 60 22q8 16 11 33l-1 1q-18 21 -59 -1q-2 -1 -9 -5t-10 -5.5l-9 -4.5t-10 -4.5t-9.5 -3t-10.5 -2t-11 -0.5q-12 0 -25.5 3.5t-29.5 9.5t-25 8q-15 6 -35 2t-25 -22q0 -2 -1 -3q7 -18 18 -33zM213 497q-17 -3 -23 -19h5
q25 4 49 0q-8 21 -31 19zM86 365q-13 -33 -9 -69q18 16 44 18q19 1 51.5 -11t44.5 -13q12 -2 24 1t21 8t21 11.5t21 9.5q30 11 54 0q-3 45 -31 80.5t-70 47.5h-1v1q-33 8 -67 2q-34 -7 -62 -30t-41 -56zM274 183q31 14 53 41q-8 -2 -40.5 -18t-52.5 -17q-16 -1 -62 16
q-33 11 -50 3q31 -27 72.5 -34t79.5 9zM574 303q50 -18 80.5 -61.5t31.5 -96.5q-1 -37 -16.5 -70.5t-44 -57.5t-65.5 -34q-48 -12 -96 4.5t-78 55.5q-32 41 -34.5 93.5t24.5 96.5q31 50 87 70q1 18 12.5 32t29.5 19v39v358q0 8 6.5 11.5t13 0t6.5 -11.5v-51v-346
q18 -5 29.5 -19t13.5 -32zM515 329q-18 -2 -24 -19q3 1 5 1q25 3 50 -1q-9 22 -31 19zM491 284q-35 -8 -63 -31t-41 -56q-2 -5 -4 -11h270q-11 34 -36 59.5t-59 35.5h-1q-33 9 -66 3zM378 160q-2 -17 1 -34h279q1 10 1 19q0 8 -1 15h-280zM575 16q56 25 77 84h-267
q11 -33 36 -57q30 -29 72.5 -36.5t81.5 9.5zM1001 344q0 -3 -1 -6q-7 -34 -25.5 -63t-46.5 -50t-62 -30q-54 -14 -107 4t-87 62q-35 45 -38.5 102.5t25.5 105.5q26 44 72 68q2 2 3 2q12 6 24 10q1 21 14 37t33 20v147q0 8 6.5 11t13 0t6.5 -11v-147q20 -4 33 -20t15 -36
l0.5 -0.5l0.5 -0.5q55 -20 89 -68t35 -107q0 -15 -3 -30zM739 512q-14 -8 -26 -18q2 -1 21 -11q48 -23 137.5 -68t105.5 -53q1 6 1 12t-1 13q-4 2 -13.5 7t-13.5 7zM971 420q-12 38 -40.5 67t-67.5 40l-1 1q-32 8 -65 4q-14 -2 -28 -6q2 -2 7 -4q33 -17 97.5 -51t97.5 -51z
M815 581q-23 -2 -29 -24l14 2q26 2 51 -2q-4 12 -14 19t-22 5zM694 474q-16 -20 -25 -44q-5 -13 -7 -26q8 -4 33 -15q35 -16 80 -36t90 -40.5t79 -35.5q20 26 29 58l-9 4.5t-10.5 5t-8.5 4.5q-42 21 -125.5 62.5t-125.5 62.5zM898 236q15 9 28 21l-21 9l-246 111
q0 -16 3 -32q5 -2 10.5 -4.5l11 -5t9.5 -4.5q34 -16 102.5 -47.5t102.5 -47.5zM711 257q31 -29 73.5 -38.5t82.5 3.5q-1 1 -2.5 1.5t-2.5 0.5q-26 12 -60.5 28t-68.5 31.5t-61 27.5q14 -31 39 -54z" />
    <glyph glyph-name="e" unicode="&#xeb;" horiz-adv-x="1054" 
d="M273 471q49 -18 80 -61.5t31 -96.5q0 -57 -35 -102.5t-90 -59.5q-48 -13 -96 3.5t-79 56.5q-31 41 -34 93.5t25 96.5q30 49 86 69q2 18 13.5 32.5t29.5 18.5v19v211q0 8 6.5 11.5t13 0t6.5 -11.5v-30v-200q11 -3 20.5 -10t15 -17.5t7.5 -22.5zM104 228q20 13 50 8
q9 -1 21 -5.5l24 -9t22 -5.5q22 -4 64 17q36 19 60 22q8 16 11 33l-1 1q-18 21 -59 -1q-2 -1 -9 -5t-10 -5.5l-9 -4.5t-10 -4.5t-9.5 -3t-10.5 -2t-11 -0.5q-12 0 -25.5 3.5t-29.5 9.5t-25 8q-15 6 -35 2t-25 -22q0 -2 -1 -3q7 -18 18 -33zM213 497q-17 -3 -23 -19h5
q25 4 49 0q-8 21 -31 19zM86 365q-13 -33 -9 -69q18 16 44 18q19 1 51.5 -11t44.5 -13q12 -2 24 1t21 8t21 11.5t21 9.5q30 11 54 0q-3 45 -31 80.5t-70 47.5h-1v1q-33 8 -67 2q-34 -7 -62 -30t-41 -56zM274 183q31 14 53 41q-8 -2 -40.5 -18t-52.5 -17q-16 -1 -62 16
q-33 11 -50 3q31 -27 72.5 -34t79.5 9zM574 303q50 -18 80.5 -61.5t31.5 -96.5q-1 -37 -16.5 -70.5t-44 -57.5t-65.5 -34q-48 -12 -96 4.5t-78 55.5q-32 41 -34.5 93.5t24.5 96.5q31 50 87 70q1 18 12.5 32t29.5 19v39v358q0 8 6.5 11.5t13 0t6.5 -11.5v-51v-346
q18 -5 29.5 -19t13.5 -32zM515 329q-18 -2 -24 -19q3 1 5 1q25 3 50 -1q-9 22 -31 19zM491 284q-35 -8 -63 -31t-41 -56q-2 -5 -4 -11h270q-11 34 -36 59.5t-59 35.5h-1q-33 9 -66 3zM378 160q-2 -17 1 -34h279q1 10 1 19q0 8 -1 15h-280zM575 16q56 25 77 84h-267
q11 -33 36 -57q30 -29 72.5 -36.5t81.5 9.5zM1001 344q0 -3 -1 -6q-7 -34 -25.5 -63t-46.5 -50t-62 -30q-54 -14 -107 4t-87 62q-35 45 -38.5 102.5t25.5 105.5q26 44 72 68q2 2 3 2q12 6 24 10q1 21 14 37t33 20v147q0 8 6.5 11t13 0t6.5 -11v-147q20 -4 33 -20t15 -36
l0.5 -0.5l0.5 -0.5q55 -20 89 -68t35 -107q0 -15 -3 -30zM739 512q-14 -8 -26 -18q2 -1 21 -11q48 -23 137.5 -68t105.5 -53q1 6 1 12t-1 13q-4 2 -13.5 7t-13.5 7zM971 420q-12 38 -40.5 67t-67.5 40l-1 1q-32 8 -65 4q-14 -2 -28 -6q2 -2 7 -4q33 -17 97.5 -51t97.5 -51z
M815 581q-23 -2 -29 -24l14 2q26 2 51 -2q-4 12 -14 19t-22 5zM694 474q-16 -20 -25 -44q-5 -13 -7 -26q8 -4 33 -15q35 -16 80 -36t90 -40.5t79 -35.5q20 26 29 58l-9 4.5t-10.5 5t-8.5 4.5q-42 21 -125.5 62.5t-125.5 62.5zM898 236q15 9 28 21l-21 9l-246 111
q0 -16 3 -32q5 -2 10.5 -4.5l11 -5t9.5 -4.5q34 -16 102.5 -47.5t102.5 -47.5zM711 257q31 -29 73.5 -38.5t82.5 3.5q-1 1 -2.5 1.5t-2.5 0.5q-26 12 -60.5 28t-68.5 31.5t-61 27.5q14 -31 39 -54z" />
    <glyph glyph-name="e" unicode="&#xea;" horiz-adv-x="1054" 
d="M273 471q49 -18 80 -61.5t31 -96.5q0 -57 -35 -102.5t-90 -59.5q-48 -13 -96 3.5t-79 56.5q-31 41 -34 93.5t25 96.5q30 49 86 69q2 18 13.5 32.5t29.5 18.5v19v211q0 8 6.5 11.5t13 0t6.5 -11.5v-30v-200q11 -3 20.5 -10t15 -17.5t7.5 -22.5zM104 228q20 13 50 8
q9 -1 21 -5.5l24 -9t22 -5.5q22 -4 64 17q36 19 60 22q8 16 11 33l-1 1q-18 21 -59 -1q-2 -1 -9 -5t-10 -5.5l-9 -4.5t-10 -4.5t-9.5 -3t-10.5 -2t-11 -0.5q-12 0 -25.5 3.5t-29.5 9.5t-25 8q-15 6 -35 2t-25 -22q0 -2 -1 -3q7 -18 18 -33zM213 497q-17 -3 -23 -19h5
q25 4 49 0q-8 21 -31 19zM86 365q-13 -33 -9 -69q18 16 44 18q19 1 51.5 -11t44.5 -13q12 -2 24 1t21 8t21 11.5t21 9.5q30 11 54 0q-3 45 -31 80.5t-70 47.5h-1v1q-33 8 -67 2q-34 -7 -62 -30t-41 -56zM274 183q31 14 53 41q-8 -2 -40.5 -18t-52.5 -17q-16 -1 -62 16
q-33 11 -50 3q31 -27 72.5 -34t79.5 9zM574 303q50 -18 80.5 -61.5t31.5 -96.5q-1 -37 -16.5 -70.5t-44 -57.5t-65.5 -34q-48 -12 -96 4.5t-78 55.5q-32 41 -34.5 93.5t24.5 96.5q31 50 87 70q1 18 12.5 32t29.5 19v39v358q0 8 6.5 11.5t13 0t6.5 -11.5v-51v-346
q18 -5 29.5 -19t13.5 -32zM515 329q-18 -2 -24 -19q3 1 5 1q25 3 50 -1q-9 22 -31 19zM491 284q-35 -8 -63 -31t-41 -56q-2 -5 -4 -11h270q-11 34 -36 59.5t-59 35.5h-1q-33 9 -66 3zM378 160q-2 -17 1 -34h279q1 10 1 19q0 8 -1 15h-280zM575 16q56 25 77 84h-267
q11 -33 36 -57q30 -29 72.5 -36.5t81.5 9.5zM1001 344q0 -3 -1 -6q-7 -34 -25.5 -63t-46.5 -50t-62 -30q-54 -14 -107 4t-87 62q-35 45 -38.5 102.5t25.5 105.5q26 44 72 68q2 2 3 2q12 6 24 10q1 21 14 37t33 20v147q0 8 6.5 11t13 0t6.5 -11v-147q20 -4 33 -20t15 -36
l0.5 -0.5l0.5 -0.5q55 -20 89 -68t35 -107q0 -15 -3 -30zM739 512q-14 -8 -26 -18q2 -1 21 -11q48 -23 137.5 -68t105.5 -53q1 6 1 12t-1 13q-4 2 -13.5 7t-13.5 7zM971 420q-12 38 -40.5 67t-67.5 40l-1 1q-32 8 -65 4q-14 -2 -28 -6q2 -2 7 -4q33 -17 97.5 -51t97.5 -51z
M815 581q-23 -2 -29 -24l14 2q26 2 51 -2q-4 12 -14 19t-22 5zM694 474q-16 -20 -25 -44q-5 -13 -7 -26q8 -4 33 -15q35 -16 80 -36t90 -40.5t79 -35.5q20 26 29 58l-9 4.5t-10.5 5t-8.5 4.5q-42 21 -125.5 62.5t-125.5 62.5zM898 236q15 9 28 21l-21 9l-246 111
q0 -16 3 -32q5 -2 10.5 -4.5l11 -5t9.5 -4.5q34 -16 102.5 -47.5t102.5 -47.5zM711 257q31 -29 73.5 -38.5t82.5 3.5q-1 1 -2.5 1.5t-2.5 0.5q-26 12 -60.5 28t-68.5 31.5t-61 27.5q14 -31 39 -54z" />
    <glyph glyph-name="e" unicode="&#xe9;" horiz-adv-x="1054" 
d="M273 471q49 -18 80 -61.5t31 -96.5q0 -57 -35 -102.5t-90 -59.5q-48 -13 -96 3.5t-79 56.5q-31 41 -34 93.5t25 96.5q30 49 86 69q2 18 13.5 32.5t29.5 18.5v19v211q0 8 6.5 11.5t13 0t6.5 -11.5v-30v-200q11 -3 20.5 -10t15 -17.5t7.5 -22.5zM104 228q20 13 50 8
q9 -1 21 -5.5l24 -9t22 -5.5q22 -4 64 17q36 19 60 22q8 16 11 33l-1 1q-18 21 -59 -1q-2 -1 -9 -5t-10 -5.5l-9 -4.5t-10 -4.5t-9.5 -3t-10.5 -2t-11 -0.5q-12 0 -25.5 3.5t-29.5 9.5t-25 8q-15 6 -35 2t-25 -22q0 -2 -1 -3q7 -18 18 -33zM213 497q-17 -3 -23 -19h5
q25 4 49 0q-8 21 -31 19zM86 365q-13 -33 -9 -69q18 16 44 18q19 1 51.5 -11t44.5 -13q12 -2 24 1t21 8t21 11.5t21 9.5q30 11 54 0q-3 45 -31 80.5t-70 47.5h-1v1q-33 8 -67 2q-34 -7 -62 -30t-41 -56zM274 183q31 14 53 41q-8 -2 -40.5 -18t-52.5 -17q-16 -1 -62 16
q-33 11 -50 3q31 -27 72.5 -34t79.5 9zM574 303q50 -18 80.5 -61.5t31.5 -96.5q-1 -37 -16.5 -70.5t-44 -57.5t-65.5 -34q-48 -12 -96 4.5t-78 55.5q-32 41 -34.5 93.5t24.5 96.5q31 50 87 70q1 18 12.5 32t29.5 19v39v358q0 8 6.5 11.5t13 0t6.5 -11.5v-51v-346
q18 -5 29.5 -19t13.5 -32zM515 329q-18 -2 -24 -19q3 1 5 1q25 3 50 -1q-9 22 -31 19zM491 284q-35 -8 -63 -31t-41 -56q-2 -5 -4 -11h270q-11 34 -36 59.5t-59 35.5h-1q-33 9 -66 3zM378 160q-2 -17 1 -34h279q1 10 1 19q0 8 -1 15h-280zM575 16q56 25 77 84h-267
q11 -33 36 -57q30 -29 72.5 -36.5t81.5 9.5zM1001 344q0 -3 -1 -6q-7 -34 -25.5 -63t-46.5 -50t-62 -30q-54 -14 -107 4t-87 62q-35 45 -38.5 102.5t25.5 105.5q26 44 72 68q2 2 3 2q12 6 24 10q1 21 14 37t33 20v147q0 8 6.5 11t13 0t6.5 -11v-147q20 -4 33 -20t15 -36
l0.5 -0.5l0.5 -0.5q55 -20 89 -68t35 -107q0 -15 -3 -30zM739 512q-14 -8 -26 -18q2 -1 21 -11q48 -23 137.5 -68t105.5 -53q1 6 1 12t-1 13q-4 2 -13.5 7t-13.5 7zM971 420q-12 38 -40.5 67t-67.5 40l-1 1q-32 8 -65 4q-14 -2 -28 -6q2 -2 7 -4q33 -17 97.5 -51t97.5 -51z
M815 581q-23 -2 -29 -24l14 2q26 2 51 -2q-4 12 -14 19t-22 5zM694 474q-16 -20 -25 -44q-5 -13 -7 -26q8 -4 33 -15q35 -16 80 -36t90 -40.5t79 -35.5q20 26 29 58l-9 4.5t-10.5 5t-8.5 4.5q-42 21 -125.5 62.5t-125.5 62.5zM898 236q15 9 28 21l-21 9l-246 111
q0 -16 3 -32q5 -2 10.5 -4.5l11 -5t9.5 -4.5q34 -16 102.5 -47.5t102.5 -47.5zM711 257q31 -29 73.5 -38.5t82.5 3.5q-1 1 -2.5 1.5t-2.5 0.5q-26 12 -60.5 28t-68.5 31.5t-61 27.5q14 -31 39 -54z" />
    <glyph glyph-name="e" unicode="&#xe8;" horiz-adv-x="1054" 
d="M273 471q49 -18 80 -61.5t31 -96.5q0 -57 -35 -102.5t-90 -59.5q-48 -13 -96 3.5t-79 56.5q-31 41 -34 93.5t25 96.5q30 49 86 69q2 18 13.5 32.5t29.5 18.5v19v211q0 8 6.5 11.5t13 0t6.5 -11.5v-30v-200q11 -3 20.5 -10t15 -17.5t7.5 -22.5zM104 228q20 13 50 8
q9 -1 21 -5.5l24 -9t22 -5.5q22 -4 64 17q36 19 60 22q8 16 11 33l-1 1q-18 21 -59 -1q-2 -1 -9 -5t-10 -5.5l-9 -4.5t-10 -4.5t-9.5 -3t-10.5 -2t-11 -0.5q-12 0 -25.5 3.5t-29.5 9.5t-25 8q-15 6 -35 2t-25 -22q0 -2 -1 -3q7 -18 18 -33zM213 497q-17 -3 -23 -19h5
q25 4 49 0q-8 21 -31 19zM86 365q-13 -33 -9 -69q18 16 44 18q19 1 51.5 -11t44.5 -13q12 -2 24 1t21 8t21 11.5t21 9.5q30 11 54 0q-3 45 -31 80.5t-70 47.5h-1v1q-33 8 -67 2q-34 -7 -62 -30t-41 -56zM274 183q31 14 53 41q-8 -2 -40.5 -18t-52.5 -17q-16 -1 -62 16
q-33 11 -50 3q31 -27 72.5 -34t79.5 9zM574 303q50 -18 80.5 -61.5t31.5 -96.5q-1 -37 -16.5 -70.5t-44 -57.5t-65.5 -34q-48 -12 -96 4.5t-78 55.5q-32 41 -34.5 93.5t24.5 96.5q31 50 87 70q1 18 12.5 32t29.5 19v39v358q0 8 6.5 11.5t13 0t6.5 -11.5v-51v-346
q18 -5 29.5 -19t13.5 -32zM515 329q-18 -2 -24 -19q3 1 5 1q25 3 50 -1q-9 22 -31 19zM491 284q-35 -8 -63 -31t-41 -56q-2 -5 -4 -11h270q-11 34 -36 59.5t-59 35.5h-1q-33 9 -66 3zM378 160q-2 -17 1 -34h279q1 10 1 19q0 8 -1 15h-280zM575 16q56 25 77 84h-267
q11 -33 36 -57q30 -29 72.5 -36.5t81.5 9.5zM1001 344q0 -3 -1 -6q-7 -34 -25.5 -63t-46.5 -50t-62 -30q-54 -14 -107 4t-87 62q-35 45 -38.5 102.5t25.5 105.5q26 44 72 68q2 2 3 2q12 6 24 10q1 21 14 37t33 20v147q0 8 6.5 11t13 0t6.5 -11v-147q20 -4 33 -20t15 -36
l0.5 -0.5l0.5 -0.5q55 -20 89 -68t35 -107q0 -15 -3 -30zM739 512q-14 -8 -26 -18q2 -1 21 -11q48 -23 137.5 -68t105.5 -53q1 6 1 12t-1 13q-4 2 -13.5 7t-13.5 7zM971 420q-12 38 -40.5 67t-67.5 40l-1 1q-32 8 -65 4q-14 -2 -28 -6q2 -2 7 -4q33 -17 97.5 -51t97.5 -51z
M815 581q-23 -2 -29 -24l14 2q26 2 51 -2q-4 12 -14 19t-22 5zM694 474q-16 -20 -25 -44q-5 -13 -7 -26q8 -4 33 -15q35 -16 80 -36t90 -40.5t79 -35.5q20 26 29 58l-9 4.5t-10.5 5t-8.5 4.5q-42 21 -125.5 62.5t-125.5 62.5zM898 236q15 9 28 21l-21 9l-246 111
q0 -16 3 -32q5 -2 10.5 -4.5l11 -5t9.5 -4.5q34 -16 102.5 -47.5t102.5 -47.5zM711 257q31 -29 73.5 -38.5t82.5 3.5q-1 1 -2.5 1.5t-2.5 0.5q-26 12 -60.5 28t-68.5 31.5t-61 27.5q14 -31 39 -54z" />
    <glyph glyph-name="f" unicode="f" horiz-adv-x="870" 
d="M546 445q55 -20 89 -68t35 -107q0 -16 -3 -31q0 -3 -1 -5q-11 -52 -47 -91t-87 -53q-54 -14 -107 4t-87 62q-35 45 -38.5 102.5t25.5 106.5q26 43 72 68q2 1 3 2l24 10q1 20 14 36t33 21v21v230q0 4 3 7.5t6.5 4t7.5 0t6.5 -4t2.5 -7.5v-33v-218q20 -5 33 -20.5t15 -36.5
h1zM405 407q-14 -8 -26 -18q2 -1 21 -10l77 -38.5l89 -44.5t77 -38q1 6 1 12t-1 12q-4 3 -13.5 7.5t-13.5 7.5zM637 315q-12 39 -40.5 67.5t-67.5 40.5h-1q-32 9 -65 4q-14 -2 -28 -6q3 -1 7 -4q33 -17 97.5 -51t97.5 -51zM481 477q-23 -2 -29 -25l14 2q26 3 51 -2
q-4 12 -14 19t-22 6zM360 370q-16 -21 -25 -45q-5 -12 -7 -26q8 -3 33 -15q42 -18 125 -55.5t124 -56.5q20 27 29 59q-7 3 -28 14q-35 17 -80.5 39.5t-90.5 45t-80 40.5zM564 132q15 8 28 20l-21 9q-137 62 -246 111q0 -16 3 -32h1q10 -5 30 -14q137 -63 205 -94zM377 152
q31 -28 73.5 -37.5t82.5 3.5q-1 0 -3 1l-2 1q-32 14 -95 43t-95 44q14 -32 39 -55zM360 451q-16 31 -24 47q-3 7 1 13.5t10.5 6.5t11.5 -7q8 -15 23 -47q4 -7 -0.5 -13.5t-11 -6.5t-10.5 7zM605 441q-4 2 -6 7.5t1 10.5q10 12 28 37q8 10 18 5q5 -3 6.5 -8.5t-1.5 -9.5
q-9 -13 -28 -37q-8 -11 -18 -5zM293 423q6 -5 5.5 -12.5t-6 -10.5t-12.5 1l-128 94q-12 9 -2 20q6 9 15 2zM232 353q8 -1 11.5 -7.5t0 -13t-11.5 -5.5q-8 0 -24.5 1t-24.5 1q-8 1 -11.5 7.5t0 13t11.5 5.5q15 0 49 -2zM224 275q8 0 11.5 -6t0 -13t-11.5 -7q-27 -3 -80.5 -8
t-80.5 -7q-8 -1 -11.5 5.5t0 13.5t11.5 7q104 10 161 15zM218 151q-11 -7 -18 5q-6 11 5 17q6 4 19 12t20 12q6 5 12.5 0.5t6.5 -11t-6 -11.5q-7 -4 -20 -12t-19 -12zM270 122q6 5 13 3t8.5 -8.5t-2.5 -13.5q-2 -2 -89 -95q-5 -6 -12 -3.5t-9 9t3 13.5q2 2 88 95zM801 476
q7 5 13 1t6 -11t-6 -12q-42 -31 -128 -92q-6 -5 -12 -1t-6.5 11t5.5 13q22 15 64.5 45.5t63.5 45.5zM703 237q-8 0 -11.5 6.5t0 13t11.5 6.5l91 3q8 0 11.5 -6.5t0 -13t-11.5 -6.5zM702 150q34 -35 102 -103q6 -6 3.5 -13t-9 -9t-12.5 3l-51.5 51.5l-51.5 51.5q-5 6 -2.5 13
t9 9t12.5 -3zM620 96q4 -6 12.5 -17.5t13.5 -17.5q3 -4 1 -9.5t-6 -8.5q-10 -6 -18 5q-3 5 -8 11t-9.5 12.5t-7.5 10.5q-3 5 -1.5 10.5t5.5 7.5q10 6 18 -4zM486 55q0 -5 1 -16.5t1 -17.5q0 -5 -4 -9t-9 -4q-12 0 -13 13q-1 11 -3 34q0 5 4 9t9 4q13 0 14 -13zM380 85
q4 -3 5.5 -8.5t-1.5 -9.5q-25 -34 -32 -44q-8 -10 -18 -4q-4 2 -6 7.5t1 9.5q5 7 11 14.5t11.5 15.5t10.5 14q8 11 18 5z" />
    <glyph glyph-name="g" unicode="g" horiz-adv-x="569" 
d="M493 707q14 -8 21 -23t4 -31q-4 -17 -16.5 -27t-29.5 -12h-2v-280v-9v-65q-1 -3 -2 -7q-2 -5 -5 -8q0 -1 -1 -2l-1.5 -1.5l-0.5 -0.5q-10 -11 -22.5 -23t-27.5 -26.5t-23 -23.5q-16 -15 -33.5 -32.5l-39 -39t-32.5 -33.5q-26 -25 -43 -34q-57 -30 -116 -2
q-58 27 -70.5 92t30.5 112q11 13 32.5 33t38 37.5t28.5 35.5q28 47 29 105v18.5v21v18.5v114q-33 0 -48 16q-22 24 -8.5 52.5t45.5 29.5h53h186q4 0 11 0.5t11.5 0.5t10.5 -0.5t11 -2t10 -3.5zM444 297v12q-24 -6 -33 -30t5 -45l12 12q0 1 4.5 5.5t7.5 6.5l4 5v1v2.5v1.5v29
zM444 471v39.5v39.5q-5 19 -23 19.5t-27 -16.5q-19 -36 -48 -33q-11 2 -20.5 6.5t-23.5 15t-17 12.5q-17 12 -30 7q-18 -6 -17 -26q0 -3 -1 -5v-59h205h2zM237 445q0 -9 -1 -16h206h2v16h-2h-205zM444 590v24h-16h-122h-69v-33q12 8 27 8q18 0 42 -19t36 -22q4 -2 7 -2t6 1
t4.5 2.5l4 4t3.5 4.5l3 6t3 5q12 21 34 26q19 5 37 -5zM290 109q63 63 107 106q-25 34 -9.5 73.5t56.5 47.5v47v20h-2h-208q-10 -58 -47 -103q-7 -9 -47 -49q-4 -3 -14.5 -13t-17.5 -17.5t-13 -15.5q-17 -24 -19.5 -54t11.5 -56q10 -18 26 -31t35 -19t40 -4q11 0 21.5 4
t18 8t18 12.5t15 13l16 16t13.5 14.5zM470 640q18 1 22 18.5t-12 25.5q-5 2 -19 2h-71h-164q-2 0 -9 0.5t-11.5 0.5t-10 -1t-8.5 -3q-14 -9 -10.5 -24.5t19.5 -18.5h11h17h29h204h13z" />
    <glyph glyph-name="h" unicode="h" horiz-adv-x="686" 
d="M630 404q-25 -51 -51 -107q0 -1 0.5 -2t0.5 -2q4 1 7 0q16 -2 26.5 -13.5t13.5 -27.5v-5v-4q-4 -31 -35 -41q-3 -1 -7 -2t-8.5 -2.5l-7.5 -2.5q-64 -19 -193 -59l-76 -23l-12 -3q-16 -4 -30.5 2t-22.5 19q-18 -5 -54 -16q-30 -9 -44 -5q-20 7 -28 26.5t1 38.5q6 13 23 21
q-20 68 -36 121q-39 128 -40 129q-16 54 2.5 107t65.5 85q34 22 76 26t78 -11q63 25 123 1q77 -30 104 -118q3 -11 9.5 -32.5t10.5 -32.5q2 3 5 6q22 21 52 16q31 -4 45 -31t2 -56v-2zM88 435q1 -3 1 -4q13 14 31 19q14 4 50.5 1.5t48.5 5.5q10 5 19.5 16.5t19.5 21t22 13.5
q17 5 46 -2q22 -5 37 2q0 2 -1 4.5t-1.5 5t-1.5 4.5q-2 8 -3 11q-12 -5 -23 -6q-8 -1 -23.5 2.5t-19.5 4.5q-14 1 -22.5 -3.5t-20 -18t-15.5 -17.5q-24 -22 -75 -19q-33 2 -45 -1q-11 -4 -19.5 -12t-6.5 -18v-4q1 -4 2 -6zM458 579q-19 -9 -49 -2q-2 0 -15.5 4t-15.5 3.5
t-16 -0.5q4 -6 6 -11q6 -12 11 -28q15 7 34 6q5 -1 14.5 -2.5t16 -3t15 0t13.5 5.5l1 1q-6 14 -15 27zM498 471q-10 33 -16 55q-17 -9 -41 -6q-4 1 -10.5 2t-11.5 2t-11 1t-11 -1.5t-10 -4.5q4 -12 5 -17q4 -10 10 -31q1 2 3 4l1 1l0.5 0.5l0.5 0.5q3 3 6 5h1l2 2l2 1h1
q15 9 32 9q8 0 15 -2q20 -5 32 -20v-1zM188 214q24 7 78 24q27 8 82 24.5t82 25.5q-2 4 -2 8q-24 -8 -52 -1q-29 6 -43 -4q-6 -4 -14.5 -14.5t-9.5 -12.5q-26 -27 -75 -25q-40 3 -50 -1q-11 -3 -19.5 -11t-6.5 -18v-3q5 1 15 3.5t15 4.5zM101 395q1 -2 0 -4q8 -24 22.5 -73
t22.5 -73q14 15 35 20q11 1 25.5 1t27 -1.5t26.5 1t23 9.5q5 4 9.5 9.5t9.5 11.5t9 10q16 16 37 18q8 0 16.5 -1.5t17.5 -3.5t15 -2q20 -1 42 13l4 2q4 9 5 12q5 9 11 22t12 25.5t11 22.5q8 18 0 34q-6 13 -19 18q-2 0 -3 1q-3 0 -5 1h-9q-6 -1 -10 -3q-13 -7 -26 -34
q-4 -8 -13 -6.5t-11 9.5q-5 16 -15 49q-11 -5 -23 -6q-8 -1 -23.5 2.5t-19.5 4.5q-13 1 -22 -3.5t-20.5 -18t-15.5 -16.5q-24 -23 -74 -20q-34 2 -46 -1q-11 -3 -19 -11.5t-7 -18.5zM463 293q14 -1 24 -11l1 -1q1 0 1 -1q5 -4 8 -10q8 3 18 6t20.5 6t18.5 6q-2 7 -1 13
q-9 -2 -18 -2q-5 0 -11.5 1t-12.5 1.5t-13.5 1t-13.5 0t-11.5 -3t-9.5 -6.5zM570 468q-10 -2 -17.5 -8.5t-10 -11.5l-8.5 -17q-3 -7 -10 -7t-12 5q0 -9 -4 -19q-1 -2 -1 -4q-1 -1 -1 -2l-0.5 -1t-0.5 -2q-1 -2 -2.5 -4.5t-3 -5.5t-1.5 -4l-30 -62q13 4 28 4q5 -1 18.5 -2.5
t22 -2t18.5 3t15 12.5q0 1 1 2l0.5 0.5t0.5 1.5q6 12 17.5 36.5t17.5 37.5q5 13 1.5 24.5t-14.5 19.5t-24 6zM439 600q-54 50 -126 36q4 -3 9 -7q13 -10 24 -23q18 8 46 2q4 -1 14.5 -4t18 -4t14.5 0zM105 584q-34 -45 -29 -101q12 12 29 17q13 4 50 1t49 6q11 6 28 26
t32 25q18 5 47 -2q21 -5 35 1q-4 9 -8 16q-18 29 -49 47q-43 26 -97 16t-87 -52zM173 140q45 13 46 14q3 1 10 3t10 3q12 3 31 9q47 14 97 30q6 1 12.5 3t12.5 4t12.5 4l13 4t12.5 4t20 6q11 3 16 6q11 6 11 17v5q-3 9 -10 13q-7 3 -20 1l-50 -16h-2q-14 -5 -43.5 -14
t-44.5 -13q-41 -13 -123 -38q-3 -1 -9.5 -2.5t-11.5 -3t-9 -3.5h-1h-1q-8 -2 -10 -4q-9 -5 -10.5 -15.5t6.5 -17.5q2 -2 5.5 -3t5.5 -1.5t6 0t6 1t6.5 2t5.5 2.5zM601 247q-2 25 -31 18l-8 -2t-8 -2.5t-7 -2.5q-25 -7 -44 -13v-2q-4 -31 -35 -41l-31 -10q-45 -13 -113 -34
h-0.5h-1.5q-11 -4 -32 -10.5t-28 -8.5q3 -3 7.5 -4t10 0t9.5 2t11 3.5t9 2.5q76 24 175 54q52 16 79 23q2 1 7.5 2.5t8.5 2.5t8 3t7.5 4.5t4.5 6t2 8.5z" />
    <glyph glyph-name="i" unicode="i" horiz-adv-x="539" 
d="M489 532v-6v-144v-5v-69v-5v-9v-12.5v-15.5v-13q-1 -70 -38 -125q-52 -77 -144 -94q-2 0 -4 -1q-58 -9 -112 12q-66 26 -104 85q-3 3 -4 6q-19 31 -27 66q-2 4 -2 8q-5 27 -4 55q1 18 12 33.5t27 22.5q18 7 37 2.5t31 -19.5q14 -17 16 -34q4 -29 6 -35q12 -35 45 -54
q35 -18 72.5 -6.5t56.5 45.5q12 22 12 64v179v183q0 41 14 57q12 16 32 21.5t38 -1.5q37 -14 40 -56v-2v-9v-50v-5v-69zM463 593q-12 6 -36 16.5t-35 15.5v-46q11 -5 35 -15.5t36 -16.5v46zM392 377v-21q23 -11 71 -32v30v16q-12 5 -36 15.5t-35 16.5v-25zM392 430
q11 -5 35 -15.5t36 -16.5v121q-10 4 -23 10t-26 11.5t-22 10.5v-121zM392 264q-1 -15 -5 -29q23 -10 70 -31q4 19 5 37q1 22 1 54q-8 4 -17.5 8.5t-17.5 8t-18 7.5t-18 8v-63zM411 697q-19 -9 -19 -43q11 -6 35 -16.5t36 -15.5v43q-1 13 -9 22.5t-19 12.5t-24 -3zM378 211
q-10 -20 -26 -35q25 -11 76 -34q12 18 20 37q-23 11 -70 32zM83 200q6 -22 17 -42l68 41q-11 16 -16 34q-11 -6 -34.5 -17t-34.5 -16zM76 265q-2 -16 1 -39q12 6 35.5 17t35.5 16q-5 29 -22 37t-32 -2.5t-18 -28.5zM114 136q39 -54 104 -72v92q-17 7 -30 19q-1 0 -4 3
q-9 -5 -22 -13t-25.5 -15.5zM244 58q21 -2 42 -1h1h2q-2 58 -3 88q-21 -3 -42 2v-89zM315 62q56 14 97 59l-85 38q-5 -3 -9 -5l-6 -2q0 -15 1 -45t2 -45z" />
    <glyph glyph-name="i" unicode="&#xef;" horiz-adv-x="539" 
d="M489 532v-6v-144v-5v-69v-5v-9v-12.5v-15.5v-13q-1 -70 -38 -125q-52 -77 -144 -94q-2 0 -4 -1q-58 -9 -112 12q-66 26 -104 85q-3 3 -4 6q-19 31 -27 66q-2 4 -2 8q-5 27 -4 55q1 18 12 33.5t27 22.5q18 7 37 2.5t31 -19.5q14 -17 16 -34q4 -29 6 -35q12 -35 45 -54
q35 -18 72.5 -6.5t56.5 45.5q12 22 12 64v179v183q0 41 14 57q12 16 32 21.5t38 -1.5q37 -14 40 -56v-2v-9v-50v-5v-69zM463 593q-12 6 -36 16.5t-35 15.5v-46q11 -5 35 -15.5t36 -16.5v46zM392 377v-21q23 -11 71 -32v30v16q-12 5 -36 15.5t-35 16.5v-25zM392 430
q11 -5 35 -15.5t36 -16.5v121q-10 4 -23 10t-26 11.5t-22 10.5v-121zM392 264q-1 -15 -5 -29q23 -10 70 -31q4 19 5 37q1 22 1 54q-8 4 -17.5 8.5t-17.5 8t-18 7.5t-18 8v-63zM411 697q-19 -9 -19 -43q11 -6 35 -16.5t36 -15.5v43q-1 13 -9 22.5t-19 12.5t-24 -3zM378 211
q-10 -20 -26 -35q25 -11 76 -34q12 18 20 37q-23 11 -70 32zM83 200q6 -22 17 -42l68 41q-11 16 -16 34q-11 -6 -34.5 -17t-34.5 -16zM76 265q-2 -16 1 -39q12 6 35.5 17t35.5 16q-5 29 -22 37t-32 -2.5t-18 -28.5zM114 136q39 -54 104 -72v92q-17 7 -30 19q-1 0 -4 3
q-9 -5 -22 -13t-25.5 -15.5zM244 58q21 -2 42 -1h1h2q-2 58 -3 88q-21 -3 -42 2v-89zM315 62q56 14 97 59l-85 38q-5 -3 -9 -5l-6 -2q0 -15 1 -45t2 -45z" />
    <glyph glyph-name="i" unicode="&#xee;" horiz-adv-x="539" 
d="M489 532v-6v-144v-5v-69v-5v-9v-12.5v-15.5v-13q-1 -70 -38 -125q-52 -77 -144 -94q-2 0 -4 -1q-58 -9 -112 12q-66 26 -104 85q-3 3 -4 6q-19 31 -27 66q-2 4 -2 8q-5 27 -4 55q1 18 12 33.5t27 22.5q18 7 37 2.5t31 -19.5q14 -17 16 -34q4 -29 6 -35q12 -35 45 -54
q35 -18 72.5 -6.5t56.5 45.5q12 22 12 64v179v183q0 41 14 57q12 16 32 21.5t38 -1.5q37 -14 40 -56v-2v-9v-50v-5v-69zM463 593q-12 6 -36 16.5t-35 15.5v-46q11 -5 35 -15.5t36 -16.5v46zM392 377v-21q23 -11 71 -32v30v16q-12 5 -36 15.5t-35 16.5v-25zM392 430
q11 -5 35 -15.5t36 -16.5v121q-10 4 -23 10t-26 11.5t-22 10.5v-121zM392 264q-1 -15 -5 -29q23 -10 70 -31q4 19 5 37q1 22 1 54q-8 4 -17.5 8.5t-17.5 8t-18 7.5t-18 8v-63zM411 697q-19 -9 -19 -43q11 -6 35 -16.5t36 -15.5v43q-1 13 -9 22.5t-19 12.5t-24 -3zM378 211
q-10 -20 -26 -35q25 -11 76 -34q12 18 20 37q-23 11 -70 32zM83 200q6 -22 17 -42l68 41q-11 16 -16 34q-11 -6 -34.5 -17t-34.5 -16zM76 265q-2 -16 1 -39q12 6 35.5 17t35.5 16q-5 29 -22 37t-32 -2.5t-18 -28.5zM114 136q39 -54 104 -72v92q-17 7 -30 19q-1 0 -4 3
q-9 -5 -22 -13t-25.5 -15.5zM244 58q21 -2 42 -1h1h2q-2 58 -3 88q-21 -3 -42 2v-89zM315 62q56 14 97 59l-85 38q-5 -3 -9 -5l-6 -2q0 -15 1 -45t2 -45z" />
    <glyph glyph-name="i" unicode="&#xed;" horiz-adv-x="539" 
d="M489 532v-6v-144v-5v-69v-5v-9v-12.5v-15.5v-13q-1 -70 -38 -125q-52 -77 -144 -94q-2 0 -4 -1q-58 -9 -112 12q-66 26 -104 85q-3 3 -4 6q-19 31 -27 66q-2 4 -2 8q-5 27 -4 55q1 18 12 33.5t27 22.5q18 7 37 2.5t31 -19.5q14 -17 16 -34q4 -29 6 -35q12 -35 45 -54
q35 -18 72.5 -6.5t56.5 45.5q12 22 12 64v179v183q0 41 14 57q12 16 32 21.5t38 -1.5q37 -14 40 -56v-2v-9v-50v-5v-69zM463 593q-12 6 -36 16.5t-35 15.5v-46q11 -5 35 -15.5t36 -16.5v46zM392 377v-21q23 -11 71 -32v30v16q-12 5 -36 15.5t-35 16.5v-25zM392 430
q11 -5 35 -15.5t36 -16.5v121q-10 4 -23 10t-26 11.5t-22 10.5v-121zM392 264q-1 -15 -5 -29q23 -10 70 -31q4 19 5 37q1 22 1 54q-8 4 -17.5 8.5t-17.5 8t-18 7.5t-18 8v-63zM411 697q-19 -9 -19 -43q11 -6 35 -16.5t36 -15.5v43q-1 13 -9 22.5t-19 12.5t-24 -3zM378 211
q-10 -20 -26 -35q25 -11 76 -34q12 18 20 37q-23 11 -70 32zM83 200q6 -22 17 -42l68 41q-11 16 -16 34q-11 -6 -34.5 -17t-34.5 -16zM76 265q-2 -16 1 -39q12 6 35.5 17t35.5 16q-5 29 -22 37t-32 -2.5t-18 -28.5zM114 136q39 -54 104 -72v92q-17 7 -30 19q-1 0 -4 3
q-9 -5 -22 -13t-25.5 -15.5zM244 58q21 -2 42 -1h1h2q-2 58 -3 88q-21 -3 -42 2v-89zM315 62q56 14 97 59l-85 38q-5 -3 -9 -5l-6 -2q0 -15 1 -45t2 -45z" />
    <glyph glyph-name="i" unicode="&#xec;" horiz-adv-x="539" 
d="M489 532v-6v-144v-5v-69v-5v-9v-12.5v-15.5v-13q-1 -70 -38 -125q-52 -77 -144 -94q-2 0 -4 -1q-58 -9 -112 12q-66 26 -104 85q-3 3 -4 6q-19 31 -27 66q-2 4 -2 8q-5 27 -4 55q1 18 12 33.5t27 22.5q18 7 37 2.5t31 -19.5q14 -17 16 -34q4 -29 6 -35q12 -35 45 -54
q35 -18 72.5 -6.5t56.5 45.5q12 22 12 64v179v183q0 41 14 57q12 16 32 21.5t38 -1.5q37 -14 40 -56v-2v-9v-50v-5v-69zM463 593q-12 6 -36 16.5t-35 15.5v-46q11 -5 35 -15.5t36 -16.5v46zM392 377v-21q23 -11 71 -32v30v16q-12 5 -36 15.5t-35 16.5v-25zM392 430
q11 -5 35 -15.5t36 -16.5v121q-10 4 -23 10t-26 11.5t-22 10.5v-121zM392 264q-1 -15 -5 -29q23 -10 70 -31q4 19 5 37q1 22 1 54q-8 4 -17.5 8.5t-17.5 8t-18 7.5t-18 8v-63zM411 697q-19 -9 -19 -43q11 -6 35 -16.5t36 -15.5v43q-1 13 -9 22.5t-19 12.5t-24 -3zM378 211
q-10 -20 -26 -35q25 -11 76 -34q12 18 20 37q-23 11 -70 32zM83 200q6 -22 17 -42l68 41q-11 16 -16 34q-11 -6 -34.5 -17t-34.5 -16zM76 265q-2 -16 1 -39q12 6 35.5 17t35.5 16q-5 29 -22 37t-32 -2.5t-18 -28.5zM114 136q39 -54 104 -72v92q-17 7 -30 19q-1 0 -4 3
q-9 -5 -22 -13t-25.5 -15.5zM244 58q21 -2 42 -1h1h2q-2 58 -3 88q-21 -3 -42 2v-89zM315 62q56 14 97 59l-85 38q-5 -3 -9 -5l-6 -2q0 -15 1 -45t2 -45z" />
    <glyph glyph-name="j" unicode="j" horiz-adv-x="584" 
d="M534 136v-4q-3 -15 -12.5 -26.5t-24.5 -14.5q-5 -1 -32 -1h-65h-37q-5 -26 -25 -43t-46 -17t-46 17t-25 43h-120q-21 0 -36.5 13.5t-14.5 34.5q1 18 13 30.5t29.5 14.5t19.5 16l11 147q1 12 3 37t3 37q4 50 8 63q10 36 35 63t58 41q0 24 17 42.5t41 19.5q26 2 45 -15.5
t21 -43.5v-2h1q32 -14 56 -40.5t35 -60.5q5 -15 9 -67l13 -165l1.5 -22t2.5 -33v-2v-2q1 -3 2 -5t2.5 -3t2.5 -2t3.5 -1.5t3.5 -1t4.5 -1t4.5 -0.5q16 -2 26 -13.5t13 -27.5v-5zM288 623q-23 -2 -30 -26q31 6 63 1h1q2 -1 4 -1q-3 12 -13.5 19.5t-24.5 6.5zM292 57
q10 0 19.5 4t15.5 11.5t9 17.5h-88q4 -15 16 -24t28 -9zM473 116q11 0 16.5 0.5t11.5 5.5t7 14q-1 19 -22 21q-16 1 -26 10q-2 2 -4.5 5t-3.5 5t-2.5 6t-2 5.5t-1 6.5t-0.5 6t-0.5 7l-0.5 6l-6 70l-11 145q-4 50 -17 74q-26 49 -80 66q-36 10 -72 1q-47 -12 -76 -50
q-23 -32 -27 -84q0 -1 -10 -134q-1 -13 -3 -38t-3 -38q-3 -35 -4 -39q-7 -26 -40 -30q-19 -3 -19.5 -21t19.5 -20h24h112h27h93h70h51zM203 501q8 0 11.5 -6.5t0 -13t-11.5 -6.5q-5 0 -8 2.5t-4 6.5t0 7.5t4 6.5t8 3zM243 516q5 0 9 -4q3 -3 4 -9q0 -5 -4 -9t-9 -4h-3
q-5 0 -9 4q-3 3 -4 9q0 5 4 9t9 4h3zM236 477q8 0 11 -6.5t0 -13t-11 -6.5t-11.5 6.5t0 13t11.5 6.5z" />
    <glyph glyph-name="k" unicode="k" horiz-adv-x="814" 
d="M750 219q22 -17 12 -43q-1 -1 -2 -3q-7 -13 -22 -18q-33 -13 -80 -30q2 -19 -8.5 -35.5t-28.5 -22.5q-13 -4 -25 -2.5t-22 8.5t-18 17q-12 -4 -13 -5q-8 -3 -21.5 -8t-25 -9t-22.5 -7q-21 -7 -37.5 9t-9.5 38q4 11 14 18q1 1 3 2t4.5 1.5t3.5 1.5l1 1q-3 -1 -2.5 -0.5
t1.5 0.5q2 2 2 3q0 4 -2.5 13.5l-7.5 28.5t-8 29l-3 -12l-3 -12q-7 -24 -20 -72q0 -1 -1 -4.5t-2 -6t-1 -5.5q-1 -9 9 -14q14 -7 20 -19q1 -1 2 -3q4 -11 1.5 -22t-8.5 -19.5t-17 -12.5t-22 -1q-4 0 -18 5q-12 5 -27 10t-30.5 10.5t-26.5 9.5q-12 -18 -32.5 -26t-41.5 0
q-21 7 -32.5 26t-9.5 41q-13 5 -37.5 13.5t-35.5 12.5q-1 1 -6.5 3t-7.5 2.5t-7 2.5t-7 3.5t-5.5 3.5t-5.5 4.5t-4.5 5.5t-4 7t-1.5 8q-4 21 11.5 36t36.5 11q7 -2 12 -1t8 8q1 1 1.5 2.5l1 3t1.5 2.5l32 72t43 96q12 27 14 31q22 37 62 55q23 10 47 11l1 1q7 16 22 25.5
t32 7.5q-34 29 -75 46q-11 4 -9 16q3 22 -9 40q-3 5 -8.5 10l-11 10t-8.5 9q-14 17 -18 49q-6 39 -1 83q1 6 5 10q9 8 17 0q4 -2 4 -7q14 -27 47 -49q6 -4 18.5 -11.5t21.5 -14t16 -13.5q6 -7 12 -18t10.5 -21t9.5 -20.5t12.5 -19t16.5 -13.5q10 -5 5 -17q-14 -32 4 -80
q36 49 29 89q-2 13 9 16q22 5 49 38q27 34 43 45q10 7 22.5 11.5t28 9t24.5 7.5q39 15 61 41q2 4 7 6q10 6 16 -6q3 -5 2 -10q-7 -50 -24 -90q-14 -34 -33 -48q-4 -3 -19 -11t-21 -15q-17 -16 -19 -41q0 -11 -9 -12q-53 -7 -100 -31q19 -7 29 -26q17 -1 33 -7q49 -19 69 -66
q3 -8 13 -29q8 -19 24.5 -56t24.5 -56q1 -2 3.5 -8.5t4.5 -11t5 -7.5q0 -3 11 -1.5t13 1.5q10 -1 19 -8zM422 436q5 -5 10 -9l8 8q-2 6 -2 12q-4 -1 -7 1q-3 -1 -7 -1q0 -6 -2 -11zM464 453q17 9 36 13q-9 8 -21 3.5t-15 -16.5zM578 661q-14 -10 -40 -42t-47 -41
q2 -33 -16 -68q52 29 111 39q7 40 42 61q3 2 11 6t13.5 8t9.5 8q7 9 14 25q11 23 17 53q-16 -11 -37 -20q-6 -3 -35.5 -12t-42.5 -17zM296 633q24 -25 22 -61q47 -20 84 -54q-7 31 2 58q-17 12 -32 45t-25 44t-34 25t-29 19q-14 10 -24 21q0 -26 3 -46q3 -16 8 -24
q3 -5 7 -9.5t9.5 -9.5t8.5 -8zM399 454q-1 17 -19 24t-30 -7q27 -4 49 -17zM222 37q24 -9 41 10q-10 4 -31.5 11.5t-32.5 11.5q1 -25 23 -33zM406 194l6 24.5t10 36.5q0 2 -1 6q-16 56 -18 73q-1 7 -1 13q-1 30 14 58q-32 40 -84 41t-86 -37q-6 -7 -11.5 -17t-9 -17.5
t-9 -20t-7.5 -18.5q-6 -12 -13 -29t-13.5 -31t-13 -29t-13.5 -30.5t-14 -29.5q-10 -21 -31 -23q-2 0 -13 1.5t-16.5 -1t-5.5 -11.5q0 -10 10 -15l42 -15q29 -10 87.5 -31t87.5 -31q8 -3 32 -11.5t38 -13.5l17 -6q11 -4 18 2t4 17q-3 5 -13 11t-14 11q-8 13 -4 30q0 2 0.5 4
l1 4t1.5 4.5t1 3.5q4 13 10.5 38.5t10.5 38.5zM423 254q0 -1 1 -1q-1 0 -1 1zM582 99q12 -13 29.5 -6.5t20.5 23.5q-8 -3 -24.5 -8.5zM681 162q9 3 38 13q15 6 18 11q2 7 -2 11t-12 3q-16 -2 -24 1q-11 5 -17 18l-16 36q-6 13 -13 28.5t-12.5 27.5t-12.5 27.5t-12 28.5
q-14 30 -19 36q-28 40 -77 39q-27 -1 -50 -16q-17 -11 -28 -29q-10 -16 -13 -35q-3 -20 7 -56q2 -8 5 -16q6 -25 7 -26q1 -5 4 -16t4 -16l16 -58q8 -28 8 -31q1 -7 -0.5 -14t-6 -12.5t-11.5 -8.5l-6 -2q1 0 -0.5 -1.5t-2.5 -3.5l-1 -2q-2 -6 2 -10.5t10 -3.5q1 0 17 6
q7 2 89 32q19 6 56 19t55 20zM465 356q8 0 11 -6.5t0 -13t-11 -6.5t-11.5 6.5t0 13t11.5 6.5zM500 354q-4 -2 -10 1q-4 2 -6 8q-2 5 1 10q3 4 8 6h0.5h1.5q4 2 10 -1q4 -2 6 -8q1 -5 -2 -10q-2 -4 -7 -6h-1.5h-0.5zM501 341q8 0 11 -6.5t0 -13t-11 -6.5t-11.5 6.5t0 13
t11.5 6.5zM303.5 373q12.5 0 12.5 -13t-12.5 -13t-12.5 13t12.5 13zM270 400q5 -2 7.5 -6.5t1.5 -9.5t-6 -8t-10 -2q-1 1 -2 1q-5 2 -7.5 6t-1.5 10q1 5 6 8t10 1h2zM261.5 356q7.5 0 11 -6.5t0 -13t-11 -6.5t-11 6.5t0 13t11 6.5z" />
    <glyph glyph-name="l" unicode="l" horiz-adv-x="643" 
d="M466 155q7 -22 7 -26q2 -15 -8.5 -27t-25.5 -13q-12 0 -30 13q-11 8 -34 25t-35 25l-2 2q-6 4 -9.5 5t-10.5 -2l-27 -19q-6 -5 -17.5 -14t-21.5 -16t-19 -12q-13 -9 -28 -5.5t-23 17.5q-8 13 -1 35l27 81q6 18 1 23q-2 3 -6 6t-9.5 6t-7.5 5q-7 5 -19.5 14t-23 16.5
t-19.5 14.5q-22 17 -13.5 41t35.5 24q9 1 20 1h20t20.5 -0.5t19.5 -0.5h24q2 1 4 2.5t3.5 3t2.5 4t1.5 4.5t1.5 5t1 5q3 8 8.5 24.5t9.5 30t8 25.5q8 22 26 27q13 4 24.5 -2t17.5 -19q1 -1 2 -3v-1q1 -3 2.5 -7t2.5 -8t2 -7q3 -8 7.5 -24t8.5 -28.5t9 -23.5q3 -8 18 -8h43
h43q22 0 31 -6q12 -7 15 -21.5t-4 -26.5q-4 -6 -22 -19q-40 -29 -69 -50q-10 -7 -7 -17q1 -5 3 -11t4.5 -13t3.5 -11q2 -7 7 -22t8 -22zM447 122q1 3 -5 22q-7 20 -14 41q-1 4 -5.5 16t-6 17.5t-3.5 18.5t2 17q4 9 22 22q1 0 33 24q16 12 33 24q1 0 4.5 2.5t5 4t3 4t1.5 4.5
q-1 9 -19 9h-39h-42q-21 0 -26 2q-9 2 -15.5 10.5t-9 14t-7 20.5t-4.5 17q-9 25 -21 62q-3 8 -9.5 6t-8.5 -9l-25 -74q0 -2 -1 -5q-5 -14 -8 -21t-11.5 -14.5t-21.5 -8.5h-18.5h-18.5h-18.5h-18.5q-3 0 -9 0.5t-11 0.5t-10 -1q-7 0 -10 -5.5t2 -10.5q3 -3 6.5 -5.5t8 -5.5
l7.5 -5q6 -5 18.5 -14t16.5 -12q2 -1 12.5 -8t14 -10.5t9.5 -10t7.5 -13.5t0.5 -15q-2 -10 -5.5 -20.5t-8 -23.5t-7.5 -20q-1 -6 -5 -17.5t-6 -16.5q-3 -7 -0.5 -14.5t11.5 -4.5q1 1 18 13q6 5 17.5 13t17.5 13q3 2 9.5 7t10.5 8t11 7.5t11.5 6t12 3t12.5 -1.5q5 -2 21 -14
q6 -4 18 -12.5t17 -13.5q6 -3 16.5 -11t15.5 -11q18 -13 22 -1zM284.5 340q7.5 0 11 -6.5t0 -13t-11 -6.5t-11 6.5t0 13t11 6.5zM269 301q8 0 11 -6.5t0 -13.5t-11 -7t-11.5 7t0 13.5t11.5 6.5zM308 312q8 0 11.5 -6.5t0 -13t-11.5 -6.5t-11 6.5t0 13t11 6.5zM157 455
q-40 43 -60 64q-6 6 -3.5 13t9 9t12.5 -3q10 -11 30 -32.5t30 -31.5q3 -4 3.5 -8.5t-1.5 -7.5t-5.5 -5t-7.5 -1.5t-7 3.5zM204 499l-14 21q-6 10 5 18q11 7 18 -5q12 -18 13 -21q7 -10 -5 -18q-10 -6 -17 5zM343 557q0 -8 -6.5 -11.5t-13 0t-6.5 11.5v95q0 8 6.5 11.5t13 0
t6.5 -11.5v-95zM415 473q-9 -9 -18 0q-4 4 -4 9.5t4 9.5q4 3 11 9.5t11 9.5q10 9 19 0q3 -3 3 -9t-3 -9q-4 -4 -11.5 -10.5t-11.5 -9.5zM448 420q-6 -5 -12 -1t-6.5 11t5.5 12t14 10.5t14 9.5t14 9.5t14 10.5q7 4 13 0t6 -10.5t-6 -12.5zM584 233q7 -3 8.5 -10t-3.5 -12.5
t-12 -3.5q-13 4 -37.5 11t-37.5 11q-7 2 -8.5 9t3 12.5t12.5 3.5t18.5 -5t19 -5.5t18.5 -5.5t19 -5zM530 193q12 -5 9 -16q-1 -5 -6 -8t-10 -1q-6 2 -16.5 6.5t-16.5 6.5q-12 5 -9 16q1 5 6 8t10 1q6 -2 16.5 -6.5t16.5 -6.5zM300 106q1 8 7.5 11t13 0t6.5 -11
q-1 -44 -1 -66q0 -4 -3 -7.5t-7 -4t-7.5 0t-6.5 4t-3 7.5q1 44 1 66zM378 79q6 -9 17 -26q3 -5 1.5 -10.5t-5.5 -7.5q-11 -7 -18 4q-3 5 -8.5 13.5t-8.5 13t-1.5 10t6.5 7.5q10 7 17 -4zM255 81q4 7 11.5 6t11 -6.5t0.5 -12.5q-5 -7 -13.5 -21t-12.5 -21t-11.5 -6.5t-11 6.5
t-0.5 13q5 7 13.5 21t12.5 21zM151 242q7 4 13 -0.5t6 -11t-6 -11.5q-16 -8 -47.5 -24.5t-46.5 -24.5q-7 -4 -13.5 0.5t-6.5 11t7 11.5q17 9 49 25.5t45 23.5zM67 277q-8 2 -9 9.5t3.5 13t12.5 2.5q6 -2 17.5 -5.5t17.5 -5.5q8 -2 9 -9.5t-3.5 -12.5t-12.5 -3
q-6 2 -17.5 5.5t-17.5 5.5zM155 189q5 -2 6.5 -8t-1.5 -10q-4 -6 -13 -18q-8 -10 -18 -5q-5 3 -6.5 8.5t1.5 9.5q11 15 13 18q8 11 18 5z" />
    <glyph glyph-name="m" unicode="m" horiz-adv-x="880" 
d="M565 599q8 -8 10 -19.5t-4 -20.5q-3 -5 -18 -16q-6 -4 -17 -12t-20 -14.5t-17 -12.5q-5 -4 -3 -12q2 -4 3.5 -9t3.5 -11t3 -10q4 -11 11 -33q5 -16 4 -23q-1 -12 -10.5 -20t-21.5 -7q-8 0 -22 10q-9 7 -27 20t-27 20q-9 6 -15 2l-23 -17q-20 -14 -29 -21q-15 -11 -18 -12
q-11 -4 -22.5 0.5t-16.5 15t0 27.5q4 11 11 32t10 32q4 11 1 14q-2 3 -6 6t-9 6t-7 4q-45 33 -46 34q-17 15 -8.5 34t30.5 20h65q17 0 19 3l6 18l6 18t7 22t6 19q8 21 28 22t30 -18q1 -2 1 -3q1 -1 1 -2q1 -3 2.5 -8.5t2.5 -7.5l12 -36q0 -2 1 -4.5t1.5 -5l1 -5t1.5 -5
t2 -4.5q3 -3 14 -3h34q4 0 11.5 0.5t13 0.5t12.5 -0.5t12.5 -2.5t9.5 -5zM514 547q1 1 6 4t10 6.5t10 7.5t7.5 7.5t1.5 5.5t-15 2h-33q-3 0 -12 -0.5t-15 -0.5t-13.5 1t-12.5 3q-5 3 -9.5 10t-6.5 11.5t-5 15t-4 12.5q-2 8 -7 24t-8 24q-3 4 -5.5 1.5t-4.5 -6.5
q-3 -8 -6 -18t-7 -22l-6 -18q-4 -12 -6.5 -18.5t-10 -12.5t-17.5 -6h-56q-30 0 -30 -4q-1 -2 1 -4.5t5 -4.5t7.5 -4.5t5.5 -3.5l29 -21q1 -1 6 -4.5t6.5 -4.5t6 -5t5.5 -5.5t4.5 -6t3 -6.5t1 -7.5t-1.5 -8.5l-15 -48l-9 -26q-2 -5 -1 -8.5t7 -0.5l16 11q4 3 13 9.5t14 9.5
q2 2 7.5 6t8.5 6.5t8.5 5.5t9.5 4t9 1t10 -3q7 -3 14 -7.5t15.5 -12t12.5 -10t12 -8.5t13 -9q12 -9 12 0l-5 16q-1 6 -10 33q-1 1 -5 12t-5 16t-1 13t4 14q3 6 10 12t18 13t13 8zM813 365q0 -1 3 -4t4 -4.5t4 -4.5t3 -4.5t2 -5.5t1 -5.5t-1 -5.5q-6 -22 -36 -16
q0 1 -15.5 3.5t-22.5 4.5q-1 -1 -2 -4l-2 -2l-10 -18q-1 -1 -3 -4.5t-3 -6t-3.5 -5.5t-4 -5t-4.5 -4t-6 -2q-12 -4 -20.5 4t-9.5 21q-4 39 -4 41v1h-3q-2 0 -5.5 1l-7 2t-5.5 1q-2 1 -11 2t-14.5 3t-9.5 5q-11 8 -9 21t13 19l37 16l1 1q6 3 6 2v4t-1 5.5t-1 4.5l-3 35
q-1 15 10.5 21t24.5 0q3 -1 5 -4q1 -1 3 -2q17 -20 25 -28l2 -2t2 -3q3 2 10 4.5l7 2.5l10 5t11.5 5t11.5 3.5t11 -0.5q27 -10 8 -42q0 -1 -7.5 -14t-11.5 -19l2 -2t2 -2.5t2 -2.5q5 -5 15 -16zM791 388zM696 457h1h-1zM683 339zM710 298l-1 -1zM782 345q3 -1 16 -4
q-1 1 -2.5 3l-1.5 2l-12 14q-1 1 -4 4.5t-4.5 4.5t-3.5 4t-3 5t-1.5 5.5t-0.5 6.5q1 5 14 27l9 17q-5 -2 -13 -5.5l-8 -3.5q-23 -10 -31 -8q-3 0 -6 2t-5.5 4.5l-4.5 4.5t-4.5 5t-4.5 5q-2 3 -7 8.5t-7 7.5v-3l2 -23q2 -9 1 -19.5t-9 -16.5q-2 -2 -32 -15q-1 0 -3.5 -1.5
t-4.5 -2.5q7 -1 18.5 -4t13.5 -4q23 -4 25 -23q1 -4 1.5 -9t1 -11t0.5 -9q1 -2 1.5 -5t0.5 -4q1 1 2 3l2 3q8 14 10 17l1.5 2.5t2 4t2 3.5t2.5 3l2.5 2.5l2.5 2.5t3 2t4 1.5t4 1.5q4 0 31 -5zM540 133q2 -1 8 -6t9 -8t6.5 -8t4.5 -9q3 -14 -7 -21.5t-24 -5.5q-8 1 -24 2
q-1 0 -5 1t-6 1h-6q-1 -1 -2 -4l-8 -18q-1 -2 -3.5 -8t-4 -9.5t-4.5 -8t-6 -6.5q-12 -7 -22.5 -1.5t-13.5 18.5q-2 5 -3.5 12t-3 15t-2.5 12q0 1 -0.5 2.5t-0.5 2.5q-3 0 -8.5 1t-6.5 1q-35 3 -37 4q-15 5 -16 20t11 23l31 18q1 0 2.5 1l3 2t3 1.5t1.5 1.5t-0.5 3l-1 4
t-0.5 3l-8 35q-2 16 10.5 25t26.5 0q1 -1 27 -24l4.5 -4.5t5.5 -4.5h1q0 1 4 3l2 1q4 2 8.5 5t8 5t8 4.5t8.5 4.5q8 4 15 3t12 -4.5t7.5 -10.5t0.5 -15q0 -2 -2 -4q-2 -6 -7.5 -18.5t-8.5 -18.5q0 -1 -1 -2.5t-1 -2.5h1t4 -2.5t6 -6t4 -4.5zM470 195zM407 159zM376 117h1h-1
zM490 105q3 0 31 -3h5h5.5t4.5 -1q0 1 -2 2l-1 2q-5 4 -15 13q-1 1 -3.5 3t-4 3.5t-3.5 3t-3 3.5l-2 4l-2 4t-1 5q-1 6 10 31q2 3 4.5 9t3.5 9l-1 -1q-2 -1 -3 -1l-20 -12q-6 -4 -9 -5t-8.5 -3t-10 -1.5t-9.5 4.5q-1 1 -26 23q-1 0 -3 2t-4 3q1 -3 4 -13t3.5 -15.5t1 -13.5
t-2.5 -14t-9 -10q-3 -1 -6 -3l-6 -4t-6 -3.5t-6 -3.5t-6 -3l-3 -3q5 0 16.5 -1.5t14.5 -1.5q24 -3 29 -19l6 -29q0 -1 0.5 -2.5t1.5 -3.5t1 -4q1 2 2.5 4.5t1.5 3.5q1 2 8 17q0 1 1 2q8 20 21 23zM254 311q11 2 20 -4t11 -15t-3 -20l-2 -2v0q-6 -7 -16.5 -19.5t-13.5 -16.5
l-1 -1q-4 -3 -4 -5v-1l12 -18q1 -2 6 -9t8 -11.5t5 -11t2 -11.5q-1 -10 -8.5 -16.5t-17.5 -6.5q-4 0 -16 5l-25 10l-17 7q-3 0 -7 -4t-8.5 -10.5t-5.5 -7.5q-1 -2 -5.5 -8t-7.5 -9t-7.5 -6.5t-9.5 -4.5q-14 -3 -22.5 6.5t-7.5 23.5q3 42 3 46q1 3 1 5l-1 1l-19 7q-3 2 -12 5
t-15.5 5.5t-10.5 6.5q-12 11 -8 25t19 19l43 10l4 1.5t4.5 1t0.5 -1.5l2 17q0 4 0.5 12t1 14.5t0.5 12.5q2 18 19 22.5t28 -10.5q3 -5 6.5 -10.5t7.5 -12.5t6 -10l3 -6t5 -8l1 1h2q2 1 6 1q2 1 3 1zM239 262q12 14 19 23q-2 -1 -5 -2l-3 -1q-10 -2 -24 -5q-1 -1 -6 -2.5
t-7 -1.5t-6.5 -1t-7 -0.5t-6 1t-6.5 3t-5 5.5q-2 1 -22 33q0 2 -3.5 6t-4.5 6v-1l-3 -42q-2 -25 -19 -30q-5 -2 -11 -3.5t-13.5 -3t-11.5 -2.5q-1 -1 -3.5 -1.5t-5 -1.5t-4.5 -1q1 -1 3 -2t3.5 -1.5t3.5 -1.5t3 -2q3 -1 6.5 -2.5t7.5 -3t6 -2.5q1 0 3 -1q5 -2 7 -3l6 -3
t6 -4t4 -5.5t3 -7.5q0 -3 -2 -34l-2 -22v-3q2 1 5 6l2 3l15 17q1 2 4.5 6t5 6t5 5t6.5 4.5t7 2.5q4 0 9.5 -1t9 -2.5t9 -4t8.5 -3.5q26 -11 27 -13q0 2 -4.5 8.5t-9 13.5l-4.5 7q-1 1 -5 7.5t-5.5 9t-3.5 7.5t-1 10q0 4 2.5 8.5t5 7.5t7 8t5.5 7zM378 574q8 0 11.5 -6.5
t0 -13t-11.5 -6.5t-11 6.5t0 13t11 6.5zM369 536q5 0 10 -4q3 -4 3 -9v-1q0 -6 -3 -10q-4 -3 -10 -4q-5 0 -9 4t-4 10v1q0 5 4 9q3 4 9 4zM406 550q5 1 9 -4q4 -3 4 -9v-1q0 -5 -4 -9q-3 -4 -9 -4q-5 0 -9 4t-4 9v1q0 5 4 9q3 4 9 4zM154 255q8 0 11 -6.5t0 -13t-11 -6.5
q-5 0 -8.5 2.5t-4 6.5t0 7.5t4 6.5t8.5 3z" />
    <glyph glyph-name="n" unicode="n" 
d="M1042 617q-24 -10 -50 -19q7 -9 22 -26.5t22 -26.5q4 2 6 4q8 5 14 8.5t13.5 5.5t14.5 -0.5t13 -10.5q1 0 1.5 -1l0.5 -1q8 -12 5 -23q19 -11 40 -40q37 -54 33 -97q-2 -19 -14 -31.5t-30 -11.5q-36 1 -75 43q-37 39 -44 75q-18 3 -23.5 22t9.5 32q6 6 14 11
q-41 50 -48 58q-179 -60 -366 -63v-73h5q16 0 19 -1q21 -3 26 -26v-4v-4q-1 -12 -9 -18q9 -21 10 -55q-1 -63 -27 -97q-11 -15 -26.5 -19.5t-32.5 4.5q-30 18 -39 74q-10 57 6 93q-14 12 -7.5 31.5t27.5 21.5h22v73q-103 1 -203 19q-52 10 -103 25q-5 -13 -15 -38.5
t-15 -38.5h1l17 -7q21 -11 17 -34q0 -2 -1 -4q0 -3 -2 -5q-5 -9 -15 -13q1 -24 -10 -54q-24 -56 -58 -79q-16 -11 -32 -11t-30 13q-25 28 -11 90q12 53 40 80q-8 17 5 33t33 9q9 -2 22 -8q6 15 29 74q-74 23 -145 54q-65 30 -102 54q-7 4 -6 12t6.5 11t12.5 0
q46 -30 124 -64q156 -66 323.5 -85t333.5 11q141 27 270 84q65 29 102 54q7 4 13 0t6.5 -11t-5.5 -12q-48 -31 -134 -67zM179 322q24 20 40 60q11 28 11 44q-5 1 -9.5 3t-10.5 4.5t-9 3.5q-2 1 -13.5 5t-16.5 7q-19 -18 -30 -63q-12 -47 2 -68q11 -17 36 4zM247 454
q1 2 -0.5 4.5t-4.5 4.5t-7.5 4t-8 3t-7.5 2t-6 2q-1 0 -5 2l-8 4t-9 4t-8 2t-5 -2t0 -5t7 -5t9.5 -4t10 -3.5t6.5 -2.5l4.5 -2t8.5 -3.5t10 -4t9 -2.5t4 2zM608 269q16 28 17 75q-1 28 -7 43q-2 -1 -16 -0.5t-16 0.5t-15.5 -0.5t-15.5 0.5q-11 -26 -5 -70t25 -60
q17 -15 33 12zM624 421q0 2 -3.5 3.5t-9 2t-10.5 0t-10 -0.5h-6h-3.5h-6t-7 0.5t-7 0t-6.5 -1t-5 -1.5t-1 -3q0 -3 3 -4.5t8.5 -1.5h10.5t9.5 0.5t5.5 0.5t6 -0.5t10 -0.5t10 0.5t8.5 1.5t3.5 4zM1129 373q12 -2 17 6t5 22q-2 32 -30 73q-15 21 -29 30q-5 -4 -15.5 -10.5
t-11.5 -7.5t-10.5 -7.5t-14.5 -9.5q5 -26 35 -59q29 -32 54 -37zM1064 532q-4 -2 -11 -7t-10 -7q-1 -1 -5.5 -3.5t-8 -5t-8.5 -6.5t-5.5 -6.5t0.5 -4.5q2 -2 5 -1t6 2.5t7 4.5t7 5.5t5.5 4.5t3.5 3t5 3t8 4.5t7.5 5.5t5.5 6t1 5q-4 4 -13 -3z" />
    <glyph glyph-name="n" unicode="&#xf1;" 
d="M1042 617q-24 -10 -50 -19q7 -9 22 -26.5t22 -26.5q4 2 6 4q8 5 14 8.5t13.5 5.5t14.5 -0.5t13 -10.5q1 0 1.5 -1l0.5 -1q8 -12 5 -23q19 -11 40 -40q37 -54 33 -97q-2 -19 -14 -31.5t-30 -11.5q-36 1 -75 43q-37 39 -44 75q-18 3 -23.5 22t9.5 32q6 6 14 11
q-41 50 -48 58q-179 -60 -366 -63v-73h5q16 0 19 -1q21 -3 26 -26v-4v-4q-1 -12 -9 -18q9 -21 10 -55q-1 -63 -27 -97q-11 -15 -26.5 -19.5t-32.5 4.5q-30 18 -39 74q-10 57 6 93q-14 12 -7.5 31.5t27.5 21.5h22v73q-103 1 -203 19q-52 10 -103 25q-5 -13 -15 -38.5
t-15 -38.5h1l17 -7q21 -11 17 -34q0 -2 -1 -4q0 -3 -2 -5q-5 -9 -15 -13q1 -24 -10 -54q-24 -56 -58 -79q-16 -11 -32 -11t-30 13q-25 28 -11 90q12 53 40 80q-8 17 5 33t33 9q9 -2 22 -8q6 15 29 74q-74 23 -145 54q-65 30 -102 54q-7 4 -6 12t6.5 11t12.5 0
q46 -30 124 -64q156 -66 323.5 -85t333.5 11q141 27 270 84q65 29 102 54q7 4 13 0t6.5 -11t-5.5 -12q-48 -31 -134 -67zM179 322q24 20 40 60q11 28 11 44q-5 1 -9.5 3t-10.5 4.5t-9 3.5q-2 1 -13.5 5t-16.5 7q-19 -18 -30 -63q-12 -47 2 -68q11 -17 36 4zM247 454
q1 2 -0.5 4.5t-4.5 4.5t-7.5 4t-8 3t-7.5 2t-6 2q-1 0 -5 2l-8 4t-9 4t-8 2t-5 -2t0 -5t7 -5t9.5 -4t10 -3.5t6.5 -2.5l4.5 -2t8.5 -3.5t10 -4t9 -2.5t4 2zM608 269q16 28 17 75q-1 28 -7 43q-2 -1 -16 -0.5t-16 0.5t-15.5 -0.5t-15.5 0.5q-11 -26 -5 -70t25 -60
q17 -15 33 12zM624 421q0 2 -3.5 3.5t-9 2t-10.5 0t-10 -0.5h-6h-3.5h-6t-7 0.5t-7 0t-6.5 -1t-5 -1.5t-1 -3q0 -3 3 -4.5t8.5 -1.5h10.5t9.5 0.5t5.5 0.5t6 -0.5t10 -0.5t10 0.5t8.5 1.5t3.5 4zM1129 373q12 -2 17 6t5 22q-2 32 -30 73q-15 21 -29 30q-5 -4 -15.5 -10.5
t-11.5 -7.5t-10.5 -7.5t-14.5 -9.5q5 -26 35 -59q29 -32 54 -37zM1064 532q-4 -2 -11 -7t-10 -7q-1 -1 -5.5 -3.5t-8 -5t-8.5 -6.5t-5.5 -6.5t0.5 -4.5q2 -2 5 -1t6 2.5t7 4.5t7 5.5t5.5 4.5t3.5 3t5 3t8 4.5t7.5 5.5t5.5 6t1 5q-4 4 -13 -3z" />
    <glyph glyph-name="o" unicode="o" horiz-adv-x="1178" 
d="M1177 390q-2 -19 -14 -31.5t-30 -11.5q-36 1 -75 43q-36 39 -43 75q-19 3 -24.5 22t9.5 32q6 6 15 11q-8 10 -24.5 29.5t-24.5 28.5q-179 -60 -366 -63v-73h5q16 0 19 -1q22 -3 26 -26q0 -2 0.5 -4t-0.5 -4q-1 -12 -8 -18q9 -21 9 -55q-1 -63 -26 -97q-12 -15 -27.5 -20
t-32.5 5q-30 18 -39 74q-10 57 6 93q-14 12 -7 31.5t27 21.5h22v73q-103 1 -202 19q-52 10 -104 25q-5 -13 -15 -38.5t-15 -38.5h1q17 -7 18 -7q20 -11 17 -34q-1 -2 -1 -4q-1 -3 -3 -5q-5 -9 -15 -13q1 -24 -10 -54q-23 -56 -58 -79q-15 -11 -31.5 -11t-30.5 13
q-24 28 -10 90q11 53 39 80q-8 17 5.5 33t32.5 9q9 -2 22 -8q5 13 14.5 37.5t14.5 36.5q-74 23 -144 54q-66 30 -103 54q-6 4 -5.5 12t6 11t12.5 0q46 -30 125 -64q155 -66 322.5 -85t333.5 11q142 27 270 84q65 29 103 54q6 4 12.5 0t6.5 -11t-6 -12q-48 -31 -133 -67
q-24 -10 -51 -19q7 -9 22 -26.5t22 -26.5q4 2 6 4q11 7 18.5 11t18 3t19.5 -11l0.5 -1t1.5 -1q8 -12 5 -23q18 -11 39 -40q37 -54 33 -97zM179 322q24 20 41 60q10 28 10 44q-5 1 -9.5 3t-10 4.5t-8.5 3.5q-2 1 -13.5 5t-17.5 7q-19 -18 -30 -63q-12 -47 2 -68q11 -17 36 4z
M247 454q1 3 -1 6t-7 5t-9.5 3.5t-9.5 3t-6 2.5q-1 0 -5.5 2t-8.5 4t-9 4t-8 2t-5 -2t0 -5t7 -5l10 -4t10 -3.5t6 -2.5l4.5 -2t8.5 -3.5t10 -4t9 -2.5t4 2zM608 269q16 28 17 75q0 28 -7 43q-2 -1 -16 -0.5t-15 0.5q-2 0 -15.5 -0.5t-16.5 0.5q-11 -26 -5 -70q7 -44 25 -60
q17 -15 33 12zM624 421q0 2 -3.5 3.5t-9 2t-10.5 0t-10 -0.5h-6h-3.5h-5.5t-7 0.5t-7.5 0t-6.5 -1t-4.5 -1.5t-1.5 -3q0 -3 3 -4.5t8.5 -1.5h10.5t10 0.5t5.5 0.5t5.5 -0.5t10 -0.5t10.5 0.5t8.5 1.5t3 4zM1064 532l-8.5 -5.5t-12.5 -8.5q0 -1 -5 -3.5t-8.5 -5t-8.5 -6.5
t-5.5 -6.5t1.5 -4.5q1 -2 4 -1t6 2.5t7 4.5t7 5.5t6 4.5t3 3q1 0 5 2.5l8 5t8 5.5t6 6t1 5q-4 4 -14 -3zM1129 373q12 -2 17.5 6t4.5 22q-2 32 -30 73q-15 21 -29 30q-5 -4 -15 -10.5t-12 -7.5q-1 -1 -10.5 -7.5t-14.5 -9.5q5 -26 35 -59q29 -32 54 -37zM120 484
q-10 -5 -18 5q-9 12 -26 35q-3 4 -1.5 9.5t5.5 8.5q10 6 18 -5q9 -11 26 -35q3 -4 1.5 -9.5t-5.5 -8.5zM329 442q8 3 12.5 -2t3.5 -12.5t-9 -10.5q-4 -2 -10 -4l-10.5 -3.5l-10.5 -3.5t-10 -4q-8 -3 -12.5 2.5t-3.5 13t9 9.5q7 3 20.5 8t20.5 7zM286 360q29 -24 33 -27
q4 -4 4 -9.5t-4 -9.5q-8 -8 -18 0q-6 5 -17 14t-16 14q-4 3 -4 9t4 9q8 9 18 0zM236 276q16 -42 38 -97q3 -8 -2 -12.5t-12.5 -3.5t-10.5 9q-5 14 -12 31t-14 35t-12 31q-3 7 2 12t12.5 3.5t10.5 -8.5zM175 253q2 -5 4 -17t4 -17q1 -8 -4.5 -13t-12.5 -3.5t-9 9.5
q-1 5 -3.5 17t-3.5 17q-1 8 4.5 13t12.5 3.5t8 -9.5zM95 270q6 6 13 3.5t9 -9t-3 -13.5q-33 -31 -71 -54q-7 -4 -13 0t-6 10.5t6 11.5q35 22 65 51zM38 344q29 -2 42 -2q5 0 8 -3t4 -7t0 -7.5t-4 -6t-8 -2.5q-6 0 -13.5 0.5t-15 0.5h-13.5q-8 1 -11 7.5t0 13t11 6.5zM98 430
q10 -8 0 -17q-9 -9 -19 -2q-22 17 -65 52q-11 8 -1 17q10 8 19 1zM615 196q11 -35 14 -45q3 -8 -2.5 -13t-12.5 -3.5t-9.5 9t-7 23t-7 23t3 12t12.5 3.5t9 -9zM664 212q51 -50 76 -74q3 -4 3.5 -8t-1.5 -7.5t-5.5 -5.5t-7.5 -1.5t-8 3.5q-12 13 -37.5 37.5t-37.5 36.5
q-4 4 -4.5 8t2 7.5t5.5 5.5t7.5 1.5t7.5 -3.5zM741 291q8 0 11 -7t0 -13.5t-11 -5.5q-7 0 -61 1q-5 0 -8.5 2.5t-4 6.5t0 8t4 6.5t8.5 2.5zM758 418q7 4 13.5 -0.5t6.5 -11t-6 -10.5q-43 -23 -82 -53q-11 -8 -17 4q-6 11 4 19q38 29 81 52zM452 394q-11 8 -5 18q3 4 8 5.5
t10 -1.5q2 -1 10 -7t13 -9q10 -8 5 -18q-3 -5 -8.5 -6.5t-9.5 1.5q-12 8 -23 17zM495 336q8 1 11 -5t0 -13t-11 -8q-39 -4 -79 -2q-8 0 -11 7t0 13t11 6q40 -2 79 2zM497 264q13 4 15 -10q3 -12 -8 -15l-42 -15q-7 -2 -12 3t-3.5 12.5t8.5 9.5zM530 213q4 7 10.5 7t11 -6.5
t1.5 -13.5q-5 -11 -20 -43t-23 -50q-4 -6 -10.5 -6t-11 6t-1.5 14q6 13 14 29.5t15.5 33.5t13.5 29zM1172 309q2 -10 26 -136q1 -7 -4.5 -12t-12.5 -3.5t-8 8.5q-11 58 -26 136q-1 8 4.5 13t12.5 3.5t8 -9.5zM1245 339q4 -3 3.5 -8.5t-3.5 -9.5q-8 -8 -19 0q-12 10 -29 14
q-7 2 -8.5 9t3.5 12.5t12 3.5q22 -5 41 -21zM1279 440q8 3 13 -2.5t3.5 -13t-9.5 -9.5q-5 -1 -10.5 -2.5t-10.5 -3l-10 -3t-10.5 -3t-10.5 -2.5q-8 -2 -13 3.5t-3.5 12.5t9 9t17 4.5t19 5.5t16.5 4zM1207 472q-10 -8 -16 4q-6 11 3 19q39 30 84 49q12 5 18 -7q6 -11 -5 -16
q-45 -19 -84 -49zM1168 528q-4 -7 -12 -6t-11 6.5t1 12.5q24 35 36 52q5 7 12.5 6t10.5 -6.5t0 -12.5q-25 -35 -37 -52zM1050 347q5 7 11.5 7t10.5 -6.5t0 -13.5q-32 -55 -47 -117q-2 -8 -9 -9.5t-12.5 3.5t-3.5 13q16 65 50 123zM981 446q8 0 11.5 -6t0 -13t-11.5 -7
q-35 -1 -70 -10q-7 -2 -12 3.5t-3.5 12.5t8.5 9q38 10 77 11zM999 389q3 -4 3.5 -9.5t-3.5 -9.5q-14 -11 -28 -23q-10 -8 -18 0q-4 4 -4 9.5t4 9.5q13 11 27 23q10 8 19 0zM1108 325q12 -3 10 -16q-1 -4 -3 -13.5t-3 -14.5q0 -3 -3 -5.5t-6.5 -3.5t-6.5 0q-11 4 -9 16
q1 5 2.5 14.5t2.5 13.5q1 5 6 8t10 1z" />
    <glyph glyph-name="o" unicode="&#xf8;" horiz-adv-x="1178" 
d="M1177 390q-2 -19 -14 -31.5t-30 -11.5q-36 1 -75 43q-36 39 -43 75q-19 3 -24.5 22t9.5 32q6 6 15 11q-8 10 -24.5 29.5t-24.5 28.5q-179 -60 -366 -63v-73h5q16 0 19 -1q22 -3 26 -26q0 -2 0.5 -4t-0.5 -4q-1 -12 -8 -18q9 -21 9 -55q-1 -63 -26 -97q-12 -15 -27.5 -20
t-32.5 5q-30 18 -39 74q-10 57 6 93q-14 12 -7 31.5t27 21.5h22v73q-103 1 -202 19q-52 10 -104 25q-5 -13 -15 -38.5t-15 -38.5h1q17 -7 18 -7q20 -11 17 -34q-1 -2 -1 -4q-1 -3 -3 -5q-5 -9 -15 -13q1 -24 -10 -54q-23 -56 -58 -79q-15 -11 -31.5 -11t-30.5 13
q-24 28 -10 90q11 53 39 80q-8 17 5.5 33t32.5 9q9 -2 22 -8q5 13 14.5 37.5t14.5 36.5q-74 23 -144 54q-66 30 -103 54q-6 4 -5.5 12t6 11t12.5 0q46 -30 125 -64q155 -66 322.5 -85t333.5 11q142 27 270 84q65 29 103 54q6 4 12.5 0t6.5 -11t-6 -12q-48 -31 -133 -67
q-24 -10 -51 -19q7 -9 22 -26.5t22 -26.5q4 2 6 4q11 7 18.5 11t18 3t19.5 -11l0.5 -1t1.5 -1q8 -12 5 -23q18 -11 39 -40q37 -54 33 -97zM179 322q24 20 41 60q10 28 10 44q-5 1 -9.5 3t-10 4.5t-8.5 3.5q-2 1 -13.5 5t-17.5 7q-19 -18 -30 -63q-12 -47 2 -68q11 -17 36 4z
M247 454q1 3 -1 6t-7 5t-9.5 3.5t-9.5 3t-6 2.5q-1 0 -5.5 2t-8.5 4t-9 4t-8 2t-5 -2t0 -5t7 -5l10 -4t10 -3.5t6 -2.5l4.5 -2t8.5 -3.5t10 -4t9 -2.5t4 2zM608 269q16 28 17 75q0 28 -7 43q-2 -1 -16 -0.5t-15 0.5q-2 0 -15.5 -0.5t-16.5 0.5q-11 -26 -5 -70q7 -44 25 -60
q17 -15 33 12zM624 421q0 2 -3.5 3.5t-9 2t-10.5 0t-10 -0.5h-6h-3.5h-5.5t-7 0.5t-7.5 0t-6.5 -1t-4.5 -1.5t-1.5 -3q0 -3 3 -4.5t8.5 -1.5h10.5t10 0.5t5.5 0.5t5.5 -0.5t10 -0.5t10.5 0.5t8.5 1.5t3 4zM1064 532l-8.5 -5.5t-12.5 -8.5q0 -1 -5 -3.5t-8.5 -5t-8.5 -6.5
t-5.5 -6.5t1.5 -4.5q1 -2 4 -1t6 2.5t7 4.5t7 5.5t6 4.5t3 3q1 0 5 2.5l8 5t8 5.5t6 6t1 5q-4 4 -14 -3zM1129 373q12 -2 17.5 6t4.5 22q-2 32 -30 73q-15 21 -29 30q-5 -4 -15 -10.5t-12 -7.5q-1 -1 -10.5 -7.5t-14.5 -9.5q5 -26 35 -59q29 -32 54 -37zM120 484
q-10 -5 -18 5q-9 12 -26 35q-3 4 -1.5 9.5t5.5 8.5q10 6 18 -5q9 -11 26 -35q3 -4 1.5 -9.5t-5.5 -8.5zM329 442q8 3 12.5 -2t3.5 -12.5t-9 -10.5q-4 -2 -10 -4l-10.5 -3.5l-10.5 -3.5t-10 -4q-8 -3 -12.5 2.5t-3.5 13t9 9.5q7 3 20.5 8t20.5 7zM286 360q29 -24 33 -27
q4 -4 4 -9.5t-4 -9.5q-8 -8 -18 0q-6 5 -17 14t-16 14q-4 3 -4 9t4 9q8 9 18 0zM236 276q16 -42 38 -97q3 -8 -2 -12.5t-12.5 -3.5t-10.5 9q-5 14 -12 31t-14 35t-12 31q-3 7 2 12t12.5 3.5t10.5 -8.5zM175 253q2 -5 4 -17t4 -17q1 -8 -4.5 -13t-12.5 -3.5t-9 9.5
q-1 5 -3.5 17t-3.5 17q-1 8 4.5 13t12.5 3.5t8 -9.5zM95 270q6 6 13 3.5t9 -9t-3 -13.5q-33 -31 -71 -54q-7 -4 -13 0t-6 10.5t6 11.5q35 22 65 51zM38 344q29 -2 42 -2q5 0 8 -3t4 -7t0 -7.5t-4 -6t-8 -2.5q-6 0 -13.5 0.5t-15 0.5h-13.5q-8 1 -11 7.5t0 13t11 6.5zM98 430
q10 -8 0 -17q-9 -9 -19 -2q-22 17 -65 52q-11 8 -1 17q10 8 19 1zM615 196q11 -35 14 -45q3 -8 -2.5 -13t-12.5 -3.5t-9.5 9t-7 23t-7 23t3 12t12.5 3.5t9 -9zM664 212q51 -50 76 -74q3 -4 3.5 -8t-1.5 -7.5t-5.5 -5.5t-7.5 -1.5t-8 3.5q-12 13 -37.5 37.5t-37.5 36.5
q-4 4 -4.5 8t2 7.5t5.5 5.5t7.5 1.5t7.5 -3.5zM741 291q8 0 11 -7t0 -13.5t-11 -5.5q-7 0 -61 1q-5 0 -8.5 2.5t-4 6.5t0 8t4 6.5t8.5 2.5zM758 418q7 4 13.5 -0.5t6.5 -11t-6 -10.5q-43 -23 -82 -53q-11 -8 -17 4q-6 11 4 19q38 29 81 52zM452 394q-11 8 -5 18q3 4 8 5.5
t10 -1.5q2 -1 10 -7t13 -9q10 -8 5 -18q-3 -5 -8.5 -6.5t-9.5 1.5q-12 8 -23 17zM495 336q8 1 11 -5t0 -13t-11 -8q-39 -4 -79 -2q-8 0 -11 7t0 13t11 6q40 -2 79 2zM497 264q13 4 15 -10q3 -12 -8 -15l-42 -15q-7 -2 -12 3t-3.5 12.5t8.5 9.5zM530 213q4 7 10.5 7t11 -6.5
t1.5 -13.5q-5 -11 -20 -43t-23 -50q-4 -6 -10.5 -6t-11 6t-1.5 14q6 13 14 29.5t15.5 33.5t13.5 29zM1172 309q2 -10 26 -136q1 -7 -4.5 -12t-12.5 -3.5t-8 8.5q-11 58 -26 136q-1 8 4.5 13t12.5 3.5t8 -9.5zM1245 339q4 -3 3.5 -8.5t-3.5 -9.5q-8 -8 -19 0q-12 10 -29 14
q-7 2 -8.5 9t3.5 12.5t12 3.5q22 -5 41 -21zM1279 440q8 3 13 -2.5t3.5 -13t-9.5 -9.5q-5 -1 -10.5 -2.5t-10.5 -3l-10 -3t-10.5 -3t-10.5 -2.5q-8 -2 -13 3.5t-3.5 12.5t9 9t17 4.5t19 5.5t16.5 4zM1207 472q-10 -8 -16 4q-6 11 3 19q39 30 84 49q12 5 18 -7q6 -11 -5 -16
q-45 -19 -84 -49zM1168 528q-4 -7 -12 -6t-11 6.5t1 12.5q24 35 36 52q5 7 12.5 6t10.5 -6.5t0 -12.5q-25 -35 -37 -52zM1050 347q5 7 11.5 7t10.5 -6.5t0 -13.5q-32 -55 -47 -117q-2 -8 -9 -9.5t-12.5 3.5t-3.5 13q16 65 50 123zM981 446q8 0 11.5 -6t0 -13t-11.5 -7
q-35 -1 -70 -10q-7 -2 -12 3.5t-3.5 12.5t8.5 9q38 10 77 11zM999 389q3 -4 3.5 -9.5t-3.5 -9.5q-14 -11 -28 -23q-10 -8 -18 0q-4 4 -4 9.5t4 9.5q13 11 27 23q10 8 19 0zM1108 325q12 -3 10 -16q-1 -4 -3 -13.5t-3 -14.5q0 -3 -3 -5.5t-6.5 -3.5t-6.5 0q-11 4 -9 16
q1 5 2.5 14.5t2.5 13.5q1 5 6 8t10 1z" />
    <glyph glyph-name="o" unicode="&#xf6;" horiz-adv-x="1178" 
d="M1177 390q-2 -19 -14 -31.5t-30 -11.5q-36 1 -75 43q-36 39 -43 75q-19 3 -24.5 22t9.5 32q6 6 15 11q-8 10 -24.5 29.5t-24.5 28.5q-179 -60 -366 -63v-73h5q16 0 19 -1q22 -3 26 -26q0 -2 0.5 -4t-0.5 -4q-1 -12 -8 -18q9 -21 9 -55q-1 -63 -26 -97q-12 -15 -27.5 -20
t-32.5 5q-30 18 -39 74q-10 57 6 93q-14 12 -7 31.5t27 21.5h22v73q-103 1 -202 19q-52 10 -104 25q-5 -13 -15 -38.5t-15 -38.5h1q17 -7 18 -7q20 -11 17 -34q-1 -2 -1 -4q-1 -3 -3 -5q-5 -9 -15 -13q1 -24 -10 -54q-23 -56 -58 -79q-15 -11 -31.5 -11t-30.5 13
q-24 28 -10 90q11 53 39 80q-8 17 5.5 33t32.5 9q9 -2 22 -8q5 13 14.5 37.5t14.5 36.5q-74 23 -144 54q-66 30 -103 54q-6 4 -5.5 12t6 11t12.5 0q46 -30 125 -64q155 -66 322.5 -85t333.5 11q142 27 270 84q65 29 103 54q6 4 12.5 0t6.5 -11t-6 -12q-48 -31 -133 -67
q-24 -10 -51 -19q7 -9 22 -26.5t22 -26.5q4 2 6 4q11 7 18.5 11t18 3t19.5 -11l0.5 -1t1.5 -1q8 -12 5 -23q18 -11 39 -40q37 -54 33 -97zM179 322q24 20 41 60q10 28 10 44q-5 1 -9.5 3t-10 4.5t-8.5 3.5q-2 1 -13.5 5t-17.5 7q-19 -18 -30 -63q-12 -47 2 -68q11 -17 36 4z
M247 454q1 3 -1 6t-7 5t-9.5 3.5t-9.5 3t-6 2.5q-1 0 -5.5 2t-8.5 4t-9 4t-8 2t-5 -2t0 -5t7 -5l10 -4t10 -3.5t6 -2.5l4.5 -2t8.5 -3.5t10 -4t9 -2.5t4 2zM608 269q16 28 17 75q0 28 -7 43q-2 -1 -16 -0.5t-15 0.5q-2 0 -15.5 -0.5t-16.5 0.5q-11 -26 -5 -70q7 -44 25 -60
q17 -15 33 12zM624 421q0 2 -3.5 3.5t-9 2t-10.5 0t-10 -0.5h-6h-3.5h-5.5t-7 0.5t-7.5 0t-6.5 -1t-4.5 -1.5t-1.5 -3q0 -3 3 -4.5t8.5 -1.5h10.5t10 0.5t5.5 0.5t5.5 -0.5t10 -0.5t10.5 0.5t8.5 1.5t3 4zM1064 532l-8.5 -5.5t-12.5 -8.5q0 -1 -5 -3.5t-8.5 -5t-8.5 -6.5
t-5.5 -6.5t1.5 -4.5q1 -2 4 -1t6 2.5t7 4.5t7 5.5t6 4.5t3 3q1 0 5 2.5l8 5t8 5.5t6 6t1 5q-4 4 -14 -3zM1129 373q12 -2 17.5 6t4.5 22q-2 32 -30 73q-15 21 -29 30q-5 -4 -15 -10.5t-12 -7.5q-1 -1 -10.5 -7.5t-14.5 -9.5q5 -26 35 -59q29 -32 54 -37zM120 484
q-10 -5 -18 5q-9 12 -26 35q-3 4 -1.5 9.5t5.5 8.5q10 6 18 -5q9 -11 26 -35q3 -4 1.5 -9.5t-5.5 -8.5zM329 442q8 3 12.5 -2t3.5 -12.5t-9 -10.5q-4 -2 -10 -4l-10.5 -3.5l-10.5 -3.5t-10 -4q-8 -3 -12.5 2.5t-3.5 13t9 9.5q7 3 20.5 8t20.5 7zM286 360q29 -24 33 -27
q4 -4 4 -9.5t-4 -9.5q-8 -8 -18 0q-6 5 -17 14t-16 14q-4 3 -4 9t4 9q8 9 18 0zM236 276q16 -42 38 -97q3 -8 -2 -12.5t-12.5 -3.5t-10.5 9q-5 14 -12 31t-14 35t-12 31q-3 7 2 12t12.5 3.5t10.5 -8.5zM175 253q2 -5 4 -17t4 -17q1 -8 -4.5 -13t-12.5 -3.5t-9 9.5
q-1 5 -3.5 17t-3.5 17q-1 8 4.5 13t12.5 3.5t8 -9.5zM95 270q6 6 13 3.5t9 -9t-3 -13.5q-33 -31 -71 -54q-7 -4 -13 0t-6 10.5t6 11.5q35 22 65 51zM38 344q29 -2 42 -2q5 0 8 -3t4 -7t0 -7.5t-4 -6t-8 -2.5q-6 0 -13.5 0.5t-15 0.5h-13.5q-8 1 -11 7.5t0 13t11 6.5zM98 430
q10 -8 0 -17q-9 -9 -19 -2q-22 17 -65 52q-11 8 -1 17q10 8 19 1zM615 196q11 -35 14 -45q3 -8 -2.5 -13t-12.5 -3.5t-9.5 9t-7 23t-7 23t3 12t12.5 3.5t9 -9zM664 212q51 -50 76 -74q3 -4 3.5 -8t-1.5 -7.5t-5.5 -5.5t-7.5 -1.5t-8 3.5q-12 13 -37.5 37.5t-37.5 36.5
q-4 4 -4.5 8t2 7.5t5.5 5.5t7.5 1.5t7.5 -3.5zM741 291q8 0 11 -7t0 -13.5t-11 -5.5q-7 0 -61 1q-5 0 -8.5 2.5t-4 6.5t0 8t4 6.5t8.5 2.5zM758 418q7 4 13.5 -0.5t6.5 -11t-6 -10.5q-43 -23 -82 -53q-11 -8 -17 4q-6 11 4 19q38 29 81 52zM452 394q-11 8 -5 18q3 4 8 5.5
t10 -1.5q2 -1 10 -7t13 -9q10 -8 5 -18q-3 -5 -8.5 -6.5t-9.5 1.5q-12 8 -23 17zM495 336q8 1 11 -5t0 -13t-11 -8q-39 -4 -79 -2q-8 0 -11 7t0 13t11 6q40 -2 79 2zM497 264q13 4 15 -10q3 -12 -8 -15l-42 -15q-7 -2 -12 3t-3.5 12.5t8.5 9.5zM530 213q4 7 10.5 7t11 -6.5
t1.5 -13.5q-5 -11 -20 -43t-23 -50q-4 -6 -10.5 -6t-11 6t-1.5 14q6 13 14 29.5t15.5 33.5t13.5 29zM1172 309q2 -10 26 -136q1 -7 -4.5 -12t-12.5 -3.5t-8 8.5q-11 58 -26 136q-1 8 4.5 13t12.5 3.5t8 -9.5zM1245 339q4 -3 3.5 -8.5t-3.5 -9.5q-8 -8 -19 0q-12 10 -29 14
q-7 2 -8.5 9t3.5 12.5t12 3.5q22 -5 41 -21zM1279 440q8 3 13 -2.5t3.5 -13t-9.5 -9.5q-5 -1 -10.5 -2.5t-10.5 -3l-10 -3t-10.5 -3t-10.5 -2.5q-8 -2 -13 3.5t-3.5 12.5t9 9t17 4.5t19 5.5t16.5 4zM1207 472q-10 -8 -16 4q-6 11 3 19q39 30 84 49q12 5 18 -7q6 -11 -5 -16
q-45 -19 -84 -49zM1168 528q-4 -7 -12 -6t-11 6.5t1 12.5q24 35 36 52q5 7 12.5 6t10.5 -6.5t0 -12.5q-25 -35 -37 -52zM1050 347q5 7 11.5 7t10.5 -6.5t0 -13.5q-32 -55 -47 -117q-2 -8 -9 -9.5t-12.5 3.5t-3.5 13q16 65 50 123zM981 446q8 0 11.5 -6t0 -13t-11.5 -7
q-35 -1 -70 -10q-7 -2 -12 3.5t-3.5 12.5t8.5 9q38 10 77 11zM999 389q3 -4 3.5 -9.5t-3.5 -9.5q-14 -11 -28 -23q-10 -8 -18 0q-4 4 -4 9.5t4 9.5q13 11 27 23q10 8 19 0zM1108 325q12 -3 10 -16q-1 -4 -3 -13.5t-3 -14.5q0 -3 -3 -5.5t-6.5 -3.5t-6.5 0q-11 4 -9 16
q1 5 2.5 14.5t2.5 13.5q1 5 6 8t10 1z" />
    <glyph glyph-name="o" unicode="&#xf5;" horiz-adv-x="1178" 
d="M1177 390q-2 -19 -14 -31.5t-30 -11.5q-36 1 -75 43q-36 39 -43 75q-19 3 -24.5 22t9.5 32q6 6 15 11q-8 10 -24.5 29.5t-24.5 28.5q-179 -60 -366 -63v-73h5q16 0 19 -1q22 -3 26 -26q0 -2 0.5 -4t-0.5 -4q-1 -12 -8 -18q9 -21 9 -55q-1 -63 -26 -97q-12 -15 -27.5 -20
t-32.5 5q-30 18 -39 74q-10 57 6 93q-14 12 -7 31.5t27 21.5h22v73q-103 1 -202 19q-52 10 -104 25q-5 -13 -15 -38.5t-15 -38.5h1q17 -7 18 -7q20 -11 17 -34q-1 -2 -1 -4q-1 -3 -3 -5q-5 -9 -15 -13q1 -24 -10 -54q-23 -56 -58 -79q-15 -11 -31.5 -11t-30.5 13
q-24 28 -10 90q11 53 39 80q-8 17 5.5 33t32.5 9q9 -2 22 -8q5 13 14.5 37.5t14.5 36.5q-74 23 -144 54q-66 30 -103 54q-6 4 -5.5 12t6 11t12.5 0q46 -30 125 -64q155 -66 322.5 -85t333.5 11q142 27 270 84q65 29 103 54q6 4 12.5 0t6.5 -11t-6 -12q-48 -31 -133 -67
q-24 -10 -51 -19q7 -9 22 -26.5t22 -26.5q4 2 6 4q11 7 18.5 11t18 3t19.5 -11l0.5 -1t1.5 -1q8 -12 5 -23q18 -11 39 -40q37 -54 33 -97zM179 322q24 20 41 60q10 28 10 44q-5 1 -9.5 3t-10 4.5t-8.5 3.5q-2 1 -13.5 5t-17.5 7q-19 -18 -30 -63q-12 -47 2 -68q11 -17 36 4z
M247 454q1 3 -1 6t-7 5t-9.5 3.5t-9.5 3t-6 2.5q-1 0 -5.5 2t-8.5 4t-9 4t-8 2t-5 -2t0 -5t7 -5l10 -4t10 -3.5t6 -2.5l4.5 -2t8.5 -3.5t10 -4t9 -2.5t4 2zM608 269q16 28 17 75q0 28 -7 43q-2 -1 -16 -0.5t-15 0.5q-2 0 -15.5 -0.5t-16.5 0.5q-11 -26 -5 -70q7 -44 25 -60
q17 -15 33 12zM624 421q0 2 -3.5 3.5t-9 2t-10.5 0t-10 -0.5h-6h-3.5h-5.5t-7 0.5t-7.5 0t-6.5 -1t-4.5 -1.5t-1.5 -3q0 -3 3 -4.5t8.5 -1.5h10.5t10 0.5t5.5 0.5t5.5 -0.5t10 -0.5t10.5 0.5t8.5 1.5t3 4zM1064 532l-8.5 -5.5t-12.5 -8.5q0 -1 -5 -3.5t-8.5 -5t-8.5 -6.5
t-5.5 -6.5t1.5 -4.5q1 -2 4 -1t6 2.5t7 4.5t7 5.5t6 4.5t3 3q1 0 5 2.5l8 5t8 5.5t6 6t1 5q-4 4 -14 -3zM1129 373q12 -2 17.5 6t4.5 22q-2 32 -30 73q-15 21 -29 30q-5 -4 -15 -10.5t-12 -7.5q-1 -1 -10.5 -7.5t-14.5 -9.5q5 -26 35 -59q29 -32 54 -37zM120 484
q-10 -5 -18 5q-9 12 -26 35q-3 4 -1.5 9.5t5.5 8.5q10 6 18 -5q9 -11 26 -35q3 -4 1.5 -9.5t-5.5 -8.5zM329 442q8 3 12.5 -2t3.5 -12.5t-9 -10.5q-4 -2 -10 -4l-10.5 -3.5l-10.5 -3.5t-10 -4q-8 -3 -12.5 2.5t-3.5 13t9 9.5q7 3 20.5 8t20.5 7zM286 360q29 -24 33 -27
q4 -4 4 -9.5t-4 -9.5q-8 -8 -18 0q-6 5 -17 14t-16 14q-4 3 -4 9t4 9q8 9 18 0zM236 276q16 -42 38 -97q3 -8 -2 -12.5t-12.5 -3.5t-10.5 9q-5 14 -12 31t-14 35t-12 31q-3 7 2 12t12.5 3.5t10.5 -8.5zM175 253q2 -5 4 -17t4 -17q1 -8 -4.5 -13t-12.5 -3.5t-9 9.5
q-1 5 -3.5 17t-3.5 17q-1 8 4.5 13t12.5 3.5t8 -9.5zM95 270q6 6 13 3.5t9 -9t-3 -13.5q-33 -31 -71 -54q-7 -4 -13 0t-6 10.5t6 11.5q35 22 65 51zM38 344q29 -2 42 -2q5 0 8 -3t4 -7t0 -7.5t-4 -6t-8 -2.5q-6 0 -13.5 0.5t-15 0.5h-13.5q-8 1 -11 7.5t0 13t11 6.5zM98 430
q10 -8 0 -17q-9 -9 -19 -2q-22 17 -65 52q-11 8 -1 17q10 8 19 1zM615 196q11 -35 14 -45q3 -8 -2.5 -13t-12.5 -3.5t-9.5 9t-7 23t-7 23t3 12t12.5 3.5t9 -9zM664 212q51 -50 76 -74q3 -4 3.5 -8t-1.5 -7.5t-5.5 -5.5t-7.5 -1.5t-8 3.5q-12 13 -37.5 37.5t-37.5 36.5
q-4 4 -4.5 8t2 7.5t5.5 5.5t7.5 1.5t7.5 -3.5zM741 291q8 0 11 -7t0 -13.5t-11 -5.5q-7 0 -61 1q-5 0 -8.5 2.5t-4 6.5t0 8t4 6.5t8.5 2.5zM758 418q7 4 13.5 -0.5t6.5 -11t-6 -10.5q-43 -23 -82 -53q-11 -8 -17 4q-6 11 4 19q38 29 81 52zM452 394q-11 8 -5 18q3 4 8 5.5
t10 -1.5q2 -1 10 -7t13 -9q10 -8 5 -18q-3 -5 -8.5 -6.5t-9.5 1.5q-12 8 -23 17zM495 336q8 1 11 -5t0 -13t-11 -8q-39 -4 -79 -2q-8 0 -11 7t0 13t11 6q40 -2 79 2zM497 264q13 4 15 -10q3 -12 -8 -15l-42 -15q-7 -2 -12 3t-3.5 12.5t8.5 9.5zM530 213q4 7 10.5 7t11 -6.5
t1.5 -13.5q-5 -11 -20 -43t-23 -50q-4 -6 -10.5 -6t-11 6t-1.5 14q6 13 14 29.5t15.5 33.5t13.5 29zM1172 309q2 -10 26 -136q1 -7 -4.5 -12t-12.5 -3.5t-8 8.5q-11 58 -26 136q-1 8 4.5 13t12.5 3.5t8 -9.5zM1245 339q4 -3 3.5 -8.5t-3.5 -9.5q-8 -8 -19 0q-12 10 -29 14
q-7 2 -8.5 9t3.5 12.5t12 3.5q22 -5 41 -21zM1279 440q8 3 13 -2.5t3.5 -13t-9.5 -9.5q-5 -1 -10.5 -2.5t-10.5 -3l-10 -3t-10.5 -3t-10.5 -2.5q-8 -2 -13 3.5t-3.5 12.5t9 9t17 4.5t19 5.5t16.5 4zM1207 472q-10 -8 -16 4q-6 11 3 19q39 30 84 49q12 5 18 -7q6 -11 -5 -16
q-45 -19 -84 -49zM1168 528q-4 -7 -12 -6t-11 6.5t1 12.5q24 35 36 52q5 7 12.5 6t10.5 -6.5t0 -12.5q-25 -35 -37 -52zM1050 347q5 7 11.5 7t10.5 -6.5t0 -13.5q-32 -55 -47 -117q-2 -8 -9 -9.5t-12.5 3.5t-3.5 13q16 65 50 123zM981 446q8 0 11.5 -6t0 -13t-11.5 -7
q-35 -1 -70 -10q-7 -2 -12 3.5t-3.5 12.5t8.5 9q38 10 77 11zM999 389q3 -4 3.5 -9.5t-3.5 -9.5q-14 -11 -28 -23q-10 -8 -18 0q-4 4 -4 9.5t4 9.5q13 11 27 23q10 8 19 0zM1108 325q12 -3 10 -16q-1 -4 -3 -13.5t-3 -14.5q0 -3 -3 -5.5t-6.5 -3.5t-6.5 0q-11 4 -9 16
q1 5 2.5 14.5t2.5 13.5q1 5 6 8t10 1z" />
    <glyph glyph-name="o" unicode="&#xf4;" horiz-adv-x="1178" 
d="M1177 390q-2 -19 -14 -31.5t-30 -11.5q-36 1 -75 43q-36 39 -43 75q-19 3 -24.5 22t9.5 32q6 6 15 11q-8 10 -24.5 29.5t-24.5 28.5q-179 -60 -366 -63v-73h5q16 0 19 -1q22 -3 26 -26q0 -2 0.5 -4t-0.5 -4q-1 -12 -8 -18q9 -21 9 -55q-1 -63 -26 -97q-12 -15 -27.5 -20
t-32.5 5q-30 18 -39 74q-10 57 6 93q-14 12 -7 31.5t27 21.5h22v73q-103 1 -202 19q-52 10 -104 25q-5 -13 -15 -38.5t-15 -38.5h1q17 -7 18 -7q20 -11 17 -34q-1 -2 -1 -4q-1 -3 -3 -5q-5 -9 -15 -13q1 -24 -10 -54q-23 -56 -58 -79q-15 -11 -31.5 -11t-30.5 13
q-24 28 -10 90q11 53 39 80q-8 17 5.5 33t32.5 9q9 -2 22 -8q5 13 14.5 37.5t14.5 36.5q-74 23 -144 54q-66 30 -103 54q-6 4 -5.5 12t6 11t12.5 0q46 -30 125 -64q155 -66 322.5 -85t333.5 11q142 27 270 84q65 29 103 54q6 4 12.5 0t6.5 -11t-6 -12q-48 -31 -133 -67
q-24 -10 -51 -19q7 -9 22 -26.5t22 -26.5q4 2 6 4q11 7 18.5 11t18 3t19.5 -11l0.5 -1t1.5 -1q8 -12 5 -23q18 -11 39 -40q37 -54 33 -97zM179 322q24 20 41 60q10 28 10 44q-5 1 -9.5 3t-10 4.5t-8.5 3.5q-2 1 -13.5 5t-17.5 7q-19 -18 -30 -63q-12 -47 2 -68q11 -17 36 4z
M247 454q1 3 -1 6t-7 5t-9.5 3.5t-9.5 3t-6 2.5q-1 0 -5.5 2t-8.5 4t-9 4t-8 2t-5 -2t0 -5t7 -5l10 -4t10 -3.5t6 -2.5l4.5 -2t8.5 -3.5t10 -4t9 -2.5t4 2zM608 269q16 28 17 75q0 28 -7 43q-2 -1 -16 -0.5t-15 0.5q-2 0 -15.5 -0.5t-16.5 0.5q-11 -26 -5 -70q7 -44 25 -60
q17 -15 33 12zM624 421q0 2 -3.5 3.5t-9 2t-10.5 0t-10 -0.5h-6h-3.5h-5.5t-7 0.5t-7.5 0t-6.5 -1t-4.5 -1.5t-1.5 -3q0 -3 3 -4.5t8.5 -1.5h10.5t10 0.5t5.5 0.5t5.5 -0.5t10 -0.5t10.5 0.5t8.5 1.5t3 4zM1064 532l-8.5 -5.5t-12.5 -8.5q0 -1 -5 -3.5t-8.5 -5t-8.5 -6.5
t-5.5 -6.5t1.5 -4.5q1 -2 4 -1t6 2.5t7 4.5t7 5.5t6 4.5t3 3q1 0 5 2.5l8 5t8 5.5t6 6t1 5q-4 4 -14 -3zM1129 373q12 -2 17.5 6t4.5 22q-2 32 -30 73q-15 21 -29 30q-5 -4 -15 -10.5t-12 -7.5q-1 -1 -10.5 -7.5t-14.5 -9.5q5 -26 35 -59q29 -32 54 -37zM120 484
q-10 -5 -18 5q-9 12 -26 35q-3 4 -1.5 9.5t5.5 8.5q10 6 18 -5q9 -11 26 -35q3 -4 1.5 -9.5t-5.5 -8.5zM329 442q8 3 12.5 -2t3.5 -12.5t-9 -10.5q-4 -2 -10 -4l-10.5 -3.5l-10.5 -3.5t-10 -4q-8 -3 -12.5 2.5t-3.5 13t9 9.5q7 3 20.5 8t20.5 7zM286 360q29 -24 33 -27
q4 -4 4 -9.5t-4 -9.5q-8 -8 -18 0q-6 5 -17 14t-16 14q-4 3 -4 9t4 9q8 9 18 0zM236 276q16 -42 38 -97q3 -8 -2 -12.5t-12.5 -3.5t-10.5 9q-5 14 -12 31t-14 35t-12 31q-3 7 2 12t12.5 3.5t10.5 -8.5zM175 253q2 -5 4 -17t4 -17q1 -8 -4.5 -13t-12.5 -3.5t-9 9.5
q-1 5 -3.5 17t-3.5 17q-1 8 4.5 13t12.5 3.5t8 -9.5zM95 270q6 6 13 3.5t9 -9t-3 -13.5q-33 -31 -71 -54q-7 -4 -13 0t-6 10.5t6 11.5q35 22 65 51zM38 344q29 -2 42 -2q5 0 8 -3t4 -7t0 -7.5t-4 -6t-8 -2.5q-6 0 -13.5 0.5t-15 0.5h-13.5q-8 1 -11 7.5t0 13t11 6.5zM98 430
q10 -8 0 -17q-9 -9 -19 -2q-22 17 -65 52q-11 8 -1 17q10 8 19 1zM615 196q11 -35 14 -45q3 -8 -2.5 -13t-12.5 -3.5t-9.5 9t-7 23t-7 23t3 12t12.5 3.5t9 -9zM664 212q51 -50 76 -74q3 -4 3.5 -8t-1.5 -7.5t-5.5 -5.5t-7.5 -1.5t-8 3.5q-12 13 -37.5 37.5t-37.5 36.5
q-4 4 -4.5 8t2 7.5t5.5 5.5t7.5 1.5t7.5 -3.5zM741 291q8 0 11 -7t0 -13.5t-11 -5.5q-7 0 -61 1q-5 0 -8.5 2.5t-4 6.5t0 8t4 6.5t8.5 2.5zM758 418q7 4 13.5 -0.5t6.5 -11t-6 -10.5q-43 -23 -82 -53q-11 -8 -17 4q-6 11 4 19q38 29 81 52zM452 394q-11 8 -5 18q3 4 8 5.5
t10 -1.5q2 -1 10 -7t13 -9q10 -8 5 -18q-3 -5 -8.5 -6.5t-9.5 1.5q-12 8 -23 17zM495 336q8 1 11 -5t0 -13t-11 -8q-39 -4 -79 -2q-8 0 -11 7t0 13t11 6q40 -2 79 2zM497 264q13 4 15 -10q3 -12 -8 -15l-42 -15q-7 -2 -12 3t-3.5 12.5t8.5 9.5zM530 213q4 7 10.5 7t11 -6.5
t1.5 -13.5q-5 -11 -20 -43t-23 -50q-4 -6 -10.5 -6t-11 6t-1.5 14q6 13 14 29.5t15.5 33.5t13.5 29zM1172 309q2 -10 26 -136q1 -7 -4.5 -12t-12.5 -3.5t-8 8.5q-11 58 -26 136q-1 8 4.5 13t12.5 3.5t8 -9.5zM1245 339q4 -3 3.5 -8.5t-3.5 -9.5q-8 -8 -19 0q-12 10 -29 14
q-7 2 -8.5 9t3.5 12.5t12 3.5q22 -5 41 -21zM1279 440q8 3 13 -2.5t3.5 -13t-9.5 -9.5q-5 -1 -10.5 -2.5t-10.5 -3l-10 -3t-10.5 -3t-10.5 -2.5q-8 -2 -13 3.5t-3.5 12.5t9 9t17 4.5t19 5.5t16.5 4zM1207 472q-10 -8 -16 4q-6 11 3 19q39 30 84 49q12 5 18 -7q6 -11 -5 -16
q-45 -19 -84 -49zM1168 528q-4 -7 -12 -6t-11 6.5t1 12.5q24 35 36 52q5 7 12.5 6t10.5 -6.5t0 -12.5q-25 -35 -37 -52zM1050 347q5 7 11.5 7t10.5 -6.5t0 -13.5q-32 -55 -47 -117q-2 -8 -9 -9.5t-12.5 3.5t-3.5 13q16 65 50 123zM981 446q8 0 11.5 -6t0 -13t-11.5 -7
q-35 -1 -70 -10q-7 -2 -12 3.5t-3.5 12.5t8.5 9q38 10 77 11zM999 389q3 -4 3.5 -9.5t-3.5 -9.5q-14 -11 -28 -23q-10 -8 -18 0q-4 4 -4 9.5t4 9.5q13 11 27 23q10 8 19 0zM1108 325q12 -3 10 -16q-1 -4 -3 -13.5t-3 -14.5q0 -3 -3 -5.5t-6.5 -3.5t-6.5 0q-11 4 -9 16
q1 5 2.5 14.5t2.5 13.5q1 5 6 8t10 1z" />
    <glyph glyph-name="o" unicode="&#xf3;" horiz-adv-x="1178" 
d="M1177 390q-2 -19 -14 -31.5t-30 -11.5q-36 1 -75 43q-36 39 -43 75q-19 3 -24.5 22t9.5 32q6 6 15 11q-8 10 -24.5 29.5t-24.5 28.5q-179 -60 -366 -63v-73h5q16 0 19 -1q22 -3 26 -26q0 -2 0.5 -4t-0.5 -4q-1 -12 -8 -18q9 -21 9 -55q-1 -63 -26 -97q-12 -15 -27.5 -20
t-32.5 5q-30 18 -39 74q-10 57 6 93q-14 12 -7 31.5t27 21.5h22v73q-103 1 -202 19q-52 10 -104 25q-5 -13 -15 -38.5t-15 -38.5h1q17 -7 18 -7q20 -11 17 -34q-1 -2 -1 -4q-1 -3 -3 -5q-5 -9 -15 -13q1 -24 -10 -54q-23 -56 -58 -79q-15 -11 -31.5 -11t-30.5 13
q-24 28 -10 90q11 53 39 80q-8 17 5.5 33t32.5 9q9 -2 22 -8q5 13 14.5 37.5t14.5 36.5q-74 23 -144 54q-66 30 -103 54q-6 4 -5.5 12t6 11t12.5 0q46 -30 125 -64q155 -66 322.5 -85t333.5 11q142 27 270 84q65 29 103 54q6 4 12.5 0t6.5 -11t-6 -12q-48 -31 -133 -67
q-24 -10 -51 -19q7 -9 22 -26.5t22 -26.5q4 2 6 4q11 7 18.5 11t18 3t19.5 -11l0.5 -1t1.5 -1q8 -12 5 -23q18 -11 39 -40q37 -54 33 -97zM179 322q24 20 41 60q10 28 10 44q-5 1 -9.5 3t-10 4.5t-8.5 3.5q-2 1 -13.5 5t-17.5 7q-19 -18 -30 -63q-12 -47 2 -68q11 -17 36 4z
M247 454q1 3 -1 6t-7 5t-9.5 3.5t-9.5 3t-6 2.5q-1 0 -5.5 2t-8.5 4t-9 4t-8 2t-5 -2t0 -5t7 -5l10 -4t10 -3.5t6 -2.5l4.5 -2t8.5 -3.5t10 -4t9 -2.5t4 2zM608 269q16 28 17 75q0 28 -7 43q-2 -1 -16 -0.5t-15 0.5q-2 0 -15.5 -0.5t-16.5 0.5q-11 -26 -5 -70q7 -44 25 -60
q17 -15 33 12zM624 421q0 2 -3.5 3.5t-9 2t-10.5 0t-10 -0.5h-6h-3.5h-5.5t-7 0.5t-7.5 0t-6.5 -1t-4.5 -1.5t-1.5 -3q0 -3 3 -4.5t8.5 -1.5h10.5t10 0.5t5.5 0.5t5.5 -0.5t10 -0.5t10.5 0.5t8.5 1.5t3 4zM1064 532l-8.5 -5.5t-12.5 -8.5q0 -1 -5 -3.5t-8.5 -5t-8.5 -6.5
t-5.5 -6.5t1.5 -4.5q1 -2 4 -1t6 2.5t7 4.5t7 5.5t6 4.5t3 3q1 0 5 2.5l8 5t8 5.5t6 6t1 5q-4 4 -14 -3zM1129 373q12 -2 17.5 6t4.5 22q-2 32 -30 73q-15 21 -29 30q-5 -4 -15 -10.5t-12 -7.5q-1 -1 -10.5 -7.5t-14.5 -9.5q5 -26 35 -59q29 -32 54 -37zM120 484
q-10 -5 -18 5q-9 12 -26 35q-3 4 -1.5 9.5t5.5 8.5q10 6 18 -5q9 -11 26 -35q3 -4 1.5 -9.5t-5.5 -8.5zM329 442q8 3 12.5 -2t3.5 -12.5t-9 -10.5q-4 -2 -10 -4l-10.5 -3.5l-10.5 -3.5t-10 -4q-8 -3 -12.5 2.5t-3.5 13t9 9.5q7 3 20.5 8t20.5 7zM286 360q29 -24 33 -27
q4 -4 4 -9.5t-4 -9.5q-8 -8 -18 0q-6 5 -17 14t-16 14q-4 3 -4 9t4 9q8 9 18 0zM236 276q16 -42 38 -97q3 -8 -2 -12.5t-12.5 -3.5t-10.5 9q-5 14 -12 31t-14 35t-12 31q-3 7 2 12t12.5 3.5t10.5 -8.5zM175 253q2 -5 4 -17t4 -17q1 -8 -4.5 -13t-12.5 -3.5t-9 9.5
q-1 5 -3.5 17t-3.5 17q-1 8 4.5 13t12.5 3.5t8 -9.5zM95 270q6 6 13 3.5t9 -9t-3 -13.5q-33 -31 -71 -54q-7 -4 -13 0t-6 10.5t6 11.5q35 22 65 51zM38 344q29 -2 42 -2q5 0 8 -3t4 -7t0 -7.5t-4 -6t-8 -2.5q-6 0 -13.5 0.5t-15 0.5h-13.5q-8 1 -11 7.5t0 13t11 6.5zM98 430
q10 -8 0 -17q-9 -9 -19 -2q-22 17 -65 52q-11 8 -1 17q10 8 19 1zM615 196q11 -35 14 -45q3 -8 -2.5 -13t-12.5 -3.5t-9.5 9t-7 23t-7 23t3 12t12.5 3.5t9 -9zM664 212q51 -50 76 -74q3 -4 3.5 -8t-1.5 -7.5t-5.5 -5.5t-7.5 -1.5t-8 3.5q-12 13 -37.5 37.5t-37.5 36.5
q-4 4 -4.5 8t2 7.5t5.5 5.5t7.5 1.5t7.5 -3.5zM741 291q8 0 11 -7t0 -13.5t-11 -5.5q-7 0 -61 1q-5 0 -8.5 2.5t-4 6.5t0 8t4 6.5t8.5 2.5zM758 418q7 4 13.5 -0.5t6.5 -11t-6 -10.5q-43 -23 -82 -53q-11 -8 -17 4q-6 11 4 19q38 29 81 52zM452 394q-11 8 -5 18q3 4 8 5.5
t10 -1.5q2 -1 10 -7t13 -9q10 -8 5 -18q-3 -5 -8.5 -6.5t-9.5 1.5q-12 8 -23 17zM495 336q8 1 11 -5t0 -13t-11 -8q-39 -4 -79 -2q-8 0 -11 7t0 13t11 6q40 -2 79 2zM497 264q13 4 15 -10q3 -12 -8 -15l-42 -15q-7 -2 -12 3t-3.5 12.5t8.5 9.5zM530 213q4 7 10.5 7t11 -6.5
t1.5 -13.5q-5 -11 -20 -43t-23 -50q-4 -6 -10.5 -6t-11 6t-1.5 14q6 13 14 29.5t15.5 33.5t13.5 29zM1172 309q2 -10 26 -136q1 -7 -4.5 -12t-12.5 -3.5t-8 8.5q-11 58 -26 136q-1 8 4.5 13t12.5 3.5t8 -9.5zM1245 339q4 -3 3.5 -8.5t-3.5 -9.5q-8 -8 -19 0q-12 10 -29 14
q-7 2 -8.5 9t3.5 12.5t12 3.5q22 -5 41 -21zM1279 440q8 3 13 -2.5t3.5 -13t-9.5 -9.5q-5 -1 -10.5 -2.5t-10.5 -3l-10 -3t-10.5 -3t-10.5 -2.5q-8 -2 -13 3.5t-3.5 12.5t9 9t17 4.5t19 5.5t16.5 4zM1207 472q-10 -8 -16 4q-6 11 3 19q39 30 84 49q12 5 18 -7q6 -11 -5 -16
q-45 -19 -84 -49zM1168 528q-4 -7 -12 -6t-11 6.5t1 12.5q24 35 36 52q5 7 12.5 6t10.5 -6.5t0 -12.5q-25 -35 -37 -52zM1050 347q5 7 11.5 7t10.5 -6.5t0 -13.5q-32 -55 -47 -117q-2 -8 -9 -9.5t-12.5 3.5t-3.5 13q16 65 50 123zM981 446q8 0 11.5 -6t0 -13t-11.5 -7
q-35 -1 -70 -10q-7 -2 -12 3.5t-3.5 12.5t8.5 9q38 10 77 11zM999 389q3 -4 3.5 -9.5t-3.5 -9.5q-14 -11 -28 -23q-10 -8 -18 0q-4 4 -4 9.5t4 9.5q13 11 27 23q10 8 19 0zM1108 325q12 -3 10 -16q-1 -4 -3 -13.5t-3 -14.5q0 -3 -3 -5.5t-6.5 -3.5t-6.5 0q-11 4 -9 16
q1 5 2.5 14.5t2.5 13.5q1 5 6 8t10 1z" />
    <glyph glyph-name="o" unicode="&#xf2;" horiz-adv-x="1178" 
d="M1177 390q-2 -19 -14 -31.5t-30 -11.5q-36 1 -75 43q-36 39 -43 75q-19 3 -24.5 22t9.5 32q6 6 15 11q-8 10 -24.5 29.5t-24.5 28.5q-179 -60 -366 -63v-73h5q16 0 19 -1q22 -3 26 -26q0 -2 0.5 -4t-0.5 -4q-1 -12 -8 -18q9 -21 9 -55q-1 -63 -26 -97q-12 -15 -27.5 -20
t-32.5 5q-30 18 -39 74q-10 57 6 93q-14 12 -7 31.5t27 21.5h22v73q-103 1 -202 19q-52 10 -104 25q-5 -13 -15 -38.5t-15 -38.5h1q17 -7 18 -7q20 -11 17 -34q-1 -2 -1 -4q-1 -3 -3 -5q-5 -9 -15 -13q1 -24 -10 -54q-23 -56 -58 -79q-15 -11 -31.5 -11t-30.5 13
q-24 28 -10 90q11 53 39 80q-8 17 5.5 33t32.5 9q9 -2 22 -8q5 13 14.5 37.5t14.5 36.5q-74 23 -144 54q-66 30 -103 54q-6 4 -5.5 12t6 11t12.5 0q46 -30 125 -64q155 -66 322.5 -85t333.5 11q142 27 270 84q65 29 103 54q6 4 12.5 0t6.5 -11t-6 -12q-48 -31 -133 -67
q-24 -10 -51 -19q7 -9 22 -26.5t22 -26.5q4 2 6 4q11 7 18.5 11t18 3t19.5 -11l0.5 -1t1.5 -1q8 -12 5 -23q18 -11 39 -40q37 -54 33 -97zM179 322q24 20 41 60q10 28 10 44q-5 1 -9.5 3t-10 4.5t-8.5 3.5q-2 1 -13.5 5t-17.5 7q-19 -18 -30 -63q-12 -47 2 -68q11 -17 36 4z
M247 454q1 3 -1 6t-7 5t-9.5 3.5t-9.5 3t-6 2.5q-1 0 -5.5 2t-8.5 4t-9 4t-8 2t-5 -2t0 -5t7 -5l10 -4t10 -3.5t6 -2.5l4.5 -2t8.5 -3.5t10 -4t9 -2.5t4 2zM608 269q16 28 17 75q0 28 -7 43q-2 -1 -16 -0.5t-15 0.5q-2 0 -15.5 -0.5t-16.5 0.5q-11 -26 -5 -70q7 -44 25 -60
q17 -15 33 12zM624 421q0 2 -3.5 3.5t-9 2t-10.5 0t-10 -0.5h-6h-3.5h-5.5t-7 0.5t-7.5 0t-6.5 -1t-4.5 -1.5t-1.5 -3q0 -3 3 -4.5t8.5 -1.5h10.5t10 0.5t5.5 0.5t5.5 -0.5t10 -0.5t10.5 0.5t8.5 1.5t3 4zM1064 532l-8.5 -5.5t-12.5 -8.5q0 -1 -5 -3.5t-8.5 -5t-8.5 -6.5
t-5.5 -6.5t1.5 -4.5q1 -2 4 -1t6 2.5t7 4.5t7 5.5t6 4.5t3 3q1 0 5 2.5l8 5t8 5.5t6 6t1 5q-4 4 -14 -3zM1129 373q12 -2 17.5 6t4.5 22q-2 32 -30 73q-15 21 -29 30q-5 -4 -15 -10.5t-12 -7.5q-1 -1 -10.5 -7.5t-14.5 -9.5q5 -26 35 -59q29 -32 54 -37zM120 484
q-10 -5 -18 5q-9 12 -26 35q-3 4 -1.5 9.5t5.5 8.5q10 6 18 -5q9 -11 26 -35q3 -4 1.5 -9.5t-5.5 -8.5zM329 442q8 3 12.5 -2t3.5 -12.5t-9 -10.5q-4 -2 -10 -4l-10.5 -3.5l-10.5 -3.5t-10 -4q-8 -3 -12.5 2.5t-3.5 13t9 9.5q7 3 20.5 8t20.5 7zM286 360q29 -24 33 -27
q4 -4 4 -9.5t-4 -9.5q-8 -8 -18 0q-6 5 -17 14t-16 14q-4 3 -4 9t4 9q8 9 18 0zM236 276q16 -42 38 -97q3 -8 -2 -12.5t-12.5 -3.5t-10.5 9q-5 14 -12 31t-14 35t-12 31q-3 7 2 12t12.5 3.5t10.5 -8.5zM175 253q2 -5 4 -17t4 -17q1 -8 -4.5 -13t-12.5 -3.5t-9 9.5
q-1 5 -3.5 17t-3.5 17q-1 8 4.5 13t12.5 3.5t8 -9.5zM95 270q6 6 13 3.5t9 -9t-3 -13.5q-33 -31 -71 -54q-7 -4 -13 0t-6 10.5t6 11.5q35 22 65 51zM38 344q29 -2 42 -2q5 0 8 -3t4 -7t0 -7.5t-4 -6t-8 -2.5q-6 0 -13.5 0.5t-15 0.5h-13.5q-8 1 -11 7.5t0 13t11 6.5zM98 430
q10 -8 0 -17q-9 -9 -19 -2q-22 17 -65 52q-11 8 -1 17q10 8 19 1zM615 196q11 -35 14 -45q3 -8 -2.5 -13t-12.5 -3.5t-9.5 9t-7 23t-7 23t3 12t12.5 3.5t9 -9zM664 212q51 -50 76 -74q3 -4 3.5 -8t-1.5 -7.5t-5.5 -5.5t-7.5 -1.5t-8 3.5q-12 13 -37.5 37.5t-37.5 36.5
q-4 4 -4.5 8t2 7.5t5.5 5.5t7.5 1.5t7.5 -3.5zM741 291q8 0 11 -7t0 -13.5t-11 -5.5q-7 0 -61 1q-5 0 -8.5 2.5t-4 6.5t0 8t4 6.5t8.5 2.5zM758 418q7 4 13.5 -0.5t6.5 -11t-6 -10.5q-43 -23 -82 -53q-11 -8 -17 4q-6 11 4 19q38 29 81 52zM452 394q-11 8 -5 18q3 4 8 5.5
t10 -1.5q2 -1 10 -7t13 -9q10 -8 5 -18q-3 -5 -8.5 -6.5t-9.5 1.5q-12 8 -23 17zM495 336q8 1 11 -5t0 -13t-11 -8q-39 -4 -79 -2q-8 0 -11 7t0 13t11 6q40 -2 79 2zM497 264q13 4 15 -10q3 -12 -8 -15l-42 -15q-7 -2 -12 3t-3.5 12.5t8.5 9.5zM530 213q4 7 10.5 7t11 -6.5
t1.5 -13.5q-5 -11 -20 -43t-23 -50q-4 -6 -10.5 -6t-11 6t-1.5 14q6 13 14 29.5t15.5 33.5t13.5 29zM1172 309q2 -10 26 -136q1 -7 -4.5 -12t-12.5 -3.5t-8 8.5q-11 58 -26 136q-1 8 4.5 13t12.5 3.5t8 -9.5zM1245 339q4 -3 3.5 -8.5t-3.5 -9.5q-8 -8 -19 0q-12 10 -29 14
q-7 2 -8.5 9t3.5 12.5t12 3.5q22 -5 41 -21zM1279 440q8 3 13 -2.5t3.5 -13t-9.5 -9.5q-5 -1 -10.5 -2.5t-10.5 -3l-10 -3t-10.5 -3t-10.5 -2.5q-8 -2 -13 3.5t-3.5 12.5t9 9t17 4.5t19 5.5t16.5 4zM1207 472q-10 -8 -16 4q-6 11 3 19q39 30 84 49q12 5 18 -7q6 -11 -5 -16
q-45 -19 -84 -49zM1168 528q-4 -7 -12 -6t-11 6.5t1 12.5q24 35 36 52q5 7 12.5 6t10.5 -6.5t0 -12.5q-25 -35 -37 -52zM1050 347q5 7 11.5 7t10.5 -6.5t0 -13.5q-32 -55 -47 -117q-2 -8 -9 -9.5t-12.5 3.5t-3.5 13q16 65 50 123zM981 446q8 0 11.5 -6t0 -13t-11.5 -7
q-35 -1 -70 -10q-7 -2 -12 3.5t-3.5 12.5t8.5 9q38 10 77 11zM999 389q3 -4 3.5 -9.5t-3.5 -9.5q-14 -11 -28 -23q-10 -8 -18 0q-4 4 -4 9.5t4 9.5q13 11 27 23q10 8 19 0zM1108 325q12 -3 10 -16q-1 -4 -3 -13.5t-3 -14.5q0 -3 -3 -5.5t-6.5 -3.5t-6.5 0q-11 4 -9 16
q1 5 2.5 14.5t2.5 13.5q1 5 6 8t10 1z" />
    <glyph glyph-name="p" unicode="p" 
d="M1162 707q11 7 18 -5q4 -11 -4 -18q-25 -16 -57 -32q-1 -9 -2 -29q-2 -45 -6 -131.5t-6 -128.5q0 -10 -9.5 -12t-14.5 6q-7 9 -21 28q-93 126 -140 189q-33 -10 -68 -18q-4 -21 -6 -31q-5 -25 -8 -41q0 -2 -1 -4q-8 -45 -36 -188q-1 -8 -10.5 -9.5t-13.5 6.5q-2 5 -7 15
t-7 15q-18 34 -52.5 104t-51.5 104q-38 -2 -75 -2q-3 -4 -8 -12t-7 -12q-70 -113 -130 -209q-4 -7 -13 -6t-10 9q-2 6 -4 16.5t-3 14.5q-12 63 -44 217v3q-25 5 -50 11q-7 -8 -20 -24q-105 -125 -172 -203q-5 -7 -13.5 -3t-8.5 12q0 5 0.5 11.5l1 13t0.5 11.5q2 27 5.5 81.5
t5.5 81.5q-1 3 0 7v0q4 53 5 76q-12 5 -21 9q-65 30 -102 54q-7 4 -6 12t6.5 11t12.5 0q46 -30 124 -64q1 0 3 -1l2 -1h2q82 -35 169 -56q3 0 5 -2q240 -58 476 -14q141 27 270 84q65 29 102 54zM168 534q-6 6 -14 9t-14 -3q-3 -54 -10 -162q29 35 89 105q-15 5 -26 17
q-3 5 -7.5 11t-9 12.5t-8.5 10.5zM242 510q43 52 44 54q-72 19 -141 47q-1 -3 -1 -9v-9q-1 -4 -1.5 -12t-0.5 -12q19 4 35 -8q9 -7 28 -34q21 -29 35 -18q1 1 2 1zM409 459q4 -19 12.5 -61t12.5 -64q1 0 1 0.5v0.5l72 117q-16 1 -49 3.5t-49 3.5zM522 475q4 7 9.5 16
t11.5 18t10 16q-81 2 -161 16q1 -4 2.5 -11.5t2.5 -10.5q1 -5 2 -11t2.5 -12t2.5 -11q1 1 3 0q18 -1 54 -3.5t54 -4.5q4 0 7 -2zM783 336q4 19 12 62t13 66q-8 -1 -32 2q-31 3 -46 -23q18 -36 53 -107zM813 492q4 18 11 58q-68 -14 -137 -21l3.5 -7t4.5 -8q7 -15 22 -45
q13 15 32 21q13 4 32 1q26 -3 32 1zM1001 508l25.5 -34t29 -39.5t25.5 -33.5q2 48 6 139q-42 -18 -86 -32zM1088 568q1 12 2 35.5t2 35.5q-21 -10 -50 -22q-46 -19 -95 -35q8 -10 15 -21q4 -5 11.5 -15t11.5 -16q53 17 103 38z" />
    <glyph glyph-name="q" unicode="q" horiz-adv-x="553" 
d="M501 145q4 -7 0 -13.5t-11 -6.5h-53h-99q6 -22 39 -135q2 -7 -3 -12q-4 -4 -10 -4h-175q-6 0 -10 5t-3 11q30 103 39 135h-87q-3 -1 -5 0h-60q-8 0 -11 7q-4 6 0 13q2 4 7 12.5t7 12.5q15 26 45 77.5t45 77.5h-34q-5 0 -8.5 3t-4 7.5t1.5 9.5q15 26 45.5 79t46.5 79h-58
q-8 0 -11.5 7t-0.5 13l18 30q40 69 119 207q4 6 11.5 6t11.5 -6q6 -10 17 -30l120 -207q2 -5 1 -9t-4.5 -7.5t-8.5 -3.5h-58q16 -26 46.5 -79t45.5 -79q4 -7 0 -13.5t-11 -6.5h-44q0 -1 1.5 -3t1.5 -3q17 -29 50.5 -87t50.5 -87zM410 250q-8 13 -23.5 40.5t-23.5 40.5
q-2 5 -1.5 9.5t4 7.5t8.5 3h44q-1 3 -10 18q-15 -4 -23 -7q-36 -11 -108 -33.5t-108 -33.5q-56 -96 -83 -144h30h8l18 6t18 7q42 14 125 42.5t125 43.5zM179 351q7 0 11 -6.5t0 -13.5l-1 -1l-1 -2q24 8 95.5 30t110.5 35q-6 11 -13.5 23.5t-16 27.5t-13.5 24
q-111 -32 -167 -48q-6 -12 -19.5 -34.5t-19.5 -34.5h34zM396 529q-1 1 -6 11q-5 8 -11 18.5t-11 18.5t-11 18.5t-10 18.5q-13 -3 -69.5 -19.5t-87.5 -25.5q-3 -5 -7 -12.5t-8 -14.5t-8 -13h58q8 0 11.5 -6.5t-0.5 -12.5q-11 -19 -33 -58q90 26 134 39q-1 3 -5 9.5t-5 9.5
q-3 4 -2 8.5t4.5 7.5t8.5 3h58zM333 638q-30 52 -52 89q0 -1 -1 -2.5t-1.5 -2.5t-1.5 -2.5t-2 -2.5q-22 -39 -66 -115q21 6 62.5 18t61.5 18zM310 125h-67q-6 -21 -18.5 -62.5t-18.5 -62.5h141q-7 21 -19 62.5t-18 62.5zM320 151h147q0 1 -1 3t-2 3q-7 11 -20.5 34.5
t-20.5 35.5q-4 -2 -14 -5.5t-14 -4.5l-91 -31.5t-100 -34.5h29h87zM195 292q8 0 11 -6.5t0 -13t-11 -6.5t-11.5 6.5t0 13t11.5 6.5zM190 249q8 0 11.5 -6.5t0 -13t-11.5 -6.5q-4 0 -7.5 2.5t-4.5 6.5t0 8t4.5 6.5t7.5 2.5zM230 277q6 0 10 -4t4 -9v-1q0 -5 -4 -9t-10 -4
q-5 0 -9 4t-4 9v1q0 5 4 9q3 4 9 4zM311 590q5 0 9 -4t4 -9v-1q0 -5 -4 -9q-3 -4 -9 -4t-10 4q-3 4 -3 9v1q0 5 3 9q4 4 10 4z" />
    <glyph glyph-name="r" unicode="r" horiz-adv-x="1043" 
d="M991 154q2 -5 1.5 -9.5t-4 -7.5t-8.5 -3h-33h-83v-134h6h89q5 0 8.5 -3t4 -6.5t0 -7.5t-4 -6.5t-8.5 -2.5h-1q-16 -2 -34.5 -2t-40.5 1t-34 1h-224h-259h-214h-89q-8 0 -11.5 6.5t0 13t11.5 6.5h1q13 1 28 1t26.5 -0.5t27.5 -0.5h27h17v112h-98q-8 0 -11 6q-4 7 0 13
q16 28 49 85h-7q-8 0 -11.5 6.5t0.5 13.5q7 12 21 36.5t21 36.5h-19q-5 0 -8.5 3t-4.5 7.5t1 9.5q12 20 36 61.5t36 61.5q3 7 11 7t11 -7q39 -66 72 -123q2 -5 1 -9.5t-4.5 -7.5t-8.5 -3h-19q7 -12 21 -36.5t21 -36.5q4 -7 0.5 -13.5t-11.5 -6.5h-12q9 -16 26 -45t23 -40
q4 -6 0 -12.5t-11 -6.5h-99v-112h181h101v84h-73q-8 0 -11 6q-4 7 0 13q11 21 35 61q-8 0 -11.5 7t-0.5 13q5 7 10 16.5t10.5 19t10.5 16.5h-10q-8 0 -11.5 7t-0.5 13q8 13 18 30.5l20 35t18 30.5q3 6 11 6t11 -6q8 -13 18 -30.5l20 -35t18 -30.5q2 -4 1 -8.5t-4.5 -8
t-8.5 -3.5h-10q5 -8 15.5 -25.5t15.5 -26.5q3 -6 -0.5 -13t-11.5 -7h-4q12 -20 35 -61q4 -6 0.5 -12.5t-11.5 -6.5h-73v-84h132h181v134h-116q-8 0 -11 7q-4 6 0 13q11 19 31 53.5t27 47.5h-11q-5 0 -8.5 3.5t-4.5 7.5t2 9q26 46 51 88h-26q-5 0 -9 3.5t-4.5 8t1.5 8.5
q14 24 41.5 72t41.5 72q4 6 11.5 6t11.5 -6q17 -30 83 -144q2 -4 1.5 -8.5t-4.5 -8t-9 -3.5h-26q27 -46 51 -88q4 -7 0.5 -13.5t-11.5 -6.5h-18q10 -17 29.5 -50.5t29.5 -50.5zM546 263q-3 4 -15 24.5t-18 31.5q-5 -9 -16 -28t-17 -28h10q8 0 11.5 -7t0.5 -13
q-5 -7 -10.5 -16.5l-11 -19t-9.5 -16.5q5 0 9 -3.5t4.5 -8t-1.5 -8.5q-12 -21 -36 -61h128q-12 20 -36 61q-3 6 0.5 13t11.5 7h4q-5 8 -15 25.5t-15 26.5q-3 4 -2 8.5t4.5 8t8.5 3.5h10zM255 335q-4 6 -49 85q-16 -29 -49 -85h20q7 0 11 -6.5t0 -13.5q-7 -12 -21 -36.5
t-21 -36.5h6q5 0 8.5 -3t4.5 -7.5t-1 -9.5q-17 -28 -49 -84h177q-16 28 -49 84q-2 5 -1.5 9.5t4.5 7.5t8 3h12q-40 70 -42 73q-2 5 -1.5 9.5t4.5 7.5t8 3h20zM754 160h101h102q-11 20 -32 56t-26 46q-4 6 -0.5 12.5t11.5 6.5h17q-8 15 -25 44.5t-26 44.5q-2 4 -1 8.5t4.5 8
t8.5 3.5h26l-61 104l-60 -104h26q8 0 11.5 -7t0.5 -13q-7 -12 -16.5 -28t-18.5 -32t-17 -29h12q8 0 11.5 -6.5t-0.5 -12.5q-8 -15 -18.5 -32.5t-21.5 -37t-18 -32.5h10z" />
    <glyph glyph-name="s" unicode="s" horiz-adv-x="299" 
d="M189 333q26 0 42.5 -14.5t16.5 -39.5v-289q0 -6 -3 -10q-4 -3 -10 -3h-132q-5 0 -9 3.5t-4 9.5v163v88q0 42 6 55q15 32 50 36q-18 41 -1 82q3 7 10.5 8.5t12.5 -3.5t2 -12q-16 -39 5 -74h14zM116 167v-83.5v-80.5h106v132q0 16 0.5 50.5t0.5 53.5q-16 8 -20 9
q-14 3 -17 -16q-1 -5 -1 -12t-0.5 -12t-2 -11.5t-4 -11.5t-7.5 -10q-11 -11 -27 -13t-28 5zM126 294q-10 -10 -10 -28v-55v-3q2 -13 12.5 -19t21.5 2q5 4 7.5 11t2.5 13v14.5t2 13.5q6 27 29 31q12 3 31 -7v5v7q0 4 -1 8t-2.5 7t-4 5t-5 3.5t-6.5 2.5t-7 1t-7.5 0.5
t-7.5 0.5t-7.5 -0.5t-7.5 -0.5q-29 0 -40 -12zM106 350q-48 39 -56 103q-1 8 6.5 11.5t13.5 0.5q2 -2 8 -5q-1 58 41 99.5t102 38.5q8 0 11.5 -8t-2.5 -14q-31 -36 -35 -84q19 10 41 13q10 1 13 -9.5t-6 -14.5q-23 -11 -27 -56q-4 -50 -18 -69q-5 -7 -13 -6t-11 6.5t1 12.5
q7 10 10.5 22.5t5 30t2.5 25.5t4 15q-3 -3 -6 -5q-6 -6 -13.5 -2.5t-8.5 11.5q-5 56 25 104q-46 -8 -72 -47t-16 -85q2 -8 -5 -14t-14 -1l-4 3q12 -34 41 -57q7 -5 4.5 -12t-9 -9t-13.5 2z" />
    <glyph glyph-name="s" unicode="&#xdf;" horiz-adv-x="299" 
d="M189 333q26 0 42.5 -14.5t16.5 -39.5v-289q0 -6 -3 -10q-4 -3 -10 -3h-132q-5 0 -9 3.5t-4 9.5v163v88q0 42 6 55q15 32 50 36q-18 41 -1 82q3 7 10.5 8.5t12.5 -3.5t2 -12q-16 -39 5 -74h14zM116 167v-83.5v-80.5h106v132q0 16 0.5 50.5t0.5 53.5q-16 8 -20 9
q-14 3 -17 -16q-1 -5 -1 -12t-0.5 -12t-2 -11.5t-4 -11.5t-7.5 -10q-11 -11 -27 -13t-28 5zM126 294q-10 -10 -10 -28v-55v-3q2 -13 12.5 -19t21.5 2q5 4 7.5 11t2.5 13v14.5t2 13.5q6 27 29 31q12 3 31 -7v5v7q0 4 -1 8t-2.5 7t-4 5t-5 3.5t-6.5 2.5t-7 1t-7.5 0.5
t-7.5 0.5t-7.5 -0.5t-7.5 -0.5q-29 0 -40 -12zM106 350q-48 39 -56 103q-1 8 6.5 11.5t13.5 0.5q2 -2 8 -5q-1 58 41 99.5t102 38.5q8 0 11.5 -8t-2.5 -14q-31 -36 -35 -84q19 10 41 13q10 1 13 -9.5t-6 -14.5q-23 -11 -27 -56q-4 -50 -18 -69q-5 -7 -13 -6t-11 6.5t1 12.5
q7 10 10.5 22.5t5 30t2.5 25.5t4 15q-3 -3 -6 -5q-6 -6 -13.5 -2.5t-8.5 11.5q-5 56 25 104q-46 -8 -72 -47t-16 -85q2 -8 -5 -14t-14 -1l-4 3q12 -34 41 -57q7 -5 4.5 -12t-9 -9t-13.5 2z" />
    <glyph glyph-name="t" unicode="t" horiz-adv-x="791" 
d="M740 529q0 -9 0.5 -26.5t0.5 -32t-1 -26.5q-2 -16 -13 -25.5t-26 -10.5h-3v-35v-104v-69v-163q0 -6 -3.5 -9.5t-9.5 -3.5h-71h-167h-103h-43h-196q-5 0 -9 3.5t-4 9.5v48v115v69v139q-16 0 -25 7q-17 12 -17 41v96q0 21 11 33.5t32 12.5q75 1 204 1q-28 10 -54 25
q-75 43 -69 98q2 29 26.5 45.5t53.5 14.5t53 -15t41.5 -35.5t29.5 -45t23 -51.5q23 66 56 100q49 52 106 46q30 -3 49.5 -23.5t15.5 -50.5q-7 -53 -87 -93q-18 -9 -37 -16h132h55q1 0 3 0.5t3.5 0.5t3.5 -1q10 0 18.5 -4.5t14 -12.5t6.5 -19v-3v-1v-29zM447 434h10v138h-78
h-46v-138h11h103zM320 408h-19h-165h-18v-35v-91h17h196v126h-11zM118 256v-43h17h196v43h-18h-195zM357 200v-150h76v35v115v69v139h-76v-35v-104v-69zM460 256v-43h16h196v43h-17h-195zM672 408h-58h-67h-77h-10v-35v-91h16h196v126zM477 718q-33 -34 -58 -112
q69 6 129 41q37 23 49 45q8 14 5 30.5t-17 25.5q-11 6 -23 7.5t-23.5 -1t-23 -8t-21 -12.5t-17.5 -16zM206 692q11 -22 49 -45q59 -35 129 -41q-26 79 -58 112q-14 15 -31.5 24.5t-38.5 13t-38 -7.5q-15 -9 -18 -25.5t6 -30.5zM76 456q0 -20 13 -22q5 -1 13 0h3h13h58h9h122
v138h-126h-65h-27q-9 -1 -11 -6.5t-2 -16.5v-47v-46zM176 50h155v35v101h-18h-195v-136h58zM489 50h183v35v101h-17h-195v-136h29zM699 434q6 0 9.5 3t5 9t1.5 10.5t-0.5 12.5t-0.5 10v80q-1 13 -16 13q-13 1 -28.5 1h-27.5t-29 -0.5t-28 -0.5h-102v-138h6h98h98h3h11z" />
    <glyph glyph-name="u" unicode="u" horiz-adv-x="1152" 
d="M1096 474q11 -23 4 -47.5t-31 -34.5q-12 -5 -15 9q-2 12 8 16q19 8 14 37q-6 25 -36 36q-24 9 -58.5 10.5t-59.5 -0.5q-67 -2 -130 -12q-83 -14 -162 -41q-15 -6 -34 -13h22h2h235h66q54 0 61 -26q1 -2 1 -5v-4v-46v-9.5v-11.5t-1 -9.5t-3 -10t-6 -8.5q-14 -11 -42 -11
h-2.5h-2.5v-20v-236q0 -6 -4 -10t-9 -4h-98h-227h-140h-59h-266q-6 0 -9.5 4t-3.5 10v33v223h-3q-17 0 -26 2q-26 8 -28 28v17q0 7 -0.5 19t-0.5 22t1 19q0 17 14.5 25.5t33.5 8.5h34h203h78h20q-19 7 -34 13q-36 5 -149 6q-24 0 -39.5 1t-41 3.5t-43 9t-35.5 16t-29 26.5
t-15 39q-1 8 4.5 13t12.5 3.5t8 -9.5q3 -14 9 -25.5t16.5 -19.5t21 -14t26 -9t27.5 -5t29.5 -3t28.5 -1t27.5 0.5t23.5 0.5q35 0 56 -1q-14 9 -26 17q-35 28 -54.5 62.5t-8.5 72.5q10 35 43.5 50.5t69.5 6.5q68 -17 120 -105q21 -36 32 -76q14 51 43 94q57 83 125 90
q38 3 67.5 -18.5t32.5 -58.5q5 -59 -60 -112q139 32 270 24q82 -5 102 -51zM564 557q-29 -55 -33 -118q2 2 5 2q24 8 37 13q22 9 46 17q37 15 65 33q82 53 73 111q-5 33 -37 44t-60 -2q-56 -23 -96 -100zM607 319v89h-63h-115v-89h19h10h130h19zM461 273v-223h114v20v223
h-114v-20zM364 494q20 -11 46 -22q50 -8 90 -26q-6 70 -42 128q-46 75 -103 88q-33 7 -58.5 -11.5t-22.5 -51.5q5 -57 90 -105zM102 319h18h3h92h6h181v89h-119h-166h-4.5h-5h-4.5h-1h-1q-20 -1 -22 -5v-2v-3v-58v-16q2 -5 23 -5zM221 50h214v20v223h-20h-26h-5h-224h-24
v-20v-223h85zM646 50h126.5h127.5v20v223h-16h-69h-149h-46h-19v-20v-223h45zM931 408h-67.5h-67.5h-163v-89h13h78h183h6h1h22q18 1 21 5v2v2v27v48q-1 4 -23 5h-1.5h-1.5z" />
    <glyph glyph-name="u" unicode="&#xfc;" horiz-adv-x="1152" 
d="M1096 474q11 -23 4 -47.5t-31 -34.5q-12 -5 -15 9q-2 12 8 16q19 8 14 37q-6 25 -36 36q-24 9 -58.5 10.5t-59.5 -0.5q-67 -2 -130 -12q-83 -14 -162 -41q-15 -6 -34 -13h22h2h235h66q54 0 61 -26q1 -2 1 -5v-4v-46v-9.5v-11.5t-1 -9.5t-3 -10t-6 -8.5q-14 -11 -42 -11
h-2.5h-2.5v-20v-236q0 -6 -4 -10t-9 -4h-98h-227h-140h-59h-266q-6 0 -9.5 4t-3.5 10v33v223h-3q-17 0 -26 2q-26 8 -28 28v17q0 7 -0.5 19t-0.5 22t1 19q0 17 14.5 25.5t33.5 8.5h34h203h78h20q-19 7 -34 13q-36 5 -149 6q-24 0 -39.5 1t-41 3.5t-43 9t-35.5 16t-29 26.5
t-15 39q-1 8 4.5 13t12.5 3.5t8 -9.5q3 -14 9 -25.5t16.5 -19.5t21 -14t26 -9t27.5 -5t29.5 -3t28.5 -1t27.5 0.5t23.5 0.5q35 0 56 -1q-14 9 -26 17q-35 28 -54.5 62.5t-8.5 72.5q10 35 43.5 50.5t69.5 6.5q68 -17 120 -105q21 -36 32 -76q14 51 43 94q57 83 125 90
q38 3 67.5 -18.5t32.5 -58.5q5 -59 -60 -112q139 32 270 24q82 -5 102 -51zM564 557q-29 -55 -33 -118q2 2 5 2q24 8 37 13q22 9 46 17q37 15 65 33q82 53 73 111q-5 33 -37 44t-60 -2q-56 -23 -96 -100zM607 319v89h-63h-115v-89h19h10h130h19zM461 273v-223h114v20v223
h-114v-20zM364 494q20 -11 46 -22q50 -8 90 -26q-6 70 -42 128q-46 75 -103 88q-33 7 -58.5 -11.5t-22.5 -51.5q5 -57 90 -105zM102 319h18h3h92h6h181v89h-119h-166h-4.5h-5h-4.5h-1h-1q-20 -1 -22 -5v-2v-3v-58v-16q2 -5 23 -5zM221 50h214v20v223h-20h-26h-5h-224h-24
v-20v-223h85zM646 50h126.5h127.5v20v223h-16h-69h-149h-46h-19v-20v-223h45zM931 408h-67.5h-67.5h-163v-89h13h78h183h6h1h22q18 1 21 5v2v2v27v48q-1 4 -23 5h-1.5h-1.5z" />
    <glyph glyph-name="u" unicode="&#xfb;" horiz-adv-x="1152" 
d="M1096 474q11 -23 4 -47.5t-31 -34.5q-12 -5 -15 9q-2 12 8 16q19 8 14 37q-6 25 -36 36q-24 9 -58.5 10.5t-59.5 -0.5q-67 -2 -130 -12q-83 -14 -162 -41q-15 -6 -34 -13h22h2h235h66q54 0 61 -26q1 -2 1 -5v-4v-46v-9.5v-11.5t-1 -9.5t-3 -10t-6 -8.5q-14 -11 -42 -11
h-2.5h-2.5v-20v-236q0 -6 -4 -10t-9 -4h-98h-227h-140h-59h-266q-6 0 -9.5 4t-3.5 10v33v223h-3q-17 0 -26 2q-26 8 -28 28v17q0 7 -0.5 19t-0.5 22t1 19q0 17 14.5 25.5t33.5 8.5h34h203h78h20q-19 7 -34 13q-36 5 -149 6q-24 0 -39.5 1t-41 3.5t-43 9t-35.5 16t-29 26.5
t-15 39q-1 8 4.5 13t12.5 3.5t8 -9.5q3 -14 9 -25.5t16.5 -19.5t21 -14t26 -9t27.5 -5t29.5 -3t28.5 -1t27.5 0.5t23.5 0.5q35 0 56 -1q-14 9 -26 17q-35 28 -54.5 62.5t-8.5 72.5q10 35 43.5 50.5t69.5 6.5q68 -17 120 -105q21 -36 32 -76q14 51 43 94q57 83 125 90
q38 3 67.5 -18.5t32.5 -58.5q5 -59 -60 -112q139 32 270 24q82 -5 102 -51zM564 557q-29 -55 -33 -118q2 2 5 2q24 8 37 13q22 9 46 17q37 15 65 33q82 53 73 111q-5 33 -37 44t-60 -2q-56 -23 -96 -100zM607 319v89h-63h-115v-89h19h10h130h19zM461 273v-223h114v20v223
h-114v-20zM364 494q20 -11 46 -22q50 -8 90 -26q-6 70 -42 128q-46 75 -103 88q-33 7 -58.5 -11.5t-22.5 -51.5q5 -57 90 -105zM102 319h18h3h92h6h181v89h-119h-166h-4.5h-5h-4.5h-1h-1q-20 -1 -22 -5v-2v-3v-58v-16q2 -5 23 -5zM221 50h214v20v223h-20h-26h-5h-224h-24
v-20v-223h85zM646 50h126.5h127.5v20v223h-16h-69h-149h-46h-19v-20v-223h45zM931 408h-67.5h-67.5h-163v-89h13h78h183h6h1h22q18 1 21 5v2v2v27v48q-1 4 -23 5h-1.5h-1.5z" />
    <glyph glyph-name="u" unicode="&#xfa;" horiz-adv-x="1152" 
d="M1096 474q11 -23 4 -47.5t-31 -34.5q-12 -5 -15 9q-2 12 8 16q19 8 14 37q-6 25 -36 36q-24 9 -58.5 10.5t-59.5 -0.5q-67 -2 -130 -12q-83 -14 -162 -41q-15 -6 -34 -13h22h2h235h66q54 0 61 -26q1 -2 1 -5v-4v-46v-9.5v-11.5t-1 -9.5t-3 -10t-6 -8.5q-14 -11 -42 -11
h-2.5h-2.5v-20v-236q0 -6 -4 -10t-9 -4h-98h-227h-140h-59h-266q-6 0 -9.5 4t-3.5 10v33v223h-3q-17 0 -26 2q-26 8 -28 28v17q0 7 -0.5 19t-0.5 22t1 19q0 17 14.5 25.5t33.5 8.5h34h203h78h20q-19 7 -34 13q-36 5 -149 6q-24 0 -39.5 1t-41 3.5t-43 9t-35.5 16t-29 26.5
t-15 39q-1 8 4.5 13t12.5 3.5t8 -9.5q3 -14 9 -25.5t16.5 -19.5t21 -14t26 -9t27.5 -5t29.5 -3t28.5 -1t27.5 0.5t23.5 0.5q35 0 56 -1q-14 9 -26 17q-35 28 -54.5 62.5t-8.5 72.5q10 35 43.5 50.5t69.5 6.5q68 -17 120 -105q21 -36 32 -76q14 51 43 94q57 83 125 90
q38 3 67.5 -18.5t32.5 -58.5q5 -59 -60 -112q139 32 270 24q82 -5 102 -51zM564 557q-29 -55 -33 -118q2 2 5 2q24 8 37 13q22 9 46 17q37 15 65 33q82 53 73 111q-5 33 -37 44t-60 -2q-56 -23 -96 -100zM607 319v89h-63h-115v-89h19h10h130h19zM461 273v-223h114v20v223
h-114v-20zM364 494q20 -11 46 -22q50 -8 90 -26q-6 70 -42 128q-46 75 -103 88q-33 7 -58.5 -11.5t-22.5 -51.5q5 -57 90 -105zM102 319h18h3h92h6h181v89h-119h-166h-4.5h-5h-4.5h-1h-1q-20 -1 -22 -5v-2v-3v-58v-16q2 -5 23 -5zM221 50h214v20v223h-20h-26h-5h-224h-24
v-20v-223h85zM646 50h126.5h127.5v20v223h-16h-69h-149h-46h-19v-20v-223h45zM931 408h-67.5h-67.5h-163v-89h13h78h183h6h1h22q18 1 21 5v2v2v27v48q-1 4 -23 5h-1.5h-1.5z" />
    <glyph glyph-name="u" unicode="&#xf9;" horiz-adv-x="1152" 
d="M1096 474q11 -23 4 -47.5t-31 -34.5q-12 -5 -15 9q-2 12 8 16q19 8 14 37q-6 25 -36 36q-24 9 -58.5 10.5t-59.5 -0.5q-67 -2 -130 -12q-83 -14 -162 -41q-15 -6 -34 -13h22h2h235h66q54 0 61 -26q1 -2 1 -5v-4v-46v-9.5v-11.5t-1 -9.5t-3 -10t-6 -8.5q-14 -11 -42 -11
h-2.5h-2.5v-20v-236q0 -6 -4 -10t-9 -4h-98h-227h-140h-59h-266q-6 0 -9.5 4t-3.5 10v33v223h-3q-17 0 -26 2q-26 8 -28 28v17q0 7 -0.5 19t-0.5 22t1 19q0 17 14.5 25.5t33.5 8.5h34h203h78h20q-19 7 -34 13q-36 5 -149 6q-24 0 -39.5 1t-41 3.5t-43 9t-35.5 16t-29 26.5
t-15 39q-1 8 4.5 13t12.5 3.5t8 -9.5q3 -14 9 -25.5t16.5 -19.5t21 -14t26 -9t27.5 -5t29.5 -3t28.5 -1t27.5 0.5t23.5 0.5q35 0 56 -1q-14 9 -26 17q-35 28 -54.5 62.5t-8.5 72.5q10 35 43.5 50.5t69.5 6.5q68 -17 120 -105q21 -36 32 -76q14 51 43 94q57 83 125 90
q38 3 67.5 -18.5t32.5 -58.5q5 -59 -60 -112q139 32 270 24q82 -5 102 -51zM564 557q-29 -55 -33 -118q2 2 5 2q24 8 37 13q22 9 46 17q37 15 65 33q82 53 73 111q-5 33 -37 44t-60 -2q-56 -23 -96 -100zM607 319v89h-63h-115v-89h19h10h130h19zM461 273v-223h114v20v223
h-114v-20zM364 494q20 -11 46 -22q50 -8 90 -26q-6 70 -42 128q-46 75 -103 88q-33 7 -58.5 -11.5t-22.5 -51.5q5 -57 90 -105zM102 319h18h3h92h6h181v89h-119h-166h-4.5h-5h-4.5h-1h-1q-20 -1 -22 -5v-2v-3v-58v-16q2 -5 23 -5zM221 50h214v20v223h-20h-26h-5h-224h-24
v-20v-223h85zM646 50h126.5h127.5v20v223h-16h-69h-149h-46h-19v-20v-223h45zM931 408h-67.5h-67.5h-163v-89h13h78h183h6h1h22q18 1 21 5v2v2v27v48q-1 4 -23 5h-1.5h-1.5z" />
    <glyph glyph-name="v" unicode="v" horiz-adv-x="725" 
d="M663 403q8 0 11 -6.5t0 -13t-11 -6.5h-65q9 -11 26.5 -31.5t20.5 -23.5q5 -6 2.5 -13.5t-9 -9t-12.5 4.5q-39 45 -63 73h-71q-5 -38 -28 -68l21.5 -21.5l27.5 -27.5q3 -3 3.5 -7.5t-2 -7.5t-5.5 -5.5t-7.5 -2t-7.5 4.5l-48 48q-26 -23 -59 -29q-6 -1 -12 -1v-73
q8 -7 33.5 -29t39.5 -34q6 -5 3.5 -12t-9 -9t-13.5 2q-36 32 -54 47v-63q0 -8 -6.5 -11.5t-13.5 0t-7 11.5v60q-8 -8 -25.5 -23t-26.5 -22q-6 -6 -13.5 -3t-9 9t4.5 12q19 17 70 61v77q-34 3 -62 23l-45 -44q-5 -6 -12 -3.5t-9 9t3 13.5l43 42q-10 11 -17 23q-15 24 -17 54
h-71q-26 -30 -63 -73q-5 -6 -12 -4t-9 8.5t2 13.5l24 27t23 28h-63q-8 0 -11.5 6.5t0 13t11.5 6.5h60q-17 20 -45 52q-5 6 -2.5 13.5t8.5 9t12 -3.5q6 -7 12.5 -14.5t12.5 -14.5l12 -14t12.5 -14.5t11.5 -13.5h75q4 37 26 67l-52 52q-4 4 -4.5 8t2 7.5t5.5 5.5t7.5 1.5
t7.5 -3.5l52 -52q31 26 72 31v69q-23 21 -70 61q-6 6 -4 12.5t8.5 8.5t13.5 -2q33 -28 52 -45v65q0 4 3 7.5t7 4t7.5 0t6.5 -4t3 -7.5v-65q18 15 54 47q6 5 13.5 2.5t9 -9t-3.5 -12.5q-15 -12 -42.5 -36t-30.5 -27v-69q16 -2 32 -8q23 -8 41 -24l46 46q6 5 13 3t8.5 -8.5
t-2.5 -13.5q-7 -6 -47 -47q22 -29 26 -65h71q15 16 61 71q6 6 12.5 3.5t8.5 -9t-2 -13.5q-8 -9 -23 -26.5t-22 -25.5h65zM381 493q-3 0 -6 1v-91h90q-4 33 -27 58t-57 32zM272 444q-12 -19 -14 -41h90v91q-50 -7 -76 -50zM281 323q26 -32 67 -37v91h-90q4 -31 23 -54z
M439 319q22 25 26 58h-90v-91q11 1 22 5q21 7 38 24q1 2 4 4z" />
    <glyph glyph-name="w" unicode="w" horiz-adv-x="725" 
d="M663 403q8 0 11 -6.5t0 -13t-11 -6.5h-65q8 -10 23.5 -28t23.5 -27q5 -6 2.5 -13.5t-9 -9t-12.5 4.5q-10 12 -31 36t-32 37h-169q10 -10 28 -28.5t33 -33t28 -27.5q9 -9 -0.5 -18.5t-17.5 -0.5l-90 90v-172q48 -42 73 -63q6 -5 3.5 -12t-9 -9t-13.5 2q-36 32 -54 47v-63
q0 -8 -6.5 -11.5t-13.5 0t-7 11.5v60q-8 -8 -25.5 -23t-26.5 -22q-6 -6 -13.5 -3t-9 9t4.5 12q19 17 70 61v174l-87 -88q-6 -6 -13 -3.5t-9 9t3 13.5l89 89h-170q-11 -13 -32 -37t-31 -36q-5 -6 -12 -4t-9 8.5t2 13.5l24 27t23 28h-63q-8 0 -11.5 6.5t0 13t11.5 6.5h60
q-8 8 -23 25.5t-22 26.5q-5 6 -2.5 13.5t8.5 9t12 -3.5q7 -8 15.5 -18t15.5 -18t15 -17.5t15 -17.5h174l-88 88q-6 5 -3.5 12t9 9t12.5 -3l87 -87v167q-23 21 -70 61q-6 6 -4 12.5t8.5 8.5t13.5 -2q33 -28 52 -45v65q0 8 7 11t13.5 0t6.5 -11v-65q18 15 54 47q6 5 13.5 2.5
t9 -9t-3.5 -12.5q-15 -12 -41.5 -35t-31.5 -28v-169l89 89q5 6 12.5 3.5t9 -9t-3.5 -12.5q-9 -9 -21.5 -22t-22 -22.5l-21.5 -21.5t-23 -22h169q10 12 30.5 35.5t30.5 35.5q6 6 12.5 3.5t8.5 -9t-2 -13.5q-28 -32 -45 -52h65z" />
    <glyph glyph-name="x" unicode="x" horiz-adv-x="806" 
d="M747 445q13 -2 8 -15q-4 -12 -15 -10q-8 0 -17 1.5t-18.5 3t-16.5 2.5h-3.5t-5 0.5t-4.5 0.5q-44 -37 -69 -63q32 -54 32 -117q0 -79 -49.5 -143t-126.5 -83q-68 -17 -135 7t-109 80q-41 55 -45 125t29 129q-26 27 -71 65q-2 0 -5 -0.5l-6 -1t-5 -0.5l-49 -6
q-13 -2 -16 11q0 11 9 14q11 1 40 5q1 0 5 1q-15 13 -26 22q-6 5 -3.5 12t9 9t13.5 -3q10 -9 27 -23q-2 9 -3 15t-3.5 19t-3.5 20t4.5 12t12.5 3.5t8 -8.5q2 -9 5 -26t4 -25q6 -29 5 -34q40 -34 64 -59q37 51 95 76q-34 28 -47 69t-1.5 84t43.5 71q33 29 76.5 35.5
t82.5 -11.5q39 -17 62.5 -54t23.5 -80q0 -55 -35 -96q-8 -9 -18 -17q56 -25 92 -75q24 24 62 57q-1 3 -0.5 9t1.5 9.5t2.5 9t1.5 8.5q1 8 4 24.5t5 24.5q1 7 8 8.5t12.5 -3.5t4.5 -12q-4 -24 -7 -39q0 -3 -1 -7.5t-2 -7.5q17 14 27 23q6 5 13.5 2.5t9 -8.5t-3.5 -12
q-11 -9 -26 -22q2 0 5 -1zM307 647q-31 -43 -20.5 -94.5t54.5 -80.5q26 7 52 9q39 2 76 -9q56 36 57 103q0 60 -46 96q-40 31 -91.5 24t-81.5 -48zM487 58q56 24 90.5 76t34.5 114q0 35 -11.5 67t-31 58t-47.5 45.5t-61 28.5q0 1 -2 1.5l-2 0.5q-2 0 -5 1t-5 1q-1 0 -3 1
q-4 0 -6 1h-2q-4 1 -7 1h-1q-5 1 -8 1q-12 1 -24 0q-59 -3 -108.5 -37t-72.5 -88q-25 -58 -12.5 -121.5t57.5 -107.5q44 -44 106.5 -56t120.5 13zM401 375q-13 0 -13 13t13 13h1q13 0 13 -13t-13 -13h-1zM403 315q8 0 11 -6.5t0 -13t-11 -6.5t-11.5 6.5t0 13t11.5 6.5z
M403 220q5 0 9 -4t4 -9v-2q0 -5 -4 -9q-3 -4 -9 -4q-5 -1 -9 4q-4 3 -4 9v2q0 5 4 9q3 3 9 4zM405 129q5 0 9 -4q3 -3 4 -9q0 -5 -4 -9t-9 -4h-2q-5 0 -9 4q-4 3 -4 9q0 5 4 9q3 4 9 4h2zM350 558.5q-16 0.5 -27.5 12.5t-11.5 28t12 28t28 12t27 -10.5t14 -25.5v-4v-5
q-3 -16 -14.5 -26t-27.5 -9.5zM366 599q-1 14 -15 14t-14 -14t14 -14t15 14zM462 558.5q-16 0.5 -27.5 12.5t-11.5 28t12 28t28 12t27 -10.5t13 -25.5q1 -2 1 -4q0 -3 -1 -5q-2 -16 -13.5 -26t-27.5 -9.5zM478 599q-1 14 -15 14t-14 -14t14 -14t15 14zM340 516q-12 9 -2 21
q6 8 15 2q25 -16 54.5 -16t53.5 16q7 4 13 0t6.5 -10.5t-5.5 -12.5q-30 -20 -67.5 -20t-67.5 20z" />
    <glyph glyph-name="y" unicode="y" horiz-adv-x="944" 
d="M891 496q8 -65 -3 -104q-13 -42 -45 -67q-4 -4 -9 -6l-4 -2q-30 -17 -66 -15q-30 1 -61.5 14.5t-51 27.5t-50.5 39q-1 -2 -3 -4q72 -150 78 -253q1 -9 -9.5 -12t-14.5 6q-10 18 -63 6q-45 -9 -81 -29q-9 -5 -15.5 2t-2.5 16q56 106 40 224q-13 -2 -26 -3h-20h-23.5h-20.5
q-7 0 -15 1q-16 -117 40 -222q4 -9 -3 -16t-15 -2q-37 20 -81 29q-53 12 -63 -6q-4 -9 -14.5 -6t-9.5 12q7 127 63 243q2 4 6 6l-0.5 0.5l-0.5 0.5q-3 2 -6 6q-32 -27 -54.5 -42.5t-57.5 -28t-68 -9.5q-26 3 -47 15l-4 2q-4 2 -8 6q-41 31 -50 89q-5 35 4 104q7 52 21 81
q18 39 56 53t82 3q33 -8 86 -40t79 -41q28 15 60 15h61q33 0 62 -15q24 8 85 44t101 41q49 6 82 -16q30 -21 44 -63q9 -26 16 -84zM81 506q-8 -63 -2 -93q4 -21 12 -37q1 2 1 3q11 28 59 49q76 35 162 27q-4 62 41 102q-16 7 -62.5 35t-75.5 36q-44 13 -75 0
q-30 -12 -45 -50q-9 -24 -15 -72zM325 402l2 2q-6 11 -10 24q-66 9 -131 -13q-38 -14 -56 -29q-11 -9 -15 -22t9 -23l2 -2q24 -13 56 -11q26 1 54.5 14t44.5 25t44 35zM426 135q-41 100 -26 208q-19 6 -34 17q-1 -3 -2 -5q-46 -95 -57 -201q20 5 53 0q34 -5 66 -19zM395 372
q12 -5 27 -7.5t25.5 -3t30 0.5t26.5 1q53 0 83 44.5t10 93.5q-18 43 -61 57q-16 5 -57 5q-47 0 -53 -1q-19 -2 -36 -11q-2 -3 -6 -4q-18 -12 -29 -29q-25 -38 -12.5 -82t52.5 -64zM594.5 154q33.5 5 52.5 0q-11 85 -70 207q-10 -8 -22 -13q15 -111 -27 -213q33 14 66.5 19z
M619 402q31 -25 49.5 -38.5t50 -25.5t61.5 -10q26 2 45 17q8 10 3.5 21.5t-13.5 19.5q-18 15 -57 29q-65 22 -133 13q-3 -12 -9 -24q2 0 3 -2zM868 434q2 34 -7 92q-7 44 -20 68q-13 22 -36 32t-46.5 8t-47.5 -12q-19 -7 -40.5 -19.5t-43 -26t-39.5 -20.5q39 -35 42 -86
q1 -7 0 -15q86 8 164 -27q48 -22 59 -51q13 25 15 57zM373 502q8 0 11.5 -6.5t0 -13t-11.5 -6.5t-11 6.5t0 13t11 6.5zM378.5 463q7.5 0 11 -6.5t0 -13t-11 -6.5t-11 6.5t0 13t11 6.5zM407 489q8 0 11.5 -6.5t0 -13t-11.5 -6.5t-11 6.5t0 13t11 6.5z" />
    <glyph glyph-name="y" unicode="&#xff;" horiz-adv-x="944" 
d="M891 496q8 -65 -3 -104q-13 -42 -45 -67q-4 -4 -9 -6l-4 -2q-30 -17 -66 -15q-30 1 -61.5 14.5t-51 27.5t-50.5 39q-1 -2 -3 -4q72 -150 78 -253q1 -9 -9.5 -12t-14.5 6q-10 18 -63 6q-45 -9 -81 -29q-9 -5 -15.5 2t-2.5 16q56 106 40 224q-13 -2 -26 -3h-20h-23.5h-20.5
q-7 0 -15 1q-16 -117 40 -222q4 -9 -3 -16t-15 -2q-37 20 -81 29q-53 12 -63 -6q-4 -9 -14.5 -6t-9.5 12q7 127 63 243q2 4 6 6l-0.5 0.5l-0.5 0.5q-3 2 -6 6q-32 -27 -54.5 -42.5t-57.5 -28t-68 -9.5q-26 3 -47 15l-4 2q-4 2 -8 6q-41 31 -50 89q-5 35 4 104q7 52 21 81
q18 39 56 53t82 3q33 -8 86 -40t79 -41q28 15 60 15h61q33 0 62 -15q24 8 85 44t101 41q49 6 82 -16q30 -21 44 -63q9 -26 16 -84zM81 506q-8 -63 -2 -93q4 -21 12 -37q1 2 1 3q11 28 59 49q76 35 162 27q-4 62 41 102q-16 7 -62.5 35t-75.5 36q-44 13 -75 0
q-30 -12 -45 -50q-9 -24 -15 -72zM325 402l2 2q-6 11 -10 24q-66 9 -131 -13q-38 -14 -56 -29q-11 -9 -15 -22t9 -23l2 -2q24 -13 56 -11q26 1 54.5 14t44.5 25t44 35zM426 135q-41 100 -26 208q-19 6 -34 17q-1 -3 -2 -5q-46 -95 -57 -201q20 5 53 0q34 -5 66 -19zM395 372
q12 -5 27 -7.5t25.5 -3t30 0.5t26.5 1q53 0 83 44.5t10 93.5q-18 43 -61 57q-16 5 -57 5q-47 0 -53 -1q-19 -2 -36 -11q-2 -3 -6 -4q-18 -12 -29 -29q-25 -38 -12.5 -82t52.5 -64zM594.5 154q33.5 5 52.5 0q-11 85 -70 207q-10 -8 -22 -13q15 -111 -27 -213q33 14 66.5 19z
M619 402q31 -25 49.5 -38.5t50 -25.5t61.5 -10q26 2 45 17q8 10 3.5 21.5t-13.5 19.5q-18 15 -57 29q-65 22 -133 13q-3 -12 -9 -24q2 0 3 -2zM868 434q2 34 -7 92q-7 44 -20 68q-13 22 -36 32t-46.5 8t-47.5 -12q-19 -7 -40.5 -19.5t-43 -26t-39.5 -20.5q39 -35 42 -86
q1 -7 0 -15q86 8 164 -27q48 -22 59 -51q13 25 15 57zM373 502q8 0 11.5 -6.5t0 -13t-11.5 -6.5t-11 6.5t0 13t11 6.5zM378.5 463q7.5 0 11 -6.5t0 -13t-11 -6.5t-11 6.5t0 13t11 6.5zM407 489q8 0 11.5 -6.5t0 -13t-11.5 -6.5t-11 6.5t0 13t11 6.5z" />
    <glyph glyph-name="y" unicode="&#xfd;" horiz-adv-x="944" 
d="M891 496q8 -65 -3 -104q-13 -42 -45 -67q-4 -4 -9 -6l-4 -2q-30 -17 -66 -15q-30 1 -61.5 14.5t-51 27.5t-50.5 39q-1 -2 -3 -4q72 -150 78 -253q1 -9 -9.5 -12t-14.5 6q-10 18 -63 6q-45 -9 -81 -29q-9 -5 -15.5 2t-2.5 16q56 106 40 224q-13 -2 -26 -3h-20h-23.5h-20.5
q-7 0 -15 1q-16 -117 40 -222q4 -9 -3 -16t-15 -2q-37 20 -81 29q-53 12 -63 -6q-4 -9 -14.5 -6t-9.5 12q7 127 63 243q2 4 6 6l-0.5 0.5l-0.5 0.5q-3 2 -6 6q-32 -27 -54.5 -42.5t-57.5 -28t-68 -9.5q-26 3 -47 15l-4 2q-4 2 -8 6q-41 31 -50 89q-5 35 4 104q7 52 21 81
q18 39 56 53t82 3q33 -8 86 -40t79 -41q28 15 60 15h61q33 0 62 -15q24 8 85 44t101 41q49 6 82 -16q30 -21 44 -63q9 -26 16 -84zM81 506q-8 -63 -2 -93q4 -21 12 -37q1 2 1 3q11 28 59 49q76 35 162 27q-4 62 41 102q-16 7 -62.5 35t-75.5 36q-44 13 -75 0
q-30 -12 -45 -50q-9 -24 -15 -72zM325 402l2 2q-6 11 -10 24q-66 9 -131 -13q-38 -14 -56 -29q-11 -9 -15 -22t9 -23l2 -2q24 -13 56 -11q26 1 54.5 14t44.5 25t44 35zM426 135q-41 100 -26 208q-19 6 -34 17q-1 -3 -2 -5q-46 -95 -57 -201q20 5 53 0q34 -5 66 -19zM395 372
q12 -5 27 -7.5t25.5 -3t30 0.5t26.5 1q53 0 83 44.5t10 93.5q-18 43 -61 57q-16 5 -57 5q-47 0 -53 -1q-19 -2 -36 -11q-2 -3 -6 -4q-18 -12 -29 -29q-25 -38 -12.5 -82t52.5 -64zM594.5 154q33.5 5 52.5 0q-11 85 -70 207q-10 -8 -22 -13q15 -111 -27 -213q33 14 66.5 19z
M619 402q31 -25 49.5 -38.5t50 -25.5t61.5 -10q26 2 45 17q8 10 3.5 21.5t-13.5 19.5q-18 15 -57 29q-65 22 -133 13q-3 -12 -9 -24q2 0 3 -2zM868 434q2 34 -7 92q-7 44 -20 68q-13 22 -36 32t-46.5 8t-47.5 -12q-19 -7 -40.5 -19.5t-43 -26t-39.5 -20.5q39 -35 42 -86
q1 -7 0 -15q86 8 164 -27q48 -22 59 -51q13 25 15 57zM373 502q8 0 11.5 -6.5t0 -13t-11.5 -6.5t-11 6.5t0 13t11 6.5zM378.5 463q7.5 0 11 -6.5t0 -13t-11 -6.5t-11 6.5t0 13t11 6.5zM407 489q8 0 11.5 -6.5t0 -13t-11.5 -6.5t-11 6.5t0 13t11 6.5z" />
    <glyph glyph-name="z" unicode="z" horiz-adv-x="979" 
d="M922 528q-12 -30 -37 -49q33 -46 16 -102q-18 -57 -76 -81q-87 -37 -180 26q37 -94 43 -196q1 -9 -9.5 -12t-14.5 6q-22 46 -59 79q-23 -67 -85 -102q-8 -5 -15 2t-2 16q55 106 39 224q-13 -2 -26 -3h-20h-23.5h-19.5q-8 0 -16 1q-15 -117 40 -222q4 -9 -2.5 -16
t-15.5 -2q-62 35 -85 102q-37 -33 -58 -79q-4 -9 -14.5 -6t-10.5 12q6 102 43 196q-93 -63 -179 -27q-60 26 -77 83q-15 56 17 101q-32 23 -42 63q-9 39 8 74.5t50.5 57t71.5 25.5q117 11 222 -119q22 9 48 9h61q30 0 57 -13q55 69 112 99q39 20 81 23.5t81.5 -12.5
t63.5 -53q34 -51 13 -105zM176 315q26 -7 50.5 -5.5t48.5 11t44.5 23.5t38.5 33q-35 38 -32.5 92t42.5 89q6 5 13 10q-41 50 -83 75q-23 15 -49.5 22.5t-53 7.5t-52 -11t-43.5 -33q-34 -39 -20 -85q7 -23 23.5 -38.5t38.5 -19.5q13 -2 8 -16q-4 -11 -15 -9q-9 1 -17 5
q0 -1 -1 -1q-14 -18 -16.5 -42.5t6.5 -45.5q17 -45 69 -62zM433 151q-34 93 -21 192q-18 6 -34 16q0 -2 -1 -4q-40 -82 -54 -173q22 29 52 51q5 4 11.5 1t7.5 -9q10 -42 39 -74zM408 372q11 -5 26.5 -7.5t26 -3t30 0.5t25.5 1q53 0 83 44.5t10 93.5q-18 43 -61 57
q-16 5 -57 5q-47 0 -53 -1q-46 -6 -71 -44t-12.5 -82t53.5 -64zM604 233q30 -22 52 -51q-13 91 -53 173q-1 2 -1 4l-3 3q-2 2 -3 4q-13 -11 -29 -18q14 -102 -20 -197q29 32 38 74q2 6 8 9t11 -1zM862 465v1q-9 -4 -17 -5q-8 -2 -13 4t-3.5 13t9.5 8q25 5 42.5 24t21.5 45
q8 46 -31 84q-39 37 -97 34q-94 -4 -180 -111q45 -35 48 -92q3 -49 -28 -87q2 -1 3 -2q40 -42 88.5 -61.5t97.5 -4.5q54 17 71 63q18 51 -12 87zM419 520q8 0 11 -6.5t0 -13t-11 -6.5t-11.5 6.5t0 13t11.5 6.5zM411 468q5 0 9 -4q4 -3 4 -9q0 -5 -4 -9t-9 -4h-3q-5 0 -9 4
q-3 3 -4 9q0 5 4 9t9 4h3zM448 489q8 0 11 -6.5t0 -13t-11 -6.5t-11.5 6.5t0 13t11.5 6.5z" />
    <glyph glyph-name="nonbreakingspace" unicode="&#xa0;" horiz-adv-x="390" 
 />
    <glyph glyph-name="softhyphen" unicode="&#xad;" horiz-adv-x="0" 
 />
  </font>
</defs>
</svg>
