<?xml version="1.0" standalone="no"?>
<!DOCTYPE svg PUBLIC "-//W3C//DTD SVG 1.1//EN" "http://www.w3.org/Graphics/SVG/1.1/DTD/svg11.dtd" >
<svg>
<metadata>
Created by FontForge 20120731 at Wed Oct 16 16:13:16 2019
 By www-data
Attypestudio
</metadata>
<defs>
<font id="WarmSnowRegular" horiz-adv-x="0" >
  <font-face 
    font-family="Warm Snow"
    font-weight="400"
    font-stretch="normal"
    units-per-em="1000"
    panose-1="0 0 0 0 0 0 0 0 0 0"
    ascent="800"
    descent="-200"
    x-height="568.5"
    cap-height="949"
    bbox="-544 -646.031 1504 1134.61"
    underline-thickness="50"
    underline-position="-100"
    unicode-range="U+000A-20AC"
  />
<missing-glyph horiz-adv-x="427" 
d="M-50 700h427v-700h-427v700zM-22 680l185 -309l186 309h-371zM151 350l-180 300v-601zM164 329l-185 -308h370zM176 350l181 -303v605z" />
    <glyph glyph-name=".notdef" horiz-adv-x="427" 
d="M-50 700h427v-700h-427v700zM-22 680l185 -309l186 309h-371zM151 350l-180 300v-601zM164 329l-185 -308h370zM176 350l181 -303v605z" />
    <glyph glyph-name=".null" 
 />
    <glyph glyph-name=".null" 
 />
    <glyph glyph-name="nonmarkingreturn" horiz-adv-x="333" 
 />
    <glyph glyph-name="controlLF" unicode="&#xa;" 
 />
    <glyph glyph-name="controlCR" unicode="&#xd;" 
 />
    <glyph glyph-name="space" unicode=" " horiz-adv-x="234" 
 />
    <glyph glyph-name="exclam" unicode="!" horiz-adv-x="189" 
d="M188 725q1 -4 -2 -20q-1 -10 -5 -32q-5 -26 -16 -72q-15 -70 -28 -137q-14 -72 -27 -141q-6 -36 -11 -69q-1 -7 -3 -23t-4 -27.5t-6 -22.5q-7 -19 -24 -22q-15 -2 -28 3q-16 8 -17 28q-1 11 0.5 22.5t5 30t3.5 22.5q6 36 13 72q13 72 28 141q17 71 36 138q11 41 21 71
q9 24 13 34q6 13 7.5 14.5l4.5 4.5t4 5q6 11 19.5 8t13.5 -16q0 -2 1 -6t1 -6zM69 116q8 -7 11 -17q1 -7 1 -9q0 -8 -4 -15q-2 -7 -8 -12t-13 -7q-7 -4 -16 -3q-10 0 -20 5l-8 5q-8 7 -11 17v3t-0.5 3.5t-0.5 3.5q0 7 4 14q2 7 8 12t13 7q7 4 15 3q11 0 21 -5q3 -2 8 -5z
" />
    <glyph glyph-name="numbersign" unicode="#" horiz-adv-x="629" 
d="M621 543q7 -2 7.5 -10.5t-7.5 -9.5q-38 -5 -106 -2q-4 -20 -13 -57.5t-11 -46.5q-10 -41 -26 -106q96 -7 138 -16q8 -1 6.5 -9.5t-9.5 -8.5q-21 0 -141 10q0 -1 -0.5 -3t-0.5 -3q-12 -46 -17 -69q-16 -61 -17 -64q-1 -12 -11.5 -20.5t-21.5 -10.5q-16 -2 -31 8.5
t-13 26.5q3 21 8 43.5t14 53.5t12 43q-40 3 -77 4q-67 4 -137 5q-1 -3 -2.5 -9.5t-2.5 -10.5q-3 -11 -8.5 -34.5t-8.5 -34.5q-15 -61 -16 -64q-2 -12 -12 -20.5t-22 -10.5q-15 -2 -30.5 8.5t-13.5 26.5q3 21 8.5 44t14.5 54t12 43q0 2 1 5t1 4q-42 1 -82 1q-4 0 -5.5 2.5
t0 5.5t5.5 3q42 3 86 4q18 70 29 111q3 9 13 48t16 60q-114 6 -144 7q-3 0 -4 2.5t0 4.5t4 2q26 0 148 1q1 1 1.5 3t1 3.5t0.5 3.5q17 57 20 69q15 47 29 65q7 10 22.5 9.5t17.5 -14.5q2 -9 2 -19.5t-0.5 -20.5t-2 -19.5t-4 -20.5t-5 -20t-5 -20.5t-4.5 -18.5q49 -1 88 -1
q81 -1 134 -2q0 1 1.5 5.5l2.5 7.5q16 57 20 69q14 47 28 65q7 10 22.5 9.5t18.5 -14.5q1 -11 1.5 -23.5t-1 -23t-4 -24t-5 -23.5t-6 -23.5t-4.5 -22.5l-0.5 -1t-0.5 -2q62 0 99 -7zM172 320q69 0 135 -2q39 -1 80 -3q19 73 29 114q4 13 12.5 45t13.5 50q-54 1 -127 4
q-40 2 -92 5q-1 -3 -28 -116q-9 -38 -23 -97z" />
    <glyph glyph-name="dollar" unicode="$" horiz-adv-x="319" 
d="M289 378q34 -42 29 -99q-6 -63 -52 -96q-45 -32 -99 -38q-10 -1 -19 -1q-1 -5 -2 -13q-8 -71 -12 -88q-3 -10 -14.5 -8.5t-11.5 11.5q-1 9 -0.5 19t2 20t2.5 18.5t2.5 19.5t2.5 19q0 1 0.5 3t0.5 3q-40 8 -71.5 32.5t-45.5 60.5q-3 8 5 11.5t13 -1.5q56 -50 104 -59v0
q1 6 2.5 19t2.5 19l21 163q-30 15 -47 30q-42 36 -51 92q-9 57 21.5 105.5t85.5 66.5q14 4 29 6q5 37 12 69q1 5 7 4.5t6 -5.5q-2 -32 -5 -68q27 -2 50 -14q21 -12 34 -31t9 -41q-2 -8 -11.5 -8.5t-13.5 5.5q-29 40 -72 35q-4 -37 -21 -187q5 -3 24 -13q58 -30 83 -61z
M133 493q9 -14 25 -26q15 128 20 166q-39 -17 -53 -54q-17 -44 8 -86zM219 222q31 42 25 83q-6 39 -53 65q-7 4 -18 9q-11 -104 -17 -156q0 -5 -1.5 -16t-1.5 -17q44 3 66 32z" />
    <glyph glyph-name="percent" unicode="%" horiz-adv-x="475" 
d="M435 367q44 -40 38 -74q-4 -30 -29 -50q-9 -13 -37 -24q-21 -8 -39 -8q-23 -5 -48 -6q-10 0 -35 -0.5t-39.5 -1t-34 -5t-33.5 -13.5q-11 -22 -23 -31q-15 -14 -37.5 -7t-23.5 30q-1 9 2 19.5t6.5 18t10 19.5t8.5 17q6 11 16 32.5t16 31.5q20 43 62 129q32 67 65 132
q14 25 23 42q-23 -8 -47 -11q-33 -5 -67 -2q11 -27 2 -57q-10 -35 -44 -50.5t-70 -5.5q-36 9 -58.5 39.5t-17.5 67.5q4 36 30 63q12 12 27 20q14 8 38 3q9 -2 11 -10t-4 -14q-1 -2 -6 -8t-9 -10q-8 -7 -13 -12q-11 -16 -14 -34q-2 -16 7 -29t24 -19q29 -10 41 19q6 13 3 29
q-2 9 -4 14q-2 4 -5 7v1q-1 0 -3 1q-9 7 -8.5 16t9.5 14t19 1q50 -24 106 -15q28 5 52 16q13 5 25 13q1 0 5 2q9 13 19 21q8 11 22.5 6.5t16.5 -18.5q0 -11 0.5 -15t-3 -14t-4.5 -14t-5 -14t-6 -13q-7 -18 -28 -66q-26 -59 -59 -129q-21 -43 -62 -129q-2 -5 -7.5 -16
l-8.5 -17q18 3 41 4h55q-9 28 9.5 61t45.5 53q42 30 77 0zM398 338q0 -1 -2 -1zM365 308q-22 -30 -17 -44q2 -5 7 -8q13 3 25 7q16 5 29.5 15t14.5 23q0 6 -4.5 12.5t-12.5 13t-11 10.5q0 -1 -1.5 -1.5l-1.5 -0.5q-4 -2 -9 -6q-10 -9 -19 -21z" />
    <glyph glyph-name="ampersand" unicode="&#x26;" horiz-adv-x="358" 
d="M326 298q8 8 22 2t9 -19q-15 -35 -18 -40q-11 -16 -29 -33q-35 -32 -74 -48q-57 -24 -120 -6q-4 -13 -5 -16t-3 -11t-3.5 -12t-4 -10.5t-6 -11t-7.5 -8.5q-4 -3 -9 -2t-6 6l-1.5 12t1.5 12t3.5 12l4.5 12t4 11t5 16q-36 16 -60 46.5t-28 71.5q-4 38 10 79.5t38.5 75.5
t55.5 52q3 2 6 3q-24 21 -36 51q-11 31 -4.5 61.5t28.5 55.5q13 14 30 23.5t36 13.5t38 1q7 17 8 18q11 30 14 43q1 2 4 3t5.5 -0.5t1.5 -3.5q-4 -30 -9 -46q-6 -16 -7 -18q28 -10 48 -32t23 -50q0 -7 -7.5 -8t-10.5 4q-28 42 -71 52q-43 9 -73 -27q-29 -36 -12 -79t63 -51
q18 -3 14.5 -20t-20.5 -18q-22 -1 -51 -34q-19 -23 -34 -57q-39 -90 5 -133q43 -43 111 -26q32 8 60 30q5 4 28 25q3 4 8 7.5t8.5 6.5t8 6.5t8.5 7.5z" />
    <glyph glyph-name="parenleft" unicode="(" horiz-adv-x="196" 
d="M195 924q1 -7 -1 -14.5t-3.5 -11.5t-7.5 -13.5t-7 -11.5q-12 -22 -25 -47q-23 -46 -42 -96q-33 -87 -54 -185q-26 -123 -30 -188q-13 -179 53 -380q1 -4 -1.5 -6t-6 -1.5t-5.5 4.5q-37 105 -52 213q-11 82 -13 195q-2 110 15 197q19 94 57 189q18 46 41 91q11 22 24 45
q16 27 32 34q9 4 17 0t9 -14z" />
    <glyph glyph-name="parenright" unicode=")" horiz-adv-x="203" 
d="M200 714q5 -83 -4 -199q-8 -99 -30 -194q-24 -97 -63 -188q-49 -115 -95 -171q-3 -3 -6 -1.5t-2 5.5q9 17 26.5 49.5t25.5 48.5q24 50 44 102q69 183 76 378q7 175 -58 381q-4 14 6.5 22.5t24.5 5.5t17 -16q30 -105 38 -223z" />
    <glyph glyph-name="asterisk" unicode="*" horiz-adv-x="270" 
d="M265 684q5 -3 5 -8.5t-5 -8.5q-7 -3 -16 -4t-14.5 -1t-17.5 1.5t-15 1.5q-14 1 -32 3q11 -13 24 -31q1 -1 4 -5t4.5 -6.5t4 -6.5t4 -6.5t2.5 -6.5t0.5 -7.5t-1.5 -6.5q-4 -8 -11 -8q-4 1 -7.5 2t-7 3t-5.5 4l-5.5 5.5t-4.5 5.5t-4.5 6.5t-4.5 6.5q-6 8 -15 21
q-3 -15 -5 -32q0 -1 -0.5 -5.5t-0.5 -6t-1 -5.5l-1.5 -6t-2 -5t-3 -5t-4 -4t-4.5 -4q-8 -4 -14 2q-10 8 -10 23.5t3 26.5q2 8 3 17q-51 -45 -70 -63q-3 -3 -6.5 -2t-4.5 4t1 6q13 14 28 29.5t32.5 34t27.5 29.5l0.5 0.5t0.5 1.5q-69 6 -110 14q-7 1 -6 8t9 8q36 1 89 -2
q-22 28 -43 52q-4 5 -0.5 10.5t10 6.5t11.5 -3q26 -23 52 -51q12 39 29 75q3 7 11.5 4t6.5 -11q-8 -36 -14 -66q49 48 91 82q3 3 8 2t7 -4.5t-1 -7.5q-36 -43 -90 -94q17 -1 29 -2q4 0 10 -0.5t10.5 -0.5t10.5 -0.5t10.5 -1.5t9.5 -3t9 -5z" />
    <glyph glyph-name="plus" unicode="+" horiz-adv-x="282" 
d="M281 363q2 -6 -3 -17t-21 -10q-13 0 -44 1t-48 2q0 -10 -4 -70q-3 -47 -15 -66q-4 -7 -12 -5.5t-10 7.5q-9 19 -6 70q4 49 5 65q-38 1 -56 1q-4 0 -12 0.5t-12.5 0.5t-11.5 0.5t-12.5 1.5t-11.5 3q-5 1 -6.5 7t4.5 9q16 7 58 11q31 3 63 4q2 23 3 38q0 1 1 11.5t1.5 14.5
t2.5 11.5t4.5 13t7.5 9.5q7 7 15 -2q8 -10 8.5 -31t-1.5 -34v-9.5t-0.5 -11t-0.5 -9.5q49 2 90 1q18 -1 24 -17z" />
    <glyph glyph-name="comma" unicode="," horiz-adv-x="67" 
d="M62 66q9 -20 1 -45q-12 -35 -45 -51q-5 -2 -8.5 1t-1.5 7q2 3 8 11t8.5 12t5.5 11t5 14v5h-4q-12 0 -20 6t-10 14.5t0 17.5t10 15t20 6q27 0 31 -24z" />
    <glyph glyph-name="hyphen" unicode="-" horiz-adv-x="282" 
d="M281 363q2 -6 -3 -17t-21 -10q-124 4 -127 4q-42 1 -63 1q-4 0 -12 0.5t-12.5 0.5t-11.5 0.5t-12.5 1.5t-11.5 3q-5 1 -6.5 7t4.5 9q16 7 58 11q32 3 64 4q75 3 130 2q18 -1 24 -17z" />
    <glyph glyph-name="period" unicode="." horiz-adv-x="63" 
d="M31 90q15 0 23.5 -9.5t8.5 -20.5t-8.5 -20t-23.5 -9q-19 0 -27.5 14.5t0 29.5t27.5 15z" />
    <glyph glyph-name="slash" unicode="/" horiz-adv-x="426" 
d="M408 769q2 3 7 3.5t8 -2.5t1 -7q-7 -16 -19.5 -47.5t-19.5 -46.5q-13 -31 -41 -88q-47 -99 -152 -315q-52 -107 -78 -160q-7 -14 -23 -48.5t-29 -60t-27 -47.5q-7 -12 -23 -6.5t-11 19.5q6 16 43 91l44 89q16 34 156 314q21 42 80 159q15 29 44.5 81.5t39.5 71.5z" />
    <glyph glyph-name="zero" unicode="0" horiz-adv-x="418" 
d="M418 459q1 -127 -41 -249q-50 -143 -118 -200q-42 -36 -96 -34.5t-92 41.5q-35 37 -50 103q-13 56 -18 130q-10 139 13 247q27 123 108 174q38 23 80.5 27.5t81.5 -16.5q27 -8 49 -23q81 -56 83 -200zM322 293q22 103 14 199q-9 103 -76 131q-28 12 -71 6q-32 -4 -64 -34
q-61 -59 -87 -132q-2 -17 -4 -36q-9 -109 9 -225q1 -4 2 -10q4 -25 6.5 -39t9 -38.5t14.5 -39.5t22 -30.5t31 -22.5q24 -10 50 3t42 32t31 43q47 81 71 193z" />
    <glyph glyph-name="one" unicode="1" horiz-adv-x="219" 
d="M210 665q7 -8 8 -23.5t0 -25.5q0 -27 -1 -51q-1 -40 -4 -101q-6 -138 -9 -203q-7 -126 -8 -163q0 -10 -0.5 -31.5t-1.5 -32.5v-22t-0.5 -23t-2.5 -22.5t-7 -20.5q-9 -19 -31 -15t-29 22q-2 5 -3 12.5t-1 12t1 13.5t1 12q0 18 1 38q0 9 0.5 30.5t0.5 32.5q1 36 10 164
q4 57 16 206q4 51 9 101q1 17 4 40l-10 -6q-21 -12 -46 -19q-55 -15 -101 0q-8 3 -5.5 9.5t9.5 4.5q97 -15 158 44q3 13 11 21q6 5 15.5 4t15.5 -8z" />
    <glyph glyph-name="two" unicode="2" horiz-adv-x="595" 
d="M574 20q17 -5 20 -19.5t-8 -25t-28 -7.5q-14 3 -41 8.5t-48.5 9t-41.5 6.5q-62 7 -127 6q-98 -1 -181 -19q-37 -14 -76 -20q-14 -2 -26 3t-16 19q-4 12 3.5 23.5t20.5 14.5q112 29 192 117q67 73 101 186q35 117 18 188q-12 50 -41 71q-41 29 -95 15q-87 -23 -123 -148
q-3 -9 -15.5 -8t-11.5 12q5 67 48.5 120t108.5 63.5t111 -17.5q44 -27 68 -79q42 -88 2 -235q-41 -153 -152 -252q33 3 64 3q67 1 138 -8q88 -11 136 -27z" />
    <glyph glyph-name="three" unicode="3" horiz-adv-x="383" 
d="M382 144q3 -48 -18.5 -92.5t-61.5 -70.5q-34 -23 -95 -30q-55 -6 -103 2q-61 10 -85 39q-8 10 -13.5 22.5t-5 27t11.5 22.5q3 3 7.5 2.5t6.5 -4.5q3 -4 6.5 -15.5t7.5 -16.5q5 -8 13 -14t18 -10q8 -2 16.5 -3.5t19.5 -1.5h16.5t19.5 1.5t17 1.5q84 7 121 50
q20 23 26.5 56.5t-1.5 62.5q-18 65 -80 104q-25 16 -62 26h-1q-68 -9 -98 12q-14 11 -8 27.5t22 20.5q6 2 13 2.5t16 -0.5t13 -1q20 0 36 3q35 8 61 26q53 37 60 103.5t-41 108.5q-24 20 -53.5 26t-58.5 -5q-28 -12 -50.5 -37.5t-29.5 -55.5q0 -3 -3.5 -2t-3.5 3
q-4 44 21 78t67 51q42 16 82.5 4.5t71.5 -38t48.5 -67t12.5 -80.5q-11 -96 -93 -148q-1 -1 -6 -4q26 -11 49 -28q39 -29 63 -70t28 -88z" />
    <glyph glyph-name="four" unicode="4" horiz-adv-x="534" 
d="M529 346q5 -1 5 -6t-5 -6q-12 -4 -27 -6q-1 -27 -5 -101t-7.5 -126t-7.5 -101q-2 -21 -22 -30.5t-39 -0.5t-18 31q1 51 19 324q-13 -1 -22 -1q-16 -1 -127 -5q-43 -1 -130 -4t-130 -5q-8 0 -11.5 7t2.5 12q200 156 365 348q5 5 11.5 3t8.5 -7.5t-2 -11.5
q-155 -179 -339 -327q29 1 106 4.5t119 4.5q112 5 131 5q8 0 20 1q1 17 12 172q4 52 8 85q1 3 2 14.5t1.5 15.5t2.5 14t3.5 15.5t4.5 13t6 13.5q7 12 22 9.5t20 -14.5q9 -23 8 -87q-1 -45 -3 -85q-6 -145 -7 -165q13 -1 25 -3z" />
    <glyph glyph-name="five" unicode="5" horiz-adv-x="533" 
d="M528 219q13 -63 -11.5 -118.5t-78.5 -92.5q-50 -35 -114.5 -51t-126.5 -12q-75 6 -125 38q-67 43 -72 93q-1 13 12 16.5t21 -3.5q7 -5 20.5 -17.5t20.5 -18.5q21 -15 45 -25q50 -22 116 -16q109 8 173 62q35 30 46 72t-4 86q-11 29 -32.5 53t-48 38.5t-58.5 21.5
q-18 5 -38 5.5t-34 0t-38 -5t-33.5 -7t-37.5 -10t-35 -9.5t-14 3q-7 0 -12.5 4t-6.5 11q-2 159 25 318q1 9 14 9q7 1 209 11q11 1 49.5 3t56.5 3t48 0.5t54 -3.5q6 0 7 -5t-5 -7q-19 -4 -39.5 -7t-43.5 -4.5t-40 -2.5t-43.5 -2t-40.5 -2q-20 -1 -49.5 -2t-51 -2t-49 -2.5
t-50.5 -2.5q-21 -140 -18 -283q56 37 130 46.5t137 -11.5q62 -21 107.5 -66t58.5 -106z" />
    <glyph glyph-name="six" unicode="6" horiz-adv-x="455" 
d="M387 340q66 -67 68 -160.5t-66 -159.5q-32 -31 -74.5 -48t-86.5 -17q-46 1 -87.5 21t-72.5 54q-63 72 -68 170q-5 96 54 209q44 87 121 160q37 36 78 64q23 16 45 27q8 4 23.5 10.5t22.5 9.5q4 3 8.5 0t5 -7t-4.5 -8q-24 -13 -82 -58q-42 -33 -74 -66q-72 -74 -113 -162
q-7 -15 -13 -31q46 34 103.5 47.5t115 0t97.5 -55.5zM359 69q45 57 32.5 131.5t-70.5 117.5q-38 29 -85.5 26t-89.5 -22.5t-77 -49.5q-7 -6 -18 -6q-14 -129 62 -208q56 -57 128 -52q34 3 65.5 19.5t52.5 43.5z" />
    <glyph glyph-name="seven" unicode="7" horiz-adv-x="392" 
d="M384 324q7 -2 7.5 -9t-7.5 -8q-20 -5 -76 -2q-20 1 -50 3q-21 -62 -39 -124q-7 -25 -20.5 -79t-21.5 -82q-5 -15 -20 -22.5t-30 -3.5q-16 4 -23.5 17t-5.5 29q8 44 43 164q15 50 33 104q-68 3 -107 3q-9 1 -9 8.5t9 7.5q63 5 115 6q7 20 10 30q28 79 65 158q22 49 37 77
q16 31 19 36h-9h-9q-2 1 -41 2q-37 2 -81 4q-107 5 -167 11q-6 1 -6 6t6 5q60 3 167 1q43 0 85 -1q36 -1 41 -1q2 0 9.5 -0.5t12 -0.5t10.5 1t10 3q8 6 20.5 2t14.5 -14q0 -12 0.5 -16.5t-3 -15.5t-5 -15.5t-6 -15.5t-5.5 -15q-5 -12 -15 -38t-15 -40q-30 -80 -57 -156
q0 -1 -1 -3.5t-1 -4.5q17 0 40 -1q55 -2 76 -10z" />
    <glyph glyph-name="eight" unicode="8" horiz-adv-x="399" 
d="M394 181q10 -44 -1 -89.5t-41 -79.5q-31 -36 -78 -52t-96 -10q-48 7 -87.5 34t-62.5 68q-23 43 -27 90t14 92q19 45 53 78q29 29 79 43q-50 48 -68 105q-15 44 -6 93t41 84q30 34 77.5 44t88.5 -9q29 -13 47.5 -39t24 -56t0.5 -61q-8 -47 -39.5 -92t-73.5 -76l-2 -2
q5 -3 41 -27q46 -31 76 -63t40 -75zM140 449q18 -38 57 -71q8 10 36.5 41t41.5 51q30 49 24 96q-4 24 -17.5 42t-34.5 24t-44 1.5t-39 -18.5q-34 -30 -39.5 -78.5t15.5 -87.5zM309 38q28 30 36 74t-10 82q-6 13 -15.5 25.5t-19.5 21.5t-23.5 19.5t-24 17.5t-26 17t-24.5 16
q-18 12 -33 25q-2 -4 -6 -7q-10 -5 -43 -34q-21 -18 -34 -36q-30 -42 -33 -90q-3 -51 23.5 -97.5t72.5 -64.5q40 -17 85 -8t75 39z" />
    <glyph glyph-name="nine" unicode="9" horiz-adv-x="455" 
d="M455 453q4 -95 -54 -209q-44 -86 -121 -160q-37 -36 -78 -64q-23 -16 -45 -27q-8 -4 -23.5 -10.5t-22.5 -9.5q-4 -2 -8.5 0.5t-5 7t4.5 7.5q24 13 82 58q42 33 74 66q72 74 113 162q7 15 13 32q-47 -35 -104 -48t-114.5 0.5t-97.5 54.5q-66 67 -68 160.5t66 160.5
q32 30 74.5 47.5t86.5 16.5q31 0 60 -9.5t54 -26t46 -39.5q63 -72 68 -170zM385 381q8 7 19 7q14 128 -62 207q-56 58 -128 52q-23 -2 -44.5 -10t-40.5 -21.5t-33 -31.5q-45 -57 -32.5 -131t70.5 -117q38 -30 85.5 -27t89.5 22.5t76 49.5z" />
    <glyph glyph-name="colon" unicode=":" horiz-adv-x="63" 
d="M31.5 592q-19.5 0 -28 15t0 29.5t28 14.5t27.5 -14.5t0 -29.5t-27.5 -15zM31 90q20 0 28 -15t0 -29.5t-28 -14.5q-12 0 -20 6t-10 14.5t0 17.5t10 15t20 6z" />
    <glyph glyph-name="semicolon" unicode=";" horiz-adv-x="67" 
d="M31.5 592q-19.5 0 -28 15t0 29.5t28 14.5t27.5 -14.5t0 -29.5t-27.5 -15zM62 66q9 -20 1 -45q-12 -35 -45 -51q-5 -2 -8.5 1t-1.5 7q2 3 8 11t8.5 12t5.5 11t5 14v5h-4q-12 0 -20 6t-10 14.5t0 17.5t10 15t20 6q27 0 31 -24z" />
    <glyph glyph-name="less" unicode="&#x3c;" horiz-adv-x="581" 
d="M564 626q4 2 9.5 -0.5t6.5 -7t-3 -8.5q-5 -3 -14.5 -11.5t-14.5 -12.5q-18 -12 -29 -19q-26 -16 -65 -38q-64 -36 -141 -77q-145 -77 -221 -123q72 -45 188 -109q50 -28 127 -74q37 -22 63 -38q4 -2 13 -7.5t14.5 -9t12.5 -9t12.5 -11t8.5 -12.5q12 -22 -3 -37.5
t-39 -12.5q-11 2 -21.5 6.5t-28.5 17t-20 13.5q-34 21 -60 37q-14 8 -58 34.5t-68 41.5q-8 5 -32 19.5t-34 21t-31 19.5t-33.5 22t-30 21t-33 23t-29.5 23q-12 10 -9.5 25.5t16.5 22.5q30 17 67 35.5t65.5 32t69.5 33.5t67 33q112 55 142 70q19 10 69 36q12 6 32 15
q5 3 17 7.5t18 7.5z" />
    <glyph glyph-name="equal" unicode="=" horiz-adv-x="282" 
d="M7 423q-5 2 -6.5 8t4.5 8q16 7 58 11q32 3 64 4q75 3 130 2q18 -1 24 -17q2 -6 -3 -17t-21 -10q-124 4 -127 4q-42 1 -63 1q-46 2 -60 6zM257 308q18 -1 24 -16q2 -7 -3 -17q-5 -12 -21 -11q-124 4 -127 4q-42 1 -63 2q-46 1 -60 5q-5 2 -6.5 8t4.5 8q16 7 58 11
q32 3 64 4q75 3 130 2z" />
    <glyph glyph-name="greater" unicode="&#x3e;" horiz-adv-x="581" 
d="M570 351q13 -10 10 -25.5t-16 -22.5q-40 -21 -83.5 -43t-102 -50t-84.5 -40l-142 -71q-19 -9 -69 -36q-11 -6 -32 -15q-5 -3 -17 -7t-17 -7t-10.5 -0.5t-6.5 7t4 8.5q5 3 14 11.5t15 12.5q17 12 28 19q26 16 65 38q64 36 141 77q145 77 221 123q-72 45 -187 109
q-51 28 -128 74q-37 22 -63 38q-3 2 -16.5 10t-18.5 11.5t-13.5 11.5t-12.5 16q-12 22 3 37.5t39 12.5q12 -2 22 -6.5t28 -17t20 -13.5q35 -21 60 -37q14 -8 58 -34.5t68 -41.5q4 -2 36.5 -22t41 -25.5t35 -22.5t40 -26.5t34 -24t36.5 -28.5z" />
    <glyph glyph-name="question" unicode="?" horiz-adv-x="354" 
d="M31 35q20 0 28 -15t0 -29.5t-28 -14.5q-12 0 -20 6t-10 14.5t0 17.5t10 15t20 6zM328 653q27 -49 25 -98.5t-27 -99.5q-13 -25 -34.5 -51t-39.5 -43t-48 -43t-44 -39q-43 -42 -74 -89q-15 -22 -26 -56q-2 -5 -6.5 -23t-9.5 -27q-3 -6 -10.5 -5.5t-11.5 5.5q-11 13 -14 34
t-0.5 40.5t9.5 36.5q21 59 62 104q23 24 77.5 71.5t79.5 76.5q73 84 56 158q-10 45 -40 65q-33 24 -98 11q-55 -10 -93 -47t-37 -91q0 -7 -8.5 -8t-9.5 6q-11 59 30 102.5t104 65.5q51 20 105 5.5t83 -61.5z" />
    <glyph glyph-name="at" unicode="@" horiz-adv-x="585" 
d="M513 628q77 -66 72 -201q-5 -122 -72 -196q-47 -51 -97 -49q-23 1 -41.5 13.5t-28.5 31.5t-13 42q0 1 -1 9q-3 -4 -8 -11t-6 -8q-19 -26 -37 -38q-46 -31 -87 -31q-19 0 -36 7t-31 20t-21 30q-17 38 -8 103q7 51 31 100q25 49 64 84.5t86 33.5q44 -2 69 -35q8 -11 16 -25
q4 9 10 18q9 15 27 10.5t20 -22.5v-42.5t-3 -42.5t-4 -43q-6 -79 1 -112q2 -13 6 -18q3 -1 6 -1q5 -1 11 0q10 1 20 7q39 23 59 71q34 84 13 174q-11 46 -40 78t-74 44q-80 22 -166 -12.5t-139 -102.5q-56 -71 -62 -160t42 -166q46 -71 134 -97t167 6q8 3 13 -3.5t-3 -12.5
q-46 -32 -105.5 -37.5t-110.5 14.5q-56 21 -98 61.5t-65 96.5q-40 102 -10.5 205.5t114.5 172.5q53 43 120 67.5t140 18t126 -51.5zM284 293q30 29 45 62q1 3 3 8q1 14 3 29q6 56 18 92q-13 21 -31 34q-30 21 -62 -5q-49 -41 -71 -123q-10 -34 -11 -68q0 -43 12 -54l6 -3
q2 -1 11 -2q9 -2 21 -1q29 4 56 31z" />
    <glyph glyph-name="A" unicode="A" horiz-adv-x="1055" 
d="M1069 428q4 10 15.5 12t19 -4.5t3.5 -17.5q-89 -229 -135 -320q-38 -78 -128 -221q-2 -3 -9.5 -15.5t-10.5 -16.5t-10.5 -15.5t-11.5 -16.5t-11 -14.5t-13 -15t-13.5 -12.5t-15 -12t-16.5 -10q-40 -19 -77.5 -6t-63.5 48q-20 28 -28 72q-8 50 -7 78q0 7 10 62l3 14
q-20 -36 -43 -67q-95 -134 -197 -194q-40 -24 -83 -34.5t-89.5 -4t-82.5 34.5q-36 27 -54 70t-19 86t1 89q13 152 56 295q43 147 115 280q86 157 173 242q57 57 132 82t145 -1q63 -23 94 -84t2 -121q-9 -17 -29 -9t-16 26q5 26 -4.5 53t-29.5 46q-41 39 -105 29
q-33 -5 -64 -21.5t-58 -44t-45 -51t-41 -57.5q-151 -224 -210 -487q-33 -151 -29 -252q1 -26 5.5 -48t14.5 -43.5t29.5 -35.5t46.5 -16q92 -8 203 88q92 79 157 199q30 56 54 115q6 13 7 16q42 215 83 416q3 15 19 22t30 3q16 -4 23.5 -16.5t4.5 -27.5q-42 -224 -90 -471
q-3 -17 -10.5 -61t-14.5 -76t-15 -61q-9 -28 -4 -62.5t23 -58.5q12 -16 26.5 -18.5t29 6.5t25.5 19.5t22 23.5q10 14 22 31t19.5 29.5t20.5 33.5t20 30q75 119 112 193q44 89 117 276z" />
    <glyph glyph-name="A" unicode="&#xc5;" horiz-adv-x="1055" 
d="M1069 428q4 10 15.5 12t19 -4.5t3.5 -17.5q-89 -229 -135 -320q-38 -78 -128 -221q-2 -3 -9.5 -15.5t-10.5 -16.5t-10.5 -15.5t-11.5 -16.5t-11 -14.5t-13 -15t-13.5 -12.5t-15 -12t-16.5 -10q-40 -19 -77.5 -6t-63.5 48q-20 28 -28 72q-8 50 -7 78q0 7 10 62l3 14
q-20 -36 -43 -67q-95 -134 -197 -194q-40 -24 -83 -34.5t-89.5 -4t-82.5 34.5q-36 27 -54 70t-19 86t1 89q13 152 56 295q43 147 115 280q86 157 173 242q57 57 132 82t145 -1q63 -23 94 -84t2 -121q-9 -17 -29 -9t-16 26q5 26 -4.5 53t-29.5 46q-41 39 -105 29
q-33 -5 -64 -21.5t-58 -44t-45 -51t-41 -57.5q-151 -224 -210 -487q-33 -151 -29 -252q1 -26 5.5 -48t14.5 -43.5t29.5 -35.5t46.5 -16q92 -8 203 88q92 79 157 199q30 56 54 115q6 13 7 16q42 215 83 416q3 15 19 22t30 3q16 -4 23.5 -16.5t4.5 -27.5q-42 -224 -90 -471
q-3 -17 -10.5 -61t-14.5 -76t-15 -61q-9 -28 -4 -62.5t23 -58.5q12 -16 26.5 -18.5t29 6.5t25.5 19.5t22 23.5q10 14 22 31t19.5 29.5t20.5 33.5t20 30q75 119 112 193q44 89 117 276z" />
    <glyph glyph-name="A" unicode="&#xc4;" horiz-adv-x="1055" 
d="M1069 428q4 10 15.5 12t19 -4.5t3.5 -17.5q-89 -229 -135 -320q-38 -78 -128 -221q-2 -3 -9.5 -15.5t-10.5 -16.5t-10.5 -15.5t-11.5 -16.5t-11 -14.5t-13 -15t-13.5 -12.5t-15 -12t-16.5 -10q-40 -19 -77.5 -6t-63.5 48q-20 28 -28 72q-8 50 -7 78q0 7 10 62l3 14
q-20 -36 -43 -67q-95 -134 -197 -194q-40 -24 -83 -34.5t-89.5 -4t-82.5 34.5q-36 27 -54 70t-19 86t1 89q13 152 56 295q43 147 115 280q86 157 173 242q57 57 132 82t145 -1q63 -23 94 -84t2 -121q-9 -17 -29 -9t-16 26q5 26 -4.5 53t-29.5 46q-41 39 -105 29
q-33 -5 -64 -21.5t-58 -44t-45 -51t-41 -57.5q-151 -224 -210 -487q-33 -151 -29 -252q1 -26 5.5 -48t14.5 -43.5t29.5 -35.5t46.5 -16q92 -8 203 88q92 79 157 199q30 56 54 115q6 13 7 16q42 215 83 416q3 15 19 22t30 3q16 -4 23.5 -16.5t4.5 -27.5q-42 -224 -90 -471
q-3 -17 -10.5 -61t-14.5 -76t-15 -61q-9 -28 -4 -62.5t23 -58.5q12 -16 26.5 -18.5t29 6.5t25.5 19.5t22 23.5q10 14 22 31t19.5 29.5t20.5 33.5t20 30q75 119 112 193q44 89 117 276z" />
    <glyph glyph-name="A" unicode="&#xc3;" horiz-adv-x="1055" 
d="M1069 428q4 10 15.5 12t19 -4.5t3.5 -17.5q-89 -229 -135 -320q-38 -78 -128 -221q-2 -3 -9.5 -15.5t-10.5 -16.5t-10.5 -15.5t-11.5 -16.5t-11 -14.5t-13 -15t-13.5 -12.5t-15 -12t-16.5 -10q-40 -19 -77.5 -6t-63.5 48q-20 28 -28 72q-8 50 -7 78q0 7 10 62l3 14
q-20 -36 -43 -67q-95 -134 -197 -194q-40 -24 -83 -34.5t-89.5 -4t-82.5 34.5q-36 27 -54 70t-19 86t1 89q13 152 56 295q43 147 115 280q86 157 173 242q57 57 132 82t145 -1q63 -23 94 -84t2 -121q-9 -17 -29 -9t-16 26q5 26 -4.5 53t-29.5 46q-41 39 -105 29
q-33 -5 -64 -21.5t-58 -44t-45 -51t-41 -57.5q-151 -224 -210 -487q-33 -151 -29 -252q1 -26 5.5 -48t14.5 -43.5t29.5 -35.5t46.5 -16q92 -8 203 88q92 79 157 199q30 56 54 115q6 13 7 16q42 215 83 416q3 15 19 22t30 3q16 -4 23.5 -16.5t4.5 -27.5q-42 -224 -90 -471
q-3 -17 -10.5 -61t-14.5 -76t-15 -61q-9 -28 -4 -62.5t23 -58.5q12 -16 26.5 -18.5t29 6.5t25.5 19.5t22 23.5q10 14 22 31t19.5 29.5t20.5 33.5t20 30q75 119 112 193q44 89 117 276z" />
    <glyph glyph-name="A" unicode="&#xc2;" horiz-adv-x="1055" 
d="M1069 428q4 10 15.5 12t19 -4.5t3.5 -17.5q-89 -229 -135 -320q-38 -78 -128 -221q-2 -3 -9.5 -15.5t-10.5 -16.5t-10.5 -15.5t-11.5 -16.5t-11 -14.5t-13 -15t-13.5 -12.5t-15 -12t-16.5 -10q-40 -19 -77.5 -6t-63.5 48q-20 28 -28 72q-8 50 -7 78q0 7 10 62l3 14
q-20 -36 -43 -67q-95 -134 -197 -194q-40 -24 -83 -34.5t-89.5 -4t-82.5 34.5q-36 27 -54 70t-19 86t1 89q13 152 56 295q43 147 115 280q86 157 173 242q57 57 132 82t145 -1q63 -23 94 -84t2 -121q-9 -17 -29 -9t-16 26q5 26 -4.5 53t-29.5 46q-41 39 -105 29
q-33 -5 -64 -21.5t-58 -44t-45 -51t-41 -57.5q-151 -224 -210 -487q-33 -151 -29 -252q1 -26 5.5 -48t14.5 -43.5t29.5 -35.5t46.5 -16q92 -8 203 88q92 79 157 199q30 56 54 115q6 13 7 16q42 215 83 416q3 15 19 22t30 3q16 -4 23.5 -16.5t4.5 -27.5q-42 -224 -90 -471
q-3 -17 -10.5 -61t-14.5 -76t-15 -61q-9 -28 -4 -62.5t23 -58.5q12 -16 26.5 -18.5t29 6.5t25.5 19.5t22 23.5q10 14 22 31t19.5 29.5t20.5 33.5t20 30q75 119 112 193q44 89 117 276z" />
    <glyph glyph-name="A" unicode="&#xc1;" horiz-adv-x="1055" 
d="M1069 428q4 10 15.5 12t19 -4.5t3.5 -17.5q-89 -229 -135 -320q-38 -78 -128 -221q-2 -3 -9.5 -15.5t-10.5 -16.5t-10.5 -15.5t-11.5 -16.5t-11 -14.5t-13 -15t-13.5 -12.5t-15 -12t-16.5 -10q-40 -19 -77.5 -6t-63.5 48q-20 28 -28 72q-8 50 -7 78q0 7 10 62l3 14
q-20 -36 -43 -67q-95 -134 -197 -194q-40 -24 -83 -34.5t-89.5 -4t-82.5 34.5q-36 27 -54 70t-19 86t1 89q13 152 56 295q43 147 115 280q86 157 173 242q57 57 132 82t145 -1q63 -23 94 -84t2 -121q-9 -17 -29 -9t-16 26q5 26 -4.5 53t-29.5 46q-41 39 -105 29
q-33 -5 -64 -21.5t-58 -44t-45 -51t-41 -57.5q-151 -224 -210 -487q-33 -151 -29 -252q1 -26 5.5 -48t14.5 -43.5t29.5 -35.5t46.5 -16q92 -8 203 88q92 79 157 199q30 56 54 115q6 13 7 16q42 215 83 416q3 15 19 22t30 3q16 -4 23.5 -16.5t4.5 -27.5q-42 -224 -90 -471
q-3 -17 -10.5 -61t-14.5 -76t-15 -61q-9 -28 -4 -62.5t23 -58.5q12 -16 26.5 -18.5t29 6.5t25.5 19.5t22 23.5q10 14 22 31t19.5 29.5t20.5 33.5t20 30q75 119 112 193q44 89 117 276z" />
    <glyph glyph-name="A" unicode="&#xc0;" horiz-adv-x="1055" 
d="M1069 428q4 10 15.5 12t19 -4.5t3.5 -17.5q-89 -229 -135 -320q-38 -78 -128 -221q-2 -3 -9.5 -15.5t-10.5 -16.5t-10.5 -15.5t-11.5 -16.5t-11 -14.5t-13 -15t-13.5 -12.5t-15 -12t-16.5 -10q-40 -19 -77.5 -6t-63.5 48q-20 28 -28 72q-8 50 -7 78q0 7 10 62l3 14
q-20 -36 -43 -67q-95 -134 -197 -194q-40 -24 -83 -34.5t-89.5 -4t-82.5 34.5q-36 27 -54 70t-19 86t1 89q13 152 56 295q43 147 115 280q86 157 173 242q57 57 132 82t145 -1q63 -23 94 -84t2 -121q-9 -17 -29 -9t-16 26q5 26 -4.5 53t-29.5 46q-41 39 -105 29
q-33 -5 -64 -21.5t-58 -44t-45 -51t-41 -57.5q-151 -224 -210 -487q-33 -151 -29 -252q1 -26 5.5 -48t14.5 -43.5t29.5 -35.5t46.5 -16q92 -8 203 88q92 79 157 199q30 56 54 115q6 13 7 16q42 215 83 416q3 15 19 22t30 3q16 -4 23.5 -16.5t4.5 -27.5q-42 -224 -90 -471
q-3 -17 -10.5 -61t-14.5 -76t-15 -61q-9 -28 -4 -62.5t23 -58.5q12 -16 26.5 -18.5t29 6.5t25.5 19.5t22 23.5q10 14 22 31t19.5 29.5t20.5 33.5t20 30q75 119 112 193q44 89 117 276z" />
    <glyph glyph-name="B" unicode="B" horiz-adv-x="877" 
d="M633 257q41 -45 64 -100q26 -68 19 -140.5t-45 -134.5q-37 -60 -97 -97t-128 -37q-58 1 -115 23q-40 16 -59 37q-4 -11 -9 -20q-17 -35 -49.5 -56.5t-69.5 -19.5q-63 3 -107 85q-12 22 -20 45.5t-12.5 48t-4.5 49.5q-1 88 33 141q5 7 13 4t6 -12q-7 -33 -10.5 -51.5
t-6 -51.5t3.5 -53q16 -91 60 -133q27 -26 51 -17q18 6 32 30q8 14 14 33t8 33.5t4.5 39t3.5 33.5q27 188 46 324q37 257 49 335q16 104 25 161q7 39 16 87q3 16 11 43.5t10 35.5q4 17 23.5 17t25.5 -15q52 42 117 39q73 -4 128 -52.5t88 -123.5q49 -113 32.5 -239.5
t-89.5 -224.5q-29 -38 -61 -66zM639 -49q47 111 4 223q-13 33 -34 63q0 -1 -1 -1q-78 -57 -130 -43q-25 7 -41.5 31t-10.5 49.5t29.5 41t50.5 14.5q42 -1 89 -37q60 60 92 138q39 87 35 189.5t-53 184.5q-31 51 -78.5 81t-98.5 14q-33 -11 -65 -52q-6 -8 -11 -16
q0 -3 -0.5 -9.5t-1.5 -10.5q-2 -25 -10 -101q-8 -66 -27 -206q-8 -54 -16 -114.5t-18.5 -133.5t-15.5 -114q-3 -18 -26 -182q-14 -99 -16 -105q36 -29 82.5 -42t93.5 -8q39 4 75 25.5t61.5 52.5t41.5 68zM576 275q-58 55 -103 35q-16 -8 -25.5 -22t-5.5 -30q6 -21 39 -26
q39 -6 95 42v1z" />
    <glyph glyph-name="C" unicode="C" horiz-adv-x="822" 
d="M806 245q5 5 11 0.5t3 -10.5q-11 -23 -19 -37q-7 -10 -16 -22.5t-16 -21t-18 -22t-17 -20.5q-45 -57 -77 -96q-8 -9 -27.5 -32.5t-30 -36t-27.5 -31.5t-32.5 -34t-31.5 -29q-133 -110 -257 -126q-86 -12 -146 20q-63 33 -88 107q-18 52 -17 134q1 68 10 136
q19 142 68 268q105 271 316 454q27 24 43 37t46 32t53 26.5t52 7t55 -15.5q21 -11 34 -30t15.5 -40.5t-3.5 -45.5q-16 -56 -92 -102q-12 -7 -20.5 3.5t0.5 19.5q4 5 11.5 13t11.5 12.5t11.5 13.5t11 14.5t9 15t6 15.5t3 16.5t-1.5 17.5q-4 20 -20 28.5t-34 6t-35 -10.5
q-38 -19 -103 -81l-6 -6q-51 -48 -90 -95q-160 -193 -226 -431q-33 -119 -39 -239q0 -36 -1 -72.5t10.5 -74t36.5 -58.5q32 -26 98 -25q52 2 120 25q105 37 193 124q63 62 140 155q10 13 28.5 36.5t30.5 38.5t29.5 34t34.5 34z" />
    <glyph glyph-name="C" unicode="&#xc7;" horiz-adv-x="822" 
d="M806 245q5 5 11 0.5t3 -10.5q-11 -23 -19 -37q-7 -10 -16 -22.5t-16 -21t-18 -22t-17 -20.5q-45 -57 -77 -96q-8 -9 -27.5 -32.5t-30 -36t-27.5 -31.5t-32.5 -34t-31.5 -29q-133 -110 -257 -126q-86 -12 -146 20q-63 33 -88 107q-18 52 -17 134q1 68 10 136
q19 142 68 268q105 271 316 454q27 24 43 37t46 32t53 26.5t52 7t55 -15.5q21 -11 34 -30t15.5 -40.5t-3.5 -45.5q-16 -56 -92 -102q-12 -7 -20.5 3.5t0.5 19.5q4 5 11.5 13t11.5 12.5t11.5 13.5t11 14.5t9 15t6 15.5t3 16.5t-1.5 17.5q-4 20 -20 28.5t-34 6t-35 -10.5
q-38 -19 -103 -81l-6 -6q-51 -48 -90 -95q-160 -193 -226 -431q-33 -119 -39 -239q0 -36 -1 -72.5t10.5 -74t36.5 -58.5q32 -26 98 -25q52 2 120 25q105 37 193 124q63 62 140 155q10 13 28.5 36.5t30.5 38.5t29.5 34t34.5 34z" />
    <glyph glyph-name="D" unicode="D" horiz-adv-x="1317" 
d="M1172 199q-39 -119 -120 -221t-190 -173q41 -18 78 -21q82 -7 132 42q11 11 23.5 0t1.5 -23q-22 -25 -53 -38q-96 -41 -217 18q-46 -27 -94 -46q-43 -18 -86.5 -28t-90.5 -12t-91 13t-77 47q-29 27 -42 66t0 73q14 37 48 59t76 28q16 4 35.5 2t34 -3.5t33.5 -8.5
t32.5 -12t31 -15t30 -17.5t29.5 -19t29 -20t28.5 -20t28.5 -19.5q125 77 211 191.5t113 250.5q31 154 -19 299q-48 135 -163 224q-114 88 -246 97q-75 5 -140 -15q-64 -20 -107 -56q-1 -15 -5 -39q-7 -51 -12 -80q-13 -77 -27 -159q-72 -410 -104 -567q-2 -8 -6.5 -30
t-6.5 -31t-6.5 -28.5t-8.5 -30t-10 -27.5t-13 -28t-16 -24t-20 -23.5t-24 -19.5q-59 -39 -120 -14q-17 7 -26 14q-3 2 -12 19q-1 1 -5.5 7t-5.5 11q-4 10 -3 24q1 6 7.5 7.5t9.5 -3.5q7 -9 22 -22q1 -1 16.5 -5.5t23.5 -4.5q20 1 39 14q38 26 57 101q8 35 16 73t17.5 92.5
t13.5 74.5q17 90 47 250q20 109 48 254q13 66 27 123q12 50 16 62q13 41 25 56q6 7 16.5 9t18.5 -4q8 8 17 15q59 50 143 65.5t169 2.5q156 -23 280 -141q50 -47 86.5 -106.5t57.5 -123.5t28.5 -132.5t0 -137.5t-29.5 -135zM479 -224q112 -32 269 54l-21 15q-37 26 -58.5 39
t-55.5 30.5t-66 23.5t-65 3q-36 -4 -64.5 -25.5t-24.5 -55.5q2 -29 28.5 -52t57.5 -32z" />
    <glyph glyph-name="E" unicode="E" horiz-adv-x="737" 
d="M692 157q6 14 21 11t12 -19q-5 -36 -24 -77q-37 -78 -95 -141.5t-132 -104.5q-79 -44 -166 -61q-107 -21 -178 1q-45 15 -76 46t-44 76q-20 72 0 177q25 132 119 225q-40 47 -55 106q-22 84 3.5 173t81.5 168q110 154 260 203q110 35 168 -9q34 -26 32.5 -61t-24.5 -53
q-4 -3 -10.5 -2t-9.5 5.5t1 10.5q16 20 -7 47q-24 31 -112 0q-60 -21 -109 -59q-109 -83 -165 -211q-64 -145 -3 -254q4 -8 9 -14q5 4 10 7q48 31 72 42q27 12 77 22q101 20 122 -34q10 -22 4 -45t-18.5 -42t-30.5 -34q-54 -45 -128 -46q-65 -1 -121 38q-13 -19 -25 -40
q-77 -132 -64 -271q7 -68 54 -92q41 -20 128 -15q73 3 142.5 29t123.5 71q57 48 93 103q19 28 64 124zM292 351q-38 -21 -58 -38q-7 -6 -14 -13q17 -17 39 -27q47 -21 102 -5q28 8 49.5 26.5t29.5 44.5q14 47 -22 54q-20 4 -66 -12q-12 -5 -60 -30z" />
    <glyph glyph-name="E" unicode="&#xcb;" horiz-adv-x="737" 
d="M692 157q6 14 21 11t12 -19q-5 -36 -24 -77q-37 -78 -95 -141.5t-132 -104.5q-79 -44 -166 -61q-107 -21 -178 1q-45 15 -76 46t-44 76q-20 72 0 177q25 132 119 225q-40 47 -55 106q-22 84 3.5 173t81.5 168q110 154 260 203q110 35 168 -9q34 -26 32.5 -61t-24.5 -53
q-4 -3 -10.5 -2t-9.5 5.5t1 10.5q16 20 -7 47q-24 31 -112 0q-60 -21 -109 -59q-109 -83 -165 -211q-64 -145 -3 -254q4 -8 9 -14q5 4 10 7q48 31 72 42q27 12 77 22q101 20 122 -34q10 -22 4 -45t-18.5 -42t-30.5 -34q-54 -45 -128 -46q-65 -1 -121 38q-13 -19 -25 -40
q-77 -132 -64 -271q7 -68 54 -92q41 -20 128 -15q73 3 142.5 29t123.5 71q57 48 93 103q19 28 64 124zM292 351q-38 -21 -58 -38q-7 -6 -14 -13q17 -17 39 -27q47 -21 102 -5q28 8 49.5 26.5t29.5 44.5q14 47 -22 54q-20 4 -66 -12q-12 -5 -60 -30z" />
    <glyph glyph-name="E" unicode="&#xca;" horiz-adv-x="737" 
d="M692 157q6 14 21 11t12 -19q-5 -36 -24 -77q-37 -78 -95 -141.5t-132 -104.5q-79 -44 -166 -61q-107 -21 -178 1q-45 15 -76 46t-44 76q-20 72 0 177q25 132 119 225q-40 47 -55 106q-22 84 3.5 173t81.5 168q110 154 260 203q110 35 168 -9q34 -26 32.5 -61t-24.5 -53
q-4 -3 -10.5 -2t-9.5 5.5t1 10.5q16 20 -7 47q-24 31 -112 0q-60 -21 -109 -59q-109 -83 -165 -211q-64 -145 -3 -254q4 -8 9 -14q5 4 10 7q48 31 72 42q27 12 77 22q101 20 122 -34q10 -22 4 -45t-18.5 -42t-30.5 -34q-54 -45 -128 -46q-65 -1 -121 38q-13 -19 -25 -40
q-77 -132 -64 -271q7 -68 54 -92q41 -20 128 -15q73 3 142.5 29t123.5 71q57 48 93 103q19 28 64 124zM292 351q-38 -21 -58 -38q-7 -6 -14 -13q17 -17 39 -27q47 -21 102 -5q28 8 49.5 26.5t29.5 44.5q14 47 -22 54q-20 4 -66 -12q-12 -5 -60 -30z" />
    <glyph glyph-name="E" unicode="&#xc9;" horiz-adv-x="737" 
d="M692 157q6 14 21 11t12 -19q-5 -36 -24 -77q-37 -78 -95 -141.5t-132 -104.5q-79 -44 -166 -61q-107 -21 -178 1q-45 15 -76 46t-44 76q-20 72 0 177q25 132 119 225q-40 47 -55 106q-22 84 3.5 173t81.5 168q110 154 260 203q110 35 168 -9q34 -26 32.5 -61t-24.5 -53
q-4 -3 -10.5 -2t-9.5 5.5t1 10.5q16 20 -7 47q-24 31 -112 0q-60 -21 -109 -59q-109 -83 -165 -211q-64 -145 -3 -254q4 -8 9 -14q5 4 10 7q48 31 72 42q27 12 77 22q101 20 122 -34q10 -22 4 -45t-18.5 -42t-30.5 -34q-54 -45 -128 -46q-65 -1 -121 38q-13 -19 -25 -40
q-77 -132 -64 -271q7 -68 54 -92q41 -20 128 -15q73 3 142.5 29t123.5 71q57 48 93 103q19 28 64 124zM292 351q-38 -21 -58 -38q-7 -6 -14 -13q17 -17 39 -27q47 -21 102 -5q28 8 49.5 26.5t29.5 44.5q14 47 -22 54q-20 4 -66 -12q-12 -5 -60 -30z" />
    <glyph glyph-name="E" unicode="&#xc8;" horiz-adv-x="737" 
d="M692 157q6 14 21 11t12 -19q-5 -36 -24 -77q-37 -78 -95 -141.5t-132 -104.5q-79 -44 -166 -61q-107 -21 -178 1q-45 15 -76 46t-44 76q-20 72 0 177q25 132 119 225q-40 47 -55 106q-22 84 3.5 173t81.5 168q110 154 260 203q110 35 168 -9q34 -26 32.5 -61t-24.5 -53
q-4 -3 -10.5 -2t-9.5 5.5t1 10.5q16 20 -7 47q-24 31 -112 0q-60 -21 -109 -59q-109 -83 -165 -211q-64 -145 -3 -254q4 -8 9 -14q5 4 10 7q48 31 72 42q27 12 77 22q101 20 122 -34q10 -22 4 -45t-18.5 -42t-30.5 -34q-54 -45 -128 -46q-65 -1 -121 38q-13 -19 -25 -40
q-77 -132 -64 -271q7 -68 54 -92q41 -20 128 -15q73 3 142.5 29t123.5 71q57 48 93 103q19 28 64 124zM292 351q-38 -21 -58 -38q-7 -6 -14 -13q17 -17 39 -27q47 -21 102 -5q28 8 49.5 26.5t29.5 44.5q14 47 -22 54q-20 4 -66 -12q-12 -5 -60 -30z" />
    <glyph glyph-name="F" unicode="F" horiz-adv-x="839" 
d="M1099.5 872.5q14.5 3.5 23.5 -7t2 -23.5q-20 -39 -99 -68q-50 -18 -120 -22q-71 -4 -147.5 11.5t-169.5 43.5t-143 38q-7 1 -15 3q0 -17 -5 -46q-7 -51 -12 -80q-13 -77 -27 -159q-3 -17 -6.5 -36.5t-7.5 -43t-7 -36.5q17 2 36 4q71 9 143 8q42 0 74 -3q55 -4 71 -20
q8 -8 6.5 -18.5t-11.5 -15.5q-12 -8 -33.5 -8t-36.5 2q-39 3 -70 4q-67 1 -137 -5q-25 -2 -51 -5q-43 -242 -74 -394q-1 -5 -7 -33t-7.5 -35.5t-7.5 -32t-10.5 -34.5t-13 -29t-17.5 -30t-21.5 -24.5t-26.5 -23.5q-59 -39 -120 -14q-17 7 -26 14q-3 2 -12 19q-1 1 -5.5 7
t-5.5 11q-4 10 -3 24q1 6 7.5 7.5t9.5 -3.5q7 -9 22 -22q1 -1 16.5 -5.5t23.5 -4.5q20 1 39 14q38 26 57 101q8 35 16 73t17.5 92.5t13.5 74.5q17 87 44 234q-13 -3 -32 -7.5t-33 -8t-31.5 -6t-32.5 -3.5q-9 0 -14 9t3 15q13 9 28 17t37.5 15t31 9t36.5 9q7 3 17 5
q18 97 41 216q13 66 27 123q12 50 16 62q5 18 8 26q-68 6 -126 -4q-104 -17 -172 -83q-6 -7 -14.5 -1.5t-3.5 13.5q28 43 75 73t101 45q37 10 78.5 12.5t74 1t79 -10.5t73.5 -15.5t78.5 -20.5t73.5 -20q130 -33 221 -28q46 2 96 17q14 3 31.5 11t34.5 15t31.5 10.5z" />
    <glyph glyph-name="G" unicode="G" horiz-adv-x="897" 
d="M855 707q2 10 12.5 13t20 -2.5t9.5 -15.5q-2 -119 -70 -267q-60 -132 -152 -235q-86 -94 -187 -148q-7 -3 -16 -7q-30 -115 -58 -193q-29 -78 -78 -135.5t-119 -71.5q-45 -9 -89.5 4.5t-74 49.5t-24.5 85q12 111 177 199q26 13 53.5 25.5t70 29t55.5 22.5q31 112 60 237
q-81 -96 -152 -137q-46 -27 -99 -32t-102 20q-81 44 -91 160q-6 75 25 184q26 91 74.5 173.5t118.5 151.5q91 89 170 107q49 12 98 -4t75 -56q3 -5 6 -11q11 43 24 76q5 13 19.5 17.5t27 -2.5t11.5 -22q0 -38 -7 -85q-43 -286 -138 -665q-3 -10 -8.5 -31t-7.5 -31
q84 51 156 134q84 96 138 220q40 91 72 243zM323 250q72 50 120 114q13 18 27 39q15 68 45 208q4 21 12.5 60t11.5 58q-2 31 -4 46.5t-11.5 38.5t-26.5 35q-16 12 -36 14t-40 -4.5t-37 -15.5t-33 -21q-126 -93 -201 -247q-32 -67 -50 -147q-20 -89 -8 -142q16 -73 84 -84
q64 -10 147 48zM364 -16q0 2 1 5l2 6t1 5q-77 -31 -112 -48q-64 -31 -105 -70q-58 -54 -57 -107q0 -16 9 -29t21.5 -19.5t28.5 -10.5q42 -8 89 27q14 10 26 23.5t21 25t18 31t14 29.5t13 34l10.5 31.5t10 35t9.5 31.5z" />
    <glyph glyph-name="H" unicode="H" horiz-adv-x="1052" 
d="M957 803q5 -13 5 -30t-1.5 -27.5t-6.5 -32.5t-6 -28q-4 -21 -13 -60.5t-11 -48.5q-48 -228 -76 -400q-15 -94 -28 -196q-3 -20 -11.5 -93.5t-15.5 -113.5q-2 -14 -17 -22t-30.5 -6t-27 13t-10.5 26q3 47 28 229q18 134 39 255q-11 1 -31.5 5.5t-23.5 4.5q-33 5 -71 10
q-79 9 -157 10q-36 0 -75 -1q-28 -192 -69 -513q-2 -17 -13 -27.5t-29 -10.5q-9 0 -19.5 4.5t-17 14t-5.5 19.5q43 334 69 508q-20 -1 -72.5 -6t-81.5 -7q-12 0 -16 12.5t8 17.5q74 30 171 43q6 41 12 80q26 156 54 283q30 131 38 164q-4 1 -6 2q-12 4 -32.5 12.5t-34 13.5
t-33 12t-35 11.5t-33.5 9t-35.5 6.5t-34.5 3q-55 1 -102.5 -19t-76.5 -61q-6 -9 -16.5 -4t-5.5 15q23 47 70 73t104 33q41 4 87 -3t77.5 -17.5t81.5 -29.5q5 -2 11 -4.5t13.5 -5.5t11.5 -4q9 32 18 60q46 138 146 151q36 5 71 -5.5t61.5 -36t35.5 -61.5q15 -56 -11.5 -105.5
t-80.5 -71.5q-74 -30 -182 2v-1q-47 -222 -88 -494q31 2 65 2q83 2 163 -6q38 -3 82 -10q45 -7 50 -8q9 46 16 84q23 121 43 200q15 60 27 99q0 2 3 12t4 13l4 12t5 12.5t5.5 11t6.5 12t7.5 9.5t9.5 9q10 9 22.5 6t16.5 -15zM541 971q-8 -29 -17 -73q78 -24 134 -10
q58 15 78 60t-2 88.5t-71 49t-81 -30.5q-24 -28 -41 -84z" />
    <glyph glyph-name="I" unicode="I" horiz-adv-x="531" 
d="M504 911q24 -17 12.5 -39.5t-38.5 -17.5q-14 3 -38.5 11.5t-32.5 11.5q-1 0 -2.5 0.5t-2.5 0.5q-2 -22 -14 -76q-4 -14 -8 -32.5t-8.5 -36.5t-7.5 -32q-38 -166 -46 -201q-39 -184 -68 -363q-15 -90 -27 -181q-11 -88 -19 -112q5 -2 15 -5t14 -4q74 -24 91 -29
q59 -20 83 -39q8 -8 3 -17t-15 -10q-30 -2 -93 16q-12 3 -92 28q-4 1 -15 4.5t-17 5.5q-1 -2 -3 -4q-26 -33 -68 -44.5t-79 10.5q-25 17 -28 43t13.5 47.5t43.5 27.5q27 5 66 -5q4 12 7 27t4 26.5t3 28t3 25.5q22 163 51 319q27 149 65 313q19 80 40 155q2 6 8.5 30.5
t9.5 35.5t9.5 29.5t13.5 32.5q-32 4 -67 5q-4 0 -21.5 -1t-28.5 0t-20 5q-8 4 -9 12.5t5 13.5q16 15 74 21q41 4 77 2q41 -3 79 -12q56 -12 78 -26zM62 -191q4 -4 18 2q6 3 13 9q-20 3 -30 -8q-2 -2 -1 -3z" />
    <glyph glyph-name="I" unicode="&#xcf;" horiz-adv-x="531" 
d="M504 911q24 -17 12.5 -39.5t-38.5 -17.5q-14 3 -38.5 11.5t-32.5 11.5q-1 0 -2.5 0.5t-2.5 0.5q-2 -22 -14 -76q-4 -14 -8 -32.5t-8.5 -36.5t-7.5 -32q-38 -166 -46 -201q-39 -184 -68 -363q-15 -90 -27 -181q-11 -88 -19 -112q5 -2 15 -5t14 -4q74 -24 91 -29
q59 -20 83 -39q8 -8 3 -17t-15 -10q-30 -2 -93 16q-12 3 -92 28q-4 1 -15 4.5t-17 5.5q-1 -2 -3 -4q-26 -33 -68 -44.5t-79 10.5q-25 17 -28 43t13.5 47.5t43.5 27.5q27 5 66 -5q4 12 7 27t4 26.5t3 28t3 25.5q22 163 51 319q27 149 65 313q19 80 40 155q2 6 8.5 30.5
t9.5 35.5t9.5 29.5t13.5 32.5q-32 4 -67 5q-4 0 -21.5 -1t-28.5 0t-20 5q-8 4 -9 12.5t5 13.5q16 15 74 21q41 4 77 2q41 -3 79 -12q56 -12 78 -26zM62 -191q4 -4 18 2q6 3 13 9q-20 3 -30 -8q-2 -2 -1 -3z" />
    <glyph glyph-name="I" unicode="&#xce;" horiz-adv-x="531" 
d="M504 911q24 -17 12.5 -39.5t-38.5 -17.5q-14 3 -38.5 11.5t-32.5 11.5q-1 0 -2.5 0.5t-2.5 0.5q-2 -22 -14 -76q-4 -14 -8 -32.5t-8.5 -36.5t-7.5 -32q-38 -166 -46 -201q-39 -184 -68 -363q-15 -90 -27 -181q-11 -88 -19 -112q5 -2 15 -5t14 -4q74 -24 91 -29
q59 -20 83 -39q8 -8 3 -17t-15 -10q-30 -2 -93 16q-12 3 -92 28q-4 1 -15 4.5t-17 5.5q-1 -2 -3 -4q-26 -33 -68 -44.5t-79 10.5q-25 17 -28 43t13.5 47.5t43.5 27.5q27 5 66 -5q4 12 7 27t4 26.5t3 28t3 25.5q22 163 51 319q27 149 65 313q19 80 40 155q2 6 8.5 30.5
t9.5 35.5t9.5 29.5t13.5 32.5q-32 4 -67 5q-4 0 -21.5 -1t-28.5 0t-20 5q-8 4 -9 12.5t5 13.5q16 15 74 21q41 4 77 2q41 -3 79 -12q56 -12 78 -26zM62 -191q4 -4 18 2q6 3 13 9q-20 3 -30 -8q-2 -2 -1 -3z" />
    <glyph glyph-name="I" unicode="&#xcd;" horiz-adv-x="531" 
d="M504 911q24 -17 12.5 -39.5t-38.5 -17.5q-14 3 -38.5 11.5t-32.5 11.5q-1 0 -2.5 0.5t-2.5 0.5q-2 -22 -14 -76q-4 -14 -8 -32.5t-8.5 -36.5t-7.5 -32q-38 -166 -46 -201q-39 -184 -68 -363q-15 -90 -27 -181q-11 -88 -19 -112q5 -2 15 -5t14 -4q74 -24 91 -29
q59 -20 83 -39q8 -8 3 -17t-15 -10q-30 -2 -93 16q-12 3 -92 28q-4 1 -15 4.5t-17 5.5q-1 -2 -3 -4q-26 -33 -68 -44.5t-79 10.5q-25 17 -28 43t13.5 47.5t43.5 27.5q27 5 66 -5q4 12 7 27t4 26.5t3 28t3 25.5q22 163 51 319q27 149 65 313q19 80 40 155q2 6 8.5 30.5
t9.5 35.5t9.5 29.5t13.5 32.5q-32 4 -67 5q-4 0 -21.5 -1t-28.5 0t-20 5q-8 4 -9 12.5t5 13.5q16 15 74 21q41 4 77 2q41 -3 79 -12q56 -12 78 -26zM62 -191q4 -4 18 2q6 3 13 9q-20 3 -30 -8q-2 -2 -1 -3z" />
    <glyph glyph-name="I" unicode="&#xcc;" horiz-adv-x="531" 
d="M504 911q24 -17 12.5 -39.5t-38.5 -17.5q-14 3 -38.5 11.5t-32.5 11.5q-1 0 -2.5 0.5t-2.5 0.5q-2 -22 -14 -76q-4 -14 -8 -32.5t-8.5 -36.5t-7.5 -32q-38 -166 -46 -201q-39 -184 -68 -363q-15 -90 -27 -181q-11 -88 -19 -112q5 -2 15 -5t14 -4q74 -24 91 -29
q59 -20 83 -39q8 -8 3 -17t-15 -10q-30 -2 -93 16q-12 3 -92 28q-4 1 -15 4.5t-17 5.5q-1 -2 -3 -4q-26 -33 -68 -44.5t-79 10.5q-25 17 -28 43t13.5 47.5t43.5 27.5q27 5 66 -5q4 12 7 27t4 26.5t3 28t3 25.5q22 163 51 319q27 149 65 313q19 80 40 155q2 6 8.5 30.5
t9.5 35.5t9.5 29.5t13.5 32.5q-32 4 -67 5q-4 0 -21.5 -1t-28.5 0t-20 5q-8 4 -9 12.5t5 13.5q16 15 74 21q41 4 77 2q41 -3 79 -12q56 -12 78 -26zM62 -191q4 -4 18 2q6 3 13 9q-20 3 -30 -8q-2 -2 -1 -3z" />
    <glyph glyph-name="J" unicode="J" horiz-adv-x="795" 
d="M757 711q8 8 18.5 8t16.5 -8t0 -19q-15 -25 -36 -49t-47 -46.5t-47 -38.5t-52 -38q-49 -36 -123 -84q-5 -24 -18 -89.5t-20 -101.5q-5 -24 -14.5 -73t-14.5 -74q-21 -107 -30 -137q-43 -154 -150 -202q-39 -15 -79 -15.5t-78.5 19.5t-58.5 55q-18 31 -22.5 72t2 78.5
t20.5 73.5q23 59 60 112t87 99t95.5 80t107.5 75l21 14q29 150 44 219q21 103 29 140q14 62 18 73q2 6 6 17q-28 -1 -58 -7q-6 -2 -18 -5.5t-19.5 -5t-19.5 -2.5t-18 2q-23 9 -18 29q7 26 64 45q4 2 6 2q36 13 85 17q39 4 87 -2q17 -2 23.5 -3t20.5 -4.5t23.5 -8.5t17.5 -13
q14 -14 9 -35t-26 -23q-9 -2 -22 -1t-20.5 3t-20.5 5t-21 4q-1 0 -2 0.5t-2 0.5q-1 -31 -4 -47q0 -1 -14 -81q-6 -38 -31 -168q-8 -40 -16 -83q49 33 87 60q112 82 172 161zM329 86q41 211 55 281v0.5v1.5q-58 -38 -99.5 -69.5t-88 -75t-79.5 -93.5t-51 -105
q-44 -139 22 -195q26 -22 57 -19.5t58.5 18t47.5 39.5q8 9 15 19.5t13.5 24t10.5 22t9 25.5t7.5 24t6.5 26.5t5.5 24t5.5 27t5 24.5z" />
    <glyph glyph-name="K" unicode="K" horiz-adv-x="793" 
d="M687 120q19 -25 24.5 -61.5t0.5 -70.5t-17 -65q-19 -46 -53.5 -81t-80.5 -52q-62 -22 -117 -2q-49 19 -86 71q-22 29 -52 94q-28 58 -48 112q-8 23 -16 47q-17 -116 -46 -342q-3 -17 -14.5 -28.5t-29.5 -11.5q-17 0 -31.5 12t-12.5 28q48 370 78 550q17 98 27 154
t29.5 140t40.5 151q-79 -4 -112 -9q-107 -16 -158 -74q-4 -4 -9.5 -0.5t-2.5 8.5q13 24 31.5 42.5t43 30.5t45.5 19.5t53.5 12.5t51 6.5t54.5 4.5q12 1 17 1q41 116 90 175q37 43 87 50q25 3 49 -4.5t40 -25.5q22 -25 22.5 -58t-15.5 -61.5t-41 -49.5q-58 -48 -161 -61
q-14 -49 -30 -120q-28 -124 -53 -266q5 4 10 11q43 48 100 89q60 43 118 69q37 16 64 25q51 16 76 -4q12 -9 7 -24q-7 -22 -57 -39q-43 -16 -56 -21q-58 -26 -108 -59q-47 -30 -96 -75q-15 -13 -39.5 -39t-31.5 -33q4 -10 8 -22t7 -22t6.5 -23.5t5.5 -22.5q17 -54 38 -112
q42 -112 85 -176q26 -40 54 -51q33 -13 76 1q34 12 60.5 39t41.5 63q15 35 15 73q0 14 -11 76q-3 13 9.5 17t19.5 -6zM394 850q-5 -14 -12 -33q69 13 108 45q42 33 46 70q2 19 -8.5 36.5t-29.5 16.5q-33 -3 -61 -46q-21 -32 -43 -89z" />
    <glyph glyph-name="L" unicode="L" horiz-adv-x="898" 
d="M881 -214q13 1 16.5 -11t-7.5 -18q-27 -16 -64 -23t-70 -7t-68 1q-123 7 -208 43q-41 18 -106 70.5t-78 61.5q-4 3 -9 6q-15 -62 -30 -94q-20 -40 -58.5 -62t-83 -18t-76.5 36q-49 47 -37 112q10 53 61 90q66 48 155 25q41 170 96 435q18 88 50 234q12 55 29 127
q18 77 44 129q8 15 27 10t19 -22q2 -50 -20 -165q-7 -38 -28 -147q-35 -174 -58 -284q-29 -141 -54 -250q-10 -47 -23 -103q28 -17 91 -71.5t103 -74.5q75 -36 194 -42q55 -3 193 12zM180 -145q12 26 26 91q-63 16 -105 -18q-17 -14 -25.5 -33.5t-2.5 -39.5t23 -33
q13 -10 31 -9q19 1 32 11q13 11 21 31z" />
    <glyph glyph-name="M" unicode="M" horiz-adv-x="1031" 
d="M917 -26q5 16 21.5 11.5t13.5 -20.5q-11 -71 -47 -133q-15 -25 -26 -41t-31.5 -34.5t-41.5 -24.5q-17 -4 -33.5 -1t-30.5 11.5t-24.5 22.5t-14.5 30q-6 20 -7 77q-1 35 -1 70q-1 151 10 296q10 147 31 298q8 61 20 125q-73 -117 -144 -234q-51 -83 -99 -177
q-13 -25 -28 -57q21 -37 47 -71q39 -50 44 -82q8 -46 -22.5 -76.5t-76.5 -18.5q-40 10 -60 46t-15 79q5 39 32 97q1 2 2.5 5.5t2.5 4.5q-73 125 -102 287q-15 85 -21 200q0 7 -1 20q-13 -36 -21 -62q-70 -201 -135 -431q-9 -31 -52.5 -191t-69.5 -245q-4 -13 -21 -11.5
t-16 16.5q12 118 40 251q43 201 117 440q88 279 154 429q12 25 38 22q12 -1 22 -10t8 -21q0 -6 -1 -13t-2.5 -13.5t-2.5 -13t-2 -13.5t-1 -14q-1 -13 -2 -60q-2 -76 0 -126q8 -128 37 -234q23 -84 59 -154q9 19 17 34q16 31 100 194q19 37 39.5 74.5t46 81.5t40.5 70.5
t47 81t43 72.5q13 22 36.5 12t19.5 -33q-4 -21 -9 -75q-1 -12 -3 -24.5t-4.5 -28t-3.5 -24.5q-11 -77 -19 -146q-33 -263 -36 -530q-1 -66 0 -131q1 -39 8 -54q3 -8 7 -14l1 -1q2 0 5 1q5 2 9 4.5t9 7.5l7 7t8 9.5l6 7.5q18 21 32 44q31 51 47 104zM518 -10q9 8 11.5 21
t-1 25t-9.5 23q-8 15 -27.5 40t-23.5 31q-1 3 -8 12q-21 -45 -23 -75q-3 -48 25 -73q11 -10 27 -11.5t29 7.5zM795 -212z" />
    <glyph glyph-name="N" unicode="N" horiz-adv-x="795" 
d="M901 912q9 7 21.5 3.5t15.5 -13t-6 -19.5q-56 -51 -128 -81q-59 -26 -109 -32q-1 -44 -12 -117q-25 -164 -52 -296q-33 -160 -75 -288q-24 -75 -52 -143q-1 -2 -5.5 -13t-6 -14.5t-6 -13t-7 -14t-7.5 -12.5t-9 -12.5t-9.5 -10t-11.5 -9.5t-13 -8q-36 -15 -66.5 -2
t-45.5 48q-15 34 -42 138q-38 144 -57 297q-16 132 -16 266q-37 -150 -77 -355q-5 -27 -39 -222q-3 -17 -9 -53.5t-9.5 -58t-10.5 -52.5t-14 -56q-2 -8 -9 -11.5t-14.5 -2.5t-13.5 6t-6 13q1 71 27 252q36 255 82.5 470t117.5 413q7 20 26.5 24t34.5 -8.5t11 -33.5
q-26 -152 -29 -290q-4 -146 12 -288q15 -125 45 -251q15 -64 34 -127q14 -45 19 -54q4 -7 7 -9.5t11 0.5q14 5 28 36q9 17 25 57q23 58 43 119q36 110 67 245q24 108 50 256q2 12 8 43.5t9 49.5t6 44.5t3 48.5q-21 4 -39 13.5t-31 26.5t-15 38q-4 38 29.5 62t67.5 5
q40 -22 45 -95q118 16 207 91zM607 851q3 -22 28 -29q-1 9 -2 17q-5 29 -15 33l-1 -0.5t-3 -2t-3 -2.5q-6 -6 -4 -16z" />
    <glyph glyph-name="N" unicode="&#xd1;" horiz-adv-x="795" 
d="M901 912q9 7 21.5 3.5t15.5 -13t-6 -19.5q-56 -51 -128 -81q-59 -26 -109 -32q-1 -44 -12 -117q-25 -164 -52 -296q-33 -160 -75 -288q-24 -75 -52 -143q-1 -2 -5.5 -13t-6 -14.5t-6 -13t-7 -14t-7.5 -12.5t-9 -12.5t-9.5 -10t-11.5 -9.5t-13 -8q-36 -15 -66.5 -2
t-45.5 48q-15 34 -42 138q-38 144 -57 297q-16 132 -16 266q-37 -150 -77 -355q-5 -27 -39 -222q-3 -17 -9 -53.5t-9.5 -58t-10.5 -52.5t-14 -56q-2 -8 -9 -11.5t-14.5 -2.5t-13.5 6t-6 13q1 71 27 252q36 255 82.5 470t117.5 413q7 20 26.5 24t34.5 -8.5t11 -33.5
q-26 -152 -29 -290q-4 -146 12 -288q15 -125 45 -251q15 -64 34 -127q14 -45 19 -54q4 -7 7 -9.5t11 0.5q14 5 28 36q9 17 25 57q23 58 43 119q36 110 67 245q24 108 50 256q2 12 8 43.5t9 49.5t6 44.5t3 48.5q-21 4 -39 13.5t-31 26.5t-15 38q-4 38 29.5 62t67.5 5
q40 -22 45 -95q118 16 207 91zM607 851q3 -22 28 -29q-1 9 -2 17q-5 29 -15 33l-1 -0.5t-3 -2t-3 -2.5q-6 -6 -4 -16z" />
    <glyph glyph-name="O" unicode="O" horiz-adv-x="989" 
d="M995 426q6 6 14.5 3.5t11 -9.5t-3.5 -14q-3 -3 -6.5 -8t-7 -10.5t-5.5 -8.5q-4 -4 -26 -25q-79 -79 -138 -118q-71 -47 -128 -54q-1 -8 -2 -17q-6 -43 -14 -71q-21 -70 -74 -140q-121 -160 -272 -200q-88 -24 -164 7q-78 32 -126 120q-75 137 -46 355q27 201 119 383
q108 215 265 276q99 39 186 10q87 -30 143 -109q59 -83 65 -191.5t-41 -198.5q-7 -14 -23.5 -7.5t-13.5 22.5q11 58 12 94q4 89 -26 169q-28 75 -82 119q-11 9 -25 17q-8 4 -15 8q-3 1 -7 3q-1 0 -2 0.5l-1 0.5q-17 6 -35 9l-6 1h-6q-8 1 -16 0q-33 0 -65 -12
q-39 -16 -77 -46q-21 -16 -42 -37q-9 -9 -17 -18q-1 -1 -3 -3.5t-4 -4l-2 -1.5q-18 -22 -39 -53q-41 -63 -74 -138q-73 -171 -88 -334q-3 -44 -3 -85q1 -21 2 -41q1 -10 2 -19t2 -12q5 -38 17 -72q6 -19 13 -34l1 -2.5t3 -5.5t2 -4q4 -6 7 -13q20 -33 47 -56q6 -5 13 -10
q3 -2 4 -2q1 -1 3.5 -2.5t3.5 -2.5q6 -3 13 -7q9 -4 11 -5q15 -5 30 -8q3 0 7 -1h1q11 -1 15 -1q32 -1 60 6q67 16 129.5 59.5t108.5 102.5q49 61 69 120q15 43 18 81q-42 6 -74 32t-17 62q8 18 26 25t38 3q46 -9 61 -53q4 -12 5 -26q25 5 53 18q49 24 132 91q19 16 57 53
q21 20 26 24q1 0 9.5 6t11.5 10zM265 -187zM620 267q-8 -4 -5 -11t8 -12.5t10 -8.5q14 -9 33 -12q-1 6 -3 11q-4 18 -15 25q-17 13 -28 8z" />
    <glyph glyph-name="O" unicode="&#xd8;" horiz-adv-x="989" 
d="M995 426q6 6 14.5 3.5t11 -9.5t-3.5 -14q-3 -3 -6.5 -8t-7 -10.5t-5.5 -8.5q-4 -4 -26 -25q-79 -79 -138 -118q-71 -47 -128 -54q-1 -8 -2 -17q-6 -43 -14 -71q-21 -70 -74 -140q-121 -160 -272 -200q-88 -24 -164 7q-78 32 -126 120q-75 137 -46 355q27 201 119 383
q108 215 265 276q99 39 186 10q87 -30 143 -109q59 -83 65 -191.5t-41 -198.5q-7 -14 -23.5 -7.5t-13.5 22.5q11 58 12 94q4 89 -26 169q-28 75 -82 119q-11 9 -25 17q-8 4 -15 8q-3 1 -7 3q-1 0 -2 0.5l-1 0.5q-17 6 -35 9l-6 1h-6q-8 1 -16 0q-33 0 -65 -12
q-39 -16 -77 -46q-21 -16 -42 -37q-9 -9 -17 -18q-1 -1 -3 -3.5t-4 -4l-2 -1.5q-18 -22 -39 -53q-41 -63 -74 -138q-73 -171 -88 -334q-3 -44 -3 -85q1 -21 2 -41q1 -10 2 -19t2 -12q5 -38 17 -72q6 -19 13 -34l1 -2.5t3 -5.5t2 -4q4 -6 7 -13q20 -33 47 -56q6 -5 13 -10
q3 -2 4 -2q1 -1 3.5 -2.5t3.5 -2.5q6 -3 13 -7q9 -4 11 -5q15 -5 30 -8q3 0 7 -1h1q11 -1 15 -1q32 -1 60 6q67 16 129.5 59.5t108.5 102.5q49 61 69 120q15 43 18 81q-42 6 -74 32t-17 62q8 18 26 25t38 3q46 -9 61 -53q4 -12 5 -26q25 5 53 18q49 24 132 91q19 16 57 53
q21 20 26 24q1 0 9.5 6t11.5 10zM265 -187zM620 267q-8 -4 -5 -11t8 -12.5t10 -8.5q14 -9 33 -12q-1 6 -3 11q-4 18 -15 25q-17 13 -28 8z" />
    <glyph glyph-name="O" unicode="&#xd6;" horiz-adv-x="989" 
d="M995 426q6 6 14.5 3.5t11 -9.5t-3.5 -14q-3 -3 -6.5 -8t-7 -10.5t-5.5 -8.5q-4 -4 -26 -25q-79 -79 -138 -118q-71 -47 -128 -54q-1 -8 -2 -17q-6 -43 -14 -71q-21 -70 -74 -140q-121 -160 -272 -200q-88 -24 -164 7q-78 32 -126 120q-75 137 -46 355q27 201 119 383
q108 215 265 276q99 39 186 10q87 -30 143 -109q59 -83 65 -191.5t-41 -198.5q-7 -14 -23.5 -7.5t-13.5 22.5q11 58 12 94q4 89 -26 169q-28 75 -82 119q-11 9 -25 17q-8 4 -15 8q-3 1 -7 3q-1 0 -2 0.5l-1 0.5q-17 6 -35 9l-6 1h-6q-8 1 -16 0q-33 0 -65 -12
q-39 -16 -77 -46q-21 -16 -42 -37q-9 -9 -17 -18q-1 -1 -3 -3.5t-4 -4l-2 -1.5q-18 -22 -39 -53q-41 -63 -74 -138q-73 -171 -88 -334q-3 -44 -3 -85q1 -21 2 -41q1 -10 2 -19t2 -12q5 -38 17 -72q6 -19 13 -34l1 -2.5t3 -5.5t2 -4q4 -6 7 -13q20 -33 47 -56q6 -5 13 -10
q3 -2 4 -2q1 -1 3.5 -2.5t3.5 -2.5q6 -3 13 -7q9 -4 11 -5q15 -5 30 -8q3 0 7 -1h1q11 -1 15 -1q32 -1 60 6q67 16 129.5 59.5t108.5 102.5q49 61 69 120q15 43 18 81q-42 6 -74 32t-17 62q8 18 26 25t38 3q46 -9 61 -53q4 -12 5 -26q25 5 53 18q49 24 132 91q19 16 57 53
q21 20 26 24q1 0 9.5 6t11.5 10zM265 -187zM620 267q-8 -4 -5 -11t8 -12.5t10 -8.5q14 -9 33 -12q-1 6 -3 11q-4 18 -15 25q-17 13 -28 8z" />
    <glyph glyph-name="O" unicode="&#xd5;" horiz-adv-x="989" 
d="M995 426q6 6 14.5 3.5t11 -9.5t-3.5 -14q-3 -3 -6.5 -8t-7 -10.5t-5.5 -8.5q-4 -4 -26 -25q-79 -79 -138 -118q-71 -47 -128 -54q-1 -8 -2 -17q-6 -43 -14 -71q-21 -70 -74 -140q-121 -160 -272 -200q-88 -24 -164 7q-78 32 -126 120q-75 137 -46 355q27 201 119 383
q108 215 265 276q99 39 186 10q87 -30 143 -109q59 -83 65 -191.5t-41 -198.5q-7 -14 -23.5 -7.5t-13.5 22.5q11 58 12 94q4 89 -26 169q-28 75 -82 119q-11 9 -25 17q-8 4 -15 8q-3 1 -7 3q-1 0 -2 0.5l-1 0.5q-17 6 -35 9l-6 1h-6q-8 1 -16 0q-33 0 -65 -12
q-39 -16 -77 -46q-21 -16 -42 -37q-9 -9 -17 -18q-1 -1 -3 -3.5t-4 -4l-2 -1.5q-18 -22 -39 -53q-41 -63 -74 -138q-73 -171 -88 -334q-3 -44 -3 -85q1 -21 2 -41q1 -10 2 -19t2 -12q5 -38 17 -72q6 -19 13 -34l1 -2.5t3 -5.5t2 -4q4 -6 7 -13q20 -33 47 -56q6 -5 13 -10
q3 -2 4 -2q1 -1 3.5 -2.5t3.5 -2.5q6 -3 13 -7q9 -4 11 -5q15 -5 30 -8q3 0 7 -1h1q11 -1 15 -1q32 -1 60 6q67 16 129.5 59.5t108.5 102.5q49 61 69 120q15 43 18 81q-42 6 -74 32t-17 62q8 18 26 25t38 3q46 -9 61 -53q4 -12 5 -26q25 5 53 18q49 24 132 91q19 16 57 53
q21 20 26 24q1 0 9.5 6t11.5 10zM265 -187zM620 267q-8 -4 -5 -11t8 -12.5t10 -8.5q14 -9 33 -12q-1 6 -3 11q-4 18 -15 25q-17 13 -28 8z" />
    <glyph glyph-name="O" unicode="&#xd4;" horiz-adv-x="989" 
d="M995 426q6 6 14.5 3.5t11 -9.5t-3.5 -14q-3 -3 -6.5 -8t-7 -10.5t-5.5 -8.5q-4 -4 -26 -25q-79 -79 -138 -118q-71 -47 -128 -54q-1 -8 -2 -17q-6 -43 -14 -71q-21 -70 -74 -140q-121 -160 -272 -200q-88 -24 -164 7q-78 32 -126 120q-75 137 -46 355q27 201 119 383
q108 215 265 276q99 39 186 10q87 -30 143 -109q59 -83 65 -191.5t-41 -198.5q-7 -14 -23.5 -7.5t-13.5 22.5q11 58 12 94q4 89 -26 169q-28 75 -82 119q-11 9 -25 17q-8 4 -15 8q-3 1 -7 3q-1 0 -2 0.5l-1 0.5q-17 6 -35 9l-6 1h-6q-8 1 -16 0q-33 0 -65 -12
q-39 -16 -77 -46q-21 -16 -42 -37q-9 -9 -17 -18q-1 -1 -3 -3.5t-4 -4l-2 -1.5q-18 -22 -39 -53q-41 -63 -74 -138q-73 -171 -88 -334q-3 -44 -3 -85q1 -21 2 -41q1 -10 2 -19t2 -12q5 -38 17 -72q6 -19 13 -34l1 -2.5t3 -5.5t2 -4q4 -6 7 -13q20 -33 47 -56q6 -5 13 -10
q3 -2 4 -2q1 -1 3.5 -2.5t3.5 -2.5q6 -3 13 -7q9 -4 11 -5q15 -5 30 -8q3 0 7 -1h1q11 -1 15 -1q32 -1 60 6q67 16 129.5 59.5t108.5 102.5q49 61 69 120q15 43 18 81q-42 6 -74 32t-17 62q8 18 26 25t38 3q46 -9 61 -53q4 -12 5 -26q25 5 53 18q49 24 132 91q19 16 57 53
q21 20 26 24q1 0 9.5 6t11.5 10zM265 -187zM620 267q-8 -4 -5 -11t8 -12.5t10 -8.5q14 -9 33 -12q-1 6 -3 11q-4 18 -15 25q-17 13 -28 8z" />
    <glyph glyph-name="O" unicode="&#xd3;" horiz-adv-x="989" 
d="M995 426q6 6 14.5 3.5t11 -9.5t-3.5 -14q-3 -3 -6.5 -8t-7 -10.5t-5.5 -8.5q-4 -4 -26 -25q-79 -79 -138 -118q-71 -47 -128 -54q-1 -8 -2 -17q-6 -43 -14 -71q-21 -70 -74 -140q-121 -160 -272 -200q-88 -24 -164 7q-78 32 -126 120q-75 137 -46 355q27 201 119 383
q108 215 265 276q99 39 186 10q87 -30 143 -109q59 -83 65 -191.5t-41 -198.5q-7 -14 -23.5 -7.5t-13.5 22.5q11 58 12 94q4 89 -26 169q-28 75 -82 119q-11 9 -25 17q-8 4 -15 8q-3 1 -7 3q-1 0 -2 0.5l-1 0.5q-17 6 -35 9l-6 1h-6q-8 1 -16 0q-33 0 -65 -12
q-39 -16 -77 -46q-21 -16 -42 -37q-9 -9 -17 -18q-1 -1 -3 -3.5t-4 -4l-2 -1.5q-18 -22 -39 -53q-41 -63 -74 -138q-73 -171 -88 -334q-3 -44 -3 -85q1 -21 2 -41q1 -10 2 -19t2 -12q5 -38 17 -72q6 -19 13 -34l1 -2.5t3 -5.5t2 -4q4 -6 7 -13q20 -33 47 -56q6 -5 13 -10
q3 -2 4 -2q1 -1 3.5 -2.5t3.5 -2.5q6 -3 13 -7q9 -4 11 -5q15 -5 30 -8q3 0 7 -1h1q11 -1 15 -1q32 -1 60 6q67 16 129.5 59.5t108.5 102.5q49 61 69 120q15 43 18 81q-42 6 -74 32t-17 62q8 18 26 25t38 3q46 -9 61 -53q4 -12 5 -26q25 5 53 18q49 24 132 91q19 16 57 53
q21 20 26 24q1 0 9.5 6t11.5 10zM265 -187zM620 267q-8 -4 -5 -11t8 -12.5t10 -8.5q14 -9 33 -12q-1 6 -3 11q-4 18 -15 25q-17 13 -28 8z" />
    <glyph glyph-name="O" unicode="&#xd2;" horiz-adv-x="989" 
d="M995 426q6 6 14.5 3.5t11 -9.5t-3.5 -14q-3 -3 -6.5 -8t-7 -10.5t-5.5 -8.5q-4 -4 -26 -25q-79 -79 -138 -118q-71 -47 -128 -54q-1 -8 -2 -17q-6 -43 -14 -71q-21 -70 -74 -140q-121 -160 -272 -200q-88 -24 -164 7q-78 32 -126 120q-75 137 -46 355q27 201 119 383
q108 215 265 276q99 39 186 10q87 -30 143 -109q59 -83 65 -191.5t-41 -198.5q-7 -14 -23.5 -7.5t-13.5 22.5q11 58 12 94q4 89 -26 169q-28 75 -82 119q-11 9 -25 17q-8 4 -15 8q-3 1 -7 3q-1 0 -2 0.5l-1 0.5q-17 6 -35 9l-6 1h-6q-8 1 -16 0q-33 0 -65 -12
q-39 -16 -77 -46q-21 -16 -42 -37q-9 -9 -17 -18q-1 -1 -3 -3.5t-4 -4l-2 -1.5q-18 -22 -39 -53q-41 -63 -74 -138q-73 -171 -88 -334q-3 -44 -3 -85q1 -21 2 -41q1 -10 2 -19t2 -12q5 -38 17 -72q6 -19 13 -34l1 -2.5t3 -5.5t2 -4q4 -6 7 -13q20 -33 47 -56q6 -5 13 -10
q3 -2 4 -2q1 -1 3.5 -2.5t3.5 -2.5q6 -3 13 -7q9 -4 11 -5q15 -5 30 -8q3 0 7 -1h1q11 -1 15 -1q32 -1 60 6q67 16 129.5 59.5t108.5 102.5q49 61 69 120q15 43 18 81q-42 6 -74 32t-17 62q8 18 26 25t38 3q46 -9 61 -53q4 -12 5 -26q25 5 53 18q49 24 132 91q19 16 57 53
q21 20 26 24q1 0 9.5 6t11.5 10zM265 -187zM620 267q-8 -4 -5 -11t8 -12.5t10 -8.5q14 -9 33 -12q-1 6 -3 11q-4 18 -15 25q-17 13 -28 8z" />
    <glyph glyph-name="P" unicode="P" horiz-adv-x="797" 
d="M784 204q7 -1 11 -7.5t-3 -11.5q-36 -28 -106 -24q-51 2 -111 19q-10 3 -23 7q-109 -78 -197 -58q-28 6 -48.5 24.5t-25.5 45.5q-4 24 7.5 45t34.5 32q17 8 38 8t36 -3t38 -10t68 -23q28 22 49 50q53 68 66 160.5t-14 174.5q-24 78 -77.5 137t-124.5 79q-16 4 -33 7
q0 -17 -2.5 -36t-6.5 -42t-6 -34q-5 -41 -24 -165q-23 -153 -90 -577q-21 -134 -22 -142q-14 -78 -55 -113q-25 -21 -57 -27.5t-62 8.5q-26 14 -38 40t3 52q6 8 16 7t14 -11q8 -21 24 -28t34 6q14 11 23 29t12 32t7 37q1 4 80 511q7 43 41 257q9 56 22 128q11 64 12 68
q-16 -2 -30 -6q-65 -17 -122 -73q-13 -13 -28 -2.5t-7 27.5q21 43 64.5 73t95.5 44q104 27 207 -17q73 -32 127 -94.5t78.5 -140t26 -158.5t-28.5 -158t-87 -132q43 -12 77 -15q17 -3 58.5 -1.5t58.5 1.5zM351 196q23 -10 78 9q15 6 29 13q-29 10 -50 16q-39 11 -56 7
q-19 -6 -19 -22t18 -23z" />
    <glyph glyph-name="Q" unicode="Q" horiz-adv-x="1013" 
d="M888 -220q21 -9 10.5 -28t-30.5 -15q-50 10 -97 32q-42 22 -82 49q-30 -55 -90 -83q-95 -45 -217 -21q-111 23 -199 99t-135 184q-31 72 -42 153.5t-2.5 159.5t32.5 156q36 114 103 225q68 114 150 177q107 81 225 84q108 4 205 -68q91 -67 133 -176.5t42 -234.5
q1 -115 -28 -259q-32 -156 -83 -246q-8 -14 -23.5 -15t-27 10.5t-7.5 26.5q9 40 29 112q75 259 54 448q-10 98 -57 180.5t-128 123.5q-43 21 -90 23t-90.5 -13t-82.5 -41t-72 -62q-58 -61 -113 -169q-52 -101 -77 -205q-25 -95 -15.5 -203t56.5 -195q45 -84 120.5 -141
t166.5 -69q100 -12 162 33q28 21 40 54q-87 79 -141 182q-49 94 -64 191q-12 77 26 114q22 22 53 23.5t56 -16.5q13 -10 25.5 -26.5t18 -27.5t16.5 -34q28 -60 47 -116.5t33 -119.5q16 -75 15 -120q0 -17 -2 -34q13 -11 25 -19q50 -36 152 -83zM523 136q31 -80 87 -152
q13 -17 28 -33q-1 13 -3 29q-12 102 -55 211q-25 63 -45 96q-23 39 -37 20q-3 -5 -5.5 -10.5t-3 -12.5t-0.5 -12t1.5 -14.5t2 -12t3 -13.5l2.5 -11q9 -43 25 -85z" />
    <glyph glyph-name="R" unicode="R" horiz-adv-x="837" 
d="M745 -218q6 -10 1.5 -22.5t-15.5 -17.5q-29 -12 -59 -10.5t-57.5 13.5t-50.5 32.5t-39 46.5q-8 13 -14.5 28.5t-11 28t-7.5 32.5t-5 29.5t-3.5 33t-1.5 30.5t-1 33t-1 31q-1 30 -4 53q-57 -13 -105 7q-26 11 -44 33t-20 48q-2 27 15.5 47.5t43.5 28.5q76 21 131 -69
q45 28 81 79q59 86 69 183q10 96 -29 184t-116 138q-60 39 -133 47q-1 -16 -3.5 -34t-6 -39t-5.5 -32q-5 -41 -24 -165q-23 -153 -90 -577q-21 -134 -22 -142q-14 -78 -55 -113q-25 -21 -57 -27.5t-62 8.5q-26 14 -38 40t3 52q6 8 16 7t14 -11q8 -21 24 -28t34 6
q14 11 23 29t12 32t7 37q1 4 80 511q7 43 41 257q9 56 22 128q0 3 4 25.5t6 33.5q-76 -10 -139 -54q-17 -12 -30 4t0 31q44 47 105.5 71.5t127.5 24.5q136 0 241 -92q90 -77 123 -194t1 -234q-33 -125 -120 -209q-33 -32 -73 -52q9 -32 14.5 -73t11 -83t13.5 -73
q7 -24 19 -46t29 -39t40 -25t49 -3q30 6 41 -19zM397 197q16 -5 38 -2q9 1 18 3q-21 39 -50 45q-13 2 -25.5 -6.5t-5.5 -21.5q5 -11 25 -18z" />
    <glyph glyph-name="S" unicode="S" horiz-adv-x="782" 
d="M808 459q9 10 21.5 6.5t16.5 -14.5t-4 -23q-31 -36 -58 -64q-91 -93 -244 -188q-32 -20 -73 -43q60 -94 57 -191q-2 -85 -51.5 -153t-130.5 -89q-76 -19 -175 15q-87 30 -104 90q-12 39 3.5 77.5t47.5 69.5q43 42 149 106q21 13 108 65q-6 7 -11 13q-39 42 -133 103.5
t-133 102.5q-56 61 -79.5 141t-9.5 164q12 78 60 142.5t119 102.5q73 38 155.5 41t156.5 -30q88 -42 119 -119q16 -40 10.5 -82.5t-32.5 -75.5q-12 -15 -29 -9q-7 3 -12 10.5t-1 14.5q14 31 9 74q-6 50 -43 84.5t-84 47.5t-94 9q-67 -5 -127.5 -43.5t-93.5 -98.5
q-33 -62 -31 -136.5t37 -134.5q25 -43 67 -78t99.5 -71.5t85.5 -59.5q37 -31 66 -68q78 48 134 85q127 86 232 207zM424 -134q21 60 12 117.5t-43 109.5q-122 -64 -179 -103q-26 -17 -38.5 -26t-34 -27t-33 -37t-16.5 -41q-11 -41 14.5 -70.5t68.5 -39.5q39 -10 84 -5.5
t81 22.5q56 29 84 100z" />
    <glyph glyph-name="T" unicode="T" horiz-adv-x="710" 
d="M1088 904q1 -27 -19 -47.5t-49 -31.5q-46 -18 -107 -19q-16 0 -31.5 1t-34 3t-30 3t-34 5t-30 5t-34 6t-30.5 6q-18 3 -44.5 8t-50.5 9.5t-44 7.5q-2 -19 -17 -123q-1 -7 -25 -149q-9 -58 -51 -300q-35 -200 -47 -267q-14 -81 -15 -85q12 -11 33.5 -31.5t34.5 -33
t34.5 -30t37 -28t37.5 -21t41.5 -14.5t42.5 -3.5t46 7.5q13 4 18.5 -8t-5.5 -18q-25 -14 -53 -17.5t-55.5 3.5t-52 18.5t-48.5 28.5q-15 10 -32.5 25t-28.5 25t-31 29.5t-29 27.5q-17 -65 -49 -106q-37 -49 -93 -70t-110 1q-44 18 -71 62.5t-22 91.5q4 48 34 86t76 55
q79 30 170 -23q6 32 15.5 90t13.5 80q8 41 22.5 123t22.5 123q25 142 45 246q18 94 24 125q15 71 20 91q-16 3 -31 5q-231 30 -421 -42q-15 -6 -26.5 10t3.5 26q36 26 51 34q25 12 57 22q51 17 120 26q44 5 94.5 4.5t84.5 -2.5t97 -11.5t84 -13t93 -16.5q8 -2 34.5 -7
t37 -6.5t33.5 -5.5t38 -5.5t34.5 -3t36.5 -2.5q45 0 80 11q8 2 33 15q27 14 39 17t22 -4t11 -18zM203 -217q73 28 102 142q4 15 7 30q-80 52 -145 29q-43 -15 -68.5 -54t-12.5 -81q12 -39 46 -59.5t71 -6.5z" />
    <glyph glyph-name="U" unicode="U" horiz-adv-x="1021" 
d="M1022 430q10 9 23.5 5t17.5 -15t-6 -23q-29 -30 -77 -76q-83 -82 -169 -65q-29 7 -51 26q-7 -19 -15 -36q-52 -127 -118 -235q-85 -138 -163 -205q-119 -103 -252 -80q-61 10 -106.5 52.5t-68.5 104.5q-14 35 -22 80.5t-10 77.5t-4 84q-5 141 12 281q17 146 54 281
q19 69 44 137q19 50 30 73q13 28 14 28q4 7 10 10.5t16 7t14 4.5q15 7 21 -8q4 -8 9 -14q4 -4 5 -13t-1 -15q-115 -302 -136 -572q-10 -131 -1 -262q5 -62 14 -108.5t32 -83.5q25 -42 66.5 -59t90.5 -7q92 19 184 127q157 184 236 417q0 1 1 2.5t1 2.5q-6 20 -8 41
q-7 81 20 217q21 111 65 221q5 12 18 16t24 -2.5t11 -20.5q4 -100 0 -151q-6 -73 -19 -146q-17 -96 -48 -190q22 -38 64 -37q7 1 14.5 2.5t13.5 3t13.5 5.5t12 6t12.5 8t11 8t11.5 9.5t10 9.5t10.5 10.5t10 9.5q9 8 19 17.5t21.5 20.5t18.5 18z" />
    <glyph glyph-name="U" unicode="&#xdc;" horiz-adv-x="1021" 
d="M1022 430q10 9 23.5 5t17.5 -15t-6 -23q-29 -30 -77 -76q-83 -82 -169 -65q-29 7 -51 26q-7 -19 -15 -36q-52 -127 -118 -235q-85 -138 -163 -205q-119 -103 -252 -80q-61 10 -106.5 52.5t-68.5 104.5q-14 35 -22 80.5t-10 77.5t-4 84q-5 141 12 281q17 146 54 281
q19 69 44 137q19 50 30 73q13 28 14 28q4 7 10 10.5t16 7t14 4.5q15 7 21 -8q4 -8 9 -14q4 -4 5 -13t-1 -15q-115 -302 -136 -572q-10 -131 -1 -262q5 -62 14 -108.5t32 -83.5q25 -42 66.5 -59t90.5 -7q92 19 184 127q157 184 236 417q0 1 1 2.5t1 2.5q-6 20 -8 41
q-7 81 20 217q21 111 65 221q5 12 18 16t24 -2.5t11 -20.5q4 -100 0 -151q-6 -73 -19 -146q-17 -96 -48 -190q22 -38 64 -37q7 1 14.5 2.5t13.5 3t13.5 5.5t12 6t12.5 8t11 8t11.5 9.5t10 9.5t10.5 10.5t10 9.5q9 8 19 17.5t21.5 20.5t18.5 18z" />
    <glyph glyph-name="U" unicode="&#xdb;" horiz-adv-x="1021" 
d="M1022 430q10 9 23.5 5t17.5 -15t-6 -23q-29 -30 -77 -76q-83 -82 -169 -65q-29 7 -51 26q-7 -19 -15 -36q-52 -127 -118 -235q-85 -138 -163 -205q-119 -103 -252 -80q-61 10 -106.5 52.5t-68.5 104.5q-14 35 -22 80.5t-10 77.5t-4 84q-5 141 12 281q17 146 54 281
q19 69 44 137q19 50 30 73q13 28 14 28q4 7 10 10.5t16 7t14 4.5q15 7 21 -8q4 -8 9 -14q4 -4 5 -13t-1 -15q-115 -302 -136 -572q-10 -131 -1 -262q5 -62 14 -108.5t32 -83.5q25 -42 66.5 -59t90.5 -7q92 19 184 127q157 184 236 417q0 1 1 2.5t1 2.5q-6 20 -8 41
q-7 81 20 217q21 111 65 221q5 12 18 16t24 -2.5t11 -20.5q4 -100 0 -151q-6 -73 -19 -146q-17 -96 -48 -190q22 -38 64 -37q7 1 14.5 2.5t13.5 3t13.5 5.5t12 6t12.5 8t11 8t11.5 9.5t10 9.5t10.5 10.5t10 9.5q9 8 19 17.5t21.5 20.5t18.5 18z" />
    <glyph glyph-name="U" unicode="&#xda;" horiz-adv-x="1021" 
d="M1022 430q10 9 23.5 5t17.5 -15t-6 -23q-29 -30 -77 -76q-83 -82 -169 -65q-29 7 -51 26q-7 -19 -15 -36q-52 -127 -118 -235q-85 -138 -163 -205q-119 -103 -252 -80q-61 10 -106.5 52.5t-68.5 104.5q-14 35 -22 80.5t-10 77.5t-4 84q-5 141 12 281q17 146 54 281
q19 69 44 137q19 50 30 73q13 28 14 28q4 7 10 10.5t16 7t14 4.5q15 7 21 -8q4 -8 9 -14q4 -4 5 -13t-1 -15q-115 -302 -136 -572q-10 -131 -1 -262q5 -62 14 -108.5t32 -83.5q25 -42 66.5 -59t90.5 -7q92 19 184 127q157 184 236 417q0 1 1 2.5t1 2.5q-6 20 -8 41
q-7 81 20 217q21 111 65 221q5 12 18 16t24 -2.5t11 -20.5q4 -100 0 -151q-6 -73 -19 -146q-17 -96 -48 -190q22 -38 64 -37q7 1 14.5 2.5t13.5 3t13.5 5.5t12 6t12.5 8t11 8t11.5 9.5t10 9.5t10.5 10.5t10 9.5q9 8 19 17.5t21.5 20.5t18.5 18z" />
    <glyph glyph-name="U" unicode="&#xd9;" horiz-adv-x="1021" 
d="M1022 430q10 9 23.5 5t17.5 -15t-6 -23q-29 -30 -77 -76q-83 -82 -169 -65q-29 7 -51 26q-7 -19 -15 -36q-52 -127 -118 -235q-85 -138 -163 -205q-119 -103 -252 -80q-61 10 -106.5 52.5t-68.5 104.5q-14 35 -22 80.5t-10 77.5t-4 84q-5 141 12 281q17 146 54 281
q19 69 44 137q19 50 30 73q13 28 14 28q4 7 10 10.5t16 7t14 4.5q15 7 21 -8q4 -8 9 -14q4 -4 5 -13t-1 -15q-115 -302 -136 -572q-10 -131 -1 -262q5 -62 14 -108.5t32 -83.5q25 -42 66.5 -59t90.5 -7q92 19 184 127q157 184 236 417q0 1 1 2.5t1 2.5q-6 20 -8 41
q-7 81 20 217q21 111 65 221q5 12 18 16t24 -2.5t11 -20.5q4 -100 0 -151q-6 -73 -19 -146q-17 -96 -48 -190q22 -38 64 -37q7 1 14.5 2.5t13.5 3t13.5 5.5t12 6t12.5 8t11 8t11.5 9.5t10 9.5t10.5 10.5t10 9.5q9 8 19 17.5t21.5 20.5t18.5 18z" />
    <glyph glyph-name="V" unicode="V" horiz-adv-x="1001" 
d="M1010 427q5 6 13 7t14.5 -2t12 -8t6 -12t-4.5 -14q-23 -31 -53 -52q-52 -37 -115.5 -46t-123.5 12q-48 -152 -120 -297q-42 -86 -84 -154q-47 -77 -106 -119q-76 -52 -151 -26q-69 24 -103 95q-27 54 -40 136q-5 29 -10.5 61.5t-12 72t-10.5 61.5q-22 131 -66 394
q-1 10 -10 63t-12 70t-10 61.5t-10 70t-7 62t-7 68.5q-1 17 14 25.5t33 3.5t22 -21q18 -70 21 -86q20 -104 39 -213.5t44.5 -268.5t34.5 -214q18 -108 29 -172q13 -83 30 -124q4 -13 10.5 -24t14.5 -21q13 -18 32.5 -27.5t41.5 -5.5q26 5 52 22q43 30 87 98q41 61 81 137
q73 139 122 290q1 1 1.5 4t1.5 4q-31 21 -55 51.5t-37.5 66t-14 73.5t15.5 74q23 51 80 59.5t94 -32.5q21 -22 24 -53t-5 -59q-15 -76 -37 -150q5 -2 9 -4q61 -20 121 -1.5t104 64.5zM665 558q-6 -44 12 -87t52 -73q12 43 22 85q14 59 16 73q3 20 -7 36q-8 13 -22.5 19.5
t-29.5 4.5t-26 -13q-13 -14 -17 -45z" />
    <glyph glyph-name="W" unicode="W" horiz-adv-x="1449" 
d="M1465 434q11 7 23.5 1t15 -17t-7.5 -20q-50 -38 -110 -61t-128 -30q-11 -1 -21 -2q-4 -26 -18 -78q-35 -121 -100 -227q-74 -120 -162 -195q-109 -92 -222 -77q-51 6 -89.5 36t-58.5 76q-92 -97 -194 -131q-56 -18 -119.5 -14t-116.5 31q-52 26 -87.5 74.5t-51.5 108.5
q-24 89 -16 232q8 136 37 272q58 276 197 499q8 12 21.5 15t24.5 -3.5t17 -18t-2 -26.5q-9 -18 -25 -52.5t-18 -39.5q-86 -186 -131 -398q-21 -102 -30 -206q-9 -115 -2 -188q9 -93 52 -151q22 -30 57 -49t73 -23q154 -16 295 144q-9 75 10 210q21 157 67 271q4 7 10.5 26
t11 29.5t13 24.5t19.5 23q20 18 47 18t48 -18q18 -16 26.5 -39.5t8 -54t-3 -49.5t-8.5 -51q-1 -7 -2 -10q-22 -122 -80 -240q-41 -83 -97 -156q11 -63 50 -91q30 -22 72 -23t75 15q69 30 146 120q60 70 108 159q46 86 72 182q9 32 11 45q-21 3 -38 10q-26 11 -41.5 34.5
t-12.5 50.5q1 17 10 31t24 18q25 8 52 -1q30 -11 49 -36t23 -58q12 1 28 3q100 13 199 75zM699 383q-62 -218 -66 -383q83 126 119 279q12 49 17.5 95.5t-4.5 72.5q-11 31 -28 18q-10 -8 -20 -32q-12 -29 -18 -50zM1137 400q-4 -7 1 -16t14 -15t16 -9q2 0 5 -1v1
q-4 15 -13.5 27.5t-22.5 12.5z" />
    <glyph glyph-name="X" unicode="X" horiz-adv-x="1064" 
d="M875 -102q10 16 28.5 9t15.5 -26q-10 -45 -44.5 -82t-78.5 -57t-90 -26q-68 -8 -133 18q-64 26 -114 100q-9 13 -17 27.5t-17.5 33.5t-14 28.5t-15 34.5t-12.5 30q-2 4 -4.5 10t-3.5 8q-156 -181 -275 -277q-16 -13 -31 -2q-7 4 -9.5 12.5t2.5 15.5q35 41 127.5 145.5
t139.5 163.5q3 3 7.5 9t5.5 7l-40 88q-12 27 -157 344q-49 107 -77 173q-6 12 -20 43t-21 47.5t-15.5 43t-11.5 48.5q-1 10 6.5 18t17.5 11q21 5 37 -14q19 -23 52 -95q20 -45 41 -90q13 -28 85 -185q125 -271 148 -322q3 -7 8 -18.5t7 -14.5q67 87 122 166q-15 9 -27 18
q-33 26 -50 66.5t-12 81.5q5 42 31.5 74t66.5 41t79.5 -3t63.5 -45q51 -67 -24 -181q-6 -9 -20 -31q34 -1 70 10q35 11 75 36q9 6 23.5 16t26.5 18t24 13q11 5 21 -2.5t3 -18.5q-23 -35 -86 -72q-51 -31 -101 -41q-43 -9 -87 -3q-79 -115 -165 -220q19 -43 24 -55
q4 -8 12.5 -27.5t13 -30t12 -26.5t15 -29.5t15.5 -25.5q21 -34 45 -56q7 -6 14 -11q2 -2 6 -4q12 -8 23 -13q7 -3 9 -3l12 -4q10 -3 25 -5l1 -1h9q5 -1 12 -1q11 0 26 1q6 0 11 1l12 3q13 2 26 7q23 7 47 23q36 23 69 75zM498 468q-3 -66 56 -102q32 48 44 68q25 42 19 68
q-4 19 -23 29q-3 1 -7 3l-1 1q-7 2 -13 3q-1 1 -3 1t-4 0.5l-2 0.5h-12h-1q-1 0 -3 -1q-1 0 -2.5 -0.5t-2.5 -0.5q-4 -1 -8 -3q-11 -5 -19 -14q-17 -20 -18 -53z" />
    <glyph glyph-name="Y" unicode="Y" horiz-adv-x="751" 
d="M782 480q5 15 21.5 11t13.5 -20q-10 -46 -32.5 -90.5t-51.5 -80.5t-68.5 -71.5t-75 -61.5t-79.5 -54q-9 -6 -22 -15q-16 -72 -35 -163q-10 -46 -15.5 -66.5t-17 -57.5t-27.5 -64t-37 -51q-42 -46 -100.5 -59t-114.5 16q-50 30 -61.5 85.5t17.5 105.5q17 33 48.5 66
t56.5 52t66 48q42 29 128 80q16 71 54 248l12 51q-62 -81 -133 -128q-46 -31 -100.5 -40t-107 10t-84.5 65q-22 32 -31 71t-5.5 83t9.5 77.5t18 78.5q48 187 151 315q9 11 22 14.5t27 -3.5q12 -6 16 -19t-3 -25q-59 -102 -82 -156q-34 -80 -54 -167q-20 -82 -19 -138
q1 -72 30 -110q18 -22 46 -31.5t59 -5.5q58 6 123 60q50 42 100 110q27 38 47 73q11 47 19 83q23 95 32 133q5 18 18.5 62.5t19.5 69.5q3 13 17 17t26.5 -3t11.5 -21q-3 -77 -22 -154q-2 -12 -3 -16q-2 -12 -31 -162q-10 -49 -66 -315q-2 -10 -4.5 -20.5t-5 -23.5t-4.5 -21
q105 69 178 147.5t105 180.5zM364 -64q3 16 10 48.5t10 48.5q-44 -28 -76 -51q-39 -26 -63 -44.5t-53.5 -49t-45.5 -61.5q-28 -54 -4 -90q20 -30 63 -31q38 0 73 30q34 30 54 81q14 36 32 119z" />
    <glyph glyph-name="Y" unicode="&#xdd;" horiz-adv-x="751" 
d="M782 480q5 15 21.5 11t13.5 -20q-10 -46 -32.5 -90.5t-51.5 -80.5t-68.5 -71.5t-75 -61.5t-79.5 -54q-9 -6 -22 -15q-16 -72 -35 -163q-10 -46 -15.5 -66.5t-17 -57.5t-27.5 -64t-37 -51q-42 -46 -100.5 -59t-114.5 16q-50 30 -61.5 85.5t17.5 105.5q17 33 48.5 66
t56.5 52t66 48q42 29 128 80q16 71 54 248l12 51q-62 -81 -133 -128q-46 -31 -100.5 -40t-107 10t-84.5 65q-22 32 -31 71t-5.5 83t9.5 77.5t18 78.5q48 187 151 315q9 11 22 14.5t27 -3.5q12 -6 16 -19t-3 -25q-59 -102 -82 -156q-34 -80 -54 -167q-20 -82 -19 -138
q1 -72 30 -110q18 -22 46 -31.5t59 -5.5q58 6 123 60q50 42 100 110q27 38 47 73q11 47 19 83q23 95 32 133q5 18 18.5 62.5t19.5 69.5q3 13 17 17t26.5 -3t11.5 -21q-3 -77 -22 -154q-2 -12 -3 -16q-2 -12 -31 -162q-10 -49 -66 -315q-2 -10 -4.5 -20.5t-5 -23.5t-4.5 -21
q105 69 178 147.5t105 180.5zM364 -64q3 16 10 48.5t10 48.5q-44 -28 -76 -51q-39 -26 -63 -44.5t-53.5 -49t-45.5 -61.5q-28 -54 -4 -90q20 -30 63 -31q38 0 73 30q34 30 54 81q14 36 32 119z" />
    <glyph glyph-name="Z" unicode="Z" horiz-adv-x="985" 
d="M992 463q4 10 14.5 12t17.5 -4t4 -16q-18 -56 -53.5 -105t-84 -88t-96 -67.5t-105.5 -57.5q-21 -10 -48 -22q33 -62 30 -125q-4 -61 -38 -114t-88 -88q-53 -35 -120.5 -47t-133.5 -1q-65 11 -86 50q-25 47 27 110q57 69 133.5 117.5t186.5 99.5q-29 34 -68 55
q-50 26 -108 28.5t-113 -15.5t-104 -47t-91 -67q-19 -17 -44 -7q-10 3 -17.5 12.5t-6.5 20.5q15 116 87 241q35 61 79.5 115.5t97 101t106.5 86.5t118.5 77.5t121.5 66.5t128 61q-101 10 -211 14q-2 3 -171.5 2t-172.5 -1q-15 0 -23.5 12t-4 25t19.5 16q147 24 356 20
q167 -4 357 -30q16 -3 24.5 -17t4.5 -29.5t-19 -22.5q-167 -74 -251 -116q-239 -122 -374 -264q-75 -79 -126 -170q-24 -45 -42 -97q91 56 176 73q72 15 150 0.5t137 -60.5q29 -22 52 -53l28 14q59 27 105.5 54.5t95 64t85 83t58.5 99.5zM595 21q-5 33 -21 63
q-90 -41 -154 -78.5t-116 -88.5q-23 -22 -39 -44q-24 -31 -23 -50q1 -20 20.5 -29t41.5 -9q58 -2 115.5 14t98.5 49t63 78.5t14 94.5z" />
    <glyph glyph-name="bracketleft" unicode="[" horiz-adv-x="344" 
d="M338 896q7 -5 5 -11t-10 -6q-13 -2 -49 -1t-50 -2q-54 -10 -81 -51q-18 -29 -30 -71t-15 -65.5t-8 -77.5q-5 -45 -28 -270q-13 -125 -13 -131q-5 -23 -3.5 -55t13.5 -53q9 -14 21 -24.5t28.5 -15.5t30 -7.5t34.5 -1.5t33 2t34.5 4t29.5 3q14 2 21.5 -9t3.5 -23.5
t-18 -15.5q-38 -8 -74 -10.5t-76 2t-72 25t-49 55.5q-21 43 -13 127q1 8 15 148q26 246 32 298q5 36 10 62.5t15.5 59.5t28 59t41.5 44q41 30 97 32q62 2 96 -20z" />
    <glyph glyph-name="backslash" unicode="\" horiz-adv-x="306" 
d="M304 -19q4 -9 -2.5 -15t-16.5 -5.5t-14 7.5q-24 48 -81 183q-42 101 -74 185q-80 218 -116 384q-1 6 4.5 7t7.5 -4q15 -41 62.5 -172.5t74.5 -202.5q39 -102 73 -182q13 -30 41 -91.5t41 -93.5z" />
    <glyph glyph-name="bracketright" unicode="]" horiz-adv-x="303" 
d="M302 786q0 -19 -5 -138q0 -8 -16 -296q-1 -25 -4 -73.5t-4 -73.5q0 -5 -1 -21t-1 -23t-1.5 -21t-3.5 -23t-6 -20.5t-9 -20.5q-26 -49 -91 -69q-47 -15 -140 -1q-10 2 -16 11.5t-3 18.5q6 21 33 18q28 -6 65 -5.5t63 13.5q47 24 52 92q7 86 16.5 259t15.5 259q8 105 8 119
q0 58 -30 76q-20 12 -45.5 16t-59 4.5t-48.5 2.5q-10 2 -9 10.5t9 10.5q37 12 103 6q64 -6 92 -30q35 -30 36 -101z" />
    <glyph glyph-name="asciicircum" unicode="^" horiz-adv-x="239" 
d="M239 644q1 -16 -17 -22t-28 5q-10 10 -27 46q-3 7 -6.5 14.5t-7.5 17t-7 14.5q-9 19 -18 45q-7 -11 -15 -21q-14 -21 -31 -41q-40 -49 -72 -75q-4 -3 -8 0.5t0 7.5q58 68 67 81q15 20 29 42q7 11 14 23q1 1 2.5 3t2.5 4.5t2 4.5q0 8 5 15v0q5 8 17 6q8 -1 14.5 -7.5
t8.5 -9.5t9 -14q15 -25 24 -44q22 -45 23 -45q17 -36 19 -50z" />
    <glyph glyph-name="underscore" unicode="_" horiz-adv-x="567" 
d="M548 5q14 -4 17.5 -15t-3.5 -21t-19 -11q-19 -4 -40.5 -5t-53.5 0.5t-41 1.5q-55 1 -137 3q-55 1 -140 4q-54 2 -68.5 3t-21 1.5t-18 3t-19.5 5.5q-4 2 -4 6.5t4 6.5q18 8 62 10q13 1 68 3q82 3 137 4q82 2 140 3q8 0 41.5 1.5t54.5 0.5t41 -5z" />
    <glyph glyph-name="grave" unicode="`" horiz-adv-x="203" 
d="M184 725q11 -4 16.5 -17t-0.5 -24q-5 -13 -20.5 -18t-28.5 3q-46 32 -71 48q-7 4 -18 10.5t-19 11.5t-17.5 11.5t-17.5 12.5q-15 12 -3.5 27.5t28.5 10.5q27 -6 79 -34q39 -21 72 -42z" />
    <glyph glyph-name="a" unicode="a" horiz-adv-x="546" 
d="M561 427q3 5 10.5 3.5t7.5 -8.5q-3 -33 -40 -104q-24 -48 -60 -105q-39 -62 -57 -88q-35 -50 -72 -62q-52 -16 -87 20q-30 29 -32 87q-1 19 1 47q-38 -61 -88 -113q-25 -25 -55 -40t-65.5 -14.5t-62.5 24.5q-21 18 -30.5 49.5t-8 61t3.5 59.5q11 94 47 175q40 87 103 155
q87 93 170 68q17 -5 30 -14q8 -1 14 -6q17 -14 25 -38v-1q16 -29 16 -98q1 -38 -2 -109q-6 -112 -11 -184q-5 -50 -2 -67q3 -19 19 -21t31 8q8 6 17 15.5t14 16.5t13.5 21t11.5 18q28 41 51 80q27 44 46 82q3 6 6.5 14t6.5 14t6.5 13.5t7 14t7.5 13.5t8 13zM133 209
q47 55 75 120q33 75 45 134q1 12 2 22q3 18 3 20q3 39 -5 71q-21 12 -51 -1q-44 -20 -99 -99q-41 -59 -64 -125q-25 -70 -28 -140q-2 -46 3 -64q3 -12 8 -16l4 -2h3h4h2q15 2 50 32q30 26 48 48z" />
    <glyph glyph-name="a" unicode="&#xe5;" horiz-adv-x="546" 
d="M561 427q3 5 10.5 3.5t7.5 -8.5q-3 -33 -40 -104q-24 -48 -60 -105q-39 -62 -57 -88q-35 -50 -72 -62q-52 -16 -87 20q-30 29 -32 87q-1 19 1 47q-38 -61 -88 -113q-25 -25 -55 -40t-65.5 -14.5t-62.5 24.5q-21 18 -30.5 49.5t-8 61t3.5 59.5q11 94 47 175q40 87 103 155
q87 93 170 68q17 -5 30 -14q8 -1 14 -6q17 -14 25 -38v-1q16 -29 16 -98q1 -38 -2 -109q-6 -112 -11 -184q-5 -50 -2 -67q3 -19 19 -21t31 8q8 6 17 15.5t14 16.5t13.5 21t11.5 18q28 41 51 80q27 44 46 82q3 6 6.5 14t6.5 14t6.5 13.5t7 14t7.5 13.5t8 13zM133 209
q47 55 75 120q33 75 45 134q1 12 2 22q3 18 3 20q3 39 -5 71q-21 12 -51 -1q-44 -20 -99 -99q-41 -59 -64 -125q-25 -70 -28 -140q-2 -46 3 -64q3 -12 8 -16l4 -2h3h4h2q15 2 50 32q30 26 48 48z" />
    <glyph glyph-name="a" unicode="&#xe4;" horiz-adv-x="546" 
d="M561 427q3 5 10.5 3.5t7.5 -8.5q-3 -33 -40 -104q-24 -48 -60 -105q-39 -62 -57 -88q-35 -50 -72 -62q-52 -16 -87 20q-30 29 -32 87q-1 19 1 47q-38 -61 -88 -113q-25 -25 -55 -40t-65.5 -14.5t-62.5 24.5q-21 18 -30.5 49.5t-8 61t3.5 59.5q11 94 47 175q40 87 103 155
q87 93 170 68q17 -5 30 -14q8 -1 14 -6q17 -14 25 -38v-1q16 -29 16 -98q1 -38 -2 -109q-6 -112 -11 -184q-5 -50 -2 -67q3 -19 19 -21t31 8q8 6 17 15.5t14 16.5t13.5 21t11.5 18q28 41 51 80q27 44 46 82q3 6 6.5 14t6.5 14t6.5 13.5t7 14t7.5 13.5t8 13zM133 209
q47 55 75 120q33 75 45 134q1 12 2 22q3 18 3 20q3 39 -5 71q-21 12 -51 -1q-44 -20 -99 -99q-41 -59 -64 -125q-25 -70 -28 -140q-2 -46 3 -64q3 -12 8 -16l4 -2h3h4h2q15 2 50 32q30 26 48 48z" />
    <glyph glyph-name="a" unicode="&#xe3;" horiz-adv-x="546" 
d="M561 427q3 5 10.5 3.5t7.5 -8.5q-3 -33 -40 -104q-24 -48 -60 -105q-39 -62 -57 -88q-35 -50 -72 -62q-52 -16 -87 20q-30 29 -32 87q-1 19 1 47q-38 -61 -88 -113q-25 -25 -55 -40t-65.5 -14.5t-62.5 24.5q-21 18 -30.5 49.5t-8 61t3.5 59.5q11 94 47 175q40 87 103 155
q87 93 170 68q17 -5 30 -14q8 -1 14 -6q17 -14 25 -38v-1q16 -29 16 -98q1 -38 -2 -109q-6 -112 -11 -184q-5 -50 -2 -67q3 -19 19 -21t31 8q8 6 17 15.5t14 16.5t13.5 21t11.5 18q28 41 51 80q27 44 46 82q3 6 6.5 14t6.5 14t6.5 13.5t7 14t7.5 13.5t8 13zM133 209
q47 55 75 120q33 75 45 134q1 12 2 22q3 18 3 20q3 39 -5 71q-21 12 -51 -1q-44 -20 -99 -99q-41 -59 -64 -125q-25 -70 -28 -140q-2 -46 3 -64q3 -12 8 -16l4 -2h3h4h2q15 2 50 32q30 26 48 48z" />
    <glyph glyph-name="a" unicode="&#xe2;" horiz-adv-x="546" 
d="M561 427q3 5 10.5 3.5t7.5 -8.5q-3 -33 -40 -104q-24 -48 -60 -105q-39 -62 -57 -88q-35 -50 -72 -62q-52 -16 -87 20q-30 29 -32 87q-1 19 1 47q-38 -61 -88 -113q-25 -25 -55 -40t-65.5 -14.5t-62.5 24.5q-21 18 -30.5 49.5t-8 61t3.5 59.5q11 94 47 175q40 87 103 155
q87 93 170 68q17 -5 30 -14q8 -1 14 -6q17 -14 25 -38v-1q16 -29 16 -98q1 -38 -2 -109q-6 -112 -11 -184q-5 -50 -2 -67q3 -19 19 -21t31 8q8 6 17 15.5t14 16.5t13.5 21t11.5 18q28 41 51 80q27 44 46 82q3 6 6.5 14t6.5 14t6.5 13.5t7 14t7.5 13.5t8 13zM133 209
q47 55 75 120q33 75 45 134q1 12 2 22q3 18 3 20q3 39 -5 71q-21 12 -51 -1q-44 -20 -99 -99q-41 -59 -64 -125q-25 -70 -28 -140q-2 -46 3 -64q3 -12 8 -16l4 -2h3h4h2q15 2 50 32q30 26 48 48z" />
    <glyph glyph-name="a" unicode="&#xe1;" horiz-adv-x="546" 
d="M561 427q3 5 10.5 3.5t7.5 -8.5q-3 -33 -40 -104q-24 -48 -60 -105q-39 -62 -57 -88q-35 -50 -72 -62q-52 -16 -87 20q-30 29 -32 87q-1 19 1 47q-38 -61 -88 -113q-25 -25 -55 -40t-65.5 -14.5t-62.5 24.5q-21 18 -30.5 49.5t-8 61t3.5 59.5q11 94 47 175q40 87 103 155
q87 93 170 68q17 -5 30 -14q8 -1 14 -6q17 -14 25 -38v-1q16 -29 16 -98q1 -38 -2 -109q-6 -112 -11 -184q-5 -50 -2 -67q3 -19 19 -21t31 8q8 6 17 15.5t14 16.5t13.5 21t11.5 18q28 41 51 80q27 44 46 82q3 6 6.5 14t6.5 14t6.5 13.5t7 14t7.5 13.5t8 13zM133 209
q47 55 75 120q33 75 45 134q1 12 2 22q3 18 3 20q3 39 -5 71q-21 12 -51 -1q-44 -20 -99 -99q-41 -59 -64 -125q-25 -70 -28 -140q-2 -46 3 -64q3 -12 8 -16l4 -2h3h4h2q15 2 50 32q30 26 48 48z" />
    <glyph glyph-name="a" unicode="&#xe0;" horiz-adv-x="546" 
d="M561 427q3 5 10.5 3.5t7.5 -8.5q-3 -33 -40 -104q-24 -48 -60 -105q-39 -62 -57 -88q-35 -50 -72 -62q-52 -16 -87 20q-30 29 -32 87q-1 19 1 47q-38 -61 -88 -113q-25 -25 -55 -40t-65.5 -14.5t-62.5 24.5q-21 18 -30.5 49.5t-8 61t3.5 59.5q11 94 47 175q40 87 103 155
q87 93 170 68q17 -5 30 -14q8 -1 14 -6q17 -14 25 -38v-1q16 -29 16 -98q1 -38 -2 -109q-6 -112 -11 -184q-5 -50 -2 -67q3 -19 19 -21t31 8q8 6 17 15.5t14 16.5t13.5 21t11.5 18q28 41 51 80q27 44 46 82q3 6 6.5 14t6.5 14t6.5 13.5t7 14t7.5 13.5t8 13zM133 209
q47 55 75 120q33 75 45 134q1 12 2 22q3 18 3 20q3 39 -5 71q-21 12 -51 -1q-44 -20 -99 -99q-41 -59 -64 -125q-25 -70 -28 -140q-2 -46 3 -64q3 -12 8 -16l4 -2h3h4h2q15 2 50 32q30 26 48 48z" />
    <glyph glyph-name="b" unicode="b" horiz-adv-x="580" 
d="M591 428q5 5 10.5 5t9.5 -5t0 -11q-26 -47 -82 -91q-93 -72 -218 -110q-30 -9 -60 -15q3 -2 4 -3q53 -40 65 -116q22 -135 -111 -273q-27 -28 -59.5 -49t-69.5 -32.5t-74 -2.5t-65 42q-38 45 -41 131q-1 55 10 159q38 358 189 648q87 167 193 223q97 51 146 10
q25 -22 28 -59.5t-13 -65.5q-20 -43 -89 -128q-48 -59 -102 -112q-82 -81 -185 -147q-61 -187 -81 -378q-9 -85 -9 -138q0 -66 22 -94q6 -7 13 -12l9 -4l8 -2q22 -3 47 6q40 15 93 70q109 116 87 227q-14 65 -62 92l-1 0.5l-1 0.5q-60 -6 -116 3q-7 1 -7.5 8t4.5 10
q26 15 56 17q44 4 81 -13q5 1 6 1q73 13 143 42q148 63 222 166zM149 612q-33 -73 -60 -151q79 63 153 138q53 54 100 114q23 29 44 60q32 45 39 67q12 38 -7 58q-17 19 -48 7q-19 -7 -55 -41q-22 -22 -41 -42q-61 -68 -125 -210z" />
    <glyph glyph-name="c" unicode="c" horiz-adv-x="516" 
d="M528 439q6 6 14.5 1.5t5.5 -12.5q-8 -33 -51 -91q-32 -43 -71 -84q-81 -85 -163 -141q-75 -51 -130 -60q-4 0 -16.5 -2t-17 -3t-15.5 -2t-17.5 -1h-15.5t-17 2q-52 9 -75 60q-13 26 -14 60.5t3.5 58.5t14.5 61q23 91 70 179q41 77 108 152q30 34 67 66q51 44 88 50
q54 9 84 -20q32 -31 15 -82q-32 -103 -102 -152q-6 -4 -12.5 1.5t-2.5 12.5q44 68 49 77q29 54 27 85q-1 18 -16 22t-28 -5q-6 -3 -12 -7.5t-11 -8.5t-11 -10l-10 -10t-10.5 -11t-9.5 -10q-110 -112 -168 -256q-30 -75 -43 -150q-7 -37 -1 -60q7 -25 29 -33q64 -22 126 6
q56 25 118 71q68 51 122 113q28 32 53 68q4 6 13.5 20.5t17 25t15.5 19.5z" />
    <glyph glyph-name="c" unicode="&#xe7;" horiz-adv-x="516" 
d="M528 439q6 6 14.5 1.5t5.5 -12.5q-8 -33 -51 -91q-32 -43 -71 -84q-81 -85 -163 -141q-75 -51 -130 -60q-4 0 -16.5 -2t-17 -3t-15.5 -2t-17.5 -1h-15.5t-17 2q-52 9 -75 60q-13 26 -14 60.5t3.5 58.5t14.5 61q23 91 70 179q41 77 108 152q30 34 67 66q51 44 88 50
q54 9 84 -20q32 -31 15 -82q-32 -103 -102 -152q-6 -4 -12.5 1.5t-2.5 12.5q44 68 49 77q29 54 27 85q-1 18 -16 22t-28 -5q-6 -3 -12 -7.5t-11 -8.5t-11 -10l-10 -10t-10.5 -11t-9.5 -10q-110 -112 -168 -256q-30 -75 -43 -150q-7 -37 -1 -60q7 -25 29 -33q64 -22 126 6
q56 25 118 71q68 51 122 113q28 32 53 68q4 6 13.5 20.5t17 25t15.5 19.5z" />
    <glyph glyph-name="d" unicode="d" horiz-adv-x="884" 
d="M862 428q4 8 14 4t7 -12q-91 -251 -387 -448q-77 -51 -131 -54q-37 -1 -67.5 20t-46.5 56q-15 33 -15 83q-39 -64 -76 -91q-33 -25 -70.5 -28.5t-72.5 18.5q-62 41 -70 135q-15 158 59 308q41 84 96 119q31 20 67 23t69 -15q44 -29 64 -72q56 186 155 347q47 77 83 116
q52 58 122 51q32 -4 53 -25t25 -53q7 -48 -28 -118q-56 -112 -142 -206.5t-191 -154.5q-33 -118 -47 -237q-9 -80 -8 -121q0 -30 8 -50q6 -15 19 -22q4 -3 12 -5h3t2 -1q10 0 21 2q23 5 47 17q63 31 109 63q198 137 317 351zM476 688q-47 -96 -80 -201q79 60 139 126
q102 113 145 221q26 65 4 91q-11 13 -27 13t-29 -8.5t-24 -21.5q-8 -8 -15 -18t-14.5 -22t-12.5 -20.5t-12.5 -22.5t-11.5 -21q-32 -55 -62 -116zM144 83q40 51 80 106q5 8 24 35q3 24 7 46q11 71 29 141q-2 22 -9 40q-11 29 -33 48q-20 17 -50 12q-45 -9 -81 -65
q-26 -42 -48 -111q-21 -62 -27 -118q-8 -74 -1 -119q6 -30 18 -45q6 -8 14 -13q3 -1 3 -2q1 0 4 -1h2l3 -1q14 0 31 12q17 13 34 35z" />
    <glyph glyph-name="e" unicode="e" horiz-adv-x="552" 
d="M530 430q6 6 14.5 2t5.5 -12q-1 -6 -3.5 -11.5t-5 -10t-6 -10.5t-5.5 -9.5t-6.5 -10t-6.5 -9.5t-7.5 -9.5t-7 -9t-7.5 -9.5t-7 -9q-32 -41 -65 -74q-55 -55 -136 -112q-4 -3 -11.5 -8.5t-12 -8.5t-11.5 -8t-12 -8t-12 -8t-12.5 -8t-12.5 -6.5l-13 -6.5t-12.5 -6t-13.5 -5
q-28 -10 -93 -18q-64 -7 -99 25q-23 23 -32 57t-6.5 62t10.5 65q19 91 64 184q41 85 107 163q33 39 69 71q39 35 67 49q19 13 44 15q15 1 29 -2q21 -4 37 -15q8 -6 14 -14q2 -3 3 -3q29 -33 31 -74.5t-18 -81.5t-44 -72.5t-54 -61.5q-58 -57 -131 -90q-36 -16 -75 -24
q-27 -6 -45 -7q-20 -64 -22 -108q0 -21 3 -34q3 -14 8 -19q7 -9 23 -14q18 -6 34 -9q47 -8 115 28q65 34 115 70q57 41 105 93q26 28 52 62q5 7 13 18t13.5 18.5t13.5 17t15 16.5zM223 603q-103 -110 -158 -249q8 3 14 5q30 10 68 31q65 37 117 98l1 1q0 2 1 4q45 68 51 79
q6 12 11 25q3 13 2 25q-2 33 -25 44h-5.5h-7.5q-2 -1 -5 -2q-23 -16 -64 -61z" />
    <glyph glyph-name="e" unicode="&#xeb;" horiz-adv-x="552" 
d="M530 430q6 6 14.5 2t5.5 -12q-1 -6 -3.5 -11.5t-5 -10t-6 -10.5t-5.5 -9.5t-6.5 -10t-6.5 -9.5t-7.5 -9.5t-7 -9t-7.5 -9.5t-7 -9q-32 -41 -65 -74q-55 -55 -136 -112q-4 -3 -11.5 -8.5t-12 -8.5t-11.5 -8t-12 -8t-12 -8t-12.5 -8t-12.5 -6.5l-13 -6.5t-12.5 -6t-13.5 -5
q-28 -10 -93 -18q-64 -7 -99 25q-23 23 -32 57t-6.5 62t10.5 65q19 91 64 184q41 85 107 163q33 39 69 71q39 35 67 49q19 13 44 15q15 1 29 -2q21 -4 37 -15q8 -6 14 -14q2 -3 3 -3q29 -33 31 -74.5t-18 -81.5t-44 -72.5t-54 -61.5q-58 -57 -131 -90q-36 -16 -75 -24
q-27 -6 -45 -7q-20 -64 -22 -108q0 -21 3 -34q3 -14 8 -19q7 -9 23 -14q18 -6 34 -9q47 -8 115 28q65 34 115 70q57 41 105 93q26 28 52 62q5 7 13 18t13.5 18.5t13.5 17t15 16.5zM223 603q-103 -110 -158 -249q8 3 14 5q30 10 68 31q65 37 117 98l1 1q0 2 1 4q45 68 51 79
q6 12 11 25q3 13 2 25q-2 33 -25 44h-5.5h-7.5q-2 -1 -5 -2q-23 -16 -64 -61z" />
    <glyph glyph-name="e" unicode="&#xea;" horiz-adv-x="552" 
d="M530 430q6 6 14.5 2t5.5 -12q-1 -6 -3.5 -11.5t-5 -10t-6 -10.5t-5.5 -9.5t-6.5 -10t-6.5 -9.5t-7.5 -9.5t-7 -9t-7.5 -9.5t-7 -9q-32 -41 -65 -74q-55 -55 -136 -112q-4 -3 -11.5 -8.5t-12 -8.5t-11.5 -8t-12 -8t-12 -8t-12.5 -8t-12.5 -6.5l-13 -6.5t-12.5 -6t-13.5 -5
q-28 -10 -93 -18q-64 -7 -99 25q-23 23 -32 57t-6.5 62t10.5 65q19 91 64 184q41 85 107 163q33 39 69 71q39 35 67 49q19 13 44 15q15 1 29 -2q21 -4 37 -15q8 -6 14 -14q2 -3 3 -3q29 -33 31 -74.5t-18 -81.5t-44 -72.5t-54 -61.5q-58 -57 -131 -90q-36 -16 -75 -24
q-27 -6 -45 -7q-20 -64 -22 -108q0 -21 3 -34q3 -14 8 -19q7 -9 23 -14q18 -6 34 -9q47 -8 115 28q65 34 115 70q57 41 105 93q26 28 52 62q5 7 13 18t13.5 18.5t13.5 17t15 16.5zM223 603q-103 -110 -158 -249q8 3 14 5q30 10 68 31q65 37 117 98l1 1q0 2 1 4q45 68 51 79
q6 12 11 25q3 13 2 25q-2 33 -25 44h-5.5h-7.5q-2 -1 -5 -2q-23 -16 -64 -61z" />
    <glyph glyph-name="e" unicode="&#xe9;" horiz-adv-x="552" 
d="M530 430q6 6 14.5 2t5.5 -12q-1 -6 -3.5 -11.5t-5 -10t-6 -10.5t-5.5 -9.5t-6.5 -10t-6.5 -9.5t-7.5 -9.5t-7 -9t-7.5 -9.5t-7 -9q-32 -41 -65 -74q-55 -55 -136 -112q-4 -3 -11.5 -8.5t-12 -8.5t-11.5 -8t-12 -8t-12 -8t-12.5 -8t-12.5 -6.5l-13 -6.5t-12.5 -6t-13.5 -5
q-28 -10 -93 -18q-64 -7 -99 25q-23 23 -32 57t-6.5 62t10.5 65q19 91 64 184q41 85 107 163q33 39 69 71q39 35 67 49q19 13 44 15q15 1 29 -2q21 -4 37 -15q8 -6 14 -14q2 -3 3 -3q29 -33 31 -74.5t-18 -81.5t-44 -72.5t-54 -61.5q-58 -57 -131 -90q-36 -16 -75 -24
q-27 -6 -45 -7q-20 -64 -22 -108q0 -21 3 -34q3 -14 8 -19q7 -9 23 -14q18 -6 34 -9q47 -8 115 28q65 34 115 70q57 41 105 93q26 28 52 62q5 7 13 18t13.5 18.5t13.5 17t15 16.5zM223 603q-103 -110 -158 -249q8 3 14 5q30 10 68 31q65 37 117 98l1 1q0 2 1 4q45 68 51 79
q6 12 11 25q3 13 2 25q-2 33 -25 44h-5.5h-7.5q-2 -1 -5 -2q-23 -16 -64 -61z" />
    <glyph glyph-name="e" unicode="&#xe8;" horiz-adv-x="552" 
d="M530 430q6 6 14.5 2t5.5 -12q-1 -6 -3.5 -11.5t-5 -10t-6 -10.5t-5.5 -9.5t-6.5 -10t-6.5 -9.5t-7.5 -9.5t-7 -9t-7.5 -9.5t-7 -9q-32 -41 -65 -74q-55 -55 -136 -112q-4 -3 -11.5 -8.5t-12 -8.5t-11.5 -8t-12 -8t-12 -8t-12.5 -8t-12.5 -6.5l-13 -6.5t-12.5 -6t-13.5 -5
q-28 -10 -93 -18q-64 -7 -99 25q-23 23 -32 57t-6.5 62t10.5 65q19 91 64 184q41 85 107 163q33 39 69 71q39 35 67 49q19 13 44 15q15 1 29 -2q21 -4 37 -15q8 -6 14 -14q2 -3 3 -3q29 -33 31 -74.5t-18 -81.5t-44 -72.5t-54 -61.5q-58 -57 -131 -90q-36 -16 -75 -24
q-27 -6 -45 -7q-20 -64 -22 -108q0 -21 3 -34q3 -14 8 -19q7 -9 23 -14q18 -6 34 -9q47 -8 115 28q65 34 115 70q57 41 105 93q26 28 52 62q5 7 13 18t13.5 18.5t13.5 17t15 16.5zM223 603q-103 -110 -158 -249q8 3 14 5q30 10 68 31q65 37 117 98l1 1q0 2 1 4q45 68 51 79
q6 12 11 25q3 13 2 25q-2 33 -25 44h-5.5h-7.5q-2 -1 -5 -2q-23 -16 -64 -61z" />
    <glyph glyph-name="f" unicode="f" horiz-adv-x="432" 
d="M457 428q4 1 7 -2.5t-1 -6.5q-20 -16 -70 -28q-37 -9 -84 -13q-46 -4 -107 -3q-26 0 -62 2q-22 1 -26 1q0 -1 1 -3q30 -79 44 -188q9 -62 9 -172q0 -91 -25 -161q-31 -85 -86 -127q-70 -52 -150 -42q-11 1 -19 11.5t-8 21.5q-6 125 4 229q11 112 32 225q38 202 109 387
q33 86 82 185q22 44 47 87q2 3 7 12t7.5 13t7.5 11.5t9 12t9 10.5t10.5 10.5t11.5 7.5q43 25 82 3q33 -18 32 -69q-2 -69 -42 -158q-72 -156 -208 -230q-5 -13 -8 -24q-98 -307 -115 -681q61 2 106 58q47 58 65 170q10 66 11 100q0 49 -8 100q-14 87 -60 187q-5 10 1 17
t16 8q13 4 56 3q27 -1 58 -1q56 0 100 4q46 3 84 12q11 3 34.5 10.5t36.5 10.5zM203 767q-70 -159 -111 -275q117 99 166 231q14 37 21 75q1 2 2.5 10t2.5 12t2 12t0.5 12.5t-2 10.5t-3.5 10q-23 32 -78 -98z" />
    <glyph glyph-name="g" unicode="g" horiz-adv-x="568" 
d="M566 423q1 9 10 13t17.5 0t7.5 -13q-2 -26 -8 -52q-23 -113 -95 -237q-78 -135 -176 -216q-29 -24 -72 -52q-22 -82 -39 -147q-12 -42 -15 -53t-14.5 -47.5t-19.5 -53t-21.5 -44.5t-29.5 -48t-35 -37q-35 -33 -60 -45q-24 -12 -59 -25q-59 -22 -104 -3q-30 13 -47 43.5
t-17 62.5t13 63q20 43 54.5 79.5t83.5 76.5q70 58 201 143q6 4 13 9l2 7.5t3 10.5q29 109 70 272q-1 -1 -3 -3.5t-3 -3.5q-2 -4 -13.5 -18.5t-15 -19t-14 -17t-16 -18.5t-15.5 -16.5t-17.5 -17t-17 -14.5t-18.5 -15q-37 -26 -77.5 -29t-78.5 24q-54 44 -37 150
q26 162 123 294q18 25 37.5 46.5t46 43t52.5 33t57 11.5t59 -17q31 -18 45 -47q16 57 31 96q10 25 37 22q12 -1 21.5 -10t8.5 -20q-4 -34 -18 -99q-20 -89 -93 -384q-24 -99 -48 -191q28 20 50 40q101 88 175 232q70 134 79 241zM201 201q7 7 19.5 21t23 25.5t20.5 21.5
q24 95 36 140q0 1 1 3.5t1 3.5q2 21 -2 39q-6 31 -24.5 48.5t-50.5 7.5q-46 -14 -89 -68q-34 -43 -71 -111q-31 -56 -52 -118q-25 -73 -27 -120q-2 -35 10 -51q2 -2 8 -6v1l4 -1l-1 -1h8l9 3q3 1 10 5q14 7 25 15q19 15 43 40q75 77 99 102zM68 -454q22 51 44 139
q9 33 31 113q-113 -74 -179 -127q-19 -15 -30.5 -25t-29.5 -26.5t-29.5 -30.5t-23 -32t-18.5 -36q-16 -42 -4 -81q8 -24 25 -38.5t42 -14.5q53 -1 95 44q34 37 44 53q19 31 33 62z" />
    <glyph glyph-name="h" unicode="h" horiz-adv-x="487" 
d="M457 430q6 12 18.5 6.5t11.5 -17.5q-3 -16 -21 -70q-13 -37 -25 -69q-25 -67 -54 -125q-31 -64 -57 -106q-19 -31 -38 -50.5t-45 -25.5q-32 -7 -56 13t-25 53q-1 17 8 57l14 66q14 66 35 138q1 5 6 20.5t7.5 24.5t4.5 22t0 24t-8 21q-1 1 -2 3q-4 7 -12 9q-8 1 -18 -1
q-13 -3 -31 -15q-21 -13 -48 -39q-45 -41 -79 -93q-13 -90 -32 -252q3 -10 -1 -18q-1 -3 -2 -5q-14 -32 -48 -29q-14 2 -26.5 13.5t-11.5 25.5q31 268 56 402q37 193 95 342q17 43 39 85q26 49 47 68q35 31 74 35q43 3 68 -16q46 -35 24 -117q-14 -53 -62 -142
q-80 -147 -195 -251q-12 -58 -22 -123q31 46 68 82q19 18 30.5 28t32 21.5t39.5 12.5q26 2 46 -12t28 -40q5 -15 5.5 -33.5t-1 -30.5t-6 -35t-5.5 -31q-8 -55 -25 -136q-14 -63 -14 -65t0.5 -12.5t1.5 -16.5q5 2 7 3q9 6 20 18q10 11 31 43q34 49 63 109q24 50 47 113
q3 7 17.5 51.5t25.5 66.5zM122 635q-26 -85 -47 -182q106 115 171 240q45 87 55 134q8 39 -5 58q-8 13 -23.5 17t-28.5 -5q-18 -11 -39 -49q-9 -16 -29 -66q-37 -94 -54 -147zM244 26q0 -1 1 -1zM247 22q1 -1 1 0q0 -1 -1 0z" />
    <glyph glyph-name="i" unicode="i" horiz-adv-x="257" 
d="M274 420q4 5 11 1.5t5 -10.5q-3 -9 -6.5 -18t-8.5 -18.5t-8 -16.5t-9.5 -18t-9.5 -16t-10.5 -18t-9.5 -16q-34 -56 -72 -114q-55 -83 -66 -101q-2 -3 -11.5 -19t-13.5 -21.5t-12 -17.5t-15.5 -20.5t-14.5 -16.5q-23 -24 -50 -26h-11q-11 1 -10 3q-18 -1 -26 4
q-40 22 -37 92q7 127 38 237q19 65 40 115q17 39 27 56q10 18 15 24q4 5 12.5 11.5t11.5 9.5q12 13 27.5 4t12.5 -25q0 -3 0.5 -8.5t0.5 -7.5q-1 -6 -5 -20q-7 -23 -11 -35q-14 -37 -23 -64q-20 -61 -36 -132q-15 -67 -20 -134q-4 -41 -2 -57q1 -6 3 -12l1 1l1 1q5 4 18 20
q33 40 43 52q39 47 81 108q38 55 76 115q19 28 34 54q16 25 40 54zM69 588q-26 21 -15 73q10 44 45 64q22 13 38 -5.5t-1 -37.5q-20 -24 -25 -38q-2 -7 -2.5 -15.5l-1 -17t-2.5 -15.5q-4 -11 -15.5 -13.5t-20.5 5.5z" />
    <glyph glyph-name="i" unicode="&#xef;" horiz-adv-x="257" 
d="M274 420q4 5 11 1.5t5 -10.5q-3 -9 -6.5 -18t-8.5 -18.5t-8 -16.5t-9.5 -18t-9.5 -16t-10.5 -18t-9.5 -16q-34 -56 -72 -114q-55 -83 -66 -101q-2 -3 -11.5 -19t-13.5 -21.5t-12 -17.5t-15.5 -20.5t-14.5 -16.5q-23 -24 -50 -26h-11q-11 1 -10 3q-18 -1 -26 4
q-40 22 -37 92q7 127 38 237q19 65 40 115q17 39 27 56q10 18 15 24q4 5 12.5 11.5t11.5 9.5q12 13 27.5 4t12.5 -25q0 -3 0.5 -8.5t0.5 -7.5q-1 -6 -5 -20q-7 -23 -11 -35q-14 -37 -23 -64q-20 -61 -36 -132q-15 -67 -20 -134q-4 -41 -2 -57q1 -6 3 -12l1 1l1 1q5 4 18 20
q33 40 43 52q39 47 81 108q38 55 76 115q19 28 34 54q16 25 40 54zM69 588q-26 21 -15 73q10 44 45 64q22 13 38 -5.5t-1 -37.5q-20 -24 -25 -38q-2 -7 -2.5 -15.5l-1 -17t-2.5 -15.5q-4 -11 -15.5 -13.5t-20.5 5.5z" />
    <glyph glyph-name="i" unicode="&#xee;" horiz-adv-x="257" 
d="M274 420q4 5 11 1.5t5 -10.5q-3 -9 -6.5 -18t-8.5 -18.5t-8 -16.5t-9.5 -18t-9.5 -16t-10.5 -18t-9.5 -16q-34 -56 -72 -114q-55 -83 -66 -101q-2 -3 -11.5 -19t-13.5 -21.5t-12 -17.5t-15.5 -20.5t-14.5 -16.5q-23 -24 -50 -26h-11q-11 1 -10 3q-18 -1 -26 4
q-40 22 -37 92q7 127 38 237q19 65 40 115q17 39 27 56q10 18 15 24q4 5 12.5 11.5t11.5 9.5q12 13 27.5 4t12.5 -25q0 -3 0.5 -8.5t0.5 -7.5q-1 -6 -5 -20q-7 -23 -11 -35q-14 -37 -23 -64q-20 -61 -36 -132q-15 -67 -20 -134q-4 -41 -2 -57q1 -6 3 -12l1 1l1 1q5 4 18 20
q33 40 43 52q39 47 81 108q38 55 76 115q19 28 34 54q16 25 40 54zM69 588q-26 21 -15 73q10 44 45 64q22 13 38 -5.5t-1 -37.5q-20 -24 -25 -38q-2 -7 -2.5 -15.5l-1 -17t-2.5 -15.5q-4 -11 -15.5 -13.5t-20.5 5.5z" />
    <glyph glyph-name="i" unicode="&#xed;" horiz-adv-x="257" 
d="M274 420q4 5 11 1.5t5 -10.5q-3 -9 -6.5 -18t-8.5 -18.5t-8 -16.5t-9.5 -18t-9.5 -16t-10.5 -18t-9.5 -16q-34 -56 -72 -114q-55 -83 -66 -101q-2 -3 -11.5 -19t-13.5 -21.5t-12 -17.5t-15.5 -20.5t-14.5 -16.5q-23 -24 -50 -26h-11q-11 1 -10 3q-18 -1 -26 4
q-40 22 -37 92q7 127 38 237q19 65 40 115q17 39 27 56q10 18 15 24q4 5 12.5 11.5t11.5 9.5q12 13 27.5 4t12.5 -25q0 -3 0.5 -8.5t0.5 -7.5q-1 -6 -5 -20q-7 -23 -11 -35q-14 -37 -23 -64q-20 -61 -36 -132q-15 -67 -20 -134q-4 -41 -2 -57q1 -6 3 -12l1 1l1 1q5 4 18 20
q33 40 43 52q39 47 81 108q38 55 76 115q19 28 34 54q16 25 40 54zM69 588q-26 21 -15 73q10 44 45 64q22 13 38 -5.5t-1 -37.5q-20 -24 -25 -38q-2 -7 -2.5 -15.5l-1 -17t-2.5 -15.5q-4 -11 -15.5 -13.5t-20.5 5.5z" />
    <glyph glyph-name="i" unicode="&#xec;" horiz-adv-x="257" 
d="M274 420q4 5 11 1.5t5 -10.5q-3 -9 -6.5 -18t-8.5 -18.5t-8 -16.5t-9.5 -18t-9.5 -16t-10.5 -18t-9.5 -16q-34 -56 -72 -114q-55 -83 -66 -101q-2 -3 -11.5 -19t-13.5 -21.5t-12 -17.5t-15.5 -20.5t-14.5 -16.5q-23 -24 -50 -26h-11q-11 1 -10 3q-18 -1 -26 4
q-40 22 -37 92q7 127 38 237q19 65 40 115q17 39 27 56q10 18 15 24q4 5 12.5 11.5t11.5 9.5q12 13 27.5 4t12.5 -25q0 -3 0.5 -8.5t0.5 -7.5q-1 -6 -5 -20q-7 -23 -11 -35q-14 -37 -23 -64q-20 -61 -36 -132q-15 -67 -20 -134q-4 -41 -2 -57q1 -6 3 -12l1 1l1 1q5 4 18 20
q33 40 43 52q39 47 81 108q38 55 76 115q19 28 34 54q16 25 40 54zM69 588q-26 21 -15 73q10 44 45 64q22 13 38 -5.5t-1 -37.5q-20 -24 -25 -38q-2 -7 -2.5 -15.5l-1 -17t-2.5 -15.5q-4 -11 -15.5 -13.5t-20.5 5.5z" />
    <glyph glyph-name="j" unicode="j" horiz-adv-x="253" 
d="M250 422q1 10 10 14t17.5 0t7.5 -14q-3 -31 -7 -60q-20 -122 -84 -223q-69 -110 -203 -218q-32 -26 -74 -55q-19 -71 -40 -148q-2 -6 -5 -18q-13 -48 -21 -74t-23 -65.5t-34.5 -70t-44.5 -56.5q-59 -60 -122 -73q-68 -15 -106 2q-30 12 -47.5 41.5t-17.5 62t11 63.5
q18 42 52 78t85 77q71 58 201 143l15 9q1 3 2 7.5t2 7.5q34 128 81 315q32 127 41 160q35 132 51 172q10 26 37 23q12 -2 22 -11t8 -20q-4 -32 -18 -96q-46 -214 -117 -484q32 23 57 44q63 53 112.5 109.5t84.5 119.5q56 103 67 238zM-221 -315q14 53 29 109
q-120 -78 -178 -125q-48 -39 -80.5 -73.5t-49.5 -75.5q-10 -28 -9 -57.5t20.5 -52.5t50.5 -23q22 0 46 15q34 22 46 34q49 47 80 113q18 40 45 136zM52 588q-27 21 -16 73q10 44 45 64q22 13 38 -5.5t-1 -38.5q-20 -23 -25 -37q-2 -8 -3 -24t-3 -24q-4 -11 -15.5 -13.5
t-19.5 5.5z" />
    <glyph glyph-name="k" unicode="k" horiz-adv-x="395" 
d="M411 427q3 5 9.5 3.5t6.5 -7.5q1 -36 -25 -107q-15 -42 -36 -86q-46 -95 -88 -154q-67 -92 -129 -99q-41 -6 -78 19.5t-58 64.5q-11 22 -18 49q-8 -61 -19 -147q-2 -18 -13.5 -29t-29.5 -11q-17 0 -31.5 12t-12.5 28q11 92 18 144.5t19 131t25 143.5q40 204 97 357
q11 30 38 87q23 50 45 73q26 29 67 33t68 -26q34 -43 15 -120q-19 -72 -57 -143q-72 -131 -174 -200q-6 -28 -12 -58q16 17 33 28q25 19 56 18.5t55 -22.5q26 -23 32.5 -60t-7.5 -68q-8 -22 -22 -40t-32.5 -32t-39.5 -23q-36 -13 -76 -9q-16 2 -26 4q1 -9 3 -19
q11 -65 32 -99q8 -13 19 -24.5t24 -20t27 -12.5t29.5 -2.5t30.5 10.5q51 29 103 120q51 92 73 141q14 34 27 71q21 62 32 81zM73 393q-17 -13 -41 -42q-10 -58 -20 -123q12 -4 15 -4q16 -4 32 -4q33 1 61 18q30 17 47.5 49t13.5 66q-4 39 -37 55q-32 15 -71 -15zM91 613
q-18 -66 -35 -140q41 39 66 70q50 64 83 134q35 74 45 131q3 10 2 25.5t-3.5 30t-13 22.5t-26.5 3q-13 -3 -22.5 -12.5t-17.5 -25.5t-12 -25.5t-10 -30.5t-7 -24q-30 -92 -49 -158z" />
    <glyph glyph-name="l" unicode="l" horiz-adv-x="439" 
d="M456 426q2 3 6.5 3.5t7.5 -2t1 -6.5q-48 -109 -125 -190q-99 -104 -188 -160q-25 -16 -55 -22.5t-58 -2.5t-52.5 21t-36.5 45q-16 38 -9 101q7 60 19 127q52 272 177 480q11 19 19.5 31t22.5 25.5t30 21.5q20 10 46 10t44 -14q16 -12 22 -31t6 -35.5t-8 -43t-12.5 -38
t-14.5 -34.5q-37 -86 -96.5 -160t-134.5 -125q-18 -77 -29 -152q-10 -68 -10 -97q0 -22 6 -37q4 -11 10 -16q6 -4 12 -5h8.5t10.5 1l9 2l4 1q12 2 23 6q32 10 41 15q13 7 38 23q76 49 146 119q42 41 120 139zM153 703q-47 -120 -78 -241q146 118 207 278q23 60 24 91
q0 27 -16.5 42t-41.5 4q-12 -6 -23 -19.5t-16 -23.5t-13 -28q-36 -86 -43 -103z" />
    <glyph glyph-name="m" unicode="m" horiz-adv-x="716" 
d="M749 412q3 -61 -36 -160q-20 -52 -66 -125q-39 -64 -66 -100q-2 -2 -40 -51q-15 -19 -40.5 -20.5t-43.5 13.5q-27 23 -22 68q2 17 16 88l11.5 57.5l13 65l11.5 57.5q8 38 20 89q10 43 10 60q0 14 -6 22.5t-19 6.5q-26 -4 -60 -42q-52 -58 -93 -128q-13 -22 -28 -56
q-46 -203 -63 -266q0 -2 -1 -4q-8 -22 -30 -26.5t-39 9.5t-12 37q14 63 69 272q18 65 38 121q17 49 11 78q-5 24 -28 28.5t-41 -9.5q-10 -6 -20.5 -18t-15 -18.5t-16 -27t-12.5 -21.5q-50 -86 -109 -208q-10 -21 -31 -67t-32 -70q-7 -33 -14 -59q-3 -10 -11 -17t-18 -8.5
t-20 -0.5q-15 4 -22.5 16.5t-4.5 28.5q4 24 53 242q3 16 28 123q2 8 6.5 28.5t7 32.5t9 28t13.5 28q8 13 27.5 11.5t22.5 -17.5q2 -10 2 -21.5t-1 -21.5t-3.5 -22t-4.5 -21t-4.5 -22t-4.5 -21q-20 -107 -23 -120q-5 -23 -16 -79q23 51 42 90q30 62 62 121q44 79 63 103
q38 48 85 51q26 2 46.5 -11t31.5 -37q14 -33 5 -95q-2 -15 -5 -30q39 62 85 111q67 73 126 39q52 -30 42 -117q-4 -42 -29 -182q-21 -119 -32 -180q-1 -2 -1 -3q0 -4 -1 -7v-4q3 2 4 3q1 2 11 12q10 11 18 21q6 6 16.5 18t17 19t15.5 17.5t16.5 20.5t13.5 20q37 57 57 115
q12 33 20 68q2 8 4 19.5t3.5 19.5t4 18.5t5 19t12.5 7.5t10 -10z" />
    <glyph glyph-name="n" unicode="n" horiz-adv-x="411" 
d="M444 415q4 -57 -25 -151q-19 -60 -52 -113q-41 -66 -69 -100q-17 -22 -45 -54q-3 -3 -10 -14t-13 -15q-16 -15 -40.5 -14t-41 18.5t-18.5 42.5q-2 6 -0.5 20.5t2.5 20.5t4 20t5 20q2 10 36 186q9 42 20 89q14 62 14 71q4 38 -16 41q-26 4 -63 -36q-53 -57 -95 -129
l-10 -18q-5 -27 -9 -46q-5 -23 -15.5 -77t-19 -93.5t-17.5 -75.5q-4 -15 -19 -22t-30 -4q-15 4 -22.5 16.5t-4.5 28.5q4 24 53 242q3 16 28 123q2 8 6.5 28.5t7 32.5t8.5 28t14 28q8 13 27.5 11.5t22.5 -17.5q5 -33 -11 -106q34 49 71 87q18 20 39 31t45.5 11t45.5 -17
q44 -34 29 -134q-10 -67 -31 -184l-16 -93q-2 -8 -5.5 -24.5t-5 -28t-2.5 -20.5q6 4 13 11l10 10t9.5 10t9.5 10l10 10l10 10q47 48 73 91q28 48 43 105q7 22 14 68t14 68q2 9 11.5 7.5t10.5 -10.5zM209 21q0 -1 1 -1zM218 14q1 1 0 2v-2z" />
    <glyph glyph-name="n" unicode="&#xf1;" horiz-adv-x="411" 
d="M444 415q4 -57 -25 -151q-19 -60 -52 -113q-41 -66 -69 -100q-17 -22 -45 -54q-3 -3 -10 -14t-13 -15q-16 -15 -40.5 -14t-41 18.5t-18.5 42.5q-2 6 -0.5 20.5t2.5 20.5t4 20t5 20q2 10 36 186q9 42 20 89q14 62 14 71q4 38 -16 41q-26 4 -63 -36q-53 -57 -95 -129
l-10 -18q-5 -27 -9 -46q-5 -23 -15.5 -77t-19 -93.5t-17.5 -75.5q-4 -15 -19 -22t-30 -4q-15 4 -22.5 16.5t-4.5 28.5q4 24 53 242q3 16 28 123q2 8 6.5 28.5t7 32.5t8.5 28t14 28q8 13 27.5 11.5t22.5 -17.5q5 -33 -11 -106q34 49 71 87q18 20 39 31t45.5 11t45.5 -17
q44 -34 29 -134q-10 -67 -31 -184l-16 -93q-2 -8 -5.5 -24.5t-5 -28t-2.5 -20.5q6 4 13 11l10 10t9.5 10t9.5 10l10 10l10 10q47 48 73 91q28 48 43 105q7 22 14 68t14 68q2 9 11.5 7.5t10.5 -10.5zM209 21q0 -1 1 -1zM218 14q1 1 0 2v-2z" />
    <glyph glyph-name="o" unicode="o" horiz-adv-x="583" 
d="M583 404q14 10 28 -3q12 -11 -1 -22q-59 -44 -156 -48q5 -27 5 -51q-1 -62 -20 -106q-21 -48 -60 -90q-76 -82 -193 -114q-74 -20 -127 11q-48 29 -73 88q-37 90 -2 245q29 131 102 217q40 47 97.5 69.5t113.5 6.5q53 -16 84.5 -59.5t17.5 -95.5q-3 -14 -20.5 -12
t-16.5 17q0 41 -35 72q-28 24 -72 18q-76 -10 -132 -105q-42 -74 -61 -173q-19 -108 5 -174q12 -33 39 -50q28 -18 75 -7q81 18 143 73q63 56 85 142q9 38 1 78l-32 2q-63 6 -72 46q-4 16 4 30t22 21.5t29 7.5q57 2 84 -74q87 3 138 40zM349 373q16 -10 53 -10
q-11 31 -31 39q-9 4 -19 -1t-11.5 -13t8.5 -15z" />
    <glyph glyph-name="o" unicode="&#xf8;" horiz-adv-x="583" 
d="M583 404q14 10 28 -3q12 -11 -1 -22q-59 -44 -156 -48q5 -27 5 -51q-1 -62 -20 -106q-21 -48 -60 -90q-76 -82 -193 -114q-74 -20 -127 11q-48 29 -73 88q-37 90 -2 245q29 131 102 217q40 47 97.5 69.5t113.5 6.5q53 -16 84.5 -59.5t17.5 -95.5q-3 -14 -20.5 -12
t-16.5 17q0 41 -35 72q-28 24 -72 18q-76 -10 -132 -105q-42 -74 -61 -173q-19 -108 5 -174q12 -33 39 -50q28 -18 75 -7q81 18 143 73q63 56 85 142q9 38 1 78l-32 2q-63 6 -72 46q-4 16 4 30t22 21.5t29 7.5q57 2 84 -74q87 3 138 40zM349 373q16 -10 53 -10
q-11 31 -31 39q-9 4 -19 -1t-11.5 -13t8.5 -15z" />
    <glyph glyph-name="o" unicode="&#xf6;" horiz-adv-x="583" 
d="M583 404q14 10 28 -3q12 -11 -1 -22q-59 -44 -156 -48q5 -27 5 -51q-1 -62 -20 -106q-21 -48 -60 -90q-76 -82 -193 -114q-74 -20 -127 11q-48 29 -73 88q-37 90 -2 245q29 131 102 217q40 47 97.5 69.5t113.5 6.5q53 -16 84.5 -59.5t17.5 -95.5q-3 -14 -20.5 -12
t-16.5 17q0 41 -35 72q-28 24 -72 18q-76 -10 -132 -105q-42 -74 -61 -173q-19 -108 5 -174q12 -33 39 -50q28 -18 75 -7q81 18 143 73q63 56 85 142q9 38 1 78l-32 2q-63 6 -72 46q-4 16 4 30t22 21.5t29 7.5q57 2 84 -74q87 3 138 40zM349 373q16 -10 53 -10
q-11 31 -31 39q-9 4 -19 -1t-11.5 -13t8.5 -15z" />
    <glyph glyph-name="o" unicode="&#xf5;" horiz-adv-x="583" 
d="M583 404q14 10 28 -3q12 -11 -1 -22q-59 -44 -156 -48q5 -27 5 -51q-1 -62 -20 -106q-21 -48 -60 -90q-76 -82 -193 -114q-74 -20 -127 11q-48 29 -73 88q-37 90 -2 245q29 131 102 217q40 47 97.5 69.5t113.5 6.5q53 -16 84.5 -59.5t17.5 -95.5q-3 -14 -20.5 -12
t-16.5 17q0 41 -35 72q-28 24 -72 18q-76 -10 -132 -105q-42 -74 -61 -173q-19 -108 5 -174q12 -33 39 -50q28 -18 75 -7q81 18 143 73q63 56 85 142q9 38 1 78l-32 2q-63 6 -72 46q-4 16 4 30t22 21.5t29 7.5q57 2 84 -74q87 3 138 40zM349 373q16 -10 53 -10
q-11 31 -31 39q-9 4 -19 -1t-11.5 -13t8.5 -15z" />
    <glyph glyph-name="o" unicode="&#xf4;" horiz-adv-x="583" 
d="M583 404q14 10 28 -3q12 -11 -1 -22q-59 -44 -156 -48q5 -27 5 -51q-1 -62 -20 -106q-21 -48 -60 -90q-76 -82 -193 -114q-74 -20 -127 11q-48 29 -73 88q-37 90 -2 245q29 131 102 217q40 47 97.5 69.5t113.5 6.5q53 -16 84.5 -59.5t17.5 -95.5q-3 -14 -20.5 -12
t-16.5 17q0 41 -35 72q-28 24 -72 18q-76 -10 -132 -105q-42 -74 -61 -173q-19 -108 5 -174q12 -33 39 -50q28 -18 75 -7q81 18 143 73q63 56 85 142q9 38 1 78l-32 2q-63 6 -72 46q-4 16 4 30t22 21.5t29 7.5q57 2 84 -74q87 3 138 40zM349 373q16 -10 53 -10
q-11 31 -31 39q-9 4 -19 -1t-11.5 -13t8.5 -15z" />
    <glyph glyph-name="o" unicode="&#xf3;" horiz-adv-x="583" 
d="M583 404q14 10 28 -3q12 -11 -1 -22q-59 -44 -156 -48q5 -27 5 -51q-1 -62 -20 -106q-21 -48 -60 -90q-76 -82 -193 -114q-74 -20 -127 11q-48 29 -73 88q-37 90 -2 245q29 131 102 217q40 47 97.5 69.5t113.5 6.5q53 -16 84.5 -59.5t17.5 -95.5q-3 -14 -20.5 -12
t-16.5 17q0 41 -35 72q-28 24 -72 18q-76 -10 -132 -105q-42 -74 -61 -173q-19 -108 5 -174q12 -33 39 -50q28 -18 75 -7q81 18 143 73q63 56 85 142q9 38 1 78l-32 2q-63 6 -72 46q-4 16 4 30t22 21.5t29 7.5q57 2 84 -74q87 3 138 40zM349 373q16 -10 53 -10
q-11 31 -31 39q-9 4 -19 -1t-11.5 -13t8.5 -15z" />
    <glyph glyph-name="o" unicode="&#xf2;" horiz-adv-x="583" 
d="M583 404q14 10 28 -3q12 -11 -1 -22q-59 -44 -156 -48q5 -27 5 -51q-1 -62 -20 -106q-21 -48 -60 -90q-76 -82 -193 -114q-74 -20 -127 11q-48 29 -73 88q-37 90 -2 245q29 131 102 217q40 47 97.5 69.5t113.5 6.5q53 -16 84.5 -59.5t17.5 -95.5q-3 -14 -20.5 -12
t-16.5 17q0 41 -35 72q-28 24 -72 18q-76 -10 -132 -105q-42 -74 -61 -173q-19 -108 5 -174q12 -33 39 -50q28 -18 75 -7q81 18 143 73q63 56 85 142q9 38 1 78l-32 2q-63 6 -72 46q-4 16 4 30t22 21.5t29 7.5q57 2 84 -74q87 3 138 40zM349 373q16 -10 53 -10
q-11 31 -31 39q-9 4 -19 -1t-11.5 -13t8.5 -15z" />
    <glyph glyph-name="p" unicode="p" horiz-adv-x="470" 
d="M467 420q3 14 20 12t16 -17q-4 -71 -54.5 -134.5t-120.5 -101.5q-9 -36 -24 -72q-41 -94 -112 -159q-50 -45 -97 -44q-23 0 -45 12t-32 32q-8 15 -9 31t5.5 31.5t15 29.5t21.5 28t24 24.5t23 20.5q67 54 164 82q16 56 12 100q-4 42 -31 58q-30 18 -75 1
q-61 -24 -138 -102q-21 -22 -44 -50q-29 -133 -49 -233q-28 -141 -36 -185.5t-14 -81.5q-2 -10 -4 -21v-4v-1q-1 -4 -1 -6q-1 -3 -2 -10t-2 -11q1 -2 1 -5q1 -9 -3.5 -16.5t-11 -12.5t-15.5 -7q-16 -5 -33.5 5.5t-15.5 28.5q10 77 30 182q29 154 84 382q21 88 46 185
q5 19 21 80q0 1 23 71q4 14 18 17t24.5 -6t8.5 -24q-13 -75 -15 -83q-1 -3 -8.5 -39t-11.5 -55q-13 -58 -18 -81q13 14 27 28q47 45 91.5 73.5t92.5 29.5q52 2 86 -30q31 -28 37 -82q4 -28 1 -60q26 17 50 41q56 57 80 149zM156 11q56 57 87 131l2 4q-33 -13 -65 -34
q-32 -20 -62 -50q-36 -37 -44 -64q-4 -13 2 -20.5t18 -6.5t24.5 8.5t18.5 13.5t19 18z" />
    <glyph glyph-name="q" unicode="q" horiz-adv-x="529" 
d="M543 406q4 7 12.5 4t6.5 -11q-4 -17 -11 -33.5t-18.5 -41t-15.5 -32.5q-2 -6 -19 -44.5t-26 -58.5q-15 -32 -45 -101.5t-46 -105.5q-57 -128 -81 -184q-2 -3 -8.5 -19t-9 -21.5t-9.5 -18.5t-12.5 -19t-13.5 -15t-17.5 -14t-20.5 -8q-36 -9 -66 10q-12 8 -19.5 21t-10 22
t-6.5 28q-2 11 -3 23.5t-1 23t1 24.5t2.5 24t3 24.5t2.5 23.5q10 99 28 204q-20 -13 -40 -21q-71 -30 -124 -4q-54 27 -63 103q-6 50 10 125q13 63 43 120q11 22 25 41.5t33 38.5t39.5 28.5t45 11.5t49.5 -11q23 -11 41 -34.5t26 -49.5q8 21 24 60q4 12 16.5 14.5t22 -5
t6.5 -21.5q-5 -21 -10 -47t-10.5 -53t-9.5 -47q-8 -36 -16 -75q0 -30 -11 -59q-4 -21 -5 -28q-30 -160 -43 -291q-3 -35 -5 -68q-1 -4 -1 -10.5v-11.5t-0.5 -11t-1 -11.5t-1 -11.5t-1.5 -11q-1 -1 -2 -5t-1.5 -7t-1 -7t-0.5 -7t0.5 -6.5t1.5 -6.5t3 -5t5 -3q24 -9 50 21
q6 8 12 18t9 16t9.5 21t8.5 18q20 43 38 84q13 28 38 84t38 84q11 25 25 55.5t28.5 61.5t25.5 55q34 74 38 84q30 65 39 79zM102 166q31 19 59 54q0 1 0.5 4.5t1.5 4.5q16 78 37 155q1 2 1.5 4.5t1.5 2.5q0 1 -0.5 1.5l-0.5 0.5q-3 35 -15 62q-9 22 -27.5 37.5t-39.5 11.5
q-14 -2 -26 -11t-18.5 -17t-16.5 -23q-28 -42 -44 -87q-16 -48 -21 -96q-7 -61 -1 -87q4 -21 15 -30q8 -7 20 -9q31 -4 74 22z" />
    <glyph glyph-name="r" unicode="r" horiz-adv-x="601" 
d="M620 448q3 6 9 3.5t5 -8.5q-17 -94 -104 -227q-73 -112 -141 -179q-52 -51 -85 -71q-27 -17 -59.5 -10.5t-47.5 35.5q-17 32 -13 109q4 61 18 120t40 115q1 3 5.5 12t6.5 14q-45 -10 -87 -10q-54 1 -103.5 19.5t-71.5 58.5q-10 18 5.5 31t33.5 4q2 -1 28.5 -14.5
t41.5 -18.5q33 -11 71 -10q70 2 142 37q27 12 47 -6q9 -8 11 -20.5t-5 -22.5q-52 -72 -66 -102q-24 -52 -39 -111q-13 -51 -15 -104q-2 -33 -1 -51q1 -7 1.5 -11t2.5 -10.5t6 -8.5q10 -6 36 11q14 8 34 24q33 28 71 67q20 20 39 42t36.5 47.5t31 45.5t31.5 50.5t28 48.5
t29 52t28 49z" />
    <glyph glyph-name="s" unicode="s" horiz-adv-x="500" 
d="M514 437q7 1 13 -4t6 -11t-8 -10q-20 -9 -61 -23.5t-61 -23.5q-54 -22 -101 -52q-12 -7 -24 -16q7 -6 13 -11q41 -40 54 -100q14 -61 -0.5 -120t-55.5 -105q-40 -44 -97.5 -64.5t-113.5 -5.5q-55 15 -82 55q-34 49 -8 111q18 41 77 102q48 49 78 78q20 18 39 35
q-20 12 -25 16q-7 4 -20 12t-20.5 13t-20 13t-20.5 14t-18.5 14.5t-18 16.5t-15.5 17t-14.5 19t-10.5 21q-21 48 -13 101.5t41 93.5q34 43 85.5 60t104.5 3q34 -9 62.5 -28.5t49.5 -47.5t29 -61q4 -12 -5 -19.5t-21 -5t-16 13.5q-17 50 -68 76.5t-101 12.5q-43 -12 -68 -60
q-11 -20 -14.5 -44.5t0.5 -45.5q6 -23 17 -39l4 -6l6 -6q7 -7 15 -14q24 -20 90 -61q7 -5 23 -14.5t24 -15.5q28 20 55 36q116 68 215 80zM238 231q-9 9 -21 18q-38 -31 -84 -78q-63 -64 -79 -85q-50 -66 -25 -111q15 -27 46.5 -33t62 3t52.5 26q43 30 63.5 76.5t17.5 98.5
q-4 53 -33 85z" />
    <glyph glyph-name="s" unicode="&#xdf;" horiz-adv-x="500" 
d="M514 437q7 1 13 -4t6 -11t-8 -10q-20 -9 -61 -23.5t-61 -23.5q-54 -22 -101 -52q-12 -7 -24 -16q7 -6 13 -11q41 -40 54 -100q14 -61 -0.5 -120t-55.5 -105q-40 -44 -97.5 -64.5t-113.5 -5.5q-55 15 -82 55q-34 49 -8 111q18 41 77 102q48 49 78 78q20 18 39 35
q-20 12 -25 16q-7 4 -20 12t-20.5 13t-20 13t-20.5 14t-18.5 14.5t-18 16.5t-15.5 17t-14.5 19t-10.5 21q-21 48 -13 101.5t41 93.5q34 43 85.5 60t104.5 3q34 -9 62.5 -28.5t49.5 -47.5t29 -61q4 -12 -5 -19.5t-21 -5t-16 13.5q-17 50 -68 76.5t-101 12.5q-43 -12 -68 -60
q-11 -20 -14.5 -44.5t0.5 -45.5q6 -23 17 -39l4 -6l6 -6q7 -7 15 -14q24 -20 90 -61q7 -5 23 -14.5t24 -15.5q28 20 55 36q116 68 215 80zM238 231q-9 9 -21 18q-38 -31 -84 -78q-63 -64 -79 -85q-50 -66 -25 -111q15 -27 46.5 -33t62 3t52.5 26q43 30 63.5 76.5t17.5 98.5
q-4 53 -33 85z" />
    <glyph glyph-name="t" unicode="t" horiz-adv-x="474" 
d="M491 442q7 3 13 -2t2 -12q-4 -8 -9.5 -16t-10.5 -14.5t-13 -14.5l-12.5 -12.5l-13.5 -13.5l-13 -13q-16 -16 -83 -81q-74 -70 -148 -137q-5 -3 -24.5 -21.5t-32.5 -29t-27 -18.5q-28 -13 -57.5 -12.5t-55.5 17.5t-36 46q-9 25 -2 80q2 24 10 69q11 66 30 151
q37 168 88 338q14 47 32 100q-58 -1 -106 -3q-51 -3 -77 -4q-2 0 -10.5 -0.5t-13 -0.5t-11.5 0.5t-12 3t-8 6.5q-12 16 99 31q68 9 147 13q1 1 4 1h4q1 1 1.5 3t1.5 4q31 86 53 118q12 18 33 10.5t17 -29.5q-6 -29 -30 -103q34 1 64 1q103 0 148 -8q13 -2 17 -16
q4 -12 -4 -19.5t-26 -9.5t-32.5 -2t-34.5 2t-21 2q-66 2 -126 1q-15 -50 -41 -144q-46 -171 -80 -323q-17 -79 -28 -141q-2 -15 -5 -32v-2l-1 -4q-1 -12 -2 -19l-1 -2v-4q0 -1 -1 -2q-1 -9 -1 -14q-4 -33 -1 -42q5 -10 20 -13q7 -1 12 -1q1 0 4 1t4 1q-1 0 -1 -1l1 1
q2 0 3 2l6 3q1 1 1.5 1t1.5 1t4 3t4 3q36 27 100 84q20 17 66 57.5t71 62.5q63 55 74 64q50 43 76 55zM87 108q-1 -1 -3 -2q2 1 3 2z" />
    <glyph glyph-name="u" unicode="u" horiz-adv-x="622" 
d="M621 427q5 12 20 11t14 -15q-3 -75 -64 -202q-51 -104 -119 -169q-11 -9 -42 -35q-1 -1 -8 -6.5t-9.5 -7.5l-7.5 -6t-9.5 -6.5t-9.5 -4.5q-34 -15 -66.5 0.5t-39.5 52.5q-2 9 -2 20.5t1 20t3 21.5t4 20.5t5.5 21t5.5 19.5q-34 -39 -69 -72q-43 -41 -79 -70q-2 -2 -6 -5
q-18 -15 -29 -23t-29 -18t-34 -13q-32 -6 -59.5 7.5t-42.5 41.5q-20 39 -14 116q9 113 47 220q21 61 45 106q15 28 29 49q4 6 34 42q21 25 47 11q12 -6 15 -18t-3 -24q-8 -14 -46 -98q-25 -54 -40 -97q-31 -92 -39 -185q-1 -3 -2 -13.5t-1.5 -16t-0.5 -15t0.5 -15.5t2 -13.5
t4.5 -12.5q8 -15 16 -15.5t31 14.5q74 46 148 118q49 47 69 68q29 31 33 35q5 18 10 34q23 79 43 129q17 44 28 68q14 32 15 33q3 5 6 9.5t7 9t7 8.5q13 20 36 11.5t19 -32.5q-1 -5 -2 -12.5t-2 -14t-3 -12.5q-1 -4 -9 -30q-4 -12 -11.5 -33t-9.5 -28q-27 -83 -41 -130
q-18 -63 -32 -119q-2 -7 -6.5 -24t-7 -27t-4.5 -23.5t-2 -23.5q0 -5 1 -8l2 -1q1 1 3.5 1.5t5 1.5t4.5 1q6 3 22 12q32 20 67 57q57 62 97 152q12 27 29 79.5t25 72.5zM367 50zM364 50q0 -1 1 -1q0 1 -1 1zM369 47h1h-1z" />
    <glyph glyph-name="u" unicode="&#xfc;" horiz-adv-x="622" 
d="M621 427q5 12 20 11t14 -15q-3 -75 -64 -202q-51 -104 -119 -169q-11 -9 -42 -35q-1 -1 -8 -6.5t-9.5 -7.5l-7.5 -6t-9.5 -6.5t-9.5 -4.5q-34 -15 -66.5 0.5t-39.5 52.5q-2 9 -2 20.5t1 20t3 21.5t4 20.5t5.5 21t5.5 19.5q-34 -39 -69 -72q-43 -41 -79 -70q-2 -2 -6 -5
q-18 -15 -29 -23t-29 -18t-34 -13q-32 -6 -59.5 7.5t-42.5 41.5q-20 39 -14 116q9 113 47 220q21 61 45 106q15 28 29 49q4 6 34 42q21 25 47 11q12 -6 15 -18t-3 -24q-8 -14 -46 -98q-25 -54 -40 -97q-31 -92 -39 -185q-1 -3 -2 -13.5t-1.5 -16t-0.5 -15t0.5 -15.5t2 -13.5
t4.5 -12.5q8 -15 16 -15.5t31 14.5q74 46 148 118q49 47 69 68q29 31 33 35q5 18 10 34q23 79 43 129q17 44 28 68q14 32 15 33q3 5 6 9.5t7 9t7 8.5q13 20 36 11.5t19 -32.5q-1 -5 -2 -12.5t-2 -14t-3 -12.5q-1 -4 -9 -30q-4 -12 -11.5 -33t-9.5 -28q-27 -83 -41 -130
q-18 -63 -32 -119q-2 -7 -6.5 -24t-7 -27t-4.5 -23.5t-2 -23.5q0 -5 1 -8l2 -1q1 1 3.5 1.5t5 1.5t4.5 1q6 3 22 12q32 20 67 57q57 62 97 152q12 27 29 79.5t25 72.5zM367 50zM364 50q0 -1 1 -1q0 1 -1 1zM369 47h1h-1z" />
    <glyph glyph-name="u" unicode="&#xfb;" horiz-adv-x="622" 
d="M621 427q5 12 20 11t14 -15q-3 -75 -64 -202q-51 -104 -119 -169q-11 -9 -42 -35q-1 -1 -8 -6.5t-9.5 -7.5l-7.5 -6t-9.5 -6.5t-9.5 -4.5q-34 -15 -66.5 0.5t-39.5 52.5q-2 9 -2 20.5t1 20t3 21.5t4 20.5t5.5 21t5.5 19.5q-34 -39 -69 -72q-43 -41 -79 -70q-2 -2 -6 -5
q-18 -15 -29 -23t-29 -18t-34 -13q-32 -6 -59.5 7.5t-42.5 41.5q-20 39 -14 116q9 113 47 220q21 61 45 106q15 28 29 49q4 6 34 42q21 25 47 11q12 -6 15 -18t-3 -24q-8 -14 -46 -98q-25 -54 -40 -97q-31 -92 -39 -185q-1 -3 -2 -13.5t-1.5 -16t-0.5 -15t0.5 -15.5t2 -13.5
t4.5 -12.5q8 -15 16 -15.5t31 14.5q74 46 148 118q49 47 69 68q29 31 33 35q5 18 10 34q23 79 43 129q17 44 28 68q14 32 15 33q3 5 6 9.5t7 9t7 8.5q13 20 36 11.5t19 -32.5q-1 -5 -2 -12.5t-2 -14t-3 -12.5q-1 -4 -9 -30q-4 -12 -11.5 -33t-9.5 -28q-27 -83 -41 -130
q-18 -63 -32 -119q-2 -7 -6.5 -24t-7 -27t-4.5 -23.5t-2 -23.5q0 -5 1 -8l2 -1q1 1 3.5 1.5t5 1.5t4.5 1q6 3 22 12q32 20 67 57q57 62 97 152q12 27 29 79.5t25 72.5zM367 50zM364 50q0 -1 1 -1q0 1 -1 1zM369 47h1h-1z" />
    <glyph glyph-name="u" unicode="&#xfa;" horiz-adv-x="622" 
d="M621 427q5 12 20 11t14 -15q-3 -75 -64 -202q-51 -104 -119 -169q-11 -9 -42 -35q-1 -1 -8 -6.5t-9.5 -7.5l-7.5 -6t-9.5 -6.5t-9.5 -4.5q-34 -15 -66.5 0.5t-39.5 52.5q-2 9 -2 20.5t1 20t3 21.5t4 20.5t5.5 21t5.5 19.5q-34 -39 -69 -72q-43 -41 -79 -70q-2 -2 -6 -5
q-18 -15 -29 -23t-29 -18t-34 -13q-32 -6 -59.5 7.5t-42.5 41.5q-20 39 -14 116q9 113 47 220q21 61 45 106q15 28 29 49q4 6 34 42q21 25 47 11q12 -6 15 -18t-3 -24q-8 -14 -46 -98q-25 -54 -40 -97q-31 -92 -39 -185q-1 -3 -2 -13.5t-1.5 -16t-0.5 -15t0.5 -15.5t2 -13.5
t4.5 -12.5q8 -15 16 -15.5t31 14.5q74 46 148 118q49 47 69 68q29 31 33 35q5 18 10 34q23 79 43 129q17 44 28 68q14 32 15 33q3 5 6 9.5t7 9t7 8.5q13 20 36 11.5t19 -32.5q-1 -5 -2 -12.5t-2 -14t-3 -12.5q-1 -4 -9 -30q-4 -12 -11.5 -33t-9.5 -28q-27 -83 -41 -130
q-18 -63 -32 -119q-2 -7 -6.5 -24t-7 -27t-4.5 -23.5t-2 -23.5q0 -5 1 -8l2 -1q1 1 3.5 1.5t5 1.5t4.5 1q6 3 22 12q32 20 67 57q57 62 97 152q12 27 29 79.5t25 72.5zM367 50zM364 50q0 -1 1 -1q0 1 -1 1zM369 47h1h-1z" />
    <glyph glyph-name="u" unicode="&#xf9;" horiz-adv-x="622" 
d="M621 427q5 12 20 11t14 -15q-3 -75 -64 -202q-51 -104 -119 -169q-11 -9 -42 -35q-1 -1 -8 -6.5t-9.5 -7.5l-7.5 -6t-9.5 -6.5t-9.5 -4.5q-34 -15 -66.5 0.5t-39.5 52.5q-2 9 -2 20.5t1 20t3 21.5t4 20.5t5.5 21t5.5 19.5q-34 -39 -69 -72q-43 -41 -79 -70q-2 -2 -6 -5
q-18 -15 -29 -23t-29 -18t-34 -13q-32 -6 -59.5 7.5t-42.5 41.5q-20 39 -14 116q9 113 47 220q21 61 45 106q15 28 29 49q4 6 34 42q21 25 47 11q12 -6 15 -18t-3 -24q-8 -14 -46 -98q-25 -54 -40 -97q-31 -92 -39 -185q-1 -3 -2 -13.5t-1.5 -16t-0.5 -15t0.5 -15.5t2 -13.5
t4.5 -12.5q8 -15 16 -15.5t31 14.5q74 46 148 118q49 47 69 68q29 31 33 35q5 18 10 34q23 79 43 129q17 44 28 68q14 32 15 33q3 5 6 9.5t7 9t7 8.5q13 20 36 11.5t19 -32.5q-1 -5 -2 -12.5t-2 -14t-3 -12.5q-1 -4 -9 -30q-4 -12 -11.5 -33t-9.5 -28q-27 -83 -41 -130
q-18 -63 -32 -119q-2 -7 -6.5 -24t-7 -27t-4.5 -23.5t-2 -23.5q0 -5 1 -8l2 -1q1 1 3.5 1.5t5 1.5t4.5 1q6 3 22 12q32 20 67 57q57 62 97 152q12 27 29 79.5t25 72.5zM367 50zM364 50q0 -1 1 -1q0 1 -1 1zM369 47h1h-1z" />
    <glyph glyph-name="v" unicode="v" horiz-adv-x="560" 
d="M579 433q8 3 12.5 -4.5t-1.5 -13.5q-27 -26 -92 -52q-61 -25 -95 -28q-1 -2 -4.5 -9.5t-5.5 -11.5q-41 -88 -91 -158q-67 -93 -127 -136q-27 -20 -56 -30t-61.5 -5.5t-56.5 28.5q-11 12 -19.5 29t-12.5 29t-7 35.5t-3.5 32.5t-1.5 35q-5 102 5 208q4 51 14 106
q1 2 2.5 12t2.5 14t2.5 13t3 14t4 12.5t4.5 13t5.5 11.5t6.5 12q8 11 24.5 10t20.5 -16q3 -11 3.5 -24.5t0 -22t-2.5 -25.5t-2 -23q-4 -48 -7 -94q-7 -90 -4 -185q0 -7 0.5 -26t1 -29t2 -25t4.5 -27.5t8 -23.5q3 -8 9 -14q5 -5 11 -6l9 1q3 0 9 2q10 3 27 14q18 12 39 31.5
t30.5 30.5t32.5 38q49 57 85 115q20 31 33 57q-25 14 -36 37t0 49q13 30 45 44.5t60 -3.5q38 -30 9 -106q8 2 19 6q21 6 45.5 16.5t50.5 22.5t45 19zM335 415q-3 -23 20 -39q9 22 15 42q8 23 -5 23q-10 -1 -19.5 -8.5t-10.5 -17.5z" />
    <glyph glyph-name="w" unicode="w" horiz-adv-x="881" 
d="M889 433q9 8 19 1t4 -17q-19 -33 -51 -54q-42 -29 -96 -33q-1 -11 -4 -23q-16 -87 -66 -160q-28 -39 -60.5 -69.5t-70.5 -47.5q-38 -19 -84.5 -18t-82.5 26q-27 18 -43 47q-45 -57 -100 -97q-58 -43 -125 -30q-46 8 -77 28q-22 14 -44 46q-71 102 -45 303q13 104 43 189
q38 111 82 174q17 24 46 14q7 -3 13 -9.5t8.5 -14.5t-0.5 -16q-6 -13 -17.5 -38t-14.5 -30q-64 -143 -80 -293q-16 -151 11 -241q14 -50 70 -67q52 -16 96 14q64 43 117 116q-5 23 -4 48q1 75 40 179q27 70 38 93q22 44 55 45q19 1 32.5 -11.5t14.5 -31.5q2 -19 -14 -72
q-26 -87 -57 -154q-19 -43 -43 -82q4 -30 21 -50q18 -21 49 -26t57 6q54 19 105 86q42 55 62 121q8 24 13 50q-35 8 -58.5 30t-20.5 56q3 37 35 53.5t64 -4.5q45 -29 42 -104q12 2 22 4q18 5 37.5 16.5t30 20t31.5 27.5zM430 359q-19 -78 -25 -106q16 34 29 69q12 32 21 62
q14 48 14 60q1 6 -1 12q-7 -4 -14 -20q-11 -27 -24 -77zM673 391q13 -17 38 -23q4 36 -4 54q-6 12 -16.5 17t-19.5 -5q-6 -10 -5.5 -22t7.5 -21z" />
    <glyph glyph-name="x" unicode="x" horiz-adv-x="461" 
d="M474 434q12 7 19 -7q5 -10 -5 -16q-48 -27 -118 -34q-16 -1 -28 -2q-5 -26 -21 -58q-46 -97 -136 -191l-8 -8q8 -10 17 -19q29 -32 63 -59q6 -5 16.5 -13t17.5 -13t16 -13t15 -15q8 -9 2 -18.5t-17 -6.5q-35 8 -66.5 32t-68.5 60q-14 15 -29 32q-69 -66 -141 -112
q-17 -11 -30 4.5t1 29.5q24 26 72.5 71t58.5 55q-57 80 -87.5 169t-32.5 163q-1 41 4 80q8 57 23 81q11 16 29.5 11t21 -23.5t-1 -54.5t-3.5 -42q-2 -55 2 -97q8 -75 13 -95q15 -56 29 -87q16 -36 38 -70q58 62 96 123q30 47 43 81l2 6q-12 2 -23 6q-22 7 -35.5 23t-10.5 37
q2 19 18 32.5t35 15.5q24 2 44 -14t30 -40q7 -17 7 -37q76 2 129 33zM238 428q10 -21 49 -26q5 30 -7 50q-9 13 -21 13.5t-19.5 -11.5t-1.5 -26z" />
    <glyph glyph-name="y" unicode="y" horiz-adv-x="513" 
d="M511 423q1 15 18 15q17 -1 17 -15q-4 -41 -12 -77q-24 -116 -86.5 -221.5t-152.5 -189.5q-35 -33 -89 -70q-26 -101 -50 -184q-13 -47 -25 -80.5t-31.5 -73.5t-46.5 -71t-61 -54q-9 -5 -19 -10t-23 -10t-19 -9q-30 -13 -57 -17q-62 -8 -98 31q-17 19 -25.5 47t-5.5 55
q5 37 36 82q31 44 73 80.5t102 80.5q47 34 153 104q28 104 64 247q-77 -58 -146 -64q-50 -3 -81 27q-31 31 -30 87q1 27 15 102q9 48 23 101q14 52 32 104q8 23 21 50q7 17 12 25q2 3 4.5 5.5l4.5 4.5t4.5 5t4.5 5q8 11 24 8.5t16 -17.5q-1 -3 0 -15t0 -15q-3 -16 -5 -26
q-5 -23 -12 -48q-13 -47 -25 -99q-27 -111 -34 -171q-2 -24 -1 -35q2 -13 7 -19l4 -3l2 -1l9 -2q10 -3 25 -1q58 5 124 60q14 12 25 24q2 5 4.5 15t3.5 15q45 179 49 194q3 11 12.5 46.5t14 52.5t13 44.5t17.5 49.5q10 25 37 22q12 -1 22 -10t8 -20q-4 -32 -19 -102
q-18 -85 -97 -404q-24 -96 -43 -168q35 27 62 53q96 94 157 212.5t74 247.5zM6 -490q30 52 53 140q11 37 39 144q-74 -49 -118 -80q-59 -43 -100 -78.5t-70 -77.5q-28 -39 -31 -74q-2 -26 8 -51.5t31 -37.5q39 -22 96 8q9 4 17 11.5t18 18.5t14 15q19 18 43 62z" />
    <glyph glyph-name="y" unicode="&#xff;" horiz-adv-x="513" 
d="M511 423q1 15 18 15q17 -1 17 -15q-4 -41 -12 -77q-24 -116 -86.5 -221.5t-152.5 -189.5q-35 -33 -89 -70q-26 -101 -50 -184q-13 -47 -25 -80.5t-31.5 -73.5t-46.5 -71t-61 -54q-9 -5 -19 -10t-23 -10t-19 -9q-30 -13 -57 -17q-62 -8 -98 31q-17 19 -25.5 47t-5.5 55
q5 37 36 82q31 44 73 80.5t102 80.5q47 34 153 104q28 104 64 247q-77 -58 -146 -64q-50 -3 -81 27q-31 31 -30 87q1 27 15 102q9 48 23 101q14 52 32 104q8 23 21 50q7 17 12 25q2 3 4.5 5.5l4.5 4.5t4.5 5t4.5 5q8 11 24 8.5t16 -17.5q-1 -3 0 -15t0 -15q-3 -16 -5 -26
q-5 -23 -12 -48q-13 -47 -25 -99q-27 -111 -34 -171q-2 -24 -1 -35q2 -13 7 -19l4 -3l2 -1l9 -2q10 -3 25 -1q58 5 124 60q14 12 25 24q2 5 4.5 15t3.5 15q45 179 49 194q3 11 12.5 46.5t14 52.5t13 44.5t17.5 49.5q10 25 37 22q12 -1 22 -10t8 -20q-4 -32 -19 -102
q-18 -85 -97 -404q-24 -96 -43 -168q35 27 62 53q96 94 157 212.5t74 247.5zM6 -490q30 52 53 140q11 37 39 144q-74 -49 -118 -80q-59 -43 -100 -78.5t-70 -77.5q-28 -39 -31 -74q-2 -26 8 -51.5t31 -37.5q39 -22 96 8q9 4 17 11.5t18 18.5t14 15q19 18 43 62z" />
    <glyph glyph-name="y" unicode="&#xfd;" horiz-adv-x="513" 
d="M511 423q1 15 18 15q17 -1 17 -15q-4 -41 -12 -77q-24 -116 -86.5 -221.5t-152.5 -189.5q-35 -33 -89 -70q-26 -101 -50 -184q-13 -47 -25 -80.5t-31.5 -73.5t-46.5 -71t-61 -54q-9 -5 -19 -10t-23 -10t-19 -9q-30 -13 -57 -17q-62 -8 -98 31q-17 19 -25.5 47t-5.5 55
q5 37 36 82q31 44 73 80.5t102 80.5q47 34 153 104q28 104 64 247q-77 -58 -146 -64q-50 -3 -81 27q-31 31 -30 87q1 27 15 102q9 48 23 101q14 52 32 104q8 23 21 50q7 17 12 25q2 3 4.5 5.5l4.5 4.5t4.5 5t4.5 5q8 11 24 8.5t16 -17.5q-1 -3 0 -15t0 -15q-3 -16 -5 -26
q-5 -23 -12 -48q-13 -47 -25 -99q-27 -111 -34 -171q-2 -24 -1 -35q2 -13 7 -19l4 -3l2 -1l9 -2q10 -3 25 -1q58 5 124 60q14 12 25 24q2 5 4.5 15t3.5 15q45 179 49 194q3 11 12.5 46.5t14 52.5t13 44.5t17.5 49.5q10 25 37 22q12 -1 22 -10t8 -20q-4 -32 -19 -102
q-18 -85 -97 -404q-24 -96 -43 -168q35 27 62 53q96 94 157 212.5t74 247.5zM6 -490q30 52 53 140q11 37 39 144q-74 -49 -118 -80q-59 -43 -100 -78.5t-70 -77.5q-28 -39 -31 -74q-2 -26 8 -51.5t31 -37.5q39 -22 96 8q9 4 17 11.5t18 18.5t14 15q19 18 43 62z" />
    <glyph glyph-name="z" unicode="z" horiz-adv-x="496" 
d="M514 436q13 1 14.5 -11t-10.5 -16q-19 -5 -47.5 -13t-49 -13.5t-46.5 -14t-48 -16.5q-42 -16 -82 -35q14 -13 25 -28q50 -73 32 -157t-86 -139q-77 -63 -162 -45q-28 6 -51 20.5t-38 38t-15 50.5q-2 59 61 134q48 56 118 100q14 9 32 19q-25 12 -50 13q-59 1 -96 -54
q-11 -18 -34.5 -10t-16.5 30q23 75 66 136q37 53 68 79q9 14 32 36q31 31 60 53q42 31 78 52q-65 10 -131 7q-53 -2 -103 -11q-8 -1 -17 -3t-19.5 -4t-16.5 -3q-34 -8 -47 -4q-7 2 -10.5 8.5t1.5 12.5q11 14 47 25q18 5 52 12q54 10 110 13q110 5 223 -17q18 -3 20.5 -21.5
t-13.5 -26.5q-89 -44 -136 -78q-36 -27 -61 -48q-2 -1 -13 -10.5t-17 -14.5q-20 -22 -23 -26q-21 -25 -40 -55q-10 -16 -20 -35q32 11 67 8q51 -4 96 -34q45 22 99 42q126 49 198 54zM212 274q-9 9 -19 17q-26 -15 -48 -29q-57 -37 -100 -84q-58 -65 -56 -112q1 -28 29 -47
t59 -22q60 -7 115 47q31 31 47 71t10 83.5t-37 75.5z" />
    <glyph glyph-name="braceleft" unicode="{" horiz-adv-x="460" 
d="M454 923q4 -4 5 -8t-1 -7t-5.5 -5.5t-8 -2.5t-8.5 1q-26 11 -51.5 5t-46 -22t-35.5 -39q-9 -15 -16 -31.5t-11.5 -35t-8 -34t-7.5 -37t-7 -34.5q-22 -93 -78 -152q-29 -30 -67 -51q32 -14 55 -40q49 -54 42 -136q-2 -25 -14.5 -79.5t-13.5 -84.5q-2 -81 60 -103
q15 -5 33 -7.5t31.5 -2.5t35 0.5t32.5 0.5q12 0 18.5 -9.5t3 -20t-15.5 -12.5q-90 -17 -156 6q-35 13 -59 38.5t-31 60.5q-4 16 -4 34t0.5 29.5t4.5 34t5.5 29t7.5 33.5q8 31 11 51.5t-1 48.5t-18 49q-19 27 -48.5 40.5t-62.5 11.5q-13 -1 -20 8.5t-3 21t16 14.5
q75 15 130 71q32 33 48.5 79.5t29 103t26.5 89.5q33 73 90 99q25 13 57.5 13t55.5 -18z" />
    <glyph glyph-name="verticalbar" unicode="|" horiz-adv-x="45" 
d="M43 47q0 -27 1 -55v-16t-2.5 -14.5t-8.5 -12.5q-4 -4 -10 -4t-10 4q-3 2 -5 4.5t-3 6t-2 5.5t-1 7t-0.5 6.5t-0.5 7v6.5v55q-1 60 -1 109q0 107 2 212q2 122 6 213q0 14 1 51.5t2 57.5t3.5 50t6.5 55q2 8 11 6.5t10 -8.5q3 -51 3 -72t-1.5 -72t-2.5 -72q-1 -135 -1 -212
q-1 -107 1 -215q1 -85 2 -103z" />
    <glyph glyph-name="braceright" unicode="}" horiz-adv-x="460" 
d="M436 477q12 1 19 -9t3.5 -21.5t-16.5 -13.5q-74 -16 -129 -72q-32 -33 -49 -79.5t-29 -103t-27 -89.5q-33 -72 -89 -99q-26 -13 -58.5 -13t-55.5 19q-6 6 -4.5 12t9 9t13.5 0q37 -16 74 2t59 55q11 18 19.5 41.5t12.5 40.5t10 46.5t9 42.5q21 94 78 152q29 30 67 51
q-33 15 -56 40q-49 55 -41 136q1 23 8 53t12.5 58.5t6.5 52.5q2 81 -60 103q-14 6 -32.5 8t-32 2t-35 -0.5t-31.5 -0.5q-12 1 -19 10t-3.5 19.5t15.5 12.5q90 18 157 -6q35 -13 59 -38.5t31 -60.5q4 -19 4.5 -38t-3.5 -44t-6.5 -36t-9.5 -41q-8 -32 -10.5 -52.5t1 -48.5
t18.5 -49q18 -27 47.5 -40.5t63.5 -10.5z" />
    <glyph glyph-name="asciitilde" unicode="~" horiz-adv-x="781" 
d="M762 419q4 6 12 3.5t6 -10.5q-11 -34 -12 -36q-10 -18 -22 -33q-32 -36 -80 -52q-95 -31 -188 29q-42 27 -78 62q-55 52 -77 68q-76 53 -164 39q-90 -14 -148 -85q-2 -3 -5.5 -2.5t-5 2.5t0.5 5q44 72 143 104q80 26 163 -7q29 -11 56 -28.5t62.5 -45t50.5 -38.5
q42 -29 77 -43q38 -15 85 -4q39 9 70 28q17 11 30 22q0 1 10 9t14 13z" />
    <glyph glyph-name="nonbreakingspace" unicode="&#xa0;" horiz-adv-x="234" 
 />
    <glyph glyph-name="cent" unicode="&#xa2;" horiz-adv-x="498" 
d="M474 211q11 5 19.5 -4t-0.5 -19q-51 -51 -125.5 -78t-145.5 -20q-43 5 -80 20q-33 -85 -58 -125q-5 -7 -16 -5t-9 11q7 53 41 140q-50 31 -74 81q-50 106 -6 256q42 144 148 203q57 32 117 32q30 0 58 -8q30 60 59 113q3 5 9.5 5.5t11 -4t1.5 -10.5q-19 -50 -48 -118
q13 -7 22 -16q13 -13 3 -27.5t-27 -10.5q-12 3 -19 5q-1 -2 -2.5 -6.5t-2.5 -6.5q-77 -178 -132 -317q-24 -59 -52 -129q42 -26 94 -27q28 -1 59 6t48.5 13.5t56.5 24t50 21.5zM93 416q-25 -119 18 -189q8 -12 18 -23q53 134 123 294q33 75 63 140q-21 1 -41 -3
q-51 -10 -88 -43q-69 -59 -93 -176z" />
    <glyph glyph-name="sterling" unicode="&#xa3;" horiz-adv-x="677" 
d="M645 82q20 5 29.5 -13.5t-9.5 -28.5q-41 -23 -83 -27q-33 -3 -82 3q-31 4 -86.5 16t-74.5 15q-86 15 -142 -3q-30 -10 -58 -33q-12 -17 -26 -33q-6 -6 -16 -9q-5 -4 -13 -4t-14 5q-8 3 -14 8q-12 12 -11.5 26t11.5 26q74 80 87 246q2 29 4 73h-42q-6 0 -28.5 -1t-37 0
t-27.5 5q-10 3 -12 13.5t8 15.5q8 3 17 5.5t20 4t18 2.5t20.5 1.5t17.5 0.5q28 2 48 4q2 52 4 85t9.5 81.5t19 83t33 73t51.5 69.5q39 41 92 60.5t109 12.5q52 -6 96.5 -34.5t54.5 -75.5q3 -14 -10.5 -18.5t-22.5 6.5q-31 39 -74 56t-91 8q-89 -16 -143 -116
q-46 -83 -51 -228q-1 -24 -2 -61h70q4 -1 18 -0.5t21 0t17.5 -2.5t18 -7t12.5 -12q8 -12 -3 -25q-8 -8 -20.5 -11.5t-21.5 -3.5t-26.5 2t-21.5 2q-32 2 -65 3q-1 -95 -12 -154q-8 -49 -24 -91q53 16 116 11q27 -2 57 -7.5t65.5 -13.5t56.5 -11q43 -8 82 -7q52 0 81 8z" />
    <glyph glyph-name="yen" unicode="&#xa5;" horiz-adv-x="470" 
d="M452 818q22 -8 18 -34q-6 -33 -31 -92q-21 -47 -44 -87q-42 -72 -101 -140q-39 -45 -68 -56q-4 -2 -9 -3q1 -15 1 -67v-4.5v-3.5q22 0 65 2q7 0 26 1.5t26.5 1.5t26.5 -1q27 -3 30 -24q2 -11 -5 -20.5t-17 -10.5q-14 -2 -83 -2q-23 0 -69 -1v-57q0 -14 -1 -45h32
q50 -2 66 -6q14 -4 17 -15q1 -8 -3 -16q-5 -10 -20 -11q-12 0 -36 2t-30 2q-12 1 -26 1q-1 -82 -3 -154q-1 -21 -20.5 -30t-38.5 0t-19 30q1 70 3 150q-69 -7 -81 -7q-16 -1 -17.5 13t12.5 19q35 12 88 17q1 30 1 50q1 22 3 57q-58 0 -96 6q-15 2 -14.5 17.5t14.5 18.5
q37 7 98 9v14q2 57 4 73q-8 5 -14 12t-10.5 14.5t-9 16t-7 15.5t-7 17.5t-6.5 16.5q-35 84 -39 94q-3 10 -10.5 28.5t-13.5 33.5t-11 29q-10 28 -16 51q-8 32 -7 44q1 9 10 12.5t16 -2.5q5 -5 10 -9.5t9.5 -11.5t7.5 -11.5t8 -13.5t6.5 -12t6.5 -13.5t6 -11.5q6 -13 13 -28
t15.5 -33t12.5 -28q8 -16 37 -82q2 -6 5.5 -14l7 -16t6.5 -14q8 -19 10 -21q10 0 16 -6q9 6 21 18q23 24 47 55q46 59 81 125q12 24 31.5 70.5t28.5 66.5q5 9 17.5 12t22.5 -1z" />
    <glyph glyph-name="softhyphen" unicode="&#xad;" 
 />
    <glyph glyph-name="divide" unicode="&#xf7;" horiz-adv-x="281" 
d="M278 362q6 -11 0 -22t-21 -10q-12 0 -57 1.5t-70 2.5q-41 1 -63 1q-46 1 -60 6q-5 1 -6.5 7t4.5 9q16 7 58 11l64 4q75 3 130 1q16 0 21 -11zM145.5 483q-19.5 0 -27.5 15t0 29.5t27.5 14.5t27.5 -14.5t0 -29.5t-27.5 -15zM145.5 228q19.5 0 27.5 -15t0 -29.5
t-27.5 -14.5t-27.5 14.5t0 29.5t27.5 15z" />
    <glyph glyph-name="Euro" unicode="&#x20ac;" horiz-adv-x="429" 
d="M398 680q-42 24 -88 13t-77 -48q-31 -36 -50 -90q47 1 75 1q2 0 17.5 1t21.5 0.5t15.5 -4.5t14.5 -12t0 -16q-4 -6 -10 -10t-14 -5t-14.5 -1t-16.5 0.5t-14 0.5q-29 1 -81 2h-4h-1h-1q-5 -22 -8 -45q-11 -80 -2 -171q11 1 16 1q52 1 81 2q2 0 17.5 0.5t21.5 0t15.5 -4.5
t14.5 -11.5t0 -15.5q-4 -6 -10 -10t-14 -5t-14.5 -1.5t-16.5 0.5t-14 1q-29 0 -81 1q-2 0 -5.5 0.5t-4.5 0.5v-2l1 -2q19 -120 87 -155q32 -17 66 -6q13 5 33 20t32 20q5 2 12.5 -1t10.5 -8q14 -28 -9 -54.5t-55 -38.5q-63 -23 -127 10q-99 51 -123 201l-2 18q-43 2 -79 5
q-14 2 -14 14t14 13q34 3 74 5q-12 119 9 220v1q-45 2 -83 5q-14 1 -14 13t14 13q42 4 93 6q33 114 108 167q51 36 111 35q59 -2 98 -44q11 -13 0 -26.5t-26 -3.5z" />
    </font>
</defs>
</svg>
