<?xml version="1.0" standalone="no"?>
<!DOCTYPE svg PUBLIC "-//W3C//DTD SVG 1.1//EN" "http://www.w3.org/Graphics/SVG/1.1/DTD/svg11.dtd" >
<svg xmlns="http://www.w3.org/2000/svg" xmlns:xlink="http://www.w3.org/1999/xlink" version="1.1">
<metadata>
Created by FontForge 20170924 at Fri Sep 26 15:19:45 2008
 By www-data
It's the font on the dollar bill!  (stephen.deken)
</metadata>
<defs>
<font id="UnitedStates" horiz-adv-x="1440" >
  <font-face 
    font-family="UnitedStates"
    font-weight="400"
    font-stretch="normal"
    units-per-em="1600"
    panose-1="0 0 0 0 0 0 0 0 0 0"
    ascent="1280"
    descent="-320"
    x-height="1200"
    cap-height="1200"
    bbox="-300 -104 2779 1400"
    underline-thickness="20"
    underline-position="-143"
    unicode-range="U+0020-007E"
  />
<missing-glyph horiz-adv-x="800" 
d="M50 0v1400h700v-1400h-700zM700 50v1300h-600v-1300h600z" />
    <glyph glyph-name=".notdef" horiz-adv-x="800" 
d="M50 0v1400h700v-1400h-700zM700 50v1300h-600v-1300h600z" />
    <glyph glyph-name="NULL" horiz-adv-x="0" 
 />
    <glyph glyph-name="nonmarkingreturn" horiz-adv-x="500" 
 />
    <glyph glyph-name="space" unicode=" " horiz-adv-x="500" 
 />
    <glyph glyph-name="exclam" unicode="!" horiz-adv-x="500" 
d="M550 900l-200 -600h-200l-200 600q-9 27 -9 54q0 98 97.5 172t211.5 74t209 -72q100 -76 100 -174q0 -27 -9 -54zM350 100q0 -42 -29 -71t-71 -29t-71 29t-29 71t29 71t71 29t71 -29t29 -71z" />
    <glyph glyph-name="quotedbl" unicode="&#x22;" horiz-adv-x="500" 
d="M200 1050q0 -89 -52 -127q-37 -27 -97 -27q-18 0 -30 2t-21 4q34 1 50 8q50 22 50 90q-42 0 -71 29t-29 71t29 71t71 29t71 -29t29 -71v-50zM500 1050q0 -89 -52 -127q-37 -27 -97 -27q-18 0 -30 2t-21 4q34 1 50 8q50 22 50 90q-42 0 -71 29t-29 71t29 71t71 29t71 -29
t29 -71v-50z" />
    <glyph glyph-name="numbersign" unicode="#" 
d="M1360 640h-480q0 44 -21.5 80.5t-58.5 57.5l240 416q149 -86 232 -225q88 -147 88 -329zM840 640q0 -50 -35 -85t-85 -35t-85 35t-35 85t35 85t85 35t85 -35t35 -85zM640 778q-37 -22 -58.5 -57t-21.5 -81h-480q0 182 88 329q83 139 232 225zM1040 86q-73 -44 -149 -65
t-171 -21t-169 21t-151 65l240 416q38 -22 80 -22q25 0 42 4.5t38 16.5z" />
    <glyph glyph-name="dollar" unicode="$" 
d="M1360 640h-480q0 44 -21.5 80.5t-58.5 57.5l240 416q149 -86 232 -225q88 -147 88 -329zM840 640q0 -50 -35 -85t-85 -35t-85 35t-35 85t35 85t85 35t85 -35t35 -85zM640 778q-37 -22 -58.5 -57t-21.5 -81h-480q0 182 88 329q83 139 232 225zM1040 86q-73 -44 -149 -65
t-171 -21t-169 21t-151 65l240 416q38 -22 80 -22q25 0 42 4.5t38 16.5z" />
    <glyph glyph-name="percent" unicode="%" 
d="M1360 640h-480q0 44 -21.5 80.5t-58.5 57.5l240 416q149 -86 232 -225q88 -147 88 -329zM840 640q0 -50 -35 -85t-85 -35t-85 35t-35 85t35 85t85 35t85 -35t35 -85zM640 778q-37 -22 -58.5 -57t-21.5 -81h-480q0 182 88 329q83 139 232 225zM1040 86q-73 -44 -149 -65
t-171 -21t-169 21t-151 65l240 416q38 -22 80 -22q25 0 42 4.5t38 16.5z" />
    <glyph glyph-name="ampersand" unicode="&#x26;" 
d="M1360 640h-480q0 44 -21.5 80.5t-58.5 57.5l240 416q149 -86 232 -225q88 -147 88 -329zM840 640q0 -50 -35 -85t-85 -35t-85 35t-35 85t35 85t85 35t85 -35t35 -85zM640 778q-37 -22 -58.5 -57t-21.5 -81h-480q0 182 88 329q83 139 232 225zM1040 86q-73 -44 -149 -65
t-171 -21t-169 21t-151 65l240 416q38 -22 80 -22q25 0 42 4.5t38 16.5z" />
    <glyph glyph-name="quotesingle" unicode="'" horiz-adv-x="200" 
d="M200 1050q0 -89 -52 -127q-37 -27 -97 -27q-18 0 -30 2t-21 4q34 1 50 8q50 22 50 90q-42 0 -71 29t-29 71t29 71t71 29t71 -29t29 -71v-50z" />
    <glyph glyph-name="parenleft" unicode="(" 
d="M1360 640h-480q0 44 -21.5 80.5t-58.5 57.5l240 416q149 -86 232 -225q88 -147 88 -329zM840 640q0 -50 -35 -85t-85 -35t-85 35t-35 85t35 85t85 35t85 -35t35 -85zM640 778q-37 -22 -58.5 -57t-21.5 -81h-480q0 182 88 329q83 139 232 225zM1040 86q-73 -44 -149 -65
t-171 -21t-169 21t-151 65l240 416q38 -22 80 -22q25 0 42 4.5t38 16.5z" />
    <glyph glyph-name="parenright" unicode=")" 
d="M1360 640h-480q0 44 -21.5 80.5t-58.5 57.5l240 416q149 -86 232 -225q88 -147 88 -329zM840 640q0 -50 -35 -85t-85 -35t-85 35t-35 85t35 85t85 35t85 -35t35 -85zM640 778q-37 -22 -58.5 -57t-21.5 -81h-480q0 182 88 329q83 139 232 225zM1040 86q-73 -44 -149 -65
t-171 -21t-169 21t-151 65l240 416q38 -22 80 -22q25 0 42 4.5t38 16.5z" />
    <glyph glyph-name="asterisk" unicode="*" 
d="M1360 640h-480q0 44 -21.5 80.5t-58.5 57.5l240 416q149 -86 232 -225q88 -147 88 -329zM840 640q0 -50 -35 -85t-85 -35t-85 35t-35 85t35 85t85 35t85 -35t35 -85zM640 778q-37 -22 -58.5 -57t-21.5 -81h-480q0 182 88 329q83 139 232 225zM1040 86q-73 -44 -149 -65
t-171 -21t-169 21t-151 65l240 416q38 -22 80 -22q25 0 42 4.5t38 16.5z" />
    <glyph glyph-name="plus" unicode="+" 
d="M1360 640h-480q0 44 -21.5 80.5t-58.5 57.5l240 416q149 -86 232 -225q88 -147 88 -329zM840 640q0 -50 -35 -85t-85 -35t-85 35t-35 85t35 85t85 35t85 -35t35 -85zM640 778q-37 -22 -58.5 -57t-21.5 -81h-480q0 182 88 329q83 139 232 225zM1040 86q-73 -44 -149 -65
t-171 -21t-169 21t-151 65l240 416q38 -22 80 -22q25 0 42 4.5t38 16.5z" />
    <glyph glyph-name="comma" unicode="," horiz-adv-x="200" 
d="M200 50q0 -89 -52 -127q-37 -27 -97 -27q-18 0 -30 2t-21 4q34 1 50 8q50 22 50 90q-42 0 -71 29t-29 71t29 71t71 29t71 -29t29 -71v-50z" />
    <glyph glyph-name="hyphen" unicode="-" 
d="M1360 640h-480q0 44 -21.5 80.5t-58.5 57.5l240 416q149 -86 232 -225q88 -147 88 -329zM840 640q0 -50 -35 -85t-85 -35t-85 35t-35 85t35 85t85 35t85 -35t35 -85zM640 778q-37 -22 -58.5 -57t-21.5 -81h-480q0 182 88 329q83 139 232 225zM1040 86q-73 -44 -149 -65
t-171 -21t-169 21t-151 65l240 416q38 -22 80 -22q25 0 42 4.5t38 16.5z" />
    <glyph glyph-name="period" unicode="." horiz-adv-x="400" 
d="M0 100q0 42 29 71t71 29t71 -29t29 -71t-29 -71t-71 -29t-71 29t-29 71z" />
    <glyph glyph-name="slash" unicode="/" 
d="M1360 640h-480q0 44 -21.5 80.5t-58.5 57.5l240 416q149 -86 232 -225q88 -147 88 -329zM840 640q0 -50 -35 -85t-85 -35t-85 35t-35 85t35 85t85 35t85 -35t35 -85zM640 778q-37 -22 -58.5 -57t-21.5 -81h-480q0 182 88 329q83 139 232 225zM1040 86q-73 -44 -149 -65
t-171 -21t-169 21t-151 65l240 416q38 -22 80 -22q25 0 42 4.5t38 16.5z" />
    <glyph glyph-name="zero" unicode="0" 
d="M1360 640h-480q0 44 -21.5 80.5t-58.5 57.5l240 416q149 -86 232 -225q88 -147 88 -329zM840 640q0 -50 -35 -85t-85 -35t-85 35t-35 85t35 85t85 35t85 -35t35 -85zM640 778q-37 -22 -58.5 -57t-21.5 -81h-480q0 182 88 329q83 139 232 225zM1040 86q-73 -44 -149 -65
t-171 -21t-169 21t-151 65l240 416q38 -22 80 -22q25 0 42 4.5t38 16.5z" />
    <glyph glyph-name="one" unicode="1" 
d="M1360 640h-480q0 44 -21.5 80.5t-58.5 57.5l240 416q149 -86 232 -225q88 -147 88 -329zM840 640q0 -50 -35 -85t-85 -35t-85 35t-35 85t35 85t85 35t85 -35t35 -85zM640 778q-37 -22 -58.5 -57t-21.5 -81h-480q0 182 88 329q83 139 232 225zM1040 86q-73 -44 -149 -65
t-171 -21t-169 21t-151 65l240 416q38 -22 80 -22q25 0 42 4.5t38 16.5z" />
    <glyph glyph-name="two" unicode="2" 
d="M1360 640h-480q0 44 -21.5 80.5t-58.5 57.5l240 416q149 -86 232 -225q88 -147 88 -329zM840 640q0 -50 -35 -85t-85 -35t-85 35t-35 85t35 85t85 35t85 -35t35 -85zM640 778q-37 -22 -58.5 -57t-21.5 -81h-480q0 182 88 329q83 139 232 225zM1040 86q-73 -44 -149 -65
t-171 -21t-169 21t-151 65l240 416q38 -22 80 -22q25 0 42 4.5t38 16.5z" />
    <glyph glyph-name="three" unicode="3" 
d="M1360 640h-480q0 44 -21.5 80.5t-58.5 57.5l240 416q149 -86 232 -225q88 -147 88 -329zM840 640q0 -50 -35 -85t-85 -35t-85 35t-35 85t35 85t85 35t85 -35t35 -85zM640 778q-37 -22 -58.5 -57t-21.5 -81h-480q0 182 88 329q83 139 232 225zM1040 86q-73 -44 -149 -65
t-171 -21t-169 21t-151 65l240 416q38 -22 80 -22q25 0 42 4.5t38 16.5z" />
    <glyph glyph-name="four" unicode="4" 
d="M1360 640h-480q0 44 -21.5 80.5t-58.5 57.5l240 416q149 -86 232 -225q88 -147 88 -329zM840 640q0 -50 -35 -85t-85 -35t-85 35t-35 85t35 85t85 35t85 -35t35 -85zM640 778q-37 -22 -58.5 -57t-21.5 -81h-480q0 182 88 329q83 139 232 225zM1040 86q-73 -44 -149 -65
t-171 -21t-169 21t-151 65l240 416q38 -22 80 -22q25 0 42 4.5t38 16.5z" />
    <glyph glyph-name="five" unicode="5" 
d="M1360 640h-480q0 44 -21.5 80.5t-58.5 57.5l240 416q149 -86 232 -225q88 -147 88 -329zM840 640q0 -50 -35 -85t-85 -35t-85 35t-35 85t35 85t85 35t85 -35t35 -85zM640 778q-37 -22 -58.5 -57t-21.5 -81h-480q0 182 88 329q83 139 232 225zM1040 86q-73 -44 -149 -65
t-171 -21t-169 21t-151 65l240 416q38 -22 80 -22q25 0 42 4.5t38 16.5z" />
    <glyph glyph-name="six" unicode="6" 
d="M1360 640h-480q0 44 -21.5 80.5t-58.5 57.5l240 416q149 -86 232 -225q88 -147 88 -329zM840 640q0 -50 -35 -85t-85 -35t-85 35t-35 85t35 85t85 35t85 -35t35 -85zM640 778q-37 -22 -58.5 -57t-21.5 -81h-480q0 182 88 329q83 139 232 225zM1040 86q-73 -44 -149 -65
t-171 -21t-169 21t-151 65l240 416q38 -22 80 -22q25 0 42 4.5t38 16.5z" />
    <glyph glyph-name="seven" unicode="7" 
d="M1360 640h-480q0 44 -21.5 80.5t-58.5 57.5l240 416q149 -86 232 -225q88 -147 88 -329zM840 640q0 -50 -35 -85t-85 -35t-85 35t-35 85t35 85t85 35t85 -35t35 -85zM640 778q-37 -22 -58.5 -57t-21.5 -81h-480q0 182 88 329q83 139 232 225zM1040 86q-73 -44 -149 -65
t-171 -21t-169 21t-151 65l240 416q38 -22 80 -22q25 0 42 4.5t38 16.5z" />
    <glyph glyph-name="eight" unicode="8" 
d="M1360 640h-480q0 44 -21.5 80.5t-58.5 57.5l240 416q149 -86 232 -225q88 -147 88 -329zM840 640q0 -50 -35 -85t-85 -35t-85 35t-35 85t35 85t85 35t85 -35t35 -85zM640 778q-37 -22 -58.5 -57t-21.5 -81h-480q0 182 88 329q83 139 232 225zM1040 86q-73 -44 -149 -65
t-171 -21t-169 21t-151 65l240 416q38 -22 80 -22q25 0 42 4.5t38 16.5z" />
    <glyph glyph-name="nine" unicode="9" 
d="M1360 640h-480q0 44 -21.5 80.5t-58.5 57.5l240 416q149 -86 232 -225q88 -147 88 -329zM840 640q0 -50 -35 -85t-85 -35t-85 35t-35 85t35 85t85 35t85 -35t35 -85zM640 778q-37 -22 -58.5 -57t-21.5 -81h-480q0 182 88 329q83 139 232 225zM1040 86q-73 -44 -149 -65
t-171 -21t-169 21t-151 65l240 416q38 -22 80 -22q25 0 42 4.5t38 16.5z" />
    <glyph glyph-name="colon" unicode=":" horiz-adv-x="200" 
d="M0 100q0 42 29 71t71 29t71 -29t29 -71t-29 -71t-71 -29t-71 29t-29 71zM0 600q0 42 29 71t71 29t71 -29t29 -71t-29 -71t-71 -29t-71 29t-29 71z" />
    <glyph glyph-name="semicolon" unicode=";" horiz-adv-x="200" 
d="M0 600q0 42 29 71t71 29t71 -29t29 -71t-29 -71t-71 -29t-71 29t-29 71zM200 50q0 -89 -52 -127q-37 -27 -97 -27q-18 0 -30 2t-21 4q34 1 50 8q50 22 50 90q-42 0 -71 29t-29 71t29 71t71 29t71 -29t29 -71v-50z" />
    <glyph glyph-name="less" unicode="&#x3c;" 
d="M1360 640h-480q0 44 -21.5 80.5t-58.5 57.5l240 416q149 -86 232 -225q88 -147 88 -329zM840 640q0 -50 -35 -85t-85 -35t-85 35t-35 85t35 85t85 35t85 -35t35 -85zM640 778q-37 -22 -58.5 -57t-21.5 -81h-480q0 182 88 329q83 139 232 225zM1040 86q-73 -44 -149 -65
t-171 -21t-169 21t-151 65l240 416q38 -22 80 -22q25 0 42 4.5t38 16.5z" />
    <glyph glyph-name="equal" unicode="=" 
d="M1360 640h-480q0 44 -21.5 80.5t-58.5 57.5l240 416q149 -86 232 -225q88 -147 88 -329zM840 640q0 -50 -35 -85t-85 -35t-85 35t-35 85t35 85t85 35t85 -35t35 -85zM640 778q-37 -22 -58.5 -57t-21.5 -81h-480q0 182 88 329q83 139 232 225zM1040 86q-73 -44 -149 -65
t-171 -21t-169 21t-151 65l240 416q38 -22 80 -22q25 0 42 4.5t38 16.5z" />
    <glyph glyph-name="greater" unicode="&#x3e;" 
d="M1360 640h-480q0 44 -21.5 80.5t-58.5 57.5l240 416q149 -86 232 -225q88 -147 88 -329zM840 640q0 -50 -35 -85t-85 -35t-85 35t-35 85t35 85t85 35t85 -35t35 -85zM640 778q-37 -22 -58.5 -57t-21.5 -81h-480q0 182 88 329q83 139 232 225zM1040 86q-73 -44 -149 -65
t-171 -21t-169 21t-151 65l240 416q38 -22 80 -22q25 0 42 4.5t38 16.5z" />
    <glyph glyph-name="question" unicode="?" horiz-adv-x="1400" 
d="M1500 800q0 -206 -168 -301q-92 -52 -313 -91q-169 -30 -169 -78v-30h-300v34q0 76 90 123q147 76 169 96q91 83 91 247q0 127 -18 187q-34 113 -132 113q-70 0 -106 -57q-30 -47 -39 -135q-5 -48 -5 -156v-52h-600v52q0 160 118 267q102 93 286 140q159 41 346 41
q183 0 342 -37q184 -43 287 -125q121 -97 121 -238zM600 100q0 42 29 71t71 29t71 -29t29 -71t-29 -71t-71 -29t-71 29t-29 71z" />
    <glyph glyph-name="at" unicode="@" horiz-adv-x="1700" 
d="M800 600h450q123 0 231 -83q119 -91 119 -217v-100q0 -70 63 -112q57 -38 137 -38v-50h-450q-139 0 -242 83q-108 87 -108 217v100q0 70 -63 112q-57 38 -137 38v50z" />
    <glyph glyph-name="A" unicode="A" horiz-adv-x="1350" 
d="M1500 0h-1800v50h50q91 0 161 50q62 44 111 128q37 63 78 172l300 800h500l400 -900q39 -87 103.5 -168.5t96.5 -81.5v-50zM560 500l-160 350l-136 -350h296zM642 300q-3 27 -16 55q-2 4 -26 45h-373q-14 -24 -20.5 -47t-6.5 -53q0 -85 66 -142.5t155 -57.5
q87 0 154.5 53t67.5 131q0 11 -1 16z" />
    <glyph glyph-name="B" unicode="B" horiz-adv-x="1700" 
d="M1650 300q0 -124 -88 -212t-212 -88h-1450v50q119 0 207 68q93 72 93 182v600q0 110 -93 182q-88 68 -207 68v50h1450q124 0 212 -88t88 -212q0 -94 -36 -173t-106 -127q68 -46 105 -127t37 -173zM1050 850q1 6 1 12.5v10.5q0 90 -69 159t-160 69q-14 0 -22 -1v-450
q7 -1 13 -1h13q85 0 149.5 57.5t74.5 143.5zM1050 350q-10 86 -74 143.5t-150 57.5q-17 0 -26 -1v-450q6 -1 11.5 -1h11.5q90 0 159 69t69 160q0 14 -1 22z" />
    <glyph glyph-name="C" unicode="C" horiz-adv-x="1450" 
d="M1400 400q-85 -181 -194 -276q-101 -88 -244 -121q-116 -27 -312 -27q-268 0 -431 162q-169 168 -169 462q0 303 151.5 463.5t448.5 160.5q60 -3 143 -7t270.5 -10.5t286.5 -6.5v-500h-100q0 173 -77 283q-82 117 -223 117q-93 0 -153 -81q-51 -69 -76 -192
q-21 -104 -21 -227q0 -201 50 -331q65 -169 200 -169q154 0 235 168q65 136 65 332z" />
    <glyph glyph-name="D" unicode="D" horiz-adv-x="1700" 
d="M1700 600q0 -248 -176 -424t-424 -176h-1200v50q119 0 207 68q93 72 93 182v600q0 110 -93 182q-88 68 -207 68v50h1200q248 0 424 -176t176 -424zM1100 300v600q0 82 -58 141t-142 59h-100v-1000h100q82 0 141 59t59 141z" />
    <glyph glyph-name="E" unicode="E" horiz-adv-x="1550" 
d="M1450 0h-1550v50q168 0 239 68q61 59 61 182v600q0 121 -66 182q-73 68 -234 68v50h1550v-500h-50l-500 400h-100v-450l300 250v-550l-300 250v-500h50l550 450h50v-550z" />
    <glyph glyph-name="F" unicode="F" horiz-adv-x="1650" 
d="M1550 650l-350 300l-250 150h-50v-450l300 250v-550l-300 250v-300q0 -124 146 -194q116 -56 254 -56v-50h-1400v50q95 0 191 68q109 78 109 182v600q0 105 -108 182q-96 68 -192 68v50h1650v-550z" />
    <glyph glyph-name="G" unicode="G" horiz-adv-x="1450" 
d="M1400 0q-32 0 -77 -3q-102 -7 -189 -22q-127 -22 -234 -62v78q-52 -8 -112 -11.5t-138 -3.5q-268 0 -431 162q-169 168 -169 462q0 303 151.5 463.5t448.5 160.5q60 -3 143 -7t270.5 -10.5t286.5 -6.5v-500h-100q0 173 -77 283q-82 117 -223 117q-93 0 -153 -81
q-51 -69 -76 -192q-21 -104 -21 -227q0 -181 40 -305q51 -159 160 -189v494q65 -14 105 -19t95 -5q88 0 144 2t156 22v-600z" />
    <glyph glyph-name="H" unicode="H" horiz-adv-x="2000" 
d="M2100 0h-2200v50q95 0 191 68q109 78 109 182v600q0 105 -108 182q-96 68 -192 68v50h2200v-50q-95 0 -191 -68q-109 -78 -109 -182v-600q0 -105 108 -182q96 -68 192 -68v-50zM1200 650v250q0 77 -63 143q-55 57 -137 87q-82 -30 -137 -87q-63 -65 -63 -143v-250h400z
M1200 300v250h-400v-250q0 -77 63 -143q55 -57 137 -87q82 30 137 87q63 65 63 143z" />
    <glyph glyph-name="I" unicode="I" horiz-adv-x="1000" 
d="M1100 0h-1200v50q95 0 191 68q109 78 109 182v600q0 105 -108 182q-96 68 -192 68v50h1200v-50q-95 0 -191 -68q-109 -78 -109 -182v-600q0 -105 108 -182q96 -68 192 -68v-50z" />
    <glyph glyph-name="J" unicode="J" horiz-adv-x="1400" 
d="M1500 1150q-95 0 -191 -68q-109 -78 -109 -182v-600q0 -116 -89 -208t-211 -92h-500q-145 0 -240 42.5t-210 157.5l150 200q0 -163 65 -250q75 -100 235 -100q87 0 146 84q54 77 54 166v600q0 128 -125 194q-106 56 -275 56v50h1300v-50z" />
    <glyph glyph-name="K" unicode="K" horiz-adv-x="1700" 
d="M1800 0h-450q-139 0 -242 83q-108 87 -108 217v100q0 70 -63 112q-57 38 -137 38v-250q0 -104 56 -182q49 -68 94 -68v-50h-1050v50q95 0 191 68q109 78 109 182v600q0 105 -108 182q-96 68 -192 68v50h1050v-50q-44 0 -93 -68q-57 -80 -57 -182v-250q80 0 137 38
q63 42 63 112v100q0 130 108 217q103 83 242 83h450v-50q-80 0 -137 -38q-63 -42 -63 -112v-100q0 -130 -108 -217q-103 -83 -242 -83q138 0 241 -83q109 -88 109 -217v-100q0 -70 63 -112q57 -38 137 -38v-50z" />
    <glyph glyph-name="L" unicode="L" horiz-adv-x="1550" 
d="M1450 0h-1550v50q95 0 191 68q109 78 109 182v600q0 105 -108 182q-96 68 -192 68v50h1200v-50q-95 0 -191 -68q-109 -78 -109 -182v-800h50l550 450h50v-550z" />
    <glyph glyph-name="M" unicode="M" horiz-adv-x="1950" 
d="M2050 0h-1100v50q102 0 176 73t74 177v600l-350 -900h-150l-350 800v-500q0 -104 73 -177t177 -73v-50h-650v50q119 0 207 68q93 72 93 182v600q0 110 -93 182q-88 68 -207 68v50h800l250 -500l200 500h850v-50q-119 0 -207 -68q-93 -72 -93 -182v-600q0 -110 93 -182
q88 -68 207 -68v-50z" />
    <glyph glyph-name="N" unicode="N" horiz-adv-x="1500" 
d="M1650 1150h-50q-124 0 -212 -88t-88 -212v-850h-400l-600 800v-500q0 -110 93 -182q88 -68 207 -68h50v-50h-800v50h50q130 0 202 106q59 87 82 251q16 115 16 293v200q-17 17 -78 99q-52 70 -94 103q-61 48 -128 48h-50v50h850l500 -600v250q0 124 -88 212t-212 88h-50
v50h800v-50z" />
    <glyph glyph-name="O" unicode="O" horiz-adv-x="1500" 
d="M1600 600q0 -187 -120 -329q-109 -129 -299 -202q-179 -69 -381 -69q-317 0 -546 153q-254 170 -254 447q0 187 120 329q109 129 299 202q179 69 381 69q317 0 546 -153q254 -170 254 -447zM950 600q0 196 -5 263q-9 119 -39 174q-34 63 -106 63q-71 0 -105 -63
q-30 -55 -37.5 -154.5t-7.5 -282.5q0 -196 5 -263q9 -119 39 -174q34 -63 106 -63q71 0 105 63q30 55 39 174q6 80 6 263z" />
    <glyph glyph-name="P" unicode="P" horiz-adv-x="1700" 
d="M1650 900q0 -139 -83 -242q-87 -108 -217 -108h-550v-250q0 -104 73 -177t177 -73v-50h-1150v50q119 0 207 68q93 72 93 182v600q0 110 -93 182q-88 68 -207 68v50h1450q124 0 212 -88t88 -212zM1050 850q1 6 1 12.5v10.5q0 90 -69 159t-160 69q-14 0 -22 -1v-450
q7 -1 13 -1h13q85 0 149.5 57.5t74.5 143.5z" />
    <glyph glyph-name="Q" unicode="Q" horiz-adv-x="1500" 
d="M1600 -100h-450q-75 0 -144.5 27t-120.5 76l-85 -3q-317 0 -546 153q-254 170 -254 447q0 187 120 329q109 129 299 202q179 69 381 69q317 0 546 -153q254 -170 254 -447q0 -125 -54 -230q-50 -98 -146 -177v-93q0 -70 63 -112q57 -38 137 -38v-50zM950 600
q0 196 -5 263q-9 119 -39 174q-34 63 -106 63q-71 0 -105 -63q-30 -55 -37.5 -154.5t-7.5 -282.5q0 -196 5 -263q9 -119 39 -174q34 -63 106 -63q71 0 105 63q30 55 39 174q6 80 6 263z" />
    <glyph glyph-name="R" unicode="R" horiz-adv-x="1700" 
d="M1800 0h-450q-139 0 -242 83q-108 87 -108 217v100q0 70 -63 112q-57 38 -137 38v-250q0 -104 73 -177t177 -73v-50h-1150v50q119 0 207 68q93 72 93 182v600q0 110 -93 182q-88 68 -207 68v50h1450q124 0 212 -88t88 -212q0 -121 -91.5 -210.5t-208.5 -89.5v-50
q170 0 228 -129q30 -121 61 -241q39 -130 161 -130v-50zM1050 850q1 6 1 12.5v10.5q0 90 -69 159t-160 69q-14 0 -22 -1v-450q7 -1 13 -1h13q85 0 149.5 57.5t74.5 143.5z" />
    <glyph glyph-name="S" unicode="S" horiz-adv-x="1500" 
d="M1500 400q0 -179 -156 -294q-144 -106 -344 -106h-900v400q30 -39 60 -77q77 -91 149 -145q104 -78 191 -78h300q39 0 65 28t35 72q3 14 3 26q0 45 -29.5 81.5t-73.5 42.5l-400 50q-139 17 -222 136q-78 111 -78 264q0 165 117.5 282.5t282.5 117.5h900v-350l-62 64
q-78 75 -152 121q-104 65 -186 65h-300q-39 0 -65 -28t-35 -72q-3 -14 -3 -26q0 -47 29 -83.5t74 -40.5l500 -50q139 -14 223 -134q77 -111 77 -266z" />
    <glyph glyph-name="T" unicode="T" horiz-adv-x="1500" 
d="M1500 550h-50q0 45 -103 187q-68 94 -193 242q-102 121 -104 121v-700q0 -146 102 -248t248 -102v-50h-1300v50q146 0 248 102t102 248v700q-2 0 -103 -120q-125 -148 -193 -242q-104 -143 -104 -188h-50v650h1500v-650z" />
    <glyph glyph-name="U" unicode="U" horiz-adv-x="1600" 
d="M1750 1150h-50q-110 0 -206 -84q-92 -81 -92 -166v-550q0 -129 -89 -237q-93 -113 -213 -113h-550q-122 0 -211 89t-89 211v500q0 130 -83 236q-90 114 -217 114h-50v50h1850v-50zM1300 600q0 147 -10 224q-16 127 -61 194q-54 82 -154 82q-99 0 -153 -82
q-45 -67 -61 -193q-11 -85 -11 -225q0 -147 10 -224q16 -127 61 -194q54 -82 154 -82q99 0 153 82q45 67 61 193q11 85 11 225z" />
    <glyph glyph-name="V" unicode="V" horiz-adv-x="1700" 
d="M1800 1150q-119 0 -212 -70q-86 -65 -137 -180l-401 -900h-600v50q41 0 75 36t34 77q0 19 -9 37l-350 700q-60 121 -118 176q-77 74 -182 74v50h1900v-50zM1300 900q9 21 9 46q0 79 -92 144q-84 60 -167 60q-99 0 -201 -62q-110 -67 -110 -144q0 -20 11 -44l300 -600z
" />
    <glyph glyph-name="W" unicode="W" horiz-adv-x="2500" 
d="M2779 1150q-77 0 -124 -32q-40 -27 -70 -87q-1 -3 -56 -131l-381 -900h-548l-250 500l-224 -500h-676v50q41 0 75 36t34 77q0 19 -9 37l-350 700q-60 121 -118 176q-77 74 -182 74v50h1150v-50q-92 0 -177.5 -60.5t-85.5 -136.5q0 -27 13 -53l300 -600l400 900h175
l450 -900l250 600q24 56 24 113q0 62 -31 99.5t-89 37.5v50h500v-50z" />
    <glyph glyph-name="X" unicode="X" horiz-adv-x="1250" 
d="M1450 1150q-104 0 -178 -50q-69 -46 -122 -143l-198 -361l148 -296q60 -121 118 -176q77 -74 182 -74v-50h-1550v50q104 0 178 50q69 46 122 143l198 361l-148 296q-60 121 -118 176q-77 74 -182 74v50h1550v-50zM1050 1000q8 18 8 32q0 45 -51.5 81.5t-106.5 36.5
q-56 0 -107 -36t-51 -82q0 -14 8 -32l150 -300zM550 200l-150 300l-150 -300q-8 -18 -8 -32q0 -45 51.5 -81.5t106.5 -36.5q56 0 107 36t51 82q0 14 -8 32z" />
    <glyph glyph-name="Y" unicode="Y" horiz-adv-x="1250" 
d="M1500 1150q-105 0 -179 -48.5t-121 -144.5l-200 -407v-250q0 -106 70 -182q63 -68 130 -68v-50h-1000v50q53 0 120 67q80 80 80 183v250l-200 350q-47 83 -77 123q-45 61 -94 91q-58 36 -129 36v50h1600v-50zM1100 1000q8 18 8 32q0 45 -51.5 81.5t-106.5 36.5
q-56 0 -107 -36t-51 -82q0 -14 8 -32l150 -300z" />
    <glyph glyph-name="Z" unicode="Z" horiz-adv-x="1350" 
d="M1350 0h-1350l650 1100h-50q-72 -36 -127 -69.5t-123 -80.5q-113 -79 -184 -139.5t-166 -160.5v550h1350l-650 -1100h50q72 36 127 69.5t123 80.5q113 79 184 139.5t166 160.5v-550z" />
    <glyph glyph-name="bracketleft" unicode="[" 
d="M1360 640h-480q0 44 -21.5 80.5t-58.5 57.5l240 416q149 -86 232 -225q88 -147 88 -329zM840 640q0 -50 -35 -85t-85 -35t-85 35t-35 85t35 85t85 35t85 -35t35 -85zM640 778q-37 -22 -58.5 -57t-21.5 -81h-480q0 182 88 329q83 139 232 225zM1040 86q-73 -44 -149 -65
t-171 -21t-169 21t-151 65l240 416q38 -22 80 -22q25 0 42 4.5t38 16.5z" />
    <glyph glyph-name="backslash" unicode="\" 
d="M1360 640h-480q0 44 -21.5 80.5t-58.5 57.5l240 416q149 -86 232 -225q88 -147 88 -329zM840 640q0 -50 -35 -85t-85 -35t-85 35t-35 85t35 85t85 35t85 -35t35 -85zM640 778q-37 -22 -58.5 -57t-21.5 -81h-480q0 182 88 329q83 139 232 225zM1040 86q-73 -44 -149 -65
t-171 -21t-169 21t-151 65l240 416q38 -22 80 -22q25 0 42 4.5t38 16.5z" />
    <glyph glyph-name="bracketright" unicode="]" 
d="M1360 640h-480q0 44 -21.5 80.5t-58.5 57.5l240 416q149 -86 232 -225q88 -147 88 -329zM840 640q0 -50 -35 -85t-85 -35t-85 35t-35 85t35 85t85 35t85 -35t35 -85zM640 778q-37 -22 -58.5 -57t-21.5 -81h-480q0 182 88 329q83 139 232 225zM1040 86q-73 -44 -149 -65
t-171 -21t-169 21t-151 65l240 416q38 -22 80 -22q25 0 42 4.5t38 16.5z" />
    <glyph glyph-name="asciicircum" unicode="^" 
d="M1360 640h-480q0 44 -21.5 80.5t-58.5 57.5l240 416q149 -86 232 -225q88 -147 88 -329zM840 640q0 -50 -35 -85t-85 -35t-85 35t-35 85t35 85t85 35t85 -35t35 -85zM640 778q-37 -22 -58.5 -57t-21.5 -81h-480q0 182 88 329q83 139 232 225zM1040 86q-73 -44 -149 -65
t-171 -21t-169 21t-151 65l240 416q38 -22 80 -22q25 0 42 4.5t38 16.5z" />
    <glyph glyph-name="underscore" unicode="_" 
d="M1360 640h-480q0 44 -21.5 80.5t-58.5 57.5l240 416q149 -86 232 -225q88 -147 88 -329zM840 640q0 -50 -35 -85t-85 -35t-85 35t-35 85t35 85t85 35t85 -35t35 -85zM640 778q-37 -22 -58.5 -57t-21.5 -81h-480q0 182 88 329q83 139 232 225zM1040 86q-73 -44 -149 -65
t-171 -21t-169 21t-151 65l240 416q38 -22 80 -22q25 0 42 4.5t38 16.5z" />
    <glyph glyph-name="grave" unicode="`" horiz-adv-x="1700" 
d="M1550 1200v-50q-104 0 -178 -50q-69 -46 -122 -143l-250 -457h-600l-200 400q-60 121 -118 176q-77 74 -182 74v50h1650zM850 1000l150 -300l150 300q8 18 8 32q0 45 -51.5 81.5t-106.5 36.5q-56 0 -107 -36t-51 -82q0 -14 8 -32z" />
    <glyph glyph-name="a" unicode="a" horiz-adv-x="1350" 
d="M1500 0h-1800v50h50q91 0 161 50q62 44 111 128q37 63 78 172l300 800h500l400 -900q39 -87 103.5 -168.5t96.5 -81.5v-50zM560 500l-160 350l-136 -350h296zM642 300q-3 27 -16 55q-2 4 -26 45h-373q-14 -24 -20.5 -47t-6.5 -53q0 -85 66 -142.5t155 -57.5
q87 0 154.5 53t67.5 131q0 11 -1 16z" />
    <glyph glyph-name="b" unicode="b" horiz-adv-x="1700" 
d="M1650 300q0 -124 -88 -212t-212 -88h-1450v50q119 0 207 68q93 72 93 182v600q0 110 -93 182q-88 68 -207 68v50h1450q124 0 212 -88t88 -212q0 -94 -36 -173t-106 -127q68 -46 105 -127t37 -173zM1050 850q1 6 1 12.5v10.5q0 90 -69 159t-160 69q-14 0 -22 -1v-450
q7 -1 13 -1h13q85 0 149.5 57.5t74.5 143.5zM1050 350q-10 86 -74 143.5t-150 57.5q-17 0 -26 -1v-450q6 -1 11.5 -1h11.5q90 0 159 69t69 160q0 14 -1 22z" />
    <glyph glyph-name="c" unicode="c" horiz-adv-x="1450" 
d="M1400 400q-85 -181 -194 -276q-101 -88 -244 -121q-116 -27 -312 -27q-268 0 -431 162q-169 168 -169 462q0 303 151.5 463.5t448.5 160.5q60 -3 143 -7t270.5 -10.5t286.5 -6.5v-500h-100q0 173 -77 283q-82 117 -223 117q-93 0 -153 -81q-51 -69 -76 -192
q-21 -104 -21 -227q0 -201 50 -331q65 -169 200 -169q154 0 235 168q65 136 65 332z" />
    <glyph glyph-name="d" unicode="d" horiz-adv-x="1700" 
d="M1700 600q0 -248 -176 -424t-424 -176h-1200v50q119 0 207 68q93 72 93 182v600q0 110 -93 182q-88 68 -207 68v50h1200q248 0 424 -176t176 -424zM1100 300v600q0 82 -58 141t-142 59h-100v-1000h100q82 0 141 59t59 141z" />
    <glyph glyph-name="e" unicode="e" horiz-adv-x="1550" 
d="M1450 0h-1550v50q168 0 239 68q61 59 61 182v600q0 121 -66 182q-73 68 -234 68v50h1550v-500h-50l-500 400h-100v-450l300 250v-550l-300 250v-500h50l550 450h50v-550z" />
    <glyph glyph-name="f" unicode="f" horiz-adv-x="1650" 
d="M1550 650l-350 300l-250 150h-50v-450l300 250v-550l-300 250v-300q0 -124 146 -194q116 -56 254 -56v-50h-1400v50q95 0 191 68q109 78 109 182v600q0 105 -108 182q-96 68 -192 68v50h1650v-550z" />
    <glyph glyph-name="g" unicode="g" horiz-adv-x="1450" 
d="M1400 0q-32 0 -77 -3q-102 -7 -189 -22q-127 -22 -234 -62v78q-52 -8 -112 -11.5t-138 -3.5q-268 0 -431 162q-169 168 -169 462q0 303 151.5 463.5t448.5 160.5q60 -3 143 -7t270.5 -10.5t286.5 -6.5v-500h-100q0 173 -77 283q-82 117 -223 117q-93 0 -153 -81
q-51 -69 -76 -192q-21 -104 -21 -227q0 -181 40 -305q51 -159 160 -189v494q65 -14 105 -19t95 -5q88 0 144 2t156 22v-600z" />
    <glyph glyph-name="h" unicode="h" horiz-adv-x="2000" 
d="M2100 0h-2200v50q95 0 191 68q109 78 109 182v600q0 105 -108 182q-96 68 -192 68v50h2200v-50q-95 0 -191 -68q-109 -78 -109 -182v-600q0 -105 108 -182q96 -68 192 -68v-50zM1200 650v250q0 77 -63 143q-55 57 -137 87q-82 -30 -137 -87q-63 -65 -63 -143v-250h400z
M1200 300v250h-400v-250q0 -77 63 -143q55 -57 137 -87q82 30 137 87q63 65 63 143z" />
    <glyph glyph-name="i" unicode="i" horiz-adv-x="1000" 
d="M1100 0h-1200v50q95 0 191 68q109 78 109 182v600q0 105 -108 182q-96 68 -192 68v50h1200v-50q-95 0 -191 -68q-109 -78 -109 -182v-600q0 -105 108 -182q96 -68 192 -68v-50z" />
    <glyph glyph-name="j" unicode="j" horiz-adv-x="1400" 
d="M1500 1150q-95 0 -191 -68q-109 -78 -109 -182v-600q0 -116 -89 -208t-211 -92h-500q-145 0 -240 42.5t-210 157.5l150 200q0 -163 65 -250q75 -100 235 -100q87 0 146 84q54 77 54 166v600q0 128 -125 194q-106 56 -275 56v50h1300v-50z" />
    <glyph glyph-name="k" unicode="k" horiz-adv-x="1700" 
d="M1800 0h-450q-139 0 -242 83q-108 87 -108 217v100q0 70 -63 112q-57 38 -137 38v-250q0 -104 56 -182q49 -68 94 -68v-50h-1050v50q95 0 191 68q109 78 109 182v600q0 105 -108 182q-96 68 -192 68v50h1050v-50q-44 0 -93 -68q-57 -80 -57 -182v-250q80 0 137 38
q63 42 63 112v100q0 130 108 217q103 83 242 83h450v-50q-80 0 -137 -38q-63 -42 -63 -112v-100q0 -130 -108 -217q-103 -83 -242 -83q138 0 241 -83q109 -88 109 -217v-100q0 -70 63 -112q57 -38 137 -38v-50z" />
    <glyph glyph-name="l" unicode="l" horiz-adv-x="1550" 
d="M1450 0h-1550v50q95 0 191 68q109 78 109 182v600q0 105 -108 182q-96 68 -192 68v50h1200v-50q-95 0 -191 -68q-109 -78 -109 -182v-800h50l550 450h50v-550z" />
    <glyph glyph-name="m" unicode="m" horiz-adv-x="1950" 
d="M2050 0h-1100v50q102 0 176 73t74 177v600l-350 -900h-150l-350 800v-500q0 -104 73 -177t177 -73v-50h-650v50q119 0 207 68q93 72 93 182v600q0 110 -93 182q-88 68 -207 68v50h800l250 -500l200 500h850v-50q-119 0 -207 -68q-93 -72 -93 -182v-600q0 -110 93 -182
q88 -68 207 -68v-50z" />
    <glyph glyph-name="n" unicode="n" horiz-adv-x="1500" 
d="M1650 1150h-50q-124 0 -212 -88t-88 -212v-850h-400l-600 800v-500q0 -110 93 -182q88 -68 207 -68h50v-50h-800v50h50q130 0 202 106q59 87 82 251q16 115 16 293v200q-17 17 -78 99q-52 70 -94 103q-61 48 -128 48h-50v50h850l500 -600v250q0 124 -88 212t-212 88h-50
v50h800v-50z" />
    <glyph glyph-name="o" unicode="o" horiz-adv-x="1500" 
d="M1600 600q0 -187 -120 -329q-109 -129 -299 -202q-179 -69 -381 -69q-317 0 -546 153q-254 170 -254 447q0 187 120 329q109 129 299 202q179 69 381 69q317 0 546 -153q254 -170 254 -447zM950 600q0 196 -5 263q-9 119 -39 174q-34 63 -106 63q-71 0 -105 -63
q-30 -55 -37.5 -154.5t-7.5 -282.5q0 -196 5 -263q9 -119 39 -174q34 -63 106 -63q71 0 105 63q30 55 39 174q6 80 6 263z" />
    <glyph glyph-name="p" unicode="p" horiz-adv-x="1700" 
d="M1650 900q0 -139 -83 -242q-87 -108 -217 -108h-550v-250q0 -104 73 -177t177 -73v-50h-1150v50q119 0 207 68q93 72 93 182v600q0 110 -93 182q-88 68 -207 68v50h1450q124 0 212 -88t88 -212zM1050 850q1 6 1 12.5v10.5q0 90 -69 159t-160 69q-14 0 -22 -1v-450
q7 -1 13 -1h13q85 0 149.5 57.5t74.5 143.5z" />
    <glyph glyph-name="q" unicode="q" horiz-adv-x="1500" 
d="M1600 -100h-450q-75 0 -144.5 27t-120.5 76l-85 -3q-317 0 -546 153q-254 170 -254 447q0 187 120 329q109 129 299 202q179 69 381 69q317 0 546 -153q254 -170 254 -447q0 -125 -54 -230q-50 -98 -146 -177v-93q0 -70 63 -112q57 -38 137 -38v-50zM950 600
q0 196 -5 263q-9 119 -39 174q-34 63 -106 63q-71 0 -105 -63q-30 -55 -37.5 -154.5t-7.5 -282.5q0 -196 5 -263q9 -119 39 -174q34 -63 106 -63q71 0 105 63q30 55 39 174q6 80 6 263z" />
    <glyph glyph-name="r" unicode="r" horiz-adv-x="1700" 
d="M1800 0h-450q-139 0 -242 83q-108 87 -108 217v100q0 70 -63 112q-57 38 -137 38v-250q0 -104 73 -177t177 -73v-50h-1150v50q119 0 207 68q93 72 93 182v600q0 110 -93 182q-88 68 -207 68v50h1450q124 0 212 -88t88 -212q0 -121 -91.5 -210.5t-208.5 -89.5v-50
q170 0 228 -129q30 -121 61 -241q39 -130 161 -130v-50zM1050 850q1 6 1 12.5v10.5q0 90 -69 159t-160 69q-14 0 -22 -1v-450q7 -1 13 -1h13q85 0 149.5 57.5t74.5 143.5z" />
    <glyph glyph-name="s" unicode="s" horiz-adv-x="1500" 
d="M1500 400q0 -179 -156 -294q-144 -106 -344 -106h-900v400q30 -39 60 -77q77 -91 149 -145q104 -78 191 -78h300q39 0 65 28t35 72q3 14 3 26q0 45 -29.5 81.5t-73.5 42.5l-400 50q-139 17 -222 136q-78 111 -78 264q0 165 117.5 282.5t282.5 117.5h900v-350l-62 64
q-78 75 -152 121q-104 65 -186 65h-300q-39 0 -65 -28t-35 -72q-3 -14 -3 -26q0 -47 29 -83.5t74 -40.5l500 -50q139 -14 223 -134q77 -111 77 -266z" />
    <glyph glyph-name="t" unicode="t" horiz-adv-x="1500" 
d="M1500 550h-50q0 45 -103 187q-68 94 -193 242q-102 121 -104 121v-700q0 -146 102 -248t248 -102v-50h-1300v50q146 0 248 102t102 248v700q-2 0 -103 -120q-125 -148 -193 -242q-104 -143 -104 -188h-50v650h1500v-650z" />
    <glyph glyph-name="u" unicode="u" horiz-adv-x="1600" 
d="M1750 1150h-50q-110 0 -206 -84q-92 -81 -92 -166v-550q0 -129 -89 -237q-93 -113 -213 -113h-550q-122 0 -211 89t-89 211v500q0 130 -83 236q-90 114 -217 114h-50v50h1850v-50zM1300 600q0 147 -10 224q-16 127 -61 194q-54 82 -154 82q-99 0 -153 -82
q-45 -67 -61 -193q-11 -85 -11 -225q0 -147 10 -224q16 -127 61 -194q54 -82 154 -82q99 0 153 82q45 67 61 193q11 85 11 225z" />
    <glyph glyph-name="v" unicode="v" horiz-adv-x="1700" 
d="M1800 1150q-119 0 -212 -70q-86 -65 -137 -180l-401 -900h-600v50q41 0 75 36t34 77q0 19 -9 37l-350 700q-60 121 -118 176q-77 74 -182 74v50h1900v-50zM1300 900q9 21 9 46q0 79 -92 144q-84 60 -167 60q-99 0 -201 -62q-110 -67 -110 -144q0 -20 11 -44l300 -600z
" />
    <glyph glyph-name="w" unicode="w" horiz-adv-x="2500" 
d="M2779 1150q-77 0 -124 -32q-40 -27 -70 -87q-1 -3 -56 -131l-381 -900h-548l-250 500l-224 -500h-676v50q41 0 75 36t34 77q0 19 -9 37l-350 700q-60 121 -118 176q-77 74 -182 74v50h1150v-50q-92 0 -177.5 -60.5t-85.5 -136.5q0 -27 13 -53l300 -600l400 900h175
l450 -900l250 600q24 56 24 113q0 62 -31 99.5t-89 37.5v50h500v-50z" />
    <glyph glyph-name="x" unicode="x" horiz-adv-x="1250" 
d="M1450 1150q-104 0 -178 -50q-69 -46 -122 -143l-198 -361l148 -296q60 -121 118 -176q77 -74 182 -74v-50h-1550v50q104 0 178 50q69 46 122 143l198 361l-148 296q-60 121 -118 176q-77 74 -182 74v50h1550v-50zM1050 1000q8 18 8 32q0 45 -51.5 81.5t-106.5 36.5
q-56 0 -107 -36t-51 -82q0 -14 8 -32l150 -300zM550 200l-150 300l-150 -300q-8 -18 -8 -32q0 -45 51.5 -81.5t106.5 -36.5q56 0 107 36t51 82q0 14 -8 32z" />
    <glyph glyph-name="y" unicode="y" horiz-adv-x="1250" 
d="M1500 1150q-105 0 -179 -48.5t-121 -144.5l-200 -407v-250q0 -106 70 -182q63 -68 130 -68v-50h-1000v50q53 0 120 67q80 80 80 183v250l-200 350q-47 83 -77 123q-45 61 -94 91q-58 36 -129 36v50h1600v-50zM1100 1000q8 18 8 32q0 45 -51.5 81.5t-106.5 36.5
q-56 0 -107 -36t-51 -82q0 -14 8 -32l150 -300z" />
    <glyph glyph-name="z" unicode="z" horiz-adv-x="1350" 
d="M1350 0h-1350l650 1100h-50q-72 -36 -127 -69.5t-123 -80.5q-113 -79 -184 -139.5t-166 -160.5v550h1350l-650 -1100h50q72 36 127 69.5t123 80.5q113 79 184 139.5t166 160.5v-550z" />
    <glyph glyph-name="braceleft" unicode="{" 
d="M1360 640h-480q0 44 -21.5 80.5t-58.5 57.5l240 416q149 -86 232 -225q88 -147 88 -329zM840 640q0 -50 -35 -85t-85 -35t-85 35t-35 85t35 85t85 35t85 -35t35 -85zM640 778q-37 -22 -58.5 -57t-21.5 -81h-480q0 182 88 329q83 139 232 225zM1040 86q-73 -44 -149 -65
t-171 -21t-169 21t-151 65l240 416q38 -22 80 -22q25 0 42 4.5t38 16.5z" />
    <glyph glyph-name="bar" unicode="|" 
d="M1360 640h-480q0 44 -21.5 80.5t-58.5 57.5l240 416q149 -86 232 -225q88 -147 88 -329zM840 640q0 -50 -35 -85t-85 -35t-85 35t-35 85t35 85t85 35t85 -35t35 -85zM640 778q-37 -22 -58.5 -57t-21.5 -81h-480q0 182 88 329q83 139 232 225zM1040 86q-73 -44 -149 -65
t-171 -21t-169 21t-151 65l240 416q38 -22 80 -22q25 0 42 4.5t38 16.5z" />
    <glyph glyph-name="braceright" unicode="}" 
d="M1360 640h-480q0 44 -21.5 80.5t-58.5 57.5l240 416q149 -86 232 -225q88 -147 88 -329zM840 640q0 -50 -35 -85t-85 -35t-85 35t-35 85t35 85t85 35t85 -35t35 -85zM640 778q-37 -22 -58.5 -57t-21.5 -81h-480q0 182 88 329q83 139 232 225zM1040 86q-73 -44 -149 -65
t-171 -21t-169 21t-151 65l240 416q38 -22 80 -22q25 0 42 4.5t38 16.5z" />
    <glyph glyph-name="asciitilde" unicode="~" 
d="M1360 640h-480q0 44 -21.5 80.5t-58.5 57.5l240 416q149 -86 232 -225q88 -147 88 -329zM840 640q0 -50 -35 -85t-85 -35t-85 35t-35 85t35 85t85 35t85 -35t35 -85zM640 778q-37 -22 -58.5 -57t-21.5 -81h-480q0 182 88 329q83 139 232 225zM1040 86q-73 -44 -149 -65
t-171 -21t-169 21t-151 65l240 416q38 -22 80 -22q25 0 42 4.5t38 16.5z" />
  </font>
</defs>
</svg>
