<?xml version="1.0" standalone="no"?>
<!DOCTYPE svg PUBLIC "-//W3C//DTD SVG 1.1//EN" "http://www.w3.org/Graphics/SVG/1.1/DTD/svg11.dtd" >
<svg>
<metadata>
Created by FontForge 20120731 at Fri Oct 18 13:58:00 2019
 By www-data
Together Again (c) (TattooWoo.com). 2012. All Rights Reserved
</metadata>
<defs>
<font id="TogetherAgain" horiz-adv-x="1014" >
  <font-face 
    font-family="Together Again"
    font-weight="400"
    font-stretch="normal"
    units-per-em="2048"
    panose-1="2 0 5 0 0 0 0 0 0 0"
    ascent="1638"
    descent="-410"
    x-height="861"
    cap-height="1725"
    bbox="-778 -418 2048 1725"
    underline-thickness="150"
    underline-position="-142"
    unicode-range="U+0020-F002"
  />
<missing-glyph horiz-adv-x="1024" 
d="M100 0v1434h824v-1434h-824zM150 50h724v1334h-724v-1334zM325 1148q31 28 58 43q53 30 112 30q92 0 148 -47.5t56 -127.5q0 -49 -23 -98.5t-87 -129.5q-63 -80 -99 -132t-36 -99q0 -38 24 -133h-32q-35 97 -35 148q0 76 81.5 218t81.5 217q0 57 -33 90t-91 33
q-38 0 -69 -17q-26 -15 -56 -40v45zM389 334l57 58q11 10 20 10q10 0 22 -11l56 -60q9 -11 9 -20q0 -11 -10 -22l-56 -62q-14 -14 -21 -14q-11 0 -20 10l-61 71q-7 9 -7 18q0 10 11 22z" />
    <glyph glyph-name=".notdef" horiz-adv-x="1024" 
d="M100 0v1434h824v-1434h-824zM150 50h724v1334h-724v-1334zM325 1148q31 28 58 43q53 30 112 30q92 0 148 -47.5t56 -127.5q0 -49 -23 -98.5t-87 -129.5q-63 -80 -99 -132t-36 -99q0 -38 24 -133h-32q-35 97 -35 148q0 76 81.5 218t81.5 217q0 57 -33 90t-91 33
q-38 0 -69 -17q-26 -15 -56 -40v45zM389 334l57 58q11 10 20 10q10 0 22 -11l56 -60q9 -11 9 -20q0 -11 -10 -22l-56 -62q-14 -14 -21 -14q-11 0 -20 10l-61 71q-7 9 -7 18q0 10 11 22z" />
    <glyph glyph-name="NULL" horiz-adv-x="0" 
 />
    <glyph glyph-name="nonmarkingreturn" horiz-adv-x="508" 
 />
    <glyph glyph-name="space" unicode=" " horiz-adv-x="508" 
 />
    <glyph glyph-name="space" unicode="&#xa0;" horiz-adv-x="508" 
 />
    <glyph glyph-name="exclam" unicode="!" horiz-adv-x="672" 
d="M313 328l-49 1036q0 46 21 69t62 23q42 0 62.5 -23t20.5 -69l-80 -1036h-37zM223 167l82 84q15 14 29 14q13 0 31 -16l80 -86q12 -16 12 -29q0 -15 -14 -31l-80 -88q-20 -20 -29 -20q-16 0 -29 14l-88 101q-10 13 -10 26q0 15 16 31z" />
    <glyph glyph-name="quotedbl" unicode="&#x22;" horiz-adv-x="672" 
d="M197 1108h-30l-62 359q-4 23 -4 33q0 37 20.5 57t59.5 20t60.5 -19.5t21.5 -56.5q0 -8 -4 -34zM509 1108h-30l-62 359q-4 23 -4 33q0 37 20.5 57t59.5 20t60.5 -19.5t21.5 -56.5q0 -8 -4 -34z" />
    <glyph glyph-name="numbersign" unicode="#" horiz-adv-x="1336" 
d="M596 859l-85 -290h242l86 290h-243zM673 1434h93l-141 -477h242l142 477h92l-141 -477h259l-29 -97h-259l-83 -290h279l-30 -98h-280l-140 -472h-92l139 472h-240l-142 -472h-92l140 472h-273l30 98h271l86 290h-295l29 97h295z" />
    <glyph glyph-name="dollar" unicode="$" 
d="M577 1552v-102q68 -8 141 -35q10 -6 19 -6q25 0 41 45h50l103 -282h-49q-60 134 -168 179q-74 30 -137 39v-540q241 -93 322.5 -183t81.5 -264q0 -197 -119.5 -300t-284.5 -120v-239h-73v237q-188 3 -266 38q-10 6 -19 6q-25 0 -41 -45h-50v331h49q50 -183 152.5 -226
t174.5 -43v635q-214 67 -299 153q-92 91 -92 249q0 166 125 271q105 88 266 102v100h73zM577 655v-610q125 17 211.5 96t86.5 219q0 116 -69 183q-62 59 -229 112zM504 873v520q-119 -5 -199 -72q-86 -73 -86 -182q0 -98 55 -153q52 -54 230 -113z" />
    <glyph glyph-name="percent" unicode="%" horiz-adv-x="1610" 
d="M449 1459q98 0 190.5 -49t144.5 -139.5t52 -190.5q0 -99 -50.5 -188.5t-143 -140t-193.5 -50.5q-100 0 -192.5 50.5t-143.5 140t-51 188.5q0 100 52 190.5t144.5 139.5t190.5 49zM206 1066q13 -92 55.5 -173.5t106.5 -124.5q57 -40 114 -40q7 0 13 1q63 3 115 53t73 136
q13 54 13 111q0 32 -4 65q-12 93 -56 175.5t-107 124.5q-58 38 -115 38h-11q-61 -3 -113 -52t-73 -135q-15 -58 -15 -117q0 -31 4 -62zM297 -29l940 1461h84l-938 -1461h-86zM1161 738q97 0 190 -49.5t145 -140t52 -189.5q0 -100 -50.5 -189.5t-143 -139.5t-193.5 -50
t-193 50t-143 139.5t-51 189.5q0 99 52 189.5t144.5 140t190.5 49.5zM918 344q13 -92 55.5 -173.5t106.5 -124.5q59 -39 116 -39h11q63 3 115 53t73 136q13 54 13 111q0 32 -4 65q-12 93 -56 175.5t-107 124.5q-58 38 -115 38h-11q-61 -3 -113 -52t-73 -135
q-15 -58 -15 -117q0 -31 4 -62z" />
    <glyph glyph-name="ampersand" unicode="&#x26;" horiz-adv-x="1683" 
d="M1051 196l-554 683q-118 0 -179.5 -86t-61.5 -204q0 -91 35.5 -181.5t101.5 -164.5q72 -83 165 -127t194 -44q88 0 169 33.5t130 90.5zM1394 0q-56 0 -139 25t-167 132q-67 -74 -175 -123.5t-241 -49.5q-229 0 -374.5 150.5t-145.5 385.5q0 161 76 266.5t225 151.5
q-42 61 -62.5 116t-20.5 111q0 105 77 197t182 92q68 0 142 -39q9 -6 18 -6q23 0 38 45h46l96 -281h-46q-55 133 -155 178q-85 37 -141 37q-65 0 -106 -45.5t-41 -117.5q0 -131 102 -267l531 -670q98 146 121 244q17 78 17 130q0 97 -62 97h-90v50h443v-50h-90
q-95 0 -145 -227q-31 -132 -155 -292q109 -136 248 -136h16q143 17 192 128l49 -1l-103 -231h-160z" />
    <glyph glyph-name="quotesingle" unicode="'" horiz-adv-x="346" 
d="M197 1108h-30l-62 359q-4 23 -4 33q0 37 20.5 57t59.5 20t60.5 -19.5t21.5 -56.5q0 -8 -4 -34z" />
    <glyph glyph-name="parenleft" unicode="(" horiz-adv-x="758" 
d="M252 601q2 277 99.5 530t268.5 442h80q-172 -242 -230 -438q-57 -193 -57 -523v-22q0 -330 57 -522q58 -196 230 -438h-80q-171 189 -268.5 441.5t-99.5 529.5z" />
    <glyph glyph-name="parenright" unicode=")" horiz-adv-x="758" 
d="M138 -370h-80q172 242 230 438q57 192 57 522v22q0 330 -57 523q-58 196 -230 438h80q171 -189 268.5 -442t99.5 -530q-2 -277 -99.5 -529.5t-268.5 -441.5z" />
    <glyph glyph-name="asterisk" unicode="*" horiz-adv-x="1024" 
d="M498 1294q-4 71 -37 130q-37 66 -37 84q0 32 23.5 51.5t62.5 19.5q37 0 61.5 -18t24.5 -47q0 -21 -36 -89q-33 -61 -37 -130q66 25 113 75q51 55 69 61q11 3 21 3q18 0 35 -10q26 -17 38 -53q6 -19 6 -36q0 -15 -4 -28q-10 -30 -38 -38q-6 -2 -19 -2q-25 0 -76 9
q-28 5 -55 5q-41 0 -81 -11q44 -55 105 -83q68 -32 79 -47q13 -18 13 -38q0 -9 -2 -17q-8 -30 -39 -53q-29 -22 -59 -22q-1 0 -1 1q-31 0 -48 23q-12 17 -22 94q-10 67 -47 125q-38 -58 -46 -124q-9 -75 -20 -90q-19 -25 -49 -27h-5q-28 0 -57 21q-30 21 -39 51q-4 10 -4 20
q0 17 11 32q13 17 83 51q61 29 105 82q-41 11 -80 11q-27 0 -53 -5q-54 -11 -78 -11q-9 0 -14 2q-30 9 -41 38q-6 13 -6 29q0 17 6 36q11 35 36 53q17 12 34 12q9 0 18 -3q20 -6 74 -62q47 -49 112 -75z" />
    <glyph glyph-name="plus" unicode="+" 
d="M437 647h-350v140h350v369l1 1h139v-370h349l1 -1v-139h-350v-370h-140v370z" />
    <glyph glyph-name="comma" unicode="," horiz-adv-x="557" 
d="M238 258q44 0 88.5 -65.5t44.5 -151.5q0 -109 -71 -226.5t-139 -117.5v43q73 43 87 190q0 119 -129 161v42z" />
    <glyph glyph-name="hyphen" unicode="-" horiz-adv-x="670" 
d="M156 409q-40 0 -40 28v83q0 29 41 29h356q41 0 41 -29v-83q0 -28 -40 -28h-358z" />
    <glyph glyph-name="hyphen" unicode="&#xad;" horiz-adv-x="670" 
d="M156 409q-40 0 -40 28v83q0 29 41 29h356q41 0 41 -29v-83q0 -28 -40 -28h-358z" />
    <glyph glyph-name="period" unicode="." horiz-adv-x="557" 
d="M145 167l82 84q15 14 29 14q13 0 31 -16l80 -86q12 -16 12 -29q0 -15 -14 -31l-80 -88q-20 -20 -29 -20q-16 0 -29 14l-88 101q-10 13 -10 26q0 15 16 31z" />
    <glyph glyph-name="slash" unicode="/" horiz-adv-x="569" 
d="M93 -50h-80l541 1484h80z" />
    <glyph glyph-name="zero" unicode="0" 
d="M507 1459q108 0 211 -96t161 -274t58 -372t-56.5 -370t-159 -274t-214.5 -98t-214.5 98t-159 274t-56.5 370t57.5 372t160.5 274t212 96zM237 689q14 -180 61.5 -340t118.5 -244q65 -78 129 -78q6 0 12 1q70 7 127.5 104.5t81.5 265.5q15 107 15 220q0 62 -5 126
q-14 181 -62.5 343t-119.5 244q-65 76 -128 76q-6 0 -11 -1q-68 -7 -126 -102.5t-82 -264.5q-16 -110 -16 -225q0 -62 5 -125z" />
    <glyph glyph-name="one" unicode="1" 
d="M234 0v50h96q103 0 103 235v794q0 129 -117 129h-98v50q292 63 327 176h50v-1149q0 -235 103 -235h96v-50h-560z" />
    <glyph glyph-name="two" unicode="2" 
d="M722 1036q0 148 -86 245t-186 97q-170 0 -275 -131h-22v49q39 50 115 104t185 54q183 0 306.5 -121t123.5 -297q0 -262 -627 -916h422q130 0 209 112h49l-103 -232h-719l1 50q607 675 607 986z" />
    <glyph glyph-name="three" unicode="3" 
d="M435 22q151 0 218 116.5t67 280.5q0 104 -44.5 205.5t-176.5 148.5v19q81 45 144 120.5t63 209.5q0 110 -55 189.5t-166 92.5q-68 0 -123.5 -45t-55.5 -111h-42v159q0 20 73.5 33.5t155.5 13.5q155 0 257 -84t102 -249q0 -87 -61 -166t-193 -139q93 -14 195 -134.5
t102 -278.5q0 -163 -144 -294t-325 -131q-152 0 -247.5 39t-95.5 88v100h49q0 -83 86 -133t217 -50z" />
    <glyph glyph-name="four" unicode="4" 
d="M600 438v686l-424 -686h424zM737 338v-171q0 -117 72 -117h76v-50h-442v50h76q81 0 81 120v168h-557v35l660 1061h34v-996h19q133 0 193 132h49l-103 -232h-158z" />
    <glyph glyph-name="five" unicode="5" 
d="M229 852l144 582h396q103 0 112 52h50l-63 -172h-429l-104 -415q226 0 388 -124.5t162 -300.5q0 -234 -143.5 -365t-324.5 -131q-152 0 -248 39q-92 37 -92 82v106h46q0 -88 86 -135.5t217 -47.5q151 0 217.5 116.5t66.5 347.5q0 159 -110 265t-285 106q-40 0 -86 -5z
" />
    <glyph glyph-name="six" unicode="6" 
d="M558 11q101 0 163 98.5t62 247.5q0 203 -100 333.5t-216 130.5q-91 0 -163 -101.5t-72 -250.5q0 -153 95.5 -305.5t230.5 -152.5zM801 1459v-48q-177 -12 -326.5 -179.5t-233.5 -467.5q96 93 266 93q108 0 211 -57t161 -162.5t58 -221.5t-56.5 -220.5t-144 -162.5
t-169.5 -58q-243 0 -366.5 162.5t-123.5 372.5q0 320 209 634.5t515 314.5z" />
    <glyph glyph-name="seven" unicode="7" 
d="M737 1314h-399q-133 0 -192 -112h-50l103 232h719l-1 -50q-370 -866 -370 -1205q0 -129 67 -129h117v-50h-411v50h67q72 0 72 131q19 296 278 1133z" />
    <glyph glyph-name="eight" unicode="8" 
d="M552 830q121 25 156 124q27 75 27 140q0 20 -3 39q-12 81 -52.5 154t-99.5 110q-55 33 -106 33h-9q-57 -3 -105.5 -46t-68.5 -119q-13 -49 -13 -100q0 -28 4 -57q12 -80 51.5 -152t218.5 -126zM472 785q-114 -21 -181 -157q-56 -115 -56 -206q0 -18 2 -35
q14 -104 61.5 -196.5t118.5 -140.5q64 -44 128 -44h13q70 4 127.5 60t81.5 153q15 62 15 127q0 36 -5 73q-11 112 -73.5 212.5t-231.5 153.5zM636 811q42 -14 82 -35q103 -56 161 -158.5t58 -214.5t-56.5 -213.5t-159 -158t-214.5 -56.5t-214.5 56.5t-159 158t-56.5 213.5
t57.5 214.5t160.5 158.5q41 21 82 35q-24 9 -48 21q-86 44 -133 123t-47 166t48 167t133.5 123t176.5 43q90 0 176 -43t134 -123t48 -167t-47 -166t-132 -123q-25 -13 -50 -21z" />
    <glyph glyph-name="nine" unicode="9" 
d="M456 1423q-101 0 -162.5 -98.5t-61.5 -247.5q0 -203 100 -333.5t215 -130.5q91 0 163.5 101.5t72.5 250.5q0 153 -96 305.5t-231 152.5zM213 -25v48q177 12 326.5 179.5t233.5 467.5q-95 -93 -266 -93q-108 0 -211 57t-161 162.5t-58 221.5t56.5 220.5t144 162.5
t169.5 58q243 0 366.5 -162.5t123.5 -372.5q0 -320 -209 -634.5t-515 -314.5z" />
    <glyph glyph-name="colon" unicode=":" horiz-adv-x="557" 
d="M145 167l82 84q15 14 29 14q13 0 31 -16l80 -86q12 -16 12 -29q0 -15 -14 -31l-80 -88q-20 -20 -29 -20q-16 0 -29 14l-88 101q-10 13 -10 26q0 15 16 31zM145 860l82 84q15 14 29 14q13 0 31 -16l80 -86q12 -16 12 -29q0 -15 -14 -31l-80 -88q-20 -20 -29 -20
q-16 0 -29 14l-88 101q-10 13 -10 26q0 15 16 31z" />
    <glyph glyph-name="semicolon" unicode=";" horiz-adv-x="557" 
d="M145 859l82 84q15 14 29 14q13 0 31 -16l80 -86q12 -16 12 -29q0 -15 -14 -31l-80 -88q-20 -20 -29 -20q-16 0 -29 14l-88 101q-10 13 -10 26q0 15 16 31zM238 258q44 0 88.5 -65.5t44.5 -151.5q0 -109 -71 -226.5t-139 -117.5v43q73 43 87 190q0 119 -129 161v42z" />
    <glyph glyph-name="semicolon" unicode="&#x37e;" horiz-adv-x="557" 
d="M145 859l82 84q15 14 29 14q13 0 31 -16l80 -86q12 -16 12 -29q0 -15 -14 -31l-80 -88q-20 -20 -29 -20q-16 0 -29 14l-88 101q-10 13 -10 26q0 15 16 31zM238 258q44 0 88.5 -65.5t44.5 -151.5q0 -109 -71 -226.5t-139 -117.5v43q73 43 87 190q0 119 -129 161v42z" />
    <glyph glyph-name="less" unicode="&#x3c;" 
d="M927 1074l-625 -359l625 -355v-167l-840 481v83l840 484v-167z" />
    <glyph glyph-name="equal" unicode="=" 
d="M87 631h840v-140h-840v140zM87 943h840v-140h-840v140z" />
    <glyph glyph-name="greater" unicode="&#x3e;" 
d="M87 1241l840 -484v-83l-840 -481v167l625 355l-625 359v167z" />
    <glyph glyph-name="question" unicode="?" horiz-adv-x="748" 
d="M132 1330q128 104 242 104q132 0 212 -68t80 -182q0 -69 -32.5 -140t-124.5 -186q-90 -113 -141.5 -187.5t-51.5 -142.5q0 -63 35 -189h-47q-50 138 -50 211q0 109 116.5 312t116.5 309q0 82 -47 129t-130 47q-84 0 -178 -81v64zM223 167l82 84q15 14 29 14q13 0 31 -16
l80 -86q12 -16 12 -29q0 -15 -14 -31l-80 -88q-20 -20 -29 -20q-16 0 -29 14l-88 101q-10 13 -10 26q0 15 16 31z" />
    <glyph glyph-name="at" unicode="@" horiz-adv-x="2019" 
d="M972 622q-83 -10 -151 -80t-68 -199q0 -107 64 -194t183 -87q97 5 126 167v476q-54 -63 -154 -83zM1360 29q-63 1 -100.5 18t-61.5 54q-29 -37 -82 -64.5t-133 -27.5q-144 0 -256.5 100.5t-112.5 233.5q1 87 53 166.5t132.5 115t173.5 49.5q67 16 110 42.5t43 74.5
q-2 69 -41 125t-129 56q-72 0 -121.5 -59t-50.5 -125h-45v159q0 20 72 40q73 20 178 20q109 -2 193.5 -64.5t84.5 -157.5v-589q0 -117 94 -117q185 35 267 191.5t82 382.5q-20 335 -232 540q-197 188 -480 188q-205 0 -392.5 -137.5t-269.5 -355.5q-67 -178 -67 -361
q0 -313 129.5 -511.5t305 -290.5t318.5 -92q274 0 575 208v-75q-263 -184 -571 -184q-240 0 -461 122.5t-343 342t-122 461.5t124 464.5t345.5 342t456.5 119.5q362 0 609 -230t247 -566q0 -270 -176 -439q-175 -168 -346 -170z" />
    <glyph glyph-name="A" unicode="A" horiz-adv-x="1078" 
d="M669 1430q17 0 44 -167q26 -72 65 -276l49 -224l13 -87h8q167 108 272 201q0 7 48 62h9q9 -1 9 -9v-9q0 -51 -140 -171q-162 -107 -189 -136l35 -114l123 -552q9 0 9 -22v-26q-11 -22 -35 -22h-13q-22 0 -57 224q-53 260 -88 398q-30 75 -40 75h-4q-142 -86 -263 -132
q-174 -451 -412 -451q-45 0 -92 74v66q16 27 22 27h4q15 0 27 -71q20 -43 52 -43q78 0 189 114q90 114 144 267v4h-17q-194 0 -285 198q0 18 -4 35q0 74 135 179q85 31 145 31q75 -4 75 -13q8 4 13 4q58 -22 65 -22h5v14q22 124 35 302q-4 8 -4 22q0 4 4 4q0 5 -4 5l4 52
v101l-13 44q0 42 57 44zM678 1167v-5l4 -26q-4 -9 -4 -13t4 -4q0 -36 -40 -312h5q68 -37 131 -114h5v5q0 19 -44 193q4 8 4 13q-8 0 -44 206q-6 0 -13 57h-8zM217 649v-8q42 -85 110 -123q60 -26 74 -26h57q37 0 44 39q70 206 70 250q-72 39 -162 39q-9 -4 -13 -4v4
q-180 -43 -180 -171zM625 750q-22 -110 -70 -228v-4q33 0 210 105q-37 55 -136 127h-4z" />
    <glyph glyph-name="B" unicode="B" horiz-adv-x="900" 
d="M371 1436h65q9 0 15 -4l8 4q153 -21 173 -38q97 -58 111 -104q13 0 61 -77q13 -18 39 -130v-4q0 -12 -4 -19l4 -23q0 -304 -288 -411q-54 -23 -123 -42v-42l131 -23q6 4 15 4q0 -8 11 -8q4 0 4 4l19 -4h35q8 -1 8 -8l7 4q154 -56 154 -130q38 -72 38 -127
q0 -164 -146 -246q-48 -15 -80 -15h-23q-49 0 -127 42q-40 21 -100 77q-37 -115 -115 -165q-45 -23 -57 -23h-16q-99 13 -99 119q3 8 3 11q0 4 -3 4q0 139 111 192q22 0 27 4l23 -4h27q29 -9 73 -34q19 83 26 203l-3 8q7 19 7 69q-141 38 -257 38q-17 8 -19 15v16
q10 27 42 27h46q73 0 184 27q-7 107 -19 176q-52 -11 -84 -11q-169 0 -257 222q-8 27 -8 42q0 103 92 227q38 75 157 130q60 27 112 27zM64 1060q0 -75 88 -177q58 -49 115 -49q85 5 85 19q-39 236 -62 318v4q15 12 27 12h4q28 0 80 -323h4q126 51 184 104h12q8 -1 8 -8v-19
q-31 -56 -169 -111l-31 -16l15 -111h-3l3 -8v-46q0 -5 12 -11q196 62 265 134q92 107 92 219q4 0 4 15q0 4 -4 12l4 15q-4 21 -4 31l4 15l-23 92q-100 173 -192 192q-90 27 -177 27h-38q-107 0 -204 -107q-99 -123 -99 -223zM332 565v-4q40 -4 46 -8q0 9 4 16q-7 4 -11 4
q-35 -8 -39 -8zM428 484q0 -133 -30 -299q46 -72 122 -107q0 -12 96 -27h31q9 0 15 4q8 -4 12 -4q0 6 42 19q76 64 88 130l4 8v31q0 8 4 15q0 43 -54 150q-74 61 -146 61l-7 -4q-39 12 -169 31q-8 -1 -8 -8zM137 70q6 -92 53 -92h8q43 0 100 73q30 62 42 115q-51 38 -88 38
h-35q-49 0 -73 -92q-4 -36 -7 -42z" />
    <glyph glyph-name="C" unicode="C" horiz-adv-x="802" 
d="M748 1439q53 -9 71 -35v-5q0 -65 -243 -272q-92 -61 -237 -102l-88 -149q-132 -219 -185 -537l4 -18q-4 -31 -4 -35q0 -141 84 -198q30 -22 96 -22h14q4 0 4 -4q79 17 154 92q85 117 128 198q15 24 74 163q25 45 44 57h9l18 -13q0 -36 -53 -154q-44 -129 -185 -313
q-93 -92 -185 -92h-39q-118 0 -189 97q-27 57 -27 83q-5 0 -13 31q0 9 4 9l-4 44v18q0 314 255 739h-31q-110 16 -110 35v18q9 17 22 17q68 -17 102 -17q67 0 88 48q146 168 294 269q80 45 128 48zM405 1113h9q114 45 233 163q65 72 79 93h-4q-86 -35 -225 -159
q-53 -49 -92 -97z" />
    <glyph glyph-name="D" unicode="D" horiz-adv-x="1327" 
d="M908 1436h45q127 0 246 -121q79 -96 107 -241q0 -24 5 -41q0 -149 -85 -366q-45 -121 -161 -300q-158 -177 -246 -233q-185 -134 -300 -134q-105 0 -188 157q-18 44 -18 53h-4q-203 -201 -251 -201h-31q-27 10 -27 63v4q0 101 112 237q58 63 143 63q67 -42 67 -63h9
q97 125 197 286q-134 75 -134 238v13q0 228 210 447q145 139 304 139zM452 868q0 -152 94 -219h13q94 162 193 425q30 54 71 179q18 22 22 22h14l18 -13q-15 -87 -112 -300q-68 -187 -157 -331l18 -5q86 0 224 112h4q7 0 14 -13v-14q0 -25 -148 -120q-79 -14 -98 -14h-14
l-31 5q-68 -126 -219 -314q66 -214 161 -214h27q99 0 362 219q203 216 282 461q36 92 58 214q0 5 -4 5q4 45 9 45l-5 9q0 183 -125 313q-96 67 -188 67l-40 -5l-9 5q-84 -13 -166 -63q-161 -142 -170 -188q-98 -167 -98 -268zM67 72q41 13 166 134q48 49 53 62
q-33 50 -71 50h-9q-79 -46 -125 -161q-14 -19 -14 -85z" />
    <glyph glyph-name="E" unicode="E" horiz-adv-x="1015" 
d="M488 1567h21q7 0 20 -21v-10q-150 -178 -159 -288v-10q0 -144 190 -144h36q77 9 236 139q274 190 386 190q0 5 5 5t5 -5l36 5h46q257 -31 257 -118l-15 -10q-137 67 -237 67h-36q-228 0 -601 -355q-155 -159 -164 -159v-16q20 0 20 -5l26 5h87q22 0 57 6l10 -6q28 6 46 6
q12 0 21 -6l31 6h51q17 0 26 -6l31 6h41q31 -18 31 -26v-36q0 -12 -36 -21l-83 16h-318l-31 -5q-5 0 -5 5l-26 -5h-46q-41 -30 -200 -242q-157 -246 -170 -370v-36l15 -10h6q45 0 174 118q130 103 206 103h5q125 0 262 -257l56 -46v-10q0 -21 -61 -21q-61 48 -139 185
q-60 82 -128 82q-75 0 -278 -185q-65 -46 -113 -46q-82 24 -82 82v21q0 208 349 632v5h-20q-122 0 -139 56q4 18 31 31h20q85 -26 165 -26q9 0 190 196h-5q-5 0 -16 -5q-46 5 -56 10l-10 -5q-206 50 -206 200q0 85 93 231q55 73 92 103z" />
    <glyph glyph-name="F" unicode="F" horiz-adv-x="805" 
d="M948 1434h15q26 0 52 -49h-4l4 -7v-26q0 -48 -111 -170q-214 -174 -252 -174q-34 0 -144 -267q-34 -69 -34 -85q28 -11 56 -15q96 11 215 122l14 11h15q8 -1 8 -7v-8q-25 -80 -156 -148q-64 -22 -107 -22h-11q-27 0 -63 11q-92 -204 -104 -204q0 -25 -134 -244
q-102 -151 -144 -152h-19q-44 29 -44 104q0 288 170 596q102 172 171 196q41 0 52 -81q14 -63 33 -104h4q48 129 96 219q15 24 15 33q-84 -18 -152 -18h-19q-63 2 -63 22v7q0 10 41 19q8 0 8 -4q233 16 233 67q63 134 141 233q152 145 218 145zM670 1078h4q119 73 215 170
q63 81 63 115v8q0 7 -7 7h-11q-181 -103 -234 -244q-20 -28 -30 -56zM56 137v-15q3 -52 14 -52q91 102 178 267q111 219 148 300q-42 56 -70 174q-42 -34 -100 -133q-132 -233 -152 -404q-18 -80 -18 -137z" />
    <glyph glyph-name="G" unicode="G" horiz-adv-x="775" 
d="M771 1440q67 0 67 -46q0 -65 -28 -95q-42 -80 -134 -176q-159 -156 -243 -190q-51 -33 -201 -81q-71 -151 -109 -313q-31 -160 -31 -229q0 -169 84 -225q41 -32 92 -32q87 21 140 74q81 113 110 190q10 0 45 137l18 106v7q-42 -32 -81 -32h-56q-40 4 -81 39
q-26 26 -32 67v3q0 88 25 88h10q10 0 21 -7l-3 -17v-35q0 -66 84 -81h11q89 0 123 140q0 32 21 32q0 4 4 4q40 0 46 -18v-21q-29 -125 -53 -296q0 -43 -85 -225q-61 -97 -84 -123q-88 -85 -187 -85h-42q-187 42 -187 289v42q0 121 81 398l46 113h-4q-42 -8 -116 -11
q-25 0 -42 21v21q8 18 35 18q16 0 46 -4q123 11 123 36q47 93 197 267q200 215 254 215q52 35 116 35zM278 930h4q73 14 211 105q190 161 232 240q50 69 50 98v7h-32q-78 -14 -183 -109q-234 -242 -282 -341z" />
    <glyph glyph-name="H" unicode="H" horiz-adv-x="1068" 
d="M317 1454h11q41 0 47 -74q28 -219 67 -219h7q34 3 157 137q55 55 117 136q15 12 35 12q32 -7 32 -35v-12q-98 -416 -192 -672v-8h8q0 13 58 63q180 187 262 289q67 86 137 234q7 1 43 79q26 39 31 39h43q11 0 16 -39v-8q-15 -21 -39 -98l-129 -277q-136 -285 -211 -505
q-24 -37 -78 -226q-24 -99 -24 -129v-12q2 -38 28 -66h4q45 1 152 175q11 20 35 47h12q6 0 15 -15v-24q0 -26 -70 -140l-58 -67q-39 -39 -102 -39q-69 0 -86 129q16 143 47 234q43 104 113 301q63 153 141 317v4q-159 -176 -360 -371q-65 -39 -109 -157q-9 -2 -67 -109
q-81 -123 -183 -223q-77 -74 -161 -74q-66 0 -66 39q0 87 113 188q116 121 125 121q0 7 149 136q117 80 117 133q20 18 98 258q74 237 98 379q-183 -195 -219 -195q-15 -4 -32 -4h-19q-83 0 -106 227q-7 0 -7 15q-50 -61 -114 -238q-8 0 -31 -20h-12q-8 0 -8 12q0 30 67 188
l86 156zM70 117v-8q4 0 12 -3q144 49 317 347v4q-329 -284 -329 -340z" />
    <glyph glyph-name="I" unicode="I" horiz-adv-x="470" 
d="M314 1725q33 0 33 -54q0 -11 -22 -82q6 -234 18 -234h29q12 0 51 7l11 -14q0 -36 -95 -36l-3 -18v-140q0 -3 -4 -3q0 -4 4 -4l-4 -25v-22q0 -3 -3 -3l3 -7q-18 -279 -69 -531q0 -6 -7 -15q0 -12 94 -14q8 3 11 3l8 -3q46 9 80 25h7q6 0 11 -11q0 -38 -102 -54h-55l-22 -3
q-4 3 -51 7q-31 -97 -91 -97q-93 0 -127 111q-7 18 -7 25h3q-11 43 -11 108v43q0 12 -7 50q14 26 29 26q44 0 44 -40q96 -161 138 -161q22 45 59 348q21 168 21 398l-3 14h-91l-22 -3q-7 3 -11 3t-4 -3l-25 3h-48q-8 0 -14 4l-7 -4q-4 0 -11 4q-13 -4 -15 -4q-36 6 -36 18
v15q0 9 94 46q93 63 161 169l18 32q-7 78 -7 87q0 39 47 39zM274 1520q0 -25 -128 -140q-29 -14 -29 -21q18 0 37 -4q51 4 98 4h18l8 -4q7 9 7 15q0 27 -4 132l-3 8q3 7 3 10h-7zM52 641v-7q0 -137 83 -194h4q25 0 51 72q-60 18 -138 129z" />
    <glyph glyph-name="J" unicode="J" horiz-adv-x="657" 
d="M655 1442h20q41 -3 41 -34q-24 -288 -81 -458q-20 -125 -75 -285q-61 -140 -143 -349q-76 -146 -162 -248q-77 -68 -163 -68h-7q-71 0 -85 95v24q0 155 78 390q25 27 31 27h10q18 0 24 -13v-28q-18 0 -75 -244q-14 -114 -14 -136q10 -64 44 -64q73 0 167 125
q112 170 196 418q72 135 160 539v4h-3q-30 -97 -133 -204q-51 -44 -98 -44h-24q-53 0 -105 68q-30 60 -31 115v44q0 90 48 184q29 34 34 34h13q5 0 14 -14v-7q0 -10 -37 -102q-14 -63 -14 -95v-20q0 -108 54 -139q18 -14 44 -14q112 42 211 306q39 107 51 186z" />
    <glyph glyph-name="K" unicode="K" horiz-adv-x="917" 
d="M713 1449h14q13 0 18 -39v-3q0 -125 -127 -499q78 23 162 78q14 18 43 25q219 191 300 311l74 92q7 21 29 21h14q19 0 28 -18v-10q0 -14 -95 -131q-63 -81 -195 -209q-93 -115 -420 -449q7 -20 155 -279q75 -123 113 -123l11 -32v-4q0 -24 -32 -24h-18q-31 0 -46 49
q-46 52 -102 156q-88 163 -124 215q-88 -173 -141 -261q-194 -322 -315 -322q-42 0 -42 46v3q6 106 127 269q119 119 237 212q92 84 92 120q3 0 3 4q-42 74 -123 155q-53 49 -113 92l-4 18q5 15 18 21h28l46 -21q82 -18 170 -25q18 4 35 4h21q43 113 110 360q33 198 49 198z
M558 700h7q0 13 130 138l64 70h-3q-55 -35 -156 -60q-42 -137 -42 -148zM374 855q85 -85 120 -141h7q4 28 39 127h-4q-7 0 -14 -3q-110 7 -148 17zM77 50h7q89 65 170 180q131 201 131 222q-176 -135 -255 -258q-53 -107 -53 -144z" />
    <glyph glyph-name="L" unicode="L" horiz-adv-x="601" 
d="M647 1456h19q10 0 10 -13q0 -95 -158 -541q-119 -313 -311 -591v-39q0 -86 49 -175q29 -29 58 -45h19q115 0 291 132h13q7 0 7 -6v-23q-29 -49 -81 -77q-25 -24 -162 -72q-35 -6 -45 -6h-16q-130 0 -175 142q-16 70 -16 91q-70 -81 -110 -81q-19 0 -39 26v6q0 119 45 240
q59 141 75 194l19 13h23q35 0 35 -101q3 0 7 -110h3q0 8 71 114q6 14 58 110q117 223 236 608q30 61 49 158q14 42 26 46zM61 236h4q45 45 77 94v87q0 23 -3 71q-19 -15 -58 -145q-11 -26 -20 -107z" />
    <glyph glyph-name="M" unicode="M" horiz-adv-x="861" 
d="M924 1438q55 -6 55 -20v-19q-31 -73 -110 -439q-67 -185 -146 -640q-32 -202 -32 -315q0 -174 71 -210h24q5 0 59 67h20q9 0 12 -19q-12 -107 -95 -107h-40q-45 0 -83 55q-39 64 -39 237q0 134 79 565l59 265q59 166 83 300v4h-4l-162 -340q-131 -302 -181 -470
q-52 -183 -79 -340q-16 -23 -36 -23h-16q-35 7 -35 27q27 200 27 308q0 4 -4 32l4 16q-4 121 -11 185l3 8l-3 16q7 123 7 166v4h-4q-79 -353 -169 -581q-48 -95 -83 -205q-27 -57 -40 -63h-43q-5 0 -16 20v23q39 73 150 360q12 19 51 150q123 455 158 655q8 96 12 115
q-4 20 -4 39v24q0 17 48 20q15 0 39 -28l-31 -612q0 -9 -4 -16l4 -16q0 -45 7 -264h4q0 44 131 355q53 139 166 367q60 117 110 229q9 3 36 60q6 0 23 47z" />
    <glyph glyph-name="N" unicode="N" horiz-adv-x="1111" 
d="M727 1431h16q32 0 32 -36v-8q-15 0 -60 -536v-88q0 -12 -4 -12l4 -20q0 -331 16 -532h-4l4 -8v-48h4q64 306 152 540q0 51 224 452q43 83 64 112q0 6 52 84q5 16 36 16h12q6 0 12 -12v-20q-60 -130 -168 -320q-196 -374 -196 -432q-76 -201 -152 -636v-28q0 -6 -24 -24
h-16q-56 0 -56 44q-32 346 -32 696v116q0 26 -4 52q4 15 4 44v36q0 4 4 4q0 4 -4 4q0 3 24 232v4h-4q-44 -107 -96 -272q-7 -1 -36 -104q-96 -253 -252 -556q-46 -93 -128 -160q-20 -12 -52 -20q-79 0 -88 56q-4 41 -4 64v40q0 68 52 156q46 36 68 36h20q6 0 12 -12v-12
q-80 -81 -80 -180v-68q0 -6 16 -16q92 89 140 196q154 283 300 708q0 10 96 260q52 137 60 192q21 16 36 16z" />
    <glyph glyph-name="O" unicode="O" horiz-adv-x="647" 
d="M172 1500h4q6 0 12 -12q0 -4 -4 -4l4 -20v-12q0 -4 -4 -4q0 -4 4 -4q-4 -21 -4 -24q16 -138 60 -200q7 0 20 -12h4q47 0 144 88q119 95 196 128h24q6 0 24 -24v-16q0 -19 -92 -48q-170 -119 -240 -200q-92 -122 -108 -172q-88 -194 -136 -384q-24 -129 -24 -256
q3 -132 12 -132l-4 -8q12 -66 44 -108q27 -23 56 -32q8 4 12 4l16 -4q93 37 184 212q108 268 108 352q12 28 32 164q4 0 4 8q0 4 -4 4q8 64 16 96v116q0 56 -16 96q-12 0 -60 -56l-16 -12h-4q-8 0 -8 12l4 8q-4 7 -4 16q0 36 72 100q26 8 36 8l44 -24q8 0 8 -16
q0 -17 -4 -44q8 -60 8 -88h-4l4 -8v-28q0 -180 -72 -492q-100 -338 -252 -444q-34 -24 -72 -24h-24q-105 0 -152 128q-11 0 -20 200q4 104 8 104q-4 7 -4 16q0 4 4 4q0 4 -4 4q16 149 60 260q94 306 184 408l24 36v4h-8q-59 0 -100 92q-28 87 -28 116v32q0 58 36 96z" />
    <glyph glyph-name="P" unicode="P" horiz-adv-x="808" 
d="M605 1485q30 0 60 -60q123 -182 123 -271q0 -34 3 -57q-3 -22 -3 -25q3 -57 3 -76q0 -96 -50 -192q-144 -145 -227 -145q0 -6 -38 -10q-3 0 -3 4l-13 -4q-16 0 -53 7q-57 -231 -123 -375q-85 -204 -139 -253q-1 -10 -50 -28q-86 4 -86 47q-9 19 -9 67v50q0 158 82 224h44
q19 0 32 -19v-16q-4 -9 -19 -9q-7 0 -22 9q-33 0 -63 -142q0 -16 -7 -60q4 -104 32 -104q0 -3 3 -3q55 14 170 297q51 119 111 337q-83 58 -111 135q-41 101 -41 174v28q0 117 57 211q12 0 19 7h9q7 -1 7 -7v-31q-20 -25 -38 -148v-63q0 -91 69 -208q36 -41 41 -41h3
q31 123 117 356q54 186 79 344q-6 10 -6 18v10q0 22 37 22zM618 1384q-3 -27 -9 -47l3 -6q-54 -228 -167 -549q-23 -68 -23 -79q5 -3 35 -6q114 0 237 142q25 41 44 167v47q0 163 -48 224q-50 87 -69 107h-3z" />
    <glyph glyph-name="Q" unicode="Q" horiz-adv-x="953" 
d="M654 1432h47q84 0 141 -98q83 -128 83 -279h-4l4 -8v-51q0 -4 -4 -4q0 -4 4 -4q-28 -309 -55 -382q-124 -410 -315 -550l-31 -23q34 -90 87 -134h19q21 16 36 16h23q8 -1 8 -8v-24q-37 -47 -63 -47h-39q-74 0 -138 169q-9 0 -63 -12h-43q-130 23 -204 83
q-134 129 -134 287v78q0 202 200 535q93 152 201 263q109 94 173 103q31 10 31 15q-15 0 -23 16v20q25 39 59 39zM654 1361v-4q42 0 47 -15q0 -31 -110 -55q-146 -68 -299 -307q-178 -295 -204 -452q-12 -62 -16 -142q0 -182 169 -298q42 -26 102 -36h43l55 12v55
q10 139 52 157q11 0 11 4q44 0 44 -39v-4q-20 0 -40 -122v-8h4q118 106 142 173q78 119 137 295q71 255 71 468q0 103 -51 220q-63 110 -110 110q-15 0 -47 -12z" />
    <glyph glyph-name="R" unicode="R" horiz-adv-x="963" 
d="M602 1443q41 0 58 -40q0 -21 170 -167l51 -76q65 -97 65 -192q-14 -100 -47 -142q-93 -63 -210 -105q-52 -25 -80 -32q-93 -37 -131 -47q-68 -21 -68 -48q0 -10 -15 -54q92 -46 210 -167q124 -145 182 -166q14 -6 14 -26v-3q0 -36 -51 -40q-13 0 -79 72
q-236 247 -254 247q-7 0 -33 18h-11q-137 -336 -170 -377q-22 -60 -76 -91q-6 0 -15 -7h-40q-72 0 -72 134q27 138 62 138q0 5 21 18h11q7 0 15 -22q0 -12 -37 -76q-14 -74 -14 -80q16 -58 33 -58q40 0 141 240q35 71 91 217q-96 54 -153 54q-32 19 -32 26v11q0 20 18 29h72
q111 21 142 32q105 300 199 718q-11 19 -11 36q15 26 44 26zM627 1334q-29 -87 -112 -410q-73 -228 -73 -239v-4q303 113 392 174q47 57 47 120q0 159 -254 359zM319 594h-11v-3q0 -8 36 -18q0 11 8 29h-4q-14 -8 -29 -8z" />
    <glyph glyph-name="S" unicode="S" horiz-adv-x="1268" 
d="M1424 1431h37q27 -12 27 -30v-13q-4 -10 -134 -81q-160 -90 -822 -528q-60 -32 -64 -40q81 -49 258 -70q201 -30 311 -77q147 -69 180 -157l14 -64q0 -134 -101 -221q0 -12 -67 -53q-83 -64 -234 -90l-60 -7h-144q-148 23 -194 67q-33 39 -33 80q-3 10 -3 40
q16 121 87 131h13q10 -4 10 -20v-7q-50 -49 -50 -134v-7q0 -69 167 -93q33 -7 90 -7h4q148 0 304 87q144 110 144 201q3 0 6 16q0 180 -374 248q-228 30 -314 67q-62 33 -74 33q-260 -175 -365 -197h-13q-26 0 -30 13v17q3 6 140 70q117 64 231 144l-7 43q0 146 398 372
q196 122 442 207q153 47 220 60zM428 799v-17q257 163 425 278q418 274 438 274v4q-35 0 -254 -91q-137 -62 -348 -190l-124 -91q-129 -108 -137 -167z" />
    <glyph glyph-name="T" unicode="T" horiz-adv-x="494" 
d="M-104 1485l9 -4l9 4q33 -12 39 -26v-17q0 -6 -109 -57q-189 -111 -242 -173q29 -8 112 -17q228 0 771 104q12 0 43 130q14 21 35 21h4q44 -5 44 -17v-48l-26 -69q126 17 169 26v-4q224 33 532 52q48 -5 82 -5h204q26 -11 26 -17v-9q0 -34 -31 -34q-94 -5 -134 -13h-60
q-129 0 -187 -9v4q-24 -8 -56 -8q-4 0 -4 4q-340 -30 -567 -73l-83 -265q-82 -227 -194 -480q-130 -303 -130 -437v-26q0 -13 -39 -22h-13q-35 0 -35 39q17 197 204 619q99 208 181 494q0 9 22 65h-4q-399 -78 -498 -78q0 -9 -9 -9l-216 -9q-216 0 -238 78q-9 0 -9 44
q144 116 364 233q13 0 34 9z" />
    <glyph glyph-name="U" unicode="U" horiz-adv-x="907" 
d="M601 1432l9 -14v-14q-355 -426 -413 -619q-65 -152 -128 -473q0 -4 4 -4q-5 -62 -9 -74q5 -9 5 -14h-5q23 -165 124 -165h14q153 0 335 294q69 124 69 183q54 171 197 432l115 202q73 197 119 197h5q37 0 41 -50q-172 -317 -238 -455q-41 -79 -124 -289
q-83 -142 -83 -252q0 -193 78 -225h9q72 59 83 59h4q7 0 14 -13v-9q-24 -97 -115 -97q-83 0 -133 152q0 27 -9 82h5q-5 9 -5 14h-4q-43 -90 -166 -207q-106 -73 -174 -73h-41q-58 7 -120 55q-31 29 -64 119q0 5 5 5l-5 23v83q28 187 83 353q85 285 160 372q0 17 110 160
q22 38 69 92q115 170 161 170h18z" />
    <glyph glyph-name="V" unicode="V" horiz-adv-x="798" 
d="M1133 1436h20q24 -12 24 -19v-19q-274 -267 -337 -361q-232 -289 -288 -600q-53 -267 -77 -413q-15 -24 -28 -24q-58 5 -58 19v24q0 29 -19 207q0 5 5 5q-29 192 -135 590q-91 339 -178 447l-62 67q0 11 24 15v-5q10 5 14 5q160 -75 308 -697q-5 0 -5 -5q22 -30 67 -245
q29 -158 29 -216v-4q1 -10 10 -10q86 521 240 720q74 128 278 356q86 79 135 149q18 14 33 14z" />
    <glyph glyph-name="W" unicode="W" horiz-adv-x="1022" 
d="M1486 1442l12 -17q0 -36 -128 -107q-96 -64 -164 -127q-177 -180 -276 -371q-121 -192 -193 -395q-59 -161 -119 -555q-16 -41 -54 -41h-4q-42 0 -53 70q-13 78 -17 189h4l-4 8v74q0 31 -4 46q4 26 4 53v95l-4 24l33 420v8h-4l-87 -189q-65 -137 -185 -506
q-14 -103 -49 -103q0 -4 -4 -4q-45 12 -45 37q16 45 32 280h5q0 4 -5 4q33 320 83 695v74q0 9 4 17q-4 7 -4 16q0 150 -50 210q-16 18 -28 20q-96 -57 -116 -111q0 -8 -28 -8h-5q-12 0 -16 33q12 59 90 115q33 25 50 25h25q93 0 119 -132q12 -27 20 -115v-144
q0 -32 -61 -518l-17 -169v-4h4q98 299 227 547q50 124 78 124q5 4 29 4h8q12 -3 20 -29q-49 -488 -49 -576v-21q0 -12 -4 -12l4 -20v-79q0 -13 -4 -20l4 -25v-99q0 -14 4 -37l-4 -8q4 -22 4 -37v-20q10 5 37 160q45 184 87 309q138 322 312 555q48 69 95 119
q121 128 205 173q138 95 186 95z" />
    <glyph glyph-name="X" unicode="X" horiz-adv-x="1202" 
d="M222 1431q11 0 49 -44q43 -28 83 -103q99 -118 153 -202q129 -168 157 -226h5q146 181 206 271q118 190 118 275q31 10 39 10q25 -8 25 -35q-17 -174 -260 -467l-94 -108q17 -39 74 -103q0 -11 103 -167l290 -418v-14q-25 -45 -54 -45q-7 0 -59 94q-22 22 -123 181
l-280 413q-259 -288 -418 -511q-97 -121 -250 -339q-178 -216 -187 -216l-10 -5h-15q-34 14 -34 20v14q253 282 339 428q59 69 231 300l310 373l-271 379q-46 51 -142 181q-8 0 -30 30v15q0 11 45 19z" />
    <glyph glyph-name="Y" unicode="Y" horiz-adv-x="611" 
d="M899 1433q23 0 34 -23v-21q-118 -145 -166 -192q-76 -73 -172 -207q-123 -167 -240 -368q-270 -504 -270 -565q6 -11 6 -20v-10q-11 -19 -23 -27h-4q-64 0 -64 20q0 68 213 470q112 207 112 210h-4q-70 -37 -122 -37q-90 0 -152 71q-44 64 -44 189v7q0 119 61 263
q11 40 48 105q0 8 27 34q9 32 47 57q6 4 13 4h27v-10q0 -26 -57 -105q0 -9 -34 -68q-71 -175 -71 -257v-17q0 -87 41 -175q50 -48 105 -48q92 17 223 193q109 122 182 226q102 130 186 224q4 0 64 74z" />
    <glyph glyph-name="Z" unicode="Z" horiz-adv-x="1209" 
d="M1598 1449q84 0 84 -53v-13q-13 -26 -101 -71q-234 -158 -441 -348l-598 -528q-153 -135 -383 -352h8q91 0 124 -5q332 0 898 49q141 -8 141 -36v-26q0 -23 -18 -31q-20 0 -106 18q-94 -5 -136 -13q-306 -18 -410 -18q-52 -9 -334 -18q-10 0 -49 5l-79 -9q-191 7 -198 48
v44q58 32 128 84l119 110q193 185 730 647q83 89 207 185q145 134 229 185v5h-8q-94 -18 -357 -84q-135 -35 -291 -48h-79q-234 0 -330 224v22q0 7 13 13h26q38 0 80 -83q78 -102 251 -102q12 8 141 18l695 163q31 13 44 18z" />
    <glyph glyph-name="bracketleft" unicode="[" horiz-adv-x="758" 
 />
    <glyph glyph-name="backslash" unicode="\" horiz-adv-x="569" 
 />
    <glyph glyph-name="bracketright" unicode="]" horiz-adv-x="758" 
 />
    <glyph glyph-name="asciicircum" unicode="^" 
 />
    <glyph glyph-name="underscore" unicode="_" horiz-adv-x="1024" 
d="M0 -100h1024v-60h-1024v60z" />
    <glyph glyph-name="grave" unicode="`" horiz-adv-x="1024" 
d="M673 1079h-69l-330 202q-31 20 -46.5 40t-15.5 42q0 31 20.5 51t53.5 20q20 0 40.5 -12t55.5 -47z" />
    <glyph glyph-name="a" unicode="a" horiz-adv-x="667" 
d="M492 1027q70 -5 70 -27v-5q0 -48 -91 -48q-196 -60 -321 -251q-58 -120 -58 -155v-21q10 -54 26 -54h32q87 37 182 134q195 207 203 299l32 16q64 -11 64 -48q-61 -95 -139 -288l6 -11q-25 -28 -43 -123l-16 -16h-27q-8 0 -37 37q0 52 21 86v5l-85 -80q-103 -80 -177 -80
q-52 11 -80 43q-37 30 -37 96v27q11 127 182 315q10 0 69 53q78 61 224 96z" />
    <glyph glyph-name="b" unicode="b" horiz-adv-x="759" 
d="M438 1715q32 0 69 -56q30 -91 30 -186t-69 -311q-121 -256 -164 -372q144 130 229 130q3 0 26 4q69 0 134 -52q34 -40 34 -82q0 -164 -293 -320q-54 -34 -178 -69q-38 0 -56 35v8q0 20 87 26q262 103 354 255q13 28 13 87q-24 51 -78 51h-13q-119 0 -333 -242l-86 -164
q-30 -51 -43 -52h-13q-20 0 -52 31v13l91 151q43 36 181 376q9 3 113 238l52 185q0 5 -5 5q9 64 13 64l-4 9v17q0 5 4 5q-15 137 -47 186q-9 0 -9 8v9q0 6 13 13z" />
    <glyph glyph-name="c" unicode="c" horiz-adv-x="549" 
d="M488 1038h9q14 -5 14 -28v-19q-14 -21 -108 -67q-308 -203 -308 -449h9q30 0 209 151q29 11 56 33l19 -28q-55 -83 -203 -199q-44 -28 -90 -28h-9q-62 22 -62 80v15q0 253 331 477q86 57 128 57q0 5 5 5z" />
    <glyph glyph-name="d" unicode="d" horiz-adv-x="644" 
d="M1147 1708q7 0 13 -18q0 -20 -107 -58q-211 -123 -360 -364q-49 -126 -107 -364q-25 -50 -63 -166q-47 -117 -202 -260q-80 -65 -153 -81q-103 0 -139 85q-9 18 -9 50q0 163 139 296q103 96 211 112l9 -4l23 4q23 0 40 -27q-4 -24 -135 -54q-127 -61 -206 -224l-18 -99
q0 -76 49 -76h5q98 0 260 202q62 87 103 215q54 156 108 369q177 334 472 458q4 0 13 -5q31 9 54 9z" />
    <glyph glyph-name="e" unicode="e" horiz-adv-x="579" 
d="M403 1032q110 0 135 -84q0 -50 -163 -176q-40 -18 -93 -18q-60 27 -60 60q7 18 14 18q42 -9 60 -9h14q105 57 139 125q5 0 5 10q-50 14 -60 14q-132 -36 -190 -116q-106 -135 -130 -325v-28q15 -42 37 -42q82 2 287 140q33 -5 33 -14v-10q-85 -110 -172 -134
q0 -19 -139 -42q-116 20 -116 102q0 202 144 404q122 125 255 125z" />
    <glyph glyph-name="f" unicode="f" horiz-adv-x="378" 
d="M517 1715h38q46 0 97 -59v-33q0 -6 -13 -13q-26 9 -59 38l-29 8h-13q-41 0 -121 -88q-61 -63 -126 -280q-50 -136 -71 -176v-5q48 -29 59 -29l8 4q4 0 4 -4q50 4 210 88q8 -4 12 -4q8 4 13 4l12 -17q-50 -64 -96 -75q-84 -55 -151 -55h-8q-77 21 -84 21
q-63 -220 -339 -536q-102 -109 -143 -109q-17 3 -17 8l-8 -4q-6 0 -21 21v4q0 9 54 30q186 177 260 310q73 99 130 234q38 125 143 394q34 135 134 239q74 84 125 84z" />
    <glyph glyph-name="g" unicode="g" horiz-adv-x="686" 
d="M419 1012q127 0 127 -56v-5q0 -16 -20 -16q-55 10 -72 10q-127 0 -312 -250q-33 -55 -46 -123v-31q7 -66 67 -66q113 0 250 133q144 133 144 194q14 39 35 46h21q28 0 41 -25v-31q0 -19 -36 -72q-85 -226 -210 -378q-188 -210 -353 -328q-286 -189 -343 -189v5l-10 -5
q-10 0 -10 10l5 10q-5 0 -5 6q578 339 767 701q-156 -149 -286 -149h-5q-100 0 -149 128v46q16 129 195 322q136 113 205 113z" />
    <glyph glyph-name="h" unicode="h" horiz-adv-x="745" 
d="M417 1708q59 0 83 -220q-36 -302 -122 -479q0 -11 -44 -127h5q143 113 205 113q0 5 14 5q6 0 15 -5l10 5q107 -33 107 -108v-19q0 -86 -112 -240q-92 -150 -132 -229l-19 -10q-23 8 -35 29v15q210 363 210 386q5 12 10 49q0 50 -39 63q-101 -32 -210 -127
q-68 -46 -132 -141q-63 -93 -122 -210q-25 -15 -49 -15q-34 24 -34 29v5q7 40 151 254q186 334 250 713q0 5 -5 5q0 9 9 39q-14 110 -34 200q5 20 20 20z" />
    <glyph glyph-name="i" unicode="i" horiz-adv-x="417" 
d="M381 1239q36 -30 36 -36q-10 -53 -48 -53q-66 22 -66 65q0 20 78 24zM303 1018h48q9 0 18 -18q0 -16 -113 -238q-48 -85 -114 -257l30 6h12q9 0 18 -18q-49 -95 -113 -95q-60 21 -60 72l113 274q127 244 161 274z" />
    <glyph glyph-name="j" unicode="j" horiz-adv-x="473" 
d="M398 1331h34q28 -12 28 -61q0 -45 -73 -73h-11q-50 21 -50 56q0 34 72 78zM343 1036h5q45 -3 45 -45q-22 -171 -151 -385q-119 -217 -373 -485q-525 -535 -636 -535q-11 0 -11 11v17q165 116 485 440q0 11 167 168q275 336 363 551q54 100 72 251q18 12 34 12z" />
    <glyph glyph-name="k" unicode="k" horiz-adv-x="516" 
d="M355 1708h6q33 0 58 -107h-5q0 -5 5 -5q-10 -225 -181 -637v-5h5q67 55 187 176q78 64 107 64q8 0 22 -26v-6q-275 -288 -305 -289q0 -10 85 -144q38 -97 54 -166l-6 -11l22 -91q-11 -80 -27 -80q-29 0 -75 230q-69 174 -128 214q-103 -245 -246 -417h-38q-32 18 -32 27
q191 212 412 834q64 237 64 321q0 17 -5 102z" />
    <glyph glyph-name="l" unicode="l" horiz-adv-x="247" 
d="M252 1712h4q49 -19 65 -219q0 -259 -135 -586q-142 -294 -246 -461q-36 -51 -56 -51q-19 6 -28 23v10q89 140 121 204q197 367 219 512q27 83 51 228q-5 9 -5 14q14 19 14 149q-14 137 -14 172z" />
    <glyph glyph-name="m" unicode="m" horiz-adv-x="907" 
d="M780 1025q82 -26 82 -65q0 -92 -146 -428q-34 -129 -88 -129q-30 10 -30 29q0 49 100 270q65 167 65 241h-6q-104 0 -288 -305q-83 -231 -94 -241l-35 -6q-45 16 -53 35q0 25 106 259q17 33 47 182v58q0 4 -18 18q-183 -95 -299 -417q-28 -112 -47 -112h-24q-23 0 -29 83
q9 3 76 188q171 303 311 328q112 -10 112 -70l12 -41q-6 -11 -6 -24h12q36 78 193 141q15 0 47 6z" />
    <glyph glyph-name="n" unicode="n" horiz-adv-x="598" 
d="M447 1022q91 -8 91 -77q5 0 5 -19v-15q0 -182 -130 -424l-10 -5h-24q-24 12 -24 39q116 232 116 380v15q0 34 -24 48q-78 0 -232 -188q-77 -95 -130 -260q-29 -111 -48 -111h-5q-7 0 -19 19v53q0 11 5 20q-5 9 -5 14q82 268 236 395q110 116 198 116z" />
    <glyph glyph-name="o" unicode="o" horiz-adv-x="631" 
d="M416 1026h33q20 -20 71 -38q65 -61 65 -130q-5 -42 -11 -55q6 -9 6 -22v-5q-51 -158 -207 -300q-30 -42 -148 -76h-59q-153 40 -153 180q35 178 109 261q94 126 218 164q51 21 76 21zM351 907l-33 16q-145 -75 -218 -289q-11 -57 -11 -71q12 -103 104 -103h5
q68 11 158 98q158 171 158 294v11q0 87 -71 87h-5z" />
    <glyph glyph-name="p" unicode="p" horiz-adv-x="745" 
d="M468 999q114 0 209 -81q42 -47 42 -99v-24q-7 -65 -66 -152q-146 -153 -280 -194q-123 -47 -175 -47h-62q-34 0 -52 9q-10 0 -90 -99q-394 -413 -484 -413q-21 8 -33 28q4 13 71 43q172 144 195 171q240 233 284 317q156 181 185 370v29l-10 14q89 92 219 119q35 4 47 9z
M283 833q0 -5 5 -5q-23 -170 -171 -365v-5h38q17 0 43 -4q147 28 251 99q41 0 166 162q33 62 33 109q0 91 -152 113h-19q-194 -58 -194 -104z" />
    <glyph glyph-name="q" unicode="q" horiz-adv-x="605" 
d="M446 1022q77 0 84 -46q0 -22 -13 -25h-21q-23 16 -38 16q-110 0 -227 -105q-148 -176 -159 -319q0 -17 -4 -17l4 -8q0 -9 -4 -17q0 -31 29 -50q137 0 349 252q42 88 63 88q31 0 50 -29v-5q0 -12 -50 -79q-160 -374 -160 -584v-38q0 -255 113 -395q46 -37 97 -54v-9
q0 -8 -8 -8q-189 0 -244 315q-8 31 -8 34h4q-8 28 -13 109q0 211 105 516q-135 -137 -231 -159q0 -6 -38 -9q-61 0 -109 72q-4 22 -4 37q0 176 155 378q100 95 168 122q5 0 5 -4q48 21 105 21z" />
    <glyph glyph-name="r" unicode="r" horiz-adv-x="422" 
d="M534 1028q57 0 64 -25q0 -7 -14 -15q-6 0 -15 5q-116 -10 -248 -99q-229 -168 -229 -397v-64q0 -27 -19 -35h-5q-45 0 -45 45v84q0 176 184 347q169 154 327 154z" />
    <glyph glyph-name="s" unicode="s" horiz-adv-x="637" 
d="M530 1022q67 -14 67 -24v-5q0 -11 -38 -19q-5 0 -5 5q-177 0 -339 -114q-28 -36 -28 -53q43 -33 209 -52q95 -29 139 -105v-34q0 -68 -181 -191q-61 -23 -134 -33q-148 0 -205 157q-5 25 -5 48q0 115 72 115q28 -22 28 -43q-33 -39 -33 -86q23 -139 110 -139h23
q136 0 248 167q5 8 5 24v5q0 66 -148 81q-214 44 -214 91q0 37 95 114q206 86 267 86v-5q21 10 67 10z" />
    <glyph glyph-name="t" unicode="t" horiz-adv-x="402" 
d="M786 1718q36 -7 36 -22v-17l-87 -89q-168 -189 -314 -453q-134 -227 -148 -261v-5h14q10 0 18 5q5 0 5 -5q18 0 185 44l8 -5q9 5 19 5q10 -1 10 -10v-17q-25 -46 -167 -78q-26 0 -55 -11q-5 0 -5 5l-32 -5h-9l-33 5q-219 -404 -318 -724v-17l4 -50q-17 -17 -28 -17
q-45 22 -46 45q0 113 249 642q36 52 74 133v5q-41 11 -92 72v17q0 16 37 22q14 0 79 -44q9 -5 13 -5q175 320 337 564q171 267 246 271z" />
    <glyph glyph-name="u" unicode="u" horiz-adv-x="575" 
d="M236 1025h11q7 0 32 -32q0 -10 -112 -187q-65 -146 -65 -245q17 -97 43 -97q93 0 299 407q27 78 33 144l10 5h48q16 0 27 -53v-6q0 -80 -235 -454q-86 -112 -176 -112q-118 27 -118 75q-5 0 -16 53v38q0 19 5 48l-5 10q43 207 160 358q20 48 59 48z" />
    <glyph glyph-name="v" unicode="v" horiz-adv-x="567" 
d="M645 1032h29q6 0 28 -29v-14q-4 -18 -81 -43q-96 -64 -269 -245q-108 -130 -177 -264q0 -25 -43 -43q-26 0 -63 48l5 24v29q0 17 -5 43q0 5 5 5q-14 161 -48 374l5 19q-5 26 -5 38l19 15h10q37 0 53 -29v-38l4 -29q-4 -9 -4 -15q43 -287 43 -330q79 119 235 283
q204 201 259 201z" />
    <glyph glyph-name="w" unicode="w" horiz-adv-x="868" 
d="M293 1025q36 -5 36 -15v-6q-235 -325 -236 -466v-36q0 -43 46 -52h16q162 90 256 303q66 128 108 128q47 -10 51 -25v-5q0 -27 -118 -195q-31 -75 -31 -139q5 -61 57 -61q54 17 87 61q130 161 164 328q11 165 41 165q3 0 21 5q0 -5 30 -36q-11 -134 -20 -134q0 -5 5 -5
q-23 -159 -190 -379q-77 -67 -149 -67h-25q-103 36 -103 118q-116 -108 -159 -108q-6 -5 -36 -5h-25q-98 23 -98 98q-5 19 -5 46q0 52 46 138l-5 11q178 333 236 333z" />
    <glyph glyph-name="x" unicode="x" horiz-adv-x="831" 
d="M215 1023q63 0 63 -81q53 -129 92 -167q278 196 305 196q27 -11 29 -23q0 -42 -196 -155q-79 -54 -103 -81q194 -247 322 -253q75 -19 75 -35q-9 -23 -17 -23h-46q-13 0 -23 6l-12 -6q-164 43 -270 167q-86 104 -93 104q-147 -127 -241 -236h-46q-30 0 -35 17v23
q48 48 282 253q-132 217 -132 259v6q14 29 46 29z" />
    <glyph glyph-name="y" unicode="y" horiz-adv-x="707" 
d="M117 861h31q26 -14 26 -21v-5q-57 -124 -57 -188v-16q3 -91 42 -151q36 -21 52 -21q120 0 344 250q25 89 68 89h5q33 -15 47 -36v-21q-42 -173 -135 -350q-7 -1 -100 -130q-246 -249 -480 -402q-200 -155 -354 -235q-15 0 -58 -26h-5l-26 5q0 -10 -10 -10q-8 0 -16 16v5
q278 174 370 245q578 421 668 699v10h-5q-181 -166 -287 -166h-10q-117 0 -173 135l-10 63v73q0 111 73 188z" />
    <glyph glyph-name="z" unicode="z" horiz-adv-x="549" 
d="M96 1032q63 -11 89 -11h38q13 0 22 6q10 -6 22 -6q61 0 144 11l11 -5l27 5q83 -16 83 -82v-11q-16 -48 -199 -171q-116 -94 -143 -94v-11q204 -42 204 -182q0 -95 -198 -281q-157 -154 -227 -188q-13 -23 -99 -72q-198 -170 -336 -231q-76 -54 -254 -127l-27 6
q-10 -6 -22 -6l-6 11q31 25 309 182q387 251 634 491q138 151 138 220v11q0 82 -166 105q-54 0 -93 66q0 32 93 61q105 42 265 177q28 21 28 44h-17q-155 0 -303 -11q-52 0 -77 55q19 38 60 38z" />
    <glyph glyph-name="braceleft" unicode="{" 
d="M240 698q172 5 223 71t51 133v468q0 74 77 141.5t185 67.5h108v-50h-90q-61 0 -107 -33.5t-47 -91.5v-500q0 -83 -60.5 -158.5t-142.5 -76.5v-2q82 -1 143 -76t61 -158l-1 -500q1 -58 47 -91.5t107 -33.5h90v-50h-108q-108 0 -184.5 67.5t-77.5 141.5v468q0 66 -51 132
t-223 71v60z" />
    <glyph glyph-name="bar" unicode="|" 
d="M427 1577h160v-1995h-160v1995z" />
    <glyph glyph-name="braceright" unicode="}" 
d="M774 638q-172 -5 -223 -71t-51 -132v-468q-1 -74 -77.5 -141.5t-184.5 -67.5h-108v50h90q61 0 107 33.5t47 91.5l-1 500q0 83 61 158t144 76v2q-83 1 -143.5 76.5t-60.5 158.5v500q-1 58 -47 91.5t-107 33.5h-90v50h108q108 0 185 -67.5t77 -141.5v-468q0 -67 51 -133
t223 -71v-60z" />
    <glyph glyph-name="asciitilde" unicode="~" 
d="M923 878v-156q-63 -72 -122 -97.5t-116 -25.5q-60 0 -177.5 48.5t-176.5 48.5q-51 0 -107.5 -28t-129.5 -112v156q64 73 123 99t114 26q64 0 181.5 -49.5t172.5 -49.5q52 0 108.5 28t129.5 112z" />
    <glyph glyph-name="exclamdown" unicode="&#xa1;" horiz-adv-x="672" 
 />
    <glyph glyph-name="cent" unicode="&#xa2;" horiz-adv-x="1139" 
 />
    <glyph glyph-name="sterling" unicode="&#xa3;" 
d="M748 1347q-72 31 -160 31h-2q-100 0 -190 -101q-84 -93 -84 -241q0 -15 1 -30q0 -135 53 -273h360v-60h-334q14 -30 31 -60q35 -63 35 -138q0 -161 -162 -375h402q130 0 189 132l49 -1l-103 -231h-719l1 50q187 238 187 418q0 77 -34 143q-17 32 -31 62h-161v60h135
q-58 143 -58 253q0 226 123.5 347t306.5 121h4q75 0 185.5 -14t110.5 -34v-161h-58q-5 61 -77 102z" />
    <glyph glyph-name="currency" unicode="&#xa4;" 
d="M350 560q41 -40 99 -57q29 -8 58 -8t58 8q58 17 99 57q40 41 57 99q9 29 9 58t-9 58q-17 58 -57 99q-41 40 -100 57q-29 8 -58 8t-58 -9q-58 -17 -98 -56q-39 -40 -56 -98q-10 -30 -10 -60q0 -28 9 -56q16 -59 57 -100zM240 903l-118 118l80 81l118 -118q44 30 99 46
q44 14 89 14q41 0 83 -12q57 -17 102 -48l118 118l80 -81l-117 -117q31 -46 48 -102q12 -42 12 -85q0 -42 -12 -85q-17 -56 -48 -102l117 -117l-80 -81l-118 118q-45 -32 -101 -48q-42 -12 -85 -12q-42 0 -85 12q-57 16 -102 48l-118 -118l-80 81l118 117q-32 46 -48 103
q-12 42 -12 84q0 44 13 87q16 55 47 99z" />
    <glyph glyph-name="yen" unicode="&#xa5;" horiz-adv-x="1262" 
d="M547 225l-2 242q0 19 -1.5 35t-4.5 32l-484 1q-14 0 -21 6.5t-7 19.5t6.5 19t21.5 6h467l-121 172h-344q-17 0 -23.5 5.5t-6.5 18.5q0 14 6 19.5t22 5.5h307q-43 57 -108 155q-131 197 -227 197q-7 0 -13 5.5t-6 11.5q0 19 10.5 27.5t32.5 8.5q27 0 123 -8t164 -8h88
q33 0 41 -6.5t8 -26.5q0 -8 -15 -14t-38 -6q-6 0 -18.5 2t-18.5 2q-24 0 -37.5 -9.5t-13.5 -25.5q0 -18 16.5 -52t46.5 -77l158 -221q13 -19 33 -53q41 -70 71 -70q9 0 16.5 5t14.5 15l277 396q8 12 13 26.5t5 24.5q0 18 -10 27t-37 14q-15 2 -41 4q-47 3 -47 25
q0 15 8 22.5t25 7.5q3 0 15 -1q56 -7 108 -7h139q30 0 65 1t37 1q11 0 18.5 -4.5t8.5 -11.5q0 -28 -38 -34q-18 -3 -27 -5q-63 -15 -147 -117q-7 -9 -12 -15l-169 -206h323q15 0 24 -6t9 -17q0 -15 -6 -20.5t-23 -5.5h-366q-46 -57 -96.5 -112.5t-52.5 -59.5h511
q18 0 25.5 -5.5t7.5 -17.5q0 -14 -7 -21t-22 -7h-530q0 -11 -1 -30.5t-1 -29.5l2 -215q0 -114 5.5 -150t20.5 -44q30 -17 107.5 -19t77.5 -31q0 -12 -10 -20t-25 -8q-2 0 -35.5 4t-64.5 4q-91 0 -208.5 -4t-142.5 -4q-31 0 -40 4t-9 16t8 18.5t37 12.5q9 2 25 5q74 16 92 32
q17 13 24 47t7 102z" />
    <glyph glyph-name="brokenbar" unicode="&#xa6;" 
d="M427 371h160v-789h-160v789zM427 1578h160v-789h-160v789z" />
    <glyph glyph-name="section" unicode="&#xa7;" 
d="M545 321q56 16 97 53q73 65 73 166q0 5 -1 10h-2q-1 14 -4 27q-22 61 -113 127q-59 29 -126 29q-78 0 -125 -44.5t-47 -117.5q0 -123 248 -250zM466 -346q113 6 185 69q72 64 72 165q0 125 -316 276q-123 64 -175.5 137t-52.5 177q0 148 89 237q67 65 170 82l-40 19
q-123 64 -175.5 137t-52.5 177q0 148 89 237q82 79 216 86q8 1 17 1h3q66 0 163 -16.5t97 -41.5v-194h-51q-5 81 -80 132q-70 47 -149 51h-15q-78 0 -125 -44.5t-47 -117.5q0 -132 287 -269q149 -67 204.5 -143.5t55.5 -187.5q0 -171 -101 -282q-47 -39 -99 -64
q108 -56 154 -118q55 -77 55 -187q0 -171 -101 -283q-124 -102 -277 -105v1q-6 -1 -13 -1h-3q-66 0 -163 16.5t-97 41.5v194h51q5 -81 80 -132q68 -45 145 -50z" />
    <glyph glyph-name="dieresis" unicode="&#xa8;" horiz-adv-x="1024" 
d="M223 1289l71 72q13 12 25 12q11 0 27 -14l69 -73q10 -14 10 -25q0 -13 -12 -27l-69 -75q-17 -17 -25 -17q-14 0 -25 12l-76 86q-9 12 -9 23q0 13 14 26zM588 1289l71 72q13 12 25 12q11 0 27 -13l69 -74q10 -14 10 -25q0 -13 -12 -26l-69 -76q-17 -17 -25 -17
q-14 0 -25 12l-76 87q-9 11 -9 22q0 13 14 26z" />
    <glyph glyph-name="copyright" unicode="&#xa9;" horiz-adv-x="1674" 
d="M840 1456q145 0 280 -56.5t239 -160.5q102 -101 158.5 -238t56.5 -283q0 -147 -56.5 -282t-162.5 -240q-105 -105 -239 -159.5t-283 -54.5q-146 0 -278 55.5t-238 160.5q-106 104 -161.5 237.5t-55.5 282.5q0 148 55.5 283t159.5 238q102 104 238.5 160.5t286.5 56.5z
M357 1197q-95 -96 -146 -219.5t-51 -259.5q0 -137 51 -259t148 -219q98 -96 219 -147t256 -51q137 0 259.5 50.5t219.5 145.5q97 98 149 221.5t52 258.5q0 134 -52 259.5t-145 219.5q-96 96 -220 147.5t-258 51.5q-137 0 -262 -51.5t-220 -147.5zM865 223q-142 0 -264 68
t-186 185t-64 243t65.5 244t187.5 184.5t254 66.5q38 0 75 -6.5t76 -20.5q5 -1 9 -1q19 0 26 30h42l72 -198h-44q-52 94 -131 124q-72 26 -147 26h-15q-86 -8 -166.5 -71t-121.5 -177q-33 -90 -33 -184q0 -25 2 -50q11 -121 69.5 -224t149.5 -152q72 -40 166 -42
q124 0 194 56t70 126h53v-100q0 -46 -96.5 -86.5t-242.5 -40.5z" />
    <glyph glyph-name="ordfeminine" unicode="&#xaa;" horiz-adv-x="648" 
 />
    <glyph glyph-name="guillemotleft" unicode="&#xab;" horiz-adv-x="944" 
d="M174 479l342 303h14v-37l-205 -266l205 -266v-37h-14zM487 479l342 303h14v-37l-205 -266l205 -266v-37h-14z" />
    <glyph glyph-name="logicalnot" unicode="&#xac;" 
d="M87 767h840v-491l-1 -1h-98v392h-741v100z" />
    <glyph glyph-name="registered" unicode="&#xae;" horiz-adv-x="1674" 
d="M751 1099v-374l3 -8q23 -56 56 -81q29 -22 56 -22h6q31 4 61.5 38.5t46.5 97.5q13 50 13 103q0 13 -1 27q-4 67 -28 124.5t-56.5 76t-63.5 18.5h-93zM984 576l82 -116q100 -141 150 -141h34v-50h-346v50h45q30 0 30 22q0 29 -69 114l-75 102q-42 0 -84 42v-159
q0 -121 36 -121h53v-50h-316v50h43q37 0 37 121v538q0 121 -37 121h-43v70h356q64 -1 125 -42q60 -41 92.5 -114t32.5 -152q0 -78 -32 -150.5t-114 -134.5zM840 1456q145 0 280 -56.5t239 -160.5q102 -101 158.5 -238t56.5 -283q0 -147 -56.5 -282t-162.5 -240
q-105 -105 -239 -159.5t-283 -54.5q-146 0 -278 55.5t-238 160.5q-106 104 -161.5 237.5t-55.5 282.5q0 148 55.5 283t159.5 238q102 104 238.5 160.5t286.5 56.5zM357 1197q-95 -96 -146 -219.5t-51 -259.5q0 -137 51 -259t148 -219q98 -96 219 -147t256 -51
q137 0 259.5 50.5t219.5 145.5q97 98 149 221.5t52 258.5q0 134 -52 259.5t-145 219.5q-96 96 -220 147.5t-258 51.5q-137 0 -262 -51.5t-220 -147.5z" />
    <glyph glyph-name="macron" unicode="&#xaf;" horiz-adv-x="670" 
 />
    <glyph glyph-name="degree" unicode="&#xb0;" horiz-adv-x="674" 
d="M339 1372q-86 0 -147.5 -61t-61.5 -148t61 -147t148 -60t147 60t60 147t-60.5 148t-146.5 61zM339 1442q115 0 196 -81.5t81 -196.5q0 -114 -82 -196t-197 -82q-117 0 -197 81t-80 197t81.5 197t197.5 81z" />
    <glyph glyph-name="plusminus" unicode="&#xb1;" 
 />
    <glyph glyph-name="uni00B2" unicode="&#xb2;" 
 />
    <glyph glyph-name="uni00B3" unicode="&#xb3;" 
 />
    <glyph glyph-name="acute" unicode="&#xb4;" horiz-adv-x="1024" 
d="M607 1375q35 35 55.5 47t40.5 12q33 0 53.5 -20t20.5 -51q0 -22 -15.5 -42t-46.5 -40l-330 -203h-69z" />
    <glyph glyph-name="mu" unicode="&#xb5;" horiz-adv-x="1180" 
 />
    <glyph glyph-name="paragraph" unicode="&#xb6;" horiz-adv-x="1024" 
d="M929 1435v-70h-127v-1365h-82v1365h-166v-1365h-84v738q-174 8 -275.5 102.5t-101.5 245.5q0 157 107.5 253t285.5 96h443z" />
    <glyph glyph-name="periodcentered" unicode="&#xb7;" horiz-adv-x="508" 
d="M145 740l82 84q15 14 29 14q13 0 31 -16l80 -86q12 -16 12 -29q0 -15 -14 -31l-80 -88q-20 -20 -29 -20q-16 0 -29 14l-88 101q-10 13 -10 26q0 15 16 31z" />
    <glyph glyph-name="periodcentered" unicode="&#x2219;" horiz-adv-x="508" 
d="M145 740l82 84q15 14 29 14q13 0 31 -16l80 -86q12 -16 12 -29q0 -15 -14 -31l-80 -88q-20 -20 -29 -20q-16 0 -29 14l-88 101q-10 13 -10 26q0 15 16 31z" />
    <glyph glyph-name="cedilla" unicode="&#xb8;" horiz-adv-x="1024" 
d="M360 -290q85 -52 152 -52q66 0 94.5 21.5t28.5 66.5t-49 64q-40 16 -102 16q-16 0 -34 -2l48 176h63l-37 -104q32 4 62 5q86 0 134 -40.5t48 -113.5q0 -76 -58.5 -120.5t-160.5 -44.5q-109 0 -189 32v96z" />
    <glyph glyph-name="uni00B9" unicode="&#xb9;" 
 />
    <glyph glyph-name="ordmasculine" unicode="&#xba;" horiz-adv-x="718" 
 />
    <glyph glyph-name="guillemotright" unicode="&#xbb;" horiz-adv-x="944" 
d="M115 176h-14v37l205 266l-205 266v37h14l342 -303zM428 176h-14v37l205 266l-205 266v37h14l342 -303z" />
    <glyph glyph-name="onequarter" unicode="&#xbc;" horiz-adv-x="1708" 
 />
    <glyph glyph-name="onehalf" unicode="&#xbd;" horiz-adv-x="1964" 
 />
    <glyph glyph-name="threequarters" unicode="&#xbe;" horiz-adv-x="1708" 
 />
    <glyph glyph-name="questiondown" unicode="&#xbf;" horiz-adv-x="748" 
 />
    <glyph glyph-name="Agrave" unicode="&#xc0;" horiz-adv-x="1540" 
 />
    <glyph glyph-name="Aacute" unicode="&#xc1;" horiz-adv-x="1540" 
 />
    <glyph glyph-name="Acircumflex" unicode="&#xc2;" horiz-adv-x="1540" 
 />
    <glyph glyph-name="Atilde" unicode="&#xc3;" horiz-adv-x="1540" 
 />
    <glyph glyph-name="Adieresis" unicode="&#xc4;" horiz-adv-x="1540" 
 />
    <glyph glyph-name="Aring" unicode="&#xc5;" horiz-adv-x="1540" 
 />
    <glyph glyph-name="AE" unicode="&#xc6;" horiz-adv-x="2118" 
 />
    <glyph glyph-name="Ccedilla" unicode="&#xc7;" horiz-adv-x="1399" 
 />
    <glyph glyph-name="Egrave" unicode="&#xc8;" horiz-adv-x="1151" 
 />
    <glyph glyph-name="Eacute" unicode="&#xc9;" horiz-adv-x="1151" 
 />
    <glyph glyph-name="Ecircumflex" unicode="&#xca;" horiz-adv-x="1151" 
 />
    <glyph glyph-name="Edieresis" unicode="&#xcb;" horiz-adv-x="1151" 
 />
    <glyph glyph-name="Igrave" unicode="&#xcc;" horiz-adv-x="657" 
 />
    <glyph glyph-name="Iacute" unicode="&#xcd;" horiz-adv-x="657" 
 />
    <glyph glyph-name="Icircumflex" unicode="&#xce;" horiz-adv-x="657" 
 />
    <glyph glyph-name="Idieresis" unicode="&#xcf;" horiz-adv-x="657" 
 />
    <glyph glyph-name="Eth" unicode="&#xd0;" horiz-adv-x="1518" 
 />
    <glyph glyph-name="Ntilde" unicode="&#xd1;" horiz-adv-x="1554" 
 />
    <glyph glyph-name="Ograve" unicode="&#xd2;" horiz-adv-x="1614" 
 />
    <glyph glyph-name="Oacute" unicode="&#xd3;" horiz-adv-x="1614" 
 />
    <glyph glyph-name="Ocircumflex" unicode="&#xd4;" horiz-adv-x="1614" 
 />
    <glyph glyph-name="Otilde" unicode="&#xd5;" horiz-adv-x="1614" 
 />
    <glyph glyph-name="Odieresis" unicode="&#xd6;" horiz-adv-x="1614" 
 />
    <glyph glyph-name="multiply" unicode="&#xd7;" 
d="M507 618l-247 -247l-99 99l247 247l-247 248l99 98l247 -247l248 247l98 -99l-247 -247l247 -247l-99 -99z" />
    <glyph glyph-name="Oslash" unicode="&#xd8;" horiz-adv-x="1614" 
 />
    <glyph glyph-name="Ugrave" unicode="&#xd9;" horiz-adv-x="1501" 
 />
    <glyph glyph-name="Uacute" unicode="&#xda;" horiz-adv-x="1501" 
 />
    <glyph glyph-name="Ucircumflex" unicode="&#xdb;" horiz-adv-x="1501" 
 />
    <glyph glyph-name="Udieresis" unicode="&#xdc;" horiz-adv-x="1501" 
 />
    <glyph glyph-name="Yacute" unicode="&#xdd;" horiz-adv-x="1233" 
 />
    <glyph glyph-name="Thorn" unicode="&#xde;" horiz-adv-x="1120" 
 />
    <glyph glyph-name="germandbls" unicode="&#xdf;" horiz-adv-x="1251" 
 />
    <glyph glyph-name="agrave" unicode="&#xe0;" horiz-adv-x="922" 
 />
    <glyph glyph-name="aacute" unicode="&#xe1;" horiz-adv-x="922" 
 />
    <glyph glyph-name="acircumflex" unicode="&#xe2;" horiz-adv-x="922" 
 />
    <glyph glyph-name="atilde" unicode="&#xe3;" horiz-adv-x="922" 
 />
    <glyph glyph-name="adieresis" unicode="&#xe4;" horiz-adv-x="922" 
 />
    <glyph glyph-name="aring" unicode="&#xe5;" horiz-adv-x="922" 
 />
    <glyph glyph-name="ae" unicode="&#xe6;" horiz-adv-x="1454" 
 />
    <glyph glyph-name="ccedilla" unicode="&#xe7;" horiz-adv-x="905" 
 />
    <glyph glyph-name="egrave" unicode="&#xe8;" horiz-adv-x="909" 
 />
    <glyph glyph-name="eacute" unicode="&#xe9;" horiz-adv-x="909" 
 />
    <glyph glyph-name="ecircumflex" unicode="&#xea;" horiz-adv-x="909" 
 />
    <glyph glyph-name="edieresis" unicode="&#xeb;" horiz-adv-x="909" 
 />
    <glyph glyph-name="igrave" unicode="&#xec;" horiz-adv-x="514" 
 />
    <glyph glyph-name="iacute" unicode="&#xed;" horiz-adv-x="514" 
 />
    <glyph glyph-name="icircumflex" unicode="&#xee;" horiz-adv-x="514" 
 />
    <glyph glyph-name="idieresis" unicode="&#xef;" horiz-adv-x="514" 
 />
    <glyph glyph-name="eth" unicode="&#xf0;" horiz-adv-x="1139" 
 />
    <glyph glyph-name="ntilde" unicode="&#xf1;" horiz-adv-x="1108" 
 />
    <glyph glyph-name="ograve" unicode="&#xf2;" horiz-adv-x="1010" 
 />
    <glyph glyph-name="oacute" unicode="&#xf3;" horiz-adv-x="1010" 
 />
    <glyph glyph-name="ocircumflex" unicode="&#xf4;" horiz-adv-x="1010" 
 />
    <glyph glyph-name="otilde" unicode="&#xf5;" horiz-adv-x="1010" 
 />
    <glyph glyph-name="odieresis" unicode="&#xf6;" horiz-adv-x="1010" 
 />
    <glyph glyph-name="divide" unicode="&#xf7;" 
d="M87 647v140h839l1 -1v-139h-840zM398 408l82 84q15 14 29 14q13 0 31 -16l80 -86q12 -16 12 -29q0 -15 -14 -31l-80 -88q-20 -20 -29 -20q-16 0 -29 14l-88 101q-10 13 -10 26q0 15 16 31zM398 1101l82 84q15 14 29 14q13 0 31 -16l80 -86q12 -16 12 -29q0 -15 -14 -31
l-80 -88q-20 -20 -29 -20q-16 0 -29 14l-88 101q-10 13 -10 26q0 15 16 31z" />
    <glyph glyph-name="oslash" unicode="&#xf8;" horiz-adv-x="1010" 
 />
    <glyph glyph-name="ugrave" unicode="&#xf9;" horiz-adv-x="1059" 
 />
    <glyph glyph-name="uacute" unicode="&#xfa;" horiz-adv-x="1059" 
 />
    <glyph glyph-name="ucircumflex" unicode="&#xfb;" horiz-adv-x="1059" 
 />
    <glyph glyph-name="udieresis" unicode="&#xfc;" horiz-adv-x="1059" 
 />
    <glyph glyph-name="yacute" unicode="&#xfd;" horiz-adv-x="868" 
 />
    <glyph glyph-name="thorn" unicode="&#xfe;" horiz-adv-x="1010" 
 />
    <glyph glyph-name="ydieresis" unicode="&#xff;" horiz-adv-x="868" 
 />
    <glyph glyph-name="dotlessi" unicode="&#x131;" horiz-adv-x="514" 
d="M328 223q0 -173 100 -173h46v-50h-442v50h46q100 0 100 173v432q0 77 -111 77h-48v44q222 69 261 182h48v-735z" />
    <glyph glyph-name="circumflex" unicode="&#x2c6;" horiz-adv-x="1024" 
d="M221 1079l232 355h118l232 -355h-58l-233 216l-233 -216h-58z" />
    <glyph glyph-name="caron" unicode="&#x2c7;" horiz-adv-x="1024" 
d="M221 1434h58l233 -214l233 214h58l-232 -356h-118z" />
    <glyph glyph-name="uni02C9" unicode="&#x2c9;" horiz-adv-x="1024" 
d="M254 1195v125h516v-125h-516z" />
    <glyph glyph-name="breve" unicode="&#x2d8;" horiz-adv-x="1024" 
d="M219 1349h51q17 -73 75 -107t167 -34t166 33.5t74 107.5h51q-20 -133 -94 -201.5t-197 -68.5q-122 0 -197 69t-96 201z" />
    <glyph glyph-name="dotaccent" unicode="&#x2d9;" horiz-adv-x="1024" 
d="M422 1289l69 72q6 6 13 9t14 3q6 0 12.5 -3t12.5 -9l71 -76q5 -4 7 -10t2 -14q-1 -9 -3 -15t-8 -12l-71 -76q-12 -11 -16 -13.5t-7 -2.5q-10 0 -16.5 2.5t-10.5 8.5l-75 87q-4 4 -6 9.5t-2 13.5q0 6 3 12.5t11 13.5z" />
    <glyph glyph-name="ring" unicode="&#x2da;" horiz-adv-x="1024" 
d="M411 1257q0 -42 29 -71t71 -29t71 29t29 71q0 40 -29.5 69.5t-70.5 29.5t-70.5 -29.5t-29.5 -69.5zM335 1257q0 75 51 126t125 51q76 0 127.5 -51.5t51.5 -125.5q0 -75 -51.5 -126.5t-127.5 -51.5q-74 0 -125 51.5t-51 126.5z" />
    <glyph glyph-name="ogonek" unicode="&#x2db;" horiz-adv-x="1024" 
d="M640 0q-71 -62 -110.5 -119.5t-39.5 -112.5q0 -47 27 -75t73 -28q40 0 69.5 15.5t49.5 48.5l28 -16q-36 -63 -90.5 -97t-119.5 -34q-70 0 -114 35.5t-44 90.5q0 76 60.5 156.5t161.5 135.5h49z" />
    <glyph glyph-name="tilde" unicode="&#x2dc;" horiz-adv-x="1024" 
d="M808 1382q-20 -103 -68.5 -154t-126.5 -51h-4q-50 0 -113 23q-66 24 -114 24q-39 0 -60.5 -20.5t-33.5 -71.5h-54q19 106 68 158.5t129 52.5q46 -1 113 -24q64 -23 112 -23h4q36 0 58 20t36 66h54z" />
    <glyph glyph-name="hungarumlaut" unicode="&#x2dd;" horiz-adv-x="1024" 
d="M217 1079l144 273q24 44 45.5 63t46.5 19q28 0 48 -20t20 -47q0 -16 -10.5 -35t-30.5 -41l-205 -212h-58zM502 1079l144 273q24 44 45.5 63t46.5 19q28 0 48 -20t20 -47q0 -16 -10.5 -35t-30.5 -41l-205 -212h-58z" />
    <glyph glyph-name="endash" unicode="&#x2013;" horiz-adv-x="1108" 
d="M56 419v120h996v-120h-996z" />
    <glyph glyph-name="emdash" unicode="&#x2014;" horiz-adv-x="2048" 
d="M0 419v120h2048v-120h-2048z" />
    <glyph glyph-name="quoteleft" unicode="&#x2018;" horiz-adv-x="557" 
d="M319 1016q-44 0 -88.5 65.5t-44.5 151.5q0 109 71 226.5t139 117.5v-43q-73 -43 -87 -190q0 -119 129 -161v-42z" />
    <glyph glyph-name="quoteright" unicode="&#x2019;" horiz-adv-x="557" 
d="M238 1577q44 0 88.5 -65.5t44.5 -151.5q0 -109 -71 -226.5t-139 -117.5v43q73 43 87 190q0 119 -129 161v42z" />
    <glyph glyph-name="quotesinglbase" unicode="&#x201a;" horiz-adv-x="557" 
d="M238 281q44 0 88.5 -65.5t44.5 -151.5q0 -109 -71 -226.5t-139 -117.5v43q73 43 87 190q0 119 -129 161v42z" />
    <glyph glyph-name="quotedblleft" unicode="&#x201c;" horiz-adv-x="910" 
d="M319 1016q-44 0 -88.5 65.5t-44.5 151.5q0 109 71 226.5t139 117.5v-43q-73 -43 -87 -190q0 -119 129 -161v-42zM672 1016q-44 0 -88.5 65.5t-44.5 151.5q0 109 71 226.5t139 117.5v-43q-73 -43 -87 -190q0 -119 129 -161v-42z" />
    <glyph glyph-name="quotedblright" unicode="&#x201d;" horiz-adv-x="910" 
d="M238 1577q44 0 88.5 -65.5t44.5 -151.5q0 -109 -71 -226.5t-139 -117.5v43q73 43 87 190q0 119 -129 161v42zM591 1577q44 0 88.5 -65.5t44.5 -151.5q0 -109 -71 -226.5t-139 -117.5v43q73 43 87 190q0 119 -129 161v42z" />
    <glyph glyph-name="quotedblbase" unicode="&#x201e;" horiz-adv-x="910" 
d="M238 281q44 0 88.5 -65.5t44.5 -151.5q0 -109 -71 -226.5t-139 -117.5v43q73 43 87 190q0 119 -129 161v42zM591 281q44 0 88.5 -65.5t44.5 -151.5q0 -109 -71 -226.5t-139 -117.5v43q73 43 87 190q0 119 -129 161v42z" />
    <glyph glyph-name="dagger" unicode="&#x2020;" 
d="M486 1022q-8 97 -54 178q-57 101 -57 129q0 49 36 78.5t96 29.5q57 0 94.5 -27.5t37.5 -71.5q0 -32 -55 -137q-46 -85 -55 -179q96 8 177 54q101 57 129 57q49 0 79 -36t30 -96q0 -57 -27.5 -94.5t-72.5 -37.5q-32 0 -136 55q-85 46 -179 57q8 -176 110 -277
q-106 -460 -112 -974h-38q-6 514 -114 974q102 101 111 277q-96 -10 -178 -55q-101 -57 -129 -57q-49 0 -78.5 36t-29.5 96q0 57 27.5 94.5t71.5 37.5q32 0 137 -56q85 -46 179 -55z" />
    <glyph glyph-name="daggerdbl" unicode="&#x2021;" 
d="M528 186q94 11 179 57q104 55 136 55q45 0 72.5 -37.5t27.5 -94.5q0 -60 -30 -96t-79 -36q-28 0 -129 57q-81 46 -177 54q9 -94 55 -179q55 -105 55 -137q0 -44 -37.5 -71.5t-94.5 -27.5q-60 0 -96 29.5t-36 78.5q0 28 57 129q46 81 54 178q-94 -9 -179 -55
q-105 -56 -137 -56q-44 0 -71.5 37.5t-27.5 94.5q0 60 29.5 96t78.5 36q28 0 129 -57q82 -45 178 -55q-9 226 -111 398q102 171 111 397q-96 -10 -178 -55q-101 -57 -129 -57q-49 0 -78.5 36t-29.5 96q0 57 27.5 94.5t71.5 37.5q32 0 137 -56q85 -46 179 -55q-8 97 -54 178
q-57 101 -57 129q0 49 36 78.5t96 29.5q57 0 94.5 -27.5t37.5 -71.5q0 -32 -55 -137q-46 -85 -55 -179q96 8 177 54q101 57 129 57q49 0 79 -36t30 -96q0 -57 -27.5 -94.5t-72.5 -37.5q-32 0 -136 55q-85 46 -179 57q8 -226 110 -397q-102 -172 -110 -398z" />
    <glyph glyph-name="bullet" unicode="&#x2022;" horiz-adv-x="1024" 
d="M216 718q0 123 87 209t210 86q122 0 208.5 -86.5t86.5 -208.5t-87.5 -209.5t-209.5 -87.5q-123 0 -209 87t-86 210z" />
    <glyph glyph-name="ellipsis" unicode="&#x2026;" horiz-adv-x="2048" 
d="M145 167l82 84q15 14 29 14q13 0 31 -16l80 -86q12 -16 12 -29q0 -15 -14 -31l-80 -88q-20 -20 -29 -20q-16 0 -29 14l-88 101q-10 13 -10 26q0 15 16 31zM828 167l82 84q15 14 29 14q13 0 31 -16l80 -86q12 -16 12 -29q0 -15 -14 -31l-80 -88q-20 -20 -29 -20
q-16 0 -29 14l-88 101q-10 13 -10 26q0 15 16 31zM1511 167l82 84q15 14 29 14q13 0 31 -16l80 -86q12 -16 12 -29q0 -15 -14 -31l-80 -88q-20 -20 -29 -20q-16 0 -29 14l-88 101q-10 13 -10 26q0 15 16 31z" />
    <glyph glyph-name="guilsinglleft" unicode="&#x2039;" horiz-adv-x="631" 
d="M174 479l342 303h14v-37l-205 -266l205 -266v-37h-14z" />
    <glyph glyph-name="guilsinglright" unicode="&#x203a;" horiz-adv-x="631" 
d="M115 176h-14v37l205 266l-205 266v37h14l342 -303z" />
    <glyph glyph-name="fraction" unicode="&#x2044;" horiz-adv-x="342" 
d="M-342 -29l940 1461h84l-938 -1461h-86z" />
    <glyph glyph-name="fraction" unicode="&#x2215;" horiz-adv-x="342" 
d="M-342 -29l940 1461h84l-938 -1461h-86z" />
    <glyph glyph-name="franc" unicode="&#x20a3;" 
d="M247 357h-194v60h194v732q0 235 -103 235h-96v50h915l103 -231h-49q-59 182 -190 182l-316 -1q-102 0 -102 -235v-352h361q100 0 100 63v58h50v-342h-50v60q0 62 -100 62h-361v-281h194v-60h-194v-72q0 -235 102 -235h97v-50h-560v50h96q103 0 103 235v72z" />
    <glyph glyph-name="lira" unicode="&#x20a4;" 
d="M748 1347q-72 31 -160 31h-2q-100 0 -190 -101q-84 -93 -84 -241q0 -15 1 -30q0 -106 33 -213h380v-60h-360q12 -30 26 -60h352v-60h-321q35 -63 35 -138q0 -161 -162 -375h402q130 0 189 132l49 -1l-103 -231h-719l1 50q187 238 187 418q0 77 -34 143l-2 2h-172v60h143
q-14 31 -26 60h-135v60h113q-36 107 -36 193q0 226 123.5 347t310.5 121q75 0 185.5 -14t110.5 -34v-161h-58q-5 61 -77 102z" />
    <glyph glyph-name="peseta" unicode="&#x20a7;" horiz-adv-x="2028" 
d="M409 1384v-662q3 -9 7 -17q41 -102 108 -153q57 -44 116 -44q10 0 19 1q68 8 127 75t87 177q22 87 22 179q0 24 -1 47q-7 116 -49.5 218.5t-108.5 144.5q-56 35 -112 35q-10 0 -21 -1h-194zM1496 908h-179v-685q0 -81 34 -119q28 -31 81 -37l-71 192l49 1
q55 -130 114 -174q57 -44 127 -44h7q92 0 151 52q59 53 59 136q0 102 -259 226q-101 52 -144 112t-43 145q0 121 73 194zM1039 910q-7 -101 -48 -194q-50 -114 -141 -177.5t-190 -63.5q-100 0 -191 64q-33 22 -60 51v-305q0 -235 102 -235h97v-50h-560v50h96q103 0 103 235
v864q0 235 -103 235h-96v50h618q92 -2 181 -62q91 -62 143 -177q50 -113 51 -237h10q216 0 216 355h50v-355h259q42 19 110 20h2q54 0 133.5 -13.5t79.5 -33.5v-159h-42q-4 66 -65.5 108t-133.5 42q-64 0 -102.5 -36.5t-38.5 -96.5q0 -108 235 -220q122 -55 167.5 -117.5
t45.5 -153.5q0 -140 -83 -231q-102 -84 -228 -86q-58 0 -105 11q-28 6 -56 6q-18 0 -36 -3q-28 -5 -59 -5q-124 0 -173.5 57t-57.5 176h-1v687h-129z" />
    <glyph glyph-name="Euro" unicode="&#x20ac;" 
d="M140 372q-62 135 -76 281h-108l17 60h87v29q0 16 1 31h-71l17 60h58q14 145 76 281q81 178 226 274t298 96q43 0 87 -8q40 -10 82 -29q8 -6 16 -6q20 0 34 45h41l84 -281l-40 -1q-49 134 -138 178q-43 22 -81 32v3q-50 16 -101 16q-17 0 -34 -2q-120 -12 -226 -113.5
t-157 -273.5q-32 -104 -39 -211h706l-17 -60h-692q0 -30 2 -60h674l-17 -60h-652q17 -158 83 -298q74 -157 193 -236q102 -68 216 -69q186 3 256 91q74 91 74 185h48v-143q0 -70 -111 -127q-105 -54 -267 -56q-181 0 -325.5 98t-223.5 274z" />
    <glyph glyph-name="afii61352" unicode="&#x2116;" horiz-adv-x="2271" 
 />
    <glyph glyph-name="trademark" unicode="&#x2122;" horiz-adv-x="1497" 
 />
    <glyph glyph-name="partialdiff" unicode="&#x2202;" 
d="M232 537q0 -41 5 -79q14 -122 61.5 -230t118.5 -165q64 -53 128 -53q6 0 13 1q70 5 127.5 70.5t80.5 179.5q16 73 16 149q0 42 -5 85q-14 122 -62.5 231.5t-119.5 165.5q-65 50 -128 50h-11q-68 -5 -126 -69.5t-82 -178.5q-16 -84 -16 -157zM937 477q0 -132 -56.5 -251
t-159 -185t-214.5 -66t-214.5 66t-159 185t-56.5 251q0 131 58 251t161 185t211 65q109 0 212 -65q29 -18 54 -41q-84 235 -233.5 377t-326.5 155v55q306 0 515 -285t209 -697z" />
    <glyph glyph-name="Delta" unicode="&#x2206;" horiz-adv-x="1081" 
d="M514 1195l-406 -1072h801zM547 1434l526 -1434h-1067z" />
    <glyph glyph-name="product" unicode="&#x220f;" horiz-adv-x="1515" 
d="M511 1384q-102 0 -102 -235v-1281q0 -235 102 -235h97v-51h-560v51h96q103 0 103 235v1281q0 235 -103 235h-96v50h1419v-50h-97q-102 0 -102 -235v-1281q0 -235 102 -235h97v-50h-560v50h96q103 0 103 235v1281q0 235 -103 235h-492z" />
    <glyph glyph-name="summation" unicode="&#x2211;" horiz-adv-x="1206" 
d="M1059 548l-788 -914h635q130 0 189 182h49l-103 -232h-921v50q62 0 106 53l663 781l-663 859q-44 57 -106 57v50h921l103 -232h-49q-59 182 -189 182h-485z" />
    <glyph glyph-name="minus" unicode="&#x2212;" 
d="M87 647v140h839l1 -1v-139h-840z" />
    <glyph glyph-name="radical" unicode="&#x221a;" 
d="M181 0l-164 359l74 35l85 -185l728 1470h150v-60h-72z" />
    <glyph glyph-name="infinity" unicode="&#x221e;" 
d="M439 755q-15 103 -74 133q-46 22 -84 22q-12 0 -23 -2q-49 -10 -92.5 -44.5t-65.5 -84.5q-20 -46 -20 -90v-8q2 -48 27.5 -89t71.5 -58q29 -11 61 -11q16 0 33 3q47 10 90.5 43.5t75.5 185.5zM466 687q12 -96 94 -153q69 -48 123 -48q11 0 21 2q62 12 117.5 52t84.5 101
q26 54 26 108v11q-2 60 -35.5 108.5t-91.5 68.5q-37 13 -76 13q-22 0 -44 -4q-67 -9 -127 -62t-92 -197zM450 827q9 35 21 69q34 88 95 137t128 49t128 -48t95 -135t34 -182t-34 -182t-95 -135t-128 -48t-128 49t-95 136q-12 35 -21 70q-5 -21 -12 -41q-27 -73 -74 -113
t-99 -40t-100 41t-73.5 113.5t-25.5 149.5q0 76 25.5 149t73.5 114t100 41t99 -40t74 -112q7 -21 12 -42z" />
    <glyph glyph-name="integral" unicode="&#x222b;" horiz-adv-x="665" 
d="M-12 -281q-60 0 -60 29v159h36q1 -43 34.5 -64.5t63.5 -21.5h1q82 0 115 162q32 162 40 316l70 734l8 62q27 238 135 429.5t234 191.5q60 0 60 -29v-159h-36q-1 43 -35 64.5t-63 21.5q-71 0 -116 -155.5t-49 -363.5l-73 -767q-20 -231 -130.5 -420t-234.5 -189z" />
    <glyph glyph-name="approxequal" unicode="&#x2248;" 
d="M923 1053v-156q-63 -72 -122 -97.5t-116 -25.5q-60 0 -177.5 48.5t-176.5 48.5q-51 0 -107.5 -28t-129.5 -112v156q64 73 123 99t114 26q64 0 181.5 -49.5t172.5 -49.5q52 0 108.5 28t129.5 112zM923 705v-156q-63 -72 -122 -97.5t-116 -25.5q-60 0 -177.5 48.5
t-176.5 48.5q-51 0 -107.5 -28t-129.5 -112v156q64 73 123 99t114 26q64 0 181.5 -49.5t172.5 -49.5q52 0 108.5 28t129.5 112z" />
    <glyph glyph-name="lessequal" unicode="&#x2264;" 
d="M927 1074l-625 -359l625 -355v-167l-840 481v83l840 484v-167zM87 1v140h839l1 -1v-139h-840z" />
    <glyph glyph-name="greaterequal" unicode="&#x2265;" 
d="M87 1241l840 -484v-83l-840 -481v167l625 355l-625 359v167zM87 2v140h839l1 -1v-139h-840z" />
    <glyph glyph-name="uniF001" unicode="&#xf001;" horiz-adv-x="1073" 
 />
    <glyph glyph-name="uniF001" unicode="&#xfb01;" horiz-adv-x="1073" 
 />
    <glyph glyph-name="uniF002" unicode="&#xf002;" horiz-adv-x="1081" 
 />
    <glyph glyph-name="uniF002" unicode="&#xfb02;" horiz-adv-x="1081" 
 />
  </font>
</defs>
</svg>
