<?xml version="1.0" standalone="no"?>
<!DOCTYPE svg PUBLIC "-//W3C//DTD SVG 1.1//EN" "http://www.w3.org/Graphics/SVG/1.1/DTD/svg11.dtd" >
<svg xmlns="http://www.w3.org/2000/svg" xmlns:xlink="http://www.w3.org/1999/xlink" version="1.1">
<metadata>
Created by FontForge 20170924 at Fri Jul  8 03:37:21 1927
 By www-data
Generated by Fontographer 3.5                    Stars &#38; Stripes     Created by J. Fordyce, 1993
</metadata>
<defs>
<font id="Stars-&#38;Stripes" horiz-adv-x="4" >
  <font-face 
    font-family="Stars &#38; Stripes"
    font-weight="400"
    font-stretch="normal"
    units-per-em="1000"
    panose-1="0 0 0 0 0 0 0 0 0 0"
    ascent="800"
    descent="-200"
    x-height="793"
    cap-height="793"
    bbox="15.4706 -116 1130 901"
    underline-thickness="20"
    underline-position="-143"
    unicode-range="U+0020-007E"
  />
<missing-glyph horiz-adv-x="800" 
d="M50 0v800h700v-800h-700zM700 50v700h-600v-700h600z" />
    <glyph glyph-name=".notdef" horiz-adv-x="800" 
d="M50 0v800h700v-800h-700zM700 50v700h-600v-700h600z" />
    <glyph glyph-name=".null" horiz-adv-x="0" 
 />
    <glyph glyph-name="nonmarkingreturn" horiz-adv-x="500" 
 />
    <glyph glyph-name="space" unicode=" " horiz-adv-x="500" 
 />
    <glyph glyph-name="exclam" unicode="!" horiz-adv-x="264" 
d="M242 578l-28 -331h-18v155h-45v-155h-42v156h-41v-156h-19v84q0 36 -9 94t-9 95v276h211v-218zM237 4h-41v196h41v-196zM154 4h-40v196h40v-196zM72 4h-42v196h42v-196zM203 712q-9 0 -17 -0.5t-15 -0.5q-19 0 -24.5 13.5t-11.5 39.5q-5 -38 -9 -45.5t-23 -7.5h-16.5
t-18.5 1q19 -6 30 -14.5t11 -19.5q0 -13 -2.5 -19t-13.5 -20q18 14 27 20t15 6q7 0 20.5 -8.5t21.5 -20.5q-16 42 -16 44q0 8 15.5 18t26.5 14zM200 538h-54q-3 13 -8 28.5t-6 22.5q-5 -36 -14 -43.5t-54 -7.5q18 -5 29 -13.5t11 -20.5q0 -6 -0.5 -11.5t-12.5 -30.5
q6 8 18 17q16 12 23 12q11 0 25 -12q9 -8 17 -17q-7 14 -13 30q-2 5 -4 13q7 9 12 13q15 14 31 20z" />
    <glyph glyph-name="quotedbl" unicode="&#x22;" horiz-adv-x="384" 
d="M372 621l-150 -116q-8 11 -7.5 17.5t0.5 8.5q0 12 7 24q22 27 39 50v11h-46v187h157v-182zM174 623l-151 -116q-8 11 -7.5 17.5t0.5 8.5q0 19 18 41l28 34v10h-46v187h158v-182zM358 721q-9 0 -17 -0.5t-14 -0.5q-16 0 -21 8t-13 43q-4 -38 -12 -44t-52 -6
q16 -6 28 -14.5t12 -20.5q0 -6 -7 -24q-2 -5 -7 -17q5 7 18 17.5t20 10.5q9 0 18 -5.5t22 -22.5l-15 43q3 5 5 7q14 17 35 26zM159 723q-11 0 -18.5 -0.5t-12.5 -0.5q-15 0 -20 8.5t-13 42.5q-5 -38 -13 -44t-52 -6q15 -5 27.5 -14t12.5 -20q0 -8 -7 -25q-2 -5 -7 -16
q4 6 18 17t21 11t17.5 -7t22.5 -21q-6 15 -13 35q-1 3 -2 7q5 8 9 12q13 13 30 21z" />
    <glyph glyph-name="numbersign" unicode="#" 
 />
    <glyph glyph-name="dollar" unicode="$" horiz-adv-x="492" 
d="M466 287q0 -18 -1 -29q-7 -65 -32 -83v226q15 -15 24 -47t9 -67zM447 630q-9 -8 -77 -40t-80 -32q-6 5 -13 10q-14 10 -35 10q-19 0 -35.5 -15.5t-16.5 -29.5q0 -37 128 -58q73 -12 102 -54h-23v-303l-24 -20h-10v323h-32v-409h-34v409h-37v-83h-33v83h-32v-73h-21
q-14 11 -14 25v23t1 25h-36v-53h-14q-13 10 -17 15t-4 12q1 13 1 26q-35 0 -53 34.5t-18 88.5q0 47 23 93.5t58 72.5q21 15 40.5 22.5t19.5 27.5v23h166q0 -45 15 -51q44 -18 105 -102zM260 12h-33v223h33v-223zM194 12h-33v272h33v-272zM121 98l-26 22q-4 4 -4 12v123h30
v-157zM54 175q-9 10 -12 18q-10 22 -11 25v10h23v-53zM390 670h-47q-7 23 -13 47q-4 -34 -12.5 -40.5t-47.5 -6.5q15 -4 25.5 -12.5t10.5 -18.5q0 -8 -3.5 -18.5t-8.5 -20.5q4 6 18.5 17t17.5 11q7 0 21 -12q10 -9 16 -16l-15 39q2 5 4 7q13 17 34 24zM224 670h-47
q-7 23 -13 47q-4 -32 -13 -39.5t-47 -7.5q16 -5 26 -13t10 -18q0 -16 -13 -39q6 8 21 19l15 9q7 0 19 -9t18 -19l-14 39q0 8 15 18.5t23 12.5zM167 521q-8 0 -15 -0.5t-13 -0.5q-15 0 -19.5 6.5t-12.5 40.5q-4 -37 -11 -41.5t-49 -4.5q12 -4 24.5 -14t12.5 -17q0 -9 -6 -24
q-2 -5 -7 -15q9 13 28 23q3 1 8 4q8 0 21 -11q9 -7 16 -16l-14 38q0 8 13.5 18t23.5 14z" />
    <glyph glyph-name="percent" unicode="%" 
 />
    <glyph glyph-name="ampersand" unicode="&#x26;" horiz-adv-x="648" 
d="M618 350q0 -7 -6 -16q-2 -4 -9 -12h-17v70h-43v-192q-3 -11 -5 -18q-14 -41 -32 -62v273h-42v-330q-12 -10 -16 -13q-11 -8 -24 -15l-1 358h-42v-380l-22 -7h-14v463h273v-119zM503 645q-64 -30 -108.5 -50.5t-63.5 -25.5q-5 11 -12 19q-13 15 -33 15q-13 0 -29.5 -9.5
t-16.5 -30.5q0 -29 25.5 -40.5t33.5 -17.5v-176h-33v72l-40 3v-398q-18 3 -23.5 5t-15.5 9v383h-43v-357q-12 3 -21 10q-12 12 -19 18v327q-5 1 -13.5 1.5t-15.5 1.5q5 15 11.5 22.5t6.5 14.5q-17 26 -30 62.5t-13 71.5q0 97 82 167q73 62 150 62q57 0 126 -41
q82 -49 95 -118zM302 -2h-36v213h36v-213zM64 135q-20 28 -27.5 56t-7.5 68q0 35 8 73t27 55v-252zM442 710h-51q-3 12 -8 27.5t-6 21.5q-5 -35 -10.5 -42t-28.5 -7h-25q12 -5 24.5 -15.5t12.5 -18.5q0 -13 -2.5 -20.5t-10.5 -21.5q6 9 20.5 19t18.5 10q10 0 22 -10t18 -19
l-14 41q0 10 12 19t28 16zM273 710q-23 -1 -30 -1q-16 0 -21.5 8t-13.5 42q-4 -33 -10 -41t-25 -8h-29q16 -7 24 -13q14 -11 14 -21q0 -14 -5 -25t-8 -17q5 7 19.5 18t19.5 11q10 0 23 -11q9 -7 17 -18l-14 41q2 7 5 11q10 14 34 24zM215 537q-23 -1 -30 -1q-16 0 -20.5 7.5
t-13.5 44.5q-5 -40 -12.5 -45.5t-52.5 -5.5q25 -7 35 -21q3 -4 5 -12q0 -16 -6 -27q-8 -11 -9 -12q33 26 40 26q8 0 23 -12q11 -9 17 -18q-16 42 -16 44q0 10 13.5 18.5t26.5 13.5z" />
    <glyph glyph-name="quotesingle" unicode="'" horiz-adv-x="204" 
d="M180 614l-150 -116q-8 11 -7.5 17.5t0.5 8.5q0 19 18 41l28 34v10h-46v187h157v-182zM166 714q-11 0 -18.5 -0.5t-12.5 -0.5q-15 0 -20 8.5t-13 42.5q-5 -38 -13 -44t-52 -6q15 -5 27.5 -14t12.5 -20q0 -8 -7 -25q-2 -5 -7 -16q4 6 18 17t21 11t17.5 -7t22.5 -21l-16 42
q3 5 5 7q14 17 35 26z" />
    <glyph glyph-name="parenleft" unicode="(" 
 />
    <glyph glyph-name="parenright" unicode=")" 
 />
    <glyph glyph-name="asterisk" unicode="*" 
 />
    <glyph glyph-name="plus" unicode="+" horiz-adv-x="532" 
d="M500 343h-36v56l-37 3v-59h-33v56l-37 3v-196h-36v193l-37 3v-196h-35v196h-35v-196h-36v193l-37 3v-59h-36v56l-37 3v-59h-33v119h143v136h179v-136h143v-119zM327 542q-8 0 -15 -0.5t-13 -0.5q-15 0 -19.5 6.5t-12.5 41.5q-4 -33 -9.5 -40t-29.5 -7h-20q9 -3 16 -8
q20 -13 20 -23q0 -9 -6 -24q-2 -5 -7 -15q8 11 27 23q3 2 9 5q7 0 19 -10.5t18 -17.5l-14 39q0 5 11 15t26 16z" />
    <glyph glyph-name="comma" unicode="," horiz-adv-x="248" 
d="M227 8q0 -8 -40 -46v233h40v-187zM148 -78q-11 -11 -21 -22q-6 -6 -19 -14v309h40v-273zM68 2h-38v193h38v-193zM68 -114h-38v29l38 39v-68z" />
    <glyph glyph-name="hyphen" unicode="-" horiz-adv-x="340" 
d="M309 307h-39v79h-43v-79h-36v79h-43v-79h-36v79h-43v-79h-40v173h280v-173z" />
    <glyph glyph-name="period" unicode="." horiz-adv-x="264" 
d="M234 0h-44v200h44v-200zM151 0h-40v200h40v-200zM73 0h-40v200h40v-200z" />
    <glyph glyph-name="slash" unicode="/" 
 />
    <glyph glyph-name="zero" unicode="0" horiz-adv-x="580" 
d="M549 263q0 -28 -9.5 -67t-25.5 -62l-3 266h-44v-331l-37 -25v356h-42v-374l-21 -14h-15v502q0 28 -18 52t-49 24q-22 0 -40.5 -17.5t-18.5 -36.5l-2 -521h-12q-6 3 -10 5.5t-11 8.5v371h-44v-352q-12 7 -23.5 15t-11.5 25v312h-43v-266q-13 13 -26.5 48t-13.5 60v312
q0 73 58 146q76 95 200 95q113 0 191 -87q71 -79 71 -172v-273zM305 4h-36v201h36v-201zM441 709h-49q-6 17 -8 25q-6 18 -7 24q-5 -33 -10 -41.5t-20 -8.5q-19 1 -34 1q17 -8 27 -17.5t10 -17.5q0 -12 -2.5 -19.5t-9.5 -21.5q11 14 29 24q3 1 9 4q11 0 24 -10q9 -7 16 -18
l-14 42q0 9 9 16q13 10 30 18zM514 522h-51l-14 49q-5 -40 -12 -44.5t-53 -4.5q9 -2 24.5 -13t15.5 -21q0 -9 -5 -21t-9 -21q8 11 21 20t18 9q7 0 19 -9t21 -20l-15 41q0 7 13 18t27 17zM262 709q-23 -1 -30 -1q-16 0 -21.5 8t-13.5 42q-4 -33 -9.5 -41t-25.5 -8h-29
q20 -10 27 -16q11 -10 11 -19v-12q-5 -11 -13 -29q5 7 18.5 17.5t20.5 10.5q9 0 18 -5.5t22 -22.5q-5 15 -8 23q-6 17 -6 19q0 9 9 16q13 10 30 18zM191 525h-51q-7 25 -14 51q-5 -40 -12.5 -45.5t-52.5 -5.5q16 -5 27.5 -14t11.5 -20q0 -7 -3.5 -18.5t-10.5 -23.5
q7 10 23 21q5 4 16 10q5 0 18.5 -9t21.5 -22l-15 42q0 9 18 22q13 9 23 12z" />
    <glyph glyph-name="one" unicode="1" horiz-adv-x="256" 
d="M224 3h-38v386h-41v-386h-38v386h-40v-386h-37v786h194v-786zM188 713q-11 0 -18.5 -0.5t-12.5 -0.5q-16 0 -20.5 7.5t-13.5 44.5q-4 -36 -13.5 -43.5t-51.5 -7.5q25 -7 35 -21q3 -4 5 -12q0 -9 -5 -21t-9 -21q4 6 20 18t19 12q5 0 16 -8q19 -14 24 -22l-15 42q0 8 13 18
t27 15zM192 526h-50q-5 16 -9 32t-5 19q-6 -36 -11.5 -43.5t-31.5 -7.5h-22q12 -3 25 -12.5t13 -21.5q0 -10 -3.5 -19t-9.5 -22q10 12 22 20t17 8q10 0 23 -10q8 -6 17 -18l-14 42q2 4 4 7q13 19 35 26z" />
    <glyph glyph-name="two" unicode="2" horiz-adv-x="596" 
d="M569 542q0 -61 -17 -100q-22 -51 -69 -51q-1 -4 -3 -31t-36 -59v90h-44v-126q0 -8 -10 -19q-17 -16 -29 -28l-1 173h-41v-392h-41v384q0 3 -2 6t-5 7q36 48 64.5 87t28.5 71q0 7 -15 23q-19 20 -40 20q-29 0 -49 -24t-29 -24q-54 34 -80 51q-81 54 -81 63q30 46 55 69
q77 70 181 70q112 0 189 -80q74 -77 74 -180zM559 -1h-36v191h36v-191zM480 -1h-36v191h36v-191zM400 -1h-39v191h39v-191zM235 -1h-39v294q0 19 19 40q14 15 20 22v-356zM153 -1h-36v202q0 8 15 26q10 12 21 28v-256zM77 -1h-35v118q7 12 13.5 20.5t21.5 23.5v-162z
M462 721h-51q-3 13 -8 28.5t-6 22.5q-4 -36 -13 -43.5t-52 -7.5q25 -7 35 -21q3 -4 5 -12q0 -16 -6 -27q-8 -11 -9 -12q34 26 40 26q9 0 22.5 -11.5t17.5 -18.5l-15 44q0 7 14.5 18t25.5 14zM530 534q-11 0 -18.5 -0.5t-12.5 -0.5q-16 0 -20.5 7.5t-13.5 44.5
q-4 -36 -13.5 -43.5t-51.5 -7.5q17 -4 28 -12.5t11 -20.5q0 -10 -4 -21.5t-9 -20.5q4 6 20 18t19 12q5 0 16 -8q19 -14 24 -22l-14 42q0 11 19 23q6 4 20 10zM286 721h-51q-3 13 -8 28.5t-6 22.5q-4 -36 -13.5 -43.5t-51.5 -7.5q17 -5 28 -13.5t11 -19.5q0 -19 -15 -39
q4 3 18.5 14.5t21.5 11.5q8 0 21 -9.5t20 -20.5q-6 14 -12 31q-1 5 -4 13q7 9 12 13q15 15 29 19z" />
    <glyph glyph-name="three" unicode="3" horiz-adv-x="548" 
d="M527 249q0 -37 -8 -67t-28 -59l-3 249q19 -14 29 -47.5t10 -75.5zM516 558q0 -40 -13 -83q-18 -60 -55 -85v-309q0 -11 -14 -22q-8 -7 -24 -14v348h-43v-369l-10 -10q-9 -2 -30 -8v388h-38v-68h-40v164q31 0 52.5 21.5t21.5 52.5q0 14 -17 28t-35 14q-24 0 -43 -19
l-30 -30l-160 96q26 73 108 116q65 34 122 34q103 0 175.5 -70.5t72.5 -174.5zM288 3h-39v185h39v-185zM206 13h-18l-18 11v231q7 6 16.5 10.5t19.5 10.5v-263zM127 49q-13 6 -20 12t-19 17v134q19 7 39 15v-178zM46 134q-6 7 -14 19.5t-8 20.5q0 4 3 5.5t8 4.5h11v-50z
M424 716q-11 0 -18.5 -0.5t-12.5 -0.5q-16 0 -20.5 7.5t-13.5 43.5q-4 -35 -13 -42.5t-51 -7.5q38 -10 38 -33q0 -6 -0.5 -11t-11.5 -29q5 7 18 17t20 10q10 0 24 -11q8 -6 16 -16q-7 15 -12 28q-1 5 -4 13q7 9 11 13q14 14 30 19zM477 533h-50l-14 49q-5 -40 -12 -44.5
t-53 -4.5q17 -6 28 -14.5t11 -19.5t-2.5 -18t-10.5 -23q8 11 24 21q5 3 14 8q9 0 21 -10t20 -19l-17 40q0 6 11.5 16t29.5 19zM245 716h-50l-14 50q-4 -35 -13 -42.5t-51 -7.5q15 -4 26.5 -13.5t11.5 -19.5q0 -11 -2.5 -17t-11.5 -23q22 27 39 27q12 0 25 -11l16 -16
q-7 15 -12 28q-1 5 -4 13q0 7 10.5 16.5t29.5 15.5z" />
    <glyph glyph-name="four" unicode="4" horiz-adv-x="652" 
d="M624 156h-37v171h37v-171zM548 5h-42v387h-38v-387h-39v386h-43v-386h-43v506q-9 -12 -38 -80q-17 -40 -41 -74v40h-39v-235h-41v235h-38v-235h-41v235h-21l176 395h288v-787zM303 162h-39v165h39v-165zM67 162h-40v113q16 32 21 43q11 24 19 35v-191zM425 709h-50
l-14 50q-5 -37 -10 -43.5t-32 -6.5h-22q12 -4 24.5 -13.5t12.5 -20.5q0 -9 -3.5 -20t-9.5 -19q14 11 30 21q3 2 9 5q9 0 21 -9t19 -20q-8 21 -11 29.5t-3 13.5q5 8 9 12q13 15 30 21zM512 533q-9 0 -17 -0.5t-15 -0.5q-15 0 -20 8.5t-13 42.5q-4 -34 -14 -42t-51 -8
q17 -5 28 -14t11 -20q0 -10 -3 -18.5t-10 -23.5q4 8 19 19t20 11q8 0 23 -13q11 -9 17 -17l-14 42q0 10 19 23q6 4 20 11zM303 533q-9 0 -17 -0.5t-15 -0.5q-15 0 -20 8.5t-13 42.5q-4 -35 -13.5 -42.5t-51.5 -7.5q30 -9 38 -26q1 -3 2 -8q0 -9 -5 -21t-9 -21q6 10 25 23
q10 7 14 7q5 0 16 -8q19 -14 24 -22l-15 42q0 7 12.5 17.5t27.5 16.5z" />
    <glyph glyph-name="five" unicode="5" horiz-adv-x="572" 
d="M544 250q0 -34 -8 -67q-12 -48 -34 -67v266l-40 3v-305q0 -29 -38 -43v347h-43v-371q-8 -4 -18 -8t-22 -6l-2 386h-40v-43h-39q3 9 3 19q0 9 -3 24h-39v-43h-37v40l-42 3v-43l-37 3v40h-39q-2 -9 -5 -16q2 -8 2 -20l-29 4l43 447h400v-204h-225q0 -16 -5.5 -46.5
t-5.5 -50.5q169 0 244 -80q59 -63 59 -169zM298 -1h-36v186h36v-186zM219 5q-14 4 -19.5 6t-15.5 9v211l25 14h10v-240zM141 45q-13 4 -22.5 12.5t-13.5 12.5v136l36 14v-175zM63 131q-10 11 -17 22q-3 4 -9 17v10l26 11v-60zM445 722h-50q-6 17 -8 25q-5 15 -6 24
q-6 -34 -10.5 -42t-20.5 -8q-19 1 -34 1q18 -7 28.5 -15.5t10.5 -18.5q0 -9 -2.5 -14.5t-11.5 -27.5q5 8 20 18.5t19 10.5q9 0 18 -6.5t21 -22.5l-15 41q0 11 15 21q9 6 26 14zM230 722h-50l-14 49q-5 -40 -12 -44.5t-53 -4.5q17 -6 28 -15t11 -19q0 -9 -2.5 -15t-11.5 -27
q7 9 24 20l15 9q10 0 22 -10t19 -19l-17 41q0 6 11.5 16t29.5 19zM206 531h-51q-3 13 -8 28.5t-6 22.5q-7 -41 -13 -46t-51 -5q11 -3 24 -12.5t13 -20.5q0 -10 -3.5 -21t-9.5 -21q7 9 24 21l15 9q7 0 19.5 -9t20.5 -21l-14 42q0 10 15 20t25 13z" />
    <glyph glyph-name="six" unicode="6" horiz-adv-x="584" 
d="M558 240q0 -37 -10 -73.5t-29 -50.5v247q16 -14 27.5 -51t11.5 -72zM545 622q0 -8 -35 -26q-43 -23 -135 -64h-11q-5 26 -24 40t-43 14q-33 0 -46 -22q-4 -7 -17 -50v-22h54h24.5t33.5 -2t73 -31q64 -35 83 -72h-22v-313q0 -10 -9.5 -20.5t-30.5 -17.5l-2 351h-41v-373
l-22 -7h-18v380h-44v-98h-38v98h-41v-380h-14l-26 11v369h-43v-348q-15 8 -24 16q-15 13 -15 26v305h-44v-260q-36 52 -36 106v261q0 137 71.5 218.5t194.5 81.5q71 0 154 -51q93 -57 93 -120zM313 4h-35v186h35v-186zM462 690h-51l-14 50q-5 -39 -12.5 -44.5t-52.5 -5.5
q19 -6 29 -15q6 -5 11 -17q0 -5 -4.5 -18t-10.5 -24q8 11 25 21q5 3 15 8q7 0 19 -9t21 -20l-15 41q0 7 15 18t25 15zM259 690q-11 0 -18.5 -0.5t-12.5 -0.5q-16 0 -20.5 7.5t-13.5 43.5q-4 -39 -11.5 -44.5t-53.5 -5.5q17 -5 28 -13.5t11 -18.5q0 -11 -4 -22q-7 -15 -9 -20
q9 13 24 22q5 3 15 7q10 0 22 -10t18 -19l-14 41q0 9 6 14q10 9 33 19zM202 518h-51l-14 49q-5 -39 -12.5 -44t-52.5 -5q18 -6 29 -15t11 -19q0 -7 -7 -24q-2 -5 -8 -16q7 9 17 16q16 12 23 12q11 0 24 -11q6 -5 16 -17l-15 42q0 8 11.5 17t28.5 15z" />
    <glyph glyph-name="seven" unicode="7" horiz-adv-x="572" 
d="M551 772l-125 -375h-30v-83q0 -10 -8 -30q-24 -60 -29 -86l-2 199h-38v-316q-3 -16 -5 -25q-7 -26 -21 -50h-17v391h-39v-391h-40v391l74 186v13h-240v202h520v-26zM153 6h-40v177q21 62 22 65q8 17 18 27v-269zM72 6h-30q10 23 13 30q9 20 17 45v-75zM470 718h-52
l-14 50q-5 -36 -11 -43t-34 -7h-22q26 -10 36 -23q3 -4 5 -11q0 -9 -5.5 -23t-9.5 -20q7 8 30 24q4 2 11 7q8 0 21.5 -11.5t19.5 -19.5l-16 43q0 7 13 17.5t28 16.5zM234 718q-11 0 -18.5 -0.5t-12.5 -0.5q-16 0 -21.5 8t-14.5 43q-4 -35 -9.5 -42.5t-26.5 -7.5h-29
q15 -6 27 -14.5t12 -19.5q0 -12 -3 -20t-11 -23q8 11 24 22q5 3 16 9q9 0 22 -11t19 -20q-5 12 -7 18q-7 19 -7 25q0 5 2 8q7 13 38 26zM423 532h-53q-3 13 -8 28.5t-6 22.5q-6 -37 -11.5 -44t-32.5 -7h-23q17 -6 28.5 -14.5t11.5 -19.5q0 -10 -3.5 -18.5t-10.5 -23.5
q6 7 23 19q5 4 17 11q7 0 16.5 -5.5t24.5 -24.5l-16 42q0 7 11 16q18 14 32 18z" />
    <glyph glyph-name="eight" unicode="8" horiz-adv-x="568" 
d="M538 249q0 -37 -8 -69q-11 -43 -31 -55v247q16 -15 25 -36q14 -33 14 -87zM523 545q0 -35 -11 -72q-17 -57 -53 -83v-327q-19 -16 -24 -19t-16 -6v356h-39v-377q-8 -4 -17 -8t-22 -6l-3 391h-36v-90h-42v90h-38v-385q-4 0 -5.5 -1t-2.5 -2q-1 0 -31 14v370l-40 4v-352
q-17 6 -25 12q-14 10 -14 23v313q-32 12 -50.5 57.5t-18.5 96.5q0 101 70.5 175.5t168.5 74.5q103 0 176 -73t73 -176zM302 -2h-40v191h40v-191zM67 120q-16 16 -26 44q-13 36 -13 85q0 36 6 63q10 44 33 60v-252zM427 702h-51q-2 8 -7.5 26t-6.5 25q-4 -36 -13 -43.5
t-52 -7.5q17 -5 28.5 -13.5t11.5 -19.5q0 -13 -15 -41q5 6 19.5 17t20.5 11q8 0 19 -7.5t21 -20.5q-2 4 -8.5 21.5t-6.5 20.5q0 7 15 18t25 14zM488 523h-50q-7 25 -14 51q-5 -33 -6 -36q-5 -16 -26 -16h-15t-18 1q13 -5 26 -14.5t13 -18.5t-7 -26q-2 -5 -7 -16
q6 8 20.5 18.5t18.5 10.5q7 0 17 -7t23 -22l-16 41q0 6 13 17t28 17zM254 702q-11 0 -18.5 -0.5t-12.5 -0.5q-16 0 -20.5 7.5t-13.5 44.5q-3 -29 -7 -36q-8 -15 -57 -15q25 -7 34 -20q3 -4 5 -13q0 -12 -5.5 -23.5t-8.5 -17.5q5 6 19.5 17t19.5 11q9 0 20.5 -9t19.5 -19
l-15 42q0 8 15 18.5t25 13.5zM326 544q0 17 -14 34.5t-34 17.5t-33.5 -15.5t-13.5 -37.5q0 -17 17 -34t31 -17q17 0 32 19t15 33zM197 523h-51q-7 25 -14 51q-4 -40 -11.5 -45.5t-53.5 -5.5q17 -5 28 -13.5t11 -19.5t-3.5 -21.5t-9.5 -20.5q9 12 24 22q5 3 14 7q8 0 20 -9
t21 -20l-16 41q0 6 14 17.5t27 16.5z" />
    <glyph glyph-name="nine" unicode="9" horiz-adv-x="572" 
d="M548 248q0 -16 -7 -46q-10 -45 -29 -65v262l-40 4v-331l-29 -25h-11v356h-43v-382l-25 -14h-11v396h-43v-108h-38v108h-39v-101h-12q-15 5 -20.5 16t-5.5 31v23.5t1 26.5l-43 1v-65q-24 10 -32.5 18.5t-8.5 18.5q4 16 4 22t-3 9q-13 -2 -28 2q-59 18 -59 144
q0 107 79.5 181.5t178.5 74.5q106 0 190 -92q74 -81 74 -145v-320zM310 0h-35v205h35v-205zM231 7q-22 5 -28.5 10.5t-6.5 14.5v216q8 0 17.5 2.5t17.5 5.5v-249zM153 40q-17 6 -20.5 8.5t-16.5 16.5v151q14 9 19 10.5t18 3.5v-190zM74 122q-10 8 -17.5 22t-15.5 36v14
q10 3 18 8h15v-80zM440 701h-51l-14 50q-4 -35 -13 -42.5t-52 -7.5q30 -9 38 -26q1 -3 2 -8q0 -15 -5.5 -24t-9.5 -15q5 5 26 18q13 8 14 8q10 0 22.5 -10.5t17.5 -18.5l-15 43q0 7 14.5 18t25.5 15zM508 525q-9 0 -17 -0.5t-15 -0.5q-15 0 -20 8.5t-13 42.5
q-4 -35 -13 -42.5t-52 -7.5q17 -5 28 -14t11 -20q0 -9 -4 -21t-9 -21q6 10 25 23q10 7 14 7q5 0 16 -8q19 -14 24 -22l-14 42q0 10 19 23q6 4 20 11zM253 701h-51l-14 50q-4 -35 -13 -42.5t-52 -7.5q16 -5 27.5 -14t11.5 -20q0 -19 -15 -39q18 14 24 18q11 8 16 8
q7 0 20.5 -9.5t20.5 -19.5q-11 28 -12.5 33.5t-3.5 9.5q7 9 12 13q16 15 29 20zM342 545q0 22 -14.5 35.5t-40.5 13.5q-25 0 -40 -13q-20 -18 -20 -41q0 -19 19.5 -33.5t40.5 -14.5q27 0 41 14t14 39zM191 525q-9 0 -17 -0.5t-14 -0.5q-15 0 -20 8.5t-13 42.5
q-5 -36 -9 -43.5t-22 -7.5h-15t-18 1q18 -6 28.5 -14.5t10.5 -19.5q0 -3 -4.5 -17.5t-9.5 -24.5q7 9 24 21l15 9q8 0 23 -13q11 -9 17 -17l-15 42q0 7 13 18t26 16z" />
    <glyph glyph-name="colon" unicode=":" horiz-adv-x="252" 
d="M221 467h-36v76h-37v-76h-45v76h-39v-76h-36v172h193v-172zM221 148h-36v200h36v-200zM146 148h-43v200h43v-200zM63 148h-35v200h35v-200z" />
    <glyph glyph-name="semicolon" unicode=";" horiz-adv-x="252" 
d="M224 315h-37v79h-43v-79h-39v76l-40 3v-76h-35v165h194v-168zM224 9q0 -6 -37 -43v230h37v-187zM144 -70q0 -6 -9 -16l-30 -30v312h39v-266zM65 3h-35v193h35v-193zM65 -116h-35v36l17 17q8 7 18 15v-68z" />
    <glyph glyph-name="less" unicode="&#x3c;" horiz-adv-x="396" 
d="M371 499h-11q-43 36 -93 73q-41 30 -51 41v184h155v-190h-44q5 -17 26 -45q14 -19 18 -25v-38zM178 504h-11q-43 36 -93 73q-41 30 -51 41v184h155v-190h-44q5 -17 26 -45q14 -19 18 -25v-38zM357 721h-51q-7 25 -14 51q-6 -40 -13.5 -45.5t-51.5 -5.5q18 -6 28.5 -14.5
t10.5 -18.5q0 -20 -15 -39q12 9 23 17.5t17 8.5q9 0 25 -13q10 -8 15 -17l-15 44q0 7 17.5 18.5t23.5 13.5zM164 726h-51q-7 25 -14 51q-6 -40 -13.5 -45.5t-51.5 -5.5q18 -6 28.5 -14.5t10.5 -18.5q0 -20 -15 -39q12 9 23 17.5t17 8.5q9 0 25 -13q10 -8 15 -17l-15 44
q0 7 17.5 18.5t23.5 13.5z" />
    <glyph glyph-name="equal" unicode="=" horiz-adv-x="322" 
d="M295 440h-36v73h-40v-73h-33v73h-40v-73h-33v73h-40v-73h-37v160h259v-160zM291 212h-36v73h-40v-73h-33v73h-40v-73h-33v73h-40v-73h-37v160h259v-160zM295 440h-35v73h-40v-73h-35v73h-40v-73h-33h183z" />
    <glyph glyph-name="greater" unicode="&#x3e;" horiz-adv-x="208" 
d="M183 499h-11q-43 36 -93 73q-41 30 -51 41v184h155v-190h-44q5 -17 26 -45q14 -19 18 -25v-38zM169 721h-51q-7 25 -14 51q-6 -40 -13.5 -45.5t-51.5 -5.5q18 -6 28.5 -14.5t10.5 -18.5q0 -20 -15 -39q12 9 23 17.5t17 8.5q9 0 25 -13q10 -8 15 -17l-15 44q0 7 17.5 18.5
t23.5 13.5z" />
    <glyph glyph-name="question" unicode="?" horiz-adv-x="544" 
d="M521 551q0 -54 -19 -95q-23 -50 -67 -50q1 -19 1 -23t-13 -12t-27 -19v51l-40 3v-165h-39v162l-40 3v-165h-40v165h-39v-165h-36v133q18 46 118 108q40 25 40 53q0 26 -16 42t-40 16q-33 0 -46 -18q-7 -10 -15 -10q-13 0 -55 21q-110 54 -122 58v17l56 70q74 67 178 67
q101 0 177 -64q84 -71 84 -183zM356 0h-39v202h39v-202zM277 0h-40v202h40v-202zM198 0h-36v202h36v-202zM413 704q-23 -1 -30 -1q-16 0 -20.5 7.5t-13.5 44.5q-5 -37 -9 -44.5t-22 -7.5h-15t-18 1q12 -3 25 -12.5t13 -20.5q0 -10 -3.5 -20.5t-9.5 -18.5q9 8 23 17t16 9
q8 0 23 -12q11 -9 17 -18q-6 13 -10.5 25.5t-4.5 18.5q5 8 9 12q13 14 30 20zM482 532h-50q-1 4 -7 23t-7 27q-6 -35 -10.5 -43t-20.5 -8q-19 1 -34 1q15 -5 27 -14.5t12 -19.5q0 -6 -3.5 -16.5t-10.5 -24.5q10 12 22 20t17 8q10 0 23 -11q7 -6 17 -17l-16 42q0 7 13.5 17.5
t27.5 15.5zM231 704h-51q-3 13 -8 28.5t-6 22.5q-8 -47 -16 -49t-49 -2q16 -4 27 -12.5t11 -20.5q0 -9 -4 -20.5t-9 -18.5q12 11 30 21q3 2 9 5q8 0 20.5 -9.5t19.5 -20.5l-14 44q0 7 14 18t26 14z" />
    <glyph glyph-name="at" unicode="@" horiz-adv-x="792" 
d="M762 21h-741v761h741v-761zM753 31v742h-723v-742h723zM693 674h-327v-233h199v-69h-199v-292h-277v70h209v524h-218v64h613v-64z" />
    <glyph glyph-name="A" unicode="A" horiz-adv-x="640" 
d="M533 -1h-40v400h-38v-400h-38v400h-43v-303h-36v137h15q2 5 4 11q-10 51 -16 78q-18 83 -31 105q-12 -24 -43 -190q11 -4 25 -4v-137h-40v303h-38v-400h-38v400h-38v-400h-41v335l112 460h191l133 -493v-302zM616 -1h-43v140q13 -31 22.5 -66.5t20.5 -73.5zM59 -1h-37
q26 132 37 144v-144zM371 711q-9 0 -17 -0.5t-15 -0.5q-15 0 -20 8.5t-13 42.5q-5 -35 -14 -42.5t-51 -7.5q30 -9 38 -26q1 -3 2 -8q0 -15 -5.5 -24t-9.5 -15q33 26 40 26q6 0 19 -8t21 -21q-15 39 -15 43q0 8 14.5 18t25.5 15zM454 535h-51l-14 50q-6 -35 -10 -43t-21 -8
q-19 1 -34 1q15 -6 27 -14.5t12 -19.5q0 -7 -3.5 -18.5t-10.5 -23.5q8 11 28 24q3 2 11 6q6 0 18 -7.5t22 -22.5l-15 42q0 8 13.5 18t27.5 16zM295 535q-9 0 -17 -0.5t-15 -0.5q-15 0 -20 8.5t-13 42.5q-4 -36 -10 -43t-33 -7h-22q23 -7 33 -18q7 -7 7 -16t-5 -21t-9 -21
q6 10 25 23q10 7 14 7q5 0 16 -8q19 -14 24 -22l-15 42q0 6 11.5 16.5t28.5 17.5z" />
    <glyph glyph-name="B" unicode="B" horiz-adv-x="572" 
d="M547 238q0 -42 -10.5 -75t-28.5 -51v255q19 -19 29 -50t10 -79zM543 558q0 -39 -17 -87q-22 -62 -58 -75v-335l-25 -22h-10v359h-44v-380q-12 -6 -18 -11h-18v392h-41v-79h-44q3 9 3 43q0 21 -3 36h-39v-395h-37v392l-42 3v-395h-38v395h-41v-395h-41v794h313
q62 0 126 -64q74 -74 74 -176zM311 4h-40v201h40v-201zM403 712h-50l-14 50q-5 -39 -12.5 -44.5t-52.5 -5.5q10 -3 22 -11q18 -12 18 -22q0 -9 -7 -26q-2 -5 -7 -16q10 13 24 22q5 3 15 7q8 0 20 -10t20 -19q-10 21 -12 28.5t-3 12.5q0 7 13 18t26 16zM508 536h-51l-14 50
q-5 -34 -10 -42.5t-22 -8.5h-15t-17 1q15 -5 27 -14.5t12 -19.5q0 -5 -5 -19t-10 -22q11 13 30 24q3 1 9 4q9 0 23 -11q11 -8 17 -17l-15 42q0 6 14.5 17t26.5 16zM342 544q0 26 -19 41q-12 9 -31 15h-61v-111h72q39 20 39 55zM195 712h-51l-14 50q-4 -39 -12 -44.5
t-53 -5.5q17 -5 28 -13.5t11 -19.5q0 -10 -3.5 -20.5t-9.5 -21.5q8 11 24 21q5 3 14 8q9 0 21.5 -10t19.5 -19q-7 15 -12 28q-1 5 -4 13q0 8 16 19.5t25 14.5zM195 532h-51q-7 25 -14 51q-4 -40 -12 -45.5t-53 -5.5q17 -5 28 -14t11 -20q0 -6 -5 -20.5t-8 -21.5q3 5 21 18
q5 4 17 12q12 0 28 -15q5 -5 13 -15l-16 42q5 9 9 13q13 15 32 21z" />
    <glyph glyph-name="C" unicode="C" horiz-adv-x="548" 
d="M527 201q-1 -3 -12 -40q-5 -16 -19 -30v88zM513 622q0 -7 -45 -32q-114 -63 -116 -65h-15q0 39 -23 59q-19 16 -45 16q-10 0 -30.5 -18.5t-20.5 -38.5v-529h-11l-24 14l-1 377h-41v-356q-39 23 -39 50v306h-38v-268q-10 9 -22.5 40t-12.5 45v363q0 65 61 131
q75 81 184 81q73 0 152 -52q87 -57 87 -123zM457 81q0 -8 -5 -13q-17 -12 -30 -22l-3 208q13 -6 23 -13q15 -12 15 -22v-138zM376 25q-15 -9 -17.5 -10t-16.5 -4v278q12 -5 21 -12q5 -4 13 -13v-239zM299 7q-15 -3 -18 -3q-2 0 -7 2.5t-14 4.5v194h39v-198zM425 711
q-7 0 -14.5 -0.5t-16.5 -1.5q-13 0 -19 9t-12 43q-6 -36 -11.5 -43t-31.5 -7h-21q22 -6 32 -18q6 -7 6 -14q0 -5 -4 -18.5t-9 -22.5q9 12 21 20t17 8q16 0 39 -28q-7 16 -13 35q-1 3 -2 7q0 9 13 18t26 13zM253 711h-49l-13 50q-6 -36 -11.5 -43t-31.5 -7h-21
q12 -3 24.5 -12t12.5 -20q0 -12 -2.5 -19.5t-10.5 -21.5q10 12 22 20t17 8q8 0 18.5 -8t20.5 -20q-4 9 -9 23.5t-5 18.5q2 5 4 7q13 17 34 24zM186 539q-23 -1 -30 -1q-15 0 -20 8.5t-13 41.5q-3 -27 -6 -38.5t-23 -11.5q-19 1 -33 1q20 -7 29 -16.5t9 -15.5q0 -9 -7 -26
q-2 -5 -7 -15q9 12 24 21q5 3 14 7q9 0 22 -11q9 -7 17 -17l-15 40q0 6 14.5 17.5t24.5 15.5z" />
    <glyph glyph-name="D" unicode="D" horiz-adv-x="572" 
d="M546 209q-6 -21 -10 -33q-13 -36 -27 -56v281h-38v-331l-12 -10q-13 -10 -28 -16v360h-44v-385q-15 -7 -21 -9.5t-14 -4.5v528q0 23 -27 47q-15 14 -30 21h-67v-600h-38v403h-43v-399h-39v396l-42 3v-399h-34v791h280q68 0 144 -69q90 -81 90 -187v-331zM309 1h-40v194
h40v-194zM381 716h-51q-7 25 -14 51q-5 -37 -10.5 -44t-31.5 -7h-23q18 -6 28.5 -14.5t10.5 -19.5q0 -14 -14 -41q8 10 24 20q5 3 15 8q12 0 25 -11q8 -7 15 -17l-15 42q0 6 11 15q18 15 30 18zM509 540q-23 -1 -30 -1q-16 0 -20.5 7.5t-13.5 44.5q-5 -37 -9 -44.5t-22 -7.5
h-15t-18 1q18 -6 28.5 -14.5t10.5 -19.5q0 -14 -14 -41q7 10 20.5 19.5t18.5 9.5q8 0 20 -9t20 -20l-15 41q0 7 13 18t26 16zM187 716h-51q-4 13 -7 26q-6 21 -7 25q-5 -36 -14 -43.5t-51 -7.5q39 -11 39 -34q0 -9 -3 -16t-11 -25q10 12 24 21q5 3 15 7q12 0 25 -11
q5 -4 16 -17q-6 15 -13 33q-1 4 -3 9q7 9 12 13q16 15 29 20zM187 540h-51q-4 13 -7 26q-6 21 -7 25q-5 -36 -14 -43.5t-51 -7.5q39 -11 39 -34q0 -9 -3 -16t-11 -25q9 12 24 21q5 3 15 8q8 0 21.5 -11t19.5 -18q-4 9 -13 35l-3 6q5 9 9 13q13 15 32 21z" />
    <glyph glyph-name="E" unicode="E" horiz-adv-x="496" 
d="M470 598h-241v-98h159v-181h-37v78h-43v-78h-36v78h-43v-395h-36v395h-43v-390h-39v390h-42v-390h-37v792h438v-201zM470 2h-40v195h40v-195zM388 2h-37v195h37v-195zM308 2h-36v195h36v-195zM413 717h-51l-14 50q-5 -39 -12.5 -44.5t-52.5 -5.5q39 -14 39 -34
q0 -9 -3.5 -18.5t-10.5 -22.5q10 12 21.5 20t17.5 8q11 0 25 -12l16 -16q-3 7 -13 34q-1 3 -3 8q0 7 8 15t33 18zM193 717q-9 0 -17 -0.5t-14 -0.5q-15 0 -20 8.5t-13 42.5q-5 -39 -12.5 -44.5t-52.5 -5.5q15 -5 27.5 -14t12.5 -20q0 -8 -7 -25q-2 -5 -7 -16q4 6 18 17
t21 11q16 0 39 -28l-15 42q0 8 17 20q12 8 23 13zM193 534q-9 0 -17 -0.5t-14 -0.5q-16 0 -20.5 7t-12.5 44q-5 -35 -11 -42.5t-32 -7.5h-22q11 -5 22 -12q18 -12 18 -22q0 -9 -5 -21t-9 -21q4 8 19 19t20 11q7 0 21.5 -12.5t17.5 -17.5l-15 42q0 8 17 20q6 4 23 14z" />
    <glyph glyph-name="F" unicode="F" horiz-adv-x="488" 
d="M464 596h-238v-102h162v-180h-40v83h-39v-83h-40v83h-43v-390h-38v390h-38v-390h-42v390h-44v-390h-36v787h436v-198zM409 711q-11 0 -18.5 -0.5t-12.5 -0.5q-16 0 -20.5 7.5t-13.5 44.5q-6 -47 -15 -49t-51 -2q18 -6 29 -14.5t11 -19.5t-4 -22q-7 -15 -9 -20q3 6 21 18
l18 12q7 0 19.5 -10t20.5 -20q-8 17 -11 25t-3 17q0 7 18 20q10 7 21 14zM192 711h-51q-7 25 -14 51q-5 -33 -6 -36q-5 -16 -26 -16q-19 1 -34 1q11 -4 24.5 -14t13.5 -20q0 -13 -3 -20.5t-10 -21.5q4 5 20.5 17.5t19.5 12.5q7 0 20 -10t20 -20l-14 42q0 6 13 17t27 17z
M192 526h-51q-2 8 -7.5 26t-6.5 25q-8 -47 -16.5 -49t-49.5 -2q16 -4 27 -12.5t11 -20.5q0 -10 -3.5 -21.5t-9.5 -21.5q8 11 24 22q5 3 16 9q7 0 20 -10.5t20 -20.5l-14 43q0 7 12 17t28 16z" />
    <glyph glyph-name="G" unicode="G" horiz-adv-x="564" 
d="M520 624q0 -8 -53 -40q-49 -29 -119 -63q-12 42 -24 57q-15 19 -44 19q-21 0 -37 -15t-16 -29v-542q-20 6 -25.5 9.5t-10.5 7.5v371h-39v-352q-25 10 -28 12q-5 6 -12 13l-1 327h-38v-277q-11 10 -24 39q-19 44 -19 98v308q0 101 94 175q81 64 154 64q68 0 152 -57
q90 -61 90 -125zM539 198q-7 -22 -11 -31q-12 -31 -24 -41v273l-40 3v-330q-16 -14 -21 -17t-19 -8v352h-39v-374q-12 -7 -15.5 -8.5t-24.5 -5.5v388h-38v-83h-38v111h270v-229zM306 4h-37v197h37v-197zM431 711q-23 -1 -30 -1q-16 0 -20.5 7.5t-13.5 44.5
q-5 -40 -12.5 -45.5t-52.5 -5.5q17 -4 28 -12.5t11 -20.5q0 -10 -3 -18.5t-10 -24.5q4 7 19 19t20 12q6 0 19.5 -11t20.5 -20l-17 43q2 4 4 7q14 18 37 26zM259 711h-50q-7 25 -14 51q-5 -33 -6 -36q-5 -16 -26 -16h-15t-18 1q12 -3 25 -12.5t13 -20.5t-3 -20t-10 -23
q7 11 24 22l15 9q7 0 20 -10.5t20 -20.5l-14 43q0 7 11 16q17 14 28 17zM191 529q-9 0 -17 -0.5t-14 -0.5q-16 0 -21 8t-13 42q-5 -34 -9.5 -41.5t-25.5 -7.5h-29q20 -8 31 -19q8 -8 8 -15q0 -9 -7 -26q-2 -5 -7 -16q10 13 24 22q5 3 15 7q8 0 22 -12q7 -6 18 -17l-15 41
q0 8 15 19.5t25 15.5z" />
    <glyph glyph-name="H" unicode="H" horiz-adv-x="584" 
d="M560 1h-44v390h-39v-390h-42v390h-39v-390h-40v386l-40 4v-83h-43v83h-39v-390h-42v390h-39v-390h-45v390h-36v-390h-43v791h204v-301h123v301h204v-791zM526 712h-52q-8 25 -15 50q-6 -34 -7 -37q-5 -13 -37 -13h-23q18 -6 30 -15.5t12 -18.5q0 -6 -5 -20.5t-11 -22.5
q8 10 25 21l15 9q11 0 24 -11q10 -8 17 -19l-14 42q0 10 12 19.5t29 15.5zM526 525h-52q-8 26 -15 52q-6 -38 -10.5 -45t-24.5 -7h-32q19 -6 30.5 -15.5t11.5 -18.5q0 -11 -3 -18t-13 -21q8 6 32 21q3 2 8 5q9 0 26 -13q10 -8 15 -16l-14 42q0 6 13.5 17.5t27.5 16.5z
M196 712h-52l-14 50q-6 -33 -11 -42t-21 -9h-16.5t-18.5 1q11 -5 18 -9q21 -13 21 -25q0 -15 -4 -25q-7 -12 -10 -18q6 7 22 18.5t19 11.5q10 0 23 -11q9 -8 18 -19l-15 42q0 10 13 19.5t28 15.5zM196 525h-52l-14 52q-5 -32 -7 -37q-5 -15 -29 -15h-31q17 -5 28 -15t11 -19
q0 -11 -3.5 -20t-10.5 -19q12 10 25 18t16 8q7 0 20.5 -9.5t20.5 -19.5l-15 42q0 6 13.5 17.5t27.5 16.5z" />
    <glyph glyph-name="I" unicode="I" horiz-adv-x="252" 
d="M227 0h-40v389l-41 3v-392h-38v392h-39v-392h-39v793h197v-793zM190 712h-51l-15 52q-4 -36 -13.5 -44t-52.5 -8q16 -4 28 -13t12 -21q0 -8 -2 -15t-11 -24q20 18 33 24q2 1 6 2q8 0 22 -10.5t19 -18.5q-6 14 -12 31q-1 5 -4 13q7 9 12 13q15 15 29 19zM194 531
q-9 0 -17 -0.5t-15 -0.5q-16 0 -21.5 8.5t-11.5 42.5q-6 -33 -11 -42t-21 -9q-19 1 -34 1q26 -10 35 -26q1 -3 4 -8q0 -9 -7 -26q-2 -5 -7 -16q6 9 20.5 19t19.5 10q10 0 23 -11q9 -8 17 -18l-15 41q0 8 16 20t25 15z" />
    <glyph glyph-name="J" unicode="J" horiz-adv-x="560" 
d="M533 216q0 -14 -10 -43t-25 -43l-2 274h-38v-324q0 -9 -11.5 -20.5t-26.5 -18.5v362h-43v-391l-40 -7v792h196v-581zM302 -2h-38v199h38v-199zM221 9h-11l-18 6q-11 6 -11 18v272q14 11 18 13q8 5 22 11v-320zM143 44q-11 3 -20.5 10t-19.5 16v195q15 10 40 21v-242z
M61 130q-16 16 -24 38t-8 44q0 12 3.5 19t28.5 12v-113zM501 717q-23 -1 -30 -1q-16 0 -20.5 7.5t-13.5 44.5q-5 -38 -9 -44.5t-24 -6.5h-30q37 -12 37 -33v-12q-5 -11 -13 -29q5 7 18.5 17.5t20.5 10.5q8 0 17 -5.5t22 -22.5q-5 15 -8 23q-6 17 -6 19q4 8 7 12q11 13 32 20
zM501 544q-11 0 -18.5 -0.5t-12.5 -0.5q-15 0 -20 8.5t-13 41.5q-5 -34 -9.5 -41.5t-24.5 -7.5h-29q14 -6 23 -13q14 -11 14 -21q0 -15 -13 -41q10 13 24 22q5 3 15 7q8 0 22 -12q10 -9 17 -17q-5 12 -7 18q-7 19 -7 22q3 7 6 11q11 14 33 24z" />
    <glyph glyph-name="K" unicode="K" horiz-adv-x="596" 
d="M573 797q-72 -158 -111 -248q-42 -96 -42 -135q0 -8 1 -11h-24v-405h-27q-6 12 -9 21q-8 19 -8 30v353h-44v-236q-3 11 -27 74q-9 24 -9 31v132h-38v-405h-42v405h-43v-405h-39v402l-40 3v-405h-39v799h194v-294l4 -3l140 297h203zM479 -2h-44v369q26 -65 35 -91t9 -41
v-237zM562 -2h-40v125q13 -30 25 -67q8 -26 15 -36v-22zM500 721h-51q-7 25 -14 51q-4 -40 -11.5 -45.5t-53.5 -5.5q17 -5 28 -13.5t11 -19.5q0 -10 -3.5 -20.5t-9.5 -21.5q7 11 23 21q5 3 16 9q9 0 21.5 -10.5t18.5 -19.5l-16 42q8 9 12 13q16 15 29 20zM421 546h-51
l-14 50q-4 -39 -11.5 -44.5t-53.5 -5.5q24 -8 34 -21q3 -4 6 -12q0 -9 -5.5 -22t-9.5 -20q8 11 25 21q5 3 15 8q7 0 19 -9t21 -20l-15 41q0 6 9 14q15 14 31 20zM193 721q-23 -1 -30 -1q-17 0 -21.5 7t-13.5 45q-4 -40 -11.5 -45.5t-51.5 -5.5q16 -5 27.5 -13.5t11.5 -19.5
q0 -8 -6 -23q-2 -5 -9 -19q7 11 23 21q5 3 16 9q8 0 20.5 -10t20.5 -20q-5 11 -13 34q-1 3 -3 8q0 5 12 15.5t28 17.5zM193 546q-9 0 -17 -0.5t-14 -0.5q-16 0 -20.5 7.5t-13.5 43.5q-4 -39 -11.5 -44.5t-51.5 -5.5q16 -5 27.5 -13.5t11.5 -19.5q0 -8 -5 -21t-10 -21
q12 15 30 25q3 1 9 4q11 0 24 -11q4 -4 17 -18l-16 41q0 5 12 16t28 18z" />
    <glyph glyph-name="L" unicode="L" horiz-adv-x="484" 
d="M456 -1h-35v200h35v-200zM218 -1h-35v394l-38 3v-397h-40v397h-37v-397h-40v798h190v-798zM379 -1h-39v200h39v-200zM298 -1h-38v200h38v-200zM186 715h-49l-14 50q-4 -35 -9.5 -42.5t-32.5 -7.5h-21q16 -6 27 -15t11 -19q0 -12 -3 -19t-11 -23q5 7 21 19q5 4 17 11
q4 0 17.5 -9t22.5 -21l-16 42q4 5 6 8q16 19 34 26zM186 542h-49q-2 8 -7.5 26t-6.5 25q-4 -36 -12.5 -43.5t-50.5 -7.5q38 -10 38 -33q0 -10 -3.5 -19t-10.5 -22q6 8 20 18.5t18 10.5q8 0 21.5 -11t18.5 -18q-4 9 -13 35l-3 6q5 9 9 13q13 14 31 20z" />
    <glyph glyph-name="M" unicode="M" horiz-adv-x="732" 
d="M703 2h-40v398h-38v-398h-41v398h-37v-398h-41v398h-43v-193q-8 -24 -13 -36q-14 -36 -26 -53v282h-40v-398h-39v398h-40v-285q-7 9 -22.5 43.5t-15.5 45.5v196h-40v-398h-39v398h-39v-398h-40v398h-38v-398h-40v800h193l132 -328l143 328h204v-800zM663 724h-50
q-2 8 -7 23t-7 26q-5 -36 -10 -42.5t-27 -6.5h-27q19 -10 29 -18t10 -16q0 -18 -16 -38q18 14 24 18q11 8 16 8q7 0 19 -9t21 -20l-15 40q0 5 13.5 17t26.5 18zM652 549h-49l-14 50q-6 -38 -14 -44t-51 -6q13 -3 26 -12t13 -21q0 -14 -14 -42q7 9 24 21l15 9q8 0 21 -10
q10 -7 18 -20l-15 42q0 8 15.5 19t24.5 14zM194 724h-49q-7 24 -14 49q-6 -36 -11 -42.5t-27 -6.5h-27q14 -6 23 -13q15 -11 15 -21t-3.5 -20.5t-9.5 -17.5q16 13 23 18q11 8 16 8q7 0 19.5 -9.5t20.5 -19.5q-5 12 -7 18q-7 19 -7 22q0 9 2 12q7 10 36 23zM205 549
q-11 0 -18.5 -0.5t-12.5 -0.5q-14 0 -20.5 9t-11.5 42q-6 -38 -14 -44t-51 -6q12 -3 25 -12.5t13 -20.5t-3 -20t-10 -22q7 9 24 21l15 9q7 0 21.5 -12.5t17.5 -17.5l-14 42q0 11 19 23q6 4 20 10z" />
    <glyph glyph-name="N" unicode="N" horiz-adv-x="572" 
d="M543 -1h-35v407h-42v-407h-37v407h-43v-410q-13 19 -24.5 41t-11.5 30v339h-43v-267q-40 61 -40 81v186h-41v-407h-38v407h-43v-407h-36v407h-43v-407h-36v803h187l125 -239h8v239h193v-803zM511 724q-11 0 -18.5 -0.5t-12.5 -0.5q-14 0 -20.5 9.5t-12.5 41.5
q-5 -37 -10 -43.5t-32 -6.5h-23q18 -6 28.5 -14.5t10.5 -19.5q0 -15 -14 -40q7 7 18 16q16 13 21 13q8 0 20.5 -10t19.5 -19l-15 40q0 7 12.5 17.5t27.5 16.5zM511 553q-11 0 -18.5 -0.5t-12.5 -0.5q-15 0 -21 8.5t-12 41.5q-6 -34 -10.5 -42t-20.5 -8q-19 1 -34 1
q13 -6 24 -14q15 -12 15 -20q0 -9 -7 -26q-2 -5 -7 -16q6 9 20.5 19t18.5 10q10 0 22 -10t18 -19l-15 41q0 5 13.5 17t26.5 18zM206 724h-50l-14 50q-4 -34 -14 -42t-51 -8q30 -9 38 -26q1 -3 2 -8q0 -9 -3 -17q-8 -17 -11 -23q5 7 18.5 18t20.5 11q5 0 18.5 -10t21.5 -19
q-11 23 -15 36q0 2 -1 4q0 3 5 9q13 17 35 25zM210 553q-23 -1 -30 -1q-16 0 -21.5 8t-13.5 42q-4 -33 -10 -41t-25 -8h-29q14 -6 23 -13q15 -11 15 -21q0 -14 -5 -25t-8 -17q6 9 20.5 19t18.5 10q10 0 23 -11q9 -7 17 -18l-14 41q0 10 6 16q10 9 33 19z" />
    <glyph glyph-name="O" unicode="O" horiz-adv-x="568" 
d="M540 222q0 -19 -13.5 -51.5t-22.5 -42.5l-1 278h-42v-331q0 -7 -8 -16.5t-27 -19.5v367h-39v-384l-21 -15h-19v528q0 26 -22.5 46.5t-43.5 20.5q-23 0 -41 -18t-18 -32v-540h-10q-13 4 -25 13v381h-38v-360q-15 6 -26 15q-17 13 -17 28v317h-40v-275q-11 13 -25 47
t-14 54v363q0 73 79.5 140.5t170.5 67.5q35 0 83 -16q61 -20 94 -55q24 -24 51 -69q35 -58 35 -96v-345zM305 1h-40v204h40v-204zM430 718h-50l-14 50q-6 -36 -10.5 -43t-24.5 -7h-30q13 -5 23 -12q15 -11 15 -21q0 -13 -3 -20.5t-10 -20.5q8 10 24 21l15 9q7 0 19.5 -10
t19.5 -20l-14 41q0 6 13 17t27 16zM504 542h-50l-13 49q-7 -40 -13.5 -44.5t-51.5 -4.5q12 -3 25 -12.5t13 -20.5q0 -10 -2.5 -17.5t-10.5 -22.5q6 7 19.5 17t19.5 10q7 0 18.5 -8.5t20.5 -18.5l-14 41q5 8 9 12q13 14 30 20zM259 718h-51q-7 25 -13 50q-6 -36 -10.5 -43
t-24.5 -7h-30q14 -5 23 -11q15 -11 15 -22q0 -13 -5 -24t-8 -17q9 11 23 21l15 9q7 0 20 -10t20 -20l-14 41q0 7 12.5 17.5t27.5 15.5zM187 542q-9 0 -17 -0.5t-14 -0.5q-15 0 -20 8.5t-13 41.5q-5 -34 -14 -41.5t-50 -7.5q16 -4 27 -13t11 -20q0 -10 -3.5 -20.5t-9.5 -19.5
q4 5 19 16t20 11q7 0 19.5 -9t19.5 -18q-3 6 -4 10q-9 25 -9 31q0 9 11.5 18t26.5 14z" />
    <glyph glyph-name="P" unicode="P" horiz-adv-x="564" 
d="M541 543q0 -54 -11 -88q-18 -55 -59 -55q-3 -33 -6 -46.5t-37 -21.5v24v13q0 20 -3 31h-37v-21t1 -19q0 -22 -4.5 -35.5t-18.5 -21.5h-17v94l-39 3v-105h-40v102l-42 3v-396h-38v396h-43v-396h-38v396h-41v-396h-39v799h287q66 0 136 -61q89 -77 89 -199zM403 719h-51
q-7 25 -14 51q-5 -30 -7 -36q-5 -15 -28 -15h-30q11 -3 25 -13.5t14 -19.5t-7 -26q-2 -5 -7 -16q8 10 24 21l15 9q7 0 20 -10t20 -20l-15 42q0 9 16 19.5t25 13.5zM506 536q-23 -1 -30 -1q-16 0 -20.5 7.5t-13.5 44.5q-5 -36 -14 -43.5t-51 -7.5q17 -5 28 -14t11 -20
q0 -10 -3 -18.5t-10 -23.5q4 8 19 19t20 11q9 0 23 -12q11 -9 17 -18l-14 42q0 13 25 28q4 2 13 6zM190 719q-11 0 -18.5 -0.5t-12.5 -0.5q-16 0 -20.5 7.5t-13.5 44.5q-4 -40 -11.5 -45.5t-51.5 -5.5q14 -5 26 -14.5t12 -18.5q0 -10 -4.5 -21t-9.5 -21q7 11 23 21q5 3 16 9
q8 0 21 -11t19 -19l-15 42q0 7 17 20q11 8 23 13zM344 544q0 22 -8 32t-35 25h-71v-119h71q21 11 32 28.5t11 33.5zM190 536q-11 0 -18.5 -0.5t-12.5 -0.5q-16 0 -20.5 7.5t-13.5 44.5q-4 -37 -8 -44.5t-22 -7.5h-15t-18 1q12 -3 25 -13.5t13 -20.5q0 -9 -5 -21t-9 -21
q6 10 25 23q10 7 14 7q8 0 22.5 -11.5t17.5 -18.5l-15 42q0 7 12.5 17.5t27.5 16.5z" />
    <glyph glyph-name="Q" unicode="Q" horiz-adv-x="584" 
d="M556 228q0 -16 -12 -48t-27 -47v260l-39 3v-378h-12l-29 24v354h-39v-375q-15 -10 -23.5 -12.5t-17.5 -4.5v521q0 23 -22.5 45.5t-46.5 22.5q-19 0 -38 -16t-19 -31v-538q-37 7 -37 31v357h-43v-354q-13 8 -19 12q-20 15 -20 26q0 85 -1.5 194t-1.5 122h-41v-263
q-15 18 -27.5 55.5t-12.5 64.5v307q0 70 61 143q76 91 196 91q55 0 100.5 -17.5t77.5 -48.5q26 -25 57 -75q36 -58 36 -89v-336zM556 -3l-39 3l4 109q5 -1 15 -5t20 -6v-101zM318 -3h-43v203h43v-203zM441 707h-51l-14 50q-6 -36 -11.5 -43t-31.5 -7h-22q16 -5 27.5 -13.5
t11.5 -18.5q0 -11 -4 -19.5t-11 -18.5q7 5 24 17q11 8 16 8q8 0 25 -13q10 -8 15 -15l-15 42q0 5 11 13q19 14 30 18zM521 525h-52l-14 50q-4 -39 -12 -44.5t-53 -5.5q28 -7 37 -24q1 -2 3 -8q0 -17 -15 -39q18 16 34 24l6 3q8 0 23 -12q5 -4 18 -17q-5 10 -11 27
q-2 5 -5 14q6 8 10 12q14 15 31 20zM264 707h-51l-14 50q-6 -36 -11.5 -43t-32.5 -7h-22q12 -3 25 -12.5t13 -19.5t-3.5 -20.5t-9.5 -17.5q13 10 30 20q3 2 9 5q9 0 26 -13q10 -8 15 -15l-14 42q0 7 14.5 17.5t25.5 13.5zM194 525q-11 0 -18.5 -0.5t-12.5 -0.5
q-16 0 -20.5 7.5t-13.5 43.5q-5 -39 -12.5 -44.5t-51.5 -5.5q16 -5 27.5 -13.5t11.5 -18.5q0 -6 -3.5 -18t-10.5 -23q6 8 24 20l15 9q8 0 22 -11.5t18 -17.5l-15 41q0 7 13 17t27 15z" />
    <glyph glyph-name="R" unicode="R" horiz-adv-x="576" 
d="M544 542q0 -64 -23 -108q-27 -51 -76 -51h-14q-2 5 -6 13h-35v-398h-19q-1 1 -14 31q-7 15 -7 23v341h-40v-241q-4 9 -18 44q-17 44 -17 53v144h-42v-395h-37v395h-42v-395h-41v395h-43v-395h-39v800h304q65 0 132 -71q77 -81 77 -185zM472 -2h-39v333q4 -6 26 -67
q13 -36 13 -41v-225zM558 -2h-43v103q7 -8 16 -29q13 -30 27 -74zM400 716q-9 0 -17 -0.5t-14 -0.5q-16 0 -21 8t-13 42q-4 -37 -12 -43t-52 -6q13 -5 19 -9q20 -12 20 -26q0 -8 -7 -25q-2 -5 -7 -16q6 8 19 18t20 10t17.5 -6.5t22.5 -21.5l-15 42q0 8 15.5 19t24.5 15z
M508 529h-51l-14 50q-4 -39 -11.5 -44.5t-52.5 -5.5q18 -8 26 -13q13 -9 13 -21q0 -7 -6 -22t-9 -20q9 12 25 22q5 3 15 7q12 0 25 -12q7 -6 14 -17l-14 41q0 7 13 18t27 17zM196 716h-51q-3 14 -4 17l-10 32q-4 -37 -12.5 -43t-52.5 -6q39 -14 39 -35q0 -16 -14 -41
q9 11 21.5 19.5t17.5 8.5q11 0 26 -13q10 -9 14 -15l-15 42q0 7 13 17.5t28 16.5zM345 542q0 27 -11 38q-6 6 -38 20h-64v-122h49q19 8 39 16q25 12 25 48zM192 529h-50l-14 50q-6 -35 -10.5 -43t-20.5 -8q-19 1 -34 1q16 -7 27 -15.5t11 -18.5q0 -14 -5 -25t-8 -17
q6 9 20.5 19t18.5 10q9 0 21 -9q8 -6 19 -20l-14 41q0 10 10 18.5t29 16.5z" />
    <glyph glyph-name="S" unicode="S" horiz-adv-x="548" 
d="M526 243q0 -37 -8 -67t-30 -59v256q17 -16 27.5 -46.5t10.5 -83.5zM492 644q-37 -23 -59 -36q-71 -42 -114 -59q0 18 -10 33q-14 21 -42 21q-21 0 -35 -14.5t-14 -33.5q0 -35 55 -63q55 -23 111 -45q69 -28 87 -56h-21v-327q-5 -4 -13 -12t-30 -20l-1 359h-38v-380
q-9 -1 -18.5 -4t-19.5 -6v387l-40 3v-102q-14 7 -27 14t-13 32v28t1 28h-42v-63q-22 8 -29.5 13t-7.5 11q2 10 2 19t-4 20h-31q-4 -12 -4 -29q-53 27 -76 61q-34 51 -34 128q0 90 59 161q69 83 181 83q54 0 132 -40q95 -48 95 -111zM290 -3h-39v190h39v-190zM209 5
q-22 5 -35 17v229l35 13v-259zM135 40q-18 10 -25 16q-14 12 -14 23v143l39 14v-196zM54 131q-12 14 -17.5 28t-11.5 31q13 11 29 14v-73zM418 708h-50l-14 48q-4 -35 -9.5 -41.5t-32.5 -6.5h-22q16 -7 27.5 -15.5t11.5 -17.5t-2.5 -16.5t-11.5 -24.5q6 7 20.5 17.5
t17.5 10.5q9 0 20.5 -9t19.5 -19l-16 40q0 7 16 18.5t25 15.5zM241 708q-11 0 -18.5 -0.5t-12.5 -0.5q-15 0 -20.5 8.5t-12.5 40.5q-5 -32 -9.5 -40.5t-21.5 -8.5h-15t-17 1q20 -8 29 -17t9 -16q0 -10 -6 -26q-2 -5 -7 -15q8 11 24 21q5 3 14 7q9 0 22 -11q9 -7 17 -17
l-15 40q0 7 15 18.5t25 15.5zM192 528h-50l-14 49q-4 -39 -11.5 -44t-52.5 -5q22 -7 31 -16.5t9 -16.5q0 -9 -7 -23.5t-8 -17.5q7 9 21 19t18 10q12 0 25 -13q12 -15 13 -16q-4 12 -9 25t-5 15q0 10 12 19t28 15z" />
    <glyph glyph-name="T" unicode="T" horiz-adv-x="608" 
d="M579 597h-169v-590h-42v404h-41v-404h-42v404h-41v-404h-40v592h-170v197h545v-199zM548 711h-52q-8 26 -15 52q-6 -38 -11.5 -45t-30.5 -7h-27q18 -5 29.5 -13.5t11.5 -20.5q0 -10 -3.5 -19.5t-10.5 -22.5q7 6 26 19q5 3 16 10q9 0 25 -14q8 -9 17 -17l-16 43q5 9 9 13
q13 14 32 22zM375 711h-54l-14 52q-5 -40 -13.5 -46t-55.5 -6q18 -6 30 -15t12 -19q0 -14 -15 -44q7 10 23 21q5 4 17 10q7 0 25 -13q12 -9 18 -18q-6 14 -8.5 23.5t-5.5 19.5q0 10 19 23q6 4 22 12zM201 711q-9 0 -17 -0.5t-15 -0.5q-19 0 -25 8t-12 45q-5 -39 -13.5 -45.5
t-54.5 -6.5q14 -4 27 -13.5t13 -20.5q0 -10 -3 -19t-10 -23q14 14 33 25q3 2 8 4q12 -2 22 -8.5t20 -22.5l-16 43q0 9 15 19.5t28 15.5zM375 537h-54l-14 52q-5 -41 -13 -46.5t-56 -5.5q16 -5 29 -14.5t13 -20.5q-3 -10 -4 -15q-5 -17 -11 -28q7 9 24 21q5 3 16 10
q5 0 19.5 -9.5t23.5 -21.5q-5 12 -7 18q-7 19 -7 25q0 12 19 24z" />
    <glyph glyph-name="U" unicode="U" horiz-adv-x="592" 
d="M563 236q0 -13 -11 -47q-14 -43 -30 -57v281h-41v-340q-11 -10 -21 -19q-5 -2 -20 -6v365h-40v-387l-25 -16h-11v787h199v-561zM233 14h-11q-15 7 -18 10q-7 6 -7 16v373h-45v-362q-10 5 -23 16q-17 14 -17 24v322h-41v-273q-12 13 -26.5 49.5t-14.5 60.5v547h203v-783z
M319 7h-41v207h41v-207zM529 716h-51l-15 51q-6 -37 -11.5 -44t-32.5 -7h-23q18 -6 29 -14.5t11 -19.5q0 -12 -3.5 -21t-11.5 -21q15 13 31 23q4 2 10 6q12 0 28 -15q5 -5 14 -16q-4 9 -9.5 24.5t-5.5 18.5q0 9 15.5 20t24.5 15zM529 543h-51q-8 25 -15 51q-5 -37 -10.5 -44
t-33.5 -7h-23q40 -14 40 -35q0 -11 -3.5 -20t-10.5 -23q12 16 31 26q3 1 9 4q8 0 20.5 -9.5t21.5 -20.5l-15 43q0 7 9 16t31 19zM197 716q-11 0 -18.5 -0.5t-12.5 -0.5q-17 0 -23.5 8.5t-12.5 43.5q-4 -36 -11.5 -43.5t-33.5 -7.5h-22q40 -12 40 -34q0 -13 -3 -22l-10 -20
q12 12 24 20.5t16 8.5q5 -2 8 -3q20 -9 33 -28l-16 43q0 8 16 19.5t26 15.5zM197 543q-7 0 -15.5 -0.5t-17.5 -0.5q-18 0 -23 7.5t-11 44.5q-4 -40 -12 -45.5t-55 -5.5q40 -15 40 -35q0 -11 -3 -20t-10 -23q7 9 25 21l15 9q8 0 20.5 -10t20.5 -20l-16 43q0 8 15.5 19
t26.5 16z" />
    <glyph glyph-name="V" unicode="V" horiz-adv-x="660" 
d="M641 793l-26 -108q-26 -109 -54 -213q-33 -123 -45 -148v85h-40v-270q-8 -34 -13 -51q-15 -54 -24 -63v384h-40v-403h-43v403h-42v-403h-42v403h-39v-384q-14 31 -20 51q-20 60 -20 104v226l-40 3v-59q-10 13 -45 139q-40 146 -80 293v11h198l111 -373l99 373h205z
M582 708h-51q-3 16 -7 26.5t-8 24.5q-4 -40 -11.5 -45.5t-53.5 -5.5q39 -15 39 -35q0 -19 -14 -42q7 8 25 20l15 9q11 0 29 -16q7 -7 12 -13l-15 43q0 6 13 16.5t27 17.5zM542 538q-9 0 -16.5 -0.5t-13.5 -0.5q-18 0 -23 8t-13 45q-5 -37 -9.5 -45t-22.5 -8q-19 1 -34 1
q14 -5 27.5 -14.5t13.5 -19.5q-1 -5 -2 -8q-6 -20 -13 -33q14 12 22 18q12 9 18 9q11 0 25 -12q11 -9 15 -18l-15 44q0 9 16 20q10 7 25 14zM219 708h-52q-2 8 -7.5 26t-6.5 25q-8 -47 -16.5 -49t-49.5 -2q18 -7 29 -16t11 -19q0 -13 -7 -28q-2 -5 -8 -14q24 29 40 29
q10 0 24 -11q9 -7 17 -18l-16 43q0 6 11 15q15 12 31 19zM263 538q-9 0 -16.5 -0.5t-13.5 -0.5q-18 0 -23 8t-13 45q-5 -37 -10 -45t-23 -8q-19 1 -34 1q40 -12 40 -34q0 -21 -15 -41q35 27 40 27q13 0 26 -11q9 -7 16 -19l-14 44q0 8 14 19t26 15z" />
    <glyph glyph-name="W" unicode="W" horiz-adv-x="1100" 
d="M1075 795l-127 -470v83h-41v-257q0 -12 -19 -72q-6 -20 -19 -58l-1 387h-42v-405h-42v405h-40v-405h-43v405h-41v-398l-41 149v249h-41v-67q-11 13 -15.5 26.5t-11.5 25.5q-7 -9 -15 -29t-10 -23v67h-46v-249q0 -4 -6 -28.5t-13 -52t-12 -45.5q-5 -12 -10 -23v398h-41
v-405h-42v405h-41v-405h-37v405h-45v-380q-7 12 -24 74t-17 71v235h-41v-59l-125 438l1 8h203l107 -372l110 372h205l109 -372q15 15 34 91q63 250 74 281h206zM1016 713q-11 0 -18.5 -0.5t-12.5 -0.5q-18 0 -24 8t-13 45q-4 -36 -10.5 -44t-33.5 -8h-23q10 -3 22 -11
q18 -12 18 -24q0 -15 -4 -25q-7 -12 -10 -19q7 9 25 21q5 3 16 9q11 0 25 -12q7 -6 17 -18q-4 11 -13 36q-1 3 -3 8q0 5 14.5 17.5t27.5 17.5zM971 534h-53l-14 52q-6 -38 -11.5 -45t-30.5 -7h-26q40 -13 40 -35q0 -9 -3.5 -19t-9.5 -21q31 26 40 26q13 0 27 -12
q5 -4 15 -17l-16 44q0 5 13.5 16.5t28.5 17.5zM615 713h-53q-3 14 -8 29t-6 23q-5 -38 -11 -45t-34 -7h-23q15 -5 27.5 -15.5t12.5 -19.5q0 -15 -5 -26t-8 -18q7 9 25 21q5 3 16 9q8 0 20 -9t21 -21l-16 44q2 4 4 7q14 18 38 28zM611 534h-52l-15 52q-6 -37 -11.5 -44.5
t-29.5 -7.5h-26q41 -15 41 -35q0 -7 -6 -20.5t-10 -19.5q17 13 27.5 19.5t13.5 6.5q13 0 27 -12q14 -15 16 -17l-17 44q0 7 16.5 19t25.5 15zM218 713q-9 0 -16.5 -0.5t-13.5 -0.5q-17 0 -23 8.5t-14 44.5q-5 -37 -10.5 -44.5t-33.5 -7.5h-23q40 -14 40 -35q0 -13 -3 -20.5
t-12 -23.5q12 15 27 24q5 2 13 6q7 0 18.5 -7t24.5 -23q-5 11 -8 20q-7 18 -7 24q0 12 28 28q4 2 13 7zM266 534h-52q-3 14 -7 26.5t-8 25.5q-4 -40 -12.5 -46t-54.5 -6q14 -4 27.5 -14.5t13.5 -20.5q0 -20 -16 -40q15 11 20 15q14 11 21 11q13 0 27 -12q7 -6 16 -17l-17 44
q7 9 12 13q16 15 30 21z" />
    <glyph glyph-name="X" unicode="X" horiz-adv-x="560" 
d="M526 794l-146 -383v-408h-17q-8 22 -14.5 35.5t-6.5 24.5v334l-40 3v-273l-21 29l-21 -29l-2 273h-37v-337q0 -6 -10.5 -28t-14.5 -32h-14v383l-166 408h190q21 -44 41 -95q11 -29 23 -43q13 29 21 47q26 59 36 91h199zM458 3h-39v280q13 -26 19 -39q20 -42 20 -50v-191z
M535 3h-38v96q13 -24 20 -40q17 -36 18 -39v-17zM143 3h-39v206q32 80 39 89v-295zM65 3h-32v14q7 13 17 39.5t15 35.5v-89zM454 716h-50l-14 50q-4 -39 -11.5 -44.5t-51.5 -5.5q19 -6 28.5 -12.5t9.5 -20.5q0 -9 -4 -21t-9 -21q7 10 22 21l15 9q12 0 28 -15q5 -5 13 -15
l-16 42q6 8 10 12q14 14 30 21zM211 716h-50l-14 50q-6 -36 -10 -43.5t-21 -7.5q-19 1 -33 1q15 -5 23 -11q14 -10 14 -22t-2.5 -19.5t-9.5 -22.5q6 10 23 21l15 9q5 0 17 -7.5t22 -22.5l-14 42q0 9 17 21q12 8 23 12zM345 542h-50l-14 50q-4 -39 -12 -44.5t-52 -5.5
q15 -4 27 -14t12 -19q0 -18 -14 -38q15 13 21 17q11 8 18 8q10 0 23 -11q10 -8 16 -18l-15 43q0 7 15 18t25 14z" />
    <glyph glyph-name="Y" unicode="Y" horiz-adv-x="648" 
d="M626 797l-200 -438v-358h-39v398l-39 3v-401h-41v401h-38v-401h-41v351l-207 445h193q18 -20 42 -84q57 -152 66 -164q9 9 48 116.5t56 131.5h200zM548 722q-9 0 -17 -0.5t-14 -0.5q-16 0 -21 8t-13 43q-5 -39 -12.5 -44.5t-52.5 -5.5q39 -13 39 -34v-12q-5 -12 -13 -29
q4 6 18 17t21 11q8 0 22 -11q10 -8 18 -17l-14 42q0 8 19 21q6 4 20 12zM480 539h-51l-14 50q-5 -35 -11 -42.5t-32 -7.5h-22q30 -9 38 -26q1 -3 2 -8q0 -9 -5 -21t-9 -21q5 8 22 20q5 4 17 10q6 0 15.5 -7.5t24.5 -22.5q-3 8 -10 27q-1 5 -5 15q5 9 9 13q13 14 31 21z
M225 722h-51l-14 50q-5 -39 -12.5 -44.5t-52.5 -5.5q15 -5 27.5 -14t12.5 -20q0 -8 -7 -25q-2 -5 -7 -16q4 6 18 17t21 11q10 0 22 -10q7 -6 18 -18l-15 42q0 6 9 15t31 18zM303 539q-9 0 -17 -0.5t-14 -0.5q-15 0 -20 8.5t-13 42.5q-5 -35 -11 -42.5t-32 -7.5h-22
q17 -5 28 -14t11 -20q0 -10 -3 -18.5t-10 -23.5q4 8 19 19t20 11q8 0 23 -13q11 -9 17 -17q-9 26 -10.5 31.5t-3.5 10.5q0 13 25 28q4 2 13 6z" />
    <glyph glyph-name="Z" unicode="Z" horiz-adv-x="580" 
d="M544 797q-40 -123 -78 -228q-12 -34 -19 -56q-10 -32 -18 -50q-24 -42 -36 -65q-2 -2 0 -15t2 -24q0 -6 -2 -18q-14 -28 -23.5 -54t-9.5 -43l-7 -8v165h-39v-398h-45v398h-38v-398h-39v409l75 194h-237v191h514zM555 3h-40v201h40v-201zM476 3h-43v201h43v-201zM393 3
h-40v201h40v-201zM152 3h-36v201q0 8 19 50q11 24 17 29v-280zM76 3h-35q9 19 19 48t16 45v-93zM454 721h-50l-15 51q-7 -47 -15.5 -49t-48.5 -2q22 -7 32 -18q7 -8 7 -15q0 -13 -2.5 -19t-13.5 -20q14 11 19 15q14 11 21 11q8 0 21 -9.5t19 -20.5l-15 44q0 7 17.5 18.5
t23.5 13.5zM414 549h-50l-14 50q-5 -39 -12.5 -44.5t-52.5 -5.5q15 -5 27.5 -14t12.5 -20q0 -8 -7 -25q-2 -5 -7 -16q10 14 19 21t20 7q10 0 24 -12q7 -6 15 -16l-15 42q0 5 10 15t30 18zM231 721q-11 0 -18.5 -0.5t-12.5 -0.5q-16 0 -20.5 7.5t-13.5 44.5q-5 -37 -9 -44.5
t-21 -7.5q-19 1 -34 1q14 -4 26.5 -13t12.5 -20q0 -16 -6 -27q-8 -11 -9 -12q34 26 40 26q8 0 23 -12q11 -9 17 -18q-15 39 -15 44q0 8 15 18.5t25 13.5z" />
    <glyph glyph-name="bracketleft" unicode="[" horiz-adv-x="420" 
d="M391 704h-165v-798h-37v600h-38v-600h-43v600h-36v-600h-41v995h360v-197zM391 -94h-40v202h40v-202zM307 -94h-38v202h38v-202zM365 819h-30q-16 0 -21.5 8t-13.5 42q-4 -35 -10 -42.5t-29 -7.5h-25q15 -5 26.5 -13.5t11.5 -19.5q0 -10 -3.5 -21t-9.5 -21q8 10 23 20
q5 3 16 9q8 0 22 -12q7 -6 18 -17q-5 13 -7 19q-7 19 -7 22q1 4 2 6q9 16 37 28zM193 819h-51q-3 12 -8.5 30.5t-5.5 19.5q-7 -37 -12 -43.5t-31 -6.5h-22q14 -5 26 -14.5t12 -18.5q0 -10 -3.5 -21t-9.5 -21q7 9 24 20l15 9q7 0 16.5 -5.5t23.5 -23.5q-5 13 -7 19
q-7 19 -7 22q0 10 12 19t28 15zM193 636h-51q-7 24 -14 49q-6 -31 -7 -35q-5 -14 -33 -14h-25q14 -6 23 -12q15 -10 15 -22q0 -13 -2.5 -20.5t-10.5 -21.5q6 9 20.5 19t18.5 10q10 0 22 -10t18 -19l-14 41q0 9 20 23q6 4 20 12z" />
    <glyph glyph-name="backslash" unicode="\" 
 />
    <glyph glyph-name="bracketright" unicode="]" horiz-adv-x="420" 
d="M395 -94h-40v600h-38v-600h-43v600h-38v-600h-36v798h-165v197h360v-995zM157 -94h-39v202h39v-202zM75 -94h-40v202h40v-202zM362 819h-50l-15 50q-4 -39 -11.5 -44.5t-52.5 -5.5q22 -7 31 -16.5t9 -16.5q0 -10 -5 -22t-10 -20q7 9 21 19t18 10q9 0 20.5 -9t19.5 -20
q-10 21 -12 28.5t-3 12.5q0 7 14 18.5t26 15.5zM189 819h-30q-16 0 -20.5 7t-13.5 43q-5 -39 -12.5 -44.5t-52.5 -5.5q10 -3 22 -11q18 -12 18 -22q0 -9 -7 -26q-2 -5 -7 -16q10 13 24 22q5 3 15 7q8 0 22 -12q7 -6 18 -17q-7 16 -13 34q-1 3 -2 7q0 8 15 19t24 15zM362 636
h-50q-8 24 -15 49q-4 -37 -12 -43t-52 -6q17 -6 28.5 -15.5t11.5 -18.5q0 -8 -5.5 -22.5t-9.5 -19.5q10 13 24 22q5 3 15 7q7 0 20 -9.5t20 -19.5l-15 41q0 7 14.5 18.5t25.5 16.5z" />
    <glyph glyph-name="asciicircum" unicode="^" 
 />
    <glyph glyph-name="underscore" unicode="_" 
 />
    <glyph glyph-name="grave" unicode="`" horiz-adv-x="1176" 
d="M1130 5h-1102v793h1102v-793zM1114 21v762h-1071v-762h1071zM1051 477q0 -109 -74.5 -183.5t-179.5 -74.5h-191v142h-71v-142h-63v142h-230q0 -26 0.5 -56t1.5 -64q0 -64 -16 -93q-19 -35 -81 -64h-32v32q32 19 41 30q14 17 14 49v524h77v-254l257 254h31v-310h71v310
h231q123 -43 162 -81q52 -51 52 -161zM963 477q0 122 -65 155q-22 11 -117 39h-95v-404h64l122 28q91 45 91 182zM464 417v167l-167 -167h167z" />
    <glyph glyph-name="a" unicode="a" horiz-adv-x="640" 
d="M533 -1h-40v400h-38v-400h-38v400h-43v-303h-36v137h15q2 5 4 11q-10 51 -16 78q-18 83 -31 105q-12 -24 -43 -190q11 -4 25 -4v-137h-40v303h-38v-400h-38v400h-38v-400h-41v335l112 460h191l133 -493v-302zM616 -1h-43v140q13 -31 22.5 -66.5t20.5 -73.5zM59 -1h-37
q26 132 37 144v-144zM371 711q-9 0 -17 -0.5t-15 -0.5q-15 0 -20 8.5t-13 42.5q-5 -35 -14 -42.5t-51 -7.5q30 -9 38 -26q1 -3 2 -8q0 -15 -5.5 -24t-9.5 -15q33 26 40 26q6 0 19 -8t21 -21q-15 39 -15 43q0 8 14.5 18t25.5 15zM454 535h-51l-14 50q-6 -35 -10 -43t-21 -8
q-19 1 -34 1q15 -6 27 -14.5t12 -19.5q0 -7 -3.5 -18.5t-10.5 -23.5q8 11 28 24q3 2 11 6q6 0 18 -7.5t22 -22.5l-15 42q0 8 13.5 18t27.5 16zM295 535q-9 0 -17 -0.5t-15 -0.5q-15 0 -20 8.5t-13 42.5q-4 -36 -10 -43t-33 -7h-22q23 -7 33 -18q7 -7 7 -16t-5 -21t-9 -21
q6 10 25 23q10 7 14 7q5 0 16 -8q19 -14 24 -22l-15 42q0 6 11.5 16.5t28.5 17.5z" />
    <glyph glyph-name="b" unicode="b" horiz-adv-x="572" 
d="M547 238q0 -42 -10.5 -75t-28.5 -51v255q19 -19 29 -50t10 -79zM543 558q0 -39 -17 -87q-22 -62 -58 -75v-335l-25 -22h-10v359h-44v-380q-12 -6 -18 -11h-18v392h-41v-79h-44q3 9 3 43q0 21 -3 36h-39v-395h-37v392l-42 3v-395h-38v395h-41v-395h-41v794h313
q62 0 126 -64q74 -74 74 -176zM311 4h-40v201h40v-201zM403 712h-50l-14 50q-5 -39 -12.5 -44.5t-52.5 -5.5q10 -3 22 -11q18 -12 18 -22q0 -9 -7 -26q-2 -5 -7 -16q10 13 24 22q5 3 15 7q8 0 20 -10t20 -19q-10 21 -12 28.5t-3 12.5q0 7 13 18t26 16zM508 536h-51l-14 50
q-5 -34 -10 -42.5t-22 -8.5h-15t-17 1q15 -5 27 -14.5t12 -19.5q0 -5 -5 -19t-10 -22q11 13 30 24q3 1 9 4q9 0 23 -11q11 -8 17 -17l-15 42q0 6 14.5 17t26.5 16zM342 544q0 26 -19 41q-12 9 -31 15h-61v-111h72q39 20 39 55zM195 712h-51l-14 50q-4 -39 -12 -44.5
t-53 -5.5q17 -5 28 -13.5t11 -19.5q0 -10 -3.5 -20.5t-9.5 -21.5q8 11 24 21q5 3 14 8q9 0 21.5 -10t19.5 -19q-7 15 -12 28q-1 5 -4 13q0 8 16 19.5t25 14.5zM195 532h-51q-7 25 -14 51q-4 -40 -12 -45.5t-53 -5.5q17 -5 28 -14t11 -20q0 -6 -5 -20.5t-8 -21.5q3 5 21 18
q5 4 17 12q12 0 28 -15q5 -5 13 -15l-16 42q5 9 9 13q13 15 32 21z" />
    <glyph glyph-name="c" unicode="c" horiz-adv-x="548" 
d="M527 201q-1 -3 -12 -40q-5 -16 -19 -30v88zM513 622q0 -7 -45 -32q-114 -63 -116 -65h-15q0 39 -23 59q-19 16 -45 16q-10 0 -30.5 -18.5t-20.5 -38.5v-529h-11l-24 14l-1 377h-41v-356q-39 23 -39 50v306h-38v-268q-10 9 -22.5 40t-12.5 45v363q0 65 61 131
q75 81 184 81q73 0 152 -52q87 -57 87 -123zM457 81q0 -8 -5 -13q-17 -12 -30 -22l-3 208q13 -6 23 -13q15 -12 15 -22v-138zM376 25q-15 -9 -17.5 -10t-16.5 -4v278q12 -5 21 -12q5 -4 13 -13v-239zM299 7q-15 -3 -18 -3q-2 0 -7 2.5t-14 4.5v194h39v-198zM425 711
q-7 0 -14.5 -0.5t-16.5 -1.5q-13 0 -19 9t-12 43q-6 -36 -11.5 -43t-31.5 -7h-21q22 -6 32 -18q6 -7 6 -14q0 -5 -4 -18.5t-9 -22.5q9 12 21 20t17 8q16 0 39 -28q-7 16 -13 35q-1 3 -2 7q0 9 13 18t26 13zM253 711h-49l-13 50q-6 -36 -11.5 -43t-31.5 -7h-21
q12 -3 24.5 -12t12.5 -20q0 -12 -2.5 -19.5t-10.5 -21.5q10 12 22 20t17 8q8 0 18.5 -8t20.5 -20q-4 9 -9 23.5t-5 18.5q2 5 4 7q13 17 34 24zM186 539q-23 -1 -30 -1q-15 0 -20 8.5t-13 41.5q-3 -27 -6 -38.5t-23 -11.5q-19 1 -33 1q20 -7 29 -16.5t9 -15.5q0 -9 -7 -26
q-2 -5 -7 -15q9 12 24 21q5 3 14 7q9 0 22 -11q9 -7 17 -17l-15 40q0 6 14.5 17.5t24.5 15.5z" />
    <glyph glyph-name="d" unicode="d" horiz-adv-x="572" 
d="M546 209q-6 -21 -10 -33q-13 -36 -27 -56v281h-38v-331l-12 -10q-13 -10 -28 -16v360h-44v-385q-15 -7 -21 -9.5t-14 -4.5v528q0 23 -27 47q-15 14 -30 21h-67v-600h-38v403h-43v-399h-39v396l-42 3v-399h-34v791h280q68 0 144 -69q90 -81 90 -187v-331zM309 1h-40v194
h40v-194zM381 716h-51q-7 25 -14 51q-5 -37 -10.5 -44t-31.5 -7h-23q18 -6 28.5 -14.5t10.5 -19.5q0 -14 -14 -41q8 10 24 20q5 3 15 8q12 0 25 -11q8 -7 15 -17l-15 42q0 6 11 15q18 15 30 18zM509 540q-23 -1 -30 -1q-16 0 -20.5 7.5t-13.5 44.5q-5 -37 -9 -44.5t-22 -7.5
h-15t-18 1q18 -6 28.5 -14.5t10.5 -19.5q0 -14 -14 -41q7 10 20.5 19.5t18.5 9.5q8 0 20 -9t20 -20l-15 41q0 7 13 18t26 16zM187 716h-51q-4 13 -7 26q-6 21 -7 25q-5 -36 -14 -43.5t-51 -7.5q39 -11 39 -34q0 -9 -3 -16t-11 -25q10 12 24 21q5 3 15 7q12 0 25 -11
q5 -4 16 -17q-6 15 -13 33q-1 4 -3 9q7 9 12 13q16 15 29 20zM187 540h-51q-4 13 -7 26q-6 21 -7 25q-5 -36 -14 -43.5t-51 -7.5q39 -11 39 -34q0 -9 -3 -16t-11 -25q9 12 24 21q5 3 15 8q8 0 21.5 -11t19.5 -18q-4 9 -13 35l-3 6q5 9 9 13q13 15 32 21z" />
    <glyph glyph-name="e" unicode="e" horiz-adv-x="496" 
d="M470 598h-241v-98h159v-181h-37v78h-43v-78h-36v78h-43v-395h-36v395h-43v-390h-39v390h-42v-390h-37v792h438v-201zM470 2h-40v195h40v-195zM388 2h-37v195h37v-195zM308 2h-36v195h36v-195zM413 717h-51l-14 50q-5 -39 -12.5 -44.5t-52.5 -5.5q39 -14 39 -34
q0 -9 -3.5 -18.5t-10.5 -22.5q10 12 21.5 20t17.5 8q11 0 25 -12l16 -16q-3 7 -13 34q-1 3 -3 8q0 7 8 15t33 18zM193 717q-9 0 -17 -0.5t-14 -0.5q-15 0 -20 8.5t-13 42.5q-5 -39 -12.5 -44.5t-52.5 -5.5q15 -5 27.5 -14t12.5 -20q0 -8 -7 -25q-2 -5 -7 -16q4 6 18 17
t21 11q16 0 39 -28l-15 42q0 8 17 20q12 8 23 13zM193 534q-9 0 -17 -0.5t-14 -0.5q-16 0 -20.5 7t-12.5 44q-5 -35 -11 -42.5t-32 -7.5h-22q11 -5 22 -12q18 -12 18 -22q0 -9 -5 -21t-9 -21q4 8 19 19t20 11q7 0 21.5 -12.5t17.5 -17.5l-15 42q0 8 17 20q6 4 23 14z" />
    <glyph glyph-name="f" unicode="f" horiz-adv-x="488" 
d="M464 596h-238v-102h162v-180h-40v83h-39v-83h-40v83h-43v-390h-38v390h-38v-390h-42v390h-44v-390h-36v787h436v-198zM409 711q-11 0 -18.5 -0.5t-12.5 -0.5q-16 0 -20.5 7.5t-13.5 44.5q-6 -47 -15 -49t-51 -2q18 -6 29 -14.5t11 -19.5t-4 -22q-7 -15 -9 -20q3 6 21 18
l18 12q7 0 19.5 -10t20.5 -20q-8 17 -11 25t-3 17q0 7 18 20q10 7 21 14zM192 711h-51q-7 25 -14 51q-5 -33 -6 -36q-5 -16 -26 -16q-19 1 -34 1q11 -4 24.5 -14t13.5 -20q0 -13 -3 -20.5t-10 -21.5q4 5 20.5 17.5t19.5 12.5q7 0 20 -10t20 -20l-14 42q0 6 13 17t27 17z
M192 526h-51q-2 8 -7.5 26t-6.5 25q-8 -47 -16.5 -49t-49.5 -2q16 -4 27 -12.5t11 -20.5q0 -10 -3.5 -21.5t-9.5 -21.5q8 11 24 22q5 3 16 9q7 0 20 -10.5t20 -20.5l-14 43q0 7 12 17t28 16z" />
    <glyph glyph-name="g" unicode="g" horiz-adv-x="564" 
d="M520 624q0 -8 -53 -40q-49 -29 -119 -63q-12 42 -24 57q-15 19 -44 19q-21 0 -37 -15t-16 -29v-542q-20 6 -25.5 9.5t-10.5 7.5v371h-39v-352q-25 10 -28 12q-5 6 -12 13l-1 327h-38v-277q-11 10 -24 39q-19 44 -19 98v308q0 101 94 175q81 64 154 64q68 0 152 -57
q90 -61 90 -125zM539 198q-7 -22 -11 -31q-12 -31 -24 -41v273l-40 3v-330q-16 -14 -21 -17t-19 -8v352h-39v-374q-12 -7 -15.5 -8.5t-24.5 -5.5v388h-38v-83h-38v111h270v-229zM306 4h-37v197h37v-197zM431 711q-23 -1 -30 -1q-16 0 -20.5 7.5t-13.5 44.5
q-5 -40 -12.5 -45.5t-52.5 -5.5q17 -4 28 -12.5t11 -20.5q0 -10 -3 -18.5t-10 -24.5q4 7 19 19t20 12q6 0 19.5 -11t20.5 -20l-17 43q2 4 4 7q14 18 37 26zM259 711h-50q-7 25 -14 51q-5 -33 -6 -36q-5 -16 -26 -16h-15t-18 1q12 -3 25 -12.5t13 -20.5t-3 -20t-10 -23
q7 11 24 22l15 9q7 0 20 -10.5t20 -20.5l-14 43q0 7 11 16q17 14 28 17zM191 529q-9 0 -17 -0.5t-14 -0.5q-16 0 -21 8t-13 42q-5 -34 -9.5 -41.5t-25.5 -7.5h-29q20 -8 31 -19q8 -8 8 -15q0 -9 -7 -26q-2 -5 -7 -16q10 13 24 22q5 3 15 7q8 0 22 -12q7 -6 18 -17l-15 41
q0 8 15 19.5t25 15.5z" />
    <glyph glyph-name="h" unicode="h" horiz-adv-x="584" 
d="M560 1h-44v390h-39v-390h-42v390h-39v-390h-40v386l-40 4v-83h-43v83h-39v-390h-42v390h-39v-390h-45v390h-36v-390h-43v791h204v-301h123v301h204v-791zM526 712h-52q-8 25 -15 50q-6 -34 -7 -37q-5 -13 -37 -13h-23q18 -6 30 -15.5t12 -18.5q0 -6 -5 -20.5t-11 -22.5
q8 10 25 21l15 9q11 0 24 -11q10 -8 17 -19l-14 42q0 10 12 19.5t29 15.5zM526 525h-52q-8 26 -15 52q-6 -38 -10.5 -45t-24.5 -7h-32q19 -6 30.5 -15.5t11.5 -18.5q0 -11 -3 -18t-13 -21q8 6 32 21q3 2 8 5q9 0 26 -13q10 -8 15 -16l-14 42q0 6 13.5 17.5t27.5 16.5z
M196 712h-52l-14 50q-6 -33 -11 -42t-21 -9h-16.5t-18.5 1q11 -5 18 -9q21 -13 21 -25q0 -15 -4 -25q-7 -12 -10 -18q6 7 22 18.5t19 11.5q10 0 23 -11q9 -8 18 -19l-15 42q0 10 13 19.5t28 15.5zM196 525h-52l-14 52q-5 -32 -7 -37q-5 -15 -29 -15h-31q17 -5 28 -15t11 -19
q0 -11 -3.5 -20t-10.5 -19q12 10 25 18t16 8q7 0 20.5 -9.5t20.5 -19.5l-15 42q0 6 13.5 17.5t27.5 16.5z" />
    <glyph glyph-name="i" unicode="i" horiz-adv-x="252" 
d="M227 0h-40v389l-41 3v-392h-38v392h-39v-392h-39v793h197v-793zM190 712h-51l-15 52q-4 -36 -13.5 -44t-52.5 -8q16 -4 28 -13t12 -21q0 -8 -2 -15t-11 -24q20 18 33 24q2 1 6 2q8 0 22 -10.5t19 -18.5q-6 14 -12 31q-1 5 -4 13q7 9 12 13q15 15 29 19zM194 531
q-9 0 -17 -0.5t-15 -0.5q-16 0 -21.5 8.5t-11.5 42.5q-6 -33 -11 -42t-21 -9q-19 1 -34 1q26 -10 35 -26q1 -3 4 -8q0 -9 -7 -26q-2 -5 -7 -16q6 9 20.5 19t19.5 10q10 0 23 -11q9 -8 17 -18l-15 41q0 8 16 20t25 15z" />
    <glyph glyph-name="j" unicode="j" horiz-adv-x="560" 
d="M533 216q0 -14 -10 -43t-25 -43l-2 274h-38v-324q0 -9 -11.5 -20.5t-26.5 -18.5v362h-43v-391l-40 -7v792h196v-581zM302 -2h-38v199h38v-199zM221 9h-11l-18 6q-11 6 -11 18v272q14 11 18 13q8 5 22 11v-320zM143 44q-11 3 -20.5 10t-19.5 16v195q15 10 40 21v-242z
M61 130q-16 16 -24 38t-8 44q0 12 3.5 19t28.5 12v-113zM501 717q-23 -1 -30 -1q-16 0 -20.5 7.5t-13.5 44.5q-5 -38 -9 -44.5t-24 -6.5h-30q37 -12 37 -33v-12q-5 -11 -13 -29q5 7 18.5 17.5t20.5 10.5q8 0 17 -5.5t22 -22.5q-5 15 -8 23q-6 17 -6 19q4 8 7 12q11 13 32 20
zM501 544q-11 0 -18.5 -0.5t-12.5 -0.5q-15 0 -20 8.5t-13 41.5q-5 -34 -9.5 -41.5t-24.5 -7.5h-29q14 -6 23 -13q14 -11 14 -21q0 -15 -13 -41q10 13 24 22q5 3 15 7q8 0 22 -12q10 -9 17 -17q-5 12 -7 18q-7 19 -7 22q3 7 6 11q11 14 33 24z" />
    <glyph glyph-name="k" unicode="k" horiz-adv-x="596" 
d="M573 797q-72 -158 -111 -248q-42 -96 -42 -135q0 -8 1 -11h-24v-405h-27q-6 12 -9 21q-8 19 -8 30v353h-44v-236q-3 11 -27 74q-9 24 -9 31v132h-38v-405h-42v405h-43v-405h-39v402l-40 3v-405h-39v799h194v-294l4 -3l140 297h203zM479 -2h-44v369q26 -65 35 -91t9 -41
v-237zM562 -2h-40v125q13 -30 25 -67q8 -26 15 -36v-22zM500 721h-51q-7 25 -14 51q-4 -40 -11.5 -45.5t-53.5 -5.5q17 -5 28 -13.5t11 -19.5q0 -10 -3.5 -20.5t-9.5 -21.5q7 11 23 21q5 3 16 9q9 0 21.5 -10.5t18.5 -19.5l-16 42q8 9 12 13q16 15 29 20zM421 546h-51
l-14 50q-4 -39 -11.5 -44.5t-53.5 -5.5q24 -8 34 -21q3 -4 6 -12q0 -9 -5.5 -22t-9.5 -20q8 11 25 21q5 3 15 8q7 0 19 -9t21 -20l-15 41q0 6 9 14q15 14 31 20zM193 721q-23 -1 -30 -1q-17 0 -21.5 7t-13.5 45q-4 -40 -11.5 -45.5t-51.5 -5.5q16 -5 27.5 -13.5t11.5 -19.5
q0 -8 -6 -23q-2 -5 -9 -19q7 11 23 21q5 3 16 9q8 0 20.5 -10t20.5 -20q-5 11 -13 34q-1 3 -3 8q0 5 12 15.5t28 17.5zM193 546q-9 0 -17 -0.5t-14 -0.5q-16 0 -20.5 7.5t-13.5 43.5q-4 -39 -11.5 -44.5t-51.5 -5.5q16 -5 27.5 -13.5t11.5 -19.5q0 -8 -5 -21t-10 -21
q12 15 30 25q3 1 9 4q11 0 24 -11q4 -4 17 -18l-16 41q0 5 12 16t28 18z" />
    <glyph glyph-name="l" unicode="l" horiz-adv-x="484" 
d="M456 -1h-35v200h35v-200zM218 -1h-35v394l-38 3v-397h-40v397h-37v-397h-40v798h190v-798zM379 -1h-39v200h39v-200zM298 -1h-38v200h38v-200zM186 715h-49l-14 50q-4 -35 -9.5 -42.5t-32.5 -7.5h-21q16 -6 27 -15t11 -19q0 -12 -3 -19t-11 -23q5 7 21 19q5 4 17 11
q4 0 17.5 -9t22.5 -21l-16 42q4 5 6 8q16 19 34 26zM186 542h-49q-2 8 -7.5 26t-6.5 25q-4 -36 -12.5 -43.5t-50.5 -7.5q38 -10 38 -33q0 -10 -3.5 -19t-10.5 -22q6 8 20 18.5t18 10.5q8 0 21.5 -11t18.5 -18q-4 9 -13 35l-3 6q5 9 9 13q13 14 31 20z" />
    <glyph glyph-name="m" unicode="m" horiz-adv-x="732" 
d="M703 2h-40v398h-38v-398h-41v398h-37v-398h-41v398h-43v-193q-8 -24 -13 -36q-14 -36 -26 -53v282h-40v-398h-39v398h-40v-285q-7 9 -22.5 43.5t-15.5 45.5v196h-40v-398h-39v398h-39v-398h-40v398h-38v-398h-40v800h193l132 -328l143 328h204v-800zM663 724h-50
q-2 8 -7 23t-7 26q-5 -36 -10 -42.5t-27 -6.5h-27q19 -10 29 -18t10 -16q0 -18 -16 -38q18 14 24 18q11 8 16 8q7 0 19 -9t21 -20l-15 40q0 5 13.5 17t26.5 18zM652 549h-49l-14 50q-6 -38 -14 -44t-51 -6q13 -3 26 -12t13 -21q0 -14 -14 -42q7 9 24 21l15 9q8 0 21 -10
q10 -7 18 -20l-15 42q0 8 15.5 19t24.5 14zM194 724h-49q-7 24 -14 49q-6 -36 -11 -42.5t-27 -6.5h-27q14 -6 23 -13q15 -11 15 -21t-3.5 -20.5t-9.5 -17.5q16 13 23 18q11 8 16 8q7 0 19.5 -9.5t20.5 -19.5q-5 12 -7 18q-7 19 -7 22q0 9 2 12q7 10 36 23zM205 549
q-11 0 -18.5 -0.5t-12.5 -0.5q-14 0 -20.5 9t-11.5 42q-6 -38 -14 -44t-51 -6q12 -3 25 -12.5t13 -20.5t-3 -20t-10 -22q7 9 24 21l15 9q7 0 21.5 -12.5t17.5 -17.5l-14 42q0 11 19 23q6 4 20 10z" />
    <glyph glyph-name="n" unicode="n" horiz-adv-x="572" 
d="M543 -1h-35v407h-42v-407h-37v407h-43v-410q-13 19 -24.5 41t-11.5 30v339h-43v-267q-40 61 -40 81v186h-41v-407h-38v407h-43v-407h-36v407h-43v-407h-36v803h187l125 -239h8v239h193v-803zM511 724q-11 0 -18.5 -0.5t-12.5 -0.5q-14 0 -20.5 9.5t-12.5 41.5
q-5 -37 -10 -43.5t-32 -6.5h-23q18 -6 28.5 -14.5t10.5 -19.5q0 -15 -14 -40q7 7 18 16q16 13 21 13q8 0 20.5 -10t19.5 -19l-15 40q0 7 12.5 17.5t27.5 16.5zM511 553q-11 0 -18.5 -0.5t-12.5 -0.5q-15 0 -21 8.5t-12 41.5q-6 -34 -10.5 -42t-20.5 -8q-19 1 -34 1
q13 -6 24 -14q15 -12 15 -20q0 -9 -7 -26q-2 -5 -7 -16q6 9 20.5 19t18.5 10q10 0 22 -10t18 -19l-15 41q0 5 13.5 17t26.5 18zM206 724h-50l-14 50q-4 -34 -14 -42t-51 -8q30 -9 38 -26q1 -3 2 -8q0 -9 -3 -17q-8 -17 -11 -23q5 7 18.5 18t20.5 11q5 0 18.5 -10t21.5 -19
q-11 23 -15 36q0 2 -1 4q0 3 5 9q13 17 35 25zM210 553q-23 -1 -30 -1q-16 0 -21.5 8t-13.5 42q-4 -33 -10 -41t-25 -8h-29q14 -6 23 -13q15 -11 15 -21q0 -14 -5 -25t-8 -17q6 9 20.5 19t18.5 10q10 0 23 -11q9 -7 17 -18l-14 41q0 10 6 16q10 9 33 19z" />
    <glyph glyph-name="o" unicode="o" horiz-adv-x="568" 
d="M540 222q0 -19 -13.5 -51.5t-22.5 -42.5l-1 278h-42v-331q0 -7 -8 -16.5t-27 -19.5v367h-39v-384l-21 -15h-19v528q0 26 -22.5 46.5t-43.5 20.5q-23 0 -41 -18t-18 -32v-540h-10q-13 4 -25 13v381h-38v-360q-15 6 -26 15q-17 13 -17 28v317h-40v-275q-11 13 -25 47
t-14 54v363q0 73 79.5 140.5t170.5 67.5q35 0 83 -16q61 -20 94 -55q24 -24 51 -69q35 -58 35 -96v-345zM305 1h-40v204h40v-204zM430 718h-50l-14 50q-6 -36 -10.5 -43t-24.5 -7h-30q13 -5 23 -12q15 -11 15 -21q0 -13 -3 -20.5t-10 -20.5q8 10 24 21l15 9q7 0 19.5 -10
t19.5 -20l-14 41q0 6 13 17t27 16zM504 542h-50l-13 49q-7 -40 -13.5 -44.5t-51.5 -4.5q12 -3 25 -12.5t13 -20.5q0 -10 -2.5 -17.5t-10.5 -22.5q6 7 19.5 17t19.5 10q7 0 18.5 -8.5t20.5 -18.5l-14 41q5 8 9 12q13 14 30 20zM259 718h-51q-7 25 -13 50q-6 -36 -10.5 -43
t-24.5 -7h-30q14 -5 23 -11q15 -11 15 -22q0 -13 -5 -24t-8 -17q9 11 23 21l15 9q7 0 20 -10t20 -20l-14 41q0 7 12.5 17.5t27.5 15.5zM187 542q-9 0 -17 -0.5t-14 -0.5q-15 0 -20 8.5t-13 41.5q-5 -34 -14 -41.5t-50 -7.5q16 -4 27 -13t11 -20q0 -10 -3.5 -20.5t-9.5 -19.5
q4 5 19 16t20 11q7 0 19.5 -9t19.5 -18q-3 6 -4 10q-9 25 -9 31q0 9 11.5 18t26.5 14z" />
    <glyph glyph-name="p" unicode="p" horiz-adv-x="564" 
d="M541 543q0 -54 -11 -88q-18 -55 -59 -55q-3 -33 -6 -46.5t-37 -21.5v24v13q0 20 -3 31h-37v-21t1 -19q0 -22 -4.5 -35.5t-18.5 -21.5h-17v94l-39 3v-105h-40v102l-42 3v-396h-38v396h-43v-396h-38v396h-41v-396h-39v799h287q66 0 136 -61q89 -77 89 -199zM403 719h-51
q-7 25 -14 51q-5 -30 -7 -36q-5 -15 -28 -15h-30q11 -3 25 -13.5t14 -19.5t-7 -26q-2 -5 -7 -16q8 10 24 21l15 9q7 0 20 -10t20 -20l-15 42q0 9 16 19.5t25 13.5zM506 536q-23 -1 -30 -1q-16 0 -20.5 7.5t-13.5 44.5q-5 -36 -14 -43.5t-51 -7.5q17 -5 28 -14t11 -20
q0 -10 -3 -18.5t-10 -23.5q4 8 19 19t20 11q9 0 23 -12q11 -9 17 -18l-14 42q0 13 25 28q4 2 13 6zM190 719q-11 0 -18.5 -0.5t-12.5 -0.5q-16 0 -20.5 7.5t-13.5 44.5q-4 -40 -11.5 -45.5t-51.5 -5.5q14 -5 26 -14.5t12 -18.5q0 -10 -4.5 -21t-9.5 -21q7 11 23 21q5 3 16 9
q8 0 21 -11t19 -19l-15 42q0 7 17 20q11 8 23 13zM344 544q0 22 -8 32t-35 25h-71v-119h71q21 11 32 28.5t11 33.5zM190 536q-11 0 -18.5 -0.5t-12.5 -0.5q-16 0 -20.5 7.5t-13.5 44.5q-4 -37 -8 -44.5t-22 -7.5h-15t-18 1q12 -3 25 -13.5t13 -20.5q0 -9 -5 -21t-9 -21
q6 10 25 23q10 7 14 7q8 0 22.5 -11.5t17.5 -18.5l-15 42q0 7 12.5 17.5t27.5 16.5z" />
    <glyph glyph-name="q" unicode="q" horiz-adv-x="584" 
d="M556 228q0 -16 -12 -48t-27 -47v260l-39 3v-378h-12l-29 24v354h-39v-375q-15 -10 -23.5 -12.5t-17.5 -4.5v521q0 23 -22.5 45.5t-46.5 22.5q-19 0 -38 -16t-19 -31v-538q-37 7 -37 31v357h-43v-354q-13 8 -19 12q-20 15 -20 26q0 85 -1.5 194t-1.5 122h-41v-263
q-15 18 -27.5 55.5t-12.5 64.5v307q0 70 61 143q76 91 196 91q55 0 100.5 -17.5t77.5 -48.5q26 -25 57 -75q36 -58 36 -89v-336zM556 -3l-39 3l4 109q5 -1 15 -5t20 -6v-101zM318 -3h-43v203h43v-203zM441 707h-51l-14 50q-6 -36 -11.5 -43t-31.5 -7h-22q16 -5 27.5 -13.5
t11.5 -18.5q0 -11 -4 -19.5t-11 -18.5q7 5 24 17q11 8 16 8q8 0 25 -13q10 -8 15 -15l-15 42q0 5 11 13q19 14 30 18zM521 525h-52l-14 50q-4 -39 -12 -44.5t-53 -5.5q28 -7 37 -24q1 -2 3 -8q0 -17 -15 -39q18 16 34 24l6 3q8 0 23 -12q5 -4 18 -17q-5 10 -11 27
q-2 5 -5 14q6 8 10 12q14 15 31 20zM264 707h-51l-14 50q-6 -36 -11.5 -43t-32.5 -7h-22q12 -3 25 -12.5t13 -19.5t-3.5 -20.5t-9.5 -17.5q13 10 30 20q3 2 9 5q9 0 26 -13q10 -8 15 -15l-14 42q0 7 14.5 17.5t25.5 13.5zM194 525q-11 0 -18.5 -0.5t-12.5 -0.5
q-16 0 -20.5 7.5t-13.5 43.5q-5 -39 -12.5 -44.5t-51.5 -5.5q16 -5 27.5 -13.5t11.5 -18.5q0 -6 -3.5 -18t-10.5 -23q6 8 24 20l15 9q8 0 22 -11.5t18 -17.5l-15 41q0 7 13 17t27 15z" />
    <glyph glyph-name="r" unicode="r" horiz-adv-x="576" 
d="M544 542q0 -64 -23 -108q-27 -51 -76 -51h-14q-2 5 -6 13h-35v-398h-19q-1 1 -14 31q-7 15 -7 23v341h-40v-241q-4 9 -18 44q-17 44 -17 53v144h-42v-395h-37v395h-42v-395h-41v395h-43v-395h-39v800h304q65 0 132 -71q77 -81 77 -185zM472 -2h-39v333q4 -6 26 -67
q13 -36 13 -41v-225zM558 -2h-43v103q7 -8 16 -29q13 -30 27 -74zM400 716q-9 0 -17 -0.5t-14 -0.5q-16 0 -21 8t-13 42q-4 -37 -12 -43t-52 -6q13 -5 19 -9q20 -12 20 -26q0 -8 -7 -25q-2 -5 -7 -16q6 8 19 18t20 10t17.5 -6.5t22.5 -21.5l-15 42q0 8 15.5 19t24.5 15z
M508 529h-51l-14 50q-4 -39 -11.5 -44.5t-52.5 -5.5q18 -8 26 -13q13 -9 13 -21q0 -7 -6 -22t-9 -20q9 12 25 22q5 3 15 7q12 0 25 -12q7 -6 14 -17l-14 41q0 7 13 18t27 17zM196 716h-51q-3 14 -4 17l-10 32q-4 -37 -12.5 -43t-52.5 -6q39 -14 39 -35q0 -16 -14 -41
q9 11 21.5 19.5t17.5 8.5q11 0 26 -13q10 -9 14 -15l-15 42q0 7 13 17.5t28 16.5zM345 542q0 27 -11 38q-6 6 -38 20h-64v-122h49q19 8 39 16q25 12 25 48zM192 529h-50l-14 50q-6 -35 -10.5 -43t-20.5 -8q-19 1 -34 1q16 -7 27 -15.5t11 -18.5q0 -14 -5 -25t-8 -17
q6 9 20.5 19t18.5 10q9 0 21 -9q8 -6 19 -20l-14 41q0 10 10 18.5t29 16.5z" />
    <glyph glyph-name="s" unicode="s" horiz-adv-x="548" 
d="M526 243q0 -37 -8 -67t-30 -59v256q17 -16 27.5 -46.5t10.5 -83.5zM492 644q-37 -23 -59 -36q-71 -42 -114 -59q0 18 -10 33q-14 21 -42 21q-21 0 -35 -14.5t-14 -33.5q0 -35 55 -63q55 -23 111 -45q69 -28 87 -56h-21v-327q-5 -4 -13 -12t-30 -20l-1 359h-38v-380
q-9 -1 -18.5 -4t-19.5 -6v387l-40 3v-102q-14 7 -27 14t-13 32v28t1 28h-42v-63q-22 8 -29.5 13t-7.5 11q2 10 2 19t-4 20h-31q-4 -12 -4 -29q-53 27 -76 61q-34 51 -34 128q0 90 59 161q69 83 181 83q54 0 132 -40q95 -48 95 -111zM290 -3h-39v190h39v-190zM209 5
q-22 5 -35 17v229l35 13v-259zM135 40q-18 10 -25 16q-14 12 -14 23v143l39 14v-196zM54 131q-12 14 -17.5 28t-11.5 31q13 11 29 14v-73zM418 708h-50l-14 48q-4 -35 -9.5 -41.5t-32.5 -6.5h-22q16 -7 27.5 -15.5t11.5 -17.5t-2.5 -16.5t-11.5 -24.5q6 7 20.5 17.5
t17.5 10.5q9 0 20.5 -9t19.5 -19l-16 40q0 7 16 18.5t25 15.5zM241 708q-11 0 -18.5 -0.5t-12.5 -0.5q-15 0 -20.5 8.5t-12.5 40.5q-5 -32 -9.5 -40.5t-21.5 -8.5h-15t-17 1q20 -8 29 -17t9 -16q0 -10 -6 -26q-2 -5 -7 -15q8 11 24 21q5 3 14 7q9 0 22 -11q9 -7 17 -17
l-15 40q0 7 15 18.5t25 15.5zM192 528h-50l-14 49q-4 -39 -11.5 -44t-52.5 -5q22 -7 31 -16.5t9 -16.5q0 -9 -7 -23.5t-8 -17.5q7 9 21 19t18 10q12 0 25 -13q12 -15 13 -16q-4 12 -9 25t-5 15q0 10 12 19t28 15z" />
    <glyph glyph-name="t" unicode="t" horiz-adv-x="608" 
d="M579 597h-169v-590h-42v404h-41v-404h-42v404h-41v-404h-40v592h-170v197h545v-199zM548 711h-52q-8 26 -15 52q-6 -38 -11.5 -45t-30.5 -7h-27q18 -5 29.5 -13.5t11.5 -20.5q0 -10 -3.5 -19.5t-10.5 -22.5q7 6 26 19q5 3 16 10q9 0 25 -14q8 -9 17 -17l-16 43q5 9 9 13
q13 14 32 22zM375 711h-54l-14 52q-5 -40 -13.5 -46t-55.5 -6q18 -6 30 -15t12 -19q0 -14 -15 -44q7 10 23 21q5 4 17 10q7 0 25 -13q12 -9 18 -18q-6 14 -8.5 23.5t-5.5 19.5q0 10 19 23q6 4 22 12zM201 711q-9 0 -17 -0.5t-15 -0.5q-19 0 -25 8t-12 45q-5 -39 -13.5 -45.5
t-54.5 -6.5q14 -4 27 -13.5t13 -20.5q0 -10 -3 -19t-10 -23q14 14 33 25q3 2 8 4q12 -2 22 -8.5t20 -22.5l-16 43q0 9 15 19.5t28 15.5zM375 537h-54l-14 52q-5 -41 -13 -46.5t-56 -5.5q16 -5 29 -14.5t13 -20.5q-3 -10 -4 -15q-5 -17 -11 -28q7 9 24 21q5 3 16 10
q5 0 19.5 -9.5t23.5 -21.5q-5 12 -7 18q-7 19 -7 25q0 12 19 24z" />
    <glyph glyph-name="u" unicode="u" horiz-adv-x="592" 
d="M563 236q0 -13 -11 -47q-14 -43 -30 -57v281h-41v-340q-11 -10 -21 -19q-5 -2 -20 -6v365h-40v-387l-25 -16h-11v787h199v-561zM233 14h-11q-15 7 -18 10q-7 6 -7 16v373h-45v-362q-10 5 -23 16q-17 14 -17 24v322h-41v-273q-12 13 -26.5 49.5t-14.5 60.5v547h203v-783z
M319 7h-41v207h41v-207zM529 716h-51l-15 51q-6 -37 -11.5 -44t-32.5 -7h-23q18 -6 29 -14.5t11 -19.5q0 -12 -3.5 -21t-11.5 -21q15 13 31 23q4 2 10 6q12 0 28 -15q5 -5 14 -16q-4 9 -9.5 24.5t-5.5 18.5q0 9 15.5 20t24.5 15zM529 543h-51q-8 25 -15 51q-5 -37 -10.5 -44
t-33.5 -7h-23q40 -14 40 -35q0 -11 -3.5 -20t-10.5 -23q12 16 31 26q3 1 9 4q8 0 20.5 -9.5t21.5 -20.5l-15 43q0 7 9 16t31 19zM197 716q-11 0 -18.5 -0.5t-12.5 -0.5q-17 0 -23.5 8.5t-12.5 43.5q-4 -36 -11.5 -43.5t-33.5 -7.5h-22q40 -12 40 -34q0 -13 -3 -22l-10 -20
q12 12 24 20.5t16 8.5q5 -2 8 -3q20 -9 33 -28l-16 43q0 8 16 19.5t26 15.5zM197 543q-7 0 -15.5 -0.5t-17.5 -0.5q-18 0 -23 7.5t-11 44.5q-4 -40 -12 -45.5t-55 -5.5q40 -15 40 -35q0 -11 -3 -20t-10 -23q7 9 25 21l15 9q8 0 20.5 -10t20.5 -20l-16 43q0 8 15.5 19
t26.5 16z" />
    <glyph glyph-name="v" unicode="v" horiz-adv-x="660" 
d="M641 793l-26 -108q-26 -109 -54 -213q-33 -123 -45 -148v85h-40v-270q-8 -34 -13 -51q-15 -54 -24 -63v384h-40v-403h-43v403h-42v-403h-42v403h-39v-384q-14 31 -20 51q-20 60 -20 104v226l-40 3v-59q-10 13 -45 139q-40 146 -80 293v11h198l111 -373l99 373h205z
M582 708h-51q-3 16 -7 26.5t-8 24.5q-4 -40 -11.5 -45.5t-53.5 -5.5q39 -15 39 -35q0 -19 -14 -42q7 8 25 20l15 9q11 0 29 -16q7 -7 12 -13l-15 43q0 6 13 16.5t27 17.5zM542 538q-9 0 -16.5 -0.5t-13.5 -0.5q-18 0 -23 8t-13 45q-5 -37 -9.5 -45t-22.5 -8q-19 1 -34 1
q14 -5 27.5 -14.5t13.5 -19.5q-1 -5 -2 -8q-6 -20 -13 -33q14 12 22 18q12 9 18 9q11 0 25 -12q11 -9 15 -18l-15 44q0 9 16 20q10 7 25 14zM219 708h-52q-2 8 -7.5 26t-6.5 25q-8 -47 -16.5 -49t-49.5 -2q18 -7 29 -16t11 -19q0 -13 -7 -28q-2 -5 -8 -14q24 29 40 29
q10 0 24 -11q9 -7 17 -18l-16 43q0 6 11 15q15 12 31 19zM263 538q-9 0 -16.5 -0.5t-13.5 -0.5q-18 0 -23 8t-13 45q-5 -37 -10 -45t-23 -8q-19 1 -34 1q40 -12 40 -34q0 -21 -15 -41q35 27 40 27q13 0 26 -11q9 -7 16 -19l-14 44q0 8 14 19t26 15z" />
    <glyph glyph-name="w" unicode="w" horiz-adv-x="1100" 
d="M1075 795l-127 -470v83h-41v-257q0 -12 -19 -72q-6 -20 -19 -58l-1 387h-42v-405h-42v405h-40v-405h-43v405h-41v-398l-41 149v249h-41v-67q-11 13 -15.5 26.5t-11.5 25.5q-7 -9 -15 -29t-10 -23v67h-46v-249q0 -4 -6 -28.5t-13 -52t-12 -45.5q-5 -12 -10 -23v398h-41
v-405h-42v405h-41v-405h-37v405h-45v-380q-7 12 -24 74t-17 71v235h-41v-59l-125 438l1 8h203l107 -372l110 372h205l109 -372q15 15 34 91q63 250 74 281h206zM1016 713q-11 0 -18.5 -0.5t-12.5 -0.5q-18 0 -24 8t-13 45q-4 -36 -10.5 -44t-33.5 -8h-23q10 -3 22 -11
q18 -12 18 -24q0 -15 -4 -25q-7 -12 -10 -19q7 9 25 21q5 3 16 9q11 0 25 -12q7 -6 17 -18q-4 11 -13 36q-1 3 -3 8q0 5 14.5 17.5t27.5 17.5zM971 534h-53l-14 52q-6 -38 -11.5 -45t-30.5 -7h-26q40 -13 40 -35q0 -9 -3.5 -19t-9.5 -21q31 26 40 26q13 0 27 -12
q5 -4 15 -17l-16 44q0 5 13.5 16.5t28.5 17.5zM615 713h-53q-3 14 -8 29t-6 23q-5 -38 -11 -45t-34 -7h-23q15 -5 27.5 -15.5t12.5 -19.5q0 -15 -5 -26t-8 -18q7 9 25 21q5 3 16 9q8 0 20 -9t21 -21l-16 44q2 4 4 7q14 18 38 28zM611 534h-52l-15 52q-6 -37 -11.5 -44.5
t-29.5 -7.5h-26q41 -15 41 -35q0 -7 -6 -20.5t-10 -19.5q17 13 27.5 19.5t13.5 6.5q13 0 27 -12q14 -15 16 -17l-17 44q0 7 16.5 19t25.5 15zM218 713q-9 0 -16.5 -0.5t-13.5 -0.5q-17 0 -23 8.5t-14 44.5q-5 -37 -10.5 -44.5t-33.5 -7.5h-23q40 -14 40 -35q0 -13 -3 -20.5
t-12 -23.5q12 15 27 24q5 2 13 6q7 0 18.5 -7t24.5 -23q-5 11 -8 20q-7 18 -7 24q0 12 28 28q4 2 13 7zM266 534h-52q-3 14 -7 26.5t-8 25.5q-4 -40 -12.5 -46t-54.5 -6q14 -4 27.5 -14.5t13.5 -20.5q0 -20 -16 -40q15 11 20 15q14 11 21 11q13 0 27 -12q7 -6 16 -17l-17 44
q7 9 12 13q16 15 30 21z" />
    <glyph glyph-name="x" unicode="x" horiz-adv-x="560" 
d="M526 794l-146 -383v-408h-17q-8 22 -14.5 35.5t-6.5 24.5v334l-40 3v-273l-21 29l-21 -29l-2 273h-37v-337q0 -6 -10.5 -28t-14.5 -32h-14v383l-166 408h190q21 -44 41 -95q11 -29 23 -43q13 29 21 47q26 59 36 91h199zM458 3h-39v280q13 -26 19 -39q20 -42 20 -50v-191z
M535 3h-38v96q13 -24 20 -40q17 -36 18 -39v-17zM143 3h-39v206q32 80 39 89v-295zM65 3h-32v14q7 13 17 39.5t15 35.5v-89zM454 716h-50l-14 50q-4 -39 -11.5 -44.5t-51.5 -5.5q19 -6 28.5 -12.5t9.5 -20.5q0 -9 -4 -21t-9 -21q7 10 22 21l15 9q12 0 28 -15q5 -5 13 -15
l-16 42q6 8 10 12q14 14 30 21zM211 716h-50l-14 50q-6 -36 -10 -43.5t-21 -7.5q-19 1 -33 1q15 -5 23 -11q14 -10 14 -22t-2.5 -19.5t-9.5 -22.5q6 10 23 21l15 9q5 0 17 -7.5t22 -22.5l-14 42q0 9 17 21q12 8 23 12zM345 542h-50l-14 50q-4 -39 -12 -44.5t-52 -5.5
q15 -4 27 -14t12 -19q0 -18 -14 -38q15 13 21 17q11 8 18 8q10 0 23 -11q10 -8 16 -18l-15 43q0 7 15 18t25 14z" />
    <glyph glyph-name="y" unicode="y" horiz-adv-x="648" 
d="M626 797l-200 -438v-358h-39v398l-39 3v-401h-41v401h-38v-401h-41v351l-207 445h193q18 -20 42 -84q57 -152 66 -164q9 9 48 116.5t56 131.5h200zM548 722q-9 0 -17 -0.5t-14 -0.5q-16 0 -21 8t-13 43q-5 -39 -12.5 -44.5t-52.5 -5.5q39 -13 39 -34v-12q-5 -12 -13 -29
q4 6 18 17t21 11q8 0 22 -11q10 -8 18 -17l-14 42q0 8 19 21q6 4 20 12zM480 539h-51l-14 50q-5 -35 -11 -42.5t-32 -7.5h-22q30 -9 38 -26q1 -3 2 -8q0 -9 -5 -21t-9 -21q5 8 22 20q5 4 17 10q6 0 15.5 -7.5t24.5 -22.5q-3 8 -10 27q-1 5 -5 15q5 9 9 13q13 14 31 21z
M225 722h-51l-14 50q-5 -39 -12.5 -44.5t-52.5 -5.5q15 -5 27.5 -14t12.5 -20q0 -8 -7 -25q-2 -5 -7 -16q4 6 18 17t21 11q10 0 22 -10q7 -6 18 -18l-15 42q0 6 9 15t31 18zM303 539q-9 0 -17 -0.5t-14 -0.5q-15 0 -20 8.5t-13 42.5q-5 -35 -11 -42.5t-32 -7.5h-22
q17 -5 28 -14t11 -20q0 -10 -3 -18.5t-10 -23.5q4 8 19 19t20 11q8 0 23 -13q11 -9 17 -17q-9 26 -10.5 31.5t-3.5 10.5q0 13 25 28q4 2 13 6z" />
    <glyph glyph-name="z" unicode="z" horiz-adv-x="580" 
d="M544 797q-40 -123 -78 -228q-12 -34 -19 -56q-10 -32 -18 -50q-24 -42 -36 -65q-2 -2 0 -15t2 -24q0 -6 -2 -18q-14 -28 -23.5 -54t-9.5 -43l-7 -8v165h-39v-398h-45v398h-38v-398h-39v409l75 194h-237v191h514zM555 3h-40v201h40v-201zM476 3h-43v201h43v-201zM393 3
h-40v201h40v-201zM152 3h-36v201q0 8 19 50q11 24 17 29v-280zM76 3h-35q9 19 19 48t16 45v-93zM454 721h-50l-15 51q-7 -47 -15.5 -49t-48.5 -2q22 -7 32 -18q7 -8 7 -15q0 -13 -2.5 -19t-13.5 -20q14 11 19 15q14 11 21 11q8 0 21 -9.5t19 -20.5l-15 44q0 7 17.5 18.5
t23.5 13.5zM414 549h-50l-14 50q-5 -39 -12.5 -44.5t-52.5 -5.5q15 -5 27.5 -14t12.5 -20q0 -8 -7 -25q-2 -5 -7 -16q10 14 19 21t20 7q10 0 24 -12q7 -6 15 -16l-15 42q0 5 10 15t30 18zM231 721q-11 0 -18.5 -0.5t-12.5 -0.5q-16 0 -20.5 7.5t-13.5 44.5q-5 -37 -9 -44.5
t-21 -7.5q-19 1 -34 1q14 -4 26.5 -13t12.5 -20q0 -16 -6 -27q-8 -11 -9 -12q34 26 40 26q8 0 23 -12q11 -9 17 -18q-15 39 -15 44q0 8 15 18.5t25 13.5z" />
    <glyph glyph-name="braceleft" unicode="{" 
 />
    <glyph glyph-name="bar" unicode="|" 
 />
    <glyph glyph-name="braceright" unicode="}" 
 />
    <glyph glyph-name="asciitilde" unicode="~" 
 />
  </font>
</defs>
</svg>
