<?xml version="1.0" standalone="no"?>
<!DOCTYPE svg PUBLIC "-//W3C//DTD SVG 1.1//EN" "http://www.w3.org/Graphics/SVG/1.1/DTD/svg11.dtd" >
<svg>
<metadata>
Created by FontForge 20120731 at Fri Oct 18 14:43:58 2019
 By www-data
Copyright (c) 2011 by Mans Greba:ck. All rights reserved. Get commercial license at mawns@live.se
</metadata>
<defs>
<font id="SomeWeatzSymbols" horiz-adv-x="417" >
  <font-face 
    font-family="Some Weatz Symbols"
    font-weight="400"
    font-stretch="normal"
    units-per-em="1000"
    panose-1="0 0 0 0 0 0 0 0 0 0"
    ascent="750"
    descent="-250"
    x-height="296"
    cap-height="743"
    bbox="-490.486 -943.1 2244.12 1049.27"
    underline-thickness="50"
    underline-position="-50"
    unicode-range="U+0020-FB02"
  />
<missing-glyph horiz-adv-x="500" 
 />
    <glyph glyph-name=".notdef" horiz-adv-x="500" 
 />
    <glyph glyph-name=".null" horiz-adv-x="0" 
 />
    <glyph glyph-name="nonmarkingreturn" horiz-adv-x="500" 
 />
    <glyph glyph-name="space" unicode=" " horiz-adv-x="500" 
 />
    <glyph glyph-name="space" unicode="&#xa0;" horiz-adv-x="500" 
 />
    <glyph glyph-name="B" unicode="B" horiz-adv-x="1601" 
d="M997 528q-5 31 3.5 57.5t25.5 47.5t39.5 36.5t45 23.5t42 9t30.5 -7q8 -6 6 -18t-9 -25t-17 -23.5t-17 -13.5q-9 0 -8 7.5t6 11.5q5 1 10 7t9.5 12.5t7 13.5t1.5 11q-7 7 -20 4.5t-27 -10t-26.5 -17t-19.5 -16.5q-15 -23 -16.5 -51.5t17.5 -48.5q6 -8 30.5 1.5t55.5 26
t62.5 35t51.5 29.5q7 8 14 15t15 13q12 9 26 15t29 11q5 5 10 8.5t10 5.5q8 1 10 -5q5 -2 4.5 -8t-5.5 -10q-5 -2 -10.5 -4t-11.5 -4q-11 -13 -24 -35.5t-25.5 -47.5t-23 -49t-16.5 -39q6 0 8 -6q24 8 47 20.5t45 26l44 27t45 24.5q2 6 6.5 9.5t8.5 -3.5v-1
q20 -13 33.5 -25.5t22.5 -41.5q5 -14 10.5 -28.5t8.5 -29.5q2 -11 3 -29.5t0 -40t-5 -43.5t-12 -41t-20.5 -32t-29.5 -17q17 -14 34 -29t25 -32q16 -33 22.5 -76.5t-0.5 -87t-27.5 -81t-57.5 -56.5q-35 -18 -70 -22t-69.5 3t-67.5 23t-64 37q-22 16 -35.5 39.5t-22.5 47.5
q-3 8 -7 19t-1 19q0 1 2 3l2 2q7 7 11.5 2t0.5 -12q2 -35 25 -66.5t58 -54t77 -35t83 -9.5l2 2q47 33 68 83.5t19.5 105t-24 105.5t-61.5 86q-1 -3 -4.5 -5.5t-7 -3t-5.5 2t0 8.5q1 2 3 4q34 4 51 30t21 60.5t-2.5 70.5t-18.5 59q-4 8 -7.5 13t-7 8.5t-7.5 7t-8 8.5
q-38 -23 -75 -46t-80 -31q-11 -31 -20.5 -63t-19.5 -65q-1 -2 -1 -2.5t-1 -2.5q-2 -10 -4 -15q-5 -17 -10 -35t-11 -35q-1 -2 -1 -3.5t-1 -3.5q-17 -56 -38 -108.5t-49 -98.5q-11 -19 -28.5 -37t-36.5 -32.5t-38 -24.5t-34 -13q-10 -5 -21.5 -9.5t-21.5 -10.5q-9 -4 -9.5 5
t5.5 13q15 8 31.5 13.5t27.5 17.5q8 8 15 19t15 24q4 10 9 19l10 18q17 35 30 70.5t21 57.5q10 28 21 63.5t23 74.5q-5 -4 -10.5 -8t-11.5 -7q-56 -34 -113 -67t-115.5 -61.5t-120 -52t-125.5 -39.5q-28 -23 -58 -37t-61 -24q-28 -9 -69.5 -18.5t-89 -14t-96.5 -2.5
t-93.5 15t-79.5 39t-53 70q-29 68 -35 130t10.5 119.5t53.5 111.5t93 106q57 54 119 87t136 56q10 1 9.5 -7.5t-7.5 -11.5q-76 -18 -139 -64t-108 -107.5t-69.5 -132.5t-24 -139t28 -127.5t86.5 -97.5q33 -21 79.5 -27.5t97.5 -0.5t102.5 22.5t95.5 41.5q-27 -9 -58.5 -11.5
t-62.5 0.5t-58.5 13t-47 27.5t-28 42t-0.5 57.5q18 73 52.5 131.5t80.5 108t101.5 91t115.5 80.5q53 35 100 42t83.5 -5t61 -41.5t33 -67.5t-1.5 -83t-41 -88q-14 -19 -36.5 -51.5t-52 -70t-65.5 -74.5t-76 -64q78 22 153 55.5t137 65.5q40 21 91.5 52.5t96.5 66.5
q22 71 49.5 142.5t62.5 123.5q-10 -7 -31.5 -20t-48 -27t-55.5 -27.5t-53.5 -21.5t-42.5 -8.5t-23 12.5q-2 5 -3 10.5t-2 10.5zM468 66q35 -7 66 0.5t54 11.5q25 19 55 50.5t60.5 68t61 75t57.5 73.5q12 16 27.5 42.5t27.5 56t17.5 58t-2.5 48.5q-15 40 -42 55t-59.5 14
t-65 -13.5t-57.5 -25.5q-14 -6 -42 -29.5t-62.5 -57.5t-71 -75.5t-66 -85.5t-48 -87t-17.5 -79.5t25.5 -62.5t81.5 -37z" />
    <glyph glyph-name="C" unicode="C" horiz-adv-x="1326" 
d="M1245 649q22 5 43 8.5t44 -3.5q30 -10 54 -24t40 -43q21 -37 23.5 -57.5t-8 -29.5t-31 -7.5t-46 9.5t-52.5 21t-51 28q-12 8 -23.5 15t-23.5 15q-23 -31 -44 -70t-33 -66q-20 -45 -40.5 -100t-35 -113.5t-21 -116t2.5 -107.5q2 -12 7.5 -23t10.5 -22q24 -20 52 -26.5
t58 -1.5t60 19.5t58 36.5q9 6 11 -2.5t-5 -13.5q-34 -27 -68 -43.5t-67.5 -19t-66.5 12t-65 50.5q-20 17 -30.5 45t-14.5 60.5t-3 66t4 60.5q3 19 7.5 41t10 44.5t12 44t13.5 39.5q13 36 26 70t28.5 64.5t36 57t49.5 46.5q-48 32 -98 56q-23 10 -55.5 18.5t-68.5 12.5
t-71.5 3t-63.5 -10q13 -47 14.5 -113t-5.5 -134.5t-19.5 -131t-27.5 -101.5q-16 -42 -30 -85t-34 -84q-9 -19 -28.5 -53t-45.5 -68.5t-55.5 -62t-58.5 -32.5q-67 -13 -109 5t-63.5 56t-26 90t3.5 107q10 65 34 140.5t59.5 148t81 135.5t99.5 104q15 11 39.5 27t51.5 30
t53 23t43 8q-22 63 -69.5 106t-131.5 54q-35 5 -71 -1t-70 -17q-36 -11 -71.5 -29.5t-69 -42t-64 -49.5t-55.5 -53q-21 -22 -43 -49t-41 -57t-34.5 -62t-22.5 -63q-14 -54 2.5 -90t64.5 -42q4 0 4.5 -4t-1 -7.5t-5 -6t-7.5 -0.5q-37 8 -58.5 25.5t-31 40.5t-10 49t5 52
t14 50t16.5 42q20 46 57 91t85 85.5t104 73t115 53t117 26.5t111 -7t97 -47.5t74 -95.5q2 -5 4 -9t4 -9q10 2 19.5 4t18.5 3q22 2 43 5.5t42 2.5q36 -1 69.5 -9.5t65 -22.5t62 -32t59.5 -37q14 8 29 14t32 11zM791 687q-60 -7 -110.5 -35.5t-93 -72.5t-76 -101t-59.5 -120.5
t-44.5 -130t-30.5 -130.5q-4 -27 -7.5 -63.5t1 -72.5t21 -65.5t51.5 -41.5q46 -14 81 -2t62 40.5t47 67.5t36 78q51 128 77.5 245.5t37 207.5t10.5 143t-3 53zM1226 596q11 -8 22 -14.5t22 -13.5q11 -6 31 -17.5t42.5 -22.5t43.5 -18.5t33 -4.5t11.5 18.5t-19.5 51.5
q-14 24 -36.5 39.5t-50.5 20.5q-11 2 -19.5 2.5t-17.5 -4.5q-12 -6 -25 -10.5t-24 -13.5z" />
    <glyph glyph-name="D" unicode="D" horiz-adv-x="1965" 
d="M1438 708q10 1 9.5 -7.5t-7.5 -11.5q-17 3 -29.5 -15t-18.5 -41.5t-4.5 -45t12.5 -26.5q1 -1 1.5 -2t1.5 -2q26 -1 55 9.5t57.5 26t54 33.5t45.5 33q24 17 63 31t81.5 17t82.5 -7.5t65 -41.5q33 -40 46.5 -89.5t12.5 -102.5t-13 -108.5t-30.5 -108.5t-40.5 -101t-42 -87
q-23 -46 -51 -75t-56.5 -45.5t-55 -23.5t-46.5 -8q-56 -3 -96 14t-65.5 40t-38.5 45.5t-15 28.5q-25 -52 -71.5 -81.5t-103.5 -46.5q-9 -4 -9.5 5t5.5 13q15 8 31.5 13.5t27.5 17.5q26 28 39.5 62t29.5 76q-30 27 -70.5 48.5t-85.5 37.5q-2 -11 -6.5 -22t-9.5 -22
q-27 -52 -54 -87t-60.5 -56t-76.5 -30t-102 -10q-13 0 -33.5 3.5t-41 10.5t-38.5 18t-25 26q-27 58 -16.5 103.5t44.5 76t84.5 45.5t103.5 12q23 -1 43 -2.5t41 -4.5t43.5 -8.5t51.5 -14.5q13 72 -1 127.5t-48.5 98t-84.5 73t-109 53.5q-90 35 -185 42.5t-184.5 -10
t-170.5 -60.5t-144.5 -109t-104.5 -155.5t-52 -200.5q-7 -79 15.5 -134t65.5 -90t100.5 -51.5t120 -20t125.5 5t117 24.5q3 1 -1.5 0t-11 -1.5t-11 -1.5t-1.5 0q35 7 70.5 12.5t70.5 10.5q9 -2 7 -9t-8 -10q-67 -11 -132.5 -22t-130.5 -16.5t-130.5 -2.5t-132.5 21
q-51 14 -92 43t-68.5 68t-40 86.5t-7.5 98.5q7 78 44 153.5t92.5 141.5t124 120t138.5 89q46 23 103 33.5t118.5 11t125.5 -8t124 -25t113 -39t93 -49.5q43 -29 70.5 -61t43.5 -68.5t21 -79.5t4 -94v-10q45 -16 86 -38t73 -50q16 41 35 102t42.5 128t50 132t57.5 114
q-23 -12 -47.5 -23t-49.5 -19t-47.5 -11t-40.5 0q-23 4 -30 18.5t-2.5 33.5t17.5 40t28 38l3 3q14 14 26.5 24t23.5 12zM1427 54q13 -15 27 -37t36 -42.5t56 -34.5t86 -12q13 2 29 14t27 23q38 44 69.5 105t55 128t38 134.5t19.5 124.5q1 22 1.5 50.5t-4 57t-15 55
t-30.5 43.5q-14 11 -32.5 18t-38.5 8t-39.5 -4t-34.5 -17q-9 -11 -19.5 -28.5t-21 -38t-20.5 -42t-17.5 -39t-12.5 -29t-5 -12.5q-17 -46 -35 -101t-37 -112t-39.5 -111.5t-42.5 -100.5zM955 -25q46 4 79.5 23.5t56.5 50t38 69t24 80.5q-37 12 -68.5 19.5t-60.5 10.5
t-55.5 3t-53.5 -2q-33 -2 -62 -21t-45.5 -47.5t-15.5 -64t28 -71.5q15 -19 29.5 -30t31 -16t34.5 -5.5t40 1.5z" />
    <glyph glyph-name="E" unicode="E" horiz-adv-x="1929" 
d="M1872 294q-3 -2 -6 -3.5t-6 -3.5q-2 -7 -5 -9q-18 -13 -37 -26t-39.5 -23t-42.5 -14.5t-46 -0.5q-19 3 -36.5 11t-35.5 17t-36.5 16t-37.5 7q-2 -10 -12 -6q-17 -60 -39 -117t-52 -106l-6 -9q14 6 29 9.5t31 2.5q39 -2 75.5 -10.5t72.5 -17.5q29 21 63.5 44t71.5 41.5
t73 28t68 2.5q2 -3 4 -7q6 -20 1 -38t-16.5 -34t-28.5 -29t-36 -23q-1 -1 -1 -3q-50 -41 -112.5 -60.5t-127.5 -2.5q-10 3 -17 5t-13 4q-15 -11 -28 -21.5t-23 -18.5q-63 -49 -126 -99.5t-129 -96t-136.5 -82.5t-149.5 -60q-27 -8 -54.5 -12t-54.5 -9q-17 -3 -34 2t-34 7
q-16 3 -23.5 14.5t-9 26.5t1 29.5t7.5 22.5q25 41 51 70t55.5 51.5t64.5 40.5t77 37q10 2 10 -5.5t-6 -12.5q-39 -17 -74.5 -35t-63 -42t-46.5 -57t-25 -80q24 -30 60 -36t75.5 1.5t77.5 23t65 27.5q64 29 121.5 67t112.5 80t108.5 86.5t108.5 86.5q-5 1 -10.5 2t-13.5 3
q-13 3 -22 12t-23 13q-29 8 -59 4t-57 -18q-5 -4 -10.5 -7t-10.5 -7q-8 -6 -15 -12.5t-15 -13.5q-5 -4 -9 -2t-4 7l-2 2q-9 -5 -19 -9t-20 -10q-9 -4 -9.5 5t5.5 13q15 8 31.5 13.5t27.5 17.5q15 16 30 44t28.5 58t24 59t17.5 47q16 45 35.5 109.5t42.5 131t51.5 127.5
t63.5 100q-24 -5 -46.5 -11.5t-42.5 -17.5q-93 -49 -175 -109.5t-167 -121.5q-15 -11 -39.5 -28.5t-52.5 -36.5t-57.5 -38.5t-55.5 -34.5q-1 -3 -1.5 -6.5t-1.5 -6.5q-8 -51 -36 -108.5t-69.5 -114.5t-93 -110t-107 -96.5t-111.5 -73.5t-106 -40q-21 -4 -41.5 -11.5
t-41 -13.5t-41 -9t-40.5 2l-60 14l-60 14q-26 6 -48 26.5t-39.5 50t-31 64t-22 69t-12.5 65t-3 51.5q2 36 2.5 72t5.5 71q7 47 14 79t16.5 60t22 58t29.5 73q5 10 11.5 6.5t3.5 -12.5q-17 -43 -29.5 -72t-21.5 -56t-16 -58.5t-13 -78.5q-6 -46 -7 -99.5t6.5 -106.5
t24.5 -102.5t47.5 -87.5t75.5 -60t108 -21q41 1 81 8.5t77 23.5q33 13 54.5 22.5t40.5 20t38 24t47 34.5q47 37 89.5 82t78 96t62.5 107t44 113q-63 -32 -114.5 -48.5t-100 -15.5t-100.5 21.5t-117 64.5q-59 62 -67.5 135.5t23.5 150.5q21 38 51.5 76t67 70t78 56t85 35.5
t87 7t84.5 -28.5q51 -36 79.5 -92t38.5 -119.5t4.5 -129t-21.5 -122.5q51 29 101.5 64.5t93.5 66.5q85 61 168 122t176 111q27 14 56.5 21.5t60.5 13.5q1 0 2 1q12 9 26 15t29 11q5 5 10 8.5t10 5.5q8 1 10 -5q4 -2 4 -5q20 2 38.5 2t31.5 -1q25 -1 49 -9.5t48 -18.5
t48 -16.5t49 -2.5q26 4 48 21t43 31q9 6 11 -2.5t-5 -13.5q-5 -3 -9.5 -6.5t-9.5 -6.5q3 -2 3 -7.5t-5 -9.5q-39 -26 -71.5 -43.5t-65.5 -22.5t-68.5 3t-78.5 32q-5 2 -14 7t-20.5 10t-24.5 9.5t-25 6.5q-4 -1 -14 -3q-14 -21 -28 -49t-25.5 -54.5t-19 -45.5t-8.5 -20
q-16 -44 -30 -90.5t-28 -94.5q21 27 46.5 30.5t53 -4t56.5 -20t57 -17.5q32 -5 58.5 4.5t53.5 24.5q10 2 10 -5.5t-6 -12.5zM578 190q53 -17 93 -24t76 -3t73.5 18.5t84.5 41.5q11 44 21.5 92t10.5 93q0 43 -10.5 91.5t-27.5 87.5q-26 64 -66 94t-86 33t-94 -17.5t-89 -57.5
t-71 -87t-40 -106q-6 -32 0.5 -72t23 -77t42 -66.5t59.5 -40.5zM1715 -3q23 -3 49.5 -3.5t49.5 9.5q12 5 22 13t21 15q4 3 7.5 4.5t7.5 3.5q1 1 2.5 1.5t0.5 -0.5q1 1 1 1.5t1 1.5q4 4 8 4q13 14 20 30t3 32q-22 4 -50.5 -3t-60.5 -21.5t-66 -35.5t-67 -43z" />
    <glyph glyph-name="F" unicode="F" horiz-adv-x="1605" 
d="M1573 310q-49 -52 -102 -65.5t-125 -0.5q-23 3 -45.5 8.5t-46.5 6.5q-18 -60 -39.5 -116.5t-51.5 -106.5q-30 -51 -79.5 -81t-100.5 -46q-9 -4 -9.5 5t5.5 13q15 8 31.5 13.5t27.5 17.5q15 16 30 44t28.5 58t24 59t17.5 47q12 32 25 74t28.5 88.5t32.5 94t37 90.5
q-44 -50 -97.5 -106.5t-112 -113.5t-119 -112t-119 -103t-112.5 -86.5t-99 -62.5q-23 -12 -53 -28.5t-64 -31.5t-70.5 -26t-70.5 -11t-64.5 13.5t-52.5 47.5q-15 23 -21.5 52.5t-8 60.5t1 61t6.5 54q5 33 12 64.5t16 60.5q-21 -5 -48.5 -8.5t-55 -4t-51.5 3.5t-38 14
q-31 24 -36 61t5 77t29.5 78.5t38.5 67.5q25 38 64 88.5t85 99t94.5 87t92.5 53.5q32 12 66.5 7t55 -22.5t20.5 -45.5t-37 -62q-13 -12 -33 -32.5t-42.5 -40t-46.5 -35.5t-45 -19q-10 0 -8.5 9t9.5 10q16 2 39.5 18t47 36t43 39t26.5 27q27 32 32 52t-6 29.5t-35 9.5
t-53 -9.5t-61 -27t-60 -42.5q-24 -22 -51.5 -52.5t-55 -66t-54 -74.5t-49 -77.5t-39 -74.5t-23.5 -65q-11 -47 6 -69.5t47.5 -28.5t67 -1t66.5 13q49 148 140.5 260t227.5 205q21 14 52.5 37.5t67 43t69.5 29t60 -2.5q6 -2 11 -9t7 -14q9 -29 3.5 -54.5t-19 -48t-33 -43.5
t-37.5 -41q-88 -96 -191.5 -181t-220.5 -145q-15 -8 -26 -13t-22 -9.5t-22.5 -8.5t-27.5 -9q-10 -32 -17 -66t-13 -68q-3 -35 -1.5 -71t9 -67.5t22 -56.5t39.5 -39.5t61 -16.5t85 13q35 11 61.5 21t50 22t47 27t53.5 36q58 41 112 85.5t105 94.5q20 19 50 48t66 63.5
t75.5 73t77.5 77t72.5 74.5t60.5 66q29 51 62 79q28 24 70.5 32.5t91 8t98.5 -7t93 -11.5t75 -5.5t44 11.5q9 9 16.5 19t15.5 20q8 8 12.5 2t-1.5 -14q-9 -10 -16 -22t-18 -20q0 -7 -5 -10q-14 -9 -27.5 -18.5t-27.5 -19.5q-22 -15 -50.5 -17.5t-60.5 1t-66 12t-66 16
t-62 11t-53 -0.5q-6 -1 -11.5 -3t-10.5 -4q-13 -21 -26 -48.5t-23.5 -52t-17.5 -41.5t-8 -18q-15 -42 -28 -85.5t-27 -88.5q32 27 60 30t56 -4.5t58.5 -16.5t67.5 -6q19 1 29.5 6.5t29.5 13.5q10 2 10 -5.5t-6 -12.5zM560 677q-53 -39 -94 -82.5t-74 -92t-59 -102.5
t-47 -114q62 19 108.5 44t86.5 56.5t78.5 69.5t84.5 82q1 1 13 15t31 36t41 50t41.5 56t34 53.5t18.5 43.5t-6.5 25.5t-39.5 -0.5q-30 -8 -58 -24t-55 -35.5t-52.5 -40.5t-51.5 -40z" />
    <glyph glyph-name="G" unicode="G" horiz-adv-x="1351" 
d="M1246 305q10 0 24 1t27 2t22 1.5l9 0.5q-17 -30 -28 -62.5t-19.5 -66t-15.5 -67.5t-16 -66q-23 -79 -44.5 -154t-53 -138.5t-78.5 -113t-121 -77.5q-34 -13 -66 -8.5t-58 20.5t-42.5 41.5t-18.5 54.5q3 8 8.5 10t8.5 -7q3 -36 20.5 -61t45.5 -36t64 -5t77 32
q18 12 31.5 25t30.5 30q16 24 30.5 60.5t26.5 79t23 87.5t21 87q-62 -19 -107 -15t-75.5 24t-48 52.5t-25.5 70t-8 77t4 73.5q3 19 7.5 41t10 44.5t12 44t13.5 39.5q13 36 26 70t28.5 64.5t36 57t49.5 46.5q-23 16 -47.5 30.5t-50.5 25.5q-45 19 -89.5 28.5t-83.5 9t-69 -10
t-47 -27.5q32 -40 48.5 -92t21 -111t-1.5 -121.5t-18.5 -122t-30.5 -113.5t-37 -96q-25 -56 -53.5 -99.5t-61.5 -72.5t-72 -41.5t-84 -5.5q-25 4 -38 26.5t-18 55.5t-3 71.5t7 73.5t10 61.5t8 36.5q10 38 26 88t36.5 104.5t45 109t53 103t59.5 85.5t64 57q-8 7 -15 14
t-16.5 14.5t-25 14t-39.5 12.5q-74 16 -143.5 2t-130.5 -53t-111 -100.5t-84 -138.5q-10 -23 -23 -54.5t-22 -65t-10.5 -65t11.5 -54.5q21 -37 51.5 -40t62.5 17t63.5 57.5t54.5 80t35.5 84.5t6.5 72q-5 25 -13.5 45t-23.5 39q-2 7 2 13t11 1q32 -40 37.5 -88t-6.5 -96
t-37.5 -93t-56.5 -79q-15 -17 -35 -31t-42 -23t-44.5 -12t-41.5 3t-33.5 21t-21.5 43q-15 61 -4 129.5t45 134t87.5 122.5t122.5 95.5t152 53t175 -5.5q23 -5 43.5 -19t40.5 -28q14 11 35 18t43.5 11.5t45.5 6t41 0.5q36 -1 69.5 -9.5t65 -22.5t62 -32t59.5 -37q14 8 29 14
t32 11q69 17 115 -2t77 -81q19 -48 6.5 -64t-42.5 -11.5t-69 22.5t-71 38q-12 8 -23.5 15t-23.5 15q-23 -31 -44 -70t-33 -66q-20 -45 -40.5 -100t-35 -113.5t-21 -116t2.5 -107.5q2 -12 7.5 -23t10.5 -22q16 -14 40 -21.5t50 -8.5t52 3.5t47 13.5q8 33 16.5 66t18.5 66
q6 21 15.5 45.5t17.5 48.5t13.5 45t4.5 34zM723 421q2 35 3 72.5t-3.5 74.5t-17.5 71t-38 62q-22 -15 -46 -48.5t-48 -78.5t-47 -98t-43 -106.5t-36.5 -105t-26.5 -92.5q-6 -23 -14 -57.5t-14.5 -72t-8.5 -74t4 -63.5t22.5 -40t47.5 -3q41 12 76 48t64 86t51.5 108.5
t38 116.5t25 110.5t11.5 89.5zM1136 646q11 -8 22 -14.5t22 -13.5q3 -2 16 -10t30.5 -18t37 -20t36.5 -15t28.5 -3t13.5 16q3 19 -6.5 38.5t-26 36t-36.5 28t-38 14.5q-22 3 -45 -4.5t-41 -21.5z" />
    <glyph glyph-name="H.002" horiz-adv-x="833" 
d="M436 699q8 1 10 -5q5 -2 4.5 -8t-5.5 -10q-5 -2 -10.5 -4t-11.5 -4q-9 -11 -19.5 -28.5t-21 -38t-20.5 -42t-17.5 -39t-12.5 -29t-5 -12.5q-19 -53 -35.5 -110.5t-34.5 -115t-39.5 -113.5t-50.5 -104q-12 -20 -27 -34.5t-31.5 -27.5t-34 -25.5t-33.5 -27.5
q-6 -5 -10 -1.5t-3 8.5q-10 -5 -20.5 -9t-20.5 -10q-9 -4 -9.5 5t5.5 13q15 8 31.5 13.5t27.5 17.5q15 16 30 44t28.5 58t24 59t17.5 47q12 33 25.5 76.5t28.5 91.5t32.5 96.5t38 92.5t44 79.5t50.5 56.5q12 9 26 15t29 11q5 5 10 8.5t10 5.5zM106 34q-8 -18 -17 -35.5
t-21 -33.5q24 17 46 35t39 45q24 39 41.5 82t32 87.5t27 89t27.5 87.5q4 12 14.5 44.5t26 72.5t34.5 81t39 70q-16 -6 -26 -15q-31 -26 -57 -70t-49 -99.5t-43.5 -116.5t-39.5 -120.5t-37 -112.5t-37 -91z" />
    <glyph glyph-name="H" unicode="H" horiz-adv-x="1866" 
d="M1607 659q19 15 45.5 24t50.5 7t42.5 -18t23.5 -51q2 -16 -7.5 -35.5t-24.5 -37.5t-33.5 -32.5t-34.5 -20.5q-23 -8 -48 -13.5t-51 -10.5q-10 -27 -18.5 -55.5t-17.5 -57.5q1 0 1 0.5t1 0.5q33 12 53 8t35 -13t31 -18.5t42 -9.5q23 0 43.5 11t39.5 22q15 45 31.5 90
t36 85t41.5 72.5t48 52.5q12 9 26 15t29 11q5 5 10 8.5t10 5.5q8 1 10 -5q5 -2 4.5 -8t-5.5 -10q-5 -2 -10.5 -4t-11.5 -4q-9 -11 -19.5 -28.5t-21 -38t-20.5 -42t-17.5 -39t-12.5 -29t-5 -12.5q-19 -53 -35.5 -110.5t-34.5 -115t-39.5 -113.5t-50.5 -104q-12 -20 -27 -34.5
t-31.5 -27.5t-34 -25.5t-33.5 -27.5q-6 -5 -10 -1.5t-3 8.5q-10 -5 -20.5 -9t-20.5 -10q-9 -4 -9.5 5t5.5 13q15 8 31.5 13.5t27.5 17.5q15 16 30 44t28.5 58t24 59t17.5 47q12 33 25 76.5t29 91.5q-3 -2 -6 -3.5t-6 -3.5q0 -7 -5 -11q-42 -31 -86 -45.5t-95 6.5
q-16 6 -27.5 18t-25.5 20q-22 -74 -46.5 -146t-61.5 -133q-12 -20 -27 -34.5t-31.5 -27.5t-34 -25.5t-33.5 -27.5q-6 -5 -10 -1.5t-3 8.5q-10 -5 -20.5 -9t-20.5 -10q-9 -4 -9.5 5t5.5 13q15 8 31.5 13.5t27.5 17.5q15 16 30 44t28.5 58t24 59t17.5 47q10 27 20.5 61.5
t22.5 72.5t25.5 78.5t28.5 79.5q-11 -2 -20.5 -3t-18.5 -2q-69 -10 -138 -16t-140 -13q-11 -192 -113.5 -339t-302.5 -238q-57 -26 -125 -36.5t-132 1.5q-129 21 -159 149q-11 45 -1.5 87.5t32 80t56 70t71 60t76.5 48t73 34.5q60 24 116.5 39.5t113 26t115.5 17.5t124 13
q-7 56 -29 93t-55.5 59t-75.5 31t-87 8.5t-91 -8.5t-87 -20q-116 -33 -228.5 -100.5t-210.5 -157.5t-174.5 -197.5t-120.5 -219.5q-5 -6 -11 -4t-4 10q45 114 123 223t177.5 201t214.5 160.5t233 102.5q53 15 112.5 25.5t117.5 7.5t111.5 -23.5t94.5 -67.5q10 -12 16.5 -26
t10.5 -29.5t7 -31.5t7 -31q71 7 140.5 13t138.5 16q20 3 50 6q24 59 52 107.5t63 74.5zM750 -134q74 30 142 88t118.5 133t78.5 160t23 169q-64 -6 -122.5 -12.5t-114.5 -16t-112.5 -25t-116.5 -39.5q-53 -21 -104 -54t-89 -77t-57.5 -99.5t-8.5 -122.5q7 -47 28.5 -76
t51.5 -44.5t67 -19.5t74.5 0t74.5 14t67 22zM1663 661q-12 -15 -24.5 -39t-24.5 -49t-22 -47.5t-15 -34.5q25 5 48 10t43 13t37 24t28 35.5t15 39.5t-2 34t-24 19.5t-51 -3.5q-6 -2 -8 -2z" />
    <glyph glyph-name="I" unicode="I" horiz-adv-x="838" 
d="M958 685q14 11 19 4t-12 -21q-9 -11 -19.5 -28.5t-21 -38t-20.5 -42t-17.5 -39t-12.5 -29t-5 -12.5q-19 -53 -35.5 -110.5t-34.5 -115t-39.5 -113.5t-50.5 -104q-11 -19 -29 -37t-37.5 -33t-38.5 -25t-34 -13q-10 -5 -20.5 -9t-20.5 -10q-9 -4 -9.5 5t5.5 13
q15 8 31.5 13.5t27.5 17.5q15 16 30 44t28.5 58t24 59t17.5 47q16 44 34 105t40 125.5t48.5 124.5t59.5 101q-23 -9 -38 -10t-30 2t-33.5 8t-48.5 8q-21 0 -36.5 -8.5t-29 -22t-25.5 -29t-27 -30.5q22 -57 27.5 -118t3.5 -124q0 -19 -7 -48.5t-18 -59.5t-26.5 -55.5
t-33.5 -36.5q-20 -12 -35 -6.5t-25 23t-16 42t-8 50t-2 48.5t2 37q6 42 16 75t23 60t29 50.5t36 47.5q-22 56 -49.5 96.5t-63 64.5t-80 29.5t-100.5 -8.5q-40 -10 -79 -54t-69.5 -104.5t-49 -128.5t-17.5 -126q1 -21 0.5 -43.5t3.5 -43.5t15 -38t35 -27q25 -10 45.5 -14.5
t46.5 -6.5q10 -2 7 -10.5t-11 -8.5q-75 0 -119.5 33.5t-63 86.5t-13.5 119t28.5 132t63 124.5t89.5 96.5t109 49t121 -19q31 -14 57 -29.5t47.5 -35t39.5 -44.5t34 -58q17 19 35 42t38 41q25 29 48.5 41.5t47.5 15.5t47.5 -1.5t48 -9t50 -6.5t52.5 5zM586 370
q-2 36 -1.5 68.5t-13.5 66.5q-44 -55 -65 -118.5t-26 -132.5q-4 -66 3 -91t19 -21.5t27.5 29t28.5 60.5t21.5 73t6.5 66z" />
    <glyph glyph-name="J" unicode="J" horiz-adv-x="1412" 
d="M440 -140q-9 -4 -9.5 5t5.5 13q18 8 36.5 13.5t33.5 16.5q45 34 83.5 89.5t67 119.5t45.5 129.5t20 120.5q3 64 -17.5 106.5t-57 66.5t-84.5 30.5t-98.5 -1.5t-100 -29.5t-89.5 -52.5q-93 -74 -141.5 -171t-66.5 -218q-5 -36 -4.5 -81.5t6.5 -93t17.5 -92t29.5 -77.5
q40 -73 97.5 -110.5t124 -47t138 5t140 44t129.5 71t107 85.5q-32 41 -37.5 90.5t-0.5 102.5q4 39 20.5 92t40.5 107t53 101.5t59 76.5q35 34 59.5 35t39 -21t18 -63.5t-3 -94t-23 -111t-43.5 -115t-64.5 -106t-84.5 -83.5q5 -17 22.5 -26.5t38.5 -15.5t42.5 -10.5
t35.5 -11.5q-17 3 -35.5 2.5t-36.5 0t-35 4t-31 13.5q-7 6 -13.5 11.5t-12.5 11.5q-20 -17 -39 -36q-45 -46 -107 -84t-132 -62t-143.5 -32.5t-142.5 4t-129.5 48.5t-103.5 100q-22 33 -37 80t-23 98t-9 101t5 89q7 51 30.5 107t58.5 110.5t80 104.5t95.5 89t105 64
t109.5 30q31 3 67.5 -2t72 -17.5t67 -33t53.5 -49t32 -65t2 -81.5q-5 -32 -16 -74t-27 -87.5t-37.5 -92t-48.5 -87t-59.5 -73t-70.5 -49.5l-36 -16t-37 -16zM1181 2q10 29 26.5 79t36.5 110t42.5 124.5t46.5 124t47.5 108t45.5 75.5q-78 -31 -169 -13q-14 3 -37.5 13
t-47 15.5t-41.5 0.5t-22 -32h-1v-1q8 -2 5.5 -10t-10.5 -8q-6 1 -9 6h-1q-4 3 -5 6q-3 19 7 38t26.5 34t37 24.5t37.5 9.5q33 -1 66.5 -10.5t65.5 -16.5q22 -4 45.5 -7t45.5 -1q17 1 27 3t18 5.5t17 9t24 13.5q10 2 10 -5.5t-6 -12.5q-3 -2 -7 -4q3 1 6.5 2t8.5 3
q5 5 10 8.5t10 5.5q8 1 10 -5q5 -2 4.5 -8t-5.5 -10q-5 -2 -10.5 -4t-11.5 -4q-9 -11 -19.5 -28.5t-21 -38t-20.5 -42t-17.5 -39t-12.5 -29t-5 -12.5q-13 -35 -29 -84.5t-34 -106.5t-38 -117t-40.5 -115.5t-41 -103.5t-39.5 -80q-14 -24 -37.5 -45.5t-49.5 -38.5
t-52.5 -28.5t-47.5 -14.5q-18 -3 -39 -2.5t-40.5 4t-34.5 10t-22 16.5q-6 9 2 9.5t24.5 -2.5t39.5 -7.5t47 -5t46.5 5t38.5 21.5q15 16 30 44t28.5 58t24 59t17.5 47zM855 -119q5 -15 9 -29.5t15 -26.5q30 28 52.5 54.5t45.5 57.5q25 33 44.5 80.5t33.5 98.5t21.5 101.5
t7.5 89.5t-8 61t-25 18q-23 -1 -49.5 -29t-52 -71.5t-47.5 -98t-36.5 -110t-18 -107.5t7.5 -89z" />
    <glyph glyph-name="K" unicode="K" horiz-adv-x="1434" 
d="M1322 713q10 1 9.5 -7.5t-7.5 -11.5q-2 0 -2.5 -0.5t-1.5 -0.5q-10 -5 -23 -22t-26 -39.5t-25.5 -48t-22.5 -47.5t-16.5 -38t-7.5 -19q-10 -26 -18.5 -54t-17.5 -57l1 1q23 -5 51.5 8.5t58.5 37.5t59 55t52 60.5t38.5 53.5t18.5 34q6 7 17 20.5t24.5 28.5t28.5 28.5
t27 22.5q19 14 46 26t54 16.5t51.5 -0.5t40.5 -25q20 -25 20.5 -49t-10.5 -46t-30.5 -41t-39.5 -34q-8 -3 -9.5 4t3.5 12q13 10 31 26.5t29.5 35.5t12.5 39t-19 38q-12 11 -25 14.5t-26 2.5q-15 -3 -36 -12t-42 -23.5t-39.5 -34t-29.5 -42.5q-15 -31 -36.5 -71.5t-47.5 -79
t-55.5 -69t-60.5 -42.5q-3 -1 -8 -1q7 -5 13 -10q10 -11 17 -26t12 -31.5t9 -33t7 -29.5q15 -62 27 -126t39 -122q3 -6 6.5 -12.5t7.5 -13.5q23 16 48 29t54 22q43 14 65 7t26 -25.5t-7 -44t-32 -49t-51 -40.5t-64 -18q-35 -2 -60.5 12t-44.5 43q-27 -21 -55 -42t-59 -37
q-71 -36 -145 -65t-149.5 -54.5t-152.5 -48t-153 -43.5q-64 -18 -131.5 -37.5t-135.5 -28.5t-134.5 -1t-127.5 47q-39 25 -63 59t-28.5 71t12 73t58.5 65q28 19 53.5 39.5t55.5 33.5q49 22 98 42t99 36.5t101.5 27t105.5 12.5q26 1 51 -3t51 -6q10 -2 7 -10.5t-11 -8.5
q-26 2 -51 6t-51 2q-102 -4 -190 -35t-177 -80q-24 -13 -56 -36t-57.5 -53.5t-36.5 -66.5t8 -74q33 -67 81.5 -94.5t105 -31t116.5 9.5t116 27q87 21 181 46.5t188.5 55.5t185 65t170.5 75q31 16 58.5 35.5t54.5 39.5q-12 21 -21.5 45t-16.5 47t-12 44.5t-8 37.5
q-9 43 -16 85.5t-17 85.5q-3 17 -9.5 38.5t-20.5 35.5q-12 12 -24.5 15.5t-24.5 4t-22.5 0t-18.5 2.5q-2 1 -2.5 1.5t-2.5 1.5q-1 0 -1.5 0.5t-1.5 0.5h-1q-24 -82 -50.5 -164t-68.5 -151q-11 -19 -29 -36t-37.5 -31.5t-38 -25t-30.5 -15.5q-10 -5 -22.5 -9t-22.5 -10
q-9 -4 -9.5 5t5.5 13q15 8 31.5 13.5t27.5 17.5q15 16 30 44t28.5 58t24 59t17.5 47q14 38 29.5 89.5t34 107.5t39.5 111t47 100q-4 -3 -7.5 -5t-6.5 -4q-69 -45 -139 -87.5t-142 -81.5q-9 -14 -18 -26.5t-18 -23.5q-34 -47 -78 -89t-95 -76.5t-106 -60t-111 -40.5
q-48 -13 -95 -16t-96 -5q-35 -1 -79 3.5t-87.5 16.5t-81 32.5t-59.5 53.5q-8 13 -12.5 28t-9.5 29q-2 8 5 12t11 -6q5 -12 8.5 -25.5t11.5 -24.5q22 -33 57.5 -52.5t76.5 -30t83 -13.5t78 -4q88 -2 164.5 17t144 56t126.5 91t113 123q-41 -23 -86 -45t-90 -37.5t-88.5 -22.5
t-82 -1.5t-70.5 26t-54 60.5q-13 23 -12 48.5t10 50.5t23.5 48.5t30 44t29.5 37t21 26.5q20 27 57 61.5t80.5 65t90 51.5t85.5 21q50 0 87 -18t62 -48.5t37 -71t12 -84.5q0 -40 -16 -78.5t-39 -73.5q130 73 255 156q5 4 17 11t25 16q11 16 22.5 28.5t24.5 22.5q5 4 11.5 7.5
t12.5 6.5q14 14 31 25t34 15zM690 323q22 10 35.5 16t25.5 12t25.5 12.5t34.5 18.5q15 22 27.5 43t22 46t17 55.5t13.5 72.5q3 20 1.5 43.5t-8 46t-18.5 41.5t-30 30q-32 21 -65 22.5t-66 -9.5t-64.5 -32.5t-60 -47t-53 -52t-43.5 -47.5q-24 -28 -48.5 -62.5t-39.5 -70
t-14.5 -69.5t26.5 -60q33 -33 67 -45t69 -10t71.5 15t74.5 31zM1524 -99q20 -1 42 6t38 19.5t22 28.5t-6 33q-11 7 -24.5 8t-28 -1.5t-28 -7.5t-23.5 -9q-16 -6 -30 -14t-28 -17q11 -17 27 -30t39 -16z" />
    <glyph glyph-name="L" unicode="L" horiz-adv-x="1529" 
d="M294 448q-10 0 -8.5 9t9.5 10q12 1 27 13t30 29.5t29.5 37.5t26.5 38t20 31t10 17q8 15 12 31t3 33q-1 12 -8 22t-17.5 16.5t-22.5 10t-24 3.5q-63 2 -114 -24t-89.5 -69.5t-65 -98.5t-41.5 -111q-17 -62 -14.5 -112t25.5 -80.5t67 -38.5t110 13q25 8 50 19.5t49 25.5
q19 57 46 113t57.5 107t61.5 96t58 79q37 47 84.5 84t104.5 56q4 1 14 4t20.5 4.5t20.5 0.5t15 -7q12 -13 11.5 -31.5t-8.5 -39.5t-21.5 -42t-27.5 -39.5t-26.5 -33t-18.5 -21.5q-41 -48 -79.5 -91.5t-79.5 -82.5t-87 -74.5t-101 -67.5q-11 -34 -18.5 -73.5t-9.5 -70.5
q-4 -55 7 -92.5t33 -59.5t52.5 -30.5t65 -6.5t71.5 12t72 26q45 20 86.5 50t81.5 57q80 56 157.5 112t153.5 115q15 48 33 98t38.5 95t44.5 82t52 58q12 9 29 19t35.5 17.5t35.5 10t29 -3.5q2 -1 4 -6q0 -29 -8.5 -53.5t-22.5 -51.5q-12 -24 -25 -48t-27 -47t-45.5 -53.5
t-70.5 -62.5q-13 -44 -26.5 -89t-28.5 -89.5t-33 -86.5t-40 -79q-6 -10 -14 -20q16 9 32.5 16.5t32.5 7.5h27t26 -1q31 0 65 -12t67.5 -23.5t67 -16.5t65.5 9q18 6 28 13t17.5 15.5t14 19t16.5 23.5q7 7 11 3t2 -12q-10 -16 -18.5 -32t-21.5 -30q-36 -36 -79 -48t-89 -11.5
t-93 9t-91 14.5q-27 4 -63.5 8t-70.5 -1q-32 -5 -58.5 -23.5t-53.5 -34.5q-9 -4 -9.5 5t5.5 13q27 15 51 43t44.5 61.5t36.5 69t27 65.5q9 26 19.5 59t21.5 70q-26 -20 -47 -35l-35 -25q-28 -20 -55 -40t-56 -40q-14 -11 -38.5 -28t-51.5 -36t-53 -36.5t-42 -28.5
q-28 -19 -59.5 -37t-65 -31.5t-69 -21t-71.5 -5.5q-26 -3 -52.5 2.5t-49.5 19t-40 33.5t-24 46q-12 49 -6.5 104.5t22.5 113.5q-21 -11 -43 -19.5t-45 -19.5q-17 -8 -44 -13t-56 -5.5t-56.5 5t-43.5 19.5q-32 28 -46 57t-15 60t7.5 64.5t20.5 71.5q19 56 41.5 98.5t52 76
t68 59.5t89.5 50q21 8 51.5 12t60 0t51.5 -18.5t26 -44.5q2 -20 -5 -38t-12 -37q-3 -12 -20.5 -40t-41.5 -58t-50.5 -54.5t-46.5 -27.5zM591 656q-57 -71 -100.5 -157t-80.5 -187q12 7 19.5 11t13 7.5t11.5 7.5t16 12q24 18 49.5 40t50.5 45.5t48.5 47t43.5 45.5
q13 15 39 47.5t49 71t36 75.5t2 60q0 19 -23.5 11t-56 -30.5t-65.5 -52.5t-52 -54zM1288 479q-6 -17 -12 -33t-11 -33q22 18 41 37t36.5 40.5t34 48t33.5 60.5q5 10 12.5 26t12.5 31t4.5 25.5t-12.5 9.5q-15 0 -30 -12.5t-29 -32t-26.5 -43.5t-22.5 -47.5t-18 -44t-13 -32.5
z" />
    <glyph glyph-name="N" unicode="N" horiz-adv-x="1637" 
d="M1587 215q-4 -12 -12.5 -34.5t-21 -49t-28 -54t-33 -50t-36.5 -37t-38 -15t-37 15t-35 54.5q-28 64 -42.5 116.5t-20.5 105t-4 111t7 135.5q2 32 7 60.5t12 62.5q-13 -21 -27 -48t-26 -50.5t-20.5 -40.5t-8.5 -18q-19 -53 -35.5 -110.5t-34.5 -115t-39.5 -113.5
t-50.5 -104q-33 -54 -79 -97.5t-99 -77t-111.5 -59t-116.5 -44.5q-57 -16 -102.5 -9.5t-77.5 30.5t-50 62.5t-20 86.5q-25 -12 -45 -19.5t-41 -14t-46.5 -12.5t-60.5 -15q-46 -11 -84.5 3.5t-76.5 36.5q-20 12 -31 35.5t-15.5 53.5t-3 63t5.5 64t9 57t9 41q16 69 55.5 130.5
t93.5 111.5t117.5 88t128.5 59q21 7 36 11t28.5 6t28 3t36.5 3q9 -2 7 -9t-8 -10q-72 -7 -137.5 -26t-121 -53.5t-100.5 -84.5t-76 -118q-17 -37 -31.5 -86.5t-21.5 -101t-3 -100t24 -85t59.5 -55.5t103.5 -11q23 3 42 7.5t37.5 10.5t38 14.5t43.5 19.5q2 52 9 93.5t21 78.5
q21 54 35.5 93t29.5 73.5t35 70.5t52 85q15 23 38 53.5t52.5 62t63 59t69 44t72 17.5t70.5 -21q18 -11 22.5 -35t0.5 -54t-14 -63.5t-22 -63.5t-24 -53.5t-18 -34.5q-42 -70 -90.5 -126t-104 -103.5t-118.5 -87.5t-134 -78q0 -64 24.5 -102t64 -54.5t88.5 -13.5t98.5 20
t93.5 46.5t74 66.5q18 20 40 54t42 70t36.5 70t24.5 54q12 33 25.5 76.5t28.5 91.5t32.5 96.5t38 92.5t44 79.5t50.5 56.5q4 3 17.5 10.5t27.5 14.5t26 10.5t14 -0.5q-18 -52 -30 -123.5t-15.5 -148.5t3.5 -153.5t29 -137.5q14 -39 29 -57t30 -19.5t29.5 9.5t28 29.5
t25 42.5t21.5 47q18 44 30.5 82.5t24.5 76t24 76.5t29 83q10 28 21 54.5t26 48t36 38.5t51 27q24 9 49 10.5t39 -20.5q-2 -10 -4.5 -9t-7.5 4t-14 4t-23 -10q-23 -18 -43 -49.5t-38 -70.5t-33.5 -82.5t-28.5 -85.5t-24 -80t-19 -65zM602 430q-25 -38 -51 -91.5t-47.5 -115
t-36 -126.5t-15.5 -125q70 34 129 77t108.5 92.5t90 104t74.5 111.5q7 12 19.5 34t25 49.5t23 57t13 56.5t-5 47.5t-30.5 30.5q-31 13 -61.5 8t-59.5 -21.5t-56 -41t-49.5 -51.5t-40.5 -52.5t-30 -43.5z" />
    <glyph glyph-name="M" unicode="M" horiz-adv-x="1827" 
d="M806 536q-5 -8 -10.5 -3.5t-3.5 12.5q27 66 59.5 130t51.5 132q7 28 7.5 63.5t-9 68t-30 57t-54.5 31.5q-42 9 -85.5 0t-86.5 -30t-84 -51t-77.5 -63t-68 -66.5t-55.5 -60.5q-40 -46 -69 -82.5t-51 -69.5t-39 -66t-32.5 -70t-31.5 -82t-36 -102q-11 -32 -17 -75t-6 -91
t7.5 -97t22.5 -92.5t38.5 -78t57.5 -53.5q18 -11 30.5 -14.5t23.5 -3.5t24.5 1.5t33.5 1.5q121 14 213.5 50t169.5 93q44 125 94.5 243.5t118.5 233.5q35 58 68.5 116t77.5 110q7 9 22 25t32 29t34 18t30 -9q22 -24 24 -58.5t-9 -73t-31.5 -78.5t-42.5 -76t-42.5 -65
t-30.5 -45q-17 -26 -36.5 -58.5t-40.5 -65.5t-42.5 -64.5t-42.5 -56.5q-20 -23 -33.5 -37t-26.5 -24.5t-27 -21t-35 -25.5q-5 -18 -8.5 -39.5t-5.5 -43.5t-3.5 -43t-1.5 -37q-1 -26 1.5 -55t7.5 -54q10 -34 31.5 -45t48 -6t56 22t57 38.5t49.5 43.5t34 37q42 48 78 100.5
t71 104.5q62 89 99.5 140.5t54.5 71t14 10.5t-22 -40t-53 -81t-80 -112q-31 -41 -61 -86t-62.5 -88t-70 -81t-83.5 -65q-16 -9 -33 -18.5t-37 -11.5q-18 -1 -36 -4.5t-35 2.5q-57 23 -84.5 63t-16.5 106q6 32 9 63t11 60q-62 -44 -132.5 -73t-161.5 -48q-39 -8 -78.5 -11
t-77 2.5t-72.5 21t-65 45.5q-58 59 -82 130.5t-20.5 150.5t29 162.5t66 164.5t91.5 157t104.5 141t105.5 115.5t95 81.5q33 24 72.5 47t82.5 39.5t87.5 24.5t87.5 1q43 -6 68 -33.5t35 -65t7.5 -77t-14.5 -69.5q-27 -66 -55 -132t-56 -133zM1679 704q9 6 11 -2.5t-5 -13.5
q-9 -7 -19 -12.5t-18 -14.5q-32 -38 -58.5 -92t-49 -113.5t-39.5 -118t-29 -106.5q-3 -14 -8.5 -37.5t-9.5 -49.5t-6 -51t2 -43q1 -7 7 -12t11 -10q68 64 114 126t79 121.5t57.5 114.5t49.5 103.5t54 90.5t72 75q12 9 26 15t29 11q5 5 10 8.5t10 5.5q8 1 10 -5q5 -2 4.5 -8
t-5.5 -10q-5 -2 -10.5 -4t-11.5 -4q-9 -11 -19.5 -28.5t-21 -38t-20.5 -42t-17.5 -39t-12.5 -29t-5 -12.5q-19 -53 -35.5 -110.5t-34.5 -115t-39.5 -113.5t-50.5 -104q-11 -18 -31.5 -38.5t-45.5 -38.5t-52 -31.5t-51 -18.5q-9 -4 -9.5 5t5.5 13q15 8 31.5 13.5t27.5 17.5
q15 16 30 44t28.5 58t24 59t17.5 47q11 30 22.5 69t25.5 82q-32 -49 -66.5 -96t-69.5 -95q-14 -18 -29 -35.5t-31 -34.5q-5 -5 -18 -17.5t-29 -26t-32.5 -23t-28.5 -7.5q-10 2 -17.5 8t-15.5 11q-6 4 -9.5 12t-5 17t-1.5 18.5v16.5q2 20 2.5 38.5t3.5 37.5q11 72 33 141.5
t48 138.5l-3.5 -7l-2.5 -5q-24 -54 -49.5 -108.5t-54 -107.5t-60.5 -103.5t-71 -96.5q-8 -6 -11.5 -0.5t0.5 12.5q72 86 124.5 186.5t97.5 201.5q10 23 21 49.5t25.5 60t35 76t50.5 97.5h5q21 17 50 22.5t56 7.5q5 -2 6 -4q1 0 3 2zM996 514q-33 -54 -65 -117.5
t-61.5 -133.5t-56 -144t-48.5 -149q44 34 76 69.5t61.5 75.5t59.5 87t69 104q20 29 46.5 68.5t50.5 82.5t40.5 86t17.5 81q-1 14 -8.5 26t-13.5 25q-21 8 -47 -11.5t-50 -49t-43.5 -59t-27.5 -41.5zM310 -219q-2 0 -5 -0.5t-1 -1.5q3 2 6 2z" />
    <glyph glyph-name="O" unicode="O" horiz-adv-x="1431" 
d="M1152 -80q-21 -11 -44 -14t-45 1.5t-41.5 16t-32.5 31.5q-8 18 -17.5 34.5t-12.5 35.5q-8 64 -7.5 131t12.5 132.5t37 127.5t64 116q1 1 3 5q-16 12 -35 23.5t-36 17.5q-43 15 -88 23t-92 11q18 -20 29 -55t15 -74.5t0.5 -77.5t-15.5 -65q-33 -75 -80 -132.5t-107.5 -94
t-135.5 -50.5t-163 0q-57 7 -111 33t-87 74q-45 69 -38 128.5t48.5 109.5t109.5 89.5t146.5 67t159 43.5t146.5 19q-55 44 -114 72t-128 33q-99 7 -185 -22.5t-160.5 -83t-138 -123t-118.5 -142.5q-7 -8 -12.5 -3.5t-0.5 12.5q57 74 122.5 146t141 126.5t163.5 85.5t190 23
q30 -2 70 -11t82 -24t82 -36t69 -48q54 -2 106 -10.5t103 -25.5q20 -8 39 -19t36 -24q27 32 63 59.5t72 43.5q10 4 28.5 10.5t32.5 4.5q29 -3 57 -13.5t45 -36.5q27 -67 35 -143.5t-2.5 -153t-38 -148.5t-70.5 -132q-27 -38 -68 -72t-83 -52zM759 289q21 42 31 88.5t9 90.5
t-14 82.5t-38 62.5q-38 -5 -87 -13.5t-102 -22.5t-106.5 -34t-100.5 -47t-85 -63t-60 -81q-23 -47 -24.5 -92.5t18 -82.5t61 -62.5t104.5 -32.5q75 -10 138.5 6t113.5 47.5t86 72.5t56 81zM1016 4q7 -43 23.5 -59t38 -14t45 18.5t45.5 38t39 44t25 36.5q69 125 97 232.5
t35 194.5q-21 -24 -52.5 -39t-60.5 -20q-11 -2 -22 2t-22 6q-20 5 -39 17t-36 26q-48 -79 -75 -168.5t-38 -177.5q-5 -32 -6.5 -68.5t3.5 -68.5zM1190 568q-13 -15 -25 -31t-23 -33q17 -13 34.5 -23.5t37.5 -17.5q18 -6 41.5 -4.5t45.5 10t39.5 23t25.5 34.5v4
q3 60 -14.5 85.5t-45 25.5t-59 -20.5t-57.5 -52.5z" />
    <glyph glyph-name="P" unicode="P" horiz-adv-x="1665" 
d="M1646 692q-5 2 -5 9q-58 -2 -108 -22l-3 -3q-5 -2 -10.5 -4t-11.5 -4q-9 -11 -19.5 -28.5t-21 -38t-20.5 -42t-17.5 -39t-12.5 -29t-5 -12.5q-19 -53 -35.5 -110.5t-34.5 -115t-39.5 -113.5t-50.5 -104q-6 -10 -25 -28t-45 -38.5t-56 -41.5t-58 -38t-51 -27t-35 -9
q-23 -27 -48 -51.5t-50 -45.5q-59 -51 -128.5 -99.5t-144 -90t-152.5 -74.5t-154 -52q-29 -7 -59 -10t-60 -8q-26 -4 -51.5 3.5t-51.5 11.5q-12 2 -21.5 9t-18 16t-16.5 18t-17 17q-6 6 -1.5 14t12.5 2q17 -14 33 -31t36 -26q39 -17 84 -17t90 9t88.5 24.5t79.5 29.5
q70 28 134.5 61t124.5 73t116.5 88t110.5 105q-20 -7 -46.5 -15t-54.5 -15t-55 -11t-49 -3q-28 1 -58 5.5t-53 17.5t-34 35.5t-2 60.5q-59 -26 -120 -44t-126 -28q-35 -5 -72 -9.5t-72 7.5q-25 10 -52 16t-49 22q-53 40 -66.5 94.5t-1.5 111.5t41 112t60 97q26 35 57.5 66.5
t60.5 63.5q8 8 12.5 2t-1.5 -14q-29 -32 -60 -63t-57 -66q-18 -24 -37 -55.5t-34 -66.5t-24.5 -72t-7.5 -72.5t18 -66.5t50 -54q22 -14 46.5 -22.5t50.5 -13.5q67 -9 137 2q73 11 134 28.5t116 42.5q3 15 9 28q20 48 62 97t95 87t113 60t116 18q38 38 72 80t52 84
q-28 -14 -51.5 -24t-46.5 -18.5t-47 -16t-52 -15.5q-33 -9 -66.5 -18.5t-68.5 -7.5q-30 2 -60 0.5t-59 4.5q-74 17 -112 52t-44 79.5t17.5 93.5t73.5 94q44 40 88.5 68.5t92.5 45t100.5 20.5t112.5 -5q40 -6 79.5 -28t67.5 -52q32 -35 42 -72t11 -85q1 -28 -8 -58q4 1 7 4
q59 32 113 68.5t105 76.5q14 23 30 42t33 33q12 9 26 15t29 11q5 5 10 8.5t10 5.5q6 0 8 -2q7 4 14.5 7l12.5 5q26 11 55 12.5t56 -1.5q67 -6 105.5 -39t46.5 -104q7 -57 -17 -107t-65 -89t-92.5 -65.5t-100.5 -37.5q-29 -7 -48 -9t-35.5 -0.5t-35 5.5t-46.5 9q-8 4 -5.5 11
t9.5 8q20 -3 39.5 -8t39.5 -6q76 -3 153 31q16 9 26 17t17.5 16t12.5 17t10 21q13 20 19.5 43.5t11.5 46.5q6 31 6 56.5t-6 48t-16.5 45.5t-23.5 50q-6 5 -12.5 7t-13.5 5zM889 322q30 9 56 16.5t50 16.5t48.5 20t53.5 26q10 28 13.5 61.5t-1 66.5t-16.5 63t-34 51
q-46 45 -101.5 61.5t-112 11.5t-110.5 -29t-97 -61q-32 -29 -60.5 -61.5t-42.5 -77.5q-11 -35 -0.5 -65t32.5 -53t52 -39t60 -23q57 -13 106.5 -6.5t103.5 21.5zM955 173q-45 -41 -84 -76t-79 -65.5t-84.5 -57.5t-99.5 -52q-11 -47 4.5 -72t44.5 -35t67 -8t72 9q24 5 41 9
t32.5 7.5t31.5 8.5t36 13q31 33 55 76.5t31 88.5t-7.5 86t-60.5 68zM1064 -89q21 12 37 24t26 23q15 16 30 44t28.5 58t24 59t17.5 47q13 35 27 82.5t30.5 99t36 103t42.5 96.5q-47 -35 -95 -66t-100 -60q-4 -2 -8 -5t-9 -5q-12 -30 -30 -59t-39 -55.5t-43.5 -50
t-42.5 -42.5v-1q16 -7 28.5 -18t20.5 -26q19 -38 23.5 -75t-2.5 -72.5t-24 -68.5t-39 -63q33 14 61 31zM613 -55q40 19 73.5 40t66 45.5t66 53t73.5 63.5q6 5 8.5 7.5l4 4t4 4.5t9.5 10q-53 0 -100 -16t-86.5 -46t-70 -72t-48.5 -94z" />
    <glyph glyph-name="Q" unicode="Q" horiz-adv-x="1539" 
d="M1183 -95q-7 0 -8 3q-14 -1 -28 3q-4 0 -6 1q-13 11 -29 19.5t-24 23.5q-8 18 -17.5 34.5t-12.5 35.5q-8 64 -7.5 131t12.5 132.5t37 127.5t64 116q27 38 68 72t83 52q10 4 28.5 10.5t32.5 4.5q9 1 16 0q4 -3 6 -7q5 -1 8 -2t8 -1q5 5 11 3q13 -11 29 -19.5t24 -23.5
q8 -18 17.5 -34.5t12.5 -35.5q8 -64 7.5 -131t-12.5 -132.5t-37 -127.5t-64 -116q-23 -32 -55 -61q8 -18 15.5 -36.5t14.5 -35.5q27 16 57.5 33.5t60.5 31.5t59 23t53 8q49 -3 82.5 -20.5t48.5 -46.5t11 -66t-30 -79q-6 -9 -15 -20.5t-19.5 -23t-22 -21.5t-21.5 -16
q-12 -6 -28 -13.5t-33.5 -13.5t-35 -8.5t-33.5 0.5q-3 -5 -9 -5q-15 3 -30 5.5t-30 4.5q-24 4 -46 23t-40 43.5t-31.5 52t-22.5 48.5q-22 -11 -44.5 -21.5t-50.5 -23.5q-72 -32 -161 -65t-186.5 -59.5t-199 -41t-198 -10t-183.5 33t-155 88.5q-26 23 -46 49t-37 58
q-37 68 -38.5 133t24 124t73.5 111t109.5 94.5t131.5 74.5t140 50.5t135.5 23t117.5 -8.5q74 -20 106 -55t26 -82t-47.5 -104.5t-114.5 -123.5q-8 -6 -11.5 -0.5t0.5 12.5q18 22 38.5 43t40 42.5t37.5 44t31 47.5q19 36 10 64t-30 47.5t-48 31t-44 14.5q-67 11 -138 3
t-139.5 -30.5t-130.5 -58.5t-112 -81q-67 -61 -101.5 -132t-35 -142.5t33.5 -137.5t105 -116q69 -48 150.5 -70t169 -24t177.5 13t177.5 39.5t168.5 55.5t150 62q23 11 46.5 22.5t46.5 22.5q-5 14 -10 30.5t-11 33.5l-24 -12q-5 -2 -13 -5t-17 -5.5t-18 -4t-16 0.5
q-2 0 -4 -1zM1118 141q-2 -8 -2.5 -14.5t-1.5 -14.5q6 5 11.5 10.5t13.5 8.5q29 12 54 10t46.5 -14.5t40.5 -34t35 -48.5q5 8 9.5 13.5t6.5 10.5q38 69 63 133t40 122t22 110t9 97q1 21 -2 45t-9 44v1l-16 10t-16 11q-9 0 -17.5 1.5t-18.5 2.5q-2 -2 -7 1h-3q-6 0 -6 5
q-11 -5 -23.5 -16t-23.5 -24t-20.5 -25t-13.5 -18q-38 -44 -66.5 -95t-49.5 -106.5t-34.5 -112.5t-20.5 -113zM1410 -172q30 -62 69 -92.5t78.5 -29t74.5 35.5t57 103q10 31 9.5 57.5t-11 46t-31.5 30t-52 8.5q-29 -2 -58 -10.5t-56.5 -22t-54.5 -29t-52 -30.5
q8 -20 14.5 -36.5t12.5 -30.5zM1143 101q-5 -2 -7.5 0.5t-2.5 6.5l-9.5 -9.5t-11.5 -9.5q-2 -22 -1.5 -43.5t4.5 -41.5q2 -10 8.5 -27.5t4.5 -30.5l9 -6q2 3 5.5 3t5.5 -6q2 -8 10.5 -9.5t17.5 -0.5q6 9 13 2h7q12 6 28 19.5t33 30.5q-17 42 -44 76.5t-69 46.5z" />
    <glyph glyph-name="S" unicode="S" horiz-adv-x="2027" 
d="M2123 569q8 5 11 -1.5t-2 -12.5l-7.5 -7.5t-7.5 -6.5q-2 0 -2 2l-2 -4l-2 -4q-23 -21 -46 -41t-51 -34q-23 -12 -47 -16t-50 -3q15 -36 33 -72.5t31.5 -74t19 -75.5t-3.5 -77q-5 -21 -19 -37t-24 -34q-6 -11 -9 -21.5t-6 -21.5t-8 -21t-14 -19q-8 -5 -11 0
q-23 -30 -53.5 -52.5t-67.5 -32.5q-35 -9 -77 -2.5t-80 25t-67.5 48t-39.5 66.5q-4 13 -9.5 25.5t-4.5 26.5q2 34 13 69.5t31 63.5t49.5 44t69.5 11q10 -2 7 -10.5t-11 -8.5q-5 0 -8.5 0.5t-8.5 0.5q-2 -7 -10 -7q-9 0 -15.5 -6.5t-12 -16t-9.5 -19t-7 -15.5
q-16 -30 -18 -62.5t5 -65t21 -64t29 -58.5q1 -1 1 -4q35 -19 74 -25.5t76 3.5q42 11 75.5 39.5t55 66t29.5 81t-1 85.5q-6 31 -17.5 60t-25 57t-28.5 55.5t-28 55.5q-3 5 -5.5 11t-5.5 13q-11 1 -22 1.5t-22 0.5q-39 -1 -100 10.5t-125.5 28t-123.5 33.5t-95 28
q-89 27 -177 57.5t-175.5 57.5t-175.5 47t-177.5 28t-181 -0.5t-185.5 -39.5q-65 -21 -111 -62t-71.5 -93t-29.5 -111.5t14 -117.5t58 -110.5t104 -91.5q43 71 102 121.5t129 83.5t147.5 50t157.5 20q38 2 80 -0.5t84 -10t82.5 -19t75.5 -27.5q13 -6 37.5 -20t47 -34
t36.5 -44t6 -50q-14 -43 -39.5 -75t-60 -56t-74.5 -40t-82 -26q-72 -17 -150 -26.5t-156 -8t-154.5 15t-146.5 43.5q-31 14 -60.5 29t-59.5 30q-2 1 -2.5 1t-2.5 1q-23 -42 -41 -87.5t-39 -89.5q-5 -6 -11 -4t-4 10q22 45 40 90.5t41 88.5q-25 14 -47 31.5t-41 38.5
q-16 18 -37 40.5t-41 47.5t-35.5 51.5t-19.5 53.5q-2 13 -6 26.5t-7 26.5t-4.5 26t2.5 26q7 26 13 51.5t17 49.5q12 28 38.5 55t58.5 49.5t65 39t58 25.5q95 33 190 42.5t189 2t187.5 -28.5t186 -48.5t184 -58.5t181.5 -58q40 -12 95.5 -28.5t119.5 -32t131 -28.5t129 -18
q-9 20 -16 43t-9.5 45.5t1.5 43.5t18 38q26 32 52.5 53.5t56.5 34t64.5 17t75.5 2.5q10 0 24 -5t27.5 -13t24.5 -18t15 -20q7 -12 12.5 -25t3.5 -29.5t-13 -37t-36 -46.5q-6 -4 -10 -2l-6 -6q-4 -5 -8.5 -10t-11.5 -8q-8 -3 -9.5 2.5t1.5 10.5l7 7q6 5 10 11q6 5 11.5 10.5
t11.5 10.5zM770 367q-77 -3 -152 -19.5t-142.5 -48.5t-124.5 -81t-99 -117q70 -43 148 -72t159 -43t163 -14t162 15q23 4 52 11.5t59.5 18t59.5 26t51.5 36t36.5 46t14 58.5q0 41 -20 71.5t-52.5 51.5t-74.5 33.5t-85 19t-83.5 8t-71.5 0.5zM2037 717q-1 0 -1 2
q-52 3 -108 -21l-3 -3q-17 -8 -26 -30t-11.5 -49.5t0 -56.5t7.5 -51q6 -24 15 -49q29 2 54 6t46 13q20 8 38 22t35 30q2 4 4 5q1 0 3 2l5 5t5 6q8 12 10 27.5t0 28.5l-6 28t-10.5 28t-20.5 28.5t-36 28.5z" />
    <glyph glyph-name="T" unicode="T" horiz-adv-x="1298" 
d="M939 629q3 -35 5.5 -54t2.5 -37t-3 -43t-9 -71q-3 -18 -12 -45.5t-22.5 -58t-31 -62t-36.5 -57t-39 -43.5t-39 -21q-15 -3 -25.5 3.5t-17 17.5t-9.5 24.5t-2 25.5q4 64 14.5 128t34 122t61.5 107.5t96 85.5q-19 56 -53.5 94t-79 60t-97 28.5t-106.5 -0.5t-107 -27
t-100 -51q-46 -30 -85 -73.5t-72 -93.5t-59 -103t-45 -102q-17 -44 -32.5 -97.5t-20 -108t6 -106.5t43.5 -94q28 -34 61.5 -39.5t68.5 18.5q42 28 71.5 65.5t52.5 79t42.5 85.5t40.5 86q7 7 11 3t2 -12q-26 -53 -50 -105.5t-55 -103.5q-42 -67 -92.5 -102t-98.5 -35t-87 37
t-57 114q-15 60 -11 125.5t22.5 132t49 131t70 122.5t84.5 107t92 85q36 27 77 41t83 25q13 3 30.5 5.5t35.5 3.5t35 1h31q53 -1 95.5 -8.5t78.5 -25.5t67 -47.5t60 -73.5q2 -3 4.5 -8t5.5 -10t5 -8.5l2 -3.5q19 15 44.5 24.5t52 15.5t50.5 8.5t40 2.5q31 0 61.5 -4.5
t60.5 -9.5q19 -3 51.5 -8.5t68.5 -9.5t69.5 -5t56.5 7q7 2 22 6t32 8.5t34 10t28 11.5l15 9q9 6 11 -2.5t-5 -13.5q-36 -21 -76 -44t-83 -40.5t-88 -26t-89 -1.5q-6 1 -12 1.5t-12 2.5q-11 -21 -20.5 -42.5t-17.5 -39.5t-13 -30t-5 -13q-19 -53 -35.5 -110.5t-34.5 -115
t-39.5 -113.5t-50.5 -104q-11 -19 -29 -37t-37.5 -33t-38.5 -25t-34 -13q-10 -5 -20.5 -9t-20.5 -10q-9 -4 -9.5 5t5.5 13q15 8 31.5 13.5t27.5 17.5q15 16 30 44t28.5 58t24 59t17.5 47q16 43 34 104t40 125t48.5 123.5t58.5 101.5q-27 7 -55.5 14t-56 11.5t-55 4.5
t-52.5 -6q-10 -5 -21.5 -8t-19.5 -7zM922 621q-28 -15 -55.5 -53.5t-51 -88t-42 -104t-28 -100.5t-8.5 -78t16 -37q18 -3 36.5 13t36 42t32.5 57t27 57q20 46 33.5 96t14.5 100q0 13 -1 29.5t-3 31.5t-4 25.5t-3 9.5z" />
    <glyph glyph-name="U" unicode="U" horiz-adv-x="1492" 
d="M1636 699q8 1 10 -5q5 -2 4.5 -8t-5.5 -10q-5 -2 -10.5 -4t-11.5 -4q-9 -11 -19.5 -28.5t-21 -38t-20.5 -42t-17.5 -39t-12.5 -29t-5 -12.5q-19 -53 -35.5 -110.5t-34.5 -115t-39.5 -113.5t-50.5 -104q-12 -20 -27 -34.5t-31.5 -27.5t-34 -25.5t-33.5 -27.5
q-6 -5 -10 -1.5t-3 8.5q-10 -5 -20.5 -9t-20.5 -10q-9 -4 -9.5 5t5.5 13q15 8 31.5 13.5t27.5 17.5q19 20 37 55.5t32 71.5q-23 -14 -47.5 -34t-50.5 -37.5t-54 -30t-57 -11.5q-2 -8 -8 -11q-30 -8 -60.5 0t-55 26.5t-39 46.5t-12.5 60q3 42 13.5 80.5t25.5 75t33 73
t35 73.5q10 21 19 38t18.5 32t19 31t20.5 36q8 15 17 40t11 49.5t-7 43t-37 20.5q-32 -11 -65.5 -32t-65 -45.5t-60.5 -50t-53 -46.5q-21 -19 -40.5 -37.5t-39.5 -38.5q-6 -29 -12.5 -56t-12.5 -52q-9 -40 -29.5 -94.5t-50 -114.5t-65 -122t-74 -118t-77.5 -102t-75 -74
q-33 -25 -75.5 -56t-89.5 -55t-97 -34.5t-97 5.5q-47 9 -77 37.5t-45 68.5t-17 87t6 93.5t24.5 88t38.5 69.5q14 19 29 37t29 36q7 7 11 3t2 -12q-45 -57 -78 -114t-43 -131q-7 -54 3 -104t37 -85.5t71.5 -51.5t106.5 -2q78 18 147 63.5t128.5 109t109.5 140t88.5 157
t66 160.5t43.5 149q-33 -32 -63 -56.5t-59.5 -44t-60 -35t-63.5 -29.5q-83 -35 -157.5 -42.5t-133.5 8t-99.5 52.5t-56 91t-2.5 123t61 149q31 52 85 93t120 68t138 38t138.5 1.5t122 -41.5t88.5 -90q23 -42 26 -88.5t-5 -94.5q42 38 78 72t83 70l14 10.5t24 17.5t31 21.5
t34 22.5q0 6 6 10q13 5 25.5 10t25.5 9q12 4 21 4q65 6 89 -12t24 -50.5t-16 -73t-31 -78.5q-5 -13 -9 -22.5t-8 -18.5t-8 -18.5t-10 -22.5q-10 -24 -22.5 -46t-26.5 -45q-16 -28 -32.5 -59t-29.5 -61q-9 -21 -18 -47t-12 -52.5t4 -50.5t32 -40q39 -24 73.5 -20t67 22
t63 43.5t60.5 43.5q8 5 10 13t10 13q5 11 8 20t6 17q12 33 25.5 76.5t28.5 91.5t32.5 96.5t38 92.5t44 79.5t50.5 56.5q12 9 26 15t29 11q5 5 10 8.5t10 5.5zM241 197q73 -12 131.5 -5.5t111.5 31.5t104.5 66.5t111.5 100.5q16 63 12.5 118t-23 100t-51.5 78.5t-73.5 54
t-90 26t-99.5 -5.5q-81 -18 -142.5 -62t-113.5 -107q-37 -45 -54 -107t-5.5 -121.5t55 -106t126.5 -60.5z" />
    <glyph glyph-name="V" unicode="V" horiz-adv-x="1232" 
d="M1453 699q9 1 9 -5q5 -2 3 -8t-8 -10q-6 -2 -11.5 -4t-12.5 -4q-18 -16 -41.5 -46.5t-45 -61.5t-37 -55t-16.5 -26q-31 -53 -60.5 -110.5t-61 -115t-66 -113.5t-74.5 -104q-29 -34 -61.5 -54t-66.5 -43q-8 -9 -12 -18q-4 -5 -12 1v-1q-10 -6 -12 2q-6 -3 -12.5 -6
t-11.5 -8q-7 -3 -11 5q-2 -2 -4.5 -2.5t-4.5 -2.5q-5 -2 -7 0t-1.5 5.5t3 7t5.5 5.5q8 4 15 6.5t15 5.5q8 4 14 8t9 11q7 16 9.5 44t2.5 58t-2.5 59t-3.5 47q-3 36 -9.5 83.5t-12.5 100.5l-22.5 -22.5t-18.5 -16.5q-69 -64 -147.5 -121.5t-163.5 -101.5q-14 -8 -34 -16
q-19 -49 -43.5 -102.5t-57.5 -105.5t-76.5 -100.5t-101.5 -87.5t-132 -66t-168 -36q-52 -5 -93.5 10t-74 43.5t-56 68t-38 83.5t-21 89t-5.5 86q2 57 14.5 111t20.5 109q3 8 11 9.5t6 -9.5q-9 -54 -21 -108t-14 -109q-3 -71 13 -139t52.5 -119.5t94.5 -80.5t139 -23
q92 7 168.5 44t138 96t108 136t77.5 164q-54 -16 -112 -31t-112 -14t-99.5 25.5t-75.5 87.5q-25 53 -18 108.5t32 108t60 100t66 85.5q14 17 31.5 30.5t34.5 27.5q20 18 48.5 28.5t57.5 10.5t55.5 -12t43.5 -38q13 -20 26 -39t24 -40q21 -43 30.5 -89.5t9 -95t-10 -97.5
t-24.5 -97q5 3 10 5.5t10 5.5q85 43 161 99t145 120q12 11 24.5 23t24.5 24q-5 44 -7.5 87t-0.5 81.5t10 69.5t24 50q8 9 19 15t24 11q6 9 14 14q6 0 9 -3q9 11 20 18.5t26 7.5q6 0 13 -1.5t9 -7.5q17 -33 24 -46t6.5 -23.5t-8.5 -28t-22 -60.5q-8 -24 -31.5 -57t-52.5 -68
q6 -46 13.5 -94.5t13.5 -97t8.5 -95t-1.5 -88.5q21 32 39.5 61.5t29.5 49.5q20 33 43.5 76.5t49.5 91.5t55 96.5t59.5 92.5t62 79.5t63.5 56.5q14 9 29 15t32 11q13 10 23 14zM331 35q17 5 27 8.5t18 7t17.5 8t25.5 12.5q17 52 24 101q8 48 9 95t-8 94q-6 34 -14 76
t-23.5 77t-42.5 55t-71 10q-47 -11 -86 -45t-69.5 -79t-51 -96t-28.5 -96q-5 -30 -2.5 -69.5t14 -76.5t31.5 -66t51 -38q21 -6 49.5 -4t55.5 7.5t47.5 11t26.5 7.5zM936 657q-5 -19 -6.5 -48.5t-2 -58t0 -49.5t0.5 -22q0 -7 0.5 -13t1.5 -13q21 26 40 53t33 55
q11 20 15.5 42.5t11.5 43.5q-6 14 -12.5 26.5t-13.5 25.5q-14 3 -24.5 -1t-19.5 -12q3 -6 -1 -10q-8 -4 -12 -5q-3 -4 -5.5 -7t-5.5 -7z" />
    <glyph glyph-name="W" unicode="W" horiz-adv-x="1570" 
d="M450 613q-8 -3 -9.5 4t3.5 12q12 6 27.5 25t29.5 43.5t24 52t9.5 51.5t-13.5 42t-44 23q-47 9 -90 -6.5t-80.5 -46t-69.5 -70t-57 -78.5q-21 -31 -43.5 -74.5t-40 -92.5t-27 -100t-4 -97t29.5 -84.5t74 -61.5q48 -22 90.5 -17.5t92.5 23.5q22 8 44 18t43 22q-1 5 -0.5 11
t0.5 12q8 82 40 151.5t81 135.5q6 8 17.5 22.5t26.5 30.5t32 32t33.5 26.5t30.5 13.5t24 -7q17 -17 15.5 -50.5t-12 -69.5t-25.5 -66.5t-24 -41.5q-21 -26 -41 -53t-44 -51q-21 -21 -45.5 -41.5t-63.5 -45.5q19 -53 48 -77t63.5 -26.5t71.5 12.5t72 41q48 35 94 82t83 92
q14 17 26.5 33t25.5 33q-4 40 -6 79t0.5 73t10.5 61.5t23 45.5q8 9 23 17.5t28 12.5q34 10 49.5 1t17.5 -29t-6 -47t-20 -53.5t-25.5 -49t-21.5 -33.5q4 -50 12.5 -104t16.5 -108.5t12 -107.5t-1 -100q42 68 85.5 134t86.5 133q6 9 17.5 27.5t24 39t24 39t16.5 27.5
q5 22 12.5 38t18 31t24 32t31.5 40q7 7 11 3t2 -12q-6 -9 -12.5 -17.5t-16 -21t-22 -32t-28.5 -50.5q-3 -11 -5.5 -22.5t-4.5 -25.5q-5 -36 -0.5 -76.5t12.5 -82.5t16.5 -84t11.5 -80v-2q8 21 15 39t12 31q13 33 27 76.5t30 91.5t34.5 96.5t39.5 92.5t45 79.5t52 56.5
q13 9 18.5 14t21.5 10q5 4 14.5 4.5t17 -2t10.5 -8.5t-4 -14q-15 -4 -28.5 -18.5t-25.5 -34.5t-22 -42.5t-18 -42t-13.5 -32.5t-7.5 -14q-20 -53 -37.5 -110.5t-36 -115t-41.5 -113.5t-53 -104q-11 -18 -32 -38t-46 -38t-52 -31.5t-51 -19.5q-9 -4 -9.5 5t5.5 13
q18 10 27.5 14t16.5 8t14.5 11.5t21.5 24.5q8 12 15.5 26t14.5 29q14 44 8.5 91t-17 95t-21 96t-3.5 94q-5 -11 -10 -19.5t-8 -13.5q-64 -104 -132 -205t-132 -207q-5 -6 -14.5 -17t-21.5 -21t-26 -17.5t-27 -6.5q-8 -4 -12.5 5t0.5 13q11 8 25 13.5t20 17.5q7 16 9.5 44
t2.5 58t-2.5 59t-3.5 47q-3 40 -10.5 94t-14.5 113q-10 -13 -21 -26t-22 -25q-28 -31 -43.5 -48.5t-25 -28t-16.5 -17.5t-17.5 -16l-28 -24t-48.5 -42q-20 -17 -56 -36t-75.5 -28t-76.5 -3t-59 39q-11 17 -21.5 32t-16.5 33q-27 -14 -63 -29t-75 -25.5t-79 -14t-76.5 4
t-67 28.5t-50.5 60q-27 54 -27.5 116t16 124t45 120t59.5 104q15 22 43.5 53.5t64.5 63t77.5 58.5t82 40t77.5 8t65 -38q19 -22 17 -57.5t-17 -71.5t-38.5 -67.5t-46.5 -46.5zM682 594q-22 -8 -46.5 -31t-48.5 -55t-44.5 -70t-35.5 -76t-22.5 -73t-3.5 -61q17 11 30 20
t24.5 18.5t22.5 20t25 24.5q29 28 53 59.5t39 66.5t18 74t-11 83zM1040 511q10 17 20 35t19 36q10 28 15.5 52.5t-10.5 38.5q-10 -2 -16.5 0.5t-14.5 -5.5q-5 -11 -7.5 -30.5t-4 -42t-1.5 -45v-39.5z" />
    <glyph glyph-name="X" unicode="X" horiz-adv-x="870" 
d="M619 650q-10 11 -30 9.5t-41 -8t-40 -15.5t-27 -13q5 -28 -0.5 -74.5t-20.5 -99t-38.5 -104t-52.5 -91t-63.5 -61t-71.5 -11.5q-28 7 -37.5 29.5t-7 52.5t13.5 63.5t24.5 63.5t25.5 51.5t16 28.5q13 22 34 48t46 52t53 50t56 42q-8 19 -22 36q-21 27 -56 37.5t-74 9
t-76 -14t-61 -30.5q-10 -8 -23 -20t-25.5 -25.5t-23.5 -27t-17 -24.5q-9 -16 -19.5 -37t-16.5 -43t-4 -43t18 -36q13 -13 26.5 -10.5t25.5 13.5t22 29.5t16.5 37.5t8 37t-2.5 30q-3 9 -9 11t-12.5 1t-14 -4t-14.5 -4q-10 0 -8.5 9t9.5 10q12 2 24 6.5t23 -0.5
q19 -8 24.5 -27t1.5 -42.5t-16.5 -48.5t-29 -46t-35.5 -35t-37.5 -15t-34 13.5t-24.5 50.5q-8 31 2 73t30.5 82t49 72t59.5 44q34 14 67.5 21.5t69.5 8.5q19 1 43 -0.5t47.5 -6.5t44.5 -15t35 -26q16 -18 24 -41q33 24 64 28t56.5 -8t45 -37t30.5 -59q18 -56 34 -111
t32 -112q28 43 58.5 86t62 81t63 68.5t61.5 49.5q15 9 31 15t33 11q7 5 12.5 8.5t11.5 5.5q9 1 9 -5q5 -2 2 -8t-9 -10l-12 -4t-13 -4q-19 -16 -45.5 -46.5t-51 -61.5t-42.5 -55t-19 -26q-32 -47 -63.5 -97.5t-63.5 -102.5q11 -39 22.5 -78.5t24.5 -78.5q8 -23 15 -46
t17 -46q12 -26 21 -40t19.5 -20t25 -6.5t37.5 0.5q9 -2 7 -9t-8 -10q-29 -2 -44.5 -1t-26 8.5t-20 23t-25.5 42.5q-13 23 -20 48t-15 49q-11 36 -21 72.5t-20 73.5q-38 -60 -78.5 -117.5t-87.5 -107.5q-17 -18 -43.5 -38t-56.5 -37.5t-61.5 -31t-59.5 -20.5q-5 -2 -7 0
t-1 5.5t3.5 7t6.5 5.5q17 8 35.5 13.5t33.5 17.5q21 16 44.5 44t46.5 58t43 59t33 47q26 37 57.5 87t66.5 104l-18 64t-19 64q-5 17 -11 39.5t-14.5 45.5t-19 44t-23.5 36zM280 206q34 16 62 46.5t49.5 68t36.5 79t24.5 81.5t13 75t1.5 59q-54 -35 -96.5 -81t-79.5 -109
q-6 -10 -17.5 -35t-23.5 -55t-20.5 -60.5t-8 -51.5t13.5 -27.5t45 10.5z" />
    <glyph glyph-name="Y" unicode="Y" horiz-adv-x="1435" 
d="M1204 680q-8 0 -33 -22.5t-61.5 -60t-81.5 -86.5t-92 -101.5t-94 -106t-87 -99.5t-71 -81.5t-46 -53.5q-25 -29 -50 -54.5t-52 -49t-57 -46t-65 -45.5q-39 -27 -71.5 -26.5t-58.5 19.5t-45 52.5t-30.5 71.5t-15.5 76t0 67q-25 -5 -50 2t-47 21t-39 33t-26 39
q-23 51 -24 111t15.5 121t49 118t76.5 101t97 70.5t111 26.5q14 0 23.5 -8.5t14.5 -20.5t6.5 -25t-0.5 -23q-6 -29 -14 -54t-20.5 -47t-31 -40t-46.5 -31q-9 -4 -9.5 5t5.5 13q24 5 44 25.5t32.5 47.5t16.5 55.5t-3 49.5t-27 29.5t-54 -5.5q-38 -15 -76.5 -48t-72 -78
t-57.5 -100.5t-32 -115.5q-6 -48 -4 -90.5t17.5 -75t46 -53.5t81.5 -26q3 25 12 56t19 59q28 76 65 149.5t83.5 141t103 127t124.5 106.5q39 28 80 46t76 23t62.5 -3t39.5 -30t6 -59t-36 -90q-33 -60 -65.5 -107t-68.5 -89.5t-78.5 -84.5t-94.5 -90q-65 -60 -145.5 -108.5
t-161.5 -71.5q-4 -35 -0.5 -72.5t16.5 -74.5q20 -60 44 -89t53.5 -32t66 17.5t82.5 58.5q45 38 82.5 74t75.5 80q15 17 45.5 52.5t70.5 81t87 98t94.5 104.5t93 100.5t83.5 85.5t64.5 59.5t36.5 23.5q17 1 32.5 -8.5t27.5 -24t20 -32t11 -31.5q3 -17 -5 -39t-19.5 -45.5
t-23 -45.5t-16.5 -38q-7 -26 -1 -49.5t21 -38t37 -18t46 10.5q27 38 54 84t55.5 90.5t57.5 82t61 58.5q4 2 18 9.5t30 14t29.5 11t15.5 0.5q-11 -5 -27 -22t-33.5 -40t-35 -48.5t-32 -47.5t-24.5 -38t-12 -19q-30 -53 -58.5 -110.5t-58.5 -115t-63 -113.5t-72 -104
q-41 -51 -94.5 -80.5t-110.5 -46.5q-5 -2 -7 0t-1.5 5.5t3 7t5.5 5.5q17 8 34 13.5t31 17.5q18 16 38.5 44t40 58t36 59t27.5 47q18 31 39 71t44 85q-6 -4 -18 -7.5t-25.5 -5.5t-26 -3.5t-20.5 -0.5q-23 4 -41.5 8.5t-31.5 13.5t-19.5 25t-4.5 42q2 31 12.5 60.5t23 58
t25 57.5t17.5 59q1 4 0 12.5t-3 17t-6 15t-10 6.5zM514 704q-53 -55 -101 -117t-86 -129.5t-65.5 -141t-39.5 -150.5q25 6 48.5 17.5t45.5 24.5q62 36 128.5 93.5t129.5 126t118 141.5t95 139q31 52 39 82.5t-1.5 44t-32 13t-52.5 -10.5t-64 -27t-65.5 -36t-57.5 -38
t-39 -32z" />
    <glyph glyph-name="Z" unicode="Z" horiz-adv-x="1529" 
d="M1070 623q-9 0 -8 7.5t6 11.5q13 4 21 14q-2 3 0 8q6 15 24 29.5t40.5 25t45 16.5t37.5 5q41 -1 82.5 -15t82.5 -26t82 -15t81 18q12 7 22 15t21 16q9 6 11 -2.5t-5 -13.5t-12.5 -9t-12.5 -9h1q8 1 8 -5q5 -2 3 -8t-9 -10l-12 -4t-13 -4q-13 -11 -29 -28.5t-33 -38
t-33.5 -42t-29.5 -39t-21 -29t-9 -12.5q-36 -52 -70 -109t-70 -114.5t-74.5 -112.5t-82.5 -103q25 8 45.5 13.5t29.5 5.5q14 -1 28 -0.5t27 -3.5q17 -5 36.5 -11t39.5 -13q33 20 57.5 33t54.5 28q16 8 36 13.5t39.5 3.5t36.5 -13.5t27 -36.5q2 -11 -3 -19.5t-13.5 -15.5
t-18 -13t-16.5 -11q-15 -11 -42 -21t-55.5 -18t-54.5 -13.5t-40 -7.5q-20 -3 -44.5 -0.5t-50.5 7.5q-50 -39 -82 -71q-57 -54 -116 -106t-117 -106q-55 -50 -109 -100t-111 -96.5t-117 -89t-127 -77.5q-49 -25 -102.5 -44t-109 -29.5t-112 -11t-111.5 11.5q-32 8 -59.5 19.5
t-48.5 29t-36.5 42t-23.5 58.5q-9 35 -1.5 75t23.5 79.5t37 75.5t39 65q10 16 20.5 31t21.5 30q-12 11 -20.5 34t-13.5 49.5t-7 52t-2 41.5q12 53 37 112t60 112.5t79 96t95 62.5q41 17 78.5 22t65 -0.5t43 -22t15 -43.5t-21 -64t-64.5 -84q-5 -6 -11 -4t-4 10
q58 59 70 103.5t-7.5 68.5t-63 24t-97.5 -29q-44 -23 -83 -61.5t-69 -86t-49.5 -99.5t-25.5 -102q-2 -15 0 -34t7 -39t12.5 -39t17.5 -32q77 96 166.5 169t191.5 127q60 31 118 65t121 59q68 27 110.5 29.5t64.5 -12.5t27 -44.5t-3 -66t-25 -77t-38 -78.5
q-39 -67 -98 -118.5t-129 -87t-145.5 -55.5t-147 -23.5t-134.5 10t-108 44.5q-11 -14 -21 -29.5t-20 -30.5q-26 -42 -44.5 -94.5t-19 -105.5t23.5 -101.5t83 -81.5q47 -26 94.5 -35.5t94.5 -6t94.5 17t94.5 32.5q69 28 132.5 67.5t122.5 85t114.5 95.5t109.5 100
q80 75 159.5 147.5t160.5 146.5q6 6 12 11.5t13 11.5q-40 9 -80.5 19t-76.5 14q-24 -17 -49 -31t-51 -33q-8 -5 -10.5 -1.5t-0.5 8.5q-11 -5 -23 -9t-23 -10q-5 -2 -6.5 0t-1 5.5t3 7t5.5 5.5q8 4 16.5 7t17.5 6q-1 2 0 5q-2 7 6 13q9 3 18 9.5t18 13.5t18.5 13t18.5 8
q17 20 34.5 43t33.5 45t29.5 42t22.5 34q31 46 70.5 110.5t84 131.5t92.5 128t95 100q-29 -8 -57 -14t-57 -1q-26 5 -51 16.5t-50.5 22.5t-52 18t-56.5 3q-11 -2 -18.5 -6.5t-13.5 -10.5q2 -5 -1 -10t-9 -5h-2q-6 -8 -13 -15t-18 -11zM633 183q-80 -32 -160 -74t-156 -94.5
t-145 -114.5t-127 -133q51 -50 117.5 -67t137.5 -7.5t142.5 43t134.5 84t112.5 115.5t76.5 138q19 54 17.5 84.5t-20.5 41.5t-52.5 6t-77.5 -22zM1498 92q-36 -4 -73 -22t-82 -46q44 -14 88.5 -19.5t83.5 12.5q25 12 31.5 25.5t0.5 25t-20 18.5t-29 6z" />
    <glyph glyph-name="R" unicode="R" horiz-adv-x="1148" 
d="M195 -512q-9 0 -8 7.5t6 11.5q20 4 40 6t40.5 4.5t40 6.5t37.5 12q21 9 37.5 33t24 54t3.5 60.5t-24 52.5q-47 51 -105.5 64t-119.5 -1.5t-122.5 -51t-115.5 -84.5t-97 -102.5t-68 -104.5q-52 -104 -57 -175t22 -115t80 -62t119 -15t137.5 24t135.5 56q54 29 102.5 63
t94 71.5t89 77.5t87.5 81q61 57 125 114.5t131 111t138 101t146 86.5q-20 66 -32.5 133t-36.5 131q-9 24 -20.5 47t-25.5 40.5t-32 26.5t-39 6q-7 -2 -7 -6q-3 -8 -9 -8t-8 8q3 14 14 20.5t25.5 8t30 0t26.5 -4.5q22 9 35.5 32.5t20 52t8 57t0.5 46.5q-2 15 -7 35.5t-14 38
t-22 27t-31 2.5v1q-16 -8 -32.5 -15t-34.5 -14q-23 -11 -50 -22.5t-54 -14.5q-4 -11 -6.5 -17t-2.5 -7q-19 -53 -35.5 -110.5t-34.5 -115t-39.5 -113.5t-50.5 -104q-18 -30 -41.5 -51t-48 -35.5t-48 -24t-42.5 -16.5q-9 -4 -9.5 5t5.5 13q15 8 31.5 13.5t27.5 17.5
q15 16 30 44t28.5 58t24 59t17.5 47q15 42 33 100.5t39 120.5t46 121t56 102q-32 -20 -60 -44.5t-53.5 -51.5t-50 -55.5t-48.5 -55.5q-41 -45 -84 -87.5t-93 -77.5q-4 -3 -11.5 -8t-17.5 -11t-20.5 -12t-19.5 -10q-30 -12 -68 -22.5t-77 -14.5t-77 2t-68 29q-45 34 -54 72
t3.5 75.5t37.5 74t47 69.5q18 26 55.5 59t83 58.5t92.5 37.5t82 -4q23 -10 36 -32.5t30 -41.5q4 -6 -1 -13.5t-12 -0.5q-17 20 -27.5 36.5t-24 26.5t-36 12t-64.5 -7t-78 -34.5t-66 -61t-53.5 -76.5t-40.5 -80q-8 -18 -11.5 -41.5t-0.5 -46t14.5 -42t32.5 -29.5
q51 -25 104 -22.5t105.5 25t103 60t97 81.5t88 91t75.5 88q6 7 23.5 22.5t40.5 33.5t48.5 35.5t46.5 28.5l7.5 7.5t8.5 6.5q12 9 26 15t29 11q5 5 10 8.5t10 5.5q8 1 10 -5q5 -2 4.5 -8t-5.5 -10q-5 -2 -10.5 -4t-11.5 -4q-9 -11 -19.5 -28t-21 -37.5t-20 -41t-17.5 -38.5
q21 5 52 15t61.5 24t55.5 31.5t33 37.5l3 6q4 4 8 4q17 -1 29.5 -10t25.5 -19q32 -24 48.5 -56t18.5 -67.5t-10.5 -71.5t-38.5 -68q-23 -29 -42 -43t-35 -25l-7.5 -7.5t-7.5 -5.5q17 -8 30 -16.5t18 -12.5q14 -12 22.5 -25.5t16.5 -30.5q18 -35 26 -76t19 -79
q16 -59 36 -117q10 5 25 10q21 8 54 17.5t71.5 17.5t79.5 12t77.5 2t66 -12.5t45 -31.5t14 -55t-26.5 -84q-27 -51 -56.5 -97t-65.5 -73t-80 -28.5t-98 35.5q-23 15 -46 32.5t-40 39.5q-12 17 -24.5 33t-23.5 33q-14 23 -24.5 47t-18.5 50q-74 -39 -144.5 -86.5t-137 -101
t-130 -110t-124.5 -113.5q-45 -42 -88.5 -83t-89.5 -79.5t-95.5 -72.5t-104.5 -61q-30 -15 -71 -31.5t-86.5 -30t-94 -23t-94.5 -10.5t-86.5 8t-71.5 32q-33 25 -48.5 57.5t-19 68.5t3 73.5t17.5 71.5t24 63t23 49q24 47 60 93.5t79 88.5t90.5 78t94.5 62q48 26 103 33.5
t107.5 0t98 -29t73.5 -53.5t34.5 -72.5t-18.5 -86.5q-22 -41 -43 -59t-46.5 -25.5t-58.5 -10t-80 -11.5zM1339 -369q28 -19 54.5 -20t50 11t44.5 33.5t38.5 46.5t32 50.5t24.5 44.5q15 30 18.5 56t-5 47t-30 34.5t-56.5 18.5q-39 5 -79 2.5t-80 -11t-79.5 -21t-76.5 -28.5
q7 -19 13.5 -37t14.5 -37q11 -27 23 -57t28 -56q12 -19 27 -39.5t38 -37.5z" />
    <glyph glyph-name="H.001" horiz-adv-x="833" 
 />
    <glyph glyph-name="A.001" horiz-adv-x="833" 
 />
    <glyph glyph-name="A" unicode="A" horiz-adv-x="1582" 
d="M50 429q4 8 8 9q39 61 99 111.5t129 86.5t142.5 56t140.5 20q22 0 59.5 -1t81 -5.5t89.5 -13.5t83.5 -25.5t62.5 -41t28 -59.5q3 -33 -9.5 -64t-35 -58.5t-52 -52t-61 -46t-62 -39t-54.5 -31.5q-11 -6 -31.5 -19t-42.5 -22.5t-42.5 -12t-32.5 12.5q-2 7 2 13t11 1
q2 -2 6 -8q19 0 47 11.5t60 28.5t65 38.5t62.5 42t52.5 39t35 29.5q18 17 34.5 39.5t25 46.5t4.5 48.5t-26 46.5q-23 24 -53 39t-64 24t-68.5 13.5t-64.5 6.5q-75 5 -146.5 -3t-144.5 -31q-63 -20 -130 -58t-123 -92q0 -4 -3 -7q-21 -23 -32 -48.5t-16 -54.5
q-14 -39 -14.5 -78t8.5 -77.5t25 -75.5t34 -71q9 -16 23.5 -27t28.5 -24q9 -9 26 -16q3 -5 5 -10q30 -13 61 -23t60 -19q40 -11 84 -14q5 22 20 48.5t35 60.5q13 21 38 45t57 48.5t68.5 48.5t72.5 45.5t68.5 38.5t56.5 28q10 4 37.5 15.5t62 22.5t72 18t66.5 3q2 1 7 1
q2 -1 4.5 -2t4.5 -2q19 -6 30 -19.5t12 -36.5q3 -66 -26 -119t-77 -93.5t-110.5 -70t-128 -49.5t-128.5 -31t-112 -15q-8 -1 -17.5 -1.5t-20.5 -0.5q2 -21 11.5 -37.5t30.5 -26.5q14 -5 28.5 -6t28.5 -4q2 0 3 -0.5t2 -0.5q73 -4 146 16.5t143 53.5t135 73t122 76q5 2 8 1
q16 22 29 41t23 33q11 17 23 36t26 40q0 3 1 5l10 14t10 15q23 36 48 75.5t51.5 78t54.5 75t56 68.5q-17 -9 -34 -16t-36.5 -12t-42.5 -8t-51 -4q-12 -1 -35.5 0.5t-46 7.5t-39.5 19t-15 35q2 25 17 46t37 36t47 23t47 8q8 0 22 -0.5t27.5 -4.5t22.5 -12t8 -23q0 -9 -1 -18
t-3 -18q-1 -8 -8 -11t-9 8q2 8 3.5 16.5t0.5 16.5q-2 11 -9 17t-17 8.5t-20.5 2.5t-17.5 -1q-17 -2 -33 -6q-2 -8 -8 -11q-26 -6 -34 -21.5t-4 -33t18 -33.5t33 -23q8 -3 15 -3.5t15 -2.5l6 -3q23 0 46 3t44 10q17 5 43.5 19t55.5 33q14 13 26.5 23.5t26.5 18.5q12 7 24 12
q28 21 50 40.5t33 33.5q2 2 3 2.5t2 1.5q2 4 5 7t5 7q7 7 11 3t2 -12q-10 -14 -19 -29.5t-18 -32.5q2 -3 -0.5 -8t-7.5 -8h-1q-38 -73 -70.5 -161t-56.5 -179t-36.5 -178.5t-8.5 -159.5q3 -57 18.5 -97.5t40 -59t57.5 -11.5t72 46q8 8 12.5 2t-1.5 -14q-9 -9 -26.5 -23
t-37.5 -24t-40 -12t-33 13q-7 8 -16 15.5t-17.5 15t-15 15.5t-8.5 19q-5 28 -14 55.5t-8 56.5q2 35 3 69.5t5 69.5q7 63 21 129q-27 -6 -65 -22t-76 -38t-69.5 -46.5t-44.5 -48.5q-5 -7 -11 -5l-28 -34t-29 -33q-18 -20 -38 -34.5t-40 -27.5t-41.5 -25.5t-42.5 -27.5
q-8 -5 -10.5 -1.5t-0.5 8.5q-11 -5 -23 -9t-24 -10q-5 -2 -6.5 0t-1 5.5t3.5 7t6 5.5q17 8 35.5 13.5t33.5 17.5q22 17 46 45.5t47 59.5q-67 -42 -135 -81.5t-141 -74.5q-17 -8 -37 -15t-41.5 -13t-42.5 -10.5t-39 -7.5q-22 -3 -44 -5t-45 0q-3 1 -9 1q-3 -3 -8 -3
q-5 2 -9.5 2.5t-9.5 1.5q-14 1 -27.5 2t-27.5 4q-2 1 -2.5 1t-2.5 1q-5 -3 -9 2q-54 16 -77 35t-24 44q-25 1 -48 4t-41 8q-33 11 -68.5 18.5t-67.5 21.5q-13 8 -25.5 15.5t-25.5 15.5q-1 1 -1 1.5t-1 1.5q-21 19 -48.5 42.5t-51 50.5t-37 59t-6.5 70q6 32 9.5 64t15.5 61
q5 11 11 22.5t12 22.5v4zM846 310q-21 -10 -48 -24t-58 -32t-64 -39t-64 -44q2 -6 -6 -12q-13 -6 -20.5 -16.5t-13.5 -23t-12.5 -25.5t-15.5 -23q-11 -26 -19 -54.5t-9 -54.5q56 3 114.5 12t113.5 23.5t104 32.5t86 39q15 8 35 22t42 32q0 2 2 8q45 51 62 102.5t19 116.5
q-3 9 -8 14q-26 9 -62.5 4t-72 -16.5t-64.5 -24t-41 -17.5zM1512 479q-34 -50 -66 -103t-66 -107q-12 -25 -27.5 -47.5t-33.5 -44.5v-1q24 19 53 36t58.5 31.5t56.5 24.5t48 15h2q22 100 55 198t79 188q-1 0 -1 -0.5t-1 -0.5q-7 -6 -15.5 -14t-16.5 -18q-2 -3 -8 -9
q-20 -22 -40 -47t-37 -47t-28 -37.5t-12 -16.5zM1684 695l2 1v1z" />
    <glyph glyph-name="a" unicode="a" 
d="M174 316q3 2 7 2q10 4 21.5 0.5t22.5 -11t20 -17.5t12 -17q5 -10 5 -21q1 1 1.5 2t1.5 2q12 16 23 27t22 16t25 3.5t32 -10.5q7 -3 11.5 -10.5t6.5 -15.5q8 -1 7 -9t-8 -10t-14.5 -3.5t-13.5 -6.5q-14 -10 -27.5 -32.5t-24 -49.5t-15.5 -54.5t-1 -46.5q6 4 10 -3
q0 -1 2 -3l4 2q4 0 6 -1q4 1 6 -1q15 4 36.5 16t42.5 27t37.5 30.5t20.5 24.5q5 10 11.5 6.5t3.5 -12.5q-5 -11 -23.5 -29t-42.5 -36t-49.5 -32t-43.5 -15q-21 -17 -40.5 -27.5t-36 -11t-28.5 9.5t-19 34q-4 -7 -10 -7q-7 -6 -14.5 -11t-16.5 -8q-12 -4 -24.5 -7.5
t-25.5 -7.5q-11 -3 -25 1t-22 12q-41 41 -47 82.5t17 99.5q8 18 19 32t25 25q5 11 11 20.5t17 17.5q20 14 42.5 18t42.5 16zM171 46q10 48 29.5 96t46.5 90q0 1 -0.5 1.5t-0.5 2.5q-1 15 -4.5 26t-27.5 27q-5 5 -13.5 9t-16.5 2q-6 -2 -10 -4q1 0 1 -0.5t1 -0.5q3 -1 5 -6
q0 -12 -7 -22.5t-17 -19.5t-20.5 -17.5t-16.5 -17.5q-20 -27 -33.5 -60.5t-18.5 -66.5q0 -4 -1 -13t-1 -19t1 -18.5t6 -10.5q6 -4 4 -11q14 -3 30 -0.5t35 13.5q14 9 29 20z" />
    <glyph glyph-name="c" unicode="c" horiz-adv-x="256" 
d="M209 293q2 -2 4 -6q15 -5 21 -20q-1 -6 -6.5 -10.5t-9.5 4.5q-3 6 -13 8q-2 -2 -4 -2q-17 -3 -27.5 -4.5t-19 -4.5t-17 -9.5t-20.5 -19.5q-13 -14 -26.5 -42t-21.5 -59.5t-6.5 -60.5t18.5 -44q1 -3 1 -9q15 -3 37 2t47.5 18t52.5 34.5t52 51.5q8 3 13 0.5t0 -10.5
q-39 -39 -79 -66.5t-74.5 -39.5t-62.5 -8t-43 27q-17 27 -23 60.5t-0.5 67.5t21 64t41.5 51q9 7 21 11.5t22 8.5q11 5 21 13t23 8q15 0 29.5 -5.5t28.5 -8.5z" />
    <glyph glyph-name="b" unicode="b" horiz-adv-x="328" 
d="M121 205q-5 -5 -7 -5q-9 -32 -18.5 -67.5t-25 -67t-40.5 -53t-65 -24.5q-4 0 -7 3l-9 -3q-4 0 -5 1l-2 2q-6 6 -2 13.5t11 3.5q19 7 34.5 37.5t27.5 67t21.5 72t16.5 53.5q11 26 19.5 52t17.5 52q1 4 -1 -2.5t-5 -16t-5.5 -16.5t-0.5 -2q20 59 40.5 122.5t41.5 123.5
q12 33 19 54t14.5 37.5t18.5 32t31 38.5q24 28 40 42.5t36 12.5q21 -3 43 -17q7 -6 13 -14t11 -16q-1 -1 -3 -1q15 -34 2.5 -79.5t-38 -92.5t-56.5 -91.5t-53 -76.5q-14 -21 -34.5 -47.5t-38.5 -46.5l-22 -35q5 4 7 7t4 5l4.5 4.5t7.5 5.5l33 12q38 11 66.5 -9t33.5 -58
q1 -21 0 -42q5 3 14 6.5t18.5 8t19 9.5t15.5 11q8 5 11 -1.5t-2 -12.5q-8 -8 -18.5 -14t-22 -11.5t-21.5 -9.5t-17 -7q-5 -23 -11 -45.5t-13 -42.5q-9 -29 -17 -47t-18.5 -28t-27 -13.5t-43.5 -3.5q-8 0 -17 0.5t-18 2.5q-8 2 -14.5 7.5t-12.5 13.5q-5 -2 -8.5 0t-0.5 10
q0 1 0.5 1t0.5 1q-5 9 -10 17t-11 15q-1 2 -1 8q-1 2 -1 9q1 11 8 20.5t16.5 17.5t20 14.5t18.5 11.5q20 13 38.5 18t37.5 9q2 10 3.5 19t2.5 17q1 10 1.5 22.5t-6.5 21.5q-4 5 -13 15.5t-10 18.5q-16 -12 -26.5 -19.5t-17.5 -13.5t-12 -12t-11 -15zM155 304q-5 -16 -10 -29
q2 2 2.5 4t1.5 3q8 10 12 16.5t7 12t7 11.5t11 17q20 29 44 61.5t47.5 68t44.5 73t36 75.5q2 5 6 16.5t7.5 24t4.5 24.5t-4 18q-11 14 -16 19.5t-8 8t-7 4.5t-13 8q-17 -14 -31 -37t-25.5 -48.5t-20.5 -50.5t-16 -43q-9 -29 -16.5 -59.5t-19.5 -59.5q-6 -16 -16 -31.5
t-15 -32.5q-5 -18 -6.5 -37t-6.5 -37zM107 28q5 -8 9.5 -15t10.5 -12q9 -7 18 -7q0 5 4 9q21 16 35 53.5t22 74.5q-15 -4 -31.5 -9.5t-34.5 -13.5q-5 -2 -13.5 -7.5t-17 -12.5t-15 -14.5t-6.5 -13.5q0 -2 2 -8q2 -2 3 -3.5t3 -3.5q4 -5 7 -8.5t4 -8.5z" />
    <glyph glyph-name="d" unicode="d" horiz-adv-x="375" 
d="M514 768q21 -3 43 -17q7 -6 13 -14t11 -16q-1 -1 -3 -1q15 -34 8 -76.5t-26.5 -86t-45.5 -85t-48 -73.5q-7 -11 -17 -26t-21.5 -31t-22.5 -30.5t-20 -24.5q-7 -7 -15.5 -18.5t-17 -24.5t-16.5 -24.5t-14 -18.5q-4 -4 -7 -6t-5 -4q-4 -5 -13.5 -22t-19.5 -38t-18 -42.5
t-7.5 -35.5t12 -17t40.5 13q2 2 3 1l15.5 15.5l19 19l17 17t9.5 10.5q5 6 11.5 14.5t14.5 8.5q8 -2 7 -9.5t-8 -9.5q-19 -20 -35 -41.5t-39 -37.5q-12 -20 -36 -31.5t-47 -12t-40 11t-15 37.5q-17 -13 -40 -27t-45.5 -22t-42.5 -8t-32 16q-11 16 -20 30t-9 34q-3 21 -2.5 34
t4 24t9.5 24.5t14 34.5q14 34 30 57.5t45 44.5q25 18 49.5 21t45.5 -5.5t36.5 -26.5t21.5 -43q1 2 1.5 4t1.5 4q11 26 19.5 52t17.5 52q1 4 -1 -2.5t-5 -16t-5.5 -16.5t-0.5 -2q20 59 40.5 122.5t41.5 123.5q12 33 19 54t14.5 37.5t18.5 32t31 38.5q24 28 40 42.5t36 12.5z
M352 304q-1 -4 -6 -16t-10.5 -25.5t-11 -25.5t-6.5 -16q2 2 2.5 4t1.5 3q8 10 20.5 28t26.5 37.5t26.5 37t20.5 27.5q22 29 44.5 60.5t42.5 65t36.5 68.5t26.5 70q1 5 3.5 15.5t4 22.5t1 23t-5.5 17q-11 14 -16 19.5t-8 8t-7 4.5t-13 8q-17 -14 -31 -37t-25.5 -48.5
t-20.5 -50.5t-16 -43q-9 -29 -16.5 -59.5t-19.5 -59.5q-6 -16 -16 -31.5t-15 -32.5q-5 -18 -6.5 -37t-6.5 -37zM197 76q11 27 19.5 57.5t16.5 56.5q-1 1 -1 4q0 4 1 14t-1 16q-3 13 -15 26.5t-28 24.5q-4 -3 -10 0q-16 -5 -31.5 -22.5t-29.5 -42t-25.5 -53.5t-18.5 -56.5
t-9 -51t3 -37.5q2 0 2.5 -0.5t1.5 -0.5l3 -3q17 1 44 14q22 11 41 25t37 29z" />
    <glyph glyph-name="e" unicode="e" horiz-adv-x="284" 
d="M195 300q11 1 9 -9q26 -7 39.5 -26t-2.5 -49q-6 -11 -17 -13.5t-21 -7.5q-34 -17 -63.5 -42.5t-61.5 -47.5q-5 -5 -8 -5q-1 -5 -1.5 -10t-0.5 -10l-1.5 -18t0 -10.5t2.5 -9t5 -13.5q5 -2 9 -4t9 -4q3 -3 4 -5q28 -3 50 0q14 2 24 4t23 9q17 8 28 22t25 25
q16 11 33.5 17.5t32.5 16.5q2 1 6 5q2 -1 4 -1t4 -1t3 -2t3 -2v-1q-1 -1 -1 -2t-1 -2q-2 -3 -5.5 -5.5t-6.5 -4.5q-15 -11 -32 -17t-33 -17q-10 -6 -18 -15.5t-16 -18.5t-20.5 -15.5t-26.5 -10t-28 -4.5t-26 0q-26 2 -43 6t-29 12.5t-19.5 23t-14.5 37.5q-7 26 -10 45.5
t-0.5 36.5t11.5 34.5t25 40.5q19 26 51 44.5t64 20.5h3q11 5 21 6t18 -3zM154 278q-15 -11 -28 -32t-23 -44.5t-17 -45t-10 -31.5q11 10 29 23.5t36.5 27t34.5 24t23 13.5q7 4 15.5 5t13.5 7q10 13 6 23t-14.5 16t-24 9t-22.5 3q-4 0 -5 1q-10 0 -14 1z" />
    <glyph glyph-name="f" unicode="f" horiz-adv-x="213" 
d="M-90 -232q-2 0 -2.5 -0.5t-1.5 -0.5q-5 -4 -9 -7t-9 -6l-3 3q-8 -5 -17.5 -9t-20.5 -2q-14 3 -15.5 16.5t3 29t11 30t9.5 20.5q1 2 1 0.5t-1 -3.5q10 24 17.5 48.5t20.5 45.5q20 34 42.5 66t45.5 64q17 24 30 40q13 45 28 98t33 108.5t38.5 110t44 102.5t50 87t57.5 63
q14 11 32 16.5t36 9.5q4 2 5 2h1q7 2 13 3.5t12 3.5h3q2 -1 4.5 -1.5t4.5 -1.5q17 3 34 -1q9 -2 14.5 -10.5t9.5 -16.5q13 -24 8.5 -52t-17.5 -55t-30 -51.5t-30 -40.5l-18 -22t-19 -22q-8 -10 -17 -20t-18 -21q-13 -14 -31 -33.5t-32 -34.5q-8 -8 -15 -16t-17 -14
q-6 -4 -14.5 -7.5t-16 -7t-14 -9t-7.5 -13.5q-3 -8 -9 -8q-1 -2 -1 -3.5t-1 -3.5l3 3q5 3 8 2q8 -5 20.5 -10.5t20.5 -11.5q9 -7 15.5 -7t11 2t8 5.5t7.5 3.5q5 1 7.5 -1.5t2.5 -6t-2 -7t-6 -4.5q-9 -2 -14 -6.5t-13 -5.5t-22 5t-40 24q-5 -4 -8.5 -7.5l-8.5 -8.5
q-7 -24 -16 -55t-17.5 -60t-15 -52t-9.5 -30q-6 -17 -15.5 -46.5t-21.5 -60.5t-26 -59.5t-30 -44.5q-12 -12 -28.5 -19t-32.5 -16zM340 675q-36 -24 -64.5 -67.5t-52 -96.5t-42.5 -111t-35 -112q15 12 34.5 21.5t35.5 26.5q23 24 52 54t57.5 62.5t52 66t35.5 63.5
q4 10 6.5 25t2 31t-5.5 29t-17 18q-10 5 -20 3.5t-20 -3.5q-5 -2 -10 -4.5t-9 -5.5zM-11 31q2 7 4.5 15t4.5 16q-26 -33 -49 -67.5t-43 -70.5q-11 -19 -17.5 -39t-14.5 -40q-7 -17 -15 -32t-11 -33q1 -10 6.5 -12.5t13 0t15.5 7.5l16 10q14 18 28 52.5t26 72t21 71t15 50.5z
" />
    <glyph glyph-name="g" unicode="g" horiz-adv-x="320" 
d="M237 35q-5 -7 -10 -5q-4 -13 -6.5 -26t-5.5 -27q-6 -29 -15.5 -73t-26 -87t-41.5 -76t-64 -40q-17 -3 -35 -6t-35 -6q-3 0 -5 1q-7 -2 -8.5 2.5t0.5 9.5q-8 2 -14 6q-9 7 -12 17.5t-1.5 21.5t5.5 21.5t9 17.5q8 11 15 22t15 22q6 7 25 27t39.5 41t37 38.5t16.5 20.5
q2 6 6 9t7 0l12 57q-23 -13 -53 -14t-56 9.5t-41.5 31t-7.5 51.5q7 26 14.5 52t18.5 50t26 45.5t38 39.5q13 10 30 9.5t34 -8t31 -20.5t20 -28q12 28 31 48.5t48 17.5q15 -1 29 -7.5t28 -9.5q10 -2 7 -10.5t-11 -8.5q-2 0 -3 0.5t-2 0.5q-1 -6 -6.5 -10.5t-9.5 4.5
q-1 8 -9 4q-4 -2 -9 -6q-23 -32 -31 -72t-16 -76l-5 -27.5t-5 -30.5q12 18 23 38t23.5 38.5t27 33.5t34.5 22q10 1 9.5 -7.5t-7.5 -11.5q-17 -6 -32 -23t-28.5 -38t-25.5 -42t-24 -36zM173 154q3 11 7 26.5t9 32.5q-3 3 -3 7q0 12 -7 22t-18 18h-1q-6 -2 -12 -3t-11 -5
q-14 -11 -29 -40.5t-25 -63.5t-11 -65.5t13 -44.5q4 -8 -1 -14q18 -1 35 4.5t30 18.5q6 32 12 59.5t12 47.5zM38 -272q15 13 28 35t23.5 49.5t19.5 58.5t17 64q-15 -21 -43.5 -45.5t-55 -52t-42 -56t-3.5 -56.5q10 -2 19 -3.5t18 -3.5q10 3 19 10z" />
    <glyph glyph-name="h" unicode="h" horiz-adv-x="359" 
d="M117 230q-3 -8 -9 -8t-8 8l1 2h-1q-1 -2 -1.5 -2.5t-1.5 -2.5q-4 -16 -4 -17q-10 -31 -22 -68.5t-30.5 -70.5t-45.5 -57.5t-66 -30.5q-4 0 -6 2q-11 -3 -22.5 -4t-18.5 2q-8 5 -4.5 13t11.5 6q4 -2 10 -2t12 1q-2 3 2 9q8 8 14.5 8.5t13.5 5.5q8 7 11.5 19t12.5 18
q3 11 7 20.5t6 11.5q8 9 9 21.5t3 23.5q5 16 14 31t14 30q9 25 14.5 50t12.5 50q12 45 30 92t40 93t47 89.5t51 81.5q7 10 20 26t30 32.5t36.5 31.5t39 24t38 10.5t34.5 -9.5q5 -4 4 -9.5t-5 -8.5q9 -16 2 -43t-19.5 -54t-25.5 -48.5t-17 -26.5q-16 -24 -41 -59t-51.5 -70.5
t-49.5 -66t-34 -45.5q-13 -17 -24.5 -33t-22.5 -33q13 12 27.5 20.5t30 11.5t30.5 -1t30 -18q12 -11 13.5 -41.5t0 -67t-1 -73t11.5 -60.5q3 -1 6.5 -2t6.5 -2q17 11 29.5 25.5t23.5 30t21.5 31.5t24.5 31q8 8 12.5 2t-1.5 -14q-5 -5 -13.5 -17.5t-20 -29t-23.5 -33
t-24 -28.5q-6 -11 -13 -20.5t-18 -17.5q-6 -5 -21.5 -4t-32 5.5t-29.5 12.5t-16 17q-6 22 -5.5 44.5t2.5 44.5t4.5 44t1.5 45q-1 26 -11.5 33.5t-23 5.5t-22.5 -8.5t-10 -9.5zM381 749q-8 3 -6 11q-11 0 -24 -5t-26 -13q3 -2 3 -7.5t-5 -9.5q-24 -18 -39.5 -41t-26.5 -49
t-20.5 -53t-20.5 -54q-21 -48 -42 -94.5t-40 -95.5v-1q0 -1 -1 -2t-1 -3v-2q-3 -8 -6.5 -18.5t-7.5 -21.5q11 14 21.5 28.5t21.5 29.5q11 16 34 46.5t49.5 65.5t51.5 70t41 59q11 16 20.5 31.5t17.5 31.5l4.5 14t9.5 30.5t8 31t1 16.5q-3 5 -7.5 5h-9.5z" />
    <glyph glyph-name="i" unicode="i" horiz-adv-x="191" 
d="M164 267q-1 0 -2 1q-25 -10 -39.5 -35t-23.5 -55.5t-15.5 -62t-16.5 -54.5q-7 -17 -17.5 -26.5t-23.5 -21.5q-2 -3 -11 -12t-16 -11q-16 -4 -31 3t-32 9q-2 1 -4 3q-9 1 -16 10q-2 7 1.5 13t10.5 1q9 -11 20 -4t21 20.5t17 27.5l8 16q9 26 14.5 52.5t12 52t16.5 49.5
t28 45q5 6 19 10t30.5 5t32 -2.5t23.5 -12.5q1 -1 2.5 -1.5t1.5 -2.5q10 -3 19 -12t17 -19.5t14 -21.5t11 -19q4 -7 -1 -12t-12 0q-11 20 -25.5 41.5t-32.5 25.5zM156 502q1 0 1 -0.5t1 -0.5q38 1 45.5 -17t-19.5 -52q-3 -5 -8.5 -8.5t-11.5 -4.5q-18 -2 -28 7.5t-13 22.5
t1 27t15 21q2 2 3 2t3 1h2q4 2 9 2z" />
    <glyph glyph-name="j" unicode="j" horiz-adv-x="174" 
d="M168 298q0 -2 -0.5 -2.5t-0.5 -1.5q0 -8 -5 -12q-17 -12 -28 -31t-19 -41t-14 -44.5t-12 -41.5l-2 -6t-2 -7q27 20 54 38.5t55 35.5q9 6 11 -2.5t-5 -13.5q-29 -18 -60 -38.5t-61 -43.5q-10 -36 -24.5 -85.5t-33.5 -97t-42.5 -86.5t-51.5 -55q-16 -9 -34.5 -14.5
t-35.5 -11.5q-1 -1 -3 -1q-2 -1 -5 -1q-22 3 -29 17t-4.5 33t12 41t22 41.5t24 34.5t18.5 21q10 8 16.5 18.5t12.5 21.5t13 21.5t16 18.5t17.5 15.5t18.5 15.5q7 21 13 40.5t13 38.5v1q11 32 22.5 61.5t29.5 55.5q-26 0 -47.5 5.5t-35.5 0.5q-4 -6 -8 -5q0 -2 -2 -2
q5 -5 1.5 -11t-10.5 -6q-14 5 -10.5 14.5t14.5 17.5q0 3 1 6t2 7q9 27 25.5 34t37 5t42 -8t40.5 -6h3l6 4t7 4q8 5 13.5 10t13.5 7q7 1 10 -7q1 -1 1 -3zM-136 -235q37 46 63.5 110.5t48.5 129.5q-5 -4 -9 -7.5t-8 -8.5q-15 -14 -24.5 -33.5t-23.5 -36.5q-4 -5 -9.5 -9
t-10.5 -9q-11 -11 -23 -29t-21.5 -37.5t-13 -37.5t2.5 -28l3 -6h1h10t10 1q1 0 2 0.5t2 0.5zM176 502q4 -1 5 -4q22 -7 26 -20.5t-2 -27t-17 -23t-19 -9.5q-14 1 -24 11t-12.5 23.5t3.5 26.5t25 19q1 2 6 4q2 -1 4 -1t2.5 0.5t2.5 0.5z" />
    <glyph glyph-name="k" unicode="k" horiz-adv-x="336" 
d="M103 143q-1 0 -1 1q-6 1 -11 5q-8 -28 -18 -56t-25.5 -50.5t-38 -37t-54.5 -17.5q-4 0 -7 3l-9 -3q-4 0 -5 1l-2 2q-6 6 -2 13.5t11 3.5q19 7 34.5 37.5t27.5 67t21.5 72t16.5 53.5q11 26 19.5 52t17.5 52q1 4 -1 -2.5t-5 -16t-5.5 -16.5t-0.5 -2q20 59 40.5 122.5
t41.5 123.5q12 33 19 54t14.5 37.5t18.5 32t31 38.5q24 28 40 42.5t36 12.5q21 -3 43 -17q7 -6 13 -14t11 -16q-1 -1 -3 -1q15 -34 8 -76.5t-26.5 -86t-45.5 -85t-48 -73.5q-14 -21 -34.5 -47.5t-38.5 -46.5q-13 -14 -23.5 -24t-21.5 -23q10 8 17 13q22 15 43 24.5t47 12.5
q10 1 16.5 -3.5t11 -11.5t7.5 -15.5t5 -15.5q2 -5 5.5 -8.5t3.5 -8.5q1 -10 -4.5 -20.5t-14.5 -20.5t-19 -18t-18 -12q-21 -13 -48 -19q2 -1 4 -1.5t4 -1.5q9 -4 14.5 -14.5t9 -22.5t6.5 -24.5t6 -19.5q2 -4 4 -7.5t4 -7.5q6 -10 11 -25.5t16 -20.5q6 5 12.5 7t12.5 6
q9 6 17 19t15 28t13 30t12 24q7 7 11 3t2 -12q-8 -12 -14 -25.5t-12 -27.5t-13.5 -27t-17.5 -23q-4 -4 -14 -8q0 -3 -3 -7q-3 -1 -7 -3q-8 -4 -14 -4q0 -4 -3 -8q-2 -2 -4 -3l-4 -2t-4 -1q-42 -6 -69 25q-13 16 -20.5 33.5t-13.5 35t-13.5 35t-19.5 32.5q-2 3 -8 3t-10 3z
M145 304q-5 -16 -10 -29q2 2 2.5 4t1.5 3q16 21 35 38.5t35 37.5q22 29 44.5 60.5t42.5 65t36.5 68.5t26.5 70q1 5 3.5 15.5t4 22.5t1 23t-5.5 17q-11 14 -16 19.5t-8 8t-7 4.5t-13 8q-17 -14 -31 -37t-25.5 -48.5t-20.5 -50.5t-16 -43q-9 -29 -16.5 -59.5t-19.5 -59.5
q-6 -16 -16 -31.5t-15 -32.5q-5 -18 -6.5 -37t-6.5 -37zM180 180q10 3 19 16.5t12 28.5t-2 27.5t-24 12.5q-2 0 -3 1q-27 -19 -51 -44t-32 -41q-1 -3 -3 -11q2 -1 4 -5h15q8 0 16 0.5t16 0.5q1 1 6 1q10 0 21 3q0 6 6 10zM120 244q-2 -2 -2.5 -4.5t-2.5 -5.5q2 3 5 5.5
t5 4.5q-3 -2 -5 0z" />
    <glyph glyph-name="l" unicode="l" horiz-adv-x="190" 
d="M317 768q20 -4 26 -14.5t14 -21.5q10 -10 7.5 -42.5t-15.5 -76t-35 -91.5t-49 -88q-14 -21 -29.5 -48.5t-33.5 -47.5q-7 -7 -14 -18.5t-13.5 -23.5t-13 -23t-12.5 -18q-4 -4 -7 -6t-5 -4q-5 -2 -7 -1q-9 -19 -15 -41q-9 -32 -18 -68t-25 -68t-41.5 -54t-65.5 -25
q-4 0 -7 3l-9 -3q-4 0 -5 1l-2 2q-6 6 -2 13.5t11 3.5q19 7 34.5 37.5t27.5 67t21.5 72t16.5 53.5q11 26 19.5 52t17.5 52q1 4 -1 -2.5t-5 -16t-5.5 -16.5t-0.5 -2q20 59 40.5 122.5t41.5 123.5q12 33 19 54t14.5 37.5t18.5 32t31 38.5q24 28 40 42.5t36 12.5zM155 304
q-5 -16 -10 -29q2 2 2.5 4t1.5 3q16 21 27.5 43.5t27.5 42.5q45 58 83 131t58 144q1 5 3.5 15.5t4 22.5t1 23t-5.5 17q-11 14 -12 16.5t0 1t1 -3t-9 4.5q-17 -14 -31 -37t-25.5 -48.5t-20.5 -50.5t-16 -43q-9 -29 -16.5 -59.5t-19.5 -59.5q-6 -16 -16 -31.5t-15 -32.5
q-5 -18 -6.5 -37t-6.5 -37z" />
    <glyph glyph-name="m" unicode="m" horiz-adv-x="466" 
d="M269 242q-2 -1 -5 -1q-1 -19 -10 -50t-17 -63.5t-10.5 -59.5t9.5 -39l4 2q10 1 10 -7q2 -5 1 -10q-16 -21 -33 -24t-30.5 5.5t-22 26.5t-8.5 40q0 20 9.5 47.5t18.5 56t14 54.5t-3 44q-13 28 -26 26t-26 -21.5t-25 -51.5t-21.5 -64t-16 -57.5t-8.5 -32.5
q-7 -25 -33.5 -42.5t-52.5 -22.5q-9 -1 -19 0.5t-17 -5.5q-4 -1 -7 0q-3 0 -6 3q-1 1 -1 2t-1 2q-3 7 2.5 13.5t10.5 0.5q25 14 38 40t24 49q0 17 4 28.5t11 27.5q8 18 10 31t6 25q0 4 3 9q1 3 5 9q-1 9 -4.5 18.5t-9 15.5t-12.5 6.5t-14 -8.5q-7 -8 -12.5 -3.5t-0.5 12.5
q11 14 21.5 17t19.5 -1.5t15.5 -14t9.5 -21.5q9 12 24 27q11 11 21.5 18t27.5 7q4 0 9 -3q10 3 23 3.5t25.5 -1.5t23.5 -5t18 -6q11 -5 17 -13t9 -18q1 0 1.5 0.5t1.5 0.5h1q11 8 23 15t24 12q18 7 32.5 4.5t30.5 -12.5q24 -14 27 -42.5t-3.5 -61t-16 -64t-10.5 -51.5
q-1 -11 2 -23t10 -21q3 -1 5 -3q2 0 4.5 0.5t4.5 0.5q1 2 7 4q17 2 31 16t24.5 32.5t17.5 38t9 33.5q3 8 11 9.5t6 -9.5q-4 -16 -10 -35t-15.5 -37t-21.5 -33.5t-28 -24.5q0 -10 -8 -13q-10 0 -20 -1.5t-21 0.5q-2 1 -3.5 1t-3.5 1q-8 -1 -16.5 -2.5t-16.5 0.5
q-26 5 -31.5 32t-1.5 60t11.5 64.5t8.5 45.5q1 11 -3.5 17.5t-10.5 14.5q-11 14 -16 18.5t-12 2.5q-2 -2 -4 -2q-5 -3 -12 -9z" />
    <glyph glyph-name="n" unicode="n" horiz-adv-x="357" 
d="M161 252q-11 2 -22.5 -5t-21 -17t-15 -20.5t-5.5 -15.5q-2 -16 -3.5 -32t-5.5 -30q-6 -21 -17 -47.5t-22 -46.5q-5 -9 -13.5 -20.5t-18.5 -17.5t-27 -7t-34 2t-31.5 11t-18.5 20q-2 3 0 5q-2 8 5 12t11 -6q1 -5 7.5 -5.5t13.5 1.5t13 5t8 6q4 8 8 14.5t7 14.5q7 18 12 40
t10.5 44t13 43t18.5 37t25 33t35 20q3 1 10 3t16 3.5t17.5 1t14.5 -3.5q1 -1 2 -1.5t2 -1.5t1 -3q3 -10 -6 -14q0 -2 0.5 -2.5t0.5 -2.5q36 19 66.5 24t44.5 -15q15 -22 15 -46.5t-7 -49t-18 -49t-17.5 -47.5t-5 -43.5t18.5 -37.5q27 1 42.5 8.5t26 20t20 29t24.5 35.5
q7 7 11 3t2 -12q-6 -8 -20 -29t-32 -41t-37.5 -33t-37.5 -4q-12 -1 -23.5 -4.5t-23.5 -1.5q-23 4 -31.5 22t-8.5 43.5t5.5 55.5t11.5 58.5t10 52t0 36.5q-6 2 -12.5 4t-13.5 4z" />
    <glyph glyph-name="o" unicode="o" horiz-adv-x="332" 
d="M254 284q1 -2 1 -6l1 -1q12 -7 18 -13.5t10 -17.5q13 -9 22.5 -15t18 -7.5t17.5 3t23 15.5q8 5 11 -1.5t-2 -12.5q-15 -12 -24.5 -17.5t-18 -5.5t-18 4.5t-23.5 12.5q2 -7 8 -12t5 -13q0 -33 -13 -63t-30 -59q-8 -13 -17.5 -30t-20.5 -28q-6 -5 -19.5 -9.5t-30 -7
t-33 -2.5t-28.5 5h-1q-15 -2 -29.5 4.5t-29.5 10.5q-29 8 -40.5 34.5t-13 58.5t4.5 63t13 49q9 23 24 39.5t32 30.5q5 4 17.5 9t27.5 9t30 4.5t24 -3.5q2 1 6 1q5 -3 10.5 -4.5t10.5 -3.5q11 -2 20.5 -7t22.5 -12q4 5 11 1zM183 289q-7 0 -11 -1q-4 -2 -7 -1
q-30 -16 -51.5 -47.5t-33 -68.5t-11.5 -75t13 -67q0 -1 1 -2q6 -3 12 -3q1 6 6.5 8t9.5 -6q0 -1 2 -3q22 1 40.5 17t33 39.5t23 52.5t11 57t-2.5 52t-18 39q-7 6 -17 9z" />
    <glyph glyph-name="p" unicode="p" horiz-adv-x="347" 
d="M213 20q-6 -7 -12 -5q-23 -11 -46.5 -10t-42.5 15l-3 3q-17 13 -29.5 34t-14.5 49q-11 -34 -20.5 -67.5t-19.5 -65.5t-22.5 -63.5t-28.5 -61.5q-8 -29 -17.5 -55t-35.5 -45q-3 -2 -22.5 -6t-41 -4.5t-38 5t-12.5 20.5l2 4q-3 8 3 14t11 -3q2 -5 17.5 -2t26.5 6
q18 24 29.5 47t19.5 52q5 19 7 28t3.5 15.5t4 15.5t7.5 29q2 9 5.5 21.5t8 25.5t9 24.5t9.5 19.5q8 13 11.5 26.5t9.5 26.5q7 15 14 33.5t9 32.5q5 26 21 44.5t36 35.5l22.5 18t26.5 17.5t28 10t28 -3.5h2l1 1q10 2 10 -5.5t-6 -12.5q-1 0 -3 -2q-2 -1 -4 -1q0 -10 -8 -13
q-14 -5 -24 -12.5t-18 -16.5q16 13 35 22.5t33 18.5q25 16 44 15t32.5 -14t22 -34t12.5 -44q3 -15 -0.5 -31.5t-10.5 -33t-15.5 -32.5t-17.5 -29q23 21 45 43.5t42 45.5q8 8 12.5 2t-1.5 -14q-23 -26 -47.5 -51t-50.5 -48q-8 -6 -17 -11t-17 -11q-2 -2 -5 -4t-5 -4
q-3 -3 -4 -5zM140 48q10 10 22 17.5t22 18.5q21 23 31 54t12 61q0 7 1 17.5t0 21t-5 18.5t-13 10q-1 0 -3 2q-15 -7 -29 -17.5t-22 -15.5t-16.5 -8.5t-14.5 -10.5q-3 -3 -8 -3h-2q-2 1 -4 3q-4 -8 -7.5 -15.5t-7.5 -15.5q-7 -16 -13.5 -31t-11.5 -30q7 3 11 -6
q1 -20 7.5 -37.5t22.5 -32.5l9 -9q5 2 9.5 4.5t9.5 4.5z" />
    <glyph glyph-name="q" unicode="q" horiz-adv-x="367" 
d="M216 -84q-1 -1 -1 -1.5t-1 -1.5q-14 -58 -33 -111t-51 -85q-11 -11 -27 -15.5t-31 -11.5q-9 -4 -9.5 4t4.5 13q-3 4 1 11q7 8 15 15t13 16q7 15 14.5 42t14.5 56t12.5 54.5t7.5 36.5q5 20 8 35.5t6 26.5q-8 -6 -17.5 -11t-20.5 -7q-10 0 -22.5 9.5t-22.5 11.5
q-31 9 -48 21t-24 29t-5.5 40.5t7.5 55.5q7 37 18.5 63.5t29.5 45.5t43 32.5t60 24.5q12 4 23.5 0.5t22 -10t21 -13.5t20.5 -10q3 -3 3 -4q10 12 22.5 20.5t23.5 19.5q4 2 8 1q14 -5 28.5 -11t28.5 -12q6 -4 4 -12q2 -7 -6 -13q-11 -5 -23 -9.5t-20 -13.5
q-11 -12 -20.5 -32.5t-17 -43t-13 -43.5t-9.5 -34q-5 -20 -10 -44t-10 -50q29 48 69.5 88t78.5 79q8 8 12.5 2t-1.5 -14q-25 -26 -53 -53t-52.5 -56t-44 -61.5t-26.5 -69.5zM124 1q9 -2 19.5 6t20.5 17q4 19 6.5 29t6 23t9.5 35.5l18 67.5q6 22 14 43t19 41q-8 2 -15.5 7
t-15.5 10q-2 -3 -4 -3q-10 -2 -20.5 -4t-19.5 -7q-13 -8 -26.5 -25t-24.5 -39.5t-18.5 -48.5t-10 -50.5t0.5 -45.5t14 -34q5 -5 11 -6.5t11 -4.5q4 -4 4 -11h1z" />
    <glyph glyph-name="r" unicode="r" horiz-adv-x="295" 
d="M108 195q-2 -1 -5 -1q-14 -35 -24.5 -74t-26.5 -65q-18 -30 -47.5 -44.5t-64.5 -6.5q-6 2 -12 4.5t-8 10.5q-2 3 0 5q-1 5 2.5 9t9.5 3q14 -10 27 2.5t23 33t17 41.5t9 28q6 19 15 48t23 55t34 43.5t48 13.5q9 -1 16 -5.5t13 -10.5q1 0 1 0.5t1 0.5q6 1 8.5 -2t0.5 -8
q4 -5 9 -6q13 11 26.5 19t29.5 13q6 0 9 -4q5 6 10 2.5t3 -11.5q-8 -23 -10 -42t15 -40q3 -3 7 -8t9 -7h4q18 11 34 24t26 20q9 6 11 -2.5t-5 -13.5t-15.5 -11.5t-19.5 -14.5q0 -9 -8 -12q-6 -2 -11.5 -4.5t-11.5 -4.5q-15 -9 -31 -15t-30 -4.5t-24.5 11.5t-16.5 33
q-3 12 -3.5 24t-2.5 24q-16 -14 -31.5 -28t-32.5 -23zM153 263q-13 -8 -22 -19.5t-17 -25.5q13 8 24.5 18t22.5 21q-6 4 -8 6z" />
    <glyph glyph-name="s" unicode="s" horiz-adv-x="226" 
d="M161 30l-2 -2q-23 -26 -46 -30t-42 2q-1 -1 -4 -1q-17 4 -36 19.5t-31 34.5t-11.5 37t22.5 27q10 2 10 -5.5t-6 -12.5q-2 -1 -3.5 -1.5t-3.5 -1.5q-3 -14 2.5 -27t15.5 -23.5t23 -17.5t25 -10h5q7 -5 13.5 -3.5t11.5 -0.5q1 4 8 6q3 0 6 -0.5t5 3.5q2 3 2.5 5t-0.5 5
t-2 8.5t-2 15.5q-1 17 -8 28t-16.5 19.5t-20.5 16.5t-21 20q-25 20 -33 35.5t1 47.5q4 11 6 21t11 19q7 6 15 11l16 10q5 7 16 13l2 2q5 5 11 3h1q5 6 15 8t20.5 1t20.5 -4t15 -6q28 -16 32.5 -43t-8.5 -53q-5 -6 -11 -4t-4 10q9 19 5.5 37t-14.5 30t-27 16t-31 -4
q-1 -5 -5 -9q-1 0 -1.5 -0.5t-1.5 -0.5q-5 -2 -8 3h-2l-6 -4l-6 -4l-2 -2q0 2 -0.5 0t-1.5 -4q-2 -10 -3 -16.5t-1 -11.5t3 -10t11 -13q17 -17 32.5 -27t28.5 -20.5t23.5 -24.5t18.5 -39q0 -2 0.5 -2.5t0.5 -1.5q9 14 22 37t23 37q7 7 11 3t2 -12q-11 -15 -21.5 -33.5
t-22 -37t-23.5 -36.5t-24 -32z" />
    <glyph glyph-name="t" unicode="t" horiz-adv-x="253" 
d="M175 617q5 7 14.5 17.5t21.5 22t25.5 21.5t26.5 17q1 2 5 6q6 1 18 7.5t24.5 11.5t23 4.5t13.5 -13.5q3 -10 7.5 -19.5t0.5 -19.5q-5 -11 -8.5 -23t-9.5 -23q-8 -15 -17 -28.5t-20 -27.5q-23 -32 -50 -62t-53 -61t-49 -63.5t-37 -69.5q-5 -5 -9 -5q-2 -5 -3 -10t-3 -10
q13 4 28 4t30 -1.5t29 -2.5t25 1q15 3 19.5 7t16.5 15q8 5 10.5 -0.5t-0.5 -11.5q5 -1 5.5 -6t-2.5 -10q-29 -25 -47 -36.5t-35.5 -14.5t-38 -0.5t-53.5 4.5q-11 -51 -18 -99.5t-9 -94.5q5 2 8 -6q0 -3 6 -3l48 15q-1 -2 -1 -5q5 2 9 3t6 2q19 7 40.5 23t41.5 34.5t38.5 37
l32.5 32.5q8 8 12.5 2t-1.5 -14q-9 -9 -17.5 -18.5t-17.5 -19.5q-8 -9 -21 -20t-27.5 -22.5t-28.5 -22t-24 -16.5q-17 -11 -32 -13.5t-33 -9.5q-8 -3 -16.5 -6t-15.5 -3h-1q-17 -5 -28 2t-18.5 21t-11 32.5t-5.5 35t-2 28.5v14q2 29 7.5 58t13.5 58q23 92 61.5 185t95.5 170
zM196 539q-22 -37 -40.5 -79t-33.5 -87q17 28 37.5 54.5t42.5 51.5l44 50t41 51q10 14 19 27.5t17 27.5q5 9 9.5 18.5t6.5 20.5q1 14 -1.5 20.5t-7.5 8.5t-12.5 0t-14.5 -6q-2 -5 -7 -7q-3 -3 -5 -4q-1 0 -2 -0.5t-2 -0.5q-10 -8 -22.5 -26.5t-25 -40.5t-24 -44t-19.5 -35z
" />
    <glyph glyph-name="u" unicode="u" horiz-adv-x="304" 
d="M292 266q-1 -7 -6 -10.5t-9 1.5q-4 -3 -8 -10.5t-7.5 -15t-6 -13.5t-2.5 -7q-9 -20 -19 -42.5t-17.5 -45.5t-11 -46.5t0.5 -46.5q5 -2 8.5 -4t7.5 -4l2 -2q13 6 28.5 23t30 36.5t27 38t20.5 26.5t12.5 2t-1.5 -14q-8 -8 -19 -24.5t-23 -34t-24 -33t-22 -21.5
q-43 -26 -74 -22.5t-40 38.5q-8 -7 -17 -11.5t-19 -8.5q-2 -9 -11 -9q-2 1 -4.5 1t-5.5 1q0 -1 -1 -1q-14 -8 -33 -5t-36.5 13t-28.5 25t-9 32q4 22 11.5 42t15.5 40q5 12 16 32.5t16.5 38.5t0 29t-33.5 3q-6 0 -8 3.5t0 7.5q-2 6 4 12q9 8 27 14t37 6.5t34 -6t17 -22.5
q6 -35 -7.5 -69t-27.5 -66q-5 -13 -13 -32.5t-10 -34.5q-5 -24 5 -32t29 -12q2 4 4 5q14 5 24 9.5t21 13.5v16.5t2 18.5q2 14 5 26.5t6 25.5q6 29 18 53.5t24 50.5q15 31 34.5 46.5t50.5 -0.5q11 -6 15 -20q1 -2 1 -5z" />
    <glyph glyph-name="w" unicode="w" horiz-adv-x="410" 
d="M164 -8q-10 6 -3 15q0 4 3.5 7t8.5 2q2 -1 9 4v22.5t-1.5 24.5t-4 22.5t-6.5 16.5q-8 -27 -16 -46.5t-20.5 -32.5t-32 -21t-50.5 -12q-2 -1 -2.5 -2t-1.5 -1q-5 -3 -8 -2t-4 4l-2 2q-8 -6 -11.5 1t2.5 13l9 9q0 13 -4.5 35t-10.5 48.5t-11.5 54.5t-7.5 53.5t1.5 45.5
t16.5 30q8 6 17.5 8t18.5 6h1q2 1 3.5 2t3.5 2h4q17 9 25 5t9.5 -16t-1.5 -29t-7.5 -34t-8.5 -30.5t-5 -18.5q-1 -3 -5 -7q7 -26 12.5 -45t7.5 -36q11 34 22 67.5t25 65.5q10 24 19 39.5t20 24t27.5 11.5t42.5 3q5 -2 6 -4v-1q17 5 25 -5t21 -24q14 21 29.5 32t29.5 5
q4 -2 5 -3q12 -2 20 -7t15 -12q6 0 8 -3.5t0 -7.5q4 -5 9.5 -13.5t11.5 -17.5t12 -17.5t10 -14.5t-1 -13.5t-12 -0.5q-5 6 -10.5 15t-11.5 18.5t-12 18.5t-10 14q-26 -12 -42.5 -36.5t-27.5 -54.5t-19.5 -61t-17.5 -55q-11 -27 -21 -41.5t-23.5 -20.5t-32 -5.5t-45.5 4.5z
M212 209q-8 -22 -18.5 -41t-17.5 -41q15 -10 19.5 -31t4.5 -44q7 15 11.5 27.5t5.5 13.5q3 7 9.5 24.5t16 41t21.5 48.5t26 47q-17 20 -34 17t-28 -26q-6 -12 -8.5 -18zM65 210q0 -4 2 -10q4 12 9 28t7 29.5t0 23t-12 9.5l-8 -8q-3 -6 -3 -26t5 -46z" />
    <glyph glyph-name="v" unicode="v" horiz-adv-x="278" 
d="M296 245q-17 28 -36 26.5t-32 -26.5q-6 -12 -8.5 -18l-7.5 -18q-8 -22 -18.5 -41t-17.5 -42q-9 -32 -17 -55t-21 -38.5t-33 -25t-54 -13.5q-2 -1 -2.5 -2t-1.5 -1q-5 -3 -8 -2t-4 4l-2 2q-8 -6 -11.5 1t2.5 13l9 9q0 13 -4.5 35t-10.5 48.5t-11.5 54.5t-7.5 53.5
t1.5 45.5t16.5 30q8 6 17.5 8t18.5 6h1q2 1 3.5 2t3.5 2h4q17 9 25 5t9.5 -16t-1.5 -29t-7.5 -34t-8.5 -30.5t-5 -18.5q-1 -3 -5 -7q7 -26 12.5 -45t7.5 -36q11 34 22 67.5t25 65.5q10 24 19 39.5t20 24t27.5 11.5t42.5 3q5 -2 6 -4v-1q9 3 15.5 0.5t12 -7.5t11 -13
t13.5 -15q9 -8 9.5 -21t4.5 -24q-1 -6 -6.5 -10.5t-9.5 4.5q-3 8 -3 17t-5 16zM65 210q0 -4 2 -10q4 12 9 28t7 29.5t0 23t-12 9.5l-8 -8q-3 -6 -3 -26t5 -46z" />
    <glyph glyph-name="x" unicode="x" horiz-adv-x="261" 
d="M35 147q5 25 -3 45t-20 34.5t-23.5 23.5t-12.5 13q17 17 35.5 25.5t35 6.5t29.5 -15t19 -39q13 17 27 28t31 15q13 4 25.5 6.5t25.5 5.5q7 1 9 -3t0 -9q2 1 4.5 2t5.5 2q10 1 9.5 -7.5t-7.5 -11.5q-20 -6 -34.5 -20.5t-26.5 -33t-22 -40.5t-20 -43q1 -1 3 -5
q2 -14 7 -31.5t13.5 -33t20.5 -26t27 -8.5h5q0 -1 -1 -2q6 -1 11 -1t10 5q23 23 43.5 55t25.5 64q3 8 11 9.5t6 -9.5q-3 -14 -11 -35t-19.5 -41t-25.5 -37t-27 -24q-6 -3 -12.5 -2.5t-12.5 -0.5h-1q-2 -1 -2.5 -1.5t-2.5 -1.5q-5 -4 -11 -2q-8 -2 -18 -0.5t-21 4.5
q-19 6 -32.5 17.5t-24.5 27.5q-3 3 -3 9q-3 -3 -5.5 -6t-5.5 -5q-17 -15 -36.5 -25.5t-42.5 -15.5q-5 -1 -15 -0.5t-21 0.5t-21 -1t-14 -5q-6 -2 -8.5 1.5t-0.5 8.5q-2 3 -0.5 8t5.5 8q9 2 18.5 3.5t17.5 6.5q23 14 43.5 43t40.5 64z" />
    <glyph glyph-name="y" unicode="y" horiz-adv-x="339" 
d="M20 257q-6 0 -8 3.5t0 7.5q-2 6 4 12q9 8 27 14t37 6.5t34 -6t17 -22.5q6 -35 -7.5 -69t-27.5 -66q-5 -13 -13 -32.5t-10 -34.5q-2 -14 0 -21.5t7.5 -12t14.5 -7t20 -4.5q9 3 19.5 9.5t22.5 18.5l1 1q9 38 16.5 70t13.5 53q3 10 13.5 32.5t25 44.5t32.5 36t37 7
q11 -4 17.5 -11.5t16.5 -10.5q7 -5 4 -12t-11 -7q-3 0 -5 2q-1 -1 -1 -1.5t-1 -1.5q-6 -8 -12 -4q-16 -11 -20.5 -33t-13.5 -45q-3 -8 -8 -22t-10.5 -31.5t-11.5 -37.5t-12 -39q31 33 61.5 64.5t70.5 55.5q9 6 11 -2.5t-5 -13.5q-44 -27 -77.5 -63t-68.5 -74q-1 -1 -2 -1
q-2 -8 -3.5 -15.5t-3.5 -13.5q-6 -24 -15 -60.5t-24 -71.5t-37.5 -62t-55.5 -33q-12 -2 -24 -3.5t-24 -3.5q-1 -1 -1.5 -1t-1.5 -1q-13 -4 -23 -8.5t-18 -5t-14 5.5t-11 23q-3 9 3 20t11 18q17 25 37 47t40.5 43t41 42.5t38.5 44.5q4 4 6 4l12 48q-21 -18 -47 -22q-4 0 -6 1
q-14 -7 -33 -3.5t-35.5 14t-27 25.5t-8.5 31q4 22 11.5 42t15.5 40q5 12 16 32.5t16.5 38.5t0 29t-33.5 3zM51 -218q23 19 42.5 64t36.5 101q-19 -20 -46.5 -46.5t-51.5 -54t-39.5 -52.5t-9.5 -43q3 -1 10 -1q-1 7 6 13q14 5 27.5 8t24.5 11z" />
    <glyph glyph-name="z" unicode="z" horiz-adv-x="355" 
d="M34 141q-1 -6 -6.5 -10.5t-9.5 4.5q-4 23 -12 44t-14 44q-6 25 -0.5 41t19.5 34q5 8 13.5 12t16.5 9q21 15 43 14.5t43.5 -8t42.5 -18t41 -14.5q16 -3 30 -2.5t27 9.5q8 5 10.5 -1t-1.5 -12h4l1 1q4 11 12 9.5t4 -12.5v-1l4 2q12 3 24.5 6t24.5 6q10 1 9.5 -7.5
t-7.5 -11.5q-12 -2 -24.5 -4t-23.5 -7q-25 -12 -42.5 -33.5t-32 -46.5t-29 -49.5t-32.5 -43.5q-17 -18 -29.5 -30.5t-24.5 -20.5q37 -8 51 -15q15 -7 31.5 -19t33.5 -28l29 29l42.5 42.5t43 42.5t29.5 29q8 8 12.5 2t-1.5 -14l-30.5 -30.5t-43 -42.5t-42.5 -41.5t-28 -28.5
q28 -30 50.5 -67t31 -74t-0.5 -70t-45 -54q-14 -9 -32 -10t-35 -6q-6 0 -8 5q-14 -8 -31 -8t-28 9q-11 8 -17 25.5t-9 37t-2 38t5 27.5q7 16 12 26.5t10.5 19.5t11.5 19t17 24q2 2 3 4t3 4q-14 19 -31.5 37t-35.5 30q-11 8 -24.5 14.5t-24.5 15.5q-13 -3 -28 -6t-35 -6
q-4 0 -5 1q-1 -1 -3 -1q-9 0 -8 7.5t6 11.5q32 6 52 21.5t34 36t26 44.5t29 47q12 17 28 34.5t29 32.5q6 9 15 18q-13 -5 -26 -11t-28 -9q-17 -3 -37 3.5t-39.5 12t-36.5 5t-28 -17.5q0 -3 0.5 -5.5t1.5 -5.5q5 -23 13.5 -44t11.5 -45zM194 -104q-2 2 -3 5t-3 5
q-9 -12 -17.5 -24t-14.5 -23q-8 -14 -17.5 -36t-9.5 -41q0 -3 2.5 -13t6.5 -21.5t8 -21.5t8 -14q10 -9 27.5 -7t23.5 13q5 10 5 22.5t2 23.5q2 13 7 24t6 24q2 23 -8.5 44.5t-22.5 39.5z" />
    <glyph glyph-name="zero" unicode="0" horiz-adv-x="388" 
d="M165 364q25 9 53 10t53 -6.5t44 -24t26 -41.5q5 -19 2.5 -48.5t-11.5 -62t-24 -65t-35 -60t-44.5 -46t-51.5 -21.5q-56 -7 -94 9.5t-58.5 47.5t-22 72t15.5 84t53.5 83t93.5 69zM132 277q-21 -27 -36.5 -67.5t-20 -80.5t5.5 -72t41 -42q37 6 64.5 30.5t46.5 58.5
t29.5 73.5t11.5 74t-7.5 60.5t-26 34t-44.5 -7t-64 -62z" />
    <glyph glyph-name="one" unicode="1" horiz-adv-x="225" 
d="M-86 -15q-8 -3 -9.5 4t3.5 12q18 13 34 20t31 10q5 5 10 14t10 18.5t8.5 18.5t5.5 13q23 48 41.5 96t40.5 96q0 1 4.5 13.5t10.5 23.5q-14 -4 -26 -6.5t-20 -2.5q-10 0 -8.5 9t9.5 10q29 2 54 13.5t49 24.5q4 2 11 9t12 10q-2 5 2 9.5t10 3.5q1 -1 1.5 -1t1.5 -1
q6 -4 3 -13v-1q6 0 4 -9q-3 -10 -3.5 -20.5t-5.5 -20.5q-18 -46 -41.5 -89.5t-43.5 -90.5q-15 -35 -29 -72.5t-36 -68.5q23 -11 47.5 -27.5t54.5 -33.5q7 -5 3 -13.5t-12 -4.5q-24 13 -44.5 27.5t-40 25.5t-38.5 17.5t-40 3.5q-6 -4 -10 -4t-5 1q-11 -3 -23 -8.5t-26 -15.5z
" />
    <glyph glyph-name="two" unicode="2" horiz-adv-x="333" 
d="M171 381q28 -2 56.5 -9t49.5 -22t31 -39.5t1 -61.5q-5 -22 -21 -45t-36.5 -45.5t-42.5 -42t-38 -33.5q-4 -3 -16.5 -11.5t-28 -18.5t-31.5 -19.5t-26 -13.5q40 -18 63 -49.5t41.5 -65.5t39.5 -65.5t57 -50.5q16 -8 29 -2t19 9q10 2 14.5 -1t-1.5 -8q-7 -2 -13 -6.5
t-13 -6.5q-45 -7 -91 4.5t-77 49.5q-14 20 -24 42t-24 42q-6 8 -20 22t-30.5 28t-32 25t-24.5 14q-8 3 -16.5 2t-16.5 -3q-3 -3 -8 -3q-1 1 -3 1q-7 3 -5.5 9t6.5 9q12 1 35 13.5t46.5 27.5t42.5 28.5t25 16.5q25 20 53.5 41t49.5 45t31 51.5t-1 60.5q-8 26 -19.5 39.5
t-34.5 19.5q-40 -2 -65 -12q-19 -8 -35.5 -23.5t-33.5 -26.5q-8 -3 -9.5 4t3.5 12q25 17 47 35t52 24q5 1 8.5 2.5t8 3t11 2.5t17.5 1z" />
    <glyph glyph-name="three" unicode="3" horiz-adv-x="274" 
d="M-174 -209q22 -31 46 -36t46.5 5.5t42.5 31.5t35 43q12 18 26.5 45.5t25.5 58.5t16.5 61.5t0.5 54.5q-4 16 -8 30.5t-4 30.5v3q0 2 2 4l1 1q15 0 33.5 20.5t34 49t24 59t3.5 50.5q-2 9 -9.5 19.5t-17 18.5t-19 14t-15.5 6q-17 -3 -29 -7t-24 -15q-9 0 -8 7.5t6 11.5
q10 7 26.5 14t34.5 10.5t35.5 4t30.5 -5.5q30 -15 47 -39t22.5 -51t-0.5 -56t-20.5 -54t-37 -44.5t-51.5 -28.5q2 -21 7 -41.5t9 -42.5q5 -32 -0.5 -63.5t-18.5 -61t-32 -56.5t-40 -51q-20 -22 -55 -36t-71 -17t-66.5 6t-42.5 32q-12 18 -15.5 33.5t-2.5 31t5 31.5t8 36
q3 8 11 9.5t6 -9.5q-3 -17 -7 -31.5t-5.5 -29t1 -28.5t13.5 -29z" />
    <glyph glyph-name="four" unicode="4" horiz-adv-x="369" 
d="M365 301q10 2 10 -5.5t-6 -12.5q-12 -5 -25 -8.5t-23 -12.5q-19 -18 -34.5 -49t-28.5 -69.5t-24 -81.5t-22 -85t-23 -80t-26 -66q-9 -17 -19.5 -33.5t-24.5 -30.5q-6 -6 -19.5 -13t-30 -11.5t-32.5 -5.5t-26 5q-5 6 -3 12q6 6 14.5 6t20 6.5t26 25.5t31.5 64
q16 40 28 81.5t23.5 82.5t23.5 81.5t27 80.5q-27 -15 -61 -20t-65 -7q-5 0 -17 -3.5t-24 -6.5t-22.5 -4t-12.5 2h-1q14 11 25 31t21.5 44.5t21.5 51t23.5 49.5t28.5 40t37 24q8 3 27 4.5t30 5.5q10 1 9.5 -7.5t-7.5 -11.5q-21 -8 -34.5 -28.5t-23 -45.5t-16.5 -50t-15 -43
q-5 -10 -12.5 -17t-16.5 -13q14 2 25 3t16 2q20 5 36 10.5t33 12.5h4q6 16 13 32.5t16 30t22 23t31 11.5q3 0 13 -1t21.5 -2t21 -1.5t12.5 1.5z" />
    <glyph glyph-name="five" unicode="5" horiz-adv-x="338" 
d="M183 85q-3 36 -20.5 53.5t-41.5 22.5t-50 1.5t-46.5 -9t-31.5 -10t-4 -0.5l2 4t2 3l2 4q3 8 7 21t5 14q6 19 10.5 41.5t10.5 44.5t15 42.5t24 35.5q21 21 47 25t53.5 -0.5t55 -13t52.5 -11.5q13 -1 19 -1.5t10.5 0t9 2.5l13.5 6q2 5 3.5 10.5t3.5 10.5q5 10 11.5 6.5
t3.5 -12.5q-1 -1 -1.5 -6t-2.5 -10v-5q-3 -11 -4.5 -22t-7.5 -21q-14 -26 -46 -32.5t-69 -3.5t-72 9.5t-56 6.5q-20 0 -31.5 -13t-18.5 -31.5t-11.5 -39t-8.5 -34.5q18 9 43.5 12t52.5 0t54 -11t48 -22t33.5 -32.5t12.5 -41.5q-1 -54 -7 -94.5t-20 -76t-37 -69.5t-57 -75
q-22 -27 -60.5 -41.5t-78 -13t-71.5 21.5t-40 64q-5 24 -8.5 47.5t-7.5 47.5q-2 8 5 12t11 -6q5 -23 6.5 -46.5t9.5 -45.5q15 -42 37.5 -55t47.5 -7t49.5 26t42.5 43q22 28 42 60.5t34 68t20.5 73t0.5 73.5z" />
    <glyph glyph-name="six" unicode="6" horiz-adv-x="370" 
d="M526 656q-14 -5 -24 -5t-23 -8q-42 -25 -85 -65t-83.5 -86.5t-77 -95.5t-66.5 -92q22 1 48 -2.5t49.5 -14.5t42 -30t25.5 -49q2 -15 4.5 -30t-1.5 -30q-8 -37 -22 -63t-33 -44.5t-44 -30t-56 -19.5q-7 -5 -14 -4q-5 -1 -9 -1.5t-9 -2.5q-19 -4 -38 2.5t-39 9.5
q-14 3 -24.5 13.5t-22.5 18.5q-10 7 -15.5 21.5t-8.5 30.5t-3 31.5t1 25.5q3 19 11 41t20 43q22 54 59 108t81.5 105t92.5 96t92 81q35 29 76.5 47t87.5 16q15 0 21 -5q6 -2 6 -7l1 -2q3 -7 -5.5 -7.5t-14.5 4.5zM242 271q-44 15 -90 10q-3 -4 -5.5 -7.5t-4.5 -7.5
q-10 -15 -24 -38t-28 -48.5t-25 -51.5t-15 -47q-3 -14 -0.5 -28t4.5 -28q10 -7 23 -11q19 -8 39 -9.5t41 0.5q4 5 10 4q1 -1 1.5 -1t1.5 -1h1q2 3 6.5 6t6.5 5q8 6 12.5 9t8.5 6t7 7.5t8 13.5q23 37 29 82.5t6 87.5q0 11 -4.5 21.5t-7.5 21.5q0 1 -0.5 1.5t-0.5 2.5z" />
    <glyph glyph-name="seven" unicode="7" horiz-adv-x="363" 
d="M-19 259q-3 -8 -9 -8t-8 8q3 11 4.5 22t7.5 20t17 16q6 9 15.5 16t20.5 12.5t21.5 9t18.5 4.5q28 3 51.5 -1t45.5 -9.5t42.5 -11t42 -5t44.5 8.5t49 29q1 1 2 1t2 1q2 4 4 7q10 10 15 -3v-3q-2 -7 -6 -10q-5 -11 -9 -21.5t-9 -20.5q-29 -60 -52.5 -122t-52.5 -123
q-48 -104 -109 -193.5t-139 -172.5q-7 -5 -10.5 -1t-1.5 11q-2 6 1 10q38 43 67 91t52.5 99t43.5 103t41 105q5 12 11 32t13 43.5t15.5 47t18.5 43.5q-11 -6 -22.5 -11t-33.5 -10q-14 -2 -37.5 4.5t-51 13.5t-56 9t-51.5 -10q-4 -7 -5 -15t-3 -16z" />
    <glyph glyph-name="eight" unicode="8" horiz-adv-x="351" 
d="M209 376q34 -6 58.5 -18.5t41.5 -47.5q12 -25 11 -58.5t-13.5 -65t-35 -55.5t-52.5 -30q3 -2 6 -5t6 -5q10 -9 14.5 -24t5 -32.5t-0.5 -33.5t-1 -26q-1 -25 -9 -52t-21 -53t-29.5 -49t-33.5 -40q-11 -11 -25.5 -20t-28.5 -20q-11 -7 -27 -10q-3 -2 -6 -3.5t-5 -3.5
q-8 -3 -10 5q-10 -2 -14 -3q-36 -8 -60.5 5t-39.5 37t-20.5 55t-2.5 61q1 15 5.5 34.5t11 39.5t14.5 38t17 30q19 25 32 42t26.5 29t30 20t41.5 15q-20 13 -32.5 29t-12.5 36q0 27 13 57.5t34 57.5t47.5 46.5t53.5 24.5q5 1 8 -1q1 -2 1.5 -2.5t1.5 -2.5v-1zM-13 -249
q34 -17 82 -3q23 16 39.5 46t28.5 65t20 69.5t14 58.5q4 19 10 44t1 45q-2 5 -4 11.5t-3 13.5q-17 3 -32 9q-9 -3 -18.5 -5t-17.5 -7q-30 -18 -57.5 -57t-47 -85t-29 -93t-1.5 -81q2 -8 6 -15.5t9 -15.5zM148 128q4 -2 7.5 -2.5t7.5 -2.5l3 3q23 5 38.5 20t25.5 35t15 42.5
t8 43.5q2 12 1 17t3 13q0 14 -10.5 27.5t-15.5 27.5q-6 2 -13 3t-14 3q-2 -4 -4 -5q-5 -2 -9.5 -3.5t-8.5 -5.5q-12 -11 -24.5 -41.5t-19.5 -64.5t-6.5 -64t15.5 -42q0 -1 0.5 -2t0.5 -2z" />
    <glyph glyph-name="nine" unicode="9" horiz-adv-x="403" 
d="M260 386q57 -9 85 -37t34 -69t-6.5 -91.5t-36.5 -104t-55 -106.5t-63 -99t-60.5 -81.5t-46.5 -54.5q-3 -3 -8.5 -9.5t-13 -14t-15 -14t-14.5 -10.5q-32 -17 -70 -27q-8 -5 -20.5 -8t-22.5 -7q-6 0 -8 6q-5 2 -4 8.5t6 9.5q31 7 56 24.5t45.5 41t38 50.5t33.5 52
q12 19 28.5 50.5t34 66t33.5 67t28 52.5q-20 -10 -41.5 -13.5t-44.5 1.5q-25 5 -47 21.5t-38.5 39t-25 49t-6.5 52.5q6 86 63 128.5t162 26.5zM298 352q-41 25 -78.5 16.5t-66 -35t-46 -65.5t-19.5 -76.5t14.5 -67t55.5 -36.5q25 -5 50.5 3.5t50.5 25.5q11 19 22.5 51t18 66
t7.5 66t-9 52z" />
    <glyph glyph-name="slash" unicode="/" horiz-adv-x="591" 
d="M679 676q9 -2 7 -9t-8 -10q-16 0 -32 3t-31 -4q-22 -9 -46 -30.5t-47.5 -47t-43 -50t-32.5 -39.5q-29 -36 -53.5 -69t-48 -65.5t-48 -66t-52.5 -70.5q-26 -33 -50.5 -67t-54.5 -65q-24 -26 -48.5 -50.5t-49.5 -50.5q-9 -10 -28 -16.5t-41 -12.5t-42 -11.5t-32 -12.5
q-3 -2 -5 0q-1 -1 -1.5 -1t-1.5 -1q-8 -3 -9.5 4t3.5 12q22 14 45 26t43 29q58 48 110.5 110.5t102 130t96.5 135t94 126.5q11 13 32 39.5t46.5 53.5t51.5 50t47 31q16 6 33 3.5t34 -2.5q1 0 1 -0.5t1 -0.5q14 3 29 1t29 -2z" />
    <glyph glyph-name="ring" unicode="&#x2da;" horiz-adv-x="59" 
d="M213 514q5 -1 7 -6q5 2 11 2h14q29 -1 37 -21.5t2 -46t-22.5 -48t-37.5 -26.5q-17 -3 -26 -2q-3 -2 -6 0q-30 4 -38 26.5t-1.5 48.5t23.5 48t37 25zM239 483q-6 -5 -10 -2q-8 -7 -14 -19.5t-9.5 -26.5t-4.5 -27t1 -22q15 -1 30.5 7.5t26.5 28.5q6 12 9 24q1 8 1.5 13
t0 8.5t-2 7.5t-3.5 10q-10 4 -20 6l-2 -4t-3 -4z" />
    <glyph glyph-name="breve.001" horiz-adv-x="134" 
d="M166 386q-3 0 -4 1h-1q-2 0 -2 1q-21 8 -24 30.5t8 39.5q-1 1 -1 4q0 6 4.5 12t11 10t13 4.5t11.5 -5.5t5.5 -13.5t-1 -16.5t-2.5 -17.5t1 -15.5q1 -2 2 -3.5t2 -3.5q7 5 10 -5q24 9 39 23t36 32q8 5 11 -1.5t-2 -12.5q-11 -9 -24 -21.5t-28 -23t-31.5 -16t-33.5 -2.5z
" />
    <glyph glyph-name="aring" unicode="&#xe5;" 
d="M174 316q3 2 7 2q10 4 21.5 0.5t22.5 -11t20 -17.5t12 -17q5 -10 5 -21q1 1 1.5 2t1.5 2q12 16 23 27t22 16t25 3.5t32 -10.5q7 -3 11.5 -10.5t6.5 -15.5q8 -1 7 -9t-8 -10t-14.5 -3.5t-13.5 -6.5q-14 -10 -27.5 -32.5t-24 -49.5t-15.5 -54.5t-1 -46.5q6 4 10 -3
q0 -1 2 -3l4 2q4 0 6 -1q4 1 6 -1q15 4 36.5 16t42.5 27t37.5 30.5t20.5 24.5q5 10 11.5 6.5t3.5 -12.5q-5 -11 -23.5 -29t-42.5 -36t-49.5 -32t-43.5 -15q-21 -17 -40.5 -27.5t-36 -11t-28.5 9.5t-19 34q-4 -7 -10 -7q-7 -6 -14.5 -11t-16.5 -8q-12 -4 -24.5 -7.5
t-25.5 -7.5q-11 -3 -25 1t-22 12q-41 41 -47 82.5t17 99.5q8 18 19 32t25 25q5 11 11 20.5t17 17.5q20 14 42.5 18t42.5 16zM171 46q10 48 29.5 96t46.5 90q0 1 -0.5 1.5t-0.5 2.5q-1 15 -4.5 26t-27.5 27q-5 5 -13.5 9t-16.5 2q-6 -2 -10 -4q1 0 1 -0.5t1 -0.5q3 -1 5 -6
q0 -12 -7 -22.5t-17 -19.5t-20.5 -17.5t-16.5 -17.5q-20 -27 -33.5 -60.5t-18.5 -66.5q0 -4 -1 -13t-1 -19t1 -18.5t6 -10.5q6 -4 4 -11q14 -3 30 -0.5t35 13.5q14 9 29 20zM350 514q5 -1 7 -6q5 2 11 2h14q29 -1 37 -21.5t2 -46t-22.5 -48t-37.5 -26.5q-17 -3 -26 -2
q-3 -2 -6 0q-30 4 -38 26.5t-1.5 48.5t23.5 48t37 25zM376 483q-6 -5 -10 -2q-8 -7 -14 -19.5t-9.5 -26.5t-4.5 -27t1 -22q15 -1 30.5 7.5t26.5 28.5q6 12 9 24q1 8 1.5 13t0 8.5t-2 7.5t-3.5 10q-10 4 -20 6l-2 -4t-3 -4z" />
    <glyph glyph-name="dotaccent" unicode="&#x2d9;" horiz-adv-x="98" 
d="M205 427q-1 6 4 11q6 10 19 17q10 9 24 7q13 1 23 -4.5t12 -19.5q1 -1 2 -1q3 -3 2 -8q-2 -8 -6 -15q-2 -2 -2.5 -3.5t-2.5 -3.5q-9 -17 -24 -20q-12 -6 -24.5 -6t-20.5 12q-5 7 -2 17q-5 7 -4 16v1v0z" />
    <glyph glyph-name="acute.001" horiz-adv-x="76" 
d="M286 442q-8 -6 -12 0q-6 -5 -10.5 -0.5t0.5 12.5q12 16 29 26.5t35 20t35.5 19t30.5 24.5q8 8 12 1q5 5 12 5h15l1 -1q5 2 7.5 -2t0.5 -10q-10 -24 -30 -35.5t-43 -19t-45.5 -16t-37.5 -24.5z" />
    <glyph glyph-name="oacute.001" horiz-adv-x="332" 
d="M254 284q1 -2 1 -6l1 -1q12 -7 18 -13.5t10 -17.5q13 -9 22.5 -15t18 -7.5t17.5 3t23 15.5q8 5 11 -1.5t-2 -12.5q-15 -12 -24.5 -17.5t-18 -5.5t-18 4.5t-23.5 12.5q2 -7 8 -12t5 -13q0 -33 -13 -63t-30 -59q-8 -13 -17.5 -30t-20.5 -28q-6 -5 -19.5 -9.5t-30 -7
t-33 -2.5t-28.5 5h-1q-15 -2 -29.5 4.5t-29.5 10.5q-29 8 -40.5 34.5t-13 58.5t4.5 63t13 49q9 23 24 39.5t32 30.5q5 4 17.5 9t27.5 9t30 4.5t24 -3.5q2 1 6 1q5 -3 10.5 -4.5t10.5 -3.5q11 -2 20.5 -7t22.5 -12q4 5 11 1zM183 289q-7 0 -11 -1q-4 -2 -7 -1
q-30 -16 -51.5 -47.5t-33 -68.5t-11.5 -75t13 -67q0 -1 1 -2q6 -3 12 -3q1 6 6.5 8t9.5 -6q0 -1 2 -3q22 1 40.5 17t33 39.5t23 52.5t11 57t-2.5 52t-18 39q-7 6 -17 9zM212 442q-8 -6 -12 0q-6 -5 -10.5 -0.5t0.5 12.5q12 16 29 26.5t35 20t35.5 19t30.5 24.5q8 8 12 1
q5 5 12 5h15l1 -1q5 2 7.5 -2t0.5 -10q-10 -24 -30 -35.5t-43 -19t-45.5 -16t-37.5 -24.5z" />
    <glyph glyph-name="eacute.001" horiz-adv-x="284" 
d="M195 300q11 1 9 -9q26 -7 39.5 -26t-2.5 -49q-6 -11 -17 -13.5t-21 -7.5q-34 -17 -63.5 -42.5t-61.5 -47.5q-5 -5 -8 -5q-1 -5 -1.5 -10t-0.5 -10l-1.5 -18t0 -10.5t2.5 -9t5 -13.5q5 -2 9 -4t9 -4q3 -3 4 -5q28 -3 50 0q14 2 24 4t23 9q17 8 28 22t25 25
q16 11 33.5 17.5t32.5 16.5q2 1 6 5q2 -1 4 -1t4 -1t3 -2t3 -2v-1q-1 -1 -1 -2t-1 -2q-2 -3 -5.5 -5.5t-6.5 -4.5q-15 -11 -32 -17t-33 -17q-10 -6 -18 -15.5t-16 -18.5t-20.5 -15.5t-26.5 -10t-28 -4.5t-26 0q-26 2 -43 6t-29 12.5t-19.5 23t-14.5 37.5q-7 26 -10 45.5
t-0.5 36.5t11.5 34.5t25 40.5q19 26 51 44.5t64 20.5h3q11 5 21 6t18 -3zM154 278q-15 -11 -28 -32t-23 -44.5t-17 -45t-10 -31.5q11 10 29 23.5t36.5 27t34.5 24t23 13.5q7 4 15.5 5t13.5 7q10 13 6 23t-14.5 16t-24 9t-22.5 3q-4 0 -5 1q-10 0 -14 1zM188 442q-8 -6 -12 0
q-6 -5 -10.5 -0.5t0.5 12.5q12 16 29 26.5t35 20t35.5 19t30.5 24.5q8 8 12 1q5 5 12 5h15l1 -1q5 2 7.5 -2t0.5 -10q-10 -24 -30 -35.5t-43 -19t-45.5 -16t-37.5 -24.5z" />
    <glyph glyph-name="hungarumlaut.001" horiz-adv-x="152" 
d="M286 442q-8 -6 -12 0q-6 -5 -10.5 -0.5t0.5 12.5q12 16 29 26.5t35 20t35.5 19t30.5 24.5q8 8 12 1q5 5 12 5h15l1 -1q5 2 7.5 -2t0.5 -10q-10 -24 -30 -35.5t-43 -19t-45.5 -16t-37.5 -24.5zM402 442q-8 -6 -12 0q-6 -5 -10.5 -0.5t0.5 12.5q12 16 29 26.5t35 20
t35.5 19t30.5 24.5q8 8 12 1q5 5 12 5h15l1 -1q5 2 7.5 -2t0.5 -10q-10 -24 -30 -35.5t-43 -19t-45.5 -16t-37.5 -24.5z" />
    <glyph glyph-name="ogonek.001" horiz-adv-x="154" 
d="M83 -26q1 4 2 7.5t2 6.5q-6 8 2 14l3 3q2 2 6 4q1 1 2 1t2 1q1 0 2 1q9 1 9 -8q5 -4 3.5 -16t-16.5 -31q-9 -14 -10 -27q0 -3 -2 -5q4 -4 1 -10.5t-10 -6.5h-1q-2 -5 -6 -6q-17 -4 -23.5 -19t3.5 -26q2 -2 4 -3q3 -3 10 -5l3 -3q2 -1 3.5 -1t3.5 -1q5 1 10.5 2t9.5 3
q12 1 10 -8q15 6 29 11.5t23 7.5q10 1 9.5 -7.5t-7.5 -11.5q-27 -5 -52 -16.5t-51 -14.5q-3 -5 -9 -5q-5 1 -8.5 2t-7.5 3q-3 0 -5.5 0.5t-5.5 1.5q-12 3 -18 15t-7 26.5t1.5 28.5t8.5 22q8 12 21 16.5t27 6.5q4 14 11.5 25.5t17.5 21.5z" />
    <glyph glyph-name="caron.001" horiz-adv-x="76" 
d="M380 522q2 7 8.5 9t8.5 -4l3 3q8 5 11 -1.5t-2 -12.5q-46 -43 -102 -82q-3 -6 -8.5 -6.5t-7.5 8.5q-1 15 -6 31.5t-13 36.5q-2 8 5 12t11 -6q3 -8 6.5 -17t6.5 -18q9 5 21 9.5t24 9.5t21.5 11.5t12.5 16.5z" />
    <glyph glyph-name="zcaron.001" horiz-adv-x="355" 
d="M34 141q-1 -6 -6.5 -10.5t-9.5 4.5q-4 23 -12 44t-14 44q-6 25 -0.5 41t19.5 34q5 8 13.5 12t16.5 9q21 15 43 14.5t43.5 -8t42.5 -18t41 -14.5q16 -3 30 -2.5t27 9.5q8 5 10.5 -1t-1.5 -12h4l1 1q4 11 12 9.5t4 -12.5v-1l4 2q12 3 24.5 6t24.5 6q10 1 9.5 -7.5
t-7.5 -11.5q-12 -2 -24.5 -4t-23.5 -7q-25 -12 -42.5 -33.5t-32 -46.5t-29 -49.5t-32.5 -43.5q-17 -18 -29.5 -30.5t-24.5 -20.5q37 -8 51 -15q15 -7 31.5 -19t33.5 -28l29 29l42.5 42.5t43 42.5t29.5 29q8 8 12.5 2t-1.5 -14l-30.5 -30.5t-43 -42.5t-42.5 -41.5t-28 -28.5
q28 -30 50.5 -67t31 -74t-0.5 -70t-45 -54q-14 -9 -32 -10t-35 -6q-6 0 -8 5q-14 -8 -31 -8t-28 9q-11 8 -17 25.5t-9 37t-2 38t5 27.5q7 16 12 26.5t10.5 19.5t11.5 19t17 24q2 2 3 4t3 4q-14 19 -31.5 37t-35.5 30q-11 8 -24.5 14.5t-24.5 15.5q-13 -3 -28 -6t-35 -6
q-4 0 -5 1q-1 -1 -3 -1q-9 0 -8 7.5t6 11.5q32 6 52 21.5t34 36t26 44.5t29 47q12 17 28 34.5t29 32.5q6 9 15 18q-13 -5 -26 -11t-28 -9q-17 -3 -37 3.5t-39.5 12t-36.5 5t-28 -17.5q0 -3 0.5 -5.5t1.5 -5.5q5 -23 13.5 -44t11.5 -45zM194 -104q-2 2 -3 5t-3 5
q-9 -12 -17.5 -24t-14.5 -23q-8 -14 -17.5 -36t-9.5 -41q0 -3 2.5 -13t6.5 -21.5t8 -21.5t8 -14q10 -9 27.5 -7t23.5 13q5 10 5 22.5t2 23.5q2 13 7 24t6 24q2 23 -8.5 44.5t-22.5 39.5zM296 522q2 7 8.5 9t8.5 -4l3 3q8 5 11 -1.5t-2 -12.5q-46 -43 -102 -82
q-3 -6 -8.5 -6.5t-7.5 8.5q-1 15 -6 31.5t-13 36.5q-2 8 5 12t11 -6q3 -8 6.5 -17t6.5 -18q9 5 21 9.5t24 9.5t21.5 11.5t12.5 16.5z" />
    <glyph glyph-name="Zcaron.001" horiz-adv-x="1529" 
d="M1070 623q-9 0 -8 7.5t6 11.5q13 4 21 14q-2 3 0 8q6 15 24 29.5t40.5 25t45 16.5t37.5 5q41 -1 82.5 -15t82.5 -26t82 -15t81 18q12 7 22 15t21 16q9 6 11 -2.5t-5 -13.5t-12.5 -9t-12.5 -9h1q8 1 8 -5q5 -2 3 -8t-9 -10l-12 -4t-13 -4q-13 -11 -29 -28.5t-33 -38
t-33.5 -42t-29.5 -39t-21 -29t-9 -12.5q-36 -52 -70 -109t-70 -114.5t-74.5 -112.5t-82.5 -103q25 8 45.5 13.5t29.5 5.5q14 -1 28 -0.5t27 -3.5q17 -5 36.5 -11t39.5 -13q33 20 57.5 33t54.5 28q16 8 36 13.5t39.5 3.5t36.5 -13.5t27 -36.5q2 -11 -3 -19.5t-13.5 -15.5
t-18 -13t-16.5 -11q-15 -11 -42 -21t-55.5 -18t-54.5 -13.5t-40 -7.5q-20 -3 -44.5 -0.5t-50.5 7.5q-50 -39 -82 -71q-57 -54 -116 -106t-117 -106q-55 -50 -109 -100t-111 -96.5t-117 -89t-127 -77.5q-49 -25 -102.5 -44t-109 -29.5t-112 -11t-111.5 11.5q-32 8 -59.5 19.5
t-48.5 29t-36.5 42t-23.5 58.5q-9 35 -1.5 75t23.5 79.5t37 75.5t39 65q10 16 20.5 31t21.5 30q-12 11 -20.5 34t-13.5 49.5t-7 52t-2 41.5q12 53 37 112t60 112.5t79 96t95 62.5q41 17 78.5 22t65 -0.5t43 -22t15 -43.5t-21 -64t-64.5 -84q-5 -6 -11 -4t-4 10
q58 59 70 103.5t-7.5 68.5t-63 24t-97.5 -29q-44 -23 -83 -61.5t-69 -86t-49.5 -99.5t-25.5 -102q-2 -15 0 -34t7 -39t12.5 -39t17.5 -32q77 96 166.5 169t191.5 127q60 31 118 65t121 59q68 27 110.5 29.5t64.5 -12.5t27 -44.5t-3 -66t-25 -77t-38 -78.5
q-39 -67 -98 -118.5t-129 -87t-145.5 -55.5t-147 -23.5t-134.5 10t-108 44.5q-11 -14 -21 -29.5t-20 -30.5q-26 -42 -44.5 -94.5t-19 -105.5t23.5 -101.5t83 -81.5q47 -26 94.5 -35.5t94.5 -6t94.5 17t94.5 32.5q69 28 132.5 67.5t122.5 85t114.5 95.5t109.5 100
q80 75 159.5 147.5t160.5 146.5q6 6 12 11.5t13 11.5q-40 9 -80.5 19t-76.5 14q-24 -17 -49 -31t-51 -33q-8 -5 -10.5 -1.5t-0.5 8.5q-11 -5 -23 -9t-23 -10q-5 -2 -6.5 0t-1 5.5t3 7t5.5 5.5q8 4 16.5 7t17.5 6q-1 2 0 5q-2 7 6 13q9 3 18 9.5t18 13.5t18.5 13t18.5 8
q17 20 34.5 43t33.5 45t29.5 42t22.5 34q31 46 70.5 110.5t84 131.5t92.5 128t95 100q-29 -8 -57 -14t-57 -1q-26 5 -51 16.5t-50.5 22.5t-52 18t-56.5 3q-11 -2 -18.5 -6.5t-13.5 -10.5q2 -5 -1 -10t-9 -5h-2q-6 -8 -13 -15t-18 -11zM633 183q-80 -32 -160 -74t-156 -94.5
t-145 -114.5t-127 -133q51 -50 117.5 -67t137.5 -7.5t142.5 43t134.5 84t112.5 115.5t76.5 138q19 54 17.5 84.5t-20.5 41.5t-52.5 6t-77.5 -22zM1498 92q-36 -4 -73 -22t-82 -46q44 -14 88.5 -19.5t83.5 12.5q25 12 31.5 25.5t0.5 25t-20 18.5t-29 6zM1471 926q2 7 8.5 9
t8.5 -4l3 3q8 5 11 -1.5t-2 -12.5q-46 -43 -102 -82q-3 -6 -8.5 -6.5t-7.5 8.5q-1 15 -6 31.5t-13 36.5q-2 8 5 12t11 -6q3 -8 6.5 -17t6.5 -18q9 5 21 9.5t24 9.5t21.5 11.5t12.5 16.5z" />
    <glyph glyph-name="Scaron.001" horiz-adv-x="2027" 
d="M2123 569q8 5 11 -1.5t-2 -12.5l-7.5 -7.5t-7.5 -6.5q-2 0 -2 2l-2 -4l-2 -4q-23 -21 -46 -41t-51 -34q-23 -12 -47 -16t-50 -3q15 -36 33 -72.5t31.5 -74t19 -75.5t-3.5 -77q-5 -21 -19 -37t-24 -34q-6 -11 -9 -21.5t-6 -21.5t-8 -21t-14 -19q-8 -5 -11 0
q-23 -30 -53.5 -52.5t-67.5 -32.5q-35 -9 -77 -2.5t-80 25t-67.5 48t-39.5 66.5q-4 13 -9.5 25.5t-4.5 26.5q2 34 13 69.5t31 63.5t49.5 44t69.5 11q10 -2 7 -10.5t-11 -8.5q-5 0 -8.5 0.5t-8.5 0.5q-2 -7 -10 -7q-9 0 -15.5 -6.5t-12 -16t-9.5 -19t-7 -15.5
q-16 -30 -18 -62.5t5 -65t21 -64t29 -58.5q1 -1 1 -4q35 -19 74 -25.5t76 3.5q42 11 75.5 39.5t55 66t29.5 81t-1 85.5q-6 31 -17.5 60t-25 57t-28.5 55.5t-28 55.5q-3 5 -5.5 11t-5.5 13q-11 1 -22 1.5t-22 0.5q-39 -1 -100 10.5t-125.5 28t-123.5 33.5t-95 28
q-89 27 -177 57.5t-175.5 57.5t-175.5 47t-177.5 28t-181 -0.5t-185.5 -39.5q-65 -21 -111 -62t-71.5 -93t-29.5 -111.5t14 -117.5t58 -110.5t104 -91.5q43 71 102 121.5t129 83.5t147.5 50t157.5 20q38 2 80 -0.5t84 -10t82.5 -19t75.5 -27.5q13 -6 37.5 -20t47 -34
t36.5 -44t6 -50q-14 -43 -39.5 -75t-60 -56t-74.5 -40t-82 -26q-72 -17 -150 -26.5t-156 -8t-154.5 15t-146.5 43.5q-31 14 -60.5 29t-59.5 30q-2 1 -2.5 1t-2.5 1q-23 -42 -41 -87.5t-39 -89.5q-5 -6 -11 -4t-4 10q22 45 40 90.5t41 88.5q-25 14 -47 31.5t-41 38.5
q-16 18 -37 40.5t-41 47.5t-35.5 51.5t-19.5 53.5q-2 13 -6 26.5t-7 26.5t-4.5 26t2.5 26q7 26 13 51.5t17 49.5q12 28 38.5 55t58.5 49.5t65 39t58 25.5q95 33 190 42.5t189 2t187.5 -28.5t186 -48.5t184 -58.5t181.5 -58q40 -12 95.5 -28.5t119.5 -32t131 -28.5t129 -18
q-9 20 -16 43t-9.5 45.5t1.5 43.5t18 38q26 32 52.5 53.5t56.5 34t64.5 17t75.5 2.5q10 0 24 -5t27.5 -13t24.5 -18t15 -20q7 -12 12.5 -25t3.5 -29.5t-13 -37t-36 -46.5q-6 -4 -10 -2l-6 -6q-4 -5 -8.5 -10t-11.5 -8q-8 -3 -9.5 2.5t1.5 10.5l7 7q6 5 10 11q6 5 11.5 10.5
t11.5 10.5zM770 367q-77 -3 -152 -19.5t-142.5 -48.5t-124.5 -81t-99 -117q70 -43 148 -72t159 -43t163 -14t162 15q23 4 52 11.5t59.5 18t59.5 26t51.5 36t36.5 46t14 58.5q0 41 -20 71.5t-52.5 51.5t-74.5 33.5t-85 19t-83.5 8t-71.5 0.5zM2037 717q-1 0 -1 2
q-52 3 -108 -21l-3 -3q-17 -8 -26 -30t-11.5 -49.5t0 -56.5t7.5 -51q6 -24 15 -49q29 2 54 6t46 13q20 8 38 22t35 30q2 4 4 5q1 0 3 2l5 5t5 6q8 12 10 27.5t0 28.5l-6 28t-10.5 28t-20.5 28.5t-36 28.5zM2212 919q2 7 8.5 9t8.5 -4l3 3q8 5 11 -1.5t-2 -12.5
q-46 -43 -102 -82q-3 -6 -8.5 -6.5t-7.5 8.5q-1 15 -6 31.5t-13 36.5q-2 8 5 12t11 -6q3 -8 6.5 -17t6.5 -18q9 5 21 9.5t24 9.5t21.5 11.5t12.5 16.5z" />
    <glyph glyph-name="scaron.001" horiz-adv-x="226" 
d="M161 30l-2 -2q-23 -26 -46 -30t-42 2q-1 -1 -4 -1q-17 4 -36 19.5t-31 34.5t-11.5 37t22.5 27q10 2 10 -5.5t-6 -12.5q-2 -1 -3.5 -1.5t-3.5 -1.5q-3 -14 2.5 -27t15.5 -23.5t23 -17.5t25 -10h5q7 -5 13.5 -3.5t11.5 -0.5q1 4 8 6q3 0 6 -0.5t5 3.5q2 3 2.5 5t-0.5 5
t-2 8.5t-2 15.5q-1 17 -8 28t-16.5 19.5t-20.5 16.5t-21 20q-25 20 -33 35.5t1 47.5q4 11 6 21t11 19q7 6 15 11l16 10q5 7 16 13l2 2q5 5 11 3h1q5 6 15 8t20.5 1t20.5 -4t15 -6q28 -16 32.5 -43t-8.5 -53q-5 -6 -11 -4t-4 10q9 19 5.5 37t-14.5 30t-27 16t-31 -4
q-1 -5 -5 -9q-1 0 -1.5 -0.5t-1.5 -0.5q-5 -2 -8 3h-2l-6 -4l-6 -4l-2 -2q0 2 -0.5 0t-1.5 -4q-2 -10 -3 -16.5t-1 -11.5t3 -10t11 -13q17 -17 32.5 -27t28.5 -20.5t23.5 -24.5t18.5 -39q0 -2 0.5 -2.5t0.5 -1.5q9 14 22 37t23 37q7 7 11 3t2 -12q-11 -15 -21.5 -33.5
t-22 -37t-23.5 -36.5t-24 -32zM232 522q2 7 8.5 9t8.5 -4l3 3q8 5 11 -1.5t-2 -12.5q-46 -43 -102 -82q-3 -6 -8.5 -6.5t-7.5 8.5q-1 15 -6 31.5t-13 36.5q-2 8 5 12t11 -6q3 -8 6.5 -17t6.5 -18q9 5 21 9.5t24 9.5t21.5 11.5t12.5 16.5z" />
    <glyph glyph-name="dotlessi" unicode="&#x131;" horiz-adv-x="191" 
d="M164 267q-1 0 -2 1q-25 -10 -39.5 -35t-23.5 -55.5t-15.5 -62t-16.5 -54.5q-7 -17 -17.5 -26.5t-23.5 -21.5q-2 -3 -11 -12t-16 -11q-16 -4 -31 3t-32 9q-2 1 -4 3q-9 1 -16 10q-2 7 1.5 13t10.5 1q9 -11 20 -4t21 20.5t17 27.5l8 16q9 26 14.5 52.5t12 52t16.5 49.5
t28 45q5 6 19 10t30.5 5t32 -2.5t23.5 -12.5q1 -1 2.5 -1.5t1.5 -2.5q10 -3 19 -12t17 -19.5t14 -21.5t11 -19q4 -7 -1 -12t-12 0q-11 20 -25.5 41.5t-32.5 25.5z" />
    <glyph glyph-name="fraction" unicode="&#x2044;" horiz-adv-x="500" 
d="M655 744q9 -2 7 -9t-8 -10q-16 0 -32 3t-31 -4q-22 -9 -46 -30.5t-47.5 -47t-43 -50t-32.5 -39.5q-29 -36 -53.5 -69t-48 -65.5t-48 -66t-52.5 -70.5q-26 -33 -50.5 -67t-54.5 -65q-24 -26 -48.5 -50.5t-49.5 -50.5q-9 -10 -28 -16.5t-41 -12.5t-42 -11.5t-32 -12.5
q-3 -2 -5 0q-1 -1 -1.5 -1t-1.5 -1q-8 -3 -9.5 4t3.5 12q22 14 45 26t43 29q58 48 110.5 110.5t102 130t96.5 135t94 126.5q11 13 32 39.5t46.5 53.5t51.5 50t47 31q16 6 33 3.5t34 -2.5q1 0 1 -0.5t1 -0.5q14 3 29 1t29 -2z" />
    <glyph glyph-name="fraction" unicode="&#x2215;" horiz-adv-x="500" 
d="M655 744q9 -2 7 -9t-8 -10q-16 0 -32 3t-31 -4q-22 -9 -46 -30.5t-47.5 -47t-43 -50t-32.5 -39.5q-29 -36 -53.5 -69t-48 -65.5t-48 -66t-52.5 -70.5q-26 -33 -50.5 -67t-54.5 -65q-24 -26 -48.5 -50.5t-49.5 -50.5q-9 -10 -28 -16.5t-41 -12.5t-42 -11.5t-32 -12.5
q-3 -2 -5 0q-1 -1 -1.5 -1t-1.5 -1q-8 -3 -9.5 4t3.5 12q22 14 45 26t43 29q58 48 110.5 110.5t102 130t96.5 135t94 126.5q11 13 32 39.5t46.5 53.5t51.5 50t47 31q16 6 33 3.5t34 -2.5q1 0 1 -0.5t1 -0.5q14 3 29 1t29 -2z" />
    <glyph glyph-name="fi" unicode="&#xfb01;" horiz-adv-x="391" 
d="M-90 -232q-2 0 -2.5 -0.5t-1.5 -0.5q-5 -4 -9 -7t-9 -6l-3 3q-8 -5 -17.5 -9t-20.5 -2q-14 3 -15.5 16.5t3 29t11 30t9.5 20.5q1 2 1 0.5t-1 -3.5q10 24 17.5 48.5t20.5 45.5q20 34 42.5 66t45.5 64q17 24 30 40q13 45 28 98t33 108.5t38.5 110t44 102.5t50 87t57.5 63
q14 11 32 16.5t36 9.5q4 2 5 2h1q7 2 13 3.5t12 3.5h3q2 -1 4.5 -1.5t4.5 -1.5q17 3 34 -1q9 -2 14.5 -10.5t9.5 -16.5q13 -24 8.5 -52t-17.5 -55t-30 -51.5t-30 -40.5l-18 -22t-19 -22q-8 -10 -17 -20t-18 -21q-13 -14 -31 -33.5t-32 -34.5q-8 -8 -15 -16t-17 -14
q-6 -4 -14.5 -7.5t-16 -7t-14 -9t-7.5 -13.5q-3 -8 -9 -8q-1 -2 -1 -3.5t-1 -3.5l3 3q5 3 8 2q8 -5 20.5 -10.5t20.5 -11.5q9 -7 15.5 -7t11 2t8 5.5t7.5 3.5q5 1 7.5 -1.5t2.5 -6t-2 -7t-6 -4.5q-9 -2 -14 -6.5t-13 -5.5t-22 5t-40 24q-5 -4 -8.5 -7.5l-8.5 -8.5
q-7 -24 -16 -55t-17.5 -60t-15 -52t-9.5 -30q-6 -17 -15.5 -46.5t-21.5 -60.5t-26 -59.5t-30 -44.5q-12 -12 -28.5 -19t-32.5 -16zM340 675q-36 -24 -64.5 -67.5t-52 -96.5t-42.5 -111t-35 -112q15 12 34.5 21.5t35.5 26.5q23 24 52 54t57.5 62.5t52 66t35.5 63.5
q4 10 6.5 25t2 31t-5.5 29t-17 18q-10 5 -20 3.5t-20 -3.5q-5 -2 -10 -4.5t-9 -5.5zM-11 31q2 7 4.5 15t4.5 16q-26 -33 -49 -67.5t-43 -70.5q-11 -19 -17.5 -39t-14.5 -40q-7 -17 -15 -32t-11 -33q1 -10 6.5 -12.5t13 0t15.5 7.5l16 10q14 18 28 52.5t26 72t21 71t15 50.5z
M354 265q-1 0 -2 1q-25 -10 -39.5 -35t-23.5 -55.5t-15.5 -62t-16.5 -54.5q-7 -17 -17.5 -26.5t-23.5 -21.5q-2 -3 -11 -12t-16 -11q-16 -4 -31 3t-32 9q-2 1 -4 3q-9 1 -16 10q-2 7 1.5 13t10.5 1q9 -11 20 -4t21 20.5t17 27.5l8 16q9 26 14.5 52.5t12 52t16.5 49.5t28 45
q5 6 19 10t30.5 5t32 -2.5t23.5 -12.5q1 -1 2.5 -1.5t1.5 -2.5q10 -3 19 -12t17 -19.5t14 -21.5t11 -19q4 -7 -1 -12t-12 0q-11 20 -25.5 41.5t-32.5 25.5zM346 500q1 0 1 -0.5t1 -0.5q38 1 45.5 -17t-19.5 -52q-3 -5 -8.5 -8.5t-11.5 -4.5q-18 -2 -28 7.5t-13 22.5t1 27
t15 21q2 2 3 2t3 1h2q4 2 9 2z" />
    <glyph glyph-name="fl" unicode="&#xfb02;" horiz-adv-x="310" 
d="M-90 -232q-2 0 -2.5 -0.5t-1.5 -0.5q-5 -4 -9 -7t-9 -6l-3 3q-8 -5 -17.5 -9t-20.5 -2q-14 3 -15.5 16.5t3 29t11 30t9.5 20.5q1 2 1 0.5t-1 -3.5q10 24 17.5 48.5t20.5 45.5q20 34 42.5 66t45.5 64q17 24 30 40q13 45 28 98t33 108.5t38.5 110t44 102.5t50 87t57.5 63
q14 11 32 16.5t36 9.5q4 2 5 2h1q7 2 13 3.5t12 3.5h3q2 -1 4.5 -1.5t4.5 -1.5q17 3 34 -1q9 -2 14.5 -10.5t9.5 -16.5q13 -24 8.5 -52t-17.5 -55t-30 -51.5t-30 -40.5l-18 -22t-19 -22q-8 -10 -17 -20t-18 -21q-13 -14 -31 -33.5t-32 -34.5q-8 -8 -15 -16t-17 -14
q-6 -4 -14.5 -7.5t-16 -7t-14 -9t-7.5 -13.5q-3 -8 -9 -8q-1 -2 -1 -3.5t-1 -3.5l3 3q5 3 8 2q8 -5 20.5 -10.5t20.5 -11.5q9 -7 15.5 -7t11 2t8 5.5t7.5 3.5q5 1 7.5 -1.5t2.5 -6t-2 -7t-6 -4.5q-9 -2 -14 -6.5t-13 -5.5t-22 5t-40 24q-5 -4 -8.5 -7.5l-8.5 -8.5
q-7 -24 -16 -55t-17.5 -60t-15 -52t-9.5 -30q-6 -17 -15.5 -46.5t-21.5 -60.5t-26 -59.5t-30 -44.5q-12 -12 -28.5 -19t-32.5 -16zM340 675q-36 -24 -64.5 -67.5t-52 -96.5t-42.5 -111t-35 -112q15 12 34.5 21.5t35.5 26.5q23 24 52 54t57.5 62.5t52 66t35.5 63.5
q4 10 6.5 25t2 31t-5.5 29t-17 18q-10 5 -20 3.5t-20 -3.5q-5 -2 -10 -4.5t-9 -5.5zM-11 31q2 7 4.5 15t4.5 16q-26 -33 -49 -67.5t-43 -70.5q-11 -19 -17.5 -39t-14.5 -40q-7 -17 -15 -32t-11 -33q1 -10 6.5 -12.5t13 0t15.5 7.5l16 10q14 18 28 52.5t26 72t21 71t15 50.5z
M453 768q20 -4 26 -14.5t14 -21.5q10 -10 7.5 -42.5t-15.5 -76t-35 -91.5t-49 -88q-14 -21 -29.5 -48.5t-33.5 -47.5q-7 -7 -14 -18.5t-13.5 -23.5t-13 -23t-12.5 -18q-4 -4 -7 -6t-5 -4q-5 -2 -7 -1q-9 -19 -15 -41q-9 -32 -18 -68t-25 -68t-41.5 -54t-65.5 -25q-4 0 -7 3
l-9 -3q-4 0 -5 1l-2 2q-6 6 -2 13.5t11 3.5q19 7 34.5 37.5t27.5 67t21.5 72t16.5 53.5q11 26 19.5 52t17.5 52q1 4 -1 -2.5t-5 -16t-5.5 -16.5t-0.5 -2q20 59 40.5 122.5t41.5 123.5q12 33 19 54t14.5 37.5t18.5 32t31 38.5q24 28 40 42.5t36 12.5zM291 304q-5 -16 -10 -29
q2 2 2.5 4t1.5 3q16 21 27.5 43.5t27.5 42.5q45 58 83 131t58 144q1 5 3.5 15.5t4 22.5t1 23t-5.5 17q-11 14 -12 16.5t0 1t1 -3t-9 4.5q-17 -14 -31 -37t-25.5 -48.5t-20.5 -50.5t-16 -43q-9 -29 -16.5 -59.5t-19.5 -59.5q-6 -16 -16 -31.5t-15 -32.5q-5 -18 -6.5 -37
t-6.5 -37z" />
    <glyph glyph-name="Lslash.001" horiz-adv-x="1529" 
d="M1063 135q-7 -8 -12.5 -3.5t-0.5 12.5q17 27 55 52.5t82.5 49t88.5 43.5t73 37q10 2 10 -5.5t-6 -12.5q-17 -10 -42.5 -22.5t-55 -26.5t-59.5 -29.5t-56.5 -31.5t-47 -32t-29.5 -31zM294 448q-10 0 -8.5 9t9.5 10q12 1 27 13t30 29.5t29.5 37.5t26.5 38t20 31t10 17
q8 15 12 31t3 33q-1 12 -8 22t-17.5 16.5t-22.5 10t-24 3.5q-63 2 -114 -24t-89.5 -69.5t-65 -98.5t-41.5 -111q-17 -62 -14.5 -112t25.5 -80.5t67 -38.5t110 13q25 8 50 19.5t49 25.5q19 57 46 113t57.5 107t61.5 96t58 79q37 47 84.5 84t104.5 56q4 1 14 4t20.5 4.5
t20.5 0.5t15 -7q12 -13 11.5 -31.5t-8.5 -39.5t-21.5 -42t-27.5 -39.5t-26.5 -33t-18.5 -21.5q-41 -48 -79.5 -91.5t-79.5 -82.5t-87 -74.5t-101 -67.5q-11 -34 -18.5 -73.5t-9.5 -70.5q-4 -55 7 -92.5t33 -59.5t52.5 -30.5t65 -6.5t71.5 12t72 26q45 20 86.5 50t81.5 57
q80 56 157.5 112t153.5 115q15 48 33 98t38.5 95t44.5 82t52 58q12 9 29 19t35.5 17.5t35.5 10t29 -3.5q2 -1 4 -6q0 -29 -8.5 -53.5t-22.5 -51.5q-12 -24 -25 -48t-27 -47t-45.5 -53.5t-70.5 -62.5q-13 -44 -26.5 -89t-28.5 -89.5t-33 -86.5t-40 -79q-6 -10 -14 -20
q16 9 32.5 16.5t32.5 7.5h27t26 -1q31 0 65 -12t67.5 -23.5t67 -16.5t65.5 9q18 6 28 13t17.5 15.5t14 19t16.5 23.5q7 7 11 3t2 -12q-10 -16 -18.5 -32t-21.5 -30q-36 -36 -79 -48t-89 -11.5t-93 9t-91 14.5q-27 4 -63.5 8t-70.5 -1q-32 -5 -58.5 -23.5t-53.5 -34.5
q-9 -4 -9.5 5t5.5 13q27 15 51 43t44.5 61.5t36.5 69t27 65.5q9 26 19.5 59t21.5 70q-26 -20 -47 -35l-35 -25q-28 -20 -55 -40t-56 -40q-14 -11 -38.5 -28t-51.5 -36t-53 -36.5t-42 -28.5q-28 -19 -59.5 -37t-65 -31.5t-69 -21t-71.5 -5.5q-26 -3 -52.5 2.5t-49.5 19
t-40 33.5t-24 46q-12 49 -6.5 104.5t22.5 113.5q-21 -11 -43 -19.5t-45 -19.5q-17 -8 -44 -13t-56 -5.5t-56.5 5t-43.5 19.5q-32 28 -46 57t-15 60t7.5 64.5t20.5 71.5q19 56 41.5 98.5t52 76t68 59.5t89.5 50q21 8 51.5 12t60 0t51.5 -18.5t26 -44.5q2 -20 -5 -38t-12 -37
q-3 -12 -20.5 -40t-41.5 -58t-50.5 -54.5t-46.5 -27.5zM591 656q-57 -71 -100.5 -157t-80.5 -187q12 7 19.5 11t13 7.5t11.5 7.5t16 12q24 18 49.5 40t50.5 45.5t48.5 47t43.5 45.5q13 15 39 47.5t49 71t36 75.5t2 60q0 19 -23.5 11t-56 -30.5t-65.5 -52.5t-52 -54z
M1288 479q-6 -17 -12 -33t-11 -33q22 18 41 37t36.5 40.5t34 48t33.5 60.5q5 10 12.5 26t12.5 31t4.5 25.5t-12.5 9.5q-15 0 -30 -12.5t-29 -32t-26.5 -43.5t-22.5 -47.5t-18 -44t-13 -32.5z" />
    <glyph glyph-name="lslash.001" horiz-adv-x="190" 
d="M-20 133q-10 0 -8.5 9t9.5 10q32 6 68 28t73 51t72.5 59.5t67.5 52.5q9 6 11 -2.5t-5 -13.5q-30 -21 -65.5 -51.5t-73 -60t-76 -53t-73.5 -29.5zM317 768q20 -4 26 -14.5t14 -21.5q10 -10 7.5 -42.5t-15.5 -76t-35 -91.5t-49 -88q-14 -21 -29.5 -48.5t-33.5 -47.5
q-7 -7 -14 -18.5t-13.5 -23.5t-13 -23t-12.5 -18q-4 -4 -7 -6t-5 -4q-5 -2 -7 -1q-9 -19 -15 -41q-9 -32 -18 -68t-25 -68t-41.5 -54t-65.5 -25q-4 0 -7 3l-9 -3q-4 0 -5 1l-2 2q-6 6 -2 13.5t11 3.5q19 7 34.5 37.5t27.5 67t21.5 72t16.5 53.5q11 26 19.5 52t17.5 52
q1 4 -1 -2.5t-5 -16t-5.5 -16.5t-0.5 -2q20 59 40.5 122.5t41.5 123.5q12 33 19 54t14.5 37.5t18.5 32t31 38.5q24 28 40 42.5t36 12.5zM155 304q-5 -16 -10 -29q2 2 2.5 4t1.5 3q16 21 27.5 43.5t27.5 42.5q45 58 83 131t58 144q1 5 3.5 15.5t4 22.5t1 23t-5.5 17
q-11 14 -12 16.5t0 1t1 -3t-9 4.5q-17 -14 -31 -37t-25.5 -48.5t-20.5 -50.5t-16 -43q-9 -29 -16.5 -59.5t-19.5 -59.5q-6 -16 -16 -31.5t-15 -32.5q-5 -18 -6.5 -37t-6.5 -37z" />
    <glyph glyph-name="exclam" unicode="!" horiz-adv-x="182" 
d="M286 614q-1 -5 -4 -8q-3 5 -4.5 13t-4.5 11.5t-9 -2t-18 -26.5q-7 -12 -13 -24.5t-12 -24.5q-31 -67 -59.5 -141.5t-36.5 -149.5q1 -2 5 -6q4 2 9 4t8 2t3 -2t-6 -7q-16 -15 -32 -14.5t-27 12t-15 31t3 43.5q7 29 17 64t22 70t25.5 67.5t28.5 57.5q4 7 10.5 19t14 23.5
t15.5 21t17 13.5q11 4 22.5 1t20.5 -10.5t15 -17.5t5 -20zM29 76q8 2 15 2.5t12.5 -3.5t7.5 -15.5t1 -33.5q-1 -15 -10 -23t-20.5 -9t-22.5 4.5t-16 16t-2 26t21 35.5h14z" />
    <glyph glyph-name="quotedbl" unicode="&#x22;" horiz-adv-x="140" 
d="M124 489q6 1 8.5 -2.5t0.5 -8.5q5 -2 4 -9q-1 -2 -1 -4t-1 -4q0 -1 1 -1q-1 -3 -1 -5.5t-1 -4.5q-2 -14 -5 -31t-8.5 -32t-13.5 -26.5t-21 -15.5q-9 0 -8 7.5t6 11.5q9 2 16 21.5t12 40.5q-13 -13 -22.5 -7t-10 19.5t9 29t35.5 21.5zM160 472q6 6 11 2q9 9 16.5 6
t10.5 -12q9 -8 8 -23t-7 -31t-14.5 -30.5t-13.5 -21.5q-7 -8 -12.5 -3.5t-0.5 12.5q4 6 13.5 21.5t14.5 33.5q-10 -7 -21 -8q-4 0 -7 3q-7 11 -6.5 25.5t8.5 25.5z" />
    <glyph glyph-name="numbersign" unicode="#" horiz-adv-x="304" 
d="M29 160q-10 0 -8.5 9t9.5 10h33q12 30 26 59.5t28 58.5q-3 1 -9 1q-11 1 -22 -0.5t-22 -3.5q-3 -5 -8 -5t-7 8q0 10 8 14.5t18.5 6t21.5 0.5t16 -1q4 -1 12 -1q12 28 21.5 56.5t14.5 59.5q3 8 11 9.5t6 -9.5q-5 -31 -14.5 -60t-22.5 -58q15 -2 23.5 -4t16 -3.5t16 -2
t23.5 1.5q6 17 14 34t13 34q4 10 5 19t3 19l2 4q1 1 1 3q-2 8 5 12t11 -6q2 -6 -1 -20.5t-9 -31.5t-13 -34t-12 -30q8 2 14.5 4.5t13.5 6.5q10 2 10 -5.5t-6 -12.5q-10 -5 -20 -8t-21 -5q-5 -16 -14.5 -43.5t-18.5 -61.5q8 0 17 0.5t18 0.5q9 -2 7 -9t-8 -10
q-10 0 -19.5 -0.5t-19.5 -0.5q-5 -21 -8.5 -42t-5.5 -41q-1 -8 -8 -11t-9 8q2 22 5.5 43.5t8.5 42.5q-19 0 -30.5 -0.5t-21 -1.5t-21 -1.5t-30.5 -0.5q-8 -20 -13.5 -40.5t-8.5 -41.5q-3 -8 -9 -8t-8 8q3 21 9 41t14 40h-27zM133 296l-28 -58t-26 -58q19 0 30 0.5t20.5 1.5
t20.5 1.5t30 0.5q7 26 15 51.5t17 50.5q-15 -1 -23.5 -0.5t-16 2.5t-16 4t-23.5 4z" />
    <glyph glyph-name="parenleft" unicode="(" horiz-adv-x="238" 
d="M280 485q10 1 9.5 -7.5t-7.5 -11.5q-9 -3 -18.5 -5t-18.5 -4q1 -2 1 -6q-3 -9 -9 -15.5t-13 -12.5t-13.5 -12t-10.5 -15q-25 -57 -54 -112t-47 -114q-7 -24 -8 -48.5t-6 -49.5v3q-1 -9 -3 -24.5t-2.5 -30.5t1.5 -27t8 -16q8 -7 2 -15q16 -13 27 -14q8 -2 15.5 2t13.5 7
q10 2 10 -5.5t-6 -12.5q-9 -4 -19 -8t-21 -2q-9 1 -23 10.5t-27 21t-22.5 23t-10.5 17.5q-5 34 -7.5 48.5t-2.5 26t3 27t9 52.5q5 35 18.5 69t31.5 66.5t39 63t41 57.5q12 17 28.5 28.5t30.5 24.5q13 11 29.5 13.5t31.5 7.5zM85 72v-2v2z" />
    <glyph glyph-name="parenright" unicode=")" horiz-adv-x="258" 
d="M-22 -81q-5 -1 -7.5 1.5t-2.5 6t2 6.5t6 5q9 3 18.5 5t18.5 4q-1 2 -1 6q3 9 9 15.5t13 12.5t13.5 12t10.5 15q25 57 54 112t47 114q6 21 10 46t5.5 51t0.5 51t-6 45q-8 7 -2 15q-16 13 -27 14q-8 2 -15.5 -2t-13.5 -7q-10 -2 -10 5.5t6 12.5q9 4 19 8t21 2q9 -2 23 -11
t27 -20.5t22.5 -23t10.5 -17.5q5 -34 7.5 -48.5t2.5 -26t-3 -27t-9 -52.5q-5 -35 -18.5 -69t-31.5 -66.5t-39 -63t-41 -57.5q-12 -17 -28.5 -28.5t-30.5 -24.5q-13 -11 -29.5 -13.5t-31.5 -7.5z" />
    <glyph glyph-name="plus" unicode="+" horiz-adv-x="232" 
d="M133 273q7 7 11 3t2 -12q-8 -12 -13 -25t-9 -27q17 2 33.5 4.5t29.5 3.5q9 -2 7 -9t-8 -10q-14 -1 -31.5 -4t-35.5 -5q-3 -14 -4.5 -29t-2.5 -29q-1 -8 -8 -11t-9 8q1 15 2.5 30t4.5 30q-17 -2 -32.5 -2t-26.5 5q-8 5 -4.5 13t11.5 6q11 -4 25.5 -4.5t30.5 1.5
q5 17 11.5 33t15.5 30z" />
    <glyph glyph-name="comma" unicode="," horiz-adv-x="109" 
d="M65 76q6 4 9 2.5t3.5 -5.5t-2 -8.5t-6.5 -7.5q-8 -5 -11 -21.5t-8 -36t-17 -37.5t-37 -26q-11 0 -9 9.5t10 14.5q19 5 25.5 20t10.5 33q-17 -5 -33.5 2.5t-11.5 28.5q3 9 14.5 20t24.5 18t24 6.5t13 -13.5l1 1v0z" />
    <glyph glyph-name="period" unicode="." horiz-adv-x="95" 
d="M45 75q0 -1 0.5 -1.5t0.5 -1.5q16 3 23.5 -11t7.5 -30.5t-7.5 -28.5t-21.5 -5q-5 2 -11.5 3t-13 3t-12 5.5t-6.5 9.5q-2 8 0 21.5t7 24.5t13.5 16t19.5 -5z" />
    <glyph glyph-name="colon" unicode=":" horiz-adv-x="150" 
d="M89 235q-22 5 -23 16t9 22q1 8 12 15q7 9 16 7q14 3 23 -6q6 -8 6 -15q4 -10 -5 -21q-4 -9 -13 -12q-12 -10 -25 -6zM25 60q6 0 9 -3l1 -1q7 0 13 -4.5t8 -15.5v-8q1 -2 1 -2.5t1 -2.5q1 -6 -3 -11t-10 -7.5t-12.5 -3.5t-12.5 0q-10 0 -15.5 8t-6 18t4.5 19t16 11z" />
    <glyph glyph-name="semicolon" unicode=";" horiz-adv-x="146" 
d="M6 6l-1 2q-7 1 -9.5 8.5t-1 16.5t6.5 17.5t13 13.5q11 11 18.5 10.5t11.5 -7.5t4 -18t-4 -21q-3 -23 -13.5 -47.5t-28.5 -34.5q-9 -4 -9.5 5t5.5 13q5 3 11 13.5t11 24.5q-6 -2 -9 -1q-2 1 -2.5 2t-2.5 3zM106 222q-11 -3 -20 1q-2 0 -3 1q-8 2 -10 8t0 13v6
q-4 11 5 24.5t25 15.5q7 2 15 0q7 -3 10 -10q8 -8 7 -19t-8 -19q-3 -8 -8 -13.5t-13 -7.5z" />
    <glyph glyph-name="less" unicode="&#x3c;" horiz-adv-x="244" 
d="M28 173q-2 3 0 10q-8 4 -2 14q3 6 9.5 9.5t15 6t16 4.5t12.5 5q17 11 31.5 22.5t29 21.5t31 17.5t36.5 10.5q9 -2 7 -9t-8 -10q-26 -4 -41.5 -11t-27.5 -16.5t-23.5 -20.5t-28.5 -22q-16 -10 -26 -15t-16 -7q7 -14 8.5 -26t12.5 -30q7 -11 16 -21.5t15 -22.5
q3 -5 7.5 -14t9.5 -18.5t9 -18.5t7 -14q2 -1 5 -7v-3q-1 -6 -5.5 -10.5t-10.5 1.5q-9 13 -14.5 28t-13.5 29q-8 17 -18.5 30t-20.5 28q-6 11 -9 23.5t-8 23.5q-1 4 -5 12z" />
    <glyph glyph-name="equal" unicode="=" horiz-adv-x="298" 
d="M227 137q-54 0 -106 -1.5t-105 -1.5q-8 1 -6 9.5t9 9.5q54 0 106.5 1.5t105.5 1.5q10 -2 7 -10.5t-11 -8.5zM256 211q-25 -2 -50 -2h-50t-50 -1.5t-49 -6.5q-3 -3 -7 -3q-1 1 -3 1q-6 3 -4.5 9t6.5 9q24 7 49.5 9t51.5 2t51.5 -0.5t51.5 1.5q1 1 6 1l1 -1q6 -4 4.5 -10
t-8.5 -8z" />
    <glyph glyph-name="greater" unicode="&#x3e;" horiz-adv-x="221" 
d="M190 159q-1 -5 -4.5 -9t-7.5 -3q-41 -35 -76.5 -76t-76.5 -78q-3 -4 -7 -7h-2q-8 0 -8.5 6t4.5 11q11 10 22 19t22 20q18 18 32.5 39.5t34.5 38.5q6 5 14.5 9.5t13.5 9.5q6 5 11 12t11 12q-20 21 -32 51t-27 56q-7 -4 -9 8q1 2 1 4q3 9 10 10q7 0 18 -17.5t22.5 -38.5
t20.5 -39.5t11 -21.5q4 -6 0 -11q1 -1 1 -2q1 -1 1 -3z" />
    <glyph glyph-name="question" unicode="?" horiz-adv-x="310" 
d="M128 250q74 55 119.5 105.5t68.5 95.5t26 83.5t-8 69.5q-32 -15 -63.5 -33.5t-61.5 -35t-58.5 -28t-53.5 -12.5q-35 -2 -55.5 8.5t-29.5 28t-8.5 39.5t7 43.5t17.5 40t23 29.5q15 14 41.5 24.5t59 16.5t68.5 5.5t69.5 -9t61 -27.5t44.5 -50q27 9 54 14.5t51.5 4.5
t45.5 -8.5t36 -25.5q11 -12 20.5 -24.5t20.5 -25.5q4 -6 -1 -13.5t-12 -0.5q-10 12 -18.5 25t-20.5 23q-36 30 -79 31.5t-91 -13.5l2 -4q12 -46 6.5 -88.5t-23.5 -81t-47 -71t-65 -58.5l-58 -35q-1 0 -1 -0.5t-1 -0.5q-21 -12 -41 -25.5t-36 -30.5q-14 -17 -20 -35.5
t-19 -34.5q-8 -6 -11.5 -0.5t0.5 12.5q7 9 11 18t7.5 18.5t8.5 18.5t14 17zM60 629q-19 -55 -15 -82t24 -34t51.5 2t67.5 26.5t72.5 38.5t67.5 39q-13 26 -35 45t-48.5 30t-54.5 13.5t-53.5 -5t-46 -25.5t-30.5 -48zM28 -5q-17 3 -22 16q-2 1 -2.5 2t-2.5 3q-2 11 5 25
t18.5 24t24.5 12.5t22 -10.5q9 -12 8.5 -25.5t-7 -25t-18.5 -18t-26 -3.5z" />
    <glyph glyph-name="at" unicode="@" horiz-adv-x="486" 
d="M273 222q1 -2 1 -4t1 -4q1 -1 3 -5q3 6 9 7.5t7 -6.5q-2 -20 -6.5 -39.5t-2.5 -39.5q2 -9 8 -15t11 -14q5 1 6 0.5l1 -0.5h0.5t5.5 2q27 12 49 39t37 58.5t21.5 61t2.5 45.5q-7 30 -29 47t-52 22t-65 -2.5t-68 -27.5q-24 -20 -50 -51t-49 -66.5t-41 -73t-25 -71.5t-2 -62
t28 -45q19 -15 50.5 -20.5t66.5 -3t68.5 11.5t57.5 23q8 -2 4.5 -9t-10.5 -10q-14 -1 -32 -12.5t-41 -16.5q-28 -7 -61 -6.5t-64 7t-57 20.5t-40 34q-5 0 -5 6q-15 30 -15.5 60t8.5 61.5t26 64.5t38 69q38 64 84.5 98.5t93 45.5t90 1.5t75.5 -33t49.5 -57.5t12.5 -72.5
t-36 -78t-96 -73.5q-8 -5 -17.5 -6.5t-17.5 -1.5q-3 -3 -8 -3q-12 1 -23.5 4.5t-15.5 14.5l-1 1q-17 -18 -39.5 -18t-41 10.5t-29 27t-4.5 31.5q4 8 6.5 17t9.5 16q8 8 24 20t33.5 21t33 10.5t22.5 -10.5zM256 120q1 14 0.5 32t1.5 35v3l-2 15q-3 -5 -9 -7q-15 -3 -23.5 -14
t-13 -25t-6 -29t-3.5 -27q16 -8 31.5 -5t23.5 20v2z" />
    <glyph glyph-name="backslash" unicode="\" horiz-adv-x="468" 
d="M-28 598q-8 5 -4.5 13t11.5 6q3 -1 8 -4t11 -8q4 4 8 5q12 -1 33.5 -15t43.5 -31.5t39.5 -33.5t22.5 -22q63 -72 109.5 -156.5t89.5 -169.5q7 -14 17.5 -37.5t23.5 -49t28.5 -48t32.5 -33.5h2l2 -2q2 -1 3.5 -1.5t3.5 -1.5q3 0 7 2q10 2 10 -5.5t-6 -12.5q-13 -6 -27 2
q-11 4 -24 5.5t-22 9.5q-53 47 -89 105t-66.5 120t-62 123.5t-74.5 115.5q-4 5 -22 24t-39.5 41t-41.5 39.5t-28 19.5z" />
    <glyph glyph-name="bracketright.001" horiz-adv-x="833" 
 />
    <glyph glyph-name="grave" unicode="`" horiz-adv-x="69" 
d="M287 564q-1 -5 -4.5 -9t-7.5 -2l-3 -3q4 -16 19 -31q5 -4 9 -7.5t9 -8.5q23 -17 46.5 -35.5t34.5 -44.5q-1 -6 -6.5 -10.5t-9.5 4.5q-2 2 -2 4q-5 -4 -10 1q-11 18 -32 27t-41.5 18.5t-33.5 24.5t-7 45q3 13 13 25q2 5 4.5 9t7.5 9q7 7 12 2t0 -13l1 -1q1 -1 1 -4z" />
    <glyph glyph-name="braceleft" unicode="{" horiz-adv-x="195" 
d="M293 473q3 -7 -2.5 -12t-11.5 0q-3 6 -10 9q-5 -5 -9 -1q-39 -5 -56.5 -29.5t-25.5 -58t-13.5 -69.5t-19.5 -62t-30 -32t-32 -10q13 -12 18.5 -32t4.5 -35q-2 -23 -15 -60t-26 -75.5t-20.5 -72.5t2.5 -51q27 -9 59.5 -2t55.5 25q9 6 11 -2.5t-5 -13.5
q-29 -22 -59.5 -29.5t-60.5 2.5q-5 -4 -10 1q-4 4 -5 6q-17 9 -30 20q-9 8 -16 26t-7 29q0 24 6.5 46.5t14.5 44t15 43.5t9 46q1 16 2 30t-1.5 25t-10 19t-22.5 13h-2q-10 0 -8 9q0 5 3.5 9t8.5 3q1 0 1 -1q13 3 21 4.5t15 5t13.5 10t15.5 18.5q19 25 29 52t19.5 53.5
t22.5 53t38 52.5q7 8 25.5 12.5t38.5 4.5t37 -6t22 -18z" />
    <glyph glyph-name="bar" unicode="|" horiz-adv-x="261" 
d="M295 687q8 2 8.5 -5t-4.5 -12q-2 -5 -3 -6q-8 -6 -17.5 -11t-16.5 -15q-11 -17 -21.5 -42.5t-20 -53.5t-17.5 -54t-14 -44q-16 -50 -33 -113t-37.5 -125.5t-45.5 -118t-56 -91.5q-11 -12 -26.5 -17t-29.5 -13q-3 -2 -5 0t-2 5q-5 -2 -7 4.5t3 11.5q8 7 16.5 12.5
t13.5 15.5q9 14 19.5 42t20.5 58t18.5 56.5t11.5 38.5q14 46 32.5 110.5t41 130t50 121.5t60.5 85q14 11 30 16.5t31 13.5z" />
    <glyph glyph-name="braceright.001" horiz-adv-x="833" 
 />
    <glyph glyph-name="asciitilde" unicode="~" horiz-adv-x="346" 
d="M23 235q-1 -8 -8 -11t-9 8q3 22 14.5 43t29.5 35t40 19t46 -6q10 -5 28 -15.5t36.5 -21.5t35.5 -19.5t26 -7.5h2q2 5 7 7t8 0q10 8 15.5 21t10.5 23q7 7 11 3t2 -12q-21 -39 -39 -53q-2 -6 -3 -12t-3 -11q-10 -17 -26 -21t-36 1t-41.5 16t-41.5 22t-37 20t-27 11
q-9 2 -17 -3.5t-16 -7.5q-4 -7 -5.5 -14t-2.5 -14z" />
    <glyph glyph-name="Euro" unicode="&#x20ac;" horiz-adv-x="320" 
d="M397 466q-1 -6 -6.5 -10.5t-9.5 4.5q-6 18 -26 28t-45.5 14.5t-52.5 3.5t-47 -6q-2 -6 -6 -9q-18 -7 -34.5 -31.5t-30.5 -58.5t-26 -72.5t-21 -73.5q32 -1 64.5 -1.5t64.5 -0.5q10 -2 7 -10.5t-11 -8.5q-32 0 -64.5 0.5t-64.5 1.5q-2 -7 -3 -13t-3 -12q29 0 56.5 -0.5
t56.5 -1.5q10 -2 7 -10.5t-11 -8.5q-29 1 -57 1.5t-56 0.5q-6 -26 -6 -38q-4 -28 -4 -53t11 -51q1 -2 5 -4q23 -18 42.5 -23.5t38.5 -4t40 7.5t47 11q10 1 9.5 -7.5t-7.5 -11.5q-13 -2 -26.5 -7t-27 -9t-26.5 -6t-26 3q-19 8 -38.5 13t-36.5 17q-36 27 -51.5 71.5t-16.5 94
t9 97t24 82.5q9 21 23 39.5t27 37.5q11 17 31.5 26t37.5 20q22 15 59 23t74 5.5t67.5 -16.5t39.5 -43z" />
    <glyph glyph-name="dollar" unicode="$" horiz-adv-x="566" 
d="M105 -54q-26 18 -45.5 41.5t-27.5 52.5q-4 13 -9.5 25.5t-4.5 26.5q2 34 13 69.5t31 63.5t49.5 44t69.5 11q10 -2 7 -10.5t-11 -8.5q-5 0 -8.5 0.5t-8.5 0.5q-2 -7 -10 -7q-9 0 -15.5 -6.5t-12 -16t-9.5 -19t-7 -15.5q-16 -30 -18 -62.5t5 -65t21 -64t29 -58.5q1 -1 1 -4
q35 -19 74 -25.5t76 3.5q42 11 73 39t50.5 65.5t28.5 81t7 86.5q-1 25 -15 59t-33.5 73t-39.5 80.5t-33.5 81t-16 75.5t13.5 63q52 64 110.5 90t140.5 21q3 0 6 -0.5t7 -1.5q4 12 7 17t16 20q10 12 28 23t38 15t38 -0.5t27 -23.5q4 -8 4.5 -16.5t2.5 -16.5q-1 -6 -6.5 -10.5
t-9.5 4.5q-2 7 -2.5 14t-3.5 14q-5 11 -16 16q1 -5 -3.5 -9.5t-9.5 -1.5q-19 -13 -36 -29.5t-32 -34.5q12 -8 21.5 -17t14.5 -18q7 -12 12.5 -25t3.5 -29.5t-13 -37t-36 -46.5q-6 -4 -10 -2l-6 -6q-4 -5 -8.5 -10t-10.5 -8q-18 -17 -37 -31.5t-41 -25.5q-23 -12 -47 -16
t-50 -3q15 -36 33 -72.5t31.5 -74t19 -75.5t-3.5 -77q-5 -21 -19 -37t-24 -34q-6 -11 -9 -21.5t-6 -21.5t-8 -21t-14 -19q-8 -5 -11 0q-23 -30 -53.5 -52.5t-67.5 -32.5q-29 -7 -62.5 -3.5t-66.5 14.5q-7 -13 -21 -25.5t-31 -20.5t-34 -11t-30 2q-2 1 -2.5 2t-1.5 2
q-23 -3 -47 14q-5 6 -2 13t11 5q27 -20 49 -9.5t36 38.5q3 5 7 10.5t4 10.5v1zM548 717q-1 0 -1 2q-52 3 -108 -21l-3 -3q-17 -8 -26 -30t-11.5 -49.5t0 -56.5t7.5 -51q6 -24 15 -49q29 2 54 6t46 13q20 8 38 22t35 30q2 4 4 5l2 1l9 9l1 2l1 1q8 12 10 27.5t0 28.5l-6 28
t-10.5 28t-20.5 28.5t-36 28.5z" />
    <glyph glyph-name="percent" unicode="%" horiz-adv-x="500" 
d="M15 525q-2 27 5.5 53t21.5 49.5t33 44t39 35.5q28 18 48.5 12.5t32.5 -23.5t15 -42.5t-3 -43.5q-1 -22 -8 -46.5t-19 -48t-28.5 -43t-35.5 -31.5q-8 -5 -23.5 -10t-31.5 0.5t-29.5 26t-16.5 67.5zM141 674q-17 -13 -30.5 -41t-23.5 -61t-16 -66t-8 -56q10 -2 22 1
t23.5 9.5t21.5 15.5t17 18q17 24 28 54q10 28 15 59q3 19 3 30t-2.5 19t-7 17t-10.5 23zM292 102q-2 27 5.5 53t21.5 49.5t33 44t39 35.5q28 18 48.5 12.5t32.5 -23.5t15 -42.5t-3 -43.5q-1 -22 -8 -46.5t-19 -48t-28.5 -43t-35.5 -31.5q-8 -5 -23.5 -10t-31.5 0.5t-29.5 26
t-16.5 67.5zM418 251q-17 -13 -30.5 -41t-23.5 -61t-16 -66t-8 -56q10 -2 22 1t23.5 9.5t21.5 15.5t17 18q17 24 28 54q10 28 15 59q3 19 3 30t-2.5 19t-7 17t-10.5 23zM655 744q9 -2 7 -9t-8 -10q-16 0 -32 3t-31 -4q-22 -9 -46 -30.5t-47.5 -47t-43 -50t-32.5 -39.5
q-29 -36 -53.5 -69t-48 -65.5t-48 -66t-52.5 -70.5q-26 -33 -50.5 -67t-54.5 -65q-24 -26 -48.5 -50.5t-49.5 -50.5q-9 -10 -28 -16.5t-41 -12.5t-42 -11.5t-32 -12.5q-3 -2 -5 0q-1 -1 -1.5 -1t-1.5 -1q-8 -3 -9.5 4t3.5 12q22 14 45 26t43 29q58 48 110.5 110.5t102 130
t96.5 135t94 126.5q11 13 32 39.5t46.5 53.5t51.5 50t47 31q16 6 33 3.5t34 -2.5q1 0 1 -0.5t1 -0.5q14 3 29 1t29 -2z" />
    <glyph glyph-name="ampersand.001" horiz-adv-x="833" 
 />
    <glyph glyph-name="ampersand" unicode="&#x26;" horiz-adv-x="446" 
d="M215 478q3 0 5 -2q2 26 6.5 52.5t12.5 55.5q4 15 6 30t7 29q7 17 25 43t39.5 47.5t44 31.5t39.5 -3q11 -7 21 -17q4 -4 11.5 -21t15 -37.5t13.5 -39t8 -24.5q2 -7 -3 -11.5t-9 0.5q-3 10 -8 26.5t-11 34t-13 33t-13 23.5q-15 21 -32 18.5t-32.5 -17t-27 -36t-14.5 -39.5
q-13 -42 -18 -102.5t-2 -128t13.5 -135.5t28.5 -123q11 13 33.5 37.5t43.5 51.5q7 8 10 1.5t-2 -13.5q-11 -14 -20.5 -25.5t-19 -22t-19 -21.5t-21.5 -24q4 -12 9 -26t9.5 -27.5t10 -25t11.5 -17.5q9 -11 16.5 -14t19.5 -11v-1q9 0 18 -0.5t18 -0.5q8 -2 5 -11t-9 -8
q-26 2 -52.5 3t-52.5 3h-2q-6 0 -4 6q-19 9 -31.5 25.5t-21.5 36.5q-15 -22 -41 -41t-55 -30t-59.5 -13.5t-55.5 7t-41.5 33t-18.5 63.5q-3 45 6 85.5t24.5 77t37 70.5t44.5 65q13 18 28 36t32 29q7 4 16 8t16 5h3q1 0 2 1zM246 184q-20 78 -28 142.5t-1 133.5q-1 0 -2 -1
q-34 -28 -63 -69.5t-49 -90.5t-30.5 -102t-6.5 -104q2 -33 15 -51t31.5 -24t41 -1.5t44.5 16t41.5 28t31.5 35.5q-8 21 -13.5 43.5t-11.5 44.5z" />
    <glyph glyph-name="ograve" unicode="&#xf2;" horiz-adv-x="332" 
d="M254 284q1 -2 1 -6l1 -1q12 -7 18 -13.5t10 -17.5q13 -9 22.5 -15t18 -7.5t17.5 3t23 15.5q8 5 11 -1.5t-2 -12.5q-15 -12 -24.5 -17.5t-18 -5.5t-18 4.5t-23.5 12.5q2 -7 8 -12t5 -13q0 -33 -13 -63t-30 -59q-8 -13 -17.5 -30t-20.5 -28q-6 -5 -19.5 -9.5t-30 -7
t-33 -2.5t-28.5 5h-1q-15 -2 -29.5 4.5t-29.5 10.5q-29 8 -40.5 34.5t-13 58.5t4.5 63t13 49q9 23 24 39.5t32 30.5q5 4 17.5 9t27.5 9t30 4.5t24 -3.5q2 1 6 1q5 -3 10.5 -4.5t10.5 -3.5q11 -2 20.5 -7t22.5 -12q4 5 11 1zM183 289q-7 0 -11 -1q-4 -2 -7 -1
q-30 -16 -51.5 -47.5t-33 -68.5t-11.5 -75t13 -67q0 -1 1 -2q6 -3 12 -3q1 6 6.5 8t9.5 -6q0 -1 2 -3q22 1 40.5 17t33 39.5t23 52.5t11 57t-2.5 52t-18 39q-7 6 -17 9zM213 564q-1 -5 -4.5 -9t-7.5 -2l-3 -3q4 -16 19 -31q5 -4 9 -7.5t9 -8.5q23 -17 46.5 -35.5t34.5 -44.5
q-1 -6 -6.5 -10.5t-9.5 4.5q-2 2 -2 4q-5 -4 -10 1q-11 18 -32 27t-41.5 18.5t-33.5 24.5t-7 45q3 13 13 25q2 5 4.5 9t7.5 9q7 7 12 2t0 -13l1 -1q1 -1 1 -4z" />
    <glyph glyph-name="egrave" unicode="&#xe8;" horiz-adv-x="284" 
d="M195 300q11 1 9 -9q26 -7 39.5 -26t-2.5 -49q-6 -11 -17 -13.5t-21 -7.5q-34 -17 -63.5 -42.5t-61.5 -47.5q-5 -5 -8 -5q-1 -5 -1.5 -10t-0.5 -10l-1.5 -18t0 -10.5t2.5 -9t5 -13.5q5 -2 9 -4t9 -4q3 -3 4 -5q28 -3 50 0q14 2 24 4t23 9q17 8 28 22t25 25
q16 11 33.5 17.5t32.5 16.5q2 1 6 5q2 -1 4 -1t4 -1t3 -2t3 -2v-1q-1 -1 -1 -2t-1 -2q-2 -3 -5.5 -5.5t-6.5 -4.5q-15 -11 -32 -17t-33 -17q-10 -6 -18 -15.5t-16 -18.5t-20.5 -15.5t-26.5 -10t-28 -4.5t-26 0q-26 2 -43 6t-29 12.5t-19.5 23t-14.5 37.5q-7 26 -10 45.5
t-0.5 36.5t11.5 34.5t25 40.5q19 26 51 44.5t64 20.5h3q11 5 21 6t18 -3zM154 278q-15 -11 -28 -32t-23 -44.5t-17 -45t-10 -31.5q11 10 29 23.5t36.5 27t34.5 24t23 13.5q7 4 15.5 5t13.5 7q10 13 6 23t-14.5 16t-24 9t-22.5 3q-4 0 -5 1q-10 0 -14 1zM119 564
q-1 -5 -4.5 -9t-7.5 -2l-3 -3q4 -16 19 -31q5 -4 9 -7.5t9 -8.5q23 -17 46.5 -35.5t34.5 -44.5q-1 -6 -6.5 -10.5t-9.5 4.5q-2 2 -2 4q-5 -4 -10 1q-11 18 -32 27t-41.5 18.5t-33.5 24.5t-7 45q3 13 13 25q2 5 4.5 9t7.5 9q7 7 12 2t0 -13l1 -1q1 -1 1 -4z" />
    <glyph glyph-name="quotesingle" unicode="'" horiz-adv-x="74" 
d="M74 471q8 6 11 2q10 9 17.5 6t9.5 -12q9 -8 6 -23t-10.5 -31t-17 -30.5t-14.5 -21.5q-8 -8 -13 -3.5t0 12.5q5 6 15.5 21.5t17.5 33.5q-10 -7 -21 -8q-4 0 -7 3q-6 11 -4 25.5t10 25.5z" />
    <glyph glyph-name="asterisk" unicode="*" horiz-adv-x="287" 
d="M46 344q-8 4 -5.5 11t9.5 8q23 -1 45.5 -2t45.5 -3q-7 12 -17 21t-25 14q-8 5 -4.5 13t11.5 6q19 -5 30.5 -17t19.5 -27q14 15 29.5 27t37.5 17q10 1 9.5 -7.5t-7.5 -11.5q-19 -5 -34 -14.5t-27 -22.5q23 -2 45.5 -3t45.5 -2q10 -2 7 -10.5t-11 -8.5q-20 1 -40.5 1.5
t-41.5 2.5q8 -17 17.5 -31t26.5 -20q7 -5 4 -12t-11 -7q-23 9 -34 30t-21 42h-3q-20 -23 -40 -45.5t-51 -30.5q-9 0 -8 7.5t6 11.5q25 7 42.5 23t34.5 36q-22 2 -43.5 2.5t-42.5 1.5z" />
    <glyph glyph-name="hyphen" unicode="-" horiz-adv-x="301" 
d="M49 172q-2 -7 -7 -8.5t-8 2.5q0 -1 0.5 -2t0.5 -2q-1 -6 -6.5 -10.5t-9.5 4.5q-2 8 2 18t11 18.5t15.5 14t17.5 5.5q25 0 52 -6.5t54 -11t52 -2t46 20.5q8 5 11 -1.5t-2 -12.5q-16 -13 -28 -18q-2 -5 -4 -6q-32 -25 -66.5 -28t-73.5 8q-14 4 -27 10t-27 8q-1 0 -1.5 -0.5
t-1.5 -0.5z" />
    <glyph glyph-name="ellipsis" unicode="&#x2026;" horiz-adv-x="285" 
d="M45 75q0 -1 0.5 -1.5t0.5 -1.5q16 3 23.5 -11t7.5 -30.5t-7.5 -28.5t-21.5 -5q-5 2 -11.5 3t-13 3t-12 5.5t-6.5 9.5q-2 8 0 21.5t7 24.5t13.5 16t19.5 -5zM140 75q0 -1 0.5 -1.5t0.5 -1.5q16 3 23.5 -11t7.5 -30.5t-7.5 -28.5t-21.5 -5q-5 2 -11.5 3t-13 3t-12 5.5
t-6.5 9.5q-2 8 0 21.5t7 24.5t13.5 16t19.5 -5zM235 75q0 -1 0.5 -1.5t0.5 -1.5q16 3 23.5 -11t7.5 -30.5t-7.5 -28.5t-21.5 -5q-5 2 -11.5 3t-13 3t-12 5.5t-6.5 9.5q-2 8 0 21.5t7 24.5t13.5 16t19.5 -5z" />
    <glyph glyph-name="bracketleft" unicode="[" horiz-adv-x="186" 
d="M-32 -70q-9 -3 -9 6q-7 2 -8 8q13 85 43 170t62 164q9 21 19 43.5t19 44t15.5 41t7.5 34.5q-1 1 -1 3v3q3 7 8 9.5t8 -5.5h1v-1v-3l3 3q30 6 65 6.5t65 1.5q9 -2 7 -9t-8 -10q-18 -1 -38.5 -1t-40.5 -1q3 -2 6 -7q-4 -41 -15 -80t-25 -76.5t-30.5 -75t-32.5 -75.5
q-11 -26 -19 -52.5t-18 -53.5q-6 -15 -12 -28.5t-10 -24.5q26 2 51.5 -0.5t48.5 -3.5q10 -2 7 -10.5t-11 -8.5q-24 2 -51 3.5t-53 -0.5q-5 -5 -8 -1q-12 -2 -23.5 -5t-22.5 -8z" />
    <glyph glyph-name="bracketright" unicode="]" horiz-adv-x="186" 
d="M200 458q9 3 9 -6q7 -2 8 -8q-13 -85 -43 -170t-62 -164q-9 -21 -19 -43.5t-19 -44t-15.5 -41t-7.5 -34.5q1 -1 1 -3v-3q-3 -7 -8 -9.5t-8 5.5h-1v1v3l-3 -3q-30 -6 -65 -6.5t-65 -1.5q-9 2 -7 9t8 10q18 1 38.5 1t40.5 1q-3 2 -6 7q4 41 15 80t25 76.5t30.5 75
t32.5 75.5q11 26 19 52.5t18 53.5q6 15 12 28.5t10 24.5q-26 -2 -51.5 0.5t-48.5 3.5q-10 2 -7 10.5t11 8.5q24 -2 51 -3.5t53 0.5q4 4 8 1q12 2 23.5 5t22.5 8z" />
    <glyph glyph-name="asciicircum" unicode="^" horiz-adv-x="156" 
d="M90 257q-7 -5 -10.5 -0.5t-1.5 9.5q-1 1 -1.5 1t-1.5 1q-9 16 6 40q-1 1 -1 3q6 18 18 32t27 25.5t30.5 22t27.5 23.5q5 5 10 2.5t4 -7.5q1 -1 5 -6q11 -28 18.5 -55t20.5 -53q3 -7 -2.5 -12t-11.5 0q-11 20 -18 40t-14 41q-12 -11 -25.5 -22t-24.5 -24
q-14 -15 -26.5 -31t-28.5 -30z" />
    <glyph glyph-name="underscore" unicode="_" horiz-adv-x="420" 
d="M323 -37q-74 -1 -147 -3t-146 -2q-8 2 -6.5 10t9.5 9q70 0 139.5 2t138.5 3q6 0 15.5 1t19 0.5t18.5 -3.5t13 -10q2 -2 0 -9l-1 -1q-5 -6 -9 -5t-6 6q-3 2 -9 3t-12.5 1t-11.5 -1z" />
    <glyph glyph-name="circumflex" unicode="&#x2c6;" horiz-adv-x="108" 
d="M334 484q-1 0 -3 5q-5 0 -15 2q-13 -11 -24 -22.5t-22 -22.5q-8 -6 -11.5 1t2.5 13q4 4 17 16t28.5 25.5t30.5 23.5t23 9q10 1 10 -7q15 -9 24.5 -26t20.5 -31q2 -5 0.5 -10t-5.5 -7q-2 -3 -5.5 -4.5t-7.5 2.5q-9 14 -29 19.5t-34 13.5z" />
    <glyph glyph-name="ecircumflex" unicode="&#xea;" horiz-adv-x="284" 
d="M195 300q11 1 9 -9q26 -7 39.5 -26t-2.5 -49q-6 -11 -17 -13.5t-21 -7.5q-34 -17 -63.5 -42.5t-61.5 -47.5q-5 -5 -8 -5q-1 -5 -1.5 -10t-0.5 -10l-1.5 -18t0 -10.5t2.5 -9t5 -13.5q5 -2 9 -4t9 -4q3 -3 4 -5q28 -3 50 0q14 2 24 4t23 9q17 8 28 22t25 25
q16 11 33.5 17.5t32.5 16.5q2 1 6 5q2 -1 4 -1t4 -1t3 -2t3 -2v-1q-1 -1 -1 -2t-1 -2q-2 -3 -5.5 -5.5t-6.5 -4.5q-15 -11 -32 -17t-33 -17q-10 -6 -18 -15.5t-16 -18.5t-20.5 -15.5t-26.5 -10t-28 -4.5t-26 0q-26 2 -43 6t-29 12.5t-19.5 23t-14.5 37.5q-7 26 -10 45.5
t-0.5 36.5t11.5 34.5t25 40.5q19 26 51 44.5t64 20.5h3q11 5 21 6t18 -3zM154 278q-15 -11 -28 -32t-23 -44.5t-17 -45t-10 -31.5q11 10 29 23.5t36.5 27t34.5 24t23 13.5q7 4 15.5 5t13.5 7q10 13 6 23t-14.5 16t-24 9t-22.5 3q-4 0 -5 1q-10 0 -14 1zM202 484q-1 0 -3 5
q-5 0 -15 2q-13 -11 -24 -22.5t-22 -22.5q-8 -6 -11.5 1t2.5 13q4 4 17 16t28.5 25.5t30.5 23.5t23 9q10 1 10 -7q15 -9 24.5 -26t20.5 -31q2 -5 0.5 -10t-5.5 -7q-2 -3 -5.5 -4.5t-7.5 2.5q-9 14 -29 19.5t-34 13.5z" />
    <glyph glyph-name="ocircumflex.001" horiz-adv-x="332" 
d="M254 284q1 -2 1 -6l1 -1q12 -7 18 -13.5t10 -17.5q13 -9 22.5 -15t18 -7.5t17.5 3t23 15.5q8 5 11 -1.5t-2 -12.5q-15 -12 -24.5 -17.5t-18 -5.5t-18 4.5t-23.5 12.5q2 -7 8 -12t5 -13q0 -33 -13 -63t-30 -59q-8 -13 -17.5 -30t-20.5 -28q-6 -5 -19.5 -9.5t-30 -7
t-33 -2.5t-28.5 5h-1q-15 -2 -29.5 4.5t-29.5 10.5q-29 8 -40.5 34.5t-13 58.5t4.5 63t13 49q9 23 24 39.5t32 30.5q5 4 17.5 9t27.5 9t30 4.5t24 -3.5q2 1 6 1q5 -3 10.5 -4.5t10.5 -3.5q11 -2 20.5 -7t22.5 -12q4 5 11 1zM183 289q-7 0 -11 -1q-4 -2 -7 -1
q-30 -16 -51.5 -47.5t-33 -68.5t-11.5 -75t13 -67q0 -1 1 -2q6 -3 12 -3q1 6 6.5 8t9.5 -6q0 -1 2 -3q22 1 40.5 17t33 39.5t23 52.5t11 57t-2.5 52t-18 39q-7 6 -17 9zM226 484q-1 0 -3 5q-5 0 -15 2q-13 -11 -24 -22.5t-22 -22.5q-8 -6 -11.5 1t2.5 13q4 4 17 16
t28.5 25.5t30.5 23.5t23 9q10 1 10 -7q15 -9 24.5 -26t20.5 -31q2 -5 0.5 -10t-5.5 -7q-2 -3 -5.5 -4.5t-7.5 2.5q-9 14 -29 19.5t-34 13.5z" />
    <glyph glyph-name="perthousand" unicode="&#x2030;" horiz-adv-x="500" 
d="M15 525q-2 27 5.5 53t21.5 49.5t33 44t39 35.5q28 18 48.5 12.5t32.5 -23.5t15 -42.5t-3 -43.5q-1 -22 -8 -46.5t-19 -48t-28.5 -43t-35.5 -31.5q-8 -5 -23.5 -10t-31.5 0.5t-29.5 26t-16.5 67.5zM141 674q-17 -13 -30.5 -41t-23.5 -61t-16 -66t-8 -56q10 -2 22 1
t23.5 9.5t21.5 15.5t17 18q17 24 28 54q10 28 15 59q3 19 3 30t-2.5 19t-7 17t-10.5 23zM292 102q-2 27 5.5 53t21.5 49.5t33 44t39 35.5q28 18 48.5 12.5t32.5 -23.5t15 -42.5t-3 -43.5q-1 -22 -8 -46.5t-19 -48t-28.5 -43t-35.5 -31.5q-8 -5 -23.5 -10t-31.5 0.5t-29.5 26
t-16.5 67.5zM418 251q-17 -13 -30.5 -41t-23.5 -61t-16 -66t-8 -56q10 -2 22 1t23.5 9.5t21.5 15.5t17 18q17 24 28 54q10 28 15 59q3 19 3 30t-2.5 19t-7 17t-10.5 23zM408 102q-2 27 5.5 53t21.5 49.5t33 44t39 35.5q28 18 48.5 12.5t32.5 -23.5t15 -42.5t-3 -43.5
q-1 -22 -8 -46.5t-19 -48t-28.5 -43t-35.5 -31.5q-8 -5 -23.5 -10t-31.5 0.5t-29.5 26t-16.5 67.5zM534 251q-17 -13 -30.5 -41t-23.5 -61t-16 -66t-8 -56q10 -2 22 1t23.5 9.5t21.5 15.5t17 18q17 24 28 54q10 28 15 59q3 19 3 30t-2.5 19t-7 17t-10.5 23zM655 744
q9 -2 7 -9t-8 -10q-16 0 -32 3t-31 -4q-22 -9 -46 -30.5t-47.5 -47t-43 -50t-32.5 -39.5q-29 -36 -53.5 -69t-48 -65.5t-48 -66t-52.5 -70.5q-26 -33 -50.5 -67t-54.5 -65q-24 -26 -48.5 -50.5t-49.5 -50.5q-9 -10 -28 -16.5t-41 -12.5t-42 -11.5t-32 -12.5q-3 -2 -5 0
q-1 -1 -1.5 -1t-1.5 -1q-8 -3 -9.5 4t3.5 12q22 14 45 26t43 29q58 48 110.5 110.5t102 130t96.5 135t94 126.5q11 13 32 39.5t46.5 53.5t51.5 50t47 31q16 6 33 3.5t34 -2.5q1 0 1 -0.5t1 -0.5q14 3 29 1t29 -2z" />
    <glyph glyph-name="dieresis.001" horiz-adv-x="833" 
 />
    <glyph glyph-name="dieresis.002" horiz-adv-x="108" 
d="M358 537q7 4 12 -3q7 3 14.5 2.5t13.5 -8.5q9 -11 5 -23t-14.5 -21t-24 -14.5t-23.5 -3.5q-9 2 -9 12t4.5 22t11 23t10.5 14zM443 527q5 5 8 4t5 -4q9 6 16 3q10 -4 11.5 -17t-3 -26t-14 -22.5t-21.5 -7.5q-11 2 -14.5 11t-2 20.5t5.5 22t9 16.5z" />
    <glyph glyph-name="adieresis.001" 
d="M174 316q3 2 7 2q10 4 21.5 0.5t22.5 -11t20 -17.5t12 -17q5 -10 5 -21q1 1 1.5 2t1.5 2q12 16 23 27t22 16t25 3.5t32 -10.5q7 -3 11.5 -10.5t6.5 -15.5q8 -1 7 -9t-8 -10t-14.5 -3.5t-13.5 -6.5q-14 -10 -27.5 -32.5t-24 -49.5t-15.5 -54.5t-1 -46.5q6 4 10 -3
q0 -1 2 -3l4 2q4 0 6 -1q4 1 6 -1q15 4 36.5 16t42.5 27t37.5 30.5t20.5 24.5q5 10 11.5 6.5t3.5 -12.5q-5 -11 -23.5 -29t-42.5 -36t-49.5 -32t-43.5 -15q-21 -17 -40.5 -27.5t-36 -11t-28.5 9.5t-19 34q-4 -7 -10 -7q-7 -6 -14.5 -11t-16.5 -8q-12 -4 -24.5 -7.5
t-25.5 -7.5q-11 -3 -25 1t-22 12q-41 41 -47 82.5t17 99.5q8 18 19 32t25 25q5 11 11 20.5t17 17.5q20 14 42.5 18t42.5 16zM171 46q10 48 29.5 96t46.5 90q0 1 -0.5 1.5t-0.5 2.5q-1 15 -4.5 26t-27.5 27q-5 5 -13.5 9t-16.5 2q-6 -2 -10 -4q1 0 1 -0.5t1 -0.5q3 -1 5 -6
q0 -12 -7 -22.5t-17 -19.5t-20.5 -17.5t-16.5 -17.5q-20 -27 -33.5 -60.5t-18.5 -66.5q0 -4 -1 -13t-1 -19t1 -18.5t6 -10.5q6 -4 4 -11q14 -3 30 -0.5t35 13.5q14 9 29 20zM219 537q7 4 12 -3q7 3 14.5 2.5t13.5 -8.5q9 -11 5 -23t-14.5 -21t-24 -14.5t-23.5 -3.5
q-9 2 -9 12t4.5 22t11 23t10.5 14zM304 527q5 5 8 4t5 -4q9 6 16 3q10 -4 11.5 -17t-3 -26t-14 -22.5t-21.5 -7.5q-11 2 -14.5 11t-2 20.5t5.5 22t9 16.5z" />
    <glyph glyph-name="odieresis.001" horiz-adv-x="332" 
d="M254 284q1 -2 1 -6l1 -1q12 -7 18 -13.5t10 -17.5q13 -9 22.5 -15t18 -7.5t17.5 3t23 15.5q8 5 11 -1.5t-2 -12.5q-15 -12 -24.5 -17.5t-18 -5.5t-18 4.5t-23.5 12.5q2 -7 8 -12t5 -13q0 -33 -13 -63t-30 -59q-8 -13 -17.5 -30t-20.5 -28q-6 -5 -19.5 -9.5t-30 -7
t-33 -2.5t-28.5 5h-1q-15 -2 -29.5 4.5t-29.5 10.5q-29 8 -40.5 34.5t-13 58.5t4.5 63t13 49q9 23 24 39.5t32 30.5q5 4 17.5 9t27.5 9t30 4.5t24 -3.5q2 1 6 1q5 -3 10.5 -4.5t10.5 -3.5q11 -2 20.5 -7t22.5 -12q4 5 11 1zM183 289q-7 0 -11 -1q-4 -2 -7 -1
q-30 -16 -51.5 -47.5t-33 -68.5t-11.5 -75t13 -67q0 -1 1 -2q6 -3 12 -3q1 6 6.5 8t9.5 -6q0 -1 2 -3q22 1 40.5 17t33 39.5t23 52.5t11 57t-2.5 52t-18 39q-7 6 -17 9zM177 537q7 4 12 -3q7 3 14.5 2.5t13.5 -8.5q9 -11 5 -23t-14.5 -21t-24 -14.5t-23.5 -3.5q-9 2 -9 12
t4.5 22t11 23t10.5 14zM262 527q5 5 8 4t5 -4q9 6 16 3q10 -4 11.5 -17t-3 -26t-14 -22.5t-21.5 -7.5q-11 2 -14.5 11t-2 20.5t5.5 22t9 16.5z" />
    <glyph glyph-name="quotedblbase" unicode="&#x201e;" horiz-adv-x="170" 
d="M61 78q6 1 8.5 -2.5t0.5 -8.5q5 -2 4 -9q-1 -2 -1 -4t-1 -4q0 -1 1 -1q-1 -3 -1 -5.5t-1 -4.5q-2 -14 -5 -31t-8.5 -32t-13.5 -26.5t-21 -15.5q-9 0 -8 7.5t6 11.5q9 2 16 21.5t12 40.5q-13 -13 -22.5 -7t-10 19.5t9 29t35.5 21.5zM97 61q6 6 11 2q9 9 16.5 6t10.5 -12
q9 -8 8 -23t-7 -31t-14.5 -30.5t-13.5 -21.5q-7 -8 -12.5 -3.5t-0.5 12.5q4 6 13.5 21.5t14.5 33.5q-10 -7 -21 -8q-4 0 -7 3q-7 11 -6.5 25.5t8.5 25.5z" />
    <glyph glyph-name="quotesinglbase" unicode="&#x201a;" horiz-adv-x="98" 
d="M61 100q6 1 8.5 -2.5t0.5 -8.5q5 -2 4 -9q-1 -2 -1 -4t-1 -4q0 -1 1 -1q-1 -3 -1 -5.5t-1 -4.5q-2 -14 -5 -31t-8.5 -32t-13.5 -26.5t-21 -15.5q-9 0 -8 7.5t6 11.5q9 2 16 21.5t12 40.5q-13 -13 -22.5 -7t-10 19.5t9 29t35.5 21.5z" />
    <glyph glyph-name="quotedblright" unicode="&#x201d;" horiz-adv-x="105" 
d="M124 489q6 1 8.5 -2.5t0.5 -8.5q5 -2 4 -9q-1 -2 -1 -4t-1 -4q0 -1 1 -1q-1 -3 -1 -5.5t-1 -4.5q-2 -14 -5 -31t-8.5 -32t-13.5 -26.5t-21 -15.5q-9 0 -8 7.5t6 11.5q9 2 16 21.5t12 40.5q-13 -13 -22.5 -7t-10 19.5t9 29t35.5 21.5zM160 472q6 6 11 2q9 9 16.5 6
t10.5 -12q9 -8 8 -23t-7 -31t-14.5 -30.5t-13.5 -21.5q-7 -8 -12.5 -3.5t-0.5 12.5q4 6 13.5 21.5t14.5 33.5q-10 -7 -21 -8q-4 0 -7 3q-7 11 -6.5 25.5t8.5 25.5z" />
    <glyph glyph-name="quotedblleft" unicode="&#x201c;" horiz-adv-x="118" 
d="M154 345q-6 -1 -8.5 2.5t-0.5 8.5q-5 2 -4 9q1 2 1 4t1 4q0 1 -1 1q1 3 1 5.5t1 4.5q2 14 5 31t8.5 32t13.5 26.5t21 15.5q9 0 8 -7.5t-6 -11.5q-9 -2 -16 -21.5t-12 -40.5q13 13 22.5 7t10 -19.5t-9.5 -29t-35 -21.5zM118 362q-7 -7 -11 -2q-9 -9 -16.5 -6t-10.5 12
q-9 8 -8 23t7 31t14.5 30.5t13.5 21.5q7 8 12.5 3.5t0.5 -12.5q-4 -6 -13.5 -21.5t-14.5 -33.5q10 7 21 8q4 0 7 -3q7 -11 6.5 -25.5t-8.5 -25.5z" />
    <glyph glyph-name="quoteleft" unicode="&#x2018;" horiz-adv-x="118" 
d="M154 345q-6 -1 -8.5 2.5t-0.5 8.5q-5 2 -4 9q1 2 1 4t1 4q0 1 -1 1q1 3 1 5.5t1 4.5q2 14 5 31t8.5 32t13.5 26.5t21 15.5q9 0 8 -7.5t-6 -11.5q-9 -2 -16 -21.5t-12 -40.5q13 13 22.5 7t10 -19.5t-9.5 -29t-35 -21.5z" />
    <glyph glyph-name="quoteright" unicode="&#x2019;" horiz-adv-x="105" 
d="M124 489q6 1 8.5 -2.5t0.5 -8.5q5 -2 4 -9q-1 -2 -1 -4t-1 -4q0 -1 1 -1q-1 -3 -1 -5.5t-1 -4.5q-2 -14 -5 -31t-8.5 -32t-13.5 -26.5t-21 -15.5q-9 0 -8 7.5t6 11.5q9 2 16 21.5t12 40.5q-13 -13 -22.5 -7t-10 19.5t9 29t35.5 21.5z" />
    <glyph glyph-name="braceright" unicode="}" horiz-adv-x="195" 
d="M-97 -119q-3 7 2.5 12t11.5 0q3 -6 10 -9q5 5 9 1q26 3 42 15.5t25.5 31t14.5 41t9 46t9 45.5t15 40q7 13 14.5 20.5t15.5 11.5t16 6l16 4q-13 12 -18.5 32t-4.5 35t7.5 37.5t15.5 47t18 51t15.5 50t8 42.5t-5.5 31q-27 9 -59.5 2t-55.5 -25q-9 -6 -11 2.5t5 13.5
q29 22 59.5 29.5t60.5 -2.5q5 4 10 -1q4 -4 5 -6q17 -9 30 -20q9 -8 16 -26t7 -29q0 -24 -6.5 -46.5t-14.5 -44.5t-15 -43.5t-9 -45.5q-2 -16 -2.5 -30t2 -25t10 -19t22.5 -13h2q10 0 8 -9q0 -5 -3.5 -9t-8.5 -3q-1 0 -1 1q-13 -3 -21 -4.5t-15 -5t-13.5 -10t-15.5 -18.5
q-19 -26 -29 -52.5t-19.5 -53t-22.5 -53.5t-38 -52q-8 -8 -26 -12.5t-38 -4.5t-37 6t-22 18z" />
    <glyph glyph-name="dagger" unicode="&#x2020;" horiz-adv-x="500" 
d="M420 687q8 2 8.5 -5t-4.5 -12q-2 -5 -3 -6q-8 -6 -17.5 -11t-16.5 -15q-11 -17 -21.5 -42.5t-20 -53.5t-17.5 -54t-14 -44q-16 -50 -33 -113t-37.5 -125.5t-45.5 -118t-56 -91.5q-11 -12 -26.5 -17t-29.5 -13q-3 -2 -5 0t-2 5q-5 -2 -7 4.5t3 11.5q8 7 16.5 12.5
t13.5 15.5q9 14 19.5 42t20.5 58t18.5 56.5t11.5 38.5q14 46 32.5 110.5t41 130t50 121.5t60.5 85q14 11 30 16.5t31 13.5zM149 172q-2 -7 -7 -8.5t-8 2.5q0 -1 0.5 -2t0.5 -2q-1 -6 -6.5 -10.5t-9.5 4.5q-2 8 2 18t11 18.5t15.5 14t17.5 5.5q25 0 52 -6.5t54 -11t52 -2
t46 20.5q8 5 11 -1.5t-2 -12.5q-16 -13 -28 -18q-2 -5 -4 -6q-32 -25 -66.5 -28t-73.5 8q-14 4 -27 10t-27 8q-1 0 -1.5 -0.5t-1.5 -0.5z" />
    <glyph glyph-name="daggerdbl" unicode="&#x2021;" horiz-adv-x="500" 
d="M420 687q8 2 8.5 -5t-4.5 -12q-2 -5 -3 -6q-8 -6 -17.5 -11t-16.5 -15q-11 -17 -21.5 -42.5t-20 -53.5t-17.5 -54t-14 -44q-16 -50 -33 -113t-37.5 -125.5t-45.5 -118t-56 -91.5q-11 -12 -26.5 -17t-29.5 -13q-3 -2 -5 0t-2 5q-5 -2 -7 4.5t3 11.5q8 7 16.5 12.5
t13.5 15.5q9 14 19.5 42t20.5 58t18.5 56.5t11.5 38.5q14 46 32.5 110.5t41 130t50 121.5t60.5 85q14 11 30 16.5t31 13.5zM303 239q-54 0 -106 -1.5t-105 -1.5q-8 1 -6 9.5t9 9.5q54 0 106.5 1.5t105.5 1.5q10 -2 7 -10.5t-11 -8.5zM332 313q-25 -2 -50 -2h-50t-50 -1.5
t-49 -6.5q-3 -3 -7 -3q-1 1 -3 1q-6 3 -4.5 9t6.5 9q24 7 49.5 9t51.5 2t51.5 -0.5t51.5 1.5q1 1 6 1l1 -1q6 -4 4.5 -10t-8.5 -8z" />
    <glyph glyph-name="guilsinglleft" unicode="&#x2039;" horiz-adv-x="244" 
d="M28 173q-2 3 0 10q-8 4 -2 14q3 6 9.5 9.5t15 6t16 4.5t12.5 5q17 11 31.5 22.5t29 21.5t31 17.5t36.5 10.5q9 -2 7 -9t-8 -10q-26 -4 -41.5 -11t-27.5 -16.5t-23.5 -20.5t-28.5 -22q-16 -10 -26 -15t-16 -7q7 -14 8.5 -26t12.5 -30q7 -11 16 -21.5t15 -22.5
q3 -5 7.5 -14t9.5 -18.5t9 -18.5t7 -14q2 -1 5 -7v-3q-1 -6 -5.5 -10.5t-10.5 1.5q-9 13 -14.5 28t-13.5 29q-8 17 -18.5 30t-20.5 28q-6 11 -9 23.5t-8 23.5q-1 4 -5 12z" />
    <glyph glyph-name="guilsinglright" unicode="&#x203a;" horiz-adv-x="221" 
d="M190 159q-1 -5 -4.5 -9t-7.5 -3q-41 -35 -76.5 -76t-76.5 -78q-3 -4 -7 -7h-2q-8 0 -8.5 6t4.5 11q11 10 22 19t22 20q18 18 32.5 39.5t34.5 38.5q6 5 14.5 9.5t13.5 9.5q6 5 11 12t11 12q-20 21 -32 51t-27 56q-7 -4 -9 8q1 2 1 4q3 9 10 10q7 0 18 -17.5t22.5 -38.5
t20.5 -39.5t11 -21.5q4 -6 0 -11q1 -1 1 -2q1 -1 1 -3z" />
    <glyph glyph-name="guillemotright" unicode="&#xbb;" horiz-adv-x="290" 
d="M260 159q-1 -5 -4.5 -9t-7.5 -3q-41 -35 -76.5 -76t-76.5 -78q-3 -4 -7 -7h-2q-8 0 -8.5 6t4.5 11q11 10 22 19t22 20q18 18 32.5 39.5t34.5 38.5q6 5 14.5 9.5t13.5 9.5q6 5 11 12t11 12q-20 21 -32 51t-27 56q-7 -4 -9 8q1 2 1 4q3 9 10 10q7 0 18 -17.5t22.5 -38.5
t20.5 -39.5t11 -21.5q4 -6 0 -11q1 -1 1 -2q1 -1 1 -3zM180 159q-1 -5 -4.5 -9t-7.5 -3q-41 -35 -76.5 -76t-76.5 -78q-3 -4 -7 -7h-2q-8 0 -8.5 6t4.5 11q11 10 22 19t22 20q18 18 32.5 39.5t34.5 38.5q6 5 14.5 9.5t13.5 9.5q6 5 11 12t11 12q-20 21 -32 51t-27 56
q-7 -4 -9 8q1 2 1 4q3 9 10 10q7 0 18 -17.5t22.5 -38.5t20.5 -39.5t11 -21.5q4 -6 0 -11q1 -1 1 -2q1 -1 1 -3z" />
    <glyph glyph-name="guillemotleft" unicode="&#xab;" horiz-adv-x="322" 
d="M28 173q-2 3 0 10q-8 4 -2 14q3 6 9.5 9.5t15 6t16 4.5t12.5 5q17 11 31.5 22.5t29 21.5t31 17.5t36.5 10.5q9 -2 7 -9t-8 -10q-26 -4 -41.5 -11t-27.5 -16.5t-23.5 -20.5t-28.5 -22q-16 -10 -26 -15t-16 -7q7 -14 8.5 -26t12.5 -30q7 -11 16 -21.5t15 -22.5
q3 -5 7.5 -14t9.5 -18.5t9 -18.5t7 -14q2 -1 5 -7v-3q-1 -6 -5.5 -10.5t-10.5 1.5q-9 13 -14.5 28t-13.5 29q-8 17 -18.5 30t-20.5 28q-6 11 -9 23.5t-8 23.5q-1 4 -5 12zM128 173q-2 3 0 10q-8 4 -2 14q3 6 9.5 9.5t15 6t16 4.5t12.5 5q17 11 31.5 22.5t29 21.5t31 17.5
t36.5 10.5q9 -2 7 -9t-8 -10q-26 -4 -41.5 -11t-27.5 -16.5t-23.5 -20.5t-28.5 -22q-16 -10 -26 -15t-16 -7q7 -14 8.5 -26t12.5 -30q7 -11 16 -21.5t15 -22.5q3 -5 7.5 -14t9.5 -18.5t9 -18.5t7 -14q2 -1 5 -7v-3q-1 -6 -5.5 -10.5t-10.5 1.5q-9 13 -14.5 28t-13.5 29
q-8 17 -18.5 30t-20.5 28q-6 11 -9 23.5t-8 23.5q-1 4 -5 12z" />
    <glyph glyph-name="sterling" unicode="&#xa3;" horiz-adv-x="578" 
d="M191 477q27 79 64 126.5t73 71.5t65.5 28.5t41.5 -1.5q6 -3 22.5 -11.5t32 -23.5t24.5 -36.5t0 -49.5q-13 -41 -44 -65.5t-70 -44t-81.5 -39.5t-78.5 -52q-13 -44 -26.5 -89t-28.5 -89.5t-33 -86.5t-40 -79q-6 -10 -14 -20q16 9 32.5 16.5t32.5 7.5h27t26 -1q31 0 65 -12
t67.5 -23.5t67 -16.5t65.5 9q18 6 28 13t17.5 15.5t14 19t16.5 23.5q7 7 11 3t2 -12q-10 -16 -18.5 -32t-21.5 -30q-36 -36 -79 -48t-89 -11.5t-93 9t-91 14.5q-27 4 -63.5 8t-70.5 -1q-32 -5 -58.5 -23.5t-53.5 -34.5q-9 -4 -9.5 5t5.5 13q27 15 51 43t44.5 61.5t36.5 69
t27 65.5zM272 479q-6 -17 -12 -33t-11 -33q22 18 56 33t70 33t69 42.5t53 62.5q9 18 1.5 37.5t-23.5 35t-34 25.5t-30 9q-15 0 -30 -12.5t-29 -32t-26.5 -43.5t-22.5 -47.5t-18 -44t-13 -32.5zM137 209q-2 -7 -7 -8.5t-8 2.5q0 -1 0.5 -2t0.5 -2q-1 -6 -6.5 -10.5t-9.5 4.5
q-2 8 2 18t11 18.5t15.5 14t17.5 5.5q25 0 52 -6.5t54 -11t52 -2t46 20.5q8 5 11 -1.5t-2 -12.5q-16 -13 -28 -18q-2 -5 -4 -6q-43 -22 -77.5 -25t-62.5 5q-14 4 -27 10t-27 8q-1 0 -1.5 -0.5t-1.5 -0.5z" />
    <glyph glyph-name="OE" unicode="&#x152;" horiz-adv-x="1717" 
d="M1226 -18q-8 -6 -11.5 1t2.5 13q10 9 17 12q2 11 4.5 21t8.5 19q9 13 22.5 20.5t28 11t30 4t29.5 -0.5q35 -2 70 -10.5t70 -17.5t69.5 -14t69.5 0q11 2 21 7l20 10q10 2 10 -5.5t-6 -12.5q-3 -2 -6 -2.5t-6 -2.5q-2 -5 -4 -6q-51 -32 -111 -44.5t-121 -7.5
q-31 3 -55 10.5t-45 13t-41 6t-43 -10.5q-1 -3 -1.5 -6.5t-1.5 -6.5q-3 -8 -9 -8t-8 8v2zM1381 530q-2 7 3 11t10 0h1q-4 2 -4 8q4 15 5 30.5t9 27.5q17 24 40 31t50 3.5t55 -14l56 -21t53 -17.5t45 -3q9 2 17.5 9.5t16.5 17.5t14.5 19.5t12.5 15.5q8 8 12.5 2t-1.5 -14
q-5 -5 -12.5 -14t-16.5 -20q5 -2 4 -9q-3 -10 -4.5 -20t-6.5 -19q-13 -23 -42 -29.5t-63 -4.5t-65.5 9.5t-48.5 12.5q-2 1 -13 5.5t-23.5 9t-24 8t-15.5 2.5q-9 -2 -15 -8t-11.5 -13.5t-11.5 -14.5t-14 -11q-7 -3 -10 5q0 1 -1 2zM1410 278q-3 -7 -9.5 -7t-8.5 7q2 4 2 7
q-5 7 3 11q1 5 6 10q12 13 31.5 15.5t43 0t50 -9t52 -11.5t49 -7.5t41.5 2.5q3 3 5 3q4 6 12 7t6 -7q1 -5 -6 -11q-15 -5 -28 -13.5t-26 -17.5t-26.5 -17t-29.5 -12q-10 -3 -30.5 2.5t-44 14t-44 17t-30.5 12.5h-1q-4 2 -8 3.5t-8 3.5q0 -1 -1 -2v-1zM1428 274h2h-2z
M1152 -80q-21 -11 -44 -14t-45 1.5t-41.5 16t-32.5 31.5q-8 18 -17.5 34.5t-12.5 35.5q-8 64 -7.5 131t12.5 132.5t37 127.5t64 116q1 1 3 5q-16 12 -35 23.5t-36 17.5q-43 15 -88 23t-92 11q18 -20 29 -55t15 -74.5t0.5 -77.5t-15.5 -65q-33 -75 -80 -132.5t-107.5 -94
t-135.5 -50.5t-163 0q-57 7 -111 33t-87 74q-45 69 -38 128.5t48.5 109.5t109.5 89.5t146.5 67t159 43.5t146.5 19q-55 44 -114 72t-128 33q-99 7 -185 -22.5t-160.5 -83t-138 -123t-118.5 -142.5q-7 -8 -12.5 -3.5t-0.5 12.5q57 74 122.5 146t141 126.5t163.5 85.5t190 23
q30 -2 70 -11t82 -24t82 -36t69 -48q54 -2 106 -10.5t103 -25.5q20 -8 39 -19t36 -24q27 32 63 59.5t72 43.5q10 4 28.5 10.5t32.5 4.5q29 -3 57 -13.5t45 -36.5q27 -67 35 -143.5t-2.5 -153t-38 -148.5t-70.5 -132q-27 -38 -68 -72t-83 -52zM759 289q21 42 31 88.5t9 90.5
t-14 82.5t-38 62.5q-38 -5 -87 -13.5t-102 -22.5t-106.5 -34t-100.5 -47t-85 -63t-60 -81q-23 -47 -24.5 -92.5t18 -82.5t61 -62.5t104.5 -32.5q75 -10 138.5 6t113.5 47.5t86 72.5t56 81zM1016 4q7 -43 23.5 -59t38 -14t45 18.5t45.5 38t39 44t25 36.5q69 125 97 232.5
t35 194.5q-21 -24 -52.5 -39t-60.5 -20q-11 -2 -22 2t-22 6q-20 5 -39 17t-36 26q-48 -79 -75 -168.5t-38 -177.5q-5 -32 -6.5 -68.5t3.5 -68.5zM1190 568q-13 -15 -25 -31t-23 -33q17 -13 34.5 -23.5t37.5 -17.5q18 -6 41.5 -4.5t45.5 10t39.5 23t25.5 34.5v4
q3 60 -14.5 85.5t-45 25.5t-59 -20.5t-57.5 -52.5z" />
    <glyph glyph-name="bullet" unicode="&#x2022;" horiz-adv-x="177" 
d="M27 109q0 17 10 32q2 14 6.5 28t12.5 23q13 19 34.5 34t40.5 17t29 -12t0 -51q-8 -30 -27 -59.5t-47 -46.5q-9 -5 -19.5 -4.5t-19.5 5.5t-14.5 14t-5.5 20z" />
    <glyph glyph-name="tilde" unicode="&#x2dc;" horiz-adv-x="127" 
d="M350 473q-1 -8 -8 -11t-9 8q0 9 5 14.5t11 10.5q8 6 12 8q0 2 1 3q8 19 21 26.5t28 7.5t32 -5t33.5 -10t32 -8.5t27.5 0.5q7 1 9 -4h2q9 -2 7 -9t-8 -10q-9 0 -16 -4t-13.5 -9t-13.5 -10t-15 -6q-19 -3 -36 4t-32.5 14t-30.5 9.5t-30 -10.5q-2 -2 -5.5 -3.5t-3.5 -5.5z
" />
    <glyph glyph-name="atilde" unicode="&#xe3;" 
d="M174 316q3 2 7 2q10 4 21.5 0.5t22.5 -11t20 -17.5t12 -17q5 -10 5 -21q1 1 1.5 2t1.5 2q12 16 23 27t22 16t25 3.5t32 -10.5q7 -3 11.5 -10.5t6.5 -15.5q8 -1 7 -9t-8 -10t-14.5 -3.5t-13.5 -6.5q-14 -10 -27.5 -32.5t-24 -49.5t-15.5 -54.5t-1 -46.5q6 4 10 -3
q0 -1 2 -3l4 2q4 0 6 -1q4 1 6 -1q15 4 36.5 16t42.5 27t37.5 30.5t20.5 24.5q5 10 11.5 6.5t3.5 -12.5q-5 -11 -23.5 -29t-42.5 -36t-49.5 -32t-43.5 -15q-21 -17 -40.5 -27.5t-36 -11t-28.5 9.5t-19 34q-4 -7 -10 -7q-7 -6 -14.5 -11t-16.5 -8q-12 -4 -24.5 -7.5
t-25.5 -7.5q-11 -3 -25 1t-22 12q-41 41 -47 82.5t17 99.5q8 18 19 32t25 25q5 11 11 20.5t17 17.5q20 14 42.5 18t42.5 16zM171 46q10 48 29.5 96t46.5 90q0 1 -0.5 1.5t-0.5 2.5q-1 15 -4.5 26t-27.5 27q-5 5 -13.5 9t-16.5 2q-6 -2 -10 -4q1 0 1 -0.5t1 -0.5q3 -1 5 -6
q0 -12 -7 -22.5t-17 -19.5t-20.5 -17.5t-16.5 -17.5q-20 -27 -33.5 -60.5t-18.5 -66.5q0 -4 -1 -13t-1 -19t1 -18.5t6 -10.5q6 -4 4 -11q14 -3 30 -0.5t35 13.5q14 9 29 20zM214 473q-1 -8 -8 -11t-9 8q0 9 5 14.5t11 10.5q8 6 12 8q0 2 1 3q8 19 21 26.5t28 7.5t32 -5
t33.5 -10t32 -8.5t27.5 0.5q7 1 9 -4h2q9 -2 7 -9t-8 -10q-9 0 -16 -4t-13.5 -9t-13.5 -10t-15 -6q-19 -3 -36 4t-32.5 14t-30.5 9.5t-30 -10.5q-2 -2 -5.5 -3.5t-3.5 -5.5z" />
    <glyph glyph-name="otilde" unicode="&#xf5;" horiz-adv-x="332" 
d="M254 284q1 -2 1 -6l1 -1q12 -7 18 -13.5t10 -17.5q13 -9 22.5 -15t18 -7.5t17.5 3t23 15.5q8 5 11 -1.5t-2 -12.5q-15 -12 -24.5 -17.5t-18 -5.5t-18 4.5t-23.5 12.5q2 -7 8 -12t5 -13q0 -33 -13 -63t-30 -59q-8 -13 -17.5 -30t-20.5 -28q-6 -5 -19.5 -9.5t-30 -7
t-33 -2.5t-28.5 5h-1q-15 -2 -29.5 4.5t-29.5 10.5q-29 8 -40.5 34.5t-13 58.5t4.5 63t13 49q9 23 24 39.5t32 30.5q5 4 17.5 9t27.5 9t30 4.5t24 -3.5q2 1 6 1q5 -3 10.5 -4.5t10.5 -3.5q11 -2 20.5 -7t22.5 -12q4 5 11 1zM183 289q-7 0 -11 -1q-4 -2 -7 -1
q-30 -16 -51.5 -47.5t-33 -68.5t-11.5 -75t13 -67q0 -1 1 -2q6 -3 12 -3q1 6 6.5 8t9.5 -6q0 -1 2 -3q22 1 40.5 17t33 39.5t23 52.5t11 57t-2.5 52t-18 39q-7 6 -17 9zM171 473q-1 -8 -8 -11t-9 8q0 9 5 14.5t11 10.5q8 6 12 8q0 2 1 3q8 19 21 26.5t28 7.5t32 -5t33.5 -10
t32 -8.5t27.5 0.5q7 1 9 -4h2q9 -2 7 -9t-8 -10q-9 0 -16 -4t-13.5 -9t-13.5 -10t-15 -6q-19 -3 -36 4t-32.5 14t-30.5 9.5t-30 -10.5q-2 -2 -5.5 -3.5t-3.5 -5.5z" />
    <glyph glyph-name="oe" unicode="&#x153;" horiz-adv-x="546" 
d="M254 284q1 -2 1 -6l1 -1q12 -7 18 -13.5t10 -17.5q13 -9 22.5 -15t18 -7.5t17.5 3t23 15.5q8 5 11 -1.5t-2 -12.5q-15 -12 -24.5 -17.5t-18 -5.5t-18 4.5t-23.5 12.5q2 -7 8 -12t5 -13q0 -33 -13 -63t-30 -59q-8 -13 -17.5 -30t-20.5 -28q-6 -5 -19.5 -9.5t-30 -7
t-33 -2.5t-28.5 5h-1q-15 -2 -29.5 4.5t-29.5 10.5q-29 8 -40.5 34.5t-13 58.5t4.5 63t13 49q9 23 24 39.5t32 30.5q5 4 17.5 9t27.5 9t30 4.5t24 -3.5q2 1 6 1q5 -3 10.5 -4.5t10.5 -3.5q11 -2 20.5 -7t22.5 -12q4 5 11 1zM183 289q-7 0 -11 -1q-4 -2 -7 -1
q-30 -16 -51.5 -47.5t-33 -68.5t-11.5 -75t13 -67q0 -1 1 -2q6 -3 12 -3q1 6 6.5 8t9.5 -6q0 -1 2 -3q22 1 40.5 17t33 39.5t23 52.5t11 57t-2.5 52t-18 39q-7 6 -17 9zM450 300q11 1 9 -9q26 -7 39.5 -26t-2.5 -49q-6 -11 -17 -13.5t-21 -7.5q-34 -17 -63.5 -42.5
t-61.5 -47.5q-5 -5 -8 -5q-1 -5 -1.5 -10t-0.5 -10l-1.5 -18t0 -10.5t2.5 -9t5 -13.5q5 -2 9 -4t9 -4q3 -3 4 -5q28 -3 50 0q14 2 24 4t23 9q17 8 28 22t25 25q16 11 33.5 17.5t32.5 16.5q2 1 6 5q2 -1 4 -1t4 -1t3 -2t3 -2v-1q-1 -1 -1 -2t-1 -2q-2 -3 -5.5 -5.5t-6.5 -4.5
q-15 -11 -32 -17t-33 -17q-10 -6 -18 -15.5t-16 -18.5t-20.5 -15.5t-26.5 -10t-28 -4.5t-26 0q-26 2 -43 6t-29 12.5t-19.5 23t-14.5 37.5q-7 26 -10 45.5t-0.5 36.5t11.5 34.5t25 40.5q19 26 51 44.5t64 20.5h3q11 5 21 6t18 -3zM409 278q-15 -11 -28 -32t-23 -44.5
t-17 -45t-10 -31.5q11 10 29 23.5t36.5 27t34.5 24t23 13.5q7 4 15.5 5t13.5 7q10 13 6 23t-14.5 16t-24 9t-22.5 3q-4 0 -5 1q-10 0 -14 1z" />
    <glyph glyph-name="exclamdown" unicode="&#xa1;" horiz-adv-x="182" 
d="M-43.9824 -102.963q1 5 4 8q2.99902 -5 4.49902 -12.999q1.5 -8 4.5 -11.5q3 -3.49902 8.99902 2q6 5.5 17.999 26.499q7 11.999 13 24.498q5.99902 12.499 11.999 24.499q30.998 66.9951 59.4961 141.491q28.498 74.4951 36.498 149.49q-1 2 -5 6q-4 -2 -8.99902 -4
q-5 -2 -8 -2t-3 2t6 7q15.999 14.999 31.998 14.499t26.998 -11.999q11 -11.5 14.999 -30.998q4 -19.499 -2.99902 -43.498q-7 -28.998 -16.999 -63.9961q-10 -34.998 -21.999 -69.9951q-11.999 -34.998 -25.498 -67.4961q-13.5 -32.498 -28.499 -57.4971
q-3.99902 -6.99902 -10.499 -18.998q-6.5 -12 -13.999 -23.499q-7.5 -11.499 -15.499 -20.999q-8 -9.49902 -16.999 -13.499q-10.999 -3.99902 -22.499 -1q-11.499 3 -20.498 10.5q-9 7.49902 -14.999 17.499q-6 9.99902 -5 19.998zM213.002 435.005q-8 -2 -14.999 -2.5
q-7 -0.5 -12.499 3.5q-5.5 3.99902 -7.5 15.499q-2 11.499 -1 33.498q1 14.999 9.99902 22.998q9 8 20.499 9t22.499 -4.5q10.999 -5.5 15.999 -15.999q4.99902 -10.499 2 -25.998q-3 -15.499 -20.999 -35.498h-13.999z" />
    <glyph glyph-name="cent" unicode="&#xa2;" horiz-adv-x="256" 
d="M209 293q2 -2 4 -6q15 -5 21 -20q-1 -6 -6.5 -10.5t-9.5 4.5q-3 6 -13 8q-2 -2 -4 -2q-17 -3 -27.5 -4.5t-19 -4.5t-17 -9.5t-20.5 -19.5q-13 -14 -26.5 -42t-21.5 -59.5t-6.5 -60.5t18.5 -44q1 -3 1 -9q15 -3 37 2t47.5 18t52.5 34.5t52 51.5q8 3 13 0.5t0 -10.5
q-49 -49 -97.5 -78.5t-87.5 -35.5q1 -3 0 -7q-6 -17 -10 -34t-11 -34q-5 -6 -11 -4t-4 10q6 17 9.5 34.5t10.5 33.5q-39 -2 -58 28q-17 27 -23 60.5t-0.5 67.5t21 64t41.5 51q9 7 21 11.5t22 8.5q11 5 21 13t23 8q5 0 10.5 -1t11.5 -3q5 18 11 35l12 34q5 10 11.5 6.5
t3.5 -12.5q-8 -20 -14 -36.5t-9 -30.5q10 -5 21 -6z" />
    <glyph glyph-name="trademark" unicode="&#x2122;" horiz-adv-x="389" 
d="M14 611q10 1 9.5 -7.5t-7.5 -11.5h-3q4 -15 23 -13.5t44 8.5q6 19 18 29q9 5 13 -5q0 -2 0.5 -3.5t0.5 -3.5q-2 -6 -4 -8q28 9 52.5 14.5t33.5 -4.5q6 -6 1.5 -23t-10.5 -34q7 9 14 20t14 21.5t12.5 18.5t8.5 12q5 4 10 3q9 -6 12.5 -14t3.5 -17t-2 -19t-3 -20
q3 7 9.5 24.5t15.5 35t21 29t27 5.5q6 -2 8 -9.5t3 -16.5t0.5 -16.5t-0.5 -10.5q-1 -9 -1.5 -18t-2.5 -19l-4 -30t-4 -31q6 11 11.5 21t10.5 20q7 7 11 3t2 -12q-8 -16 -11.5 -23.5t-6.5 -12t-6.5 -8.5t-11.5 -13q-9 -7 -13 2q-5 19 -1.5 39l7 40t5 39.5t-5.5 37.5
q-9 0 -19 -15.5t-19 -35t-16.5 -37t-11.5 -22.5q-5 -5 -8.5 -2.5t-5.5 8.5q-2 20 0.5 39t1.5 38q-7 -9 -15.5 -23t-17.5 -28.5t-18.5 -26t-19.5 -15.5q-8 0 -9 9q3 20 10 38t9 38h-1q-23 -1 -43.5 -10t-42.5 -17q-5 -16 -7.5 -33.5t-3.5 -31.5q-1 -8 -8 -11t-9 8
q2 13 3.5 29.5t5.5 33.5q-21 -6 -41 -3q-9 1 -18.5 8.5t-14 16t-2 16t16.5 10.5z" />
    <glyph glyph-name="currency.001" horiz-adv-x="287" 
d="M191 252q8 -35 5.5 -61.5t-24.5 -48.5q2 -4 3.5 -8.5t3.5 -8.5q4 6 8.5 7t7.5 -7q0 -6 -0.5 -10.5t-4.5 -9.5q-5 -7 -12 -5q-8 5 -12.5 13.5t-7.5 16.5q-5 -3 -9 -5.5t-9 -5.5q-28 -16 -46 -4t-26 38q-5 -4 -9.5 -8.5t-4.5 -8.5q-3 -8 -9 -8t-8 8q3 10 10.5 19t16.5 16
q-4 29 4 60t31 49q4 3 9 0q-5 11 -14 19t-11 21q-2 8 5 12t11 -6q2 -11 11 -19.5t14 -19.5q16 9 31.5 13.5t23.5 -4.5q1 -2 2 -2.5t2 -2.5q3 -2 3 -8q1 -3 1 -5.5t1 -5.5q8 9 17 17.5t21 11.5q10 1 9.5 -7.5t-7.5 -11.5q-11 -1 -18 -9t-18 -20zM173 250q-2 5 -2 11t-1 11
q-10 -2 -12 -2q0 -5 -2 -8q-11 -10 -19.5 -24.5t-15.5 -31t-11.5 -33t-5.5 -30.5q0 -2 -2 -6h1q13 -5 26.5 -1.5t23.5 11.5q16 13 22.5 26t7 26t-3 26t-6.5 25z" />
    <glyph glyph-name="yen" unicode="&#xa5;" horiz-adv-x="1435" 
d="M1204 680q-8 0 -33 -22.5t-61.5 -60t-81.5 -86.5t-92 -101.5t-94 -106t-87 -99.5t-71 -81.5t-46 -53.5q-25 -29 -50 -54.5t-52 -49t-57 -46t-65 -45.5q-39 -27 -71.5 -26.5t-58.5 19.5t-45 52.5t-30.5 71.5t-15.5 76t0 67q-25 -5 -50 2t-47 21t-39 33t-26 39
q-23 51 -24 111t15.5 121t49 118t76.5 101t97 70.5t111 26.5q14 0 23.5 -8.5t14.5 -20.5t6.5 -25t-0.5 -23q-6 -29 -14 -54t-20.5 -47t-31 -40t-46.5 -31q-9 -4 -9.5 5t5.5 13q24 5 44 25.5t32.5 47.5t16.5 55.5t-3 49.5t-27 29.5t-54 -5.5q-38 -15 -76.5 -48t-72 -78
t-57.5 -100.5t-32 -115.5q-6 -48 -4 -90.5t17.5 -75t46 -53.5t81.5 -26q3 25 12 56t19 59q28 76 65 149.5t83.5 141t103 127t124.5 106.5q39 28 80 46t76 23t62.5 -3t39.5 -30t6 -59t-36 -90q-33 -60 -65.5 -107t-68.5 -89.5t-78.5 -84.5t-94.5 -90q-65 -60 -145.5 -108.5
t-161.5 -71.5q-4 -35 -0.5 -72.5t16.5 -74.5q20 -60 44 -89t53.5 -32t66 17.5t82.5 58.5q45 38 82.5 74t75.5 80q15 17 45.5 52.5t70.5 81t87 98t94.5 104.5t93 100.5t83.5 85.5t64.5 59.5t36.5 23.5q17 1 32.5 -8.5t27.5 -24t20 -32t11 -31.5q3 -17 -5 -39t-19.5 -45.5
t-23 -45.5t-16.5 -38q-7 -26 -1 -49.5t21 -38t37 -18t46 10.5q27 38 54 84t55.5 90.5t57.5 82t61 58.5q4 2 18 9.5t30 14t29.5 11t15.5 0.5q-11 -5 -27 -22t-33.5 -40t-35 -48.5t-32 -47.5t-24.5 -38t-12 -19q-30 -53 -58.5 -110.5t-58.5 -115t-63 -113.5t-72 -104
q-41 -51 -94.5 -80.5t-110.5 -46.5q-5 -2 -7 0t-1.5 5.5t3 7t5.5 5.5q17 8 34 13.5t31 17.5q18 16 38.5 44t40 58t36 59t27.5 47q18 31 39 71t44 85q-6 -4 -18 -7.5t-25.5 -5.5t-26 -3.5t-20.5 -0.5q-23 4 -41.5 8.5t-31.5 13.5t-19.5 25t-4.5 42q2 31 12.5 60.5t23 58
t25 57.5t17.5 59q1 4 0 12.5t-3 17t-6 15t-10 6.5zM514 704q-53 -55 -101 -117t-86 -129.5t-65.5 -141t-39.5 -150.5q25 6 48.5 17.5t45.5 24.5q62 36 128.5 93.5t129.5 126t118 141.5t95 139q31 52 39 82.5t-1.5 44t-32 13t-52.5 -10.5t-64 -27t-65.5 -36t-57.5 -38
t-39 -32zM1377 145q-54 0 -106 -1.5t-105 -1.5q-8 1 -6 9.5t9 9.5q54 0 106.5 1.5t105.5 1.5q10 -2 7 -10.5t-11 -8.5zM1406 219q-25 -2 -50 -2h-50t-50 -1.5t-49 -6.5q-3 -3 -7 -3q-1 1 -3 1q-6 3 -4.5 9t6.5 9q24 7 49.5 9t51.5 2t51.5 -0.5t51.5 1.5q1 1 6 1l1 -1
q6 -4 4.5 -10t-8.5 -8z" />
    <glyph glyph-name="brokenbar" unicode="&#xa6;" horiz-adv-x="175" 
d="M60 165q7 7 11 3t2 -12q-10 -15 -19 -46.5t-17.5 -69.5t-15.5 -76t-13 -66q-3 -8 -9 -8t-8 8q5 23 12 61.5t15.5 78t19 75t22.5 52.5zM125 370q-1 -6 -6.5 -10.5t-9.5 4.5q-2 10 2 18l8 16q17 42 30.5 83.5t27.5 83.5q5 10 11.5 6.5t3.5 -12.5q-16 -48 -32 -94t-35 -92
v-3z" />
    <glyph glyph-name="minus" unicode="&#x2212;" horiz-adv-x="206" 
d="M18 182q39 -1 78 -3t78 -2q10 -2 7 -10.5t-11 -8.5q-39 0 -78 2.5t-78 2.5h-1h-1h-2h-2q-6 3 -4 11q0 1 0.5 1t0.5 1v1l2 2q1 1 5 3h1h4h1z" />
    <glyph glyph-name="cedilla.001" horiz-adv-x="102" 
d="M68 -94q-11 1 -24 0q-2 0 -2.5 0.5t-1.5 0.5q-4 0 -8 9q0 11 7.5 24.5t18.5 27.5q2 4 5 7.5t6 7.5q3 6 5.5 12t7.5 11q-1 0 -1 2q-1 6 2.5 10.5t9.5 2.5q2 -1 4 -3q3 3 6 3q12 0 14 -1t12 -4q6 -4 3 -13q-7 -12 -20 -22q-1 -1 -2 -1t-2 -1q-1 0 -2 -0.5t-2 -0.5
q-6 -3 -10 -10.5t-7.5 -15.5t-5.5 -15.5t-3 -11.5q10 -2 18 -6t13 -12q3 -5 7 -10t5 -12q1 -19 -13 -36t-33.5 -26t-38.5 -6.5t-28 22.5q-3 8 3 14.5t11 -2.5q4 -8 5 -12q2 0 6 -2q1 1 3 1q8 0 11.5 3.5t8.5 7.5q5 7 9 12.5t6 11t1.5 12.5t-4.5 18v3zM100 -120q0 3 -1 4v-3z
" />
    <glyph glyph-name="questiondown" unicode="&#xbf;" horiz-adv-x="310" 
d="M196.008 270.016q-73.9951 -54.9971 -119.493 -105.494q-45.4971 -50.4971 -68.4951 -95.4941q-22.999 -44.9971 -25.999 -83.4951q-2.99902 -38.4971 8 -69.4951q31.998 14.999 63.4961 33.498q31.498 18.498 61.4961 34.998q29.998 16.498 58.4961 27.998
q28.499 11.499 53.4971 12.499q34.998 2 55.4971 -8.5q20.498 -10.499 29.498 -27.998q8.99902 -17.499 8.49902 -39.4971q-0.5 -21.999 -6.99902 -43.498q-6.5 -21.498 -17.499 -39.9971q-11 -18.499 -22.999 -29.498q-14.999 -13.999 -41.4971 -24.499
q-26.499 -10.499 -58.9971 -16.499q-32.4971 -5.99902 -68.4951 -5.49902t-69.4961 8.99902q-33.498 8.5 -60.9961 27.498q-27.498 18.999 -44.4971 49.9971q-26.999 -8.99902 -53.9971 -14.499q-26.998 -5.49902 -51.4971 -4.5q-24.498 1 -45.4971 8.5
q-20.999 7.49902 -35.998 25.498q-10.999 12 -20.498 24.499q-9.5 12.499 -20.499 25.498q-4 6 1 13.499q5 7.5 11.999 0.5q10 -11.999 18.499 -24.998t20.499 -22.999q35.9971 -29.998 78.9951 -31.498q42.9971 -1.5 90.9941 13.499l-2 4q-11.999 45.9971 -6.49902 88.4951
q5.49902 42.4971 23.498 80.9951q17.999 38.4971 46.9971 70.9951t64.9961 58.4961l57.9971 34.998q0.999023 0 0.999023 0.5t1 0.5q20.999 12 40.998 25.499t35.998 30.498q13.999 16.999 19.998 35.498q6 18.498 18.999 34.4971q8 6 11.499 0.5q3.5 -5.49902 -0.5 -12.499
q-6.99902 -8.99902 -10.999 -17.999q-4 -8.99902 -7.49902 -18.499q-3.5 -9.49902 -8.5 -18.498q-5 -9 -13.999 -16.999zM264.004 -108.962q18.999 54.9971 14.999 81.9951t-23.999 33.998q-19.998 7 -51.4961 -2q-31.498 -8.99902 -67.4961 -26.498t-72.4961 -38.498
q-36.4971 -20.998 -67.4961 -38.9971q13 -25.999 34.998 -44.9971q21.999 -18.999 48.4971 -29.999q26.499 -10.999 54.4971 -13.499t53.4971 5q25.498 7.49902 45.9971 25.498q20.498 17.999 30.498 47.9971zM296.002 525q16.999 -3 21.998 -15.999q2 -1 2.5 -2t2.5 -3
q2 -10.999 -5 -24.998q-6.99902 -14 -18.498 -23.999q-11.5 -9.99902 -24.499 -12.499t-21.999 10.499q-8.99902 11.999 -8.49902 25.499q0.5 13.499 7 24.998q6.49902 11.499 18.498 17.999q12 6.5 25.999 3.5z" />
    <glyph glyph-name="onehalf" unicode="&#xbd;" horiz-adv-x="754" 
d="M82 372q-8 -3 -9.5 4t3.5 12q18 13 34 20t31 10q5 5 10 14t10 18.5t8.5 18.5t5.5 13q23 48 41.5 96t40.5 96q0 1 4.5 13.5t10.5 23.5q-14 -4 -26 -6.5t-20 -2.5q-10 0 -8.5 9t9.5 10q29 2 54 13.5t49 24.5q4 2 11 9t12 10q-2 5 2 9.5t10 3.5q1 -1 1.5 -1t1.5 -1
q6 -4 3 -13v-1q6 0 4 -9q-3 -10 -3.5 -20.5t-5.5 -20.5q-18 -46 -41.5 -89.5t-43.5 -90.5q-15 -35 -29 -72.5t-36 -68.5q23 -11 47.5 -27.5t54.5 -33.5q7 -5 3 -13.5t-12 -4.5q-24 13 -44.5 27.5t-40 25.5t-38.5 17.5t-40 3.5q-6 -4 -10 -4t-5 1q-11 -3 -23 -8.5t-26 -15.5z
M768 707q9 -2 7 -9t-8 -10q-16 0 -32 3t-31 -4q-22 -9 -46 -30.5t-47.5 -47t-43 -50t-32.5 -39.5q-29 -36 -53.5 -69t-48 -65.5t-48 -66t-52.5 -70.5q-26 -33 -50.5 -67t-54.5 -65q-24 -26 -48.5 -50.5t-49.5 -50.5q-9 -10 -28 -16.5t-41 -12.5t-42 -11.5t-32 -12.5
q-3 -2 -5 0q-1 -1 -1.5 -1t-1.5 -1q-8 -3 -9.5 4t3.5 12q22 14 45 26t43 29q58 48 110.5 110.5t102 130t96.5 135t94 126.5q11 13 32 39.5t46.5 53.5t51.5 50t47 31q16 6 33 3.5t34 -2.5q1 0 1 -0.5t1 -0.5q14 3 29 1t29 -2zM509 297q28 -2 56.5 -9t49.5 -22t31 -39.5
t1 -61.5q-5 -22 -21 -45t-36.5 -45.5t-42.5 -42t-38 -33.5q-4 -3 -16.5 -11.5t-28 -18.5t-31.5 -19.5t-26 -13.5q40 -18 63 -49.5t41.5 -65.5t39.5 -65.5t57 -50.5q16 -8 29 -2t19 9q10 2 14.5 -1t-1.5 -8q-7 -2 -13 -6.5t-13 -6.5q-45 -7 -91 4.5t-77 49.5q-14 20 -24 42
t-24 42q-6 8 -20 22t-30.5 28t-32 25t-24.5 14q-8 3 -16.5 2t-16.5 -3q-3 -3 -8 -3q-1 1 -3 1q-7 3 -5.5 9t6.5 9q12 1 35 13.5t46.5 27.5t42.5 28.5t25 16.5q25 20 53.5 41t49.5 45t31 51.5t-1 60.5q-8 26 -19.5 39.5t-34.5 19.5q-40 -2 -65 -12q-19 -8 -35.5 -23.5
t-33.5 -26.5q-8 -3 -9.5 4t3.5 12q25 17 47 35t52 24q5 1 8.5 2.5t8 3t11 2.5t17.5 1z" />
    <glyph glyph-name="onequarter" unicode="&#xbc;" horiz-adv-x="733" 
d="M72 346q-8 -3 -9.5 4t3.5 12q18 13 34 20t31 10q5 5 10 14t10 18.5t8.5 18.5t5.5 13q23 48 41.5 96t40.5 96q0 1 4.5 13.5t10.5 23.5q-14 -4 -26 -6.5t-20 -2.5q-10 0 -8.5 9t9.5 10q29 2 54 13.5t49 24.5q4 2 11 9t12 10q-2 5 2 9.5t10 3.5q1 -1 1.5 -1t1.5 -1
q6 -4 3 -13v-1q6 0 4 -9q-3 -10 -3.5 -20.5t-5.5 -20.5q-18 -46 -41.5 -89.5t-43.5 -90.5q-15 -35 -29 -72.5t-36 -68.5q23 -11 47.5 -27.5t54.5 -33.5q7 -5 3 -13.5t-12 -4.5q-24 13 -44.5 27.5t-40 25.5t-38.5 17.5t-40 3.5q-6 -4 -10 -4t-5 1q-11 -3 -23 -8.5t-26 -15.5z
M789 716q9 -2 7 -9t-8 -10q-16 0 -32 3t-31 -4q-22 -9 -46 -30.5t-47.5 -47t-43 -50t-32.5 -39.5q-29 -36 -53.5 -69t-48 -65.5t-48 -66t-52.5 -70.5q-26 -33 -50.5 -67t-54.5 -65q-24 -26 -48.5 -50.5t-49.5 -50.5q-9 -10 -28 -16.5t-41 -12.5t-42 -11.5t-32 -12.5
q-3 -2 -5 0q-1 -1 -1.5 -1t-1.5 -1q-8 -3 -9.5 4t3.5 12q22 14 45 26t43 29q58 48 110.5 110.5t102 130t96.5 135t94 126.5q11 13 32 39.5t46.5 53.5t51.5 50t47 31q16 6 33 3.5t34 -2.5q1 0 1 -0.5t1 -0.5q14 3 29 1t29 -2zM701 287q10 2 10 -5.5t-6 -12.5q-12 -5 -25 -8.5
t-23 -12.5q-19 -18 -34.5 -49t-28.5 -69.5t-24 -81.5t-22 -85t-23 -80t-26 -66q-9 -17 -19.5 -33.5t-24.5 -30.5q-6 -6 -19.5 -13t-30 -11.5t-32.5 -5.5t-26 5q-5 6 -3 12q6 6 14.5 6t20 6.5t26 25.5t31.5 64q16 40 28 81.5t23.5 82.5t23.5 81.5t27 80.5q-27 -15 -61 -20
t-65 -7q-5 0 -17 -3.5t-24 -6.5t-22.5 -4t-12.5 2h-1q14 11 25 31t21.5 44.5t21.5 51t23.5 49.5t28.5 40t37 24q8 3 27 4.5t30 5.5q10 1 9.5 -7.5t-7.5 -11.5q-21 -8 -34.5 -28.5t-23 -45.5t-16.5 -50t-15 -43q-5 -10 -12.5 -17t-16.5 -13q14 2 25 3t16 2q20 5 36 10.5
t33 12.5h4q6 16 13 32.5t16 30t22 23t31 11.5q3 0 13 -1t21.5 -2t21 -1.5t12.5 1.5z" />
    <glyph glyph-name="threequarters" unicode="&#xbe;" horiz-adv-x="763" 
d="M-37 191q22 -31 46 -36t46.5 5.5t42.5 31.5t35 43q12 18 26.5 45.5t25.5 58.5t16.5 61.5t0.5 54.5q-4 16 -8 30.5t-4 30.5v3q0 2 2 4l1 1q15 0 33.5 20.5t34 49t24 59t3.5 50.5q-2 9 -9.5 19.5t-17 18.5t-19 14t-15.5 6q-17 -3 -29 -7t-24 -15q-9 0 -8 7.5t6 11.5
q10 7 26.5 14t34.5 10.5t35.5 4t30.5 -5.5q30 -15 47 -39t22.5 -51t-0.5 -56t-20.5 -54t-37 -44.5t-51.5 -28.5q2 -21 7 -41.5t9 -42.5q5 -32 -0.5 -63.5t-18.5 -61t-32 -56.5t-40 -51q-20 -22 -55 -36t-71 -17t-66.5 6t-42.5 32q-12 18 -15.5 33.5t-2.5 31t5 31.5t8 36
q3 8 11 9.5t6 -9.5q-3 -17 -7 -31.5t-5.5 -29t1 -28.5t13.5 -29zM789 716q9 -2 7 -9t-8 -10q-16 0 -32 3t-31 -4q-22 -9 -46 -30.5t-47.5 -47t-43 -50t-32.5 -39.5q-29 -36 -53.5 -69t-48 -65.5t-48 -66t-52.5 -70.5q-26 -33 -50.5 -67t-54.5 -65q-24 -26 -48.5 -50.5
t-49.5 -50.5q-9 -10 -28 -16.5t-41 -12.5t-42 -11.5t-32 -12.5q-3 -2 -5 0q-1 -1 -1.5 -1t-1.5 -1q-8 -3 -9.5 4t3.5 12q22 14 45 26t43 29q58 48 110.5 110.5t102 130t96.5 135t94 126.5q11 13 32 39.5t46.5 53.5t51.5 50t47 31q16 6 33 3.5t34 -2.5q1 0 1 -0.5t1 -0.5
q14 3 29 1t29 -2zM733 285q10 2 10 -5.5t-6 -12.5q-12 -5 -25 -8.5t-23 -12.5q-19 -18 -34.5 -49t-28.5 -69.5t-24 -81.5t-22 -85t-23 -80t-26 -66q-9 -17 -19.5 -33.5t-24.5 -30.5q-6 -6 -19.5 -13t-30 -11.5t-32.5 -5.5t-26 5q-5 6 -3 12q6 6 14.5 6t20 6.5t26 25.5
t31.5 64q16 40 28 81.5t23.5 82.5t23.5 81.5t27 80.5q-27 -15 -61 -20t-65 -7q-5 0 -17 -3.5t-24 -6.5t-22.5 -4t-12.5 2h-1q14 11 25 31t21.5 44.5t21.5 51t23.5 49.5t28.5 40t37 24q8 3 27 4.5t30 5.5q10 1 9.5 -7.5t-7.5 -11.5q-21 -8 -34.5 -28.5t-23 -45.5t-16.5 -50
t-15 -43q-5 -10 -12.5 -17t-16.5 -13q14 2 25 3t16 2q20 5 36 10.5t33 12.5h4q6 16 13 32.5t16 30t22 23t31 11.5q3 0 13 -1t21.5 -2t21 -1.5t12.5 1.5z" />
    <glyph glyph-name="ordfeminine" unicode="&#xaa;" 
d="M187 535q3 2 7 2q10 4 21.5 0.5t22.5 -11t20 -17.5t12 -17q5 -10 5 -21q1 1 1.5 2t1.5 2q12 16 23 27t22 16t25 3.5t32 -10.5q7 -3 11.5 -10.5t6.5 -15.5q8 -1 7 -9t-8 -10t-14.5 -3.5t-13.5 -6.5q-14 -10 -27.5 -32.5t-24 -49.5t-15.5 -54.5t-1 -46.5q6 4 10 -3
q0 -1 2 -3l4 2q4 0 6 -1q4 1 6 -1q15 4 36.5 16t42.5 27t37.5 30.5t20.5 24.5q5 10 11.5 6.5t3.5 -12.5q-5 -11 -23.5 -29t-42.5 -36t-49.5 -32t-43.5 -15q-21 -17 -40.5 -27.5t-36 -11t-28.5 9.5t-19 34q-4 -7 -10 -7q-7 -6 -14.5 -11t-16.5 -8q-12 -4 -24.5 -7.5
t-25.5 -7.5q-11 -3 -25 1t-22 12q-41 41 -47 82.5t17 99.5q8 18 19 32t25 25q5 11 11 20.5t17 17.5q20 14 42.5 18t42.5 16zM184 265q10 48 29.5 96t46.5 90q0 1 -0.5 1.5t-0.5 2.5q-1 15 -4.5 26t-27.5 27q-5 5 -13.5 9t-16.5 2q-6 -2 -10 -4q1 0 1 -0.5t1 -0.5q3 -1 5 -6
q0 -12 -7 -22.5t-17 -19.5t-20.5 -17.5t-16.5 -17.5q-20 -27 -33.5 -60.5t-18.5 -66.5q0 -4 -1 -13t-1 -19t1 -18.5t6 -10.5q6 -4 4 -11q14 -3 30 -0.5t35 13.5q14 9 29 20z" />
    <glyph glyph-name="germandbls.001" horiz-adv-x="324" 
d="M350 518q-2 27 -16 35t-32 5t-36.5 -12.5t-28.5 -16.5q-4 -4 -6 -7q-11 -17 -21.5 -42.5t-20 -53.5t-17.5 -54t-14 -44q-16 -50 -28 -94.5t-27 -85.5t-35 -78.5t-51 -73.5q-11 -12 -26.5 -17t-29.5 -13q-3 -2 -5 0t-2 5q-5 -2 -7 4.5t3 11.5q8 7 16.5 12.5t13.5 15.5
q9 14 19.5 42t20.5 58t18.5 56.5t11.5 38.5q14 46 27.5 92.5t30.5 90t39.5 81.5t55.5 67q9 7 34.5 18.5t54 18.5t53 4.5t31.5 -22.5q20 -23 24 -54t-2.5 -64t-19.5 -63.5t-27 -51.5q-9 -14 -15.5 -23.5t-13.5 -17t-13.5 -14.5t-15.5 -16q-14 -16 -29 -33.5t-32 -31.5
q12 -2 24 -6q20 -9 28 -22.5t8 -29.5t-4.5 -33t-9.5 -33q-8 -26 -28.5 -55t-42.5 -57t-40.5 -52.5t-23.5 -40.5q-5 -20 -7.5 -40t-3.5 -41q-1 -5 -4.5 -8.5t-6.5 -2.5q-3 -4 -7.5 -4t-6.5 8q0 24 -2.5 50.5t-1.5 53.5t6.5 52t20.5 45t32.5 37.5t31.5 38.5q8 12 16 24.5
t13 25.5t5 26.5t-8 26.5q-7 2 -14 3t-14 3q-5 2 -5 8h-1q-9 0 -8 7.5t6 11.5q2 0 3 1q2 5 9 7q1 -1 5 -1q0 1 2 3q28 21 56 60.5t49.5 85.5t33 93t8.5 82z" />
    <glyph glyph-name="Thorn" unicode="&#xde;" horiz-adv-x="426" 
d="M234 657q11 8 23 13.5t24 10.5q2 3 5 5q16 6 21.5 -1.5t5.5 -20.5t-4.5 -27t-8.5 -20q-14 -23 -36.5 -43t-45.5 -38q-9 -26 -16.5 -50.5t-12.5 -41.5l-2 -6l-2 -6q20 20 46 29t55 9q34 0 61 -21.5t42.5 -52.5t17.5 -66.5t-12 -64.5q-10 -20 -19.5 -35.5t-21.5 -29
t-26 -25t-33 -23.5q-20 -13 -45.5 -13t-50.5 9.5t-46 26.5t-33 38q-21 -65 -46 -122.5t-57 -94.5q-11 -12 -26.5 -17t-29.5 -13q-3 -2 -5 0t-2 5q-5 -2 -7 4.5t3 11.5q8 7 16.5 12.5t13.5 15.5q9 14 19.5 42t20.5 58t18.5 56.5t11.5 38.5q7 24 16 54t18.5 63.5t21 69
t23.5 69.5q-39 -29 -82 -56.5t-89 -48.5t-93.5 -33.5t-93.5 -12.5h-8t-9 -1q-19 -15 -37.5 -28.5t-38.5 -24.5q-27 -16 -58 -24t-56.5 -3.5t-41 24.5t-12.5 60q3 8 8.5 10t8.5 -7q-3 -35 10.5 -51t35 -19t48.5 5t52 22q12 7 24.5 15.5t26.5 19.5q-3 0 -6 0.5t-7 1.5
q-28 6 -41.5 21.5t-15.5 35.5t5.5 43t20.5 43q11 18 35.5 51.5t55 67t62.5 58.5t59 25q10 0 19.5 -3.5t18.5 -5.5q2 -3 4 -7l6 -22t5 -22q3 -13 -5 -34t-19.5 -42.5t-23.5 -40t-16 -25.5q-20 -34 -48 -66.5t-61 -61.5q47 1 97 17t98 39.5t92 52t80 55.5q20 52 44 95.5
t51 67.5zM175 398q-11 -37 -22 -77t-24 -81q7 -24 30 -41q21 -16 40.5 -26t39.5 -12q23 12 43.5 44t33 70.5t16.5 76.5t-6 62q-5 13 -16.5 19t-16.5 17q-26 3 -53 -4.5t-46 -27.5q-5 -5 -9.5 -10t-9.5 -10zM-283 334q7 -2 14 -2.5t14 -1.5q31 27 62.5 59.5t57.5 68t43 71
t20 67.5q1 10 -3 19t-6 19q-8 2 -14.5 5.5t-14.5 1.5q-31 -6 -67 -34.5t-68 -66t-55 -78t-28 -70.5q-2 -9 1 -19t5 -20q10 -5 19 -11t20 -8zM262 638q-9 -13 -17 -31.5t-16 -40.5q29 26 55 55q1 2 4 7.5t5.5 12.5t3.5 13.5t0 9.5h-1q-8 -6 -17.5 -11t-16.5 -15z" />
    <glyph glyph-name="thorn" unicode="&#xfe;" horiz-adv-x="363" 
d="M280 10q-6 -5 -9 -3q-21 -15 -45.5 -17.5t-49 4t-46 22t-34.5 36.5q-6 10 -9.5 17t-5.5 14q-19 -59 -38.5 -116.5t-38.5 -106.5t-37.5 -86.5t-34.5 -55.5q-11 -12 -26.5 -17t-29.5 -13q-3 -2 -5 0t-2 5q-5 -2 -7 4.5t3 11.5q8 7 16.5 12.5t13.5 15.5q9 14 19.5 42
t20.5 58t18.5 56.5t11.5 38.5q10 31 27.5 91t40 134t48.5 154.5t53 150.5t52.5 123t47.5 72q14 11 30 16.5t31 13.5q8 2 8.5 -5t-4.5 -12q-2 -5 -3 -6q-8 -6 -17.5 -11t-16.5 -15q-11 -17 -21.5 -42.5t-20 -53.5t-17.5 -54t-14 -44q-10 -32 -25.5 -86t-35.5 -121
q22 21 51 32t60 12q4 1 8 0q23 -2 42 -7q13 -4 22 -20.5t13.5 -37t6 -40.5t1.5 -32q-1 -12 -5.5 -22.5t-7.5 -21.5q-2 -9 -4.5 -18t-5.5 -18q19 20 37.5 39t38.5 37q8 5 11 -1.5t-2 -12.5q-30 -28 -58 -57t-56 -59zM116 196l-12 -38t-12 -39q5 -23 12.5 -42.5t27.5 -37.5
q22 -20 51 -28q-3 5 1 11q5 11 15 18t16 17q7 12 11 21t6.5 19l5.5 22t8 31q10 37 11 60.5t-18 50.5q-4 0 -6 4q-28 -2 -61 -19q-20 -11 -33.5 -22t-22.5 -28z" />
    <glyph glyph-name="ydieresis" unicode="&#xff;" horiz-adv-x="339" 
d="M20 257q-6 0 -8 3.5t0 7.5q-2 6 4 12q9 8 27 14t37 6.5t34 -6t17 -22.5q6 -35 -7.5 -69t-27.5 -66q-5 -13 -13 -32.5t-10 -34.5q-2 -14 0 -21.5t7.5 -12t14.5 -7t20 -4.5q9 3 19.5 9.5t22.5 18.5l1 1q9 38 16.5 70t13.5 53q3 10 13.5 32.5t25 44.5t32.5 36t37 7
q11 -4 17.5 -11.5t16.5 -10.5q7 -5 4 -12t-11 -7q-3 0 -5 2q-1 -1 -1 -1.5t-1 -1.5q-6 -8 -12 -4q-16 -11 -20.5 -33t-13.5 -45q-3 -8 -8 -22t-10.5 -31.5t-11.5 -37.5t-12 -39q31 33 61.5 64.5t70.5 55.5q9 6 11 -2.5t-5 -13.5q-44 -27 -77.5 -63t-68.5 -74q-1 -1 -2 -1
q-2 -8 -3.5 -15.5t-3.5 -13.5q-6 -24 -15 -60.5t-24 -71.5t-37.5 -62t-55.5 -33q-12 -2 -24 -3.5t-24 -3.5q-1 -1 -1.5 -1t-1.5 -1q-13 -4 -23 -8.5t-18 -5t-14 5.5t-11 23q-3 9 3 20t11 18q17 25 37 47t40.5 43t41 42.5t38.5 44.5q4 4 6 4l12 48q-21 -18 -47 -22q-4 0 -6 1
q-14 -7 -33 -3.5t-35.5 14t-27 25.5t-8.5 31q4 22 11.5 42t15.5 40q5 12 16 32.5t16.5 38.5t0 29t-33.5 3zM51 -218q23 19 42.5 64t36.5 101q-19 -20 -46.5 -46.5t-51.5 -54t-39.5 -52.5t-9.5 -43q3 -1 10 -1q-1 7 6 13q14 5 27.5 8t24.5 11zM120 537q7 4 12 -3
q7 3 14.5 2.5t13.5 -8.5q9 -11 5 -23t-14.5 -21t-24 -14.5t-23.5 -3.5q-9 2 -9 12t4.5 22t11 23t10.5 14zM205 527q5 5 8 4t5 -4q9 6 16 3q10 -4 11.5 -17t-3 -26t-14 -22.5t-21.5 -7.5q-11 2 -14.5 11t-2 20.5t5.5 22t9 16.5z" />
    <glyph glyph-name="yacute.001" horiz-adv-x="339" 
d="M20 257q-6 0 -8 3.5t0 7.5q-2 6 4 12q9 8 27 14t37 6.5t34 -6t17 -22.5q6 -35 -7.5 -69t-27.5 -66q-5 -13 -13 -32.5t-10 -34.5q-2 -14 0 -21.5t7.5 -12t14.5 -7t20 -4.5q9 3 19.5 9.5t22.5 18.5l1 1q9 38 16.5 70t13.5 53q3 10 13.5 32.5t25 44.5t32.5 36t37 7
q11 -4 17.5 -11.5t16.5 -10.5q7 -5 4 -12t-11 -7q-3 0 -5 2q-1 -1 -1 -1.5t-1 -1.5q-6 -8 -12 -4q-16 -11 -20.5 -33t-13.5 -45q-3 -8 -8 -22t-10.5 -31.5t-11.5 -37.5t-12 -39q31 33 61.5 64.5t70.5 55.5q9 6 11 -2.5t-5 -13.5q-44 -27 -77.5 -63t-68.5 -74q-1 -1 -2 -1
q-2 -8 -3.5 -15.5t-3.5 -13.5q-6 -24 -15 -60.5t-24 -71.5t-37.5 -62t-55.5 -33q-12 -2 -24 -3.5t-24 -3.5q-1 -1 -1.5 -1t-1.5 -1q-13 -4 -23 -8.5t-18 -5t-14 5.5t-11 23q-3 9 3 20t11 18q17 25 37 47t40.5 43t41 42.5t38.5 44.5q4 4 6 4l12 48q-21 -18 -47 -22q-4 0 -6 1
q-14 -7 -33 -3.5t-35.5 14t-27 25.5t-8.5 31q4 22 11.5 42t15.5 40q5 12 16 32.5t16.5 38.5t0 29t-33.5 3zM51 -218q23 19 42.5 64t36.5 101q-19 -20 -46.5 -46.5t-51.5 -54t-39.5 -52.5t-9.5 -43q3 -1 10 -1q-1 7 6 13q14 5 27.5 8t24.5 11zM106 442q-8 -6 -12 0
q-6 -5 -10.5 -0.5t0.5 12.5q12 16 29 26.5t35 20t35.5 19t30.5 24.5q8 8 12 1q5 5 12 5h15l1 -1q5 2 7.5 -2t0.5 -10q-10 -24 -30 -35.5t-43 -19t-45.5 -16t-37.5 -24.5z" />
    <glyph glyph-name="udieresis.001" horiz-adv-x="304" 
d="M292 266q-1 -7 -6 -10.5t-9 1.5q-4 -3 -8 -10.5t-7.5 -15t-6 -13.5t-2.5 -7q-9 -20 -19 -42.5t-17.5 -45.5t-11 -46.5t0.5 -46.5q5 -2 8.5 -4t7.5 -4l2 -2q13 6 28.5 23t30 36.5t27 38t20.5 26.5t12.5 2t-1.5 -14q-8 -8 -19 -24.5t-23 -34t-24 -33t-22 -21.5
q-43 -26 -74 -22.5t-40 38.5q-8 -7 -17 -11.5t-19 -8.5q-2 -9 -11 -9q-2 1 -4.5 1t-5.5 1q0 -1 -1 -1q-14 -8 -33 -5t-36.5 13t-28.5 25t-9 32q4 22 11.5 42t15.5 40q5 12 16 32.5t16.5 38.5t0 29t-33.5 3q-6 0 -8 3.5t0 7.5q-2 6 4 12q9 8 27 14t37 6.5t34 -6t17 -22.5
q6 -35 -7.5 -69t-27.5 -66q-5 -13 -13 -32.5t-10 -34.5q-5 -24 5 -32t29 -12q2 4 4 5q14 5 24 9.5t21 13.5v16.5t2 18.5q2 14 5 26.5t6 25.5q6 29 18 53.5t24 50.5q15 31 34.5 46.5t50.5 -0.5q11 -6 15 -20q1 -2 1 -5zM103 537q7 4 12 -3q7 3 14.5 2.5t13.5 -8.5
q9 -11 5 -23t-14.5 -21t-24 -14.5t-23.5 -3.5q-9 2 -9 12t4.5 22t11 23t10.5 14zM188 527q5 5 8 4t5 -4q9 6 16 3q10 -4 11.5 -17t-3 -26t-14 -22.5t-21.5 -7.5q-11 2 -14.5 11t-2 20.5t5.5 22t9 16.5z" />
    <glyph glyph-name="ucircumflex" unicode="&#xfb;" horiz-adv-x="304" 
d="M292 266q-1 -7 -6 -10.5t-9 1.5q-4 -3 -8 -10.5t-7.5 -15t-6 -13.5t-2.5 -7q-9 -20 -19 -42.5t-17.5 -45.5t-11 -46.5t0.5 -46.5q5 -2 8.5 -4t7.5 -4l2 -2q13 6 28.5 23t30 36.5t27 38t20.5 26.5t12.5 2t-1.5 -14q-8 -8 -19 -24.5t-23 -34t-24 -33t-22 -21.5
q-43 -26 -74 -22.5t-40 38.5q-8 -7 -17 -11.5t-19 -8.5q-2 -9 -11 -9q-2 1 -4.5 1t-5.5 1q0 -1 -1 -1q-14 -8 -33 -5t-36.5 13t-28.5 25t-9 32q4 22 11.5 42t15.5 40q5 12 16 32.5t16.5 38.5t0 29t-33.5 3q-6 0 -8 3.5t0 7.5q-2 6 4 12q9 8 27 14t37 6.5t34 -6t17 -22.5
q6 -35 -7.5 -69t-27.5 -66q-5 -13 -13 -32.5t-10 -34.5q-5 -24 5 -32t29 -12q2 4 4 5q14 5 24 9.5t21 13.5v16.5t2 18.5q2 14 5 26.5t6 25.5q6 29 18 53.5t24 50.5q15 31 34.5 46.5t50.5 -0.5q11 -6 15 -20q1 -2 1 -5zM152 484q-1 0 -3 5q-5 0 -15 2q-13 -11 -24 -22.5
t-22 -22.5q-8 -6 -11.5 1t2.5 13q4 4 17 16t28.5 25.5t30.5 23.5t23 9q10 1 10 -7q15 -9 24.5 -26t20.5 -31q2 -5 0.5 -10t-5.5 -7q-2 -3 -5.5 -4.5t-7.5 2.5q-9 14 -29 19.5t-34 13.5z" />
    <glyph glyph-name="uacute.001" horiz-adv-x="304" 
d="M292 266q-1 -7 -6 -10.5t-9 1.5q-4 -3 -8 -10.5t-7.5 -15t-6 -13.5t-2.5 -7q-9 -20 -19 -42.5t-17.5 -45.5t-11 -46.5t0.5 -46.5q5 -2 8.5 -4t7.5 -4l2 -2q13 6 28.5 23t30 36.5t27 38t20.5 26.5t12.5 2t-1.5 -14q-8 -8 -19 -24.5t-23 -34t-24 -33t-22 -21.5
q-43 -26 -74 -22.5t-40 38.5q-8 -7 -17 -11.5t-19 -8.5q-2 -9 -11 -9q-2 1 -4.5 1t-5.5 1q0 -1 -1 -1q-14 -8 -33 -5t-36.5 13t-28.5 25t-9 32q4 22 11.5 42t15.5 40q5 12 16 32.5t16.5 38.5t0 29t-33.5 3q-6 0 -8 3.5t0 7.5q-2 6 4 12q9 8 27 14t37 6.5t34 -6t17 -22.5
q6 -35 -7.5 -69t-27.5 -66q-5 -13 -13 -32.5t-10 -34.5q-5 -24 5 -32t29 -12q2 4 4 5q14 5 24 9.5t21 13.5v16.5t2 18.5q2 14 5 26.5t6 25.5q6 29 18 53.5t24 50.5q15 31 34.5 46.5t50.5 -0.5q11 -6 15 -20q1 -2 1 -5zM88 442q-8 -6 -12 0q-6 -5 -10.5 -0.5t0.5 12.5
q12 16 29 26.5t35 20t35.5 19t30.5 24.5q8 8 12 1q5 5 12 5h15l1 -1q5 2 7.5 -2t0.5 -10q-10 -24 -30 -35.5t-43 -19t-45.5 -16t-37.5 -24.5z" />
    <glyph glyph-name="ugrave" unicode="&#xf9;" horiz-adv-x="304" 
d="M292 266q-1 -7 -6 -10.5t-9 1.5q-4 -3 -8 -10.5t-7.5 -15t-6 -13.5t-2.5 -7q-9 -20 -19 -42.5t-17.5 -45.5t-11 -46.5t0.5 -46.5q5 -2 8.5 -4t7.5 -4l2 -2q13 6 28.5 23t30 36.5t27 38t20.5 26.5t12.5 2t-1.5 -14q-8 -8 -19 -24.5t-23 -34t-24 -33t-22 -21.5
q-43 -26 -74 -22.5t-40 38.5q-8 -7 -17 -11.5t-19 -8.5q-2 -9 -11 -9q-2 1 -4.5 1t-5.5 1q0 -1 -1 -1q-14 -8 -33 -5t-36.5 13t-28.5 25t-9 32q4 22 11.5 42t15.5 40q5 12 16 32.5t16.5 38.5t0 29t-33.5 3q-6 0 -8 3.5t0 7.5q-2 6 4 12q9 8 27 14t37 6.5t34 -6t17 -22.5
q6 -35 -7.5 -69t-27.5 -66q-5 -13 -13 -32.5t-10 -34.5q-5 -24 5 -32t29 -12q2 4 4 5q14 5 24 9.5t21 13.5v16.5t2 18.5q2 14 5 26.5t6 25.5q6 29 18 53.5t24 50.5q15 31 34.5 46.5t50.5 -0.5q11 -6 15 -20q1 -2 1 -5zM129 564q-1 -5 -4.5 -9t-7.5 -2l-3 -3q4 -16 19 -31
q5 -4 9 -7.5t9 -8.5q23 -17 46.5 -35.5t34.5 -44.5q-1 -6 -6.5 -10.5t-9.5 4.5q-2 2 -2 4q-5 -4 -10 1q-11 18 -32 27t-41.5 18.5t-33.5 24.5t-7 45q3 13 13 25q2 5 4.5 9t7.5 9q7 7 12 2t0 -13l1 -1q1 -1 1 -4z" />
    <glyph glyph-name="oslash" unicode="&#xf8;" horiz-adv-x="332" 
d="M-25 -56q-7 -8 -12.5 -3.5t-0.5 12.5q21 33 53 69t67 70.5t68.5 67t59.5 58.5q32 33 62.5 65.5t52.5 72.5q7 7 11 3t2 -12q-31 -56 -78.5 -106t-99 -98t-101 -96.5t-84.5 -102.5zM254 284q1 -2 1 -6l1 -1q12 -7 18 -13.5t10 -17.5q13 -9 22.5 -15t18 -7.5t17.5 3t23 15.5
q8 5 11 -1.5t-2 -12.5q-15 -12 -24.5 -17.5t-18 -5.5t-18 4.5t-23.5 12.5q2 -7 8 -12t5 -13q0 -33 -13 -63t-30 -59q-8 -13 -17.5 -30t-20.5 -28q-6 -5 -19.5 -9.5t-30 -7t-33 -2.5t-28.5 5h-1q-15 -2 -29.5 4.5t-29.5 10.5q-29 8 -40.5 34.5t-13 58.5t4.5 63t13 49
q9 23 24 39.5t32 30.5q5 4 17.5 9t27.5 9t30 4.5t24 -3.5q2 1 6 1q5 -3 10.5 -4.5t10.5 -3.5q11 -2 20.5 -7t22.5 -12q4 5 11 1zM183 289q-7 0 -11 -1q-4 -2 -7 -1q-30 -16 -51.5 -47.5t-33 -68.5t-11.5 -75t13 -67q0 -1 1 -2q6 -3 12 -3q1 6 6.5 8t9.5 -6q0 -1 2 -3
q22 1 40.5 17t33 39.5t23 52.5t11 57t-2.5 52t-18 39q-7 6 -17 9z" />
    <glyph glyph-name="Oslash" unicode="&#xd8;" horiz-adv-x="1431" 
d="M1152 -80q-21 -11 -44 -14t-45 1.5t-41.5 16t-32.5 31.5q-8 18 -17.5 34.5t-12.5 35.5q-8 64 -7.5 131t12.5 132.5t37 127.5t64 116q1 1 3 5q-16 12 -35 23.5t-36 17.5q-43 15 -88 23t-92 11q18 -20 29 -55t15 -74.5t0.5 -77.5t-15.5 -65q-33 -75 -80 -132.5t-107.5 -94
t-135.5 -50.5t-163 0q-57 7 -111 33t-87 74q-45 69 -38 128.5t48.5 109.5t109.5 89.5t146.5 67t159 43.5t146.5 19q-55 44 -114 72t-128 33q-99 7 -185 -22.5t-160.5 -83t-138 -123t-118.5 -142.5q-7 -8 -12.5 -3.5t-0.5 12.5q57 74 122.5 146t141 126.5t163.5 85.5t190 23
q30 -2 70 -11t82 -24t82 -36t69 -48q54 -2 106 -10.5t103 -25.5q20 -8 39 -19t36 -24q27 32 63 59.5t72 43.5q10 4 28.5 10.5t32.5 4.5q29 -3 57 -13.5t45 -36.5q27 -67 35 -143.5t-2.5 -153t-38 -148.5t-70.5 -132q-27 -38 -68 -72t-83 -52zM759 289q21 42 31 88.5t9 90.5
t-14 82.5t-38 62.5q-38 -5 -87 -13.5t-102 -22.5t-106.5 -34t-100.5 -47t-85 -63t-60 -81q-23 -47 -24.5 -92.5t18 -82.5t61 -62.5t104.5 -32.5q75 -10 138.5 6t113.5 47.5t86 72.5t56 81zM1016 4q7 -43 23.5 -59t38 -14t45 18.5t45.5 38t39 44t25 36.5q69 125 97 232.5
t35 194.5q-21 -24 -52.5 -39t-60.5 -20q-11 -2 -22 2t-22 6q-20 5 -39 17t-36 26q-48 -79 -75 -168.5t-38 -177.5q-5 -32 -6.5 -68.5t3.5 -68.5zM1190 568q-13 -15 -25 -31t-23 -33q17 -13 34.5 -23.5t37.5 -17.5q18 -6 41.5 -4.5t45.5 10t39.5 23t25.5 34.5v4
q3 60 -14.5 85.5t-45 25.5t-59 -20.5t-57.5 -52.5zM1586 621q9 -2 7 -9t-8 -10q-16 0 -32 3t-31 -4q-22 -9 -46 -30.5t-47.5 -47t-43 -50t-32.5 -39.5q-29 -36 -53.5 -69t-48 -65.5t-48 -66t-52.5 -70.5q-26 -33 -50.5 -67t-54.5 -65q-24 -26 -48.5 -50.5t-49.5 -50.5
q-9 -10 -28 -16.5t-41 -12.5t-42 -11.5t-32 -12.5q-3 -2 -5 0q-1 -1 -1.5 -1t-1.5 -1q-8 -3 -9.5 4t3.5 12q22 14 45 26t43 29q58 48 110.5 110.5t102 130t96.5 135t94 126.5q11 13 32 39.5t46.5 53.5t51.5 50t47 31q16 6 33 3.5t34 -2.5q1 0 1 -0.5t1 -0.5q14 3 29 1t29 -2
z" />
    <glyph glyph-name="Ugrave" unicode="&#xd9;" horiz-adv-x="1492" 
d="M1636 699q8 1 10 -5q5 -2 4.5 -8t-5.5 -10q-5 -2 -10.5 -4t-11.5 -4q-9 -11 -19.5 -28.5t-21 -38t-20.5 -42t-17.5 -39t-12.5 -29t-5 -12.5q-19 -53 -35.5 -110.5t-34.5 -115t-39.5 -113.5t-50.5 -104q-12 -20 -27 -34.5t-31.5 -27.5t-34 -25.5t-33.5 -27.5
q-6 -5 -10 -1.5t-3 8.5q-10 -5 -20.5 -9t-20.5 -10q-9 -4 -9.5 5t5.5 13q15 8 31.5 13.5t27.5 17.5q19 20 37 55.5t32 71.5q-23 -14 -47.5 -34t-50.5 -37.5t-54 -30t-57 -11.5q-2 -8 -8 -11q-30 -8 -60.5 0t-55 26.5t-39 46.5t-12.5 60q3 42 13.5 80.5t25.5 75t33 73
t35 73.5q10 21 19 38t18.5 32t19 31t20.5 36q8 15 17 40t11 49.5t-7 43t-37 20.5q-32 -11 -65.5 -32t-65 -45.5t-60.5 -50t-53 -46.5q-21 -19 -40.5 -37.5t-39.5 -38.5q-6 -29 -12.5 -56t-12.5 -52q-9 -40 -29.5 -94.5t-50 -114.5t-65 -122t-74 -118t-77.5 -102t-75 -74
q-33 -25 -75.5 -56t-89.5 -55t-97 -34.5t-97 5.5q-47 9 -77 37.5t-45 68.5t-17 87t6 93.5t24.5 88t38.5 69.5q14 19 29 37t29 36q7 7 11 3t2 -12q-45 -57 -78 -114t-43 -131q-7 -54 3 -104t37 -85.5t71.5 -51.5t106.5 -2q78 18 147 63.5t128.5 109t109.5 140t88.5 157
t66 160.5t43.5 149q-33 -32 -63 -56.5t-59.5 -44t-60 -35t-63.5 -29.5q-83 -35 -157.5 -42.5t-133.5 8t-99.5 52.5t-56 91t-2.5 123t61 149q31 52 85 93t120 68t138 38t138.5 1.5t122 -41.5t88.5 -90q23 -42 26 -88.5t-5 -94.5q42 38 78 72t83 70l14 10.5t24 17.5t31 21.5
t34 22.5q0 6 6 10q13 5 25.5 10t25.5 9q12 4 21 4q65 6 89 -12t24 -50.5t-16 -73t-31 -78.5q-5 -13 -9 -22.5t-8 -18.5t-8 -18.5t-10 -22.5q-10 -24 -22.5 -46t-26.5 -45q-16 -28 -32.5 -59t-29.5 -61q-9 -21 -18 -47t-12 -52.5t4 -50.5t32 -40q39 -24 73.5 -20t67 22
t63 43.5t60.5 43.5q8 5 10 13t10 13q5 11 8 20t6 17q12 33 25.5 76.5t28.5 91.5t32.5 96.5t38 92.5t44 79.5t50.5 56.5q12 9 26 15t29 11q5 5 10 8.5t10 5.5zM241 197q73 -12 131.5 -5.5t111.5 31.5t104.5 66.5t111.5 100.5q16 63 12.5 118t-23 100t-51.5 78.5t-73.5 54
t-90 26t-99.5 -5.5q-81 -18 -142.5 -62t-113.5 -107q-37 -45 -54 -107t-5.5 -121.5t55 -106t126.5 -60.5zM1391 869q-1 -5 -4.5 -9t-7.5 -2l-3 -3q4 -16 19 -31q5 -4 9 -7.5t9 -8.5q23 -17 46.5 -35.5t34.5 -44.5q-1 -6 -6.5 -10.5t-9.5 4.5q-2 2 -2 4q-5 -4 -10 1
q-11 18 -32 27t-41.5 18.5t-33.5 24.5t-7 45q3 13 13 25q2 5 4.5 9t7.5 9q7 7 12 2t0 -13l1 -1q1 -1 1 -4z" />
    <glyph glyph-name="Uacute.001" horiz-adv-x="1492" 
d="M1636 699q8 1 10 -5q5 -2 4.5 -8t-5.5 -10q-5 -2 -10.5 -4t-11.5 -4q-9 -11 -19.5 -28.5t-21 -38t-20.5 -42t-17.5 -39t-12.5 -29t-5 -12.5q-19 -53 -35.5 -110.5t-34.5 -115t-39.5 -113.5t-50.5 -104q-12 -20 -27 -34.5t-31.5 -27.5t-34 -25.5t-33.5 -27.5
q-6 -5 -10 -1.5t-3 8.5q-10 -5 -20.5 -9t-20.5 -10q-9 -4 -9.5 5t5.5 13q15 8 31.5 13.5t27.5 17.5q19 20 37 55.5t32 71.5q-23 -14 -47.5 -34t-50.5 -37.5t-54 -30t-57 -11.5q-2 -8 -8 -11q-30 -8 -60.5 0t-55 26.5t-39 46.5t-12.5 60q3 42 13.5 80.5t25.5 75t33 73
t35 73.5q10 21 19 38t18.5 32t19 31t20.5 36q8 15 17 40t11 49.5t-7 43t-37 20.5q-32 -11 -65.5 -32t-65 -45.5t-60.5 -50t-53 -46.5q-21 -19 -40.5 -37.5t-39.5 -38.5q-6 -29 -12.5 -56t-12.5 -52q-9 -40 -29.5 -94.5t-50 -114.5t-65 -122t-74 -118t-77.5 -102t-75 -74
q-33 -25 -75.5 -56t-89.5 -55t-97 -34.5t-97 5.5q-47 9 -77 37.5t-45 68.5t-17 87t6 93.5t24.5 88t38.5 69.5q14 19 29 37t29 36q7 7 11 3t2 -12q-45 -57 -78 -114t-43 -131q-7 -54 3 -104t37 -85.5t71.5 -51.5t106.5 -2q78 18 147 63.5t128.5 109t109.5 140t88.5 157
t66 160.5t43.5 149q-33 -32 -63 -56.5t-59.5 -44t-60 -35t-63.5 -29.5q-83 -35 -157.5 -42.5t-133.5 8t-99.5 52.5t-56 91t-2.5 123t61 149q31 52 85 93t120 68t138 38t138.5 1.5t122 -41.5t88.5 -90q23 -42 26 -88.5t-5 -94.5q42 38 78 72t83 70l14 10.5t24 17.5t31 21.5
t34 22.5q0 6 6 10q13 5 25.5 10t25.5 9q12 4 21 4q65 6 89 -12t24 -50.5t-16 -73t-31 -78.5q-5 -13 -9 -22.5t-8 -18.5t-8 -18.5t-10 -22.5q-10 -24 -22.5 -46t-26.5 -45q-16 -28 -32.5 -59t-29.5 -61q-9 -21 -18 -47t-12 -52.5t4 -50.5t32 -40q39 -24 73.5 -20t67 22
t63 43.5t60.5 43.5q8 5 10 13t10 13q5 11 8 20t6 17q12 33 25.5 76.5t28.5 91.5t32.5 96.5t38 92.5t44 79.5t50.5 56.5q12 9 26 15t29 11q5 5 10 8.5t10 5.5zM241 197q73 -12 131.5 -5.5t111.5 31.5t104.5 66.5t111.5 100.5q16 63 12.5 118t-23 100t-51.5 78.5t-73.5 54
t-90 26t-99.5 -5.5q-81 -18 -142.5 -62t-113.5 -107q-37 -45 -54 -107t-5.5 -121.5t55 -106t126.5 -60.5zM1420 799q-8 -6 -12 0q-6 -5 -10.5 -0.5t0.5 12.5q12 16 29 26.5t35 20t35.5 19t30.5 24.5q8 8 12 1q5 5 12 5h15l1 -1q5 2 7.5 -2t0.5 -10q-10 -24 -30 -35.5
t-43 -19t-45.5 -16t-37.5 -24.5z" />
    <glyph glyph-name="Ucircumflex" unicode="&#xdb;" horiz-adv-x="1492" 
d="M1636 699q8 1 10 -5q5 -2 4.5 -8t-5.5 -10q-5 -2 -10.5 -4t-11.5 -4q-9 -11 -19.5 -28.5t-21 -38t-20.5 -42t-17.5 -39t-12.5 -29t-5 -12.5q-19 -53 -35.5 -110.5t-34.5 -115t-39.5 -113.5t-50.5 -104q-12 -20 -27 -34.5t-31.5 -27.5t-34 -25.5t-33.5 -27.5
q-6 -5 -10 -1.5t-3 8.5q-10 -5 -20.5 -9t-20.5 -10q-9 -4 -9.5 5t5.5 13q15 8 31.5 13.5t27.5 17.5q19 20 37 55.5t32 71.5q-23 -14 -47.5 -34t-50.5 -37.5t-54 -30t-57 -11.5q-2 -8 -8 -11q-30 -8 -60.5 0t-55 26.5t-39 46.5t-12.5 60q3 42 13.5 80.5t25.5 75t33 73
t35 73.5q10 21 19 38t18.5 32t19 31t20.5 36q8 15 17 40t11 49.5t-7 43t-37 20.5q-32 -11 -65.5 -32t-65 -45.5t-60.5 -50t-53 -46.5q-21 -19 -40.5 -37.5t-39.5 -38.5q-6 -29 -12.5 -56t-12.5 -52q-9 -40 -29.5 -94.5t-50 -114.5t-65 -122t-74 -118t-77.5 -102t-75 -74
q-33 -25 -75.5 -56t-89.5 -55t-97 -34.5t-97 5.5q-47 9 -77 37.5t-45 68.5t-17 87t6 93.5t24.5 88t38.5 69.5q14 19 29 37t29 36q7 7 11 3t2 -12q-45 -57 -78 -114t-43 -131q-7 -54 3 -104t37 -85.5t71.5 -51.5t106.5 -2q78 18 147 63.5t128.5 109t109.5 140t88.5 157
t66 160.5t43.5 149q-33 -32 -63 -56.5t-59.5 -44t-60 -35t-63.5 -29.5q-83 -35 -157.5 -42.5t-133.5 8t-99.5 52.5t-56 91t-2.5 123t61 149q31 52 85 93t120 68t138 38t138.5 1.5t122 -41.5t88.5 -90q23 -42 26 -88.5t-5 -94.5q42 38 78 72t83 70l14 10.5t24 17.5t31 21.5
t34 22.5q0 6 6 10q13 5 25.5 10t25.5 9q12 4 21 4q65 6 89 -12t24 -50.5t-16 -73t-31 -78.5q-5 -13 -9 -22.5t-8 -18.5t-8 -18.5t-10 -22.5q-10 -24 -22.5 -46t-26.5 -45q-16 -28 -32.5 -59t-29.5 -61q-9 -21 -18 -47t-12 -52.5t4 -50.5t32 -40q39 -24 73.5 -20t67 22
t63 43.5t60.5 43.5q8 5 10 13t10 13q5 11 8 20t6 17q12 33 25.5 76.5t28.5 91.5t32.5 96.5t38 92.5t44 79.5t50.5 56.5q12 9 26 15t29 11q5 5 10 8.5t10 5.5zM241 197q73 -12 131.5 -5.5t111.5 31.5t104.5 66.5t111.5 100.5q16 63 12.5 118t-23 100t-51.5 78.5t-73.5 54
t-90 26t-99.5 -5.5q-81 -18 -142.5 -62t-113.5 -107q-37 -45 -54 -107t-5.5 -121.5t55 -106t126.5 -60.5zM1434 820q-1 0 -3 5q-5 0 -15 2q-13 -11 -24 -22.5t-22 -22.5q-8 -6 -11.5 1t2.5 13q4 4 17 16t28.5 25.5t30.5 23.5t23 9q10 1 10 -7q15 -9 24.5 -26t20.5 -31
q2 -5 0.5 -10t-5.5 -7q-2 -3 -5.5 -4.5t-7.5 2.5q-9 14 -29 19.5t-34 13.5z" />
    <glyph glyph-name="Udieresis.001" horiz-adv-x="1492" 
d="M1636 699q8 1 10 -5q5 -2 4.5 -8t-5.5 -10q-5 -2 -10.5 -4t-11.5 -4q-9 -11 -19.5 -28.5t-21 -38t-20.5 -42t-17.5 -39t-12.5 -29t-5 -12.5q-19 -53 -35.5 -110.5t-34.5 -115t-39.5 -113.5t-50.5 -104q-12 -20 -27 -34.5t-31.5 -27.5t-34 -25.5t-33.5 -27.5
q-6 -5 -10 -1.5t-3 8.5q-10 -5 -20.5 -9t-20.5 -10q-9 -4 -9.5 5t5.5 13q15 8 31.5 13.5t27.5 17.5q19 20 37 55.5t32 71.5q-23 -14 -47.5 -34t-50.5 -37.5t-54 -30t-57 -11.5q-2 -8 -8 -11q-30 -8 -60.5 0t-55 26.5t-39 46.5t-12.5 60q3 42 13.5 80.5t25.5 75t33 73
t35 73.5q10 21 19 38t18.5 32t19 31t20.5 36q8 15 17 40t11 49.5t-7 43t-37 20.5q-32 -11 -65.5 -32t-65 -45.5t-60.5 -50t-53 -46.5q-21 -19 -40.5 -37.5t-39.5 -38.5q-6 -29 -12.5 -56t-12.5 -52q-9 -40 -29.5 -94.5t-50 -114.5t-65 -122t-74 -118t-77.5 -102t-75 -74
q-33 -25 -75.5 -56t-89.5 -55t-97 -34.5t-97 5.5q-47 9 -77 37.5t-45 68.5t-17 87t6 93.5t24.5 88t38.5 69.5q14 19 29 37t29 36q7 7 11 3t2 -12q-45 -57 -78 -114t-43 -131q-7 -54 3 -104t37 -85.5t71.5 -51.5t106.5 -2q78 18 147 63.5t128.5 109t109.5 140t88.5 157
t66 160.5t43.5 149q-33 -32 -63 -56.5t-59.5 -44t-60 -35t-63.5 -29.5q-83 -35 -157.5 -42.5t-133.5 8t-99.5 52.5t-56 91t-2.5 123t61 149q31 52 85 93t120 68t138 38t138.5 1.5t122 -41.5t88.5 -90q23 -42 26 -88.5t-5 -94.5q42 38 78 72t83 70l14 10.5t24 17.5t31 21.5
t34 22.5q0 6 6 10q13 5 25.5 10t25.5 9q12 4 21 4q65 6 89 -12t24 -50.5t-16 -73t-31 -78.5q-5 -13 -9 -22.5t-8 -18.5t-8 -18.5t-10 -22.5q-10 -24 -22.5 -46t-26.5 -45q-16 -28 -32.5 -59t-29.5 -61q-9 -21 -18 -47t-12 -52.5t4 -50.5t32 -40q39 -24 73.5 -20t67 22
t63 43.5t60.5 43.5q8 5 10 13t10 13q5 11 8 20t6 17q12 33 25.5 76.5t28.5 91.5t32.5 96.5t38 92.5t44 79.5t50.5 56.5q12 9 26 15t29 11q5 5 10 8.5t10 5.5zM241 197q73 -12 131.5 -5.5t111.5 31.5t104.5 66.5t111.5 100.5q16 63 12.5 118t-23 100t-51.5 78.5t-73.5 54
t-90 26t-99.5 -5.5q-81 -18 -142.5 -62t-113.5 -107q-37 -45 -54 -107t-5.5 -121.5t55 -106t126.5 -60.5zM1375 885q7 4 12 -3q7 3 14.5 2.5t13.5 -8.5q9 -11 5 -23t-14.5 -21t-24 -14.5t-23.5 -3.5q-9 2 -9 12t4.5 22t11 23t10.5 14zM1460 875q5 5 8 4t5 -4q9 6 16 3
q10 -4 11.5 -17t-3 -26t-14 -22.5t-21.5 -7.5q-11 2 -14.5 11t-2 20.5t5.5 22t9 16.5z" />
    <glyph glyph-name="Yacute.001" horiz-adv-x="1435" 
d="M1204 680q-8 0 -33 -22.5t-61.5 -60t-81.5 -86.5t-92 -101.5t-94 -106t-87 -99.5t-71 -81.5t-46 -53.5q-25 -29 -50 -54.5t-52 -49t-57 -46t-65 -45.5q-39 -27 -71.5 -26.5t-58.5 19.5t-45 52.5t-30.5 71.5t-15.5 76t0 67q-25 -5 -50 2t-47 21t-39 33t-26 39
q-23 51 -24 111t15.5 121t49 118t76.5 101t97 70.5t111 26.5q14 0 23.5 -8.5t14.5 -20.5t6.5 -25t-0.5 -23q-6 -29 -14 -54t-20.5 -47t-31 -40t-46.5 -31q-9 -4 -9.5 5t5.5 13q24 5 44 25.5t32.5 47.5t16.5 55.5t-3 49.5t-27 29.5t-54 -5.5q-38 -15 -76.5 -48t-72 -78
t-57.5 -100.5t-32 -115.5q-6 -48 -4 -90.5t17.5 -75t46 -53.5t81.5 -26q3 25 12 56t19 59q28 76 65 149.5t83.5 141t103 127t124.5 106.5q39 28 80 46t76 23t62.5 -3t39.5 -30t6 -59t-36 -90q-33 -60 -65.5 -107t-68.5 -89.5t-78.5 -84.5t-94.5 -90q-65 -60 -145.5 -108.5
t-161.5 -71.5q-4 -35 -0.5 -72.5t16.5 -74.5q20 -60 44 -89t53.5 -32t66 17.5t82.5 58.5q45 38 82.5 74t75.5 80q15 17 45.5 52.5t70.5 81t87 98t94.5 104.5t93 100.5t83.5 85.5t64.5 59.5t36.5 23.5q17 1 32.5 -8.5t27.5 -24t20 -32t11 -31.5q3 -17 -5 -39t-19.5 -45.5
t-23 -45.5t-16.5 -38q-7 -26 -1 -49.5t21 -38t37 -18t46 10.5q27 38 54 84t55.5 90.5t57.5 82t61 58.5q4 2 18 9.5t30 14t29.5 11t15.5 0.5q-11 -5 -27 -22t-33.5 -40t-35 -48.5t-32 -47.5t-24.5 -38t-12 -19q-30 -53 -58.5 -110.5t-58.5 -115t-63 -113.5t-72 -104
q-41 -51 -94.5 -80.5t-110.5 -46.5q-5 -2 -7 0t-1.5 5.5t3 7t5.5 5.5q17 8 34 13.5t31 17.5q18 16 38.5 44t40 58t36 59t27.5 47q18 31 39 71t44 85q-6 -4 -18 -7.5t-25.5 -5.5t-26 -3.5t-20.5 -0.5q-23 4 -41.5 8.5t-31.5 13.5t-19.5 25t-4.5 42q2 31 12.5 60.5t23 58
t25 57.5t17.5 59q1 4 0 12.5t-3 17t-6 15t-10 6.5zM514 704q-53 -55 -101 -117t-86 -129.5t-65.5 -141t-39.5 -150.5q25 6 48.5 17.5t45.5 24.5q62 36 128.5 93.5t129.5 126t118 141.5t95 139q31 52 39 82.5t-1.5 44t-32 13t-52.5 -10.5t-64 -27t-65.5 -36t-57.5 -38
t-39 -32zM1438 773q-8 -6 -12 0q-6 -5 -10.5 -0.5t0.5 12.5q12 16 29 26.5t35 20t35.5 19t30.5 24.5q8 8 12 1q5 5 12 5h15l1 -1q5 2 7.5 -2t0.5 -10q-10 -24 -30 -35.5t-43 -19t-45.5 -16t-37.5 -24.5z" />
    <glyph glyph-name="Ydieresis" unicode="&#x178;" horiz-adv-x="1435" 
d="M1204 680q-8 0 -33 -22.5t-61.5 -60t-81.5 -86.5t-92 -101.5t-94 -106t-87 -99.5t-71 -81.5t-46 -53.5q-25 -29 -50 -54.5t-52 -49t-57 -46t-65 -45.5q-39 -27 -71.5 -26.5t-58.5 19.5t-45 52.5t-30.5 71.5t-15.5 76t0 67q-25 -5 -50 2t-47 21t-39 33t-26 39
q-23 51 -24 111t15.5 121t49 118t76.5 101t97 70.5t111 26.5q14 0 23.5 -8.5t14.5 -20.5t6.5 -25t-0.5 -23q-6 -29 -14 -54t-20.5 -47t-31 -40t-46.5 -31q-9 -4 -9.5 5t5.5 13q24 5 44 25.5t32.5 47.5t16.5 55.5t-3 49.5t-27 29.5t-54 -5.5q-38 -15 -76.5 -48t-72 -78
t-57.5 -100.5t-32 -115.5q-6 -48 -4 -90.5t17.5 -75t46 -53.5t81.5 -26q3 25 12 56t19 59q28 76 65 149.5t83.5 141t103 127t124.5 106.5q39 28 80 46t76 23t62.5 -3t39.5 -30t6 -59t-36 -90q-33 -60 -65.5 -107t-68.5 -89.5t-78.5 -84.5t-94.5 -90q-65 -60 -145.5 -108.5
t-161.5 -71.5q-4 -35 -0.5 -72.5t16.5 -74.5q20 -60 44 -89t53.5 -32t66 17.5t82.5 58.5q45 38 82.5 74t75.5 80q15 17 45.5 52.5t70.5 81t87 98t94.5 104.5t93 100.5t83.5 85.5t64.5 59.5t36.5 23.5q17 1 32.5 -8.5t27.5 -24t20 -32t11 -31.5q3 -17 -5 -39t-19.5 -45.5
t-23 -45.5t-16.5 -38q-7 -26 -1 -49.5t21 -38t37 -18t46 10.5q27 38 54 84t55.5 90.5t57.5 82t61 58.5q4 2 18 9.5t30 14t29.5 11t15.5 0.5q-11 -5 -27 -22t-33.5 -40t-35 -48.5t-32 -47.5t-24.5 -38t-12 -19q-30 -53 -58.5 -110.5t-58.5 -115t-63 -113.5t-72 -104
q-41 -51 -94.5 -80.5t-110.5 -46.5q-5 -2 -7 0t-1.5 5.5t3 7t5.5 5.5q17 8 34 13.5t31 17.5q18 16 38.5 44t40 58t36 59t27.5 47q18 31 39 71t44 85q-6 -4 -18 -7.5t-25.5 -5.5t-26 -3.5t-20.5 -0.5q-23 4 -41.5 8.5t-31.5 13.5t-19.5 25t-4.5 42q2 31 12.5 60.5t23 58
t25 57.5t17.5 59q1 4 0 12.5t-3 17t-6 15t-10 6.5zM514 704q-53 -55 -101 -117t-86 -129.5t-65.5 -141t-39.5 -150.5q25 6 48.5 17.5t45.5 24.5q62 36 128.5 93.5t129.5 126t118 141.5t95 139q31 52 39 82.5t-1.5 44t-32 13t-52.5 -10.5t-64 -27t-65.5 -36t-57.5 -38
t-39 -32zM1428 847q7 4 12 -3q7 3 14.5 2.5t13.5 -8.5q9 -11 5 -23t-14.5 -21t-24 -14.5t-23.5 -3.5q-9 2 -9 12t4.5 22t11 23t10.5 14zM1513 837q5 5 8 4t5 -4q9 6 16 3q10 -4 11.5 -17t-3 -26t-14 -22.5t-21.5 -7.5q-11 2 -14.5 11t-2 20.5t5.5 22t9 16.5z" />
    <glyph glyph-name="divide.001" horiz-adv-x="150" 
d="M89 235q-22 5 -23 16t9 22q1 8 12 15q7 9 16 7q14 3 23 -6q6 -8 6 -15q4 -10 -5 -21q-4 -9 -13 -12q-12 -10 -25 -6zM25 60q6 0 9 -3l1 -1q7 0 13 -4.5t8 -15.5v-8q1 -2 1 -2.5t1 -2.5q1 -6 -3 -11t-10 -7.5t-12.5 -3.5t-12.5 0q-10 0 -15.5 8t-6 18t4.5 19t16 11z
M-1 182q39 -1 78 -3t78 -2q10 -2 7 -10.5t-11 -8.5q-39 0 -78 2.5t-78 2.5h-1h-1h-2h-2q-6 3 -4 11q0 1 0.5 1t0.5 1v1l2 2q1 1 5 3h1h4h1z" />
    <glyph glyph-name="Odieresis.001" horiz-adv-x="1431" 
d="M1152 -80q-21 -11 -44 -14t-45 1.5t-41.5 16t-32.5 31.5q-8 18 -17.5 34.5t-12.5 35.5q-8 64 -7.5 131t12.5 132.5t37 127.5t64 116q1 1 3 5q-16 12 -35 23.5t-36 17.5q-43 15 -88 23t-92 11q18 -20 29 -55t15 -74.5t0.5 -77.5t-15.5 -65q-33 -75 -80 -132.5t-107.5 -94
t-135.5 -50.5t-163 0q-57 7 -111 33t-87 74q-45 69 -38 128.5t48.5 109.5t109.5 89.5t146.5 67t159 43.5t146.5 19q-55 44 -114 72t-128 33q-99 7 -185 -22.5t-160.5 -83t-138 -123t-118.5 -142.5q-7 -8 -12.5 -3.5t-0.5 12.5q57 74 122.5 146t141 126.5t163.5 85.5t190 23
q30 -2 70 -11t82 -24t82 -36t69 -48q54 -2 106 -10.5t103 -25.5q20 -8 39 -19t36 -24q27 32 63 59.5t72 43.5q10 4 28.5 10.5t32.5 4.5q29 -3 57 -13.5t45 -36.5q27 -67 35 -143.5t-2.5 -153t-38 -148.5t-70.5 -132q-27 -38 -68 -72t-83 -52zM759 289q21 42 31 88.5t9 90.5
t-14 82.5t-38 62.5q-38 -5 -87 -13.5t-102 -22.5t-106.5 -34t-100.5 -47t-85 -63t-60 -81q-23 -47 -24.5 -92.5t18 -82.5t61 -62.5t104.5 -32.5q75 -10 138.5 6t113.5 47.5t86 72.5t56 81zM1016 4q7 -43 23.5 -59t38 -14t45 18.5t45.5 38t39 44t25 36.5q69 125 97 232.5
t35 194.5q-21 -24 -52.5 -39t-60.5 -20q-11 -2 -22 2t-22 6q-20 5 -39 17t-36 26q-48 -79 -75 -168.5t-38 -177.5q-5 -32 -6.5 -68.5t3.5 -68.5zM1190 568q-13 -15 -25 -31t-23 -33q17 -13 34.5 -23.5t37.5 -17.5q18 -6 41.5 -4.5t45.5 10t39.5 23t25.5 34.5v4
q3 60 -14.5 85.5t-45 25.5t-59 -20.5t-57.5 -52.5zM1289 824q7 4 12 -3q7 3 14.5 2.5t13.5 -8.5q9 -11 5 -23t-14.5 -21t-24 -14.5t-23.5 -3.5q-9 2 -9 12t4.5 22t11 23t10.5 14zM1374 814q5 5 8 4t5 -4q9 6 16 3q10 -4 11.5 -17t-3 -26t-14 -22.5t-21.5 -7.5
q-11 2 -14.5 11t-2 20.5t5.5 22t9 16.5z" />
    <glyph glyph-name="onesuperior" unicode="&#xb9;" horiz-adv-x="225" 
d="M-39 426q-8 -3 -9.5 4t3.5 12q18 13 34 20t31 10q5 5 10 14t10 18.5t8.5 18.5t5.5 13q23 48 41.5 96t40.5 96q0 1 4.5 13.5t10.5 23.5q-14 -4 -26 -6.5t-20 -2.5q-10 0 -8.5 9t9.5 10q29 2 54 13.5t49 24.5q4 2 11 9t12 10q-2 5 2 9.5t10 3.5q1 -1 1.5 -1t1.5 -1
q6 -4 3 -13v-1q6 0 4 -9q-3 -10 -3.5 -20.5t-5.5 -20.5q-18 -46 -41.5 -89.5t-43.5 -90.5q-15 -35 -29 -72.5t-36 -68.5q23 -11 47.5 -27.5t54.5 -33.5q7 -5 3 -13.5t-12 -4.5q-24 13 -44.5 27.5t-40 25.5t-38.5 17.5t-40 3.5q-6 -4 -10 -4t-5 1q-11 -3 -23 -8.5t-26 -15.5z
" />
    <glyph glyph-name="ordmasculine" unicode="&#xba;" horiz-adv-x="332" 
d="M278 742q1 -2 1 -6l1 -1q12 -7 18 -13.5t10 -17.5q13 -9 22.5 -15t18 -7.5t17.5 3t23 15.5q8 5 11 -1.5t-2 -12.5q-15 -12 -24.5 -17.5t-18 -5.5t-18 4.5t-23.5 12.5q2 -7 8 -12t5 -13q0 -33 -13 -63t-30 -59q-8 -13 -17.5 -30t-20.5 -28q-6 -5 -19.5 -9.5t-30 -7
t-33 -2.5t-28.5 5h-1q-15 -2 -29.5 4.5t-29.5 10.5q-29 8 -40.5 34.5t-13 58.5t4.5 63t13 49q9 23 24 39.5t32 30.5q5 4 17.5 9t27.5 9t30 4.5t24 -3.5q2 1 6 1q5 -3 10.5 -4.5t10.5 -3.5q11 -2 20.5 -7t22.5 -12q4 5 11 1zM207 747q-7 0 -11 -1q-4 -2 -7 -1
q-30 -16 -51.5 -47.5t-33 -68.5t-11.5 -75t13 -67q0 -1 1 -2q6 -3 12 -3q1 6 6.5 8t9.5 -6q0 -1 2 -3q22 1 40.5 17t33 39.5t23 52.5t11 57t-2.5 52t-18 39q-7 6 -17 9z" />
    <glyph glyph-name="threesuperior" unicode="&#xb3;" horiz-adv-x="274" 
d="M-133 178q22 -31 46 -36t46.5 5.5t42.5 31.5t35 43q12 18 26.5 45.5t25.5 58.5t16.5 61.5t0.5 54.5q-4 16 -8 30.5t-4 30.5v3q0 2 2 4l1 1q15 0 33.5 20.5t34 49t24 59t3.5 50.5q-2 9 -9.5 19.5t-17 18.5t-19 14t-15.5 6q-17 -3 -29 -7t-24 -15q-9 0 -8 7.5t6 11.5
q10 7 26.5 14t34.5 10.5t35.5 4t30.5 -5.5q30 -15 47 -39t22.5 -51t-0.5 -56t-20.5 -54t-37 -44.5t-51.5 -28.5q2 -21 7 -41.5t9 -42.5q5 -32 -0.5 -63.5t-18.5 -61t-32 -56.5t-40 -51q-20 -22 -55 -36t-71 -17t-66.5 6t-42.5 32q-12 18 -15.5 33.5t-2.5 31t5 31.5t8 36
q3 8 11 9.5t6 -9.5q-3 -17 -7 -31.5t-5.5 -29t1 -28.5t13.5 -29z" />
    <glyph glyph-name="twosuperior" unicode="&#xb2;" horiz-adv-x="333" 
d="M209 784q28 -2 56.5 -9t49.5 -22t31 -39.5t1 -61.5q-5 -22 -21 -45t-36.5 -45.5t-42.5 -42t-38 -33.5q-4 -3 -16.5 -11.5t-28 -18.5t-31.5 -19.5t-26 -13.5q40 -18 63 -49.5t41.5 -65.5t39.5 -65.5t57 -50.5q16 -8 29 -2t19 9q10 2 14.5 -1t-1.5 -8q-7 -2 -13 -6.5
t-13 -6.5q-45 -7 -91 4.5t-77 49.5q-14 20 -24 42t-24 42q-6 8 -20 22t-30.5 28t-32 25t-24.5 14q-8 3 -16.5 2t-16.5 -3q-3 -3 -8 -3q-1 1 -3 1q-7 3 -5.5 9t6.5 9q12 1 35 13.5t46.5 27.5t42.5 28.5t25 16.5q25 20 53.5 41t49.5 45t31 51.5t-1 60.5q-8 26 -19.5 39.5
t-34.5 19.5q-40 -2 -65 -12q-19 -8 -35.5 -23.5t-33.5 -26.5q-8 -3 -9.5 4t3.5 12q25 17 47 35t52 24q5 1 8.5 2.5t8 3t11 2.5t17.5 1z" />
    <glyph glyph-name="degree.001" horiz-adv-x="78" 
d="M92 467q5 1 8 -1v-1h1q12 -2 24.5 -2.5t23.5 -5.5q22 -9 23 -24.5t-8.5 -31t-24 -29.5t-24.5 -21q-7 -4 -14.5 -5t-15.5 -3q-20 -5 -28.5 10.5t-7 38t12.5 45t30 30.5zM96 446q-3 0 -5 1q-10 -6 -15 -15t-7.5 -20t-1.5 -22t3 -20q15 -7 29 -4.5t25 11t19 21.5t10 27
q-3 4 -5.5 8t-7.5 6q-10 5 -21 5t-22 2h-1z" />
    <glyph glyph-name="ntilde" unicode="&#xf1;" horiz-adv-x="357" 
d="M161 252q-11 2 -22.5 -5t-21 -17t-15 -20.5t-5.5 -15.5q-2 -16 -3.5 -32t-5.5 -30q-6 -21 -17 -47.5t-22 -46.5q-5 -9 -13.5 -20.5t-18.5 -17.5t-27 -7t-34 2t-31.5 11t-18.5 20q-2 3 0 5q-2 8 5 12t11 -6q1 -5 7.5 -5.5t13.5 1.5t13 5t8 6q4 8 8 14.5t7 14.5q7 18 12 40
t10.5 44t13 43t18.5 37t25 33t35 20q3 1 10 3t16 3.5t17.5 1t14.5 -3.5q1 -1 2 -1.5t2 -1.5t1 -3q3 -10 -6 -14q0 -2 0.5 -2.5t0.5 -2.5q36 19 66.5 24t44.5 -15q15 -22 15 -46.5t-7 -49t-18 -49t-17.5 -47.5t-5 -43.5t18.5 -37.5q27 1 42.5 8.5t26 20t20 29t24.5 35.5
q7 7 11 3t2 -12q-6 -8 -20 -29t-32 -41t-37.5 -33t-37.5 -4q-12 -1 -23.5 -4.5t-23.5 -1.5q-23 4 -31.5 22t-8.5 43.5t5.5 55.5t11.5 58.5t10 52t0 36.5q-6 2 -12.5 4t-13.5 4zM84 473q-1 -8 -8 -11t-9 8q0 9 5 14.5t11 10.5q8 6 12 8q0 2 1 3q8 19 21 26.5t28 7.5t32 -5
t33.5 -10t32 -8.5t27.5 0.5q7 1 9 -4h2q9 -2 7 -9t-8 -10q-9 0 -16 -4t-13.5 -9t-13.5 -10t-15 -6q-19 -3 -36 4t-32.5 14t-30.5 9.5t-30 -10.5q-2 -2 -5.5 -3.5t-3.5 -5.5z" />
    <glyph glyph-name="eth" unicode="&#xf0;" horiz-adv-x="458" 
d="M270 457q5 5 9 3q21 11 39.5 27.5t35.5 30.5q1 10 1.5 19t0.5 16v52t-5.5 50.5t-19 41t-40.5 24.5q-2 3 0.5 9.5t9.5 8.5q6 6 12 6q7 -4 17.5 -7t15.5 -8q17 -5 29 -11.5t24 -15.5q4 -4 7.5 -10.5t6 -14t4 -14t2.5 -9.5q8 -25 14 -77q21 14 42.5 27t44.5 26q10 2 10 -5.5
t-6 -12.5q-23 -13 -45 -26.5t-44 -27.5q4 -45 4 -100t-8.5 -113t-27.5 -114t-51.5 -101.5t-80.5 -77.5t-116 -41q-113 -16 -143.5 26.5t19.5 128.5q14 25 39.5 52t56 49.5t63 39t61.5 21.5q48 9 78 -12q1 15 4 36t6 45t6.5 49t6.5 48q-9 -8 -22 -17.5t-25 -17.5
q-14 -10 -29 -20q-8 -3 -9.5 3t0.5 11zM215 46q23 20 42.5 52t34.5 66t24 65.5t11 51.5q-14 17 -34.5 25.5t-48.5 3.5q-43 -7 -78 -36.5t-57 -67t-29.5 -76.5t3.5 -65.5t43 -35t89 16.5z" />
    <glyph glyph-name="Eth" unicode="&#xd0;" horiz-adv-x="1965" 
d="M1438 708q10 1 9.5 -7.5t-7.5 -11.5q-17 3 -29.5 -15t-18.5 -41.5t-4.5 -45t12.5 -26.5q1 -1 1.5 -2t1.5 -2q26 -1 55 9.5t57.5 26t54 33.5t45.5 33q24 17 63 31t81.5 17t82.5 -7.5t65 -41.5q33 -40 46.5 -89.5t12.5 -102.5t-13 -108.5t-30.5 -108.5t-40.5 -101t-42 -87
q-23 -46 -51 -75t-56.5 -45.5t-55 -23.5t-46.5 -8q-56 -3 -96 14t-65.5 40t-38.5 45.5t-15 28.5q-25 -52 -71.5 -81.5t-103.5 -46.5q-9 -4 -9.5 5t5.5 13q15 8 31.5 13.5t27.5 17.5q26 28 39.5 62t29.5 76q-30 27 -70.5 48.5t-85.5 37.5q-2 -11 -6.5 -22t-9.5 -22
q-27 -52 -54 -87t-60.5 -56t-76.5 -30t-102 -10q-13 0 -33.5 3.5t-41 10.5t-38.5 18t-25 26q-27 58 -16.5 103.5t44.5 76t84.5 45.5t103.5 12q23 -1 43 -2.5t41 -4.5t43.5 -8.5t51.5 -14.5q13 72 -1 127.5t-48.5 98t-84.5 73t-109 53.5q-90 35 -185 42.5t-184.5 -10
t-170.5 -60.5t-144.5 -109t-104.5 -155.5t-52 -200.5q-7 -79 15.5 -134t65.5 -90t100.5 -51.5t120 -20t125.5 5t117 24.5q3 1 -1.5 0t-11 -1.5t-11 -1.5t-1.5 0q35 7 70.5 12.5t70.5 10.5q9 -2 7 -9t-8 -10q-67 -11 -132.5 -22t-130.5 -16.5t-130.5 -2.5t-132.5 21
q-51 14 -92 43t-68.5 68t-40 86.5t-7.5 98.5q7 78 44 153.5t92.5 141.5t124 120t138.5 89q46 23 103 33.5t118.5 11t125.5 -8t124 -25t113 -39t93 -49.5q43 -29 70.5 -61t43.5 -68.5t21 -79.5t4 -94v-10q45 -16 86 -38t73 -50q16 41 35 102t42.5 128t50 132t57.5 114
q-23 -12 -47.5 -23t-49.5 -19t-47.5 -11t-40.5 0q-23 4 -30 18.5t-2.5 33.5t17.5 40t28 38l3 3q14 14 26.5 24t23.5 12zM1427 54q13 -15 27 -37t36 -42.5t56 -34.5t86 -12q13 2 29 14t27 23q38 44 69.5 105t55 128t38 134.5t19.5 124.5q1 22 1.5 50.5t-4 57t-15 55
t-30.5 43.5q-14 11 -32.5 18t-38.5 8t-39.5 -4t-34.5 -17q-9 -11 -19.5 -28.5t-21 -38t-20.5 -42t-17.5 -39t-12.5 -29t-5 -12.5q-17 -46 -35 -101t-37 -112t-39.5 -111.5t-42.5 -100.5zM955 -25q46 4 79.5 23.5t56.5 50t38 69t24 80.5q-37 12 -68.5 19.5t-60.5 10.5
t-55.5 3t-53.5 -2q-33 -2 -62 -21t-45.5 -47.5t-15.5 -64t28 -71.5q15 -19 29.5 -30t31 -16t34.5 -5.5t40 1.5zM1402 297q-2 -7 -7 -8.5t-8 2.5q0 -1 0.5 -2t0.5 -2q-1 -6 -6.5 -10.5t-9.5 4.5q-2 8 2 18t11 18.5t15.5 14t17.5 5.5q25 0 52 -6.5t54 -11t52 -2t46 20.5
q8 5 11 -1.5t-2 -12.5q-16 -13 -28 -18q-2 -5 -4 -6q-32 -25 -66.5 -28t-73.5 8q-14 4 -27 10t-27 8q-1 0 -1.5 -0.5t-1.5 -0.5z" />
    </font>
</defs>
</svg>
