<?xml version="1.0" standalone="no"?>
<!DOCTYPE svg PUBLIC "-//W3C//DTD SVG 1.1//EN" "http://www.w3.org/Graphics/SVG/1.1/DTD/svg11.dtd" >
<svg xmlns="http://www.w3.org/2000/svg" xmlns:xlink="http://www.w3.org/1999/xlink" version="1.1">
<metadata>
Created by FontForge 20170924 at Sun Nov 25 13:03:44 2012
 By www-data
Copyright (c) 2011-2012, Sorkin Type Co (www.sorkintype.com)with Reserved Font Name 'Snowburst'
</metadata>
<defs>
<font id="SnowburstOne-Regular" horiz-adv-x="0" >
  <font-face 
    font-family="Snowburst One"
    font-weight="400"
    font-stretch="normal"
    units-per-em="2048"
    panose-1="2 0 0 0 0 0 0 0 0 0"
    ascent="1638"
    descent="-410"
    x-height="1107"
    cap-height="1552"
    bbox="-148 -439 2487 2117.54"
    underline-thickness="50"
    underline-position="-100"
    unicode-range="U+0001-FB02"
  />
<missing-glyph 
 />
    <glyph glyph-name="f_f" unicode="ff" horiz-adv-x="2137" 
d="M445 -80.5q-19 -5.5 -41 -13t-51.5 -7.5t-29.5 26q0 28 42 75.5t55 65.5q27 36 27 63l-1 37l-3 452q-2 192 -2 358h-150q-63 0 -127 -59q-19 -17 -39.5 -35.5t-38.5 -18.5q-32 0 -32 34l11 115q3 56 3 92v50q0 50 28 50q26 0 52 -43q30 -53 102 -93q19 -11 33 -11h158v73
q0 297 111 421q112 124 355 93q84 -10 108.5 -1.5t40.5 19.5l85 72q32 19 32 -28q0 -21 -2 -30v-202q9 -45 -21 -45q-33 0 -96 67q-65 69 -130 77q-17 2 -151 2q-247 0 -247 -449v-69h284q296 -1 390 -1h141v114q0 299 127 421q130 126 389 93q84 -10 108 -1.5t40 19.5
l86 72q33 20 33 -27l-11 -139l10 -110q0 -47 -52 -20q-26 14 -53.5 43.5t-43.5 43.5q-38 33 -60.5 39.5t-39.5 8.5t-38 3l-113 -1q-297 0 -297 -449v-109q316 7 381 12.5t90.5 24.5t38.5 31.5t24.5 24.5t25.5 24q34 29 49 29q42 0 23 -61q-19 -57 -19 -163l7 -100
q0 -16 -10 -26.5t-23 -10.5t-23 9.5t-20 22.5l-33 43q-60 58 -99 60h-412l-3 -729v-64q0 -79 60 -102q46 -19 62.5 -38.5t16.5 -29.5q0 -20 -47 -23t-76 -6t-52 -7q-35 -5 -70 -17q-94 -32 -94 14q0 28 42 75.5t55 65.5q27 36 27 68q-6 54 -6 793l-815 -1l-3 -774v-68
q0 -79 60 -102q46 -19 62.5 -38.5t16.5 -29.5q0 -20 -47 -23t-76 -6t-52 -6.5t-42 -9z" />
    <glyph glyph-name="f_i" unicode="fi" horiz-adv-x="1903" 
d="M431.5 -80.5q-22.5 -5.5 -44.5 -13t-51.5 -7.5t-29.5 26q0 28 42 75.5t55 65.5q27 36 27 63v37l-4 452q-2 192 -2 358h-113q-63 0 -127 -59q-19 -17 -39.5 -35.5t-38.5 -18.5q-32 0 -32 34l11 115q3 56 3 92v50q0 50 28 50q26 0 52 -43q30 -53 102 -93q19 -11 33 -11
l121 -1v74q0 313 124 437q118 118 362 87q84 -10 108.5 -1.5t39.5 19.5l86 72q32 19 32 -28q0 -21 -2 -30v-212q9 -45 -21 -45q-33 0 -96 67q-65 69 -130 77q-17 2 -151 2q-247 0 -247 -449v-69q316 7 381 12.5t90.5 24.5t38.5 31.5t24.5 24.5t24.5 24q35 29 50 29
q42 0 23 -61q-19 -57 -19 -163l7 -100q0 -16 -10 -26.5t-23 -10.5t-23 9.5t-20 22.5l-33 43q-63 60 -99 60h-412l-3 -775v-68q0 -79 60 -102q46 -19 62.5 -38.5t16.5 -29.5q0 -20 -47 -23t-79 -6t-58.5 -6.5t-49 -9zM1381 -46q-51 0 -51 38q0 16 28 53.5t54.5 73t29.5 55.5
l22 827q-1 30 -20.5 53t-42.5 44t-42 41t-19 43q0 44 71 27q54 -13 116 -13l113 5q51 0 51 -38q0 -21 -30.5 -44.5t-50 -40.5t-30.5 -30q-19 -21 -19 -39l-21 -769l1 -68q0 -43 29.5 -85.5t43 -61.5t13.5 -33q0 -35 -57 -35l-44 2zM1654 1695q88 0 44 -59l-111 -133
q-38 -71 -70 -3l-75 96q-47 63 -47 83q0 29 37 29q116 -14 194 -14z" />
    <glyph glyph-name="f_l" unicode="fl" horiz-adv-x="2083" 
d="M431.5 -80.5q-22.5 -5.5 -44.5 -13t-51.5 -7.5t-29.5 26q0 28 42 75.5t55 65.5q27 36 27 63v37l-4 452q-2 192 -2 358h-113q-63 0 -127 -59q-19 -17 -39.5 -35.5t-38.5 -18.5q-32 0 -32 34l11 115q3 56 3 92v50q0 50 28 50q26 0 52 -43q30 -53 102 -93q19 -11 33 -11
l121 -1v74q0 398 258 502q110 44 267 22q70 -9 92 -1t37 19l86 72q33 20 33 -27l-11 -144l10 -115q0 -47 -52 -20q-26 14 -53.5 43.5t-43.5 43.5q-38 33 -68.5 41.5t-66.5 8.5h-86q-297 0 -297 -449v-69q239 5 355 16q49 3 120 77q50 53 77 53q39 0 20 -61q-19 -57 -19 -163
l7 -100q0 -16 -10 -26.5t-23 -10.5t-23 9.5t-20 22.5l-33 43q-63 60 -99 60h-352l-3 -775v-68q0 -79 60 -102q46 -19 62.5 -38.5t16.5 -29.5q0 -20 -47 -23t-79 -6t-58.5 -6.5t-49 -9zM2073 25q-38 0 -75 8t-92 8q-16 -2 -65 -22q-92 -39 -166 -37t-128 34.5t-87 95.5
q-64 119 -64 375l14 924q0 204 -19 256q-13 36 -34 50t-43 30t-22 37q0 34 62 34l75 -4l168 7q50 0 50 -34q0 -21 -19.5 -36.5t-44.5 -34.5q-67 -51 -74 -116q-16 -136 -16 -1113q0 -391 157 -413q57 -9 88 0.5t53 19.5q16 7 73 38q19 10 31.5 39.5t25.5 73t27 54t29.5 10.5
t24 -14t18.5 -40q31 -87 56 -122q72 -100 -3 -108z" />
    <glyph glyph-name=".notdef" 
 />
    <glyph glyph-name=".null" 
 />
    <glyph glyph-name=".null" 
 />
    <glyph glyph-name="nonmarkingreturn" unicode="&#xd;" 
 />
    <glyph glyph-name="uni0001" 
 />
    <glyph glyph-name="uni0002" 
 />
    <glyph glyph-name="uni0003" 
 />
    <glyph glyph-name="uni0004" 
 />
    <glyph glyph-name="uni0005" 
 />
    <glyph glyph-name="uni0006" 
 />
    <glyph glyph-name="uni0007" 
 />
    <glyph glyph-name="uni0008" 
 />
    <glyph glyph-name="HT" unicode="&#x9;" 
 />
    <glyph glyph-name="LF" unicode="&#xa;" 
 />
    <glyph glyph-name="DLE" 
 />
    <glyph glyph-name="DC1" 
 />
    <glyph glyph-name="DC2" 
 />
    <glyph glyph-name="DC3" 
 />
    <glyph glyph-name="DC4" 
 />
    <glyph glyph-name="uni0015" 
 />
    <glyph glyph-name="uni0016" 
 />
    <glyph glyph-name="uni0017" 
 />
    <glyph glyph-name="uni0018" 
 />
    <glyph glyph-name="uni0019" 
 />
    <glyph glyph-name="RS" 
 />
    <glyph glyph-name="US" 
 />
    <glyph glyph-name="space" unicode=" " horiz-adv-x="856" 
 />
    <glyph glyph-name="exclam" unicode="!" horiz-adv-x="805" 
d="M456 359l-72 6q-78 0 -97 11q-39 23 -8 61.5t45.5 57t21.5 30.5q12 18 16 39l74 967q0 38 -18 64t-36 49q-48 61 -48 105t54 35l61 -18q50 -15 133 -15h28q34 0 50.5 -9.5t16.5 -29.5q0 -34 -33 -61.5t-56.5 -53t-38.5 -47.5q-29 -44 -29 -65q-60 -857 -60 -898t-0.5 -59
t2.5 -33q5 -34 18 -54q55 -82 -24 -82zM230 -232q-37 0 -37 26q0 23 43.5 72.5t61 70.5t28.5 35q24 28 34 28q17 0 31 -28.5t32.5 -51t36.5 -44.5q89 -109 -10 -109l-136 6z" />
    <glyph glyph-name="quotedbl" unicode="&#x22;" horiz-adv-x="1147" 
d="M439 1640q84 0 60 -49q-6 -11 -26 -32.5t-33 -41.5t-19 -38q-5 -16 -13 -83l-6 -233q8 -57 -11 -83t-36 -26t-29 16q-20 29 -8 88l6 256q-8 44 -18.5 83t-32.5 56q-62 47 -21 79q15 11 35 11l104 -5zM898 1640q84 0 60 -49q-6 -11 -26 -32.5t-33 -41.5t-19 -38
q-5 -16 -13 -83l-6 -233q8 -57 -11 -83t-36 -26t-29 16q-20 29 -8 88l6 256q-8 44 -18.5 83t-32.5 56q-62 47 -21 79q15 11 35 11l104 -5z" />
    <glyph glyph-name="numbersign" unicode="#" horiz-adv-x="1476" 
d="M133 1013q22 154 22 194l-12 100q0 45 25 45q23 0 56 -47q31 -48 91 -92q15 -11 22 -11l193 2q42 256 42 316q-4 31 -60 70q-20 15 -36.5 29.5t-16.5 31.5q0 31 46 31l61 -3q44 0 94 13q78 19 98 19q31 0 31 -33q0 -31 -27 -50t-44.5 -43t-31.5 -49q-27 -53 -30 -77
l-49 -254l436 6q38 236 38 274.5t-4 48.5t-11.5 17.5t-18 15.5t-19.5 19t-16.5 18t-13.5 14q-16 17 -16 33q0 32 55 32l48 -2q36 0 85 12t63 14.5t31 2.5t28 -10.5t11 -25.5q0 -34 -29 -54t-47 -41t-31 -43q-28 -45 -31 -75q-5 -40 -39 -249l102 2q54 0 80 22q36 33 78 100
q22 26 43 26q39 0 39 -51l-7 -112q0 -64 7 -93.5t7 -40.5t-9.5 -23t-28.5 -13t-42 15t-47 35q-66 51 -100 51l-135 -2l-99 -582l36 1q85 2 124 21q70 34 115 105q22 26 43 26q39 0 39 -51l-6 -109q0 -72 6.5 -99t6.5 -35q0 -35 -28.5 -37t-51.5 12.5t-48 33.5q-65 49 -99 53
h-151l-72 -378q0 -31 22 -51q14 -12 75 -55q23 -16 23 -33t-18.5 -29t-53.5 -12l-90 5h-45q-165 0 -165 46q0 23 29.5 39t46.5 29.5t30 29.5q44 51 59 104.5t25 95.5q20 81 46 209q-346 -3 -449 -6l-73 -379q-6 -28 9 -50t31 -39q40 -44 40 -71q0 -37 -70 -37l-85 6l-109 -5
q-32 0 -51 13t-19 27q0 26 29.5 42t46.5 26.5t30 22.5q41 36 59 95.5t30 107.5q17 69 54 238q-77 -3 -104 -5q-35 -3 -96 -67q-23 -25 -44 -46t-39 -22q-36 0 -36 32q22 154 22 194l-12 100q0 45 25 45t56 -47q31 -48 91 -92q15 -11 22 -11l133 1q56 259 113 580
q-60 -1 -93 -2l-49 -2q-17 0 -33.5 -3t-41.5 -24t-49 -45q-60 -62 -81 -63q-36 0 -36 32zM928 546q57 301 102 581l-440 -6l-112 -580z" />
    <glyph glyph-name="dollar" unicode="$" horiz-adv-x="1189" 
d="M200 74q-30 0 -30 49q19 130 19 313q0 54 35 34q29 -17 45.5 -43.5t28.5 -49t26 -43.5q36 -53 69 -60q111 -23 205 -23q16 376 23 692q-141 80 -197.5 140t-84.5 121t-28 133t24 123t67 89q88 77 228 96q0 125 -4.5 173.5t-21.5 71t-36 41.5l-34 35q-34 33 1 60
q26 20 75 9.5t94 -10.5l94 10q23 0 34 -11q25 -26 -9 -65q-18 -11 -44 -41q-50 -60 -50 -84.5t-4 -182.5q81 -2 146 -16q17 0 87 25.5t92 35.5q52 25 52 -6q0 -15 -12 -50l-28 -99q-11 -28 -14.5 -58t-7.5 -55t-11 -41t-20.5 -16t-24.5 6.5t-21 16.5q-25 23 -39.5 55
t-23.5 50q-24 45 -42 50q-64 16 -135 16l-15 -569q60 -33 123 -69.5t115 -86.5q117 -116 117 -295q0 -160 -105 -261q-98 -95 -273 -120q-4 -152 -4 -184t9.5 -48.5t23 -32t23.5 -27t19 -23.5q38 -50 7 -73q-22 -17 -44.5 -11.5t-36.5 9.5q-85 20 -148 -2q-77 -27 -77 23
q0 32 30.5 67.5t46.5 55.5q41 51 46 76q7 34 13 163q-112 0 -205 19q-52 5 -120 -50q-23 -20 -41 -36t-27 -16zM623 1047q7 329 7 509q-157 -31 -208 -132q-59 -118 48 -247q54 -65 153 -130zM687 257q271 41 271 327q0 142 -158 249q-45 31 -95 61z" />
    <glyph glyph-name="percent" unicode="%" horiz-adv-x="1863" 
d="M556 756q-32 -4 -47 -4t-47 4t-69.5 17t-76 37t-70.5 63q-71 89 -71 231q0 146 103 255q127 135 318 107q141 -20 218 -134q64 -95 64 -247q0 -138 -84 -223q-88 -90 -238 -106zM524 83l7 -84q0 -17 -10 -33t-23 -16q-24 0 -39.5 22.5t-33.5 37.5t-38 28l-82 51
q-18 12 -17 25q1 36 44 46.5t79 17t44.5 15.5t40 49t84.5 106.5t121 153t142 180t148.5 187.5t138.5 175l186 236q30 38 30 80l-7 66q0 15 9 31.5t26.5 16.5t43.5 -30q63 -75 135 -115q24 -14 24 -35q0 -34 -56 -34l-31 1q-44 0 -66 -11t-32 -24t-52 -66l-100 -124
q-602 -752 -697 -885q-19 -28 -19 -68zM452 855.5q41 -10.5 58.5 -10.5t41.5 2.5t54 11t62.5 24.5t59.5 43q62 64 62 167q0 208 -152 269q-96 40 -177 6l-75 -32q-8 -2 -23.5 -13.5t-34 -38.5t-30.5 -57q-24 -60 -24 -131t28.5 -122t68.5 -79.5t81 -39zM1004 202
q-20 56 -20 131t27.5 141.5t75.5 117.5q127 135 317 108q142 -21 219 -135q64 -95 64 -247q0 -138 -83 -223q-89 -90 -239 -107q-129 -14 -239 55q-84 52 -122 159zM1090 406q-7 -35 -7 -91.5t28.5 -107.5t68.5 -79q131 -94 298 -12q71 35 104 112q17 41 17 100.5t-13 105.5
t-34 78t-48.5 52t-55.5 32q-97 39 -178 6q-33 -14 -63.5 -28.5t-54.5 -41t-39.5 -59t-22.5 -67.5z" />
    <glyph glyph-name="ampersand" unicode="&#x26;" horiz-adv-x="1835" 
d="M1746 432q0 -61 -42 -24q-23 19 -46.5 46t-36.5 38q-40 36 -101 36l-155 -5q1 -12 1 -24v-23q0 -341 -235 -473q-142 -80 -393 -75q-223 3 -393 120q-114 78 -165 220q-26 75 -26.5 180.5t35 188.5t90 142.5t119.5 97.5t124 60q92 35 135 38t43 8t-15 12t-29 15.5t-42 30
t-56 57.5q-73 92 -73 184.5t20 148.5t53 95.5t73.5 65t82.5 39.5q129 43 258 11q64 -15 82.5 -12t35.5 8l119 42q40 9 40 -17q0 -21 -33 -84q-31 -59 -33 -104t-2 -73t-12 -40t-27.5 -12t-29 19t-26.5 45q-36 78 -49 91l-21 21q-33 33 -146 47q-120 15 -208 -60
q-84 -72 -84 -198t120 -221q49 -40 102 -61t76.5 -21t34 3.5t23.5 10.5q19 12 74 51q54 39 54 -7q0 -32 -9 -74t-9 -103l1 -35q0 -43 -31 -24l-70 58q-19 15 -42 32q-32 -5 -90 -5t-115 -9.5t-117 -32t-118.5 -58.5t-105.5 -89q-121 -139 -100 -346q9 -92 54 -164.5
t100 -113.5q127 -96 336 -96q382 0 490 262q38 94 38 211l-1 33q-58 -1 -107 -2q-117 -2 -137 -2t-38.5 -11.5t-36.5 -28.5q-32 -30 -53 -61q-30 -43 -49 -43q-29 0 -29 43l7 97q0 64 -12.5 107t-12.5 67t21 24t38.5 -19.5t37.5 -42.5q52 -62 101 -62l531 16q50 0 85.5 30.5
t59.5 69.5q33 54 48 54q23 0 23 -50l-8 -164z" />
    <glyph glyph-name="quotesingle" unicode="'" horiz-adv-x="668" 
d="M439 1640q84 0 60 -49q-6 -11 -26 -32.5t-33 -41.5t-19 -38q-5 -16 -13 -83l-6 -233q8 -57 -11 -83t-36 -26t-29 16q-20 29 -8 88l6 256q-8 44 -18.5 83t-32.5 56q-62 47 -21 79q15 11 35 11l104 -5z" />
    <glyph glyph-name="parenleft" unicode="(" horiz-adv-x="1153" 
d="M806 -390l4 74q0 94 -24 127l-212 308q-106 157 -144 263q-161 439 44 938q93 229 238 415q30 40 -1 204q-12 66 36 66q25 0 72.5 -35t72 -54t50.5 -37t45 -33q42 -32 42 -44t-11 -24.5t-31 -16t-42.5 -10t-46.5 -17.5q-210 -94 -346 -480q-138 -389 -64 -692
q75 -307 366 -674q30 -36 208 -63q21 -4 35.5 -10t14.5 -19q0 -38 -87 -86q-92 -50 -119 -94q-11 -18 -31 -32.5t-37 -14.5q-32 0 -32 41z" />
    <glyph glyph-name="parenright" unicode=")" horiz-adv-x="1100" 
d="M523 -388q0 -41 -30 -41q-17 0 -37.5 14.5t-32.5 34t-32 36.5t-43 31l-79 48q-51 33 -51 54.5t14.5 27.5t34.5 9.5t51.5 9t63.5 13.5q76 19 94 41q323 407 323 914q0 212 -105 510q-178 501 -449 546q-22 4 -33.5 16.5t-11.5 22.5t11.5 21t30.5 26l100 72q112 86 138 86
t34 -12.5t8 -25t-3 -28.5t-7 -35q-24 -132 12 -177.5t80.5 -116.5t87 -154t80.5 -176t66 -191q62 -211 62 -357t-10.5 -236.5t-31 -170.5t-50.5 -153t-70 -146q-54 -101 -194 -312q-24 -33 -24 -127z" />
    <glyph glyph-name="asterisk" unicode="*" horiz-adv-x="1433" 
d="M461 435l8 -82q0 -17 -9 -27q-20 -24 -51 10q-64 71 -154 94q-50 12 -50 50q0 21 18.5 30.5t46.5 15.5q88 20 112.5 37.5t51.5 36.5t60 42l151 106q-99 71 -173.5 114t-79.5 45l-1 1q-23 10 -56 10l-118 -14q-42 0 -42 31q0 21 36.5 54t65 69t49.5 64q70 96 102 50
q17 -23 18.5 -64.5t3.5 -65.5q7 -58 33 -74t54.5 -39.5t56.5 -48.5q75 -67 103 -85v68q0 159 -9 249q-3 30 -23.5 55t-34 39t-22.5 23t-18 19q-19 21 -19 41q0 42 58 42l109 -10q29 0 51.5 7.5t43.5 7.5q50 0 50 -38q-2 -18 -19.5 -43.5t-33.5 -49t-27 -41.5
q-22 -35 -23 -43.5t-3.5 -35.5t-5.5 -68q-8 -109 -8 -181l173 141q96 85 96 144l-10 94q0 43 36 43q24 0 42.5 -16t39 -39.5t46 -50t57.5 -44.5q52 -28 52 -50t-26 -30.5t-61 -13.5q-101 -14 -124 -34l-120 -86q-31 -23 -65 -48l-68 -50t-63 -48q98 -62 168.5 -111.5
t119 -75.5t91 -32t75.5 -9t48.5 -10.5t15.5 -21.5q0 -28 -23.5 -49t-42 -35t-36.5 -29q-47 -38 -53 -53l1 1q-7 -19 -23 -33.5t-31 -14.5q-37 0 -44 48l-10 94q-5 48 -17 65l-244 183q0 -136 7 -210t10.5 -87.5t21.5 -37t38 -44.5q49 -55 49 -73q0 -33 -37 -33q-3 0 -26 8
q-51 16 -151 16l-61 -9q-38 0 -38 21q0 14 39 56t57 62.5t18 44.5t1 66t1 85l3 163q-100 -77 -153 -125l-53 -47q-28 -23 -28 -86z" />
    <glyph glyph-name="plus" unicode="+" horiz-adv-x="1536" 
d="M748 19l-102 -4q-72 0 10 82l25 25q48 48 48 67l7 430l-370 -1q-33 -3 -81 -58q-19 -21 -37.5 -38.5t-40.5 -18.5q-45 0 -35 37q14 55 14 145l-4 102q0 72 82 -10l25 -25q50 -50 67 -50l381 -5l-4 332q-2 31 -20 52.5t-39.5 40.5t-40 37.5t-19.5 40.5t17 31t70 9l75 -2
q25 0 44 5l31 8q11 3 24 4q49 0 52 -36q0 -27 -33.5 -70.5t-50 -67.5t-18.5 -48l-9 -337l380 1q30 1 51.5 20t40.5 41t38 41t44 21q38 0 38 -52l-6 -103q0 -69 6.5 -95t6.5 -33q0 -37 -37 -41q-21 0 -42 16.5t-43 37.5q-62 55 -93 58l-385 9l1 -418q0 -24 17.5 -43.5
t38.5 -38t39 -37t19 -40.5q0 -45 -37 -35q-55 14 -145 14z" />
    <glyph glyph-name="comma" unicode="," horiz-adv-x="745" 
d="M570 193q0 -16 -11.5 -34t-26.5 -45.5t-34 -61.5t-42.5 -71t-50.5 -72q-135 -175 -192 -107q-15 19 -15 35t8.5 21t32 23t48.5 41q63 56 63 82.5t-18.5 47t-40 48.5t-33 44t-16.5 26q-8 14 -8 26q0 26 34 26l117 -9q81 0 108 7q77 23 77 -27z" />
    <glyph glyph-name="hyphen" unicode="-" horiz-adv-x="1373" 
d="M967 589l-552 6q-61 0 -100 -42q-15 -16 -28.5 -29t-34.5 -13q-32 0 -32 43l15 114l-5 83q0 20 9 33.5t21 13.5q28 0 55 -44q23 -37 67 -60q11 -6 17 -6l410 -12q97 0 137.5 4.5t61.5 20t38.5 33t33.5 31.5t36 14q32 0 32 -46l-7 -108l12 -92q0 -38 -37 -38q-14 0 -34 14
q-74 72 -115 80z" />
    <glyph glyph-name="period" unicode="." horiz-adv-x="763" 
d="M506 224q60 0 60 -37q0 -27 -38.5 -69t-62 -66.5t-33.5 -43.5q-47 -82 -82 -8q-23 46 -58 88q-76 91 -76 110q0 51 57 40q75 -16 172 -16z" />
    <glyph glyph-name="slash" unicode="/" horiz-adv-x="1315" 
d="M303 -304q19 -68 -29 -68q-19 0 -36.5 14t-38.5 26t-43 23q-32 15 -88 36q-27 10 -27 28t7 30t27.5 17.5t43.5 11.5q63 17 85 51q36 56 238.5 494.5t255.5 552.5t102 219t90 191q77 165 101 210q31 60 31 82.5t-3.5 35.5t-7.5 24q-18 52 -4.5 68t31.5 16q22 0 61 -27
q48 -44 84 -58t60.5 -26.5t24.5 -30.5q0 -38 -66 -42q-49 -3 -86 -32q-10 -8 -16 -20t-33.5 -67.5t-67 -137t-88.5 -184t-102.5 -215.5t-110 -231.5t-110.5 -231.5t-103 -216.5t-89 -186.5q-97 -207 -105.5 -225t-8.5 -37.5t4 -35.5z" />
    <glyph glyph-name="zero" unicode="0" horiz-adv-x="1248" 
d="M838 -32q-115 -90 -294 -47q-122 30 -218 143q-171 201 -190 669q-1 17 -1 33v34q0 360 139 595q65 111 156 173.5t185.5 62.5t169.5 -43.5t137 -137.5q135 -201 171 -598q25 -258 -28 -476q-69 -285 -227 -408zM595 1511l-45 4q-44 0 -112 -70q-82 -83 -122 -190
q-77 -210 -77 -474q0 -564 255 -733q79 -53 148 -52t131 50t113 141q141 258 108 667q-25 293 -113 467q-64 126 -153 181q-33 20 -54 24l-21 5q-15 0 -33.5 -10t-24.5 -10z" />
    <glyph glyph-name="one" unicode="1" horiz-adv-x="831" 
d="M494 -9l-199 -14q-50 0 -17 37q88 94 125 183q7 22 25 338.5t25 427t15 212.5l30 343q0 22 -24 6l-35 -18l-75 -42q-91 -50 -100.5 -53.5t-26 -24t-35.5 -48.5q-40 -63 -59.5 -102.5t-32.5 -39.5t-24 26.5t-23 65.5q-37 119 -57 148t-20 39q0 24 26 20q145 -48 199 -26
q44 20 125.5 68.5t113.5 66.5q74 42 92 48q55 21 55 -47l-15 -162q-40 -459 -61 -835.5t-21 -405.5q0 -59 95 -154q24 -24 24 -41q0 -24 -46 -24z" />
    <glyph glyph-name="two" unicode="2" horiz-adv-x="1351" 
d="M250 -1q-64 0 -38 53q19 37 220 302l336 434q250 333 250 490q0 114 -68 182q-65 65 -170 65q-92 0 -186 -58q-80 -50 -97 -94q-24 -61 -27 -89t-4 -63q-2 -59 -19 -59q-11 0 -24 15t-25 25.5t-38.5 30.5t-53.5 41q-66 54 -66 70t14 22t36 10q73 15 95 30t39 32t41.5 39
t56.5 46t72 45q89 45 168.5 46t139.5 -14t108 -53q109 -86 109 -268q0 -190 -246 -505q-81 -104 -164 -218t-129.5 -176l-85.5 -114q-85 -115 -107 -137q-37 -37 11 -37q199 0 501 -34q74 -15 211 82q56 40 56 -7q0 -25 -12 -55q-21 -56 -21 -104l9 -89q0 -44 -46 -24
q-12 5 -20.5 13.5t-28.5 22.5t-43 29q-53 33 -87 39.5t-100 14t-143 12.5q-183 12 -297 12z" />
    <glyph glyph-name="three" unicode="3" horiz-adv-x="1367" 
d="M644 994l68 1q216 0 350 -113q151 -127 151 -357q0 -226 -173 -373q-208 -175 -472 -122q-99 20 -146 48t-75 45q-69 42 -168 58q-51 9 -51 38q0 16 14 31t42 22q41 11 181 120q22 19 39 19q37 0 16 -106q-11 -58 -1 -85q0 -11 21 -29.5t59 -36.5q92 -42 210 -42
q65 0 136 29t129 84q135 126 135 314q0 190 -143 289q-119 81 -294 81q-41 0 -82 -9q-76 -17 -115.5 -17t-39.5 32q0 19 8.5 33t30.5 40t55 64q108 122 378 421q-403 -26 -453 -26t-64 -8.5t-28 -22.5l-59 -67q-22 -22 -40 -22q-29 0 -29 47l2 89q0 101 -7 128q-15 60 14 60
q23 0 50.5 -23.5t46.5 -39.5q48 -39 62 -41t36 -2t63.5 1.5t92.5 3.5t107 5t109 7l189 14q117 0 46 -87q-3 -4 -22 -25l-47 -52l-211 -232q-133 -148 -142 -159t-9 -19t30 -8z" />
    <glyph glyph-name="four" unicode="4" horiz-adv-x="1360" 
d="M595 -85q-47 0 -47 28q0 31 37 57q93 62 102 133l22 287q9 116 19 259l-578 14q-66 0 -66 34q0 24 18 43.5t47.5 55.5t75.5 92l103 126q426 518 471 590q36 55 69 55t33 -60t-64 -874q151 -7 199 -7t84.5 19.5t71.5 48.5q65 55 65 5q0 -20 -11 -62q-21 -80 -21 -131
l2 -51q0 -32 -21.5 -32t-37.5 16.5t-34 37.5q-50 58 -102 67q-30 6 -115 6h-92q-34 -435 -34 -504t4 -87.5t13 -32.5l63 -69q20 -24 20 -40q0 -30 -52 -30q-13 0 -24.5 2.5t-22.5 4.5q-35 8 -51 8zM731 761l65 706l-563 -706h498z" />
    <glyph glyph-name="five" unicode="5" horiz-adv-x="1334" 
d="M141 207q-94 0 -94 35q0 23 27.5 37t55.5 34.5t54 44.5q53 49 69 80.5t31.5 31.5t27.5 -14t12 -34l-24 -150q5 -5 18.5 -21.5t37 -37.5t55.5 -44t73 -43q92 -44 184.5 -44t166 28t129.5 80q123 114 123 292q0 291 -209 374q-71 28 -149.5 28t-125.5 -8.5t-82.5 -21.5
t-61.5 -28.5t-46 -28.5q-78 -51 -119 -10q-20 20 -20 50l8 68q5 130 5 209v125q0 151 -3 201l-2 60q-3 58 10 67q19 11 66 11q73 -1 127 -1q367 -3 402.5 -3t68.5 24t64 56.5t47.5 32.5t16.5 -44l-5 -64q0 -33 8 -71q24 -110 -14 -110q-28 0 -49 28.5t-58 45.5t-75 17h-268
q-106 0 -236 1q-10 -447 -10 -527.5t14 -80.5q7 0 33.5 17t48 28t56.5 22q186 58 361 1q177 -58 254 -236q40 -93 40 -218.5t-43 -217.5t-115 -155q-147 -129 -362 -129q-161 0 -298 92q-53 35 -86.5 67.5t-47.5 40.5q-21 14 -51 14z" />
    <glyph glyph-name="six" unicode="6" horiz-adv-x="1177" 
d="M282 412q2 0 11 41.5t41.5 93t80.5 87.5q98 72 249 72q132 0 237 -98q116 -108 116 -275q0 -200 -139 -303q-144 -105 -327 -71q-107 20 -203 105q-110 98 -158 292q-25 102 -25 263t45.5 308.5t119.5 265.5q124 199 349 369q53 41 67 60q26 35 34 72q15 74 41 74
q11 0 23.5 -17t16.5 -50t13 -56.5t21 -44.5q8 -14 37.5 -60t29.5 -62q0 -20 -38 -14q-9 2 -22.5 11t-27 15.5t-26.5 9.5q-53 15 -81.5 3.5t-44.5 -22.5q-316 -211 -418 -607q-35 -133 -35 -297.5t13 -164.5zM382 455q-27 -58 -27 -124t14 -104.5t36.5 -68.5t52 -52t60.5 -36
q146 -70 290 26q105 70 105 209q0 142 -87 231q-108 109 -280 62q-114 -32 -164 -143z" />
    <glyph glyph-name="seven" unicode="7" horiz-adv-x="1154" 
d="M1048 1565q92 0 51 -65l-120 -262l-236 -520l-139 -308q-60 -132 -69 -159t-9 -61q0 -62 16 -112q20 -59 20 -79q0 -33 -56 -3q-172 92 -223 105t-60 21t-9 18t13 17.5t34 13.5t47 12.5t52 17.5q62 26 87 70q63 126 549 1212q-151 -1 -278 -1h-333q-110 0 -200 -83
q-59 -54 -59 -9q0 21 5 52.5t5 85.5l-6 144q0 39 18 39q12 0 38 -27t44.5 -46t39.5 -35q50 -38 112 -38q104 1 164 1z" />
    <glyph glyph-name="eight" unicode="8" horiz-adv-x="1253" 
d="M150 383q0 86 20 149.5t51.5 114t71.5 89.5t80 68q57 42 137 83q10 5 10 12.5t-23.5 18t-69.5 44.5t-89 85q-102 123 -102 263q0 158 111.5 262t280.5 104q167 0 272 -92q111 -97 111 -273q0 -179 -187 -332q-58 -48 -85 -60t-27 -18t16.5 -14t54.5 -23.5t81.5 -39.5
t88 -58.5t80.5 -84.5q82 -114 82 -273q0 -224 -168 -350q-175 -130 -401 -100q-194 26 -302 152q-94 108 -94 273zM621 945q88 42 177 127q119 113 119 221q0 144 -72.5 220.5t-217.5 76.5q-202 0 -271 -162q-23 -55 -23 -126t31 -128.5t76 -103.5q83 -86 181 -125z
M270.5 511q-17.5 -56 -17.5 -123t22 -128t69 -109q104 -108 286 -108q179 0 287 110q99 101 99 250q0 201 -126 297q-68 52 -149 84.5t-132 55.5q-129 -74 -159.5 -95t-67.5 -55t-65.5 -78.5t-46 -100.5z" />
    <glyph glyph-name="nine" unicode="9" horiz-adv-x="1256" 
d="M989.5 738q25.5 122 25.5 206t-9 84q-7 0 -13 -13l-10 -21q-3 -7 -10 -22t-33 -44t-63 -53q-88 -56 -184.5 -56t-172.5 26.5t-130 76.5q-113 105 -113 287q0 167 122 274q116 103 283 103q189 0 303 -160q115 -163 115 -437q0 -514 -318 -799q-112 -101 -271 -168
q-40 -18 -86 -126q-32 -75 -43 -85.5t-21 -10.5t-18 14.5t-9.5 31t-15 48t-33.5 68.5q-43 80 -77 124q-61 79 -12 79q16 0 68 -26q98 -49 121.5 -49t37.5 3t36 11q28 12 133 61.5t186 140t133.5 200.5t78 232zM689 906q63 -1 115.5 27t89.5 71q66 78 93 197
q-44 158 -138 234q-77 61 -160.5 61t-139 -21t-94.5 -60q-84 -82 -84 -216q0 -144 100 -225q86 -67 218 -68z" />
    <glyph glyph-name="colon" unicode=":" horiz-adv-x="763" 
d="M506 1202q60 0 60 -37q0 -27 -38.5 -69t-62 -66.5t-33.5 -43.5q-47 -82 -82 -8q-23 46 -58 88q-76 91 -76 110q0 51 57 40q75 -16 172 -16zM506 216q60 0 60 -37q0 -27 -38.5 -69t-62 -66.5t-33.5 -43.5q-47 -82 -82 -8q-23 46 -58 88q-76 91 -76 110q0 51 57 40
q75 -16 172 -16z" />
    <glyph glyph-name="semicolon" unicode=";" horiz-adv-x="763" 
d="M506 1268q60 0 60 -37q0 -27 -38.5 -69t-62 -66.5t-33.5 -43.5q-47 -82 -82 -8q-23 46 -58 88q-76 91 -76 110q0 51 57 40q75 -16 172 -16zM570 193q0 -16 -11.5 -34t-26.5 -45.5t-34 -61.5t-42.5 -71t-50.5 -72q-135 -175 -192 -107q-15 19 -15 35t8.5 21t32 23t48.5 41
q63 56 63 82.5t-18.5 47t-40 48.5t-33 44t-16.5 26q-8 14 -8 26q0 26 34 26l117 -9q81 0 108 7q77 23 77 -27z" />
    <glyph glyph-name="less" unicode="&#x3c;" horiz-adv-x="1506" 
d="M1207 191q53 0 29 -52q-12 -26 -43 -56t-49 -49q-43 -47 -53 -78.5t-28.5 -51.5t-33.5 -20q-30 0 -37 42.5t-16.5 74t-19.5 53.5q-17 36 -34.5 53.5t-64 58t-110 93.5t-138 115.5t-148.5 125.5q-185 158 -261 229q-12 7 -12 27q0 43 35 64.5t99.5 68t138 102.5
t149.5 116.5t142 114.5q136 111 167 144t38.5 51t12.5 39q20 73 18.5 105.5t0.5 48.5q4 34 43 34q25 0 87 -74l74 -88q73 -83 73 -96t-13 -24.5t-49 -11.5q-63 0 -192 -43q-37 -12 -495 -394q-114 -95 -188 -161q249 -255 575 -508q43 -34 60 -44q28 -17 103 -17z" />
    <glyph glyph-name="equal" unicode="=" horiz-adv-x="1244" 
d="M911 903l-573 20q-32 -1 -70.5 -37t-58 -52t-37.5 -16q-33 0 -33 31l12 69q4 29 4 58l-13 117q0 46 28 46q27 0 73 -51q66 -78 89 -78q118 0 237 -10.5t202 -10.5t114.5 1t58.5 9q58 17 105 82q5 7 19.5 15t25.5 8q36 0 36 -47l-6 -76l9 -141q0 -49 -38 -49q-21 0 -43 16
t-46 35q-65 55 -95 61zM911 380l-573 20q-32 -1 -70.5 -37t-58 -52t-37.5 -16q-33 0 -33 31l12 70q4 28 4 57l-13 117q0 46 28 46q27 0 73 -51q66 -78 89 -78q118 0 237 -10.5t202 -10.5t114.5 1t58.5 9q58 17 105 82q5 7 19.5 15t25.5 8q36 0 36 -47l-6 -76l9 -141
q0 -49 -38 -49q-21 0 -43 16t-46 36q-65 54 -95 60z" />
    <glyph glyph-name="greater" unicode="&#x3e;" horiz-adv-x="1571" 
d="M318.073 1333.01q-52.9961 0 -28.998 51.9971q11.999 25.998 42.998 55.9961q30.998 29.998 48.9971 48.9971q42.9971 46.9971 52.9961 78.4951q10 31.498 28.498 51.4971q18.499 19.999 33.498 19.999q29.998 0 36.998 -42.498q7 -42.4971 16.499 -73.9951
t19.499 -53.4971q16.999 -35.9971 34.498 -53.4961q17.498 -17.499 63.9961 -57.9971q46.4971 -40.4971 109.993 -93.4941q63.4961 -52.9961 137.991 -115.493q74.4951 -62.4961 148.491 -125.492q184.988 -157.99 260.983 -228.985q12 -7 12 -26.999
q0 -42.9971 -34.998 -64.4961q-34.998 -21.498 -99.4941 -67.9951q-64.4961 -46.498 -137.991 -102.494q-73.4961 -55.9971 -149.491 -116.493t-141.991 -114.493q-135.991 -110.993 -166.99 -143.991q-30.998 -32.998 -38.4971 -50.9961q-7.5 -17.999 -12.499 -38.998
q-19.999 -72.9951 -18.499 -105.493t-0.5 -48.4971q-4 -33.998 -42.998 -33.998q-24.998 0 -86.9941 73.9951l-73.9951 87.9951q-72.9961 82.9941 -72.9961 95.9941q0 12.999 12.999 24.498q13 11.499 48.9971 11.499q62.9961 0 191.988 42.998
q36.998 11.999 494.97 393.976q113.993 94.9941 187.989 160.99q-248.985 254.984 -574.966 507.969q-42.9971 33.998 -59.9961 43.9971q-27.998 16.999 -102.993 16.999z" />
    <glyph glyph-name="question" unicode="?" horiz-adv-x="1164" 
d="M594 430l-82 -5q-41 0 -41 19t17.5 33t37.5 31q56 44 56 107q0 217 48 330q37 86 118 170q33 34 65 65.5t57 67.5q58 81 58 164.5t-19 134t-55 85.5q-74 70 -201 70q-198 0 -288 -175q-31 -58 16 -141q24 -45 -18 -45q-19 0 -58 18q-81 37 -116 35t-52 8t-17 24.5
t15.5 25.5t36.5 24q63 36 85.5 69.5t61 79t89.5 83.5q157 117 340 81q84 -17 137.5 -58.5t80.5 -80.5q61 -86 61 -207q0 -180 -125 -303q-100 -99 -131.5 -139t-47 -82.5t-24 -87.5t-13.5 -89q-19 -147 -7.5 -171t23.5 -39l55 -60q13 -14 13 -28q0 -39 -88 -20q-32 6 -88 6z
M723 161q54 0 54 -31q0 -23 -34.5 -64.5t-47 -61t-23.5 -36.5q-26 -39 -40.5 -39t-26.5 20t-32 43.5t-41 47.5q-56 66 -61 74.5t-5 20.5q0 26 37 26l84 -5z" />
    <glyph glyph-name="at" unicode="@" horiz-adv-x="1963" 
d="M1765 392q2 30 28 30q20 0 40.5 -31.5t51 -57.5t57.5 -47t45.5 -38.5t18.5 -34.5t-11 -23t-29 -8.5t-40.5 -3t-45.5 -2.5q-55 -6 -80 -27.5t-65 -52.5t-94.5 -64.5t-122.5 -66.5t-150 -59q-425 -136 -790 30q-314 142 -413 440q-34 103 -34 258t43.5 305.5t118 264.5
t173 194.5t209.5 131.5q214 97 452 97q302 0 492 -147q208 -162 208 -456q0 -203 -95 -380q-80 -149 -206 -248q-165 -128 -278 -74q-87 41 -87 186q0 7 1 15q-99 -131 -250 -183q-105 -37 -204 -5q-102 33 -154 137q-28 54 -28 141.5t24.5 165t65 137t93.5 102t111 69.5
q112 52 235.5 52t198.5 -89q18 58 11 81t-17.5 43.5t-19 37t-12.5 26.5q-9 19 -9 27q0 46 57 21q68 -32 190 -38q58 -3 58 -38q0 -22 -22 -37.5t-49.5 -29.5t-53 -28.5t-34.5 -43.5t-20.5 -75t-22.5 -93.5t-20.5 -94.5t-17.5 -86l-22 -110q-10 -46 -4 -89.5t16 -64.5
q38 -81 147 -26q91 45 175 154q90 116 129 268q50 195 -16 370q-75 197 -309 276q-119 41 -257 41t-245.5 -27.5t-205.5 -81.5t-181.5 -133.5t-144.5 -184.5q-130 -222 -130 -512q0 -247 136 -409q114 -136 308 -205q156 -55 294 -55t226.5 16t165 41.5t140 57t114.5 63.5
q72 46 145 109q13 13 13 100zM641.5 709q-8.5 -47 -8.5 -87.5t9.5 -78t30.5 -65.5q45 -62 144 -62t188 65t154 197q43 166 51 210.5t13 67.5q-41 52 -69 68q-49 28 -122.5 28t-133 -21t-104.5 -55.5t-75.5 -79.5t-49.5 -92.5t-27.5 -94.5z" />
    <glyph glyph-name="A" unicode="A" horiz-adv-x="1897" 
d="M400 -76q0 -37 -40 -37q-29 0 -51.5 20t-60 36t-74.5 31q-92 37 -92 57.5t32.5 42t56.5 28t46 15.5q48 20 89 93q72 137 251 526h-192q-35 0 -54.5 -3.5t-45 -23.5t-47.5 -42t-41.5 -39.5t-37.5 -17.5q-44 0 -27 71q13 54 13 125l-5 82q0 75 38 75q20 0 44 -30
q85 -110 130 -110l263 -5q296 647 321.5 733t25.5 136q0 14 15.5 21t30.5 7q36 0 48.5 -39.5t43 -130.5t70.5 -209q115 -338 180 -522q191 -4 220 11t50 32q40 31 59.5 59.5t31.5 32.5t23 4q51 0 32 -67q-20 -66 -21 -123.5t-2 -96t-7.5 -61.5t-30.5 -23q-8 0 -20.5 7.5
t-17.5 19.5l-27 59q-28 58 -88 68h-174q199 -562 258 -616q19 -17 41 -25t37.5 -14.5t31.5 -11.5t28 -10q44 -19 11 -51q-12 -12 -78.5 -36t-90.5 -34l-114 -54q-62 -23 -62 20q0 31 8 46t16.5 37t17.5 48q26 80 18 110q-37 90 -216 591h-606q-164 -352 -308 -647
q-8 -21 6 -50q44 -84 44 -115zM695 817q268 -4 542 -4l-138 389q-96 270 -106 297q-83 -217 -298 -682z" />
    <glyph glyph-name="B" unicode="B" horiz-adv-x="1401" 
d="M236 -129q-54 0 -54 36q0 24 20.5 42t31.5 27.5t24 16t22 11.5q21 12 22 26q35 459 47 876.5t17 596.5q0 31 -64 91q-18 17 -39 38t-21 43q0 31 39 31l115 -12l135 11q51 0 51 -34q0 -22 -28 -44.5t-45.5 -39t-27.5 -29.5q-18 -23 -18 -46l1 -47q0 -78 -6 -198
q118 180 271 251q63 30 142.5 30t133 -24.5t82.5 -61.5q49 -61 49 -137.5t-17 -124t-44.5 -88.5t-62.5 -74.5t-71 -59.5q-61 -46 -128 -75q147 -49 265 -156q167 -150 167 -348q0 -173 -125 -276q-115 -95 -283 -95q-135 0 -269 76q-89 50 -162 127q-9 -181 4 -215
q5 -13 20 -22q46 -28 68 -68q7 -12 7 -22q0 -34 -60 -34l-141 7zM411 355q131 -154 282 -209q121 -45 256 -4q186 55 186 270q0 106 -79 210q-110 146 -289 200q-53 16 -95.5 16t-64.5 3.5t-33 9.5q-19 10 -19 37t17.5 38.5t46 16t66 8t81.5 22t93 54.5t89 81
q122 138 76 256q-39 97 -158 97q-175 0 -367 -284q-27 -40 -49 -74l-20 -381q-5 -82 -19 -367z" />
    <glyph glyph-name="C" unicode="C" horiz-adv-x="1531" 
d="M1368 -54q-28 0 -63.5 29.5t-50.5 38.5q-32 18 -66.5 20t-60 -3t-61.5 -11q-140 -21 -228 -15q-160 11 -235 36t-138.5 61.5t-124 90.5t-106.5 129q-104 165 -104 388q0 444 376 628q245 121 633 127q61 0 117 47q16 14 26 30q22 34 58.5 34t36.5 -34l-15 -62
q-21 -99 -21 -182l3 -42q0 -36 -28 -36q-25 0 -52.5 40.5t-57 62.5t-62.5 33q-44 14 -143.5 14t-194.5 -18t-180 -53.5t-157.5 -88.5t-125.5 -124q-113 -151 -113 -354q0 -342 222 -506q181 -134 436 -134q235 0 324 86q21 21 40 58t48 64t50 27q35 0 35 -58l-8 -99
q0 -57 16 -140.5t-25 -83.5z" />
    <glyph glyph-name="D" unicode="D" horiz-adv-x="1504" 
d="M155 5q0 18 12 33t25 33t28 37t27 36q28 41 28 56q-14 192 -28 493q-25 540 -42 772q-2 24 -28 50l-82 76q-24 24 -24 46q0 31 39 31l96 -11q52 0 100 10q67 14 96.5 14t29.5 -28q0 -22 -42 -56q-88 -71 -88 -124l1 -36l195 51q382 92 647 -56q144 -81 209 -247
q34 -87 34 -224t-50 -255t-132.5 -205.5t-189 -147.5t-219.5 -98q-203 -68 -427 -83q6 -18 42.5 -61.5t51 -63.5t14.5 -35q0 -34 -60 -34l-100 2q-30 0 -65 -7q-98 -20 -98 32zM309 1348l51 -1073h21q315 0 596 181q192 123 271 302q40 93 40 214.5t-42.5 213t-113.5 146.5
q-133 102 -356 102t-467 -86z" />
    <glyph glyph-name="E" unicode="E" horiz-adv-x="1289" 
d="M841 693h-348.5t-286.5 -13v-23q5 -258 124 -419q132 -179 410 -237q134 -28 166 -28t59 14t49 31t40.5 31t34.5 14q29 0 29 -33t-17 -76q-37 -93 -41 -187q-2 -44 -31 -44q-39 0 -100 97q-36 56 -107 68q-576 82 -692 540q-24 98 -24 238.5t43.5 262t113.5 213t157 155
t175 103.5q158 73 301 84q51 2 105 78q53 73 85 73q50 0 32 -67q-14 -56 10 -199q6 -37 -5 -52t-23 -15q-25 0 -49 36q-39 56 -122 56q-95 0 -162.5 -20.5t-134 -55t-133.5 -85.5t-124 -117q-128 -150 -159 -327q28 -2 60 -2h70q178 0 502 12q19 1 55 29q105 80 130 80
q36 0 36 -46l-29 -132q-5 -30 -5 -64l2 -39q0 -50 -33 -50q-20 0 -36.5 17.5t-34.5 39.5q-47 56 -92 59z" />
    <glyph glyph-name="F" unicode="F" horiz-adv-x="1322" 
d="M240 -6q-49 0 -51 37q1 18 12 33.5t31 44.5q61 91 61 121q-13 176 -22 495q-18 600 -33 800q-2 28 -30.5 58t-58.5 60t-30 52q0 31 39 31l96 -9l156 19q37 0 37 -28q0 -22 -33 -50q-87 -71 -78 -156q2 -13 2 -26q242 36 650 124q63 39 113 111q26 31 45.5 31t28.5 -11
t13 -29.5t5 -43t3 -52.5q5 -71 20 -105q37 -85 -15 -85q-24 0 -43 13.5t-35 24t-34 20.5q-43 22 -75.5 21t-82.5 -7.5t-110 -15.5t-125.5 -20t-129.5 -23q-149 -28 -224 -45l20 -478q376 -7 537 11q66 17 135 82q27 20 47 20q54 0 27 -115q-10 -39 -10 -93l7 -81
q0 -23 -11 -33q-25 -23 -66 13q-39 50 -74.5 73t-52.5 27q-3 -3 -82 -3q-367 2 -453 -1q21 -537 27 -576.5t30 -70t44 -54.5q35 -42 35 -57q0 -38 -48 -38l-75 5q-48 0 -88.5 -10.5t-50.5 -10.5z" />
    <glyph glyph-name="G" unicode="G" horiz-adv-x="1414" 
d="M1241 859q86 0 58 -130l-70 -483q-26 -167 -38 -207.5t-35 -51t-101 -10.5t-199.5 20.5t-232.5 64.5t-207 112t-166 164q-151 205 -151 500q0 264 152 446q127 152 343 232q179 68 357 68l115 -9q30 0 54 19q32 24 68.5 58t58.5 34q32 0 19 -56q-10 -52 -10 -116l6 -108
q0 -56 -25 -56q-19 0 -50 38t-64 60.5t-64 31.5q-86 27 -260 0q-175 -28 -321 -124q-166 -107 -236 -306q-36 -104 -36 -250.5t45.5 -262t118.5 -197.5t164.5 -134t183.5 -82q203 -67 361 -51q21 16 46.5 184.5t35.5 238.5l34 230v8q0 43 -58 43h-241q-67 0 -124 -49
l-53 -54q-16 -12 -32 -12t-16 17q0 23 7 59q19 87 19 160l-5 64q0 57 27 57q19 0 48 -34t48.5 -55t36.5 -34q31 -23 56 -26t50.5 -4t57 -2t66 -2t65.5 -2q93 -1 94 -1z" />
    <glyph glyph-name="H" unicode="H" horiz-adv-x="1709" 
d="M108 35q0 18 12 33t32 43t42.5 58.5t23.5 50.5l25 993q5 167 13 317q0 23 -26 47l-82 74q-24 24 -24 46q0 31 39 31l96 -11q53 0 100 10q67 14 96.5 14t29.5 -28q0 -22 -28.5 -45t-48.5 -46.5t-33 -45.5q-25 -42 -25 -69q0 -75 -16 -571q457 -18 1030 8q0 420 12 634
q0 24 -26 48l-82 74q-24 24 -24 46q0 31 39 31l96 -11q53 0 100 10q67 14 96.5 14t29.5 -28q0 -22 -28.5 -45t-48.5 -47t-33 -46q-25 -41 -25.5 -74.5t-1.5 -113t-2.5 -183.5t-3 -223t-2.5 -236q-7 -502 -0.5 -543.5t13 -54.5t16.5 -24l59 -65q23 -30 23 -46q0 -34 -60 -34
l-100 2q-30 0 -65 -7q-98 -20 -98 32q0 18 12 33t32 43l42 60q23 31 24 51q3 95 6 613q-779 -27 -1033 -11q-20 -585 -11.5 -622t20 -54.5t28.5 -34t34 -36.5q70 -88 -31 -88l-100 2q-30 0 -65 -7q-98 -20 -98 32z" />
    <glyph glyph-name="I" unicode="I" horiz-adv-x="696" 
d="M302 1l-73 -10q-55 0 -55 42q2 17 14.5 32t25.5 31.5t29.5 35t29.5 34.5q30 39 30 56l4 696q0 239 -5 427q0 31 -68 95q-58 55 -58 84q0 43 86 21q72 -18 140.5 -5.5t102 12.5t33.5 -28q0 -21 -34.5 -47.5t-56 -48.5t-32.5 -40q-16 -26 -16 -63l4 -489l-10 -570v-30
q0 -14 1.5 -38t27 -56t44.5 -58q31 -42 31 -60q0 -32 -54 -32z" />
    <glyph glyph-name="J" unicode="J" horiz-adv-x="1030" 
d="M938 1614q64 0 -6 -73l-83 -81q-21 -23 -23 -47l-16 -789q-3 -98 -9 -198t-33.5 -180t-79.5 -142q-97 -117 -311 -198q-29 -11 -66 -55t-46.5 -58.5t-18.5 -29t-19 -27.5q-51 -67 -62 11q-15 88 -31.5 126.5t-24 55t-15 32.5t-14.5 31q-37 75 3 75q18 0 55 -14
t67.5 -24.5t52.5 -16.5q79 -22 137.5 -2t96.5 44q177 110 208 318q12 85 19.5 386.5t9.5 377.5l5 218l1 23q0 50 -11.5 63.5t-28 30t-34.5 33.5q-43 41 -54 48q-15 10 -15 44t28 34l125 -20q17 -2 33 -2h30z" />
    <glyph glyph-name="K" unicode="K" horiz-adv-x="1475" 
d="M183 -102q-53 0 -53 39q0 29 46 77t67 73t23 45q66 852 54 1301q0 33 -72 100q-20 18 -41 39t-21 43q0 31 39 31l126 -11q57 0 94 5t60 5q51 0 51 -34q0 -22 -42 -56q-97 -79 -97 -114l1 -92q0 -265 -13 -486l-5 -82q157 129 348 310q239 228 326 317q21 36 32 146
q9 55 43 55q21 0 36.5 -19t32.5 -47q52 -85 85 -110q71 -55 43 -81q-16 -14 -62 -14q-97 16 -146 -14h-1q-44 -26 -335.5 -295.5t-326.5 -301.5q318 -277 690 -561q48 -18 104 -20.5t94.5 -5.5t55 -10t16.5 -23.5t-6 -26.5t-16 -18l-44 -31q-41 -37 -70 -89t-41.5 -68
t-30.5 -16q-35 0 -45 48q-13 61 -40.5 122t-34.5 69l-31 25q-484 392 -661 549l-23 -22q-27 -373 -27 -431.5t4 -84t14 -50.5q21 -51 47 -84q39 -48 39 -65q0 -34 -60 -34l-152 9q-26 0 -38 -4q-21 -7 -36 -7z" />
    <glyph glyph-name="L" unicode="L" horiz-adv-x="1243" 
d="M188 -70q-81 0 -81 37q0 18 14 33.5t28 32t32 32.5t33 31q37 34 37 48q0 207 15 467q27 493 27 700q0 33 -63 97q-56 55 -56 84q0 40 60 27l65 -14q50 -9 107.5 -1t80.5 8q49 0 49 -29q0 -18 -32 -44q-82 -55 -112 -127q-6 -17 -11.5 -233.5t-10.5 -374.5l-19 -530
q188 -51 598 -88q50 0 125 69q19 18 37 18q39 0 39 -46l-32 -135q-6 -30 -6 -64l2 -36q0 -51 -34 -51q-19 0 -35.5 18.5t-34.5 42.5q-49 65 -87.5 75.5t-84 20t-97 18.5t-105 17.5t-104.5 15.5l-175 24q11 -66 31 -96q32 -50 32 -64q0 -39 -74 -30q-24 3 -65 18
q-75 29 -93 29z" />
    <glyph glyph-name="M" unicode="M" horiz-adv-x="1920" 
d="M192 33l-46 -6q-21 0 -39 10t-17 32t24 46t50 48t50.5 47t26.5 43l120 800q36 201 37.5 235.5t-9.5 48.5t-27.5 28.5t-36 29.5t-36.5 30q-38 35 -38 59q0 31 44 31l64 -4q83 0 143 13t77 13q39 0 41 -31q2 -21 -33 -54q-71 -67 -88 -110l142 -360l179 -458
q50 -128 68 -182.5t31.5 -54.5t22.5 22.5t26.5 60.5t44.5 95.5t61.5 131t72.5 153.5t77 162t75 158q108 229 116 247q-10 22 -43.5 63.5t-46 60t-12.5 33.5q0 30 46 30l89 -6l164 13q42 0 42 -27q0 -23 -14.5 -36.5t-31 -35t-34.5 -48.5q-47 -68 -52 -86q1 -11 7 -59
l15 -120q100 -798 122 -865q11 -38 85 -94q26 -21 47 -39.5t21 -33t-7.5 -22t-20.5 -11.5q-25 -8 -56.5 -10.5t-63.5 -12t-62 -19.5q-74 -27 -92 -27q-29 0 -29 28q0 19 9 32.5t20 38t22 54.5q30 78 31 94t-3.5 51.5t-11.5 82.5l-38 253l-30 213l-49 365l-183 -384
q-248 -525 -260 -558.5t-20.5 -57.5t-17.5 -41q-20 -37 -44 -37t-33 23l-35 94q-39 86 -175 439l-200 518l-64 -443q-64 -403 -64 -477q0 -69 65 -166q48 -78 -27 -78l-133 20q-31 4 -55 4z" />
    <glyph glyph-name="N" unicode="N" horiz-adv-x="1722" 
d="M402 22q0 -40 -93 -21q-69 15 -193 15q-29 0 -29 24q0 30 30 45t47 28.5t26 30.5q18 32 29 122.5t19.5 165t18 164.5t19.5 180.5t19 175.5l31 293q0 43 -66 99q-19 16 -40 26q-38 17 -38 39q0 43 46 43l143 -9q44 0 78.5 5.5t65 5.5t30.5 -27q0 -31 -34 -47
q-83 -39 -103 -106q41 -96 475 -627q427 -523 454 -523q3 0 0 6l82 1166q0 28 -26 65t-51 70t-25 51q0 25 30.5 25t65.5 -6t83 -6l105 5q79 0 9 -70l-38 -38q-41 -44 -49.5 -65.5t-13.5 -70t-11.5 -126.5t-13.5 -177t-14.5 -205.5t-14 -212.5t-11.5 -197q-11 -202 -11 -264
l1 -33q0 -43 -17 -61t-33 -18q-26 0 -36.5 10.5t-38.5 43t-73 86t-104.5 123.5t-125.5 148.5t-135.5 162t-135.5 164t-125.5 153.5t-105.5 131q-97 124 -105 148q-95 -885 -95 -906v-26q0 -42 18 -67l40 -49t40 -62z" />
    <glyph glyph-name="O" unicode="O" horiz-adv-x="1451" 
d="M966.5 13q-111.5 -56 -213.5 -56t-178 20t-145 62t-128.5 108t-103.5 159q-93 200 -93 485q0 347 176 565q175 217 452 217q263 0 421 -163q184 -192 184 -597q0 -400 -178 -635q-82 -109 -193.5 -165zM722 53q62 -1 119 13.5t113 48.5t106.5 90t89.5 141q84 185 84 465
q0 554 -354 649q-88 23 -139.5 23t-109 -12.5t-116 -41.5t-114.5 -77.5t-99 -121.5q-96 -161 -96 -399q0 -536 273 -708q107 -68 243 -70z" />
    <glyph glyph-name="P" unicode="P" horiz-adv-x="1234" 
d="M201 -82q-52 0 -42 58q2 12 20 21.5t40 28.5t37 38q32 40 37 65l-1 35l-4 242l-8 378q-13 659 -33 770q-7 34 -43 65.5t-51 49t-15 38t16 29t59 10.5q127 4 163 12q40 10 49 10q37 0 37 -41q0 -13 -20.5 -36t-34.5 -39t-27 -30.5t-20 -23.5q-10 -15 -9 -33v-217
q33 130 151 214q150 107 322 72q225 -47 292 -273q19 -64 19 -162.5t-32 -189t-88 -153.5q-116 -130 -301 -130q-156 0 -280 130q-45 47 -75 117q30 -690 30 -753.5t11 -89.5t28 -49l74 -90q22 -29 22 -44q0 -37 -46 -37q-12 0 -46.5 7.5t-114.5 7.5zM602 841
q110 -51 228 -5q120 47 176 190q28 73 28 162.5t-15.5 145t-40.5 94.5t-57 63.5t-65 38.5q-57 24 -129 24t-136.5 -34.5t-108.5 -87.5q-92 -111 -92 -243q0 -159 107 -271q47 -50 105 -77z" />
    <glyph glyph-name="Q" unicode="Q" horiz-adv-x="1565" 
d="M1059 83q-181 -129 -438 -79q-155 30 -273 146q-212 209 -212 679q0 326 188 521q174 182 424 182q224 0 395 -171q197 -197 214 -568l1 -36q0 -266 -128 -483q-42 -73 -99 -130q184 -106 240 -106l125 6q56 0 56 -37q0 -21 -16.5 -39t-40.5 -40q-70 -62 -89 -102
t-30 -50t-26 -10q-31 0 -38 50l-10 85q-10 57 -33 70q-97 50 -210 112zM654.5 88q56.5 -12 126 -11.5t156.5 39.5t156 122q154 185 154 532q0 337 -173 518q-184 193 -432 140q-124 -27 -224 -115q-181 -159 -181 -469v-22q0 -144 30.5 -271t72 -207t93.5 -132t108.5 -82
t113 -42z" />
    <glyph glyph-name="R" unicode="R" horiz-adv-x="1452" 
d="M236 -66q-115 -29 -115 24q0 23 31.5 54t48.5 51t26 38q20 39 21.5 106.5t3 126.5t3 134t3 158t2.5 169.5t2 168.5q5 377 1 416.5t-14.5 60t-25 37.5t-33 32t-30.5 26q-19 17 -19 32t23 15l43 -1q127 0 199 10.5t88.5 10.5t16.5 -12t-21 -33q-80 -80 -106 -118
t-27.5 -44.5t-3 -23t-2.5 -39.5t-1.5 -49.5t-1.5 -51.5q-1 -75 -1 -88q42 109 167 231q89 86 200 125q105 37 241 6q130 -30 187 -154q30 -66 30 -161.5t-28 -160t-73.5 -112.5t-104 -82t-119.5 -60l-227 -84q527 -541 554 -549q33 -12 82.5 -9.5t71.5 0.5q55 -3 55 -22
t-44 -62q-93 -89 -126 -158q-18 -35 -33 -45.5t-23 -10.5q-46 0 -46 184q0 39 -7.5 44.5t-33 31t-64.5 66t-88 91t-100.5 104t-101 105t-90.5 92.5q-93 96 -106.5 107t-27.5 34t-14 37q0 30 41 35.5t99.5 18.5t120.5 35t122 54.5t107 76.5q105 100 105 233.5t-60 192
t-184 58.5q-123 0 -238 -104q-135 -122 -216 -318q-20 -49 -28 -78v-787q0 -23 25 -45q67 -61 79 -76.5t19 -26.5q44 -64 -20 -64l-110 8q-63 0 -104 -11z" />
    <glyph glyph-name="S" unicode="S" horiz-adv-x="1126" 
d="M898 1334q0 -56 -51 -35q-37 15 -60 47q-33 44 -83 97q-171 20 -274 -51q-97 -69 -97 -207q0 -112 119 -233q73 -74 130 -115.5t99.5 -74t83 -70.5t71.5 -84q70 -100 70 -220q0 -232 -259 -334q-147 -57 -309 -57q-55 0 -148 -107q-43 -49 -59 13l1 102q0 104 -11 157.5
t-11 62.5q0 35 27 35q18 0 37 -19t42 -45q65 -73 119 -96q12 -1 23 -1h23q220 0 330 95q95 83 95 219q0 124 -170 262l-192 157q-204 165 -204 353q0 183 123 271q103 75 284 75l50 -1q39 0 107 57q25 21 47.5 39t41.5 18q40 0 29 -55q-29 -109 -29 -164z" />
    <glyph glyph-name="T" unicode="T" horiz-adv-x="1381" 
d="M588 -5l-105 -9q-34 0 -34 28q0 29 58 82q76 70 80 113q26 358 41.5 748t19.5 468h-254l-93 -1q-37 -2 -60 -23t-42 -42.5t-37 -38.5t-38 -17q-44 0 -27 71q13 54 13 129l-5 80q0 73 38 73q23 0 44.5 -30.5t38 -51t29.5 -32.5q22 -22 39 -22l562 -12q107 0 243 6
q61 9 126 78q18 19 28 34q16 24 46 24q51 0 32 -66q-20 -67 -21 -126.5t-2 -99t-7.5 -63.5t-30.5 -24q-8 0 -20.5 12t-25 39t-28.5 48.5t-30 33.5q-19 15 -49 21h-373q-28 -376 -45.5 -785t-17.5 -421.5t6.5 -34.5t17.5 -44q25 -50 43 -66q39 -33 39 -51.5t-14 -24.5t-56 -6
z" />
    <glyph glyph-name="U" unicode="U" horiz-adv-x="1546" 
d="M1487 1605q0 -10 -21 -35t-38 -52q-43 -67 -44.5 -111.5t-3.5 -106.5t-5.5 -136.5t-9 -157t-13.5 -162.5q-20 -180 -40 -252.5t-40 -133.5t-51 -125t-74 -125t-103 -110q-133 -107 -318 -107q-197 0 -321 147q-152 180 -182 546l-57 609q-4 43 -17 61q-20 26 -60 61
t-48 48t-8 24q0 36 63 36l52 -5l155 29q77 13 77 -17q0 -20 -23.5 -43.5t-39 -47t-26.5 -48.5q-24 -55 -24 -90t3 -94.5t9 -139.5q33 -446 68.5 -584.5t84.5 -220.5q108 -179 300 -179q288 0 421 328q141 349 141 983q0 41 -14 61q-15 22 -53 59q-57 54 -57 76.5t59 22.5
l98 -5q45 0 72 10q88 32 88 -13z" />
    <glyph glyph-name="V" unicode="V" horiz-adv-x="1347" 
d="M1093 1493q0 37 40 37q20 0 59 -24q83 -51 122 -64q116 -38 42 -82l-63 -34q-22 -13 -38.5 -22.5t-23.5 -22.5t-25 -54t-44 -102.5t-59.5 -140t-69.5 -164t-73 -174t-72 -170.5q-126 -301 -160.5 -366.5t-48.5 -99.5t-35 -34q-15 0 -28 13.5t-21.5 42.5t-33 92.5t-56 142
t-67.5 167.5t-73.5 182t-74.5 186t-70 179q-78 202 -108 295q-12 35 -35 54t-46.5 33.5t-41 29.5t-17.5 42q0 33 59 33h27q91 0 144 5.5t60 5.5q50 0 50 -30q0 -20 -16.5 -36.5t-36.5 -32.5t-37 -32q-23 -21 -15 -37q26 -105 102.5 -303.5t111.5 -288.5t70 -177t65 -162
l54 -135q24 -60 37 -95l163 376q312 738 312 824q0 37 -14.5 83t-14.5 60z" />
    <glyph glyph-name="W" unicode="W" horiz-adv-x="1966" 
d="M1722 1453q-26 78 30 78q30 0 54 -24l-2 1q54 -43 109 -61q117 -37 75 -77q-16 -15 -47 -25t-48 -17q-41 -19 -49 -48q-212 -749 -365 -1082l-54 -132q-54 -129 -115 -2q-61 126 -205 593q-65 210 -98 354q-141 -488 -291 -790l-64 -149q-30 -70 -56 -70q-29 0 -53 38
q-20 31 -127.5 375t-143.5 459q-71 228 -98 320.5t-36 105.5t-20 24q-6 6 -39 28q-67 45 -67 77.5t53 32.5l96 -3q65 0 94 7q93 22 93 -23q0 -21 -36.5 -53t-53.5 -49q-22 -23 -15 -36q66 -299 299 -1002q30 -89 49 -139q223 489 372 992q-15 21 -50 43q-68 43 -68 76t55 33
l78 -1l151 12q52 0 52 -30q0 -19 -23 -39l-27 -24q-22 -20 -39 -38q-16 -16 -16 -37q22 -209 201 -729q75 -219 85 -257q135 283 292 805q93 310 93 369q0 25 -25 114z" />
    <glyph glyph-name="X" unicode="X" horiz-adv-x="1546" 
d="M1351 -37q-42 0 -42 46q0 30 9 55q20 58 -5 94l-21 24l-252 293q-192 225 -251 295l-464 -564q-16 -37 -18 -82t-3 -84.5t-8 -66t-31 -26.5t-37.5 15t-32.5 40q-57 77 -119.5 116.5t-62.5 62.5q0 15 14.5 29t41.5 14l45 -3q80 0 109.5 29t83 89t121.5 139
q138 160 307 365q-430 507 -452.5 519.5t-56 14t-65 2.5t-54 7.5t-22.5 23.5q0 32 51.5 56t78.5 53.5t45.5 56.5t33.5 46.5t36 19.5t28 -20.5t7 -61.5l-3 -61q0 -44 18 -82t34.5 -55.5t55.5 -65t88 -109.5q146 -182 232 -283q233 281 386 494q10 12 15.5 39t5.5 32l-19 137
q0 30 29 30q20 0 54.5 -26.5t75 -43.5t79.5 -34q93 -41 93 -72t-54 -38q-45 0 -107 -30q-111 -54 -133 -83q-29 -48 -160 -219t-201 -258q275 -325 395 -450.5t144 -146t58 -28t65.5 -12.5t54 -12.5t22.5 -23.5q0 -27 -27.5 -51.5t-57 -48t-60.5 -45.5q-73 -51 -97 -51z" />
    <glyph glyph-name="Y" unicode="Y" horiz-adv-x="1411" 
d="M543 -80q-33 0 -33 28q0 31 56 82q74 65 74 113l3 329q0 172 -8 258l-296 431q-57 82 -123 175q-22 30 -50.5 39t-46 12t-32.5 6.5t-29 9.5q-34 15 -34 39q0 23 50.5 43.5t88 40.5t63.5 36q59 34 79 34q30 0 30 -30q0 -17 -9.5 -34.5t-18.5 -34.5q-38 -72 -20 -94
q159 -253 273 -411.5t136 -186.5q226 310 406 627q22 41 15 73.5t-11 49.5q-26 112 19 112q10 0 42 -26.5t56 -44.5q62 -45 96 -57q68 -26 68 -64q0 -35 -73 -37q-83 -2 -105 -36t-55.5 -84t-73 -109t-83 -126t-87.5 -136q-94 -148 -168 -272q-4 -104 -4 -173v-105l1 -155
l1 -84q0 -56 51 -126q15 -20 26 -30q31 -26 31 -44t-17.5 -24t-65.5 -6l-107 1z" />
    <glyph glyph-name="Z" unicode="Z" horiz-adv-x="1593" 
d="M267.5 -20.5q-35.5 -10.5 -50.5 -10.5t-25.5 3.5t-20.5 9.5q-34 22 -14 58q6 13 32.5 37t90.5 94.5t145 164.5t173.5 204.5t185 225t181 225.5t161.5 206q163 212 199 274q-717 0 -816 -7t-118 -12t-40.5 -21.5t-40.5 -36.5q-24 -24 -55 -64q-15 -17 -32 -17
q-22 0 -22 24v61q0 170 -15 220q-3 10 -3 20q0 29 23 29q13 0 35 -17.5t48 -39.5q71 -57 108 -59q65 -5 242 -5l752 5q108 0 63 -77q-58 -96 -532 -689q-522 -652 -624 -716l648 9q197 4 259.5 13t93.5 26.5t56 38.5l74 71q21 21 44 21q36 0 17 -69q-21 -84 -21 -204l2 -55
q0 -34 -28 -34q-26 0 -66 35.5t-61.5 52t-40.5 18.5l-54 1q-767 -5 -842.5 -4t-111 -9.5z" />
    <glyph glyph-name="bracketleft" unicode="[" horiz-adv-x="950" 
d="M298 -313q-71 0 -71 46l11 68q3 19 3 220l-3 556q0 215 -11.5 520t-14.5 402.5t-6 174.5q-6 156 -6 192q0 62 54 62l74 2q162 3 182.5 7t37.5 17t36 32l84 88q21 21 40 21t24 -13t5 -39l-3 -141q0 -91 8 -133.5t8 -56.5t-11.5 -23t-20 -9t-18.5 8t-20 19l-36 46
q-74 80 -130 84q-8 1 -22 1h-33l-103 -1q-27 -1 -54 -1l2 -34l8 -234q0 -3 7 -234l10 -332l9 -370q4 -162 4 -281t-18 -569h87l113 1q42 0 81 24t67 45q68 49 68 -24l-9 -115l5 -106q0 -41 -22 -41q-17 0 -34.5 19t-35 32.5t-36.5 25.5q-62 39 -91.5 41t-64 2.5t-74.5 0.5
h-80z" />
    <glyph glyph-name="backslash" unicode="\" horiz-adv-x="1309" 
d="M1006.02 -304q-18.999 -68 28.998 -68q18.999 0 36.498 14t38.4971 26q20.999 12 42.998 23q31.998 15 87.9941 36q26.999 10 26.999 28t-7 30t-27.498 17.5q-20.499 5.5 -43.498 11.5q-62.9961 17 -84.9941 51q-35.998 56 -238.485 494.5q-202.488 438.5 -255.484 552.5
q-52.9971 114 -101.994 219t-89.9941 191q-76.9961 165 -100.994 210q-30.998 60 -30.998 82.5t3.5 35.5q3.49902 13 7.49902 24q17.999 52 4.5 68t-31.498 16q-21.999 0 -60.9961 -27q-47.9971 -44 -83.9951 -58t-60.4961 -26.5q-24.499 -12.5 -24.499 -30.5
q0 -38 65.9961 -42q48.9971 -3 85.9951 -32q9.99902 -8 15.999 -20q5.99902 -12 33.498 -67.5q27.498 -55.5 66.9951 -137q39.498 -81.5 88.4951 -184t102.494 -215.5q53.4961 -113 109.993 -231.5q56.4961 -118.5 110.493 -231.5q53.9961 -113 102.993 -216.5
t88.9951 -186.5q96.9941 -207 105.493 -225q8.5 -18 8.5 -37.5t-4 -35.5z" />
    <glyph glyph-name="bracketright" unicode="]" horiz-adv-x="924" 
d="M723 -249q0 -46 -71 -46q-165 0 -220 -33q-73 -44 -99 -81q-21 -30 -40 -30q-23 0 -25 53q-4 104 -12 139q-15 61 -15 79q0 54 59 20q97 -56 146 -56q114 4 180 4q-46 548 -46 938l3 407q0 177 -5 577l-102 -2q-62 -2 -93 -20q-48 -30 -66.5 -50t-30 -33t-23.5 -24
q-63 -58 -63 8l12 163q2 66 2 111l-1 54q0 51 17 51q12 0 33 -21.5t45.5 -44.5t47.5 -42q51 -43 77 -48q47 -10 193 -10q24 0 39 -12.5t15 -53.5l9 -923q0 -446 11 -721t12 -288z" />
    <glyph glyph-name="asciicircum" unicode="^" horiz-adv-x="1286" 
d="M131 70q-57 0 -57 36q0 29 18 41t36 20.5t35.5 22t36.5 70.5t54.5 168t75 237t81 259.5t81.5 259.5q86 277 137 429q10 30 44 30q67 0 77 -40l233 -912q65 -252 112 -409q10 -35 33.5 -54.5t47 -33.5t41.5 -29t18 -42q0 -33 -59 -33l-56 1l-169 -11q-52 0 -52 29
q0 22 35 52.5t51 46.5q21 21 15 39q-109 436 -203.5 796.5t-112.5 431.5l-382 -1251q6 -24 28 -42.5t50 -44.5q53 -49 10 -75q-26 -15 -57 -9t-53 9q-64 11 -92 11z" />
    <glyph glyph-name="underscore" unicode="_" horiz-adv-x="1536" 
d="M-20 -274l1096 -9q359 0 485 9l-1 -93l-954 -6q-453 0 -621 6z" />
    <glyph glyph-name="grave" unicode="`" horiz-adv-x="794" 
d="M188 1620q-45 0 -45 31q0 19 27.5 46.5t40.5 59t23.5 59t22 46.5t34.5 19t34 -22t17.5 -50.5t12.5 -55.5t17 -35t35 -26.5t53 -40.5q72 -56 99 -71q45 -26 45 -52q0 -51 -45 -51q-34 0 -70 36q-17 17 -89.5 63t-84.5 51.5t-28 5.5z" />
    <glyph glyph-name="a" unicode="a" horiz-adv-x="1555" 
d="M1362 3q-47 0 -34 66q26 122 14 154l-184 289q-53 85 -112 187q-46 -125 -85.5 -205t-107.5 -162t-133 -140q-219 -195 -401 -195q-96 0 -153 62q-67 77 -23 223q58 194 280 353q200 144 427 197q61 15 109 20q-109 192 -142 261q-18 22 -51 33q-123 42 -140 52.5
t-17 24.5q0 32 52 48q90 25 159 81q39 33 76 33t37 -39l-37 -122q-11 -44 2 -69l212 -390q138 -247 255 -413q41 -59 63.5 -73.5t54.5 -27.5t61 -25q71 -30 71 -55q0 -28 -50.5 -48t-82 -41t-52 -38.5t-35.5 -29t-33 -11.5zM246 268q-13 -44 -13 -70t6 -44t17 -32
q26 -30 59 -30q60 0 136 30.5t136 76t117 104.5q122 127 189 258q60 114 92 210q-158 -14 -337 -103q-164 -81 -276 -202q-97 -105 -126 -198z" />
    <glyph glyph-name="b" unicode="b" horiz-adv-x="1106" 
d="M164 -44q-53 0 -53 39q1 20 25.5 51.5t39 51t26.5 36.5q25 35 27 46.5t2 48t-0.5 98.5t-1 144.5t-1 175t-1 190t-1 191t-1.5 177t-2 147.5q-2 140 -5.5 158.5t-33 49.5t-59.5 61t-30 52q0 31 39 31l96 -11q57 0 94 5t60 5q51 0 51 -34q0 -22 -28 -44.5t-45.5 -39
t-27.5 -29.5q-18 -23 -18 -46l6 -549v-187q76 102 208 132q116 26 234 -19q152 -58 202 -223q19 -62 19 -141.5t-20 -134t-52.5 -93.5t-73.5 -63t-83 -38q-188 -63 -354 36q-42 24 -76 64q4 -100 15.5 -131t27.5 -52t34 -43q72 -90 -29 -90h-25q-114 0 -141 -11t-44 -11z
M352 642q-19 -53 -19 -108.5t14 -97.5t37 -72.5t52.5 -50.5t60.5 -32q108 -42 225 -5q166 51 166 241q0 225 -170 290q-53 20 -115 20t-111.5 -25t-85 -66t-54.5 -94z" />
    <glyph glyph-name="c" unicode="c" horiz-adv-x="1333" 
d="M1202 306q0 -120 30 -219q25 -76 -23 -76q-20 0 -49 14.5t-42.5 26.5t-25.5 21q-40 32 -136 11q-191 -40 -282 -40t-148 10t-115.5 35t-114.5 68.5t-100 109.5q-97 145 -97 373q0 192 109 332q90 114 245 178q129 53 257 53l158 -14q79 0 135 56q26 26 55 26q41 0 27 -42
q-43 -129 -43 -218l4 -35q0 -16 -7.5 -28t-18.5 -12q-21 0 -42.5 31t-35.5 54t-28 41q-33 39 -71 44q-89 12 -142 12t-112 -14.5t-115.5 -41.5t-106 -67t-87.5 -91q-81 -111 -81 -252t42 -242.5t110 -163.5q127 -114 333 -114q87 0 161 16t114.5 28t67 24.5t42 26.5t25.5 29
l37 69q21 39 46 39t25 -58z" />
    <glyph glyph-name="d" unicode="d" horiz-adv-x="1114" 
d="M795 -113q-41 0 -41 39q0 15 22 68q36 82 36 98.5t-6 32.5q-14 41 -34 163q-60 -135 -196 -172q-99 -27 -222 12q-166 52 -222 202q-22 59 -22 147t34 158t88 115q107 91 256 91q98 0 186 -68q29 -23 54 -54q-21 342 4 662q0 45 -94 151q-22 25 -22 45q0 32 33.5 32
t73 -9t79.5 -9l95 10q26 0 46 -12t20 -32t-32 -53q-81 -86 -92 -104t-15.5 -49t-7.5 -79q-21 -330 14 -716q23 -264 71 -419q9 -32 55 -49q62 -24 72 -31q67 -49 9 -75q-15 -7 -91.5 -32t-93.5 -38q-31 -25 -57 -25zM209 468q0 -55 15 -97t39 -72.5t55 -50.5t63 -32
q167 -63 267 44q71 76 71 209q0 134 -77 213q-69 71 -162 71q-119 0 -196 -87q-75 -82 -75 -198z" />
    <glyph glyph-name="e" unicode="e" horiz-adv-x="1381" 
d="M1293 165q0 -56 -59 -37q-96 29 -116 22.5t-54.5 -22t-81.5 -31.5q-163 -56 -363 -32q-144 17 -267 89q-140 81 -199 245q-31 86 -31 200.5t30.5 204.5t81.5 161t117.5 122t138.5 85q204 97 440 50q174 -36 253 -159q41 -64 41 -144.5t-17 -130.5t-45 -87t-63.5 -61.5
t-72.5 -39.5q-68 -28 -116 -28q-111 0 -168.5 17.5t-98.5 21t-69 5t-42.5 8t-14.5 21.5q0 28 29 53q70 60 109 125q46 71 85 35q11 -10 15 -62q8 -103 45 -120q26 -15 119 -15q61 0 127 65q73 71 73 154q0 268 -365 268q-210 0 -370 -164q-158 -163 -158 -374
q0 -220 135 -342q132 -118 369 -118q214 0 318 78q42 31 61.5 72t31 64t22.5 37.5t25.5 14.5t22.5 -6.5t12 -15.5q2 -4 8 -42q15 -90 32 -121q30 -52 30 -66z" />
    <glyph glyph-name="f" unicode="f" horiz-adv-x="1220" 
d="M431.5 -80.5q-22.5 -5.5 -44.5 -13t-51.5 -7.5t-29.5 26q0 28 42 75.5t55 65.5q27 36 27 63v37l-4 452q-2 192 -2 358h-113q-63 0 -127 -59q-19 -17 -39.5 -35.5t-38.5 -18.5q-32 0 -32 34l11 115q3 56 3 92v50q0 50 28 50q26 0 52 -43q30 -53 102 -93q19 -11 33 -11
l121 -1v74q0 398 258 502q109 44 278 22q84 -10 108 -1.5t40 19.5l86 72q33 20 33 -27l-11 -144l10 -115q0 -47 -52 -20q-26 14 -53.5 43.5t-43.5 43.5q-38 33 -60.5 39.5t-39.5 8.5t-39 3l-112 -1q-297 0 -297 -449v-69q316 7 381 12.5t90.5 24.5t38.5 31.5t24.5 24.5
t24.5 24q35 29 50 29q42 0 23 -61q-19 -57 -19 -163l7 -100q0 -16 -10 -26.5t-23 -10.5t-23 9.5t-20 22.5l-33 43q-63 60 -99 60h-412l-3 -775v-68q0 -79 60 -102q46 -19 62.5 -38.5t16.5 -29.5q0 -20 -47 -23t-79 -6t-58.5 -6.5t-49 -9z" />
    <glyph glyph-name="g" unicode="g" horiz-adv-x="1362" 
d="M1001 1095q46 -67 46 -138.5t-17 -112.5t-45 -74.5t-64.5 -59t-75.5 -44.5q-74 -34 -150 -46q-65 -51 -65 -91t24 -62.5t63 -39.5t89 -31t102.5 -32.5t102.5 -44t89 -63.5q87 -86 87 -226q0 -193 -193 -298q-197 -109 -458 -82q-132 14 -221.5 53t-136.5 78
q-105 87 -105 215q0 46 31 129q12 45 15 94l3 80q2 30 4.5 66.5t31.5 36.5q16 0 34.5 -18.5t43.5 -45.5q72 -73 148 -107q31 -14 31 -33t-18.5 -33t-47.5 -16.5t-61 -5.5t-56 -17q-56 -33 -56 -141q0 -113 148 -183q135 -65 322 -65q178 0 308 85.5t130 207.5
q0 170 -176 238q-47 19 -150.5 51t-142.5 54q-87 49 -87 126.5t39 123.5q-112 25 -191 108q-84 88 -84 185.5t34.5 156t89.5 95.5q104 70 265.5 70t266.5 -85q43 56 68 165q8 34 17.5 56t27.5 22t28.5 -9t28.5 -31l127 -153q28 -33 5 -60q-10 -11 -23 -11t-37.5 -1t-56.5 -5
q-87 -11 -132 -31zM550 723.5q45 -17.5 79 -17.5t65 4.5t65 15.5t68.5 28.5t61.5 43.5q61 59 61 128t-22.5 109t-60.5 65q-70 46 -188 46q-191 0 -263 -112q-26 -41 -26 -95t22 -95.5t57.5 -72t80.5 -48z" />
    <glyph glyph-name="h" unicode="h" horiz-adv-x="1338" 
d="M314 33l-110 -10q-29 0 -29 24t15.5 46t33.5 45q49 61 49 102l11 370q23 809 23 968l-1 37q0 22 -71 89q-16 15 -29.5 28t-13.5 28q0 25 37 25t76.5 3.5t74.5 7.5q97 13 103 13q70 0 -15 -101q-64 -77 -66 -99.5t-3.5 -68t-3 -108.5t-3 -137.5t-2.5 -146.5
q-3 -214 -3 -233q45 90 125 155q91 76 185 76q158 0 235 -160q42 -86 58 -166.5t38 -200.5q56 -318 61.5 -336.5t18 -36.5t28.5 -35q38 -38 59 -49q63 -31 26 -64q-13 -11 -98.5 -26t-108.5 -27q-32 -16 -50 -16q-52 0 -26 60l32 71q24 64 25 83.5t-2 45t-7.5 61.5
t-10.5 79.5t-13 86.5q-36 224 -56.5 288.5t-40 105t-45.5 72.5q-58 70 -138 70q-94 0 -168 -96q-79 -100 -121 -270q-19 -76 -22 -226l-6 -222q0 -51 87 -144q16 -18 16 -39q0 -29 -31 -29z" />
    <glyph glyph-name="i" unicode="i" horiz-adv-x="703" 
d="M249 -46q-51 0 -51 38q0 16 28 53.5t54.5 73t29.5 55.5l22 827q-1 30 -20.5 53t-42.5 44t-42 41t-19 43q0 44 71 27q54 -13 116 -13l113 5q51 0 51 -38q0 -21 -30.5 -44.5t-50 -40.5t-30.5 -30q-19 -21 -19 -39l-21 -769l1 -68q0 -43 29.5 -85.5t43 -61.5t13.5 -33
q0 -35 -57 -35l-44 2zM502 1568q88 0 44 -58l-111 -134q-38 -71 -70 -3l-75 95q-47 64 -47 84q0 29 37 29q116 -14 194 -14z" />
    <glyph glyph-name="j" unicode="j" horiz-adv-x="876" 
d="M638 1406q55 10 55 -18q0 -31 -41 -58q-56 -36 -78 -124q-11 -44 0 -255.5t16 -291.5q23 -418 23 -503t-4 -141.5t-11 -101.5q-42 -272 -210 -323q-121 -38 -256 42q-98 58 -150 61.5t-71.5 19.5t-19.5 35.5t22 32.5q51 29 100.5 57.5t82.5 63.5t53 35q30 0 30 -52
l-3 -52q0 -107 66 -147q46 -28 112 -8q51 16 79.5 49t44.5 78q39 105 32 363q-24 819 -48 1016q-5 38 -34 67.5t-64 54.5q-58 44 -58 74t38 30t88 -9t84 -9t53 2zM619 1828q88 0 44 -58l-111 -134q-38 -71 -70 -3l-75 95q-47 64 -47 84q0 29 37 29q116 -14 194 -14z" />
    <glyph glyph-name="k" unicode="k" horiz-adv-x="1105" 
d="M264 35l-118 -6q-32 0 -32 26q0 20 15 40.5t33 43.5q49 60 51 89t3 76.5t1.5 117.5t1.5 157.5t1 182.5q2 285 2 382v178q0 81 -2 141l-66 86q-43 56 -43 81q0 34 29 27q99 -23 230 1q54 10 54 -17q0 -28 -33 -71t-51 -68t-24 -50l-5 -714q236 182 415 361
q19 19 29.5 97.5t22.5 91t30.5 12.5t33.5 -19t32 -47q52 -85 93.5 -117t41.5 -54q0 -35 -59 -35l-71 5q-57 0 -76 -11t-42.5 -29t-57.5 -46t-76 -62.5t-85 -70.5q-70 -57 -162 -136q408 -353 501 -420q24 -17 61 -20t72.5 -5t61 -8t25.5 -26.5t-17 -38t-40 -36.5
q-68 -55 -83 -83q-47 -92 -87 -49q-15 15 -21 61t-9 65q-7 45 -21 61l-323 281q-92 80 -191 167q-2 -206 -2 -388q0 -21 35 -70q65 -93 65 -118t-28 -25z" />
    <glyph glyph-name="l" unicode="l" horiz-adv-x="863" 
d="M853 25q-38 0 -75 8t-92 8q-16 -2 -65 -22q-92 -39 -166 -37t-128 34.5t-87 95.5q-64 119 -64 375l14 924q0 204 -19 256q-13 36 -34 50t-43 30t-22 37q0 34 62 34l75 -4l168 7q50 0 50 -34q0 -21 -19.5 -36.5t-44.5 -34.5q-67 -51 -74 -116q-16 -136 -16 -1113
q0 -391 157 -413q57 -9 88 0.5t53 19.5q16 7 73 38q19 10 31.5 39.5t25.5 73t27 54t29.5 10.5t24 -14t18.5 -40q31 -87 56 -122q72 -100 -3 -108z" />
    <glyph glyph-name="m" unicode="m" horiz-adv-x="1676" 
d="M376 693q7 -236 7 -492q0 -43 29 -85t42.5 -61.5t13.5 -35t-11.5 -28.5t-32.5 -13l-117 12q-26 0 -44 -7t-37.5 -7t-36.5 11t-17 26q0 25 15.5 47t32.5 42.5t30 38.5q31 41 34 77q22 280 -8 774q-9 155 -19.5 171t-22.5 29l-58 58q-23 23 -23 46q0 29 37 29l77 -8
q66 0 107 15q99 34 99 -17q0 -19 -35 -49q-86 -75 -86 -124.5t6.5 -113t10.5 -132.5q99 214 235 276q37 17 82.5 17t79 -20.5t56.5 -52.5q39 -53 66 -153q27 84 78 137q98 100 197 100q104 0 171 -140q63 -132 71 -329l15 -313q6 -123 19 -323q60 -90 87 -102q28 -15 28 -43
t-22.5 -37t-54 -12t-64 -5t-49.5 -10q-39 -19 -59 -19q-56 0 -24 77q50 123 62 163q0 993 -183 999q-143 0 -223 -216q-12 -33 -17 -54l-5 -22l-1 -136l-1 -176q0 -260 12 -285.5t29 -47t33 -38.5q38 -40 38 -57q0 -37 -60 -37l-104 4l-96 -13q-52 0 -52 39q0 22 21 47
q31 34 89 119l5 252q0 210 -7 285.5t-18 129.5t-28 97q-38 97 -96 97q-60 0 -112 -49q-56 -52 -93 -124q-69 -134 -98 -228z" />
    <glyph glyph-name="n" unicode="n" horiz-adv-x="1418" 
d="M473 -7q0 -28 -31 -28l-52 5l-180 7q-55 3 -6 70l62 91q17 23 20 41.5t6 57.5t6 97.5t6.5 131.5t7.5 151t7 156.5t5 146.5q6 150 6 225q-7 30 -40 72.5t-47 60t-14 26.5q0 22 31 22t65.5 0.5t68.5 1.5l131 12q57 0 12 -70l-97 -110q-15 -19 -16 -27.5t-2.5 -37
t-3.5 -67.5q-4 -50 -7 -156q53 129 147 236q119 134 255 134q197 0 299 -283q31 -85 52.5 -203t35 -197.5t21.5 -128.5q15 -88 18 -100t15.5 -30t28.5 -35q34 -36 65 -50.5t31 -37t-18.5 -29.5t-50.5 -12q-102 -14 -137 -31q-43 -21 -62 -21q-49 0 -31 49l20 43
q42 100 42 124t-3.5 56.5t-8.5 74.5q-12 97 -23.5 149.5t-20.5 108.5t-22 118t-33 122.5t-51 109.5q-67 109 -177 109q-169 0 -297 -270q-94 -197 -103 -332q-21 -315 -21 -344t10 -52t23 -47l53 -88q5 -11 5 -22z" />
    <glyph glyph-name="o" unicode="o" horiz-adv-x="1253" 
d="M667 115.5q-45 -4.5 -66 -4.5t-65 6t-96 23.5t-106 51t-98 88.5q-100 123 -100 322q0 190 126 337q115 136 254 159q88 27 207 9q114 -18 211 -89q111 -80 158 -242q24 -85 24 -196t-33 -187.5t-84 -128t-112 -82t-118 -46.5t-102 -20.5zM544 210.5q37 -6.5 57 -6.5
t56.5 4t82 17t95 37.5t90.5 66.5q94 96 94 252q0 319 -229 409q-175 68 -358 -29q-25 -13 -44 -22q-71 -49 -114 -154q-37 -90 -37 -178.5t20.5 -150t53 -105.5t73.5 -72.5t82 -45t78 -23z" />
    <glyph glyph-name="p" unicode="p" horiz-adv-x="1169" 
d="M150 -417q-53 0 -53 29q0 19 23.5 40.5t51.5 47.5q75 68 75 124l-1 146l-4 334l-5 401q-5 470 -9 489.5t-13 34t-21 27.5l-46 50q-46 46 -46 67q0 32 41 32l95 -11q44 0 77.5 7t55.5 7q71 0 71 -38q0 -23 -28 -45t-45.5 -38t-26.5 -29q-18 -25 -18 -41t0.5 -37t1.5 -48
l2 -117q49 99 155 155q123 66 277 44q219 -30 283 -238q19 -62 19 -141.5t-20 -135t-52.5 -96t-74 -67.5t-83.5 -43q-75 -29 -118.5 -29t-69 1.5t-57.5 7.5t-67.5 17.5t-69.5 30.5q-79 44 -118 115l3 -174q5 -251 6 -412.5t4.5 -210t14 -70.5t26.5 -40l71 -73q22 -26 22 -45
q0 -35 -57 -35q-6 0 -44 7t-114 7zM858 604q30 20 54 50q52 69 52 156t-14.5 135.5t-39 82t-55 53.5t-61.5 31q-52 18 -118.5 18t-126 -28t-103.5 -71q-93 -92 -93 -195q0 -196 199 -261q174 -56 306 29z" />
    <glyph glyph-name="q" unicode="q" horiz-adv-x="1074" 
d="M636 -285q-56 0 -56 33q0 35 51 64q53 29 67 53q21 34 23 95l14 683q-68 -79 -211 -101q-139 -21 -264 50q-91 52 -132 162q-22 58 -22 143.5t35.5 153t89.5 113.5q109 91 243 91q174 0 272 -123l1 74v67q0 50 -68 95t-68 83q0 26 38 26l87 -9l182 10q60 0 60 -31
q0 -40 -29 -53q-60 -26 -83.5 -74t-23.5 -126l-23 -1213v-49q0 -53 13.5 -72t29.5 -29.5t33.5 -18.5t32.5 -18q35 -22 35 -47t-15.5 -32.5t-54.5 -7.5l-95 10l-67 1zM389 637.5q45 -11.5 72 -11.5t55 3t58 12t58.5 26.5t51.5 46.5q50 63 50 171q0 204 -158 263
q-50 19 -110.5 19t-109 -26.5t-82.5 -66.5q-68 -80 -68 -168.5t28.5 -141.5t69 -84t85.5 -42.5z" />
    <glyph glyph-name="r" unicode="r" horiz-adv-x="983" 
d="M438 82l-172 10q-56 0 -69 -3q-57 -12 -57 24q0 21 33.5 54t59.5 63.5t29 49.5q4 21 9 298q9 511 4 549.5t-13 55.5q-10 22 -41.5 43.5t-47 33t-15.5 23t2 17.5t8 12q14 14 40 14l79 -8q57 0 87.5 9.5t45.5 9.5t29.5 -9t14.5 -24.5t-13.5 -29t-30.5 -29.5
q-49 -46 -58 -77l-5 -217q64 164 175 244q83 59 169 62q24 0 132 90h1q8 6 17 13.5t22 7.5q30 0 30 -41l-5 -141l3 -63q0 -17 -9 -31q-20 -32 -62 1v-1q-38 41 -82 59t-69 18t-63 -21t-71.5 -55.5t-62.5 -79t-51 -92.5q-46 -100 -51.5 -171t-9 -126.5t-6.5 -110.5
q-12 -229 -2 -250t22 -38l73 -99q25 -44 -19 -44z" />
    <glyph glyph-name="s" unicode="s" horiz-adv-x="852" 
d="M663 1126q0 -30 -16.5 -30t-34 14t-34.5 31q-47 45 -63 46.5t-39 -1t-49 -9.5t-53 -19t-48 -32q-50 -44 -50 -112q0 -78 136 -180q106 -80 151 -121t75 -81q67 -91 67 -194q0 -195 -218 -286q-70 -30 -108 -30t-65.5 -20t-50.5 -43.5t-40.5 -43.5t-27 -20t-15.5 5t-10 12
q-8 16 -8 29l-5 177q0 122 41 90q10 -7 26.5 -28t27 -32t25.5 -18q61 -29 163 1q119 35 162 127q68 145 -126 310l-153 119q-140 111 -140 227q0 174 192 238q61 21 112 21q12 0 52.5 38t55.5 51q36 31 43 31q18 0 18 -63l-1 -82z" />
    <glyph glyph-name="t" unicode="t" horiz-adv-x="1219" 
d="M329 392l1 31q5 118 15.5 234.5t19.5 241.5q-57 1 -79 1h-28q-39 0 -61.5 -17.5t-37.5 -34.5q-50 -54 -76 -54q-32 0 -32 33q0 21 14.5 77.5t14.5 104.5l-6 67q0 36 23 36q14 0 52 -43.5t58 -63t35 -19.5q62 0 128 -4q17 221 17 280q0 25 -76 106q-25 25 -25 46
q0 36 57 36q15 0 40.5 -6t60.5 -6l123 9q44 0 44 -34q0 -21 -18.5 -41t-24.5 -23q-24 -12 -47.5 -47t-27 -45.5t-6.5 -37t-7 -63.5l-14 -179q302 -14 347 -9.5t71.5 24.5t41 33t22.5 21.5t18 15.5q22 18 40 18q34 0 34 -65l-7 -119q0 -25 6 -48q22 -81 -32 -81q-20 0 -41 16
t-46 35q-74 58 -95 60l-365 17l-20 -272q-22 -219 -7.5 -293t39.5 -114q56 -91 178 -91q91 0 192 66q23 15 34 25.5t25.5 43.5t19.5 87t36 54q23 0 36 -23l48 -97q25 -46 53.5 -70.5t37 -32.5t8.5 -20q0 -33 -56 -33l-107 7q-67 0 -115 -27q-214 -120 -368 -43
q-165 83 -165 330z" />
    <glyph glyph-name="u" unicode="u" horiz-adv-x="1357" 
d="M935 246l1 23l-27 455l-50 -142q-68 -189 -96.5 -242.5t-54.5 -90t-59 -65.5q-75 -64 -161 -64q-257 0 -257 482l12 488q0 35 -26 62t-43 45q-31 31 -31 52q0 33 56 33l65 -3q76 0 122 12t56 12q25 0 25 -20q0 -35 -63 -95q-24 -22 -45 -44t-23 -38.5t-4.5 -63.5
t-5.5 -112q-12 -321 -3.5 -410.5t19 -135t28.5 -80.5q42 -80 118 -80q169 0 315 444q128 390 70 484q-13 20 -48 43q-50 33 -50 59q0 39 56 39l49 -1q73 0 112 8q43 10 49 10q31 0 31 -28t-32.5 -66t-48 -62t-16 -45t1.5 -61t5 -98t7 -128.5t8.5 -143.5t9.5 -143.5t9 -128.5
q11 -133 15 -152.5t9.5 -34.5t13.5 -27l62 -73q18 -36 -18 -47q-27 -7 -96.5 -7t-94.5 -7q-70 -22 -70 20q0 24 10.5 36.5t23.5 28.5t27 35q35 48 37 68z" />
    <glyph glyph-name="v" unicode="v" horiz-adv-x="1228" 
d="M909 1365q0 37 40 37q26 0 48.5 -19t56 -33t66.5 -28q84 -37 84 -55q0 -32 -54 -52l-65 -21q-24 -14 -33.5 -41t-32 -87t-54 -140.5t-69 -175t-76.5 -189.5q-95 -237 -131 -317q-48 -109 -93 -216q-15 -21 -40 -21q-51 0 -60 31q-167 477 -360 1078q-13 39 -38 59l-78 57
q-24 18 -24 43q0 33 53 33l52 -1q85 0 133.5 6.5t53.5 6.5q44 0 44 -31q0 -22 -28.5 -45t-42.5 -36q-43 -40 -34 -57q69 -264 287 -870q26 -74 42 -116q344 811 391 1030q5 25 -7 61q-31 91 -31 109z" />
    <glyph glyph-name="w" unicode="w" horiz-adv-x="1708" 
d="M1540 1522q74 21 74 -19q0 -24 -74 -155q-26 -45 -26 -63t2 -48.5t4.5 -76.5t6 -104t5.5 -120q11 -265 2 -362.5t-24 -173.5t-39.5 -147.5t-58.5 -126.5q-76 -121 -186 -121q-129 0 -200 143q-49 101 -68.5 178t-30 122t-19.5 82l-19 91l-19 -105q-55 -277 -117 -392
q-51 -93 -84 -122q-55 -49 -104 -49q-95 0 -140 91q-59 115 -126 474q-109 518 -113 568q-7 47 -127 102q-47 21 -55.5 31.5t-8.5 22.5q0 32 74 41q93 12 138.5 32.5t66.5 30.5q106 50 106 -2q0 -22 -20 -57.5t-34.5 -64t-23.5 -50.5q-16 -41 -16 -81t11 -108t29 -144
q3 -16 78 -319l39 -199q57 -271 126 -271q45 0 115 146q59 126 73 198.5t25 122t21 104.5q44 242 13 397q-10 51 -86 110q-16 13 -29.5 19.5t-28 21.5t-14.5 29q0 28 58 28t105.5 4t84.5 9q96 13 116 13q46 0 -10 -80q-26 -38 -51.5 -66t-31 -34.5t-7.5 -15.5t-2 -25v-46
q0 -101 20 -164q39 -232 57 -311q45 -190 111 -313q28 -55 84 -79q85 -34 141 75q57 115 73 176q77 289 28 742q-15 137 -23 156t-23 30.5t-34 21.5t-39 19.5t-37 19.5q-62 41 -26 71q12 10 45.5 16t63.5 13.5t55 15.5z" />
    <glyph glyph-name="x" unicode="x" horiz-adv-x="1549" 
d="M324 135q0 -69 -42 -69q-34 0 -58 44q-17 27 -113 51q-57 15 -57 50q0 27 70 51q28 9 59 18t53 21q151 151 444 478q-346 337 -411 389q-35 24 -99 25t-85.5 7t-21.5 24q0 33 48.5 59t82.5 54.5t56 51t37.5 36.5t36.5 14q40 0 40 -49l-9 -127q0 -37 17 -53
q64 -78 184 -195t179 -174l237 267q103 120 103 150l-15 117q0 50 45 50q17 0 32 -13.5t21.5 -23.5t22 -26t34.5 -32q44 -37 75 -54q51 -29 51 -53q0 -31 -54 -38q-120 0 -157 -37q-12 -7 -332 -368q380 -360 485 -450q29 -13 100.5 -23.5t94 -19t22.5 -23.5
q0 -40 -36.5 -59.5t-61.5 -45.5t-44 -50t-34.5 -40.5t-31.5 -16.5q-39 0 -44 49l-9 93q-4 41 -16 59l-19 19q-11 11 -461 446l-353 -399q-37 -43 -50 -60q-18 -25 -18 -69z" />
    <glyph glyph-name="y" unicode="y" horiz-adv-x="1269" 
d="M459 -30l-49 -1q-54 0 -29 49q12 22 38 46.5t39 39.5q32 35 36.5 70t9 70.5t8.5 71.5l38 312q-237 77 -322 357q-25 80 -37.5 135t-26 69t-27 26t-32 25t-37.5 30q-49 41 -49 74q0 20 28.5 20t63.5 2.5t71 7.5q85 10 116.5 22t41.5 12q17 0 17 -17.5t-14 -39.5t-31 -47
q-46 -70 -46 -105t10 -83t30 -101.5t50 -107t70 -96.5q92 -97 204 -97q212 0 351 266q60 114 71 190q0 29 -48 84q-47 53 -47 71q0 26 30 26q8 0 44 -5t73.5 -5t58 2.5t36.5 5.5q43 8 55 8q59 0 15 -74q-19 -32 -53 -61q-68 -59 -81 -94t-32.5 -85.5t-47.5 -106.5
t-66 -111.5t-88 -100.5q-113 -100 -251 -104q-2 -12 -30 -222q-31 -226 -31 -240.5t15.5 -40t34 -49.5t34 -45.5t15.5 -39.5q0 -23 -36 -23z" />
    <glyph glyph-name="z" unicode="z" horiz-adv-x="1306" 
d="M163.5 87q-10.5 0 -23 11.5t-12.5 28.5q0 34 29.5 65t67 71t94.5 106q322 372 724 922q-567 -3 -662 -12q-57 -7 -133 -92q-33 -37 -43.5 -42t-20.5 -5q-28 0 -20 32q24 104 7 206q-6 37 -6 68t28 31q21 0 42.5 -21.5t34.5 -36t26 -25.5q26 -25 51.5 -24t82.5 1h354
q293 -1 299.5 2.5t16.5 7.5q41 17 54 9t18 -16q20 -29 7 -50.5t-24.5 -34t-41.5 -55t-82 -114.5q-148 -203 -282 -372l-347 -436q-61 -76 -99 -125q56 2 115 2l401 -6q161 0 213 14.5t87 34.5t61.5 38.5t45.5 32t31 13.5q37 0 21 -59q-24 -93 -24 -166l2 -43q0 -34 -28 -34
q-19 0 -66 32q-90 59 -122 62l-62 1q-557 -3 -636.5 -2t-123.5 -9.5t-54.5 -10.5z" />
    <glyph glyph-name="braceleft" unicode="{" horiz-adv-x="1269" 
d="M1075 -376q-38 0 -79 45q-28 30 -76 42q-108 29 -139 47q-162 91 -241 272q-61 139 -102 425q-22 156 -40.5 191t-43.5 54t-56 35.5t-49 21.5t-33 11q-31 11 -31 41q0 28 39 39q136 38 194 128q62 96 70 288q4 92 9.5 197t31.5 174t63 117q78 101 217 129
q90 18 127.5 40.5t50.5 22.5q32 0 19 -56l-14 -58q-2 -12 -8 -74q-10 -103 -49 -103q-26 0 -40 22.5t-22 38t-19 28.5q-24 32 -53 32t-48 -13t-42 -33t-41 -41.5t-34 -56.5q-35 -80 -35 -201q0 -204 -57 -424q-23 -93 -100 -156q-33 -27 -72 -44q107 -62 135 -135
q18 -49 24 -104t14 -101.5t19.5 -109.5t25.5 -123q30 -134 56.5 -189t56.5 -93t66 -68q79 -66 150 -66q40 0 96 103q18 33 36 33t29 -16q16 -23 10 -42q-19 -60 -11 -105q9 -48 24.5 -106.5t-28.5 -58.5z" />
    <glyph glyph-name="bar" unicode="|" horiz-adv-x="809" 
d="M375 -319l-92 -12q-38 0 -38 37q0 14 14 34q72 74 80 115l1 164l4 1119l1 368v99q0 61 -42 100q-16 15 -29 28.5t-13 34.5q0 32 35 32t59.5 -8t47.5 -8l98 6q20 0 32.5 -9.5t12.5 -22.5q0 -27 -42 -53q-36 -20 -58 -67q-5 -11 -5 -17l-3 -1081q0 -420 5 -675
q0 -41 49 -89q18 -17 33 -33t15 -37q0 -33 -46 -33z" />
    <glyph glyph-name="braceright" unicode="}" horiz-adv-x="1212" 
d="M190.065 1946.98q37.998 0 78.9951 -44.9971q27.998 -29.998 75.9961 -41.9971q107.993 -28.998 138.991 -46.9971q161.99 -90.9941 240.985 -271.983q60.9961 -138.991 101.993 -424.975q21.999 -155.99 40.498 -190.988q18.499 -34.9971 43.4971 -53.9961
q24.999 -18.999 55.9971 -35.498t48.9971 -21.499q17.998 -4.99902 32.998 -10.999q30.998 -10.999 30.998 -40.9971q0 -27.999 -38.998 -38.998q-135.992 -37.998 -193.988 -127.992q-61.9961 -95.9941 -69.9961 -287.982q-3.99902 -91.9941 -9.49902 -196.988
q-5.5 -104.993 -31.498 -173.989t-62.9961 -116.992q-77.9951 -100.994 -216.986 -128.992q-89.9951 -17.999 -127.492 -40.498q-37.498 -22.498 -50.4971 -22.498q-31.998 0 -18.999 55.9961l13.999 57.9961q2 12 8 73.9961q9.99902 102.993 48.9961 102.993
q25.999 0 39.998 -22.498q13.999 -22.499 21.999 -37.998q7.99902 -15.499 18.998 -28.498q23.999 -31.998 52.9971 -31.998t47.9971 12.999t41.9971 32.998q22.999 19.999 40.998 41.4971q17.999 21.499 33.998 56.4971q34.998 79.9951 34.998 200.987
q0 203.988 56.9961 423.975q22.999 92.9941 99.9941 155.99q32.998 26.998 71.9951 43.9971q-106.993 61.9961 -134.991 134.992q-17.999 48.9971 -23.999 103.993q-5.99902 54.9971 -13.999 101.494q-7.99902 46.4971 -19.499 109.493q-11.499 62.9961 -25.498 122.992
q-29.998 133.992 -56.4971 188.989q-26.498 54.9961 -56.4961 92.9941q-29.998 37.9971 -65.9961 67.9961q-78.9951 65.9951 -149.991 65.9951q-39.9971 0 -95.9941 -102.993q-17.998 -32.998 -35.9971 -32.998t-28.998 15.999q-16 22.999 -10 41.9971
q18.999 59.9971 10.999 104.994q-8.99902 47.9971 -24.498 106.493t28.498 58.4961z" />
    <glyph glyph-name="asciitilde" unicode="~" horiz-adv-x="1566" 
d="M1306 893q0 85 45 85q27 0 40 -38q32 -91 126 -166q32 -26 32 -45q0 -49 -63 -36q-106 21 -132 12l-101 -63q-101 -57 -180 -57t-129.5 21t-89.5 52.5t-71 68t-66 67.5q-79 74 -171 74q-117 0 -189 -80q-16 -19 -25.5 -31.5t-13 -40t-7.5 -55t-13 -48t-29 -20.5t-34.5 15
t-16 32t-10.5 39t-24 45q-31 50 -66 76q-59 45 -16 71q29 18 54 7q79 -34 104 -34t47.5 18.5t53.5 40.5q85 59 172 59t139.5 -21t91 -53t68 -69t61.5 -69q135 -135 320 -32q57 32 80 64q14 12 14 57z" />
    <glyph glyph-name="DEL" 
 />
    <glyph glyph-name="nonbreakingspace" unicode="&#xa0;" horiz-adv-x="856" 
 />
    <glyph glyph-name="exclamdown" unicode="&#xa1;" horiz-adv-x="805" 
d="M405.027 1035.02l71.9961 -5.99902q77.9951 0 96.9941 -10.999q38.998 -22.999 7.99902 -61.4971q-30.998 -38.4971 -45.4971 -56.9961t-21.498 -30.498q-12 -17.999 -15.999 -38.998l-73.9961 -966.94q0 -37.998 17.999 -63.9961q17.999 -25.999 35.998 -48.9971
q47.9971 -60.9961 47.9971 -104.994q0 -43.9971 -53.9971 -34.9971l-60.9961 17.998q-49.9971 14.999 -132.992 14.999h-27.998q-33.998 0 -50.4971 9.5q-16.499 9.49902 -16.499 29.498q0 33.998 32.998 61.4961t56.4971 52.9971q23.498 25.498 38.4971 47.4971
q28.998 43.9971 28.998 64.9961q59.9971 856.947 59.9971 897.945q0 40.9971 0.5 58.9961t-2.5 32.998q-5 33.998 -17.999 53.9971q-54.9971 81.9941 23.998 81.9941zM631.014 1625.99q36.998 0 36.998 -25.999q0 -22.998 -43.4971 -72.4951t-60.9961 -70.4961
t-28.499 -34.998q-23.998 -27.998 -33.998 -27.998q-16.998 0 -30.998 28.498q-13.999 28.498 -32.498 50.9971q-18.498 22.499 -36.4971 44.4971q-88.9951 108.993 9.99902 108.993l135.992 -5.99902z" />
    <glyph glyph-name="cent" unicode="&#xa2;" horiz-adv-x="1476" 
d="M285 -174q0 -46 -42 -46q-23 0 -61 20q-72 38 -109.5 38t-54 14t-16.5 29q0 29 51 53q68 31 111 71q33 51 146 293q-203 149 -203 372q0 380 321 506q124 49 285 53q118 288 118 316.5t-9 45.5t-20 35q-49 73 -15 100q29 24 62 8t59 -30q69 -37 111 -45q76 -15 76 -47
q0 -16 -24.5 -30.5t-54.5 -29.5q-85 -41 -94 -67q-16 -42 -105 -259l85 -8q47 0 102 52q21 19 40.5 35.5t42.5 16.5q30 0 22 -38q-21 -79 -21 -149.5t4.5 -85.5t4.5 -29q0 -35 -25 -35q-19 0 -43 27.5t-40.5 48t-32.5 35.5q-43 40 -125 46q-24 1 -48 3q-174 -413 -353 -810
q247 -139 445 -43q56 27 77 59t32.5 53.5t21.5 35.5q34 51 64 18q11 -12 11 -36l-2 -44q0 -47 19 -129.5t19 -99.5q0 -61 -79 -22q-25 12 -45 34.5t-31 29.5t-27 7q-29 0 -86 -16t-138 -16q-168 0 -320 81l-86 -195q-16 -35 -25 -55l-8 -20q-5 -11 -5 -28zM351 388
q201 448 326 754q-206 -19 -335 -138q-135 -126 -135 -327q0 -168 144 -289z" />
    <glyph glyph-name="sterling" unicode="&#xa3;" horiz-adv-x="1392" 
d="M425 -125q-30 0 -38 15.5t-26 35t-42 40.5q-58 49 -87.5 63t-29.5 30.5t20 30.5t40.5 15.5t46.5 6.5t50 12q58 15 60 31l5 207l7 427q-70 -8 -101 -8t-45 -9t-26.5 -22t-24.5 -29t-24 -29q-30 -31 -54 -31q-33 0 -33 31l9 111l-8 142q0 54 50 14l91 -75q22 -17 36 -17
q98 15 132 19l3 334q1 44 1 93t11.5 114.5t34 126t56 112.5t78.5 90q96 83 210 83t182 -23t113.5 -56.5t73.5 -71t44.5 -61.5t29 -45.5t28.5 -40.5q37 -46 74 -48q53 -2 30 -38q-24 -37 -54.5 -39.5t-52.5 -9.5t-45 -16q-105 -45 -109 -45q-24 0 -24 30q0 24 14 45.5
t23 35.5q29 49 16 78q-39 78 -72.5 111.5t-67.5 53.5q-78 45 -185 45t-181 -86q-85 -97 -114 -284q-15 -94 -21 -478l62 6t65 7q79 9 132.5 18.5t78.5 32t38 37t21 23.5t17 18q38 35 66 8q12 -11 12 -37l-4 -60q0 -66 13 -110q15 -47 15 -54q0 -36 -28.5 -38t-51.5 12.5
t-48 31.5q-68 46 -99 49l-291 -40l-7 -442q-2 -109 -3 -208q608 -96 642 -96h53q66 0 131 46q23 16 39 16q28 0 28 -37q0 -24 -12 -37q-21 -26 -21 -96l9 -83q0 -37 -43 -37q-15 0 -18 4t-15 18.5t-30 33.5q-44 47 -69 60.5t-62 21t-89 15.5q-166 25 -578 72
q-16 -100 -16 -138t-41 -38z" />
    <glyph glyph-name="currency" unicode="&#xa4;" horiz-adv-x="1429" 
d="M299 -80q0 -40 -29 -40q-19 0 -36 16t-27.5 28.5t-22.5 24.5q-21 22 -58 45q-85 51 -53 83q15 15 33.5 15.5t39.5 1.5q59 1 93 37l128 141q-105 126 -105 317t114 336l-104 113q-42 45 -111.5 45t-69.5 37q0 27 37.5 48.5t54 34.5t28.5 25l50 52q17 17 36 17q29 0 29 -41
l-10 -77q0 -52 19 -72q22 -23 102 -117q139 125 323 125t314 -107q130 144 130 145q19 32 19 95.5t12.5 78t25 14.5t23 -9t20.5 -22q45 -58 71.5 -77.5t42.5 -32.5q36 -29 36 -49t-21 -27t-50.5 -9t-62 -6.5t-60.5 -29.5q-49 -45 -128 -131q110 -137 110 -372
q0 -181 -95 -296q59 -67 99 -102t72.5 -40.5t62.5 -8.5t51.5 -10t21.5 -23t-10.5 -27.5t-25.5 -24.5l-70 -56l-64 -75q-22 -19 -41.5 -2.5t-19.5 53.5q0 95 -19 128l-118 130q-142 -111 -356 -111q-104 0 -214 49q-44 20 -86 52q-80 -96 -127 -148q-14 -17 -14 -66z
M395 760.5q-30 -75.5 -30 -157t20 -143t52.5 -105.5t73 -72.5t81.5 -44.5q73 -30 114 -30t77.5 3.5t83 16t96.5 37t91 65.5q95 97 95 251q0 329 -233 415q-70 26 -156.5 26t-158 -35t-124 -93t-82.5 -133.5z" />
    <glyph glyph-name="yen" unicode="&#xa5;" horiz-adv-x="1536" 
d="M624 305l-254 1q-61 0 -100 -42q-15 -16 -28.5 -29t-34.5 -13q-32 0 -32 43l15 114l-5 83q0 20 9 33.5t22 13.5q26 0 54 -44q23 -37 68 -61q10 -5 40 -5t251 -8q7 99 13 264l-243 1q-61 0 -100 -42q-15 -16 -28.5 -29t-34.5 -13q-32 0 -32 43l15 114l-5 83q0 20 9 33.5
t21 13.5q28 0 55 -44q23 -37 67 -61q11 -5 36 -5l228 -7q-108 203 -319 498q-17 26 -72.5 55t-77 44t-21.5 32q0 37 54 43q97 9 187 48q29 13 58 13t29 -24q0 -17 -23 -49q-56 -80 -56 -91t12.5 -30.5t44.5 -69t68 -103.5l201 -305l191 216q115 134 172 231q14 25 -1 71
q-25 74 -25 82q0 37 40 37q20 0 59 -26q82 -53 122 -64q112 -31 29 -88q-13 -10 -49 -20t-52 -17t-42 -41.5t-74 -93.5t-98.5 -118.5l-101 -119t-96.5 -114.5q29 -1 57 -1h53q119 0 159.5 4.5t61.5 20t38.5 33t33.5 31.5t34.5 14t26 -10.5t7.5 -48.5l-7 -95l12 -92
q0 -38 -37 -38q-14 0 -34 14q-74 72 -115 80q-78 0 -342 4q-1 -29 -19 -265q247 -6 304.5 0.5t78.5 22t38.5 33t33.5 31.5t34.5 14t26 -10.5t7.5 -48.5l-7 -95l12 -92q0 -38 -37 -38q-14 0 -34 14q-74 72 -115 80q-81 0 -349 4q-3 -53 -3 -83v-44q0 -14 0.5 -28.5t2 -34
t8.5 -36.5q13 -31 29 -48t26 -29q22 -29 22 -45q0 -34 -60 -34l-117 8l-70 -12q-49 0 -49 38q0 17 15 38l97 126l8 112q2 34 4 73z" />
    <glyph glyph-name="brokenbar" unicode="&#xa6;" horiz-adv-x="809" 
d="M375 985l-92 -12q-38 0 -38 37q0 14 14 34q72 74 80 115l6 446q0 61 -42 100q-16 15 -29 28.5t-13 34.5q0 32 35 32t59.5 -8t47.5 -8l98 6q20 0 32.5 -9.5t12.5 -22.5q0 -27 -42 -53q-36 -20 -58 -67q-5 -11 -5 -17l2 -452q1 -42 49 -89q18 -17 33 -33t15 -37
q0 -33 -46 -33zM375 -332l-92 -12q-38 0 -38 37q0 14 14 34q72 74 80 115l6 446q0 61 -42 100q-16 15 -29 28.5t-13 34.5q0 32 35 32t59.5 -8t47.5 -8l98 6q20 0 32.5 -9.5t12.5 -21.5q0 -28 -42 -54q-36 -20 -58 -68q-5 -10 -5 -16l2 -452q1 -42 49 -88q18 -18 33 -34
t15 -37q0 -33 -46 -33z" />
    <glyph glyph-name="section" unicode="&#xa7;" horiz-adv-x="886" 
d="M274 -219q-27 0 -27 35q0 12 7.5 33.5t15.5 52.5t14 63q11 58 15 114.5t15.5 69.5t31.5 13t32 -22.5t23 -55.5q33 -100 78 -143q89 -50 218 -13q104 30 153 108q25 41 25 92.5t-20 94t-53 79.5t-73.5 69t-81.5 60.5t-78.5 53t-81 63.5t-86.5 83t-70 82q-51 72 -51 133.5
t12 103.5t31 74q34 60 82 91q-82 80 -110 125q-89 146 -30 294q46 116 172 164q118 44 284 8q12 0 74 32q104 53 120 53t16 -16t-7 -39t-15 -45l-27 -64q-9 -29 -13.5 -83.5t-9 -71t-18.5 -16.5q-20 0 -54 59q-14 29 -70 103q-211 56 -314 -44q-62 -60 -62 -156
q0 -127 173 -273q33 -28 122 -89.5t127 -92t67 -67.5q63 -82 63 -190q0 -137 -129 -235q98 -70 138 -126q75 -104 75 -194.5t-30 -148.5t-82 -98q-105 -81 -267 -81q-62 0 -95 7q-86 18 -162 -16q-17 -8 -33 -20.5t-34 -12.5zM681 527q107 64 107 183q0 109 -109 194
l-202 146q-60 -33 -85 -112q-40 -124 93 -253q87 -84 122.5 -108.5t73.5 -49.5z" />
    <glyph glyph-name="dieresis" unicode="&#xa8;" horiz-adv-x="1101" 
d="M733 1688q8 0 46 -7t172 -7q55 0 55 -34q0 -25 -33 -61q-77 -82 -84 -95q-28 -47 -62 -25q-9 6 -14.5 17.5t-17.5 27.5t-28 36q-71 91 -71 118q0 30 37 30zM543 1640q0 -27 -34 -62q-75 -79 -84 -94q-42 -66 -82 -6l-80 116q-61 94 8 94l55 -6q75 -8 146 -8t71 -34z" />
    <glyph glyph-name="copyright" unicode="&#xa9;" horiz-adv-x="1703" 
d="M110 828q0 224 115 404q156 244 455 318q182 44 380 6q182 -35 314 -151q219 -193 219 -592q0 -436 -205 -657q-184 -199 -506 -199q-318 0 -528 192q-152 138 -213 377q-31 122 -31 276v26zM244.5 1059.5q-33.5 -98.5 -33.5 -239t27 -256t74.5 -201.5t111.5 -145
t138 -95q137 -67 312 -71q160 0 248.5 33.5t151 83t110.5 133.5q105 185 105 509q0 555 -429 649q-107 23 -173 23t-138 -12.5t-146.5 -41.5t-145 -77.5t-125 -121t-88 -171zM1254 322q0 -33 -35 -33q-17 0 -69.5 18.5t-69 18.5t-31.5 -6t-38.5 -14t-55.5 -16
q-148 -40 -244 -10q-94 28 -173 108q-143 145 -143 383q0 334 259 467q91 47 160.5 47t102.5 -4.5t55 -10.5q57 -15 74.5 -15t38.5 7t39 16q49 22 69 22q51 0 29 -44q-7 -15 -18 -37l-24 -49q-52 -103 -52 -132q-2 -57 -32 -57q-22 0 -36.5 37.5t-23 63t-18.5 46.5
q-22 44 -57.5 58t-65.5 14h-62q-141 0 -237 -112q-102 -118 -102 -306q0 -208 94 -326q84 -104 209 -104q151 0 230 72q29 26 39 61t16 58q14 47 38 47t32.5 -37.5t17 -60t18.5 -42.5l48 -76q18 -32 18 -52z" />
    <glyph glyph-name="ordfeminine" unicode="&#xaa;" horiz-adv-x="1174" 
d="M641 1676q40 0 40 -50q0 -18 -14 -56q-33 -86 -27 -93.5t29 -44.5t56.5 -89.5t72 -113.5t73.5 -115q92 -144 97 -151q23 -16 50.5 -28t51.5 -24q56 -28 56 -56.5t-21 -37t-50 -13.5t-59 -12t-45 -25q-32 -37 -58 -37q-62 0 -42 87l20 80q7 35 2.5 46t-14.5 28
q-9 17 -76 122l-32 -52q-133 -219 -285 -297q-96 -50 -181 -21q-62 21 -89 77q-33 66 3 162q39 105 184 217q70 53 208 90q37 10 68 15q-83 124 -100 153q-22 16 -74.5 29.5t-69.5 22.5t-17 27q0 29 48 43.5t77 38t59.5 51t58.5 27.5zM356.5 817q35.5 0 80 23.5t85 60
t75.5 80.5t62 84q50 74 67 115l-16 24q-144 -21 -266 -109q-113 -81 -141 -177q-17 -56 0.5 -78.5t53 -22.5zM290 162q-35 0 -35 43q0 19 3 41l6 44q9 66 9 81l-9 71q0 17 9 26t20 9t31.5 -18t42.5 -39q60 -57 69 -57q181 0 386 19q41 4 99 62l40 40q18 18 34 18
q38 0 38 -76l-2 -84q0 -32 9 -62t9 -40q0 -64 -54 -50q-9 3 -48 30q-92 65 -108.5 67.5t-38 2t-53.5 -1t-71.5 -1.5t-80.5 -3q-81 -3 -125.5 -6t-67 -21.5t-41.5 -39.5q-52 -55 -71 -55z" />
    <glyph glyph-name="guillemotleft" unicode="&#xab;" horiz-adv-x="1917" 
d="M1364 131l12 117q0 22 -6.5 34.5t-38.5 51.5t-85 101q-210 245 -280 329q-13 7 -13 26q0 37 28 60q59 74 116 136t105 116q135 150 135 208l-8 104q0 47 36 47q17 0 34 -16.5t39 -40.5q64 -72 103 -93q60 -34 60 -57.5t-22.5 -30t-55 -9.5t-69 -8.5t-53 -18.5t-41 -41
t-66.5 -77q-170 -198 -234 -270q270 -324 385 -439q15 -18 71.5 -23.5t94 -11.5t37.5 -36q0 -18 -21.5 -34.5t-51.5 -34.5q-88 -55 -106 -81q-39 -57 -74.5 -57t-30.5 49zM663 131l12 117q0 22 -6.5 34.5t-38.5 51.5t-85 101q-210 245 -280 329q-13 7 -13 26q0 37 28 60
q59 74 116 136t105 116q135 150 135 208l-8 104q0 47 36 47q17 0 34 -16.5t39 -40.5q64 -72 103 -93q60 -34 60 -57.5t-22.5 -30t-55 -9.5t-69 -8.5t-53 -18.5t-41 -41t-66.5 -77q-170 -198 -234 -270q270 -324 385 -439q15 -18 71.5 -23.5t94 -11.5t37.5 -36
q0 -18 -21.5 -34.5t-51.5 -34.5q-88 -55 -106 -81q-39 -57 -74.5 -57t-30.5 49z" />
    <glyph glyph-name="logicalnot" unicode="&#xac;" horiz-adv-x="2033" 
d="M495 903l-136 1q-32 0 -68 -36t-55.5 -52.5t-41.5 -16.5q-34 0 -34 31l9 54q2 22 2 46l-7 162q0 83 81 -5q40 -43 71 -60.5t37 -17.5l211 -1q312 -1 520 -1l511 2q11 25 11 56l-8 93q0 51 35 51q21 0 43.5 -21.5t42 -36t41.5 -29.5q41 -27 67 -44q39 -25 39 -49
t-19.5 -34.5t-47.5 -16t-59 -10t-53 -17.5l-5 -435v-39q0 -54 96 -150q25 -30 25 -49t-29 -19l-121 5l-128 -6q-38 0 -38 30q0 18 15.5 38.5t33.5 43.5q50 61 51 95t1 57v47l-1 234v57q0 28 1 54q-704 -11 -1093 -11z" />
    <glyph glyph-name="uni00AD" unicode="&#xad;" horiz-adv-x="1506" 
 />
    <glyph glyph-name="registered" unicode="&#xae;" horiz-adv-x="1703" 
d="M110 828q0 224 115 404q156 244 455 318q182 44 380 6q182 -35 314 -151q219 -193 219 -592q0 -436 -205 -657q-184 -199 -506 -199q-318 0 -528 192q-152 138 -213 377q-31 122 -31 276v26zM1355 257q134 192 134 554q0 555 -429 649q-107 23 -173 23t-138 -12.5
t-146.5 -41.5t-145 -77.5t-125.5 -121.5q-121 -161 -121 -399q0 -449 250 -644q55 55 64 144q17 238 17 486t-4 284t-14.5 57.5t-28.5 37.5t-33 30q-22 21 -22 41t24 20l111 -3q47 0 90.5 5t54.5 5q70 0 18 -52q-91 -91 -104 -144q-9 -36 -9 -180q11 43 50.5 96t97.5 99
q136 108 270 108q249 0 249 -275q0 -158 -146 -262q-72 -51 -143 -81.5t-105 -46.5q287 -227 343 -283q22 -17 59 -17zM625 323l-5 -97q0 -71 39 -89q22 -11 39.5 -31t22.5 -37q157 -34 324 -5q73 12 143 47q-7 60 -39 105q-14 25 -111 105.5t-134 110.5q-88 73 -104 90
q-44 47 -44 65q0 33 35.5 43t76.5 24t84 33.5t83 45t72 56.5q70 68 70 150q0 91 -16 122q-33 63 -140 63q-124 0 -259 -164q-73 -89 -103 -155t-34 -95v-387z" />
    <glyph glyph-name="macron" unicode="&#xaf;" horiz-adv-x="964" 
d="M521 1689l-162 -3q-25 0 -58.5 -23.5t-56.5 -38.5q-38 -25 -62 -8q-16 12 -16 36t7 39t7 35.5t-4 36.5t-9 31q-19 62 -4 76t30.5 14t31.5 -11.5t34 -26.5q52 -45 76 -54q100 1 148 1h99t47 3q8 3 48 37q50 50 86 50t36 -49q0 -17 -10 -48q-20 -59 -20 -96l3 -52
q0 -47 -28 -47q-25 0 -49 29.5t-39 44.5t-33 19q-27 5 -102 5z" />
    <glyph glyph-name="degree" unicode="&#xb0;" horiz-adv-x="707" 
d="M368.5 1163.5q-25.5 -2.5 -37.5 -2.5t-37 3.5t-54.5 13.5t-60 28.5t-55.5 49.5q-56 71 -56 183q0 113 82 201q100 109 250 86q161 -25 209 -189q14 -48 14 -111t-18.5 -106t-47.5 -72t-63.5 -46.5t-67 -26.5t-58 -11.5zM281 1256.5q30 -9.5 56.5 -9.5t60 7t62.5 27
q69 48 69 155q0 116 -67 170q-47 37 -100 37t-86.5 -16t-57.5 -43q-52 -58 -52 -127.5t17 -107.5t42.5 -60.5t55.5 -32z" />
    <glyph glyph-name="plusminus" unicode="&#xb1;" horiz-adv-x="1470" 
d="M208 -6q-34 0 -34 31l13 69q11 72 11 175q0 68 51 21l86 -84q20 -20 32 -20q69 -4 317 -11l7 560l-370 1q-24 -2 -43.5 -20t-38 -39t-37 -39t-40.5 -19q-45 0 -34 43q11 46 11 110l-11 126q0 35 31 35q21 0 58 -40.5t56.5 -59t37.5 -18.5l381 -2l-4 332q-3 41 -61 93
q-21 20 -39.5 39t-19 40t17.5 30t70 9l75 -2q25 0 44 5l30 8q12 3 25 4q49 0 52 -36q0 -27 -33.5 -70.5t-50 -67.5t-18.5 -48l-9 -337l380 1q28 2 50 21t42 41t39.5 40.5t40.5 19.5t30 -17t9 -70l-2 -75q0 -29 7.5 -51.5t9.5 -47.5q0 -49 -36 -52q-27 0 -70.5 33.5t-67.5 50
t-48 18.5l-385 9l1 -560q118 -3 196 -3h97q19 0 36.5 1.5t39.5 19t42.5 37.5t41 36.5t46.5 16.5q35 0 35 -54l-3 -72l7 -143q0 -18 -10 -31.5t-29.5 -13.5t-41.5 15.5t-45 35.5q-66 54 -81 57.5t-41.5 4.5t-69.5 2.5t-99.5 3t-117 3t-122 3t-115.5 2.5l-164 5q-32 0 -68 -36
t-55.5 -52.5t-41.5 -16.5z" />
    <glyph glyph-name="twosuperior" unicode="&#xb2;" horiz-adv-x="933" 
d="M778 874q0 -53 -70 -23l-76 73q-24 19 -70.5 21.5t-97.5 2.5q-135 0 -186 -5t-72 -5q-96 0 -60 62q9 17 23.5 36t37.5 48t51 64q58 72 101 126q157 197 209 326q12 30 12.5 54.5t-12.5 45t-34 34.5q-66 48 -171 20q-33 -8 -46 -12t-21.5 -19t-15.5 -36q-18 -49 -20 -88
q-4 -70 -37 -70q-13 0 -22.5 11t-28 28.5t-40.5 37.5q-39 37 -74.5 65.5t-35.5 49.5q0 42 130 55q32 4 56.5 9.5t47.5 15t50 19.5q181 63 295 -30q107 -87 37 -250q-48 -115 -242 -356q-112 -138 -112 -149q0 -12 43 -10l235 6q18 0 59 32.5t71 72.5q43 56 64 56
q27 0 27 -56l-10 -84q-2 -19 -2 -46z" />
    <glyph glyph-name="threesuperior" unicode="&#xb3;" horiz-adv-x="1029" 
d="M829 1659q57 0 57 -30q0 -18 -19 -40q-182 -227 -198 -263q128 -33 188 -136q35 -60 35 -130t-16.5 -113.5t-43 -74t-58 -50t-62.5 -30.5q-99 -38 -316 12l-180 10q-23 2 -26 4q-34 16 -12 48q7 11 31.5 24.5t44 34t33.5 41.5t24.5 41.5t20.5 36.5q22 35 49 35
q26 0 35 -46l14 -91q17 -56 53 -69q125 -46 224 8q90 49 90 164q0 114 -71 167q-73 55 -162 24q-93 -32 -93 24q0 31 72 60q57 24 191 228l8 12q-52 0 -98 1l-129 1q-40 0 -99 -24q-30 -12 -71.5 -46.5t-60 -47t-38 -12.5t-19.5 29l7 97l-9 157q0 82 68 29q104 -81 135 -88
q69 -20 272 -10z" />
    <glyph glyph-name="acute" unicode="&#xb4;" horiz-adv-x="794" 
d="M567 1620l-99 13q-16 0 -28 -5.5t-42 -24.5t-58 -39q-70 -47 -82 -59q-28 -28 -55 -28t-39.5 13t-12.5 28q0 36 39 58q38 22 191 141q10 6 21 64q21 100 62 100q23 0 34 -18t21 -45t23 -58.5t32 -51.5q38 -40 38 -57q0 -31 -45 -31z" />
    <glyph glyph-name="mu" unicode="&#xb5;" horiz-adv-x="1333" 
d="M213 -308q-49 0 -49 39q0 25 36 63t49 52q27 29 27 45l-7 971l3 341q-2 20 -24.5 41t-47.5 46q-38 38 -38 59q0 40 43 40q25 0 56 -6.5t76 -6.5l115 6q41 0 41 -26q0 -32 -57 -80q-58 -48 -62 -74q-6 -28 -10.5 -188t-4.5 -243.5t5 -185.5t22 -183q38 -178 141 -178
q234 0 344 484q48 210 48 396l1 55q0 72 -33 112q-14 17 -35 33q-38 27 -38 50q0 39 69 39l83 -3q51 0 76 6q68 14 68 -21q0 -22 -20.5 -46t-32.5 -39.5t-21 -32.5q-20 -35 -23 -127t-11 -204t-16 -206q-19 -244 -19 -315q0 -154 70 -205q26 -22 71 16q31 26 39 55.5t15 36
t14 8.5q35 13 46.5 -8t11.5 -38q0 -61 36 -127q13 -23 13 -42q0 -27 -32 -27l-62 12q-37 3 -80 3h-54q-200 0 -174 369l-51 -136q-40 -89 -89 -128q-93 -74 -214 -74q-91 0 -143 70q-18 25 -26 61q4 -231 9.5 -300.5t21 -95t33.5 -48t33 -42t15 -34t-14.5 -26t-40.5 -11.5
l-81 9z" />
    <glyph glyph-name="paragraph" unicode="&#xb6;" horiz-adv-x="1481" 
d="M516 -297q-55 0 -55 42q1 18 14 32.5t26 31t29 35.5t30 36q30 37 30 54v143l2 591q-299 70 -383 294q-22 58 -22 150.5t37 170.5t95.5 130t130 82.5t140.5 45.5q150 33 472 9q62 -4 80.5 0t35.5 12l136 76q58 21 39 -48l-18 -60q-4 -15 -4 -31l10 -110q0 -26 -9.5 -41.5
t-21.5 -15.5q-22 0 -46 35t-48.5 56t-44.5 31q-26 12 -68 12q0 -1069 -5 -1279t-5 -223v-22q0 -48 21 -76l62 -83q54 -79 -34 -79l-140 9l-73 -10q-21 0 -38 10t-17 29.5t13.5 34t26.5 31.5t29 36t29 36q31 37 31 54l4 1001q0 310 -4 536q-232 9 -305 -3q7 -240 -5.5 -705
t-12.5 -594t3.5 -197t11 -84.5t19.5 -33.5l54 -71q54 -79 -34 -79l-144 9zM592 769l1 310q0 217 -2 367q-209 -63 -277 -214q-25 -55 -25 -120.5t15.5 -114t41 -85t58 -62.5t66.5 -43q61 -31 122 -38z" />
    <glyph glyph-name="periodcentered" unicode="&#xb7;" horiz-adv-x="763" 
d="M506 862q60 0 60 -37q0 -27 -38.5 -69t-62 -66.5t-33.5 -43.5q-47 -82 -82 -8q-23 46 -58 88q-76 91 -76 110q0 51 57 40q75 -16 172 -16z" />
    <glyph glyph-name="cedilla" unicode="&#xb8;" horiz-adv-x="815" 
d="M510 71q-44 -73 -12 -105q14 -14 47.5 -27.5t55.5 -31.5t39 -42q53 -72 38 -134t-39 -93.5t-57 -48.5q-56 -28 -133.5 -28t-114.5 11t-68.5 23.5t-59 23.5t-52.5 11l-62 -9q-49 0 -49 32q0 15 23 33q72 57 103 127q16 35 35.5 35t30 -11.5t10.5 -26.5l-2 -45
q0 -113 182 -113q107 0 129 79q14 53 -4 80.5t-38.5 42.5t-44 27t-43.5 25q-64 40 -43 94q31 78 40 92q17 29 39 29t36 -12.5t14 -37.5z" />
    <glyph glyph-name="onesuperior" unicode="&#xb9;" horiz-adv-x="839" 
d="M574 954l-58 1q-94 0 -125 -4q-101 -13 -101 23q0 24 88 113q47 48 54.5 97t7.5 94t-0.5 79t-1.5 69l-3 142q-3 78 -5 158q-119 -74 -129 -87t-20.5 -30.5l-22.5 -37.5q-27 -48 -31.5 -73.5t-16.5 -42.5t-24.5 -17t-26 15t-27.5 38t-27.5 50.5t-25.5 52.5q-29 61 -42 74
q-25 28 -25 50q0 29 42 20q154 -30 202 -11q58 22 124.5 69t74.5 59t25 12t31 -13.5t14 -45.5q-15 -545 -5 -607q18 -124 69 -162q32 -26 32 -46q0 -39 -47 -39z" />
    <glyph glyph-name="ordmasculine" unicode="&#xba;" horiz-adv-x="1153" 
d="M735.5 734q-58.5 -38 -119.5 -38.5t-106 7t-87.5 28t-80 57t-65.5 94.5q-61 126 -61 336q0 236 110 374q105 132 276 132q227 0 309 -259q30 -95 30 -227t-28 -230t-73.5 -167t-104 -107zM499.5 805q49.5 -17 95.5 -16.5t89 28t78 83.5q80 125 80 349q0 189 -84 300
q-34 46 -72 67t-56.5 21t-30.5 -1.5t-25 -3.5q-61 -6 -98.5 -35t-63 -58t-46.5 -72q-47 -100 -47 -237.5t25 -224.5t65.5 -135t90 -65zM996 240q0 -64 -54 -50q-9 3 -48 30q-92 65 -108.5 67.5t-38 2t-53.5 -1t-71.5 -1.5t-80.5 -3q-81 -3 -125.5 -6t-67 -21.5t-41.5 -39.5
q-52 -55 -71 -55q-35 0 -35 43q0 19 3 41l6 44q9 66 9 81l-9 71q0 17 9 26t20 9t31.5 -18t42.5 -39q60 -57 69 -57q181 0 386 19q41 4 99 62l40 40q18 18 34 18q38 0 38 -76l-2 -84q0 -32 9 -62t9 -40z" />
    <glyph glyph-name="guillemotright" unicode="&#xbb;" horiz-adv-x="1878" 
d="M553.04 131l-11.999 117q0 22 6.5 34.5q6.49902 12.5 38.4971 51.5t84.9951 101q209.987 245 279.983 329q12.999 7 12.999 26q0 37 -27.998 60q-58.9971 74 -115.993 136q-56.9971 62 -104.994 116q-134.991 150 -134.991 208l7.99902 104q0 47 -35.9971 47
q-16.999 0 -33.998 -16.5t-38.998 -40.5q-63.9961 -72 -102.994 -93q-59.9961 -34 -59.9961 -57.5t22.499 -30q22.498 -6.5 54.9961 -9.5t68.9961 -8.5t52.9971 -18.5t40.9971 -41q24.499 -28 66.4961 -77q169.989 -198 233.985 -270q-269.983 -324 -384.977 -439
q-14.999 -18 -71.4951 -23.5q-56.4971 -5.5 -93.9941 -11.5q-37.498 -6 -37.498 -36q0 -18 21.499 -34.5q21.498 -16.5 51.4971 -34.5q87.9941 -55 105.993 -81q38.998 -57 74.4951 -57q35.498 0 30.498 49zM1215.04 131l-11.999 117q0 22 6.5 34.5
q6.49902 12.5 38.4971 51.5t84.9951 101q209.987 245 279.983 329q12.999 7 12.999 26q0 37 -27.998 60q-58.9971 74 -115.993 136q-56.9971 62 -104.994 116q-134.991 150 -134.991 208l7.99902 104q0 47 -35.9971 47q-16.999 0 -33.998 -16.5t-38.998 -40.5
q-63.9961 -72 -102.994 -93q-59.9961 -34 -59.9961 -57.5t22.499 -30q22.498 -6.5 54.9961 -9.5t68.9961 -8.5t52.9971 -18.5t40.9971 -41q24.499 -28 66.4961 -77q169.989 -198 233.985 -270q-269.983 -324 -384.977 -439q-14.999 -18 -71.4951 -23.5
q-56.4971 -5.5 -93.9941 -11.5q-37.498 -6 -37.498 -36q0 -18 21.499 -34.5q21.498 -16.5 51.4971 -34.5q87.9941 -55 105.993 -81q38.998 -57 74.4951 -57q35.498 0 30.498 49z" />
    <glyph glyph-name="onequarter" unicode="&#xbc;" horiz-adv-x="1816" 
d="M1014 1475q0 44 20 44t61.5 -38.5t92.5 -64.5t93.5 -44t70 -32t27.5 -29q0 -30 -66 -44q-148 -30 -174 -62l-127 -162q-456 -580 -456 -571v1q-30 -56 -40 -197q-2 -38 -36 -14q-42 31 -101.5 94.5t-70.5 73.5q-42 38 -42 52q0 29 55.5 36.5t82.5 11t44 7.5q31 7 55.5 20
t66 57.5t94.5 107.5t112 138.5t114 148.5q107 143 176 243q17 20 -43 187q-9 25 -9 36zM1070 516l-158 -8q-39 0 -56.5 13.5t-17.5 24.5t7 21.5t17 21.5q69 64 171 168t144 146l109 109q54 54 73 54q27 0 27 -44t-4.5 -42t-5 -134t-0.5 -243l123 1q59 32 102 76q57 57 74 57
q36 0 18 -106q-6 -36 -6 -87l8 -92q0 -41 -42 -16q-101 58 -125 63q-53 9 -168 9q-3 -90 -3 -122v-76.5t1.5 -76t9.5 -52.5q10 -26 46 -67q47 -53 47 -72q0 -33 -61 -33l-59 2l-89 -1q-87 0 -87 36q0 16 19.5 34t39.5 43.5t29 40.5t14 30q16 47 17 119l6 198q-185 5 -220 5z
M1063 641q-38 -38 -3 -38h117q48 0 107 1l9 272q-92 -97 -230 -235zM644 954l-58 1q-94 0 -125 -4q-101 -13 -101 23q0 24 88 113q47 48 54.5 97t7.5 94t-0.5 79t-1.5 69l-3 142q-3 78 -5 158q-119 -74 -129 -87t-20.5 -30.5l-22.5 -37.5q-27 -48 -31.5 -73.5t-16.5 -42.5
t-24.5 -17t-26 15t-27.5 38t-27.5 50.5t-25.5 52.5q-29 61 -42 74q-25 28 -25 50q0 29 42 20q154 -30 202 -11q58 22 124.5 69t74.5 59t25 12t31 -13.5t14 -45.5q-15 -545 -5 -607q18 -124 69 -162q32 -26 32 -46q0 -39 -47 -39z" />
    <glyph glyph-name="onehalf" unicode="&#xbd;" horiz-adv-x="1660" 
d="M1014 1475q0 44 20 44t61.5 -38.5t92.5 -64.5t93.5 -44t70 -32t27.5 -29q0 -30 -66 -44q-148 -30 -174 -62l-219 -279l-198 -250q-160 -204 -166 -204q-16 -29 -27 -101t-13 -95q-2 -38 -36 -14q-42 31 -101.5 94.5t-70.5 73.5q-42 38 -42 52q0 29 55.5 36.5t82.5 11
t44 7.5q31 7 55.5 20t66 57.5t94.5 107.5t112 138.5t114 148.5q107 143 176 243q17 20 -43 187q-9 25 -9 36zM694 954l-58 1q-94 0 -125 -4q-101 -13 -101 23q0 24 88 113q47 48 54.5 97t7.5 94t-0.5 79t-1.5 69l-3 142q-3 78 -5 158q-119 -74 -129 -87t-20.5 -30.5
l-22.5 -37.5q-27 -48 -31.5 -73.5t-16.5 -42.5t-24.5 -17t-26 15t-27.5 38t-27.5 50.5t-25.5 52.5q-29 61 -42 74q-25 28 -25 50q0 29 42 20q154 -30 202 -11q58 22 124.5 69t74.5 59t25 12t31 -13.5t14 -45.5q-15 -545 -5 -607q18 -124 69 -162q32 -26 32 -46
q0 -39 -47 -39zM1680 -64q0 -53 -70 -23l-76 73q-24 19 -70.5 21.5t-97.5 2.5q-135 0 -186 -5t-72 -5q-96 0 -60 62q9 17 23.5 36t37.5 48t51 64q58 72 101 126q157 197 209 326q12 30 12.5 54.5t-12.5 45t-34 34.5q-66 48 -171 20q-33 -8 -46 -12t-21.5 -19t-15.5 -36
q-18 -49 -20 -88q-4 -70 -37 -70q-13 0 -22.5 11t-28 28.5t-40.5 37.5q-39 37 -74.5 65.5t-35.5 49.5q0 42 130 55q32 4 56.5 9.5t47.5 15t50 19.5q181 63 295 -30q107 -87 37 -250q-48 -115 -242 -356q-112 -138 -112 -149q0 -12 43 -10l235 6q18 0 59 32.5t71 72.5
q43 56 64 56q27 0 27 -56l-10 -84q-2 -19 -2 -46z" />
    <glyph glyph-name="threequarters" unicode="&#xbe;" horiz-adv-x="1923" 
d="M1180 1475q0 44 20 44t61.5 -38.5t92.5 -64.5t93.5 -44t70 -32t27.5 -29q0 -30 -66 -44q-148 -30 -174 -62l-127 -162q-456 -580 -456 -571v1q-30 -56 -40 -197q-2 -38 -36 -14q-42 31 -101.5 94.5t-70.5 73.5q-42 38 -42 52q0 29 55.5 36.5t82.5 11t44 7.5q31 7 55.5 20
t66 57.5t94.5 107.5t112 138.5t114 148.5q107 143 176 243q17 20 -43 187q-9 25 -9 36zM1211 453l-158 -8q-39 0 -56.5 13.5t-17.5 24.5t7 21.5t18 21.5q68 64 170 168t144 146l110 110q53 53 72 53q27 0 27 -44t-4.5 -42t-5 -134t-0.5 -243l123 1q58 33 102 76q57 57 74 57
q36 0 18 -106q-6 -36 -6 -87l8 -92q0 -41 -42 -17q-101 59 -125 64q-53 9 -168 9q-3 -90 -3 -122v-76.5t1.5 -76t9.5 -52.5q10 -26 46 -67q47 -53 47 -72q0 -33 -61 -33l-59 2l-89 -1q-87 0 -87 36q0 16 19.5 34t39.5 43.5t29 40.5t14 30q16 47 17 119l6 198q-185 5 -220 5z
M1204 578q-38 -38 -3 -38h117q48 0 107 1l9 272q-92 -97 -230 -235zM867 1780q57 0 57 -30q0 -18 -19 -40q-182 -227 -198 -263q128 -33 188 -135q35 -61 35 -131.5t-16.5 -113.5t-43 -73.5t-58 -50t-62.5 -31.5q-99 -37 -316 13l-180 11q-23 1 -26 2q-34 17 -12 50
q7 10 31.5 23.5t44 34t33.5 41.5t24.5 41.5t20.5 36.5q22 35 49 35q26 0 35 -46l14 -92q17 -55 53 -68q125 -46 224 8q90 49 90 164q0 114 -71 167q-73 55 -162 24q-93 -32 -93 24q0 31 72 61q57 23 191 227l8 12q-52 0 -98 1l-129 1q-40 0 -99 -24q-30 -12 -71.5 -46.5
t-60 -47t-38 -12.5t-19.5 29l7 97l-9 157q0 82 68 29q104 -81 135 -88q69 -20 272 -9z" />
    <glyph glyph-name="questiondown" unicode="&#xbf;" horiz-adv-x="1164" 
d="M570.036 1090.03l81.9951 5q40.9971 0 40.9971 -18.999t-17.498 -32.998q-17.499 -13.999 -37.498 -30.998q-55.9971 -43.998 -55.9971 -106.994q0 -216.986 -47.9971 -329.979q-36.9971 -85.9951 -117.992 -169.989q-32.998 -33.998 -64.9961 -65.4961
t-56.9971 -67.4961q-57.9961 -80.9951 -57.9961 -164.49q0 -83.4941 18.999 -133.991t54.9961 -85.4951q73.9961 -69.9961 200.988 -69.9961q197.987 0 287.982 174.989q30.998 57.9971 -15.999 140.992q-23.999 44.9971 17.999 44.9971q18.999 0 57.9961 -17.999
q80.9951 -36.998 115.993 -34.998t51.9971 -7.99902q16.999 -10 16.999 -24.499t-15.5 -25.498q-15.499 -11 -36.4971 -23.999q-62.9961 -35.998 -85.4951 -69.4951q-22.498 -33.498 -60.9961 -78.9951q-38.498 -45.498 -89.4941 -83.4951
q-156.991 -116.993 -339.979 -80.9951q-83.9951 16.999 -137.492 58.4961q-53.4961 41.498 -80.4951 80.4951q-60.9961 85.9951 -60.9961 206.987q0 179.989 124.992 302.981q99.9941 98.9941 131.492 138.992q31.498 39.9971 46.9971 82.4941q15.499 42.498 23.999 87.4951
q8.49902 44.9971 13.499 88.9941q18.999 146.991 7.49902 170.99q-11.499 23.998 -23.498 38.9971l-54.9971 59.9971q-12.999 13.999 -12.999 27.998q0 38.9971 87.9951 19.998q31.998 -5.99902 87.9941 -5.99902zM441.044 1359.01q-53.9961 0 -53.9961 30.998
q0 22.999 34.4971 64.4961q34.498 41.498 46.9971 60.9961q12.5 19.499 23.499 36.498q25.998 38.998 40.4971 38.998q14.5 0 26.499 -19.999t31.998 -43.4971q19.999 -23.499 40.9971 -47.498q55.9971 -65.9951 60.9961 -74.4951q5 -8.49902 5 -20.499
q0 -25.998 -36.998 -25.998l-83.9941 5z" />
    <glyph glyph-name="Agrave" unicode="&#xc0;" horiz-adv-x="1897" 
d="M400 -76q0 -37 -40 -37q-29 0 -51.5 20t-60 36t-74.5 31q-92 37 -92 57.5t32.5 42t56.5 28t46 15.5q48 20 89 93q72 137 251 526h-192q-35 0 -54.5 -3.5t-45 -23.5t-47.5 -42t-41.5 -39.5t-37.5 -17.5q-44 0 -27 71q13 54 13 125l-5 82q0 75 38 75q20 0 44 -30
q85 -110 130 -110l263 -5q296 647 321.5 733t25.5 136q0 14 15.5 21t30.5 7q36 0 48.5 -39.5t43 -130.5t70.5 -209q115 -338 180 -522q191 -4 220 11t50 32q40 31 59.5 59.5t31.5 32.5t23 4q51 0 32 -67q-20 -66 -21 -123.5t-2 -96t-7.5 -61.5t-30.5 -23q-8 0 -20.5 7.5
t-17.5 19.5l-27 59q-28 58 -88 68h-174q199 -562 258 -616q19 -17 41 -25t37.5 -14.5t31.5 -11.5t28 -10q44 -19 11 -51q-12 -12 -78.5 -36t-90.5 -34l-114 -54q-62 -23 -62 20q0 31 8 46t16.5 37t17.5 48q26 80 18 110q-37 90 -216 591h-606q-164 -352 -308 -647
q-8 -21 6 -50q44 -84 44 -115zM695 817q268 -4 542 -4l-138 389q-96 270 -106 297q-83 -217 -298 -682zM733 1856q-45 0 -45 31q0 19 27.5 46.5t40.5 59t23.5 59t22 46.5t34.5 19t34 -22t17.5 -50.5t12.5 -55.5t17 -35t35 -26.5t52 -40.5q73 -56 100 -71q45 -26 45 -52
q0 -51 -45 -51q-34 0 -70 36q-17 17 -89.5 63t-84.5 51.5t-28 5.5z" />
    <glyph glyph-name="Aacute" unicode="&#xc1;" horiz-adv-x="1897" 
d="M400 -76q0 -37 -40 -37q-29 0 -51.5 20t-60 36t-74.5 31q-92 37 -92 57.5t32.5 42t56.5 28t46 15.5q48 20 89 93q72 137 251 526h-192q-35 0 -54.5 -3.5t-45 -23.5t-47.5 -42t-41.5 -39.5t-37.5 -17.5q-44 0 -27 71q13 54 13 125l-5 82q0 75 38 75q20 0 44 -30
q85 -110 130 -110l263 -5q296 647 321.5 733t25.5 136q0 14 15.5 21t30.5 7q36 0 48.5 -39.5t43 -130.5t70.5 -209q115 -338 180 -522q191 -4 220 11t50 32q40 31 59.5 59.5t31.5 32.5t23 4q51 0 32 -67q-20 -66 -21 -123.5t-2 -96t-7.5 -61.5t-30.5 -23q-8 0 -20.5 7.5
t-17.5 19.5l-27 59q-28 58 -88 68h-174q199 -562 258 -616q19 -17 41 -25t37.5 -14.5t31.5 -11.5t28 -10q44 -19 11 -51q-12 -12 -78.5 -36t-90.5 -34l-114 -54q-62 -23 -62 20q0 31 8 46t16.5 37t17.5 48q26 80 18 110q-37 90 -216 591h-606q-164 -352 -308 -647
q-8 -21 6 -50q44 -84 44 -115zM695 817q268 -4 542 -4l-138 389q-96 270 -106 297q-83 -217 -298 -682zM1207 1854l-99 13q-16 0 -28 -5.5t-42 -24.5t-58 -38q-70 -48 -82 -60q-28 -28 -55 -28t-39.5 13t-12.5 29q0 35 39 57q38 22 191 141q10 6 21 64q21 100 62 100
q23 0 34 -18t21 -45t23 -58.5t32 -51.5q38 -40 38 -57q0 -31 -45 -31z" />
    <glyph glyph-name="Acircumflex" unicode="&#xc2;" horiz-adv-x="1897" 
d="M400 -76q0 -37 -40 -37q-29 0 -51.5 20t-60 36t-74.5 31q-92 37 -92 57.5t32.5 42t56.5 28t46 15.5q48 20 89 93q72 137 251 526h-192q-35 0 -54.5 -3.5t-45 -23.5t-47.5 -42t-41.5 -39.5t-37.5 -17.5q-44 0 -27 71q13 54 13 125l-5 82q0 75 38 75q20 0 44 -30
q85 -110 130 -110l263 -5q296 647 321.5 733t25.5 136q0 14 15.5 21t30.5 7q36 0 48.5 -39.5t43 -130.5t70.5 -209q115 -338 180 -522q191 -4 220 11t50 32q40 31 59.5 59.5t31.5 32.5t23 4q51 0 32 -67q-20 -66 -21 -123.5t-2 -96t-7.5 -61.5t-30.5 -23q-8 0 -20.5 7.5
t-17.5 19.5l-27 59q-28 58 -88 68h-174q199 -562 258 -616q19 -17 41 -25t37.5 -14.5t31.5 -11.5t28 -10q44 -19 11 -51q-12 -12 -78.5 -36t-90.5 -34l-114 -54q-62 -23 -62 20q0 31 8 46t16.5 37t17.5 48q26 80 18 110q-37 90 -216 591h-606q-164 -352 -308 -647
q-8 -21 6 -50q44 -84 44 -115zM695 817q268 -4 542 -4l-138 389q-96 270 -106 297q-83 -217 -298 -682zM767 1780l3 -24q0 -43 -29 -58q-35 -20 -107 98q-8 15 -37.5 32t-40 28t-10.5 28q0 36 59 36l81 -7q54 0 134 65q45 37 139 104q26 30 59 1.5t59.5 -48.5t53.5 -37
q32 -19 128 -67q33 -13 77 -14.5t61 -5.5q40 -10 40 -34q0 -26 -22 -41q-48 -36 -61 -53l-45 -66q-23 -34 -38 -34q-36 0 -41 49q-8 72 -18 88t-17 26q-51 31 -103.5 60t-105.5 64l-105 -64q-12 -8 -81 -55q-33 -27 -33 -71z" />
    <glyph glyph-name="Atilde" unicode="&#xc3;" horiz-adv-x="1897" 
d="M400 -76q0 -37 -40 -37q-29 0 -51.5 20t-60 36t-74.5 31q-92 37 -92 57.5t32.5 42t56.5 28t46 15.5q48 20 89 93q72 137 251 526h-192q-35 0 -54.5 -3.5t-45 -23.5t-47.5 -42t-41.5 -39.5t-37.5 -17.5q-44 0 -27 71q13 54 13 125l-5 82q0 75 38 75q20 0 44 -30
q85 -110 130 -110l263 -5q296 647 321.5 733t25.5 136q0 14 15.5 21t30.5 7q36 0 48.5 -39.5t43 -130.5t70.5 -209q115 -338 180 -522q191 -4 220 11t50 32q40 31 59.5 59.5t31.5 32.5t23 4q51 0 32 -67q-20 -66 -21 -123.5t-2 -96t-7.5 -61.5t-30.5 -23q-8 0 -20.5 7.5
t-17.5 19.5l-27 59q-28 58 -88 68h-174q199 -562 258 -616q19 -17 41 -25t37.5 -14.5t31.5 -11.5t28 -10q44 -19 11 -51q-12 -12 -78.5 -36t-90.5 -34l-114 -54q-62 -23 -62 20q0 31 8 46t16.5 37t17.5 48q26 80 18 110q-37 90 -216 591h-606q-164 -352 -308 -647
q-8 -21 6 -50q44 -84 44 -115zM695 817q268 -4 542 -4l-138 389q-96 270 -106 297q-83 -217 -298 -682zM730 1755q0 -37 -26 -37q-17 0 -35 13.5t-25.5 27.5t-16.5 28t-23 27q-31 28 -66 38q-55 14 -55 39q0 14 12.5 25.5t29.5 11.5l32 -1q66 3 81 16t30.5 32.5t39.5 39.5
q60 50 144 50q92 0 155 -79l34 -44q58 -73 115 -73q62 0 101 35q34 32 6 149q-7 33 5.5 48t24.5 15q26 -2 44 -32q45 -72 112 -97q45 -19 45 -45q0 -16 -15.5 -27.5t-48.5 -14t-53.5 -6t-28.5 -15t-24.5 -27.5t-42.5 -32q-89 -55 -179 -37q-50 10 -84 44t-52 56.5t-35 42.5
q-46 50 -82.5 50t-58.5 -9.5t-37 -22.5q-30 -27 -36 -48t-6 -37z" />
    <glyph glyph-name="Adieresis" unicode="&#xc4;" horiz-adv-x="1897" 
d="M400 -76q0 -37 -40 -37q-29 0 -51.5 20t-60 36t-74.5 31q-92 37 -92 57.5t32.5 42t56.5 28t46 15.5q48 20 89 93q72 137 251 526h-192q-35 0 -54.5 -3.5t-45 -23.5t-47.5 -42t-41.5 -39.5t-37.5 -17.5q-44 0 -27 71q13 54 13 125l-5 82q0 75 38 75q20 0 44 -30
q85 -110 130 -110l263 -5q296 647 321.5 733t25.5 136q0 14 15.5 21t30.5 7q36 0 48.5 -39.5t43 -130.5t70.5 -209q115 -338 180 -522q191 -4 220 11t50 32q40 31 59.5 59.5t31.5 32.5t23 4q51 0 32 -67q-20 -66 -21 -123.5t-2 -96t-7.5 -61.5t-30.5 -23q-8 0 -20.5 7.5
t-17.5 19.5l-27 59q-28 58 -88 68h-174q199 -562 258 -616q19 -17 41 -25t37.5 -14.5t31.5 -11.5t28 -10q44 -19 11 -51q-12 -12 -78.5 -36t-90.5 -34l-114 -54q-62 -23 -62 20q0 31 8 46t16.5 37t17.5 48q26 80 18 110q-37 90 -216 591h-606q-164 -352 -308 -647
q-8 -21 6 -50q44 -84 44 -115zM695 817q268 -4 542 -4l-138 389q-96 270 -106 297q-83 -217 -298 -682zM1168 2015q8 0 46 -7t172 -7q55 0 55 -34q0 -25 -33 -61q-77 -82 -84 -95q-28 -47 -62 -25q-9 6 -14.5 17.5t-17.5 27.5t-28 37q-71 90 -71 117q0 30 37 30zM978 1967
q0 -27 -34 -62q-75 -79 -84 -94q-42 -66 -82 -6l-80 115q-61 95 8 95l55 -7q75 -7 146 -7t71 -34z" />
    <glyph glyph-name="Aring" unicode="&#xc5;" horiz-adv-x="1897" 
d="M400 -76q0 -37 -40 -37q-29 0 -51.5 20t-60 36t-74.5 31q-92 37 -92 57.5t32.5 42t56.5 28t46 15.5q48 20 89 93q72 137 251 526h-192q-35 0 -54.5 -3.5t-45 -23.5t-47.5 -42t-41.5 -39.5t-37.5 -17.5q-44 0 -27 71q13 54 13 125l-5 82q0 75 38 75q20 0 44 -30
q85 -110 130 -110l263 -5q296 647 321.5 733t25.5 136q0 14 15.5 21t30.5 7q36 0 48.5 -39.5t43 -130.5t70.5 -209q115 -338 180 -522q191 -4 220 11t50 32q40 31 59.5 59.5t31.5 32.5t23 4q51 0 32 -67q-20 -66 -21 -123.5t-2 -96t-7.5 -61.5t-30.5 -23q-8 0 -20.5 7.5
t-17.5 19.5l-27 59q-28 58 -88 68h-174q199 -562 258 -616q19 -17 41 -25t37.5 -14.5t31.5 -11.5t28 -10q44 -19 11 -51q-12 -12 -78.5 -36t-90.5 -34l-114 -54q-62 -23 -62 20q0 31 8 46t16.5 37t17.5 48q26 80 18 110q-37 90 -216 591h-606q-164 -352 -308 -647
q-8 -21 6 -50q44 -84 44 -115zM695 817q268 -4 542 -4l-138 389q-96 270 -106 297q-83 -217 -298 -682zM1012.5 1631q-25.5 -2 -37.5 -2t-37 3t-54.5 11.5t-60 24.5t-54.5 42q-57 62 -57 157q0 98 81 174q101 93 252 73q161 -22 208 -164q14 -42 14 -96t-18.5 -90.5
t-47.5 -61.5t-63.5 -39.5t-67 -22t-58 -9.5zM1160 1868q0 44 -18.5 74t-44.5 48q-47 31 -94 31t-78 -12.5t-54 -33.5q-47 -44 -47 -94q0 -81 60 -131t141 -30q135 32 135 148z" />
    <glyph glyph-name="AE" unicode="&#xc6;" horiz-adv-x="1907" 
d="M349 155q-3 -9 -3 -28.5t30 -166.5q10 -52 -37 -52q-31 0 -48.5 19t-42 34.5t-54.5 32.5q-63 37 -95 52q-79 36 -49 68q42 44 116 50v-1q36 4 118 78q29 27 123 162q189 276 243 356q-238 0 -262 -5t-46.5 -22.5t-42.5 -36.5q-51 -48 -74 -48q-29 0 -29 36l16 153l-5 76
q0 69 35 69q18 0 55 -45q76 -92 104 -92q8 0 308 -8q293 430 369 590l-56 62l-71 64q-2 4 -2 13q0 28 47 28q28 0 88 9l87 12q89 13 89 -26q-1 -23 -15.5 -41t-28 -37.5t-19 -34.5t-7.5 -31q-3 -17 -6 -70q93 20 201.5 44t218.5 66q39 16 100 122q22 37 47 37t34 -22t15 -57
q17 -111 40 -151.5t23 -59t-11 -25.5t-21.5 -7t-26.5 11q-102 68 -160 60t-122.5 -23t-127.5 -33l-216 -61l-20 -445l223 1l192 1q81 0 143 85q8 12 23 21.5t25 9.5q46 0 29 -61q-24 -84 -24 -195l2 -42q0 -17 -8.5 -33.5t-20.5 -16.5q-22 0 -40 25l-42 61q-27 38 -45 46
q-40 16 -143 16l-247 -3l-71 1l-20 -542q74 -37 258.5 -114t220 -93.5t50.5 -16.5t52.5 14.5t68.5 25.5q47 15 61 15q24 0 24 -25.5t-14 -50t-35 -53.5q-60 -83 -75 -126q-24 -64 -51 -64q-34 0 -52 92q-17 83 -53 103t-95.5 47t-125.5 54q-125 52 -238 95v-23q0 -53 56 -94
q20 -15 37.5 -26.5t17.5 -25.5q0 -29 -60 -32.5t-98.5 -8t-62.5 -8.5q-58 -10 -67 -10q-45 0 -45 20q0 28 16.5 44.5t32 38t31.5 46.5q38 64 40 96.5t5 99.5t7 151l15 373q-241 6 -293 8q-216 -321 -305 -447t-108 -154zM820 833q124 -2 239 -2l30 436l-59 -97
q-116 -195 -210 -337z" />
    <glyph glyph-name="Ccedilla" unicode="&#xc7;" horiz-adv-x="1506" 
d="M364 -379q-49 0 -49 32q0 15 23 33q72 57 103 127q16 35 35.5 35t30 -11.5t10.5 -26.5l-2 -45q0 -113 182 -113q107 0 129 79q14 53 -4 80.5t-38.5 42.5t-44 27t-43.5 25q-48 30 -48 69v11q0 3 27 67q-197 21 -371 165q-137 113 -196 304q-31 99 -31 226.5t29 226.5
t80 175.5t119.5 132.5t147 94.5t163 63t167.5 37.5q142 24 232 25t111.5 7.5t41.5 17.5q42 22 57 46q26 41 62.5 41t36.5 -34l-15 -61q-21 -100 -21 -183l3 -42q0 -36 -28 -36q-25 0 -52.5 40.5t-57 62.5t-61.5 32q-45 15 -144.5 15t-194.5 -18t-180 -53.5t-157.5 -88.5
t-125.5 -124q-113 -151 -113 -354q0 -342 223 -507q180 -133 435 -133q235 0 323 86q22 21 41 58t48 64t50 27q35 0 35 -58l-8 -99q0 -57 10.5 -112.5t10.5 -67.5q0 -44 -30 -44q-28 0 -63.5 29.5t-51.5 38.5q-31 18 -65.5 20t-60 -3t-60.5 -10q-101 -16 -152 -16h-65
q-14 0 -28 1q-27 -51 1 -79q14 -14 47.5 -27.5t55.5 -31.5t39 -42q53 -72 38 -134t-39 -93.5t-57 -48.5q-56 -28 -133.5 -28t-114.5 11t-68.5 23.5t-59 23.5t-52.5 11z" />
    <glyph glyph-name="Egrave" unicode="&#xc8;" horiz-adv-x="1289" 
d="M841 693h-348.5t-286.5 -13v-23q5 -258 124 -419q132 -179 410 -237q134 -28 166 -28t59 14t49 31t40.5 31t34.5 14q29 0 29 -33t-17 -76q-37 -93 -41 -187q-2 -44 -31 -44q-39 0 -100 97q-36 56 -107 68q-576 82 -692 540q-24 98 -24 238.5t43.5 262t113.5 213t157 155
t175 103.5q158 73 301 84q51 2 105 78q53 73 85 73q50 0 32 -67q-14 -56 10 -199q6 -37 -5 -52t-23 -15q-25 0 -49 36q-39 56 -122 56q-95 0 -162.5 -20.5t-134 -55t-133.5 -85.5t-124 -117q-128 -150 -159 -327q28 -2 60 -2h70q178 0 502 12q19 1 55 29q105 80 130 80
q36 0 36 -46l-29 -132q-5 -30 -5 -64l2 -39q0 -50 -33 -50q-20 0 -36.5 17.5t-34.5 39.5q-47 56 -92 59zM461 1771q-45 0 -45 31q0 19 27.5 46.5t40.5 59t23.5 59t22 46.5t34.5 19t34 -22t17.5 -50.5t12.5 -55.5t17 -35t35 -26.5t52 -40.5q73 -56 100 -71q45 -26 45 -52
q0 -51 -45 -51q-34 0 -70 36q-17 17 -89.5 63t-84.5 51.5t-28 5.5z" />
    <glyph glyph-name="Eacute" unicode="&#xc9;" horiz-adv-x="1289" 
d="M841 693h-348.5t-286.5 -13v-23q5 -258 124 -419q132 -179 410 -237q134 -28 166 -28t59 14t49 31t40.5 31t34.5 14q29 0 29 -33t-17 -76q-37 -93 -41 -187q-2 -44 -31 -44q-39 0 -100 97q-36 56 -107 68q-576 82 -692 540q-24 98 -24 238.5t43.5 262t113.5 213t157 155
t175 103.5q158 73 301 84q51 2 105 78q53 73 85 73q50 0 32 -67q-14 -56 10 -199q6 -37 -5 -52t-23 -15q-25 0 -49 36q-39 56 -122 56q-95 0 -162.5 -20.5t-134 -55t-133.5 -85.5t-124 -117q-128 -150 -159 -327q28 -2 60 -2h70q178 0 502 12q19 1 55 29q105 80 130 80
q36 0 36 -46l-29 -132q-5 -30 -5 -64l2 -39q0 -50 -33 -50q-20 0 -36.5 17.5t-34.5 39.5q-47 56 -92 59zM1068 1825l-99 13q-16 0 -28 -5.5t-42 -24.5t-58 -38q-70 -48 -82 -60q-28 -28 -55 -28t-39.5 13t-12.5 29q0 35 39 57q38 22 191 141q10 6 21 64q21 100 62 100
q23 0 34 -18t21 -45t23 -58.5t32 -51.5q38 -40 38 -57q0 -31 -45 -31z" />
    <glyph glyph-name="Ecircumflex" unicode="&#xca;" horiz-adv-x="1289" 
d="M841 693h-348.5t-286.5 -13v-23q5 -258 124 -419q132 -179 410 -237q134 -28 166 -28t59 14t49 31t40.5 31t34.5 14q29 0 29 -33t-17 -76q-37 -93 -41 -187q-2 -44 -31 -44q-39 0 -100 97q-36 56 -107 68q-576 82 -692 540q-24 98 -24 238.5t43.5 262t113.5 213t157 155
t175 103.5q158 73 301 84q51 2 105 78q53 73 85 73q50 0 32 -67q-14 -56 10 -199q6 -37 -5 -52t-23 -15q-25 0 -49 36q-39 56 -122 56q-95 0 -162.5 -20.5t-134 -55t-133.5 -85.5t-124 -117q-128 -150 -159 -327q28 -2 60 -2h70q178 0 502 12q19 1 55 29q105 80 130 80
q36 0 36 -46l-29 -132q-5 -30 -5 -64l2 -39q0 -50 -33 -50q-20 0 -36.5 17.5t-34.5 39.5q-47 56 -92 59zM605 1771l3 -24q0 -43 -29 -58q-35 -20 -107 98q-8 15 -37.5 32t-40 28t-10.5 28q0 36 59 36l81 -7q54 0 134 65q45 37 139 104q26 30 59 1.5t59.5 -48.5t53.5 -37
q32 -19 128 -67q33 -13 77 -14.5t61 -5.5q40 -10 40 -34q0 -26 -22 -41q-48 -36 -61 -53l-45 -66q-23 -34 -38 -34q-36 0 -41 49q-8 72 -18 88t-17 26q-51 31 -103.5 60t-105.5 64l-105 -64q-12 -8 -81 -55q-33 -27 -33 -71z" />
    <glyph glyph-name="Edieresis" unicode="&#xcb;" horiz-adv-x="1289" 
d="M841 693h-348.5t-286.5 -13v-23q5 -258 124 -419q132 -179 410 -237q134 -28 166 -28t59 14t49 31t40.5 31t34.5 14q29 0 29 -33t-17 -76q-37 -93 -41 -187q-2 -44 -31 -44q-39 0 -100 97q-36 56 -107 68q-576 82 -692 540q-24 98 -24 238.5t43.5 262t113.5 213t157 155
t175 103.5q158 73 301 84q51 2 105 78q53 73 85 73q50 0 32 -67q-14 -56 10 -199q6 -37 -5 -52t-23 -15q-25 0 -49 36q-39 56 -122 56q-95 0 -162.5 -20.5t-134 -55t-133.5 -85.5t-124 -117q-128 -150 -159 -327q28 -2 60 -2h70q178 0 502 12q19 1 55 29q105 80 130 80
q36 0 36 -46l-29 -132q-5 -30 -5 -64l2 -39q0 -50 -33 -50q-20 0 -36.5 17.5t-34.5 39.5q-47 56 -92 59zM890 1923q8 0 46 -7t172 -7q55 0 55 -34q0 -25 -33 -61q-77 -82 -84 -95q-28 -47 -62 -25q-9 6 -14.5 17.5t-17.5 27.5t-28 37q-71 90 -71 117q0 30 37 30zM700 1875
q0 -27 -34 -62q-75 -79 -84 -94q-42 -66 -82 -6l-80 115q-61 95 8 95l55 -7q75 -7 146 -7t71 -34z" />
    <glyph glyph-name="Igrave" unicode="&#xcc;" horiz-adv-x="696" 
d="M302 1l-73 -10q-55 0 -55 42q2 17 14.5 32t25.5 31.5t29.5 35t29.5 34.5q30 39 30 56l4 696q0 239 -5 427q0 31 -68 95q-58 55 -58 84q0 43 86 21q72 -18 140.5 -5.5t102 12.5t33.5 -28q0 -21 -34.5 -47.5t-56 -48.5t-32.5 -40q-16 -26 -16 -63l4 -489l-10 -570v-30
q0 -14 1.5 -38t27 -56t44.5 -58q31 -42 31 -60q0 -32 -54 -32zM102 1758q-45 0 -45 31q0 19 27.5 46.5t40.5 59t23.5 59t22 46.5t34.5 19t34 -22t17.5 -50.5t12.5 -55.5t17 -35t35 -26.5t52 -40.5q73 -56 100 -71q45 -26 45 -52q0 -51 -45 -51q-34 0 -70 36q-17 17 -89.5 63
t-84.5 51.5t-28 5.5z" />
    <glyph glyph-name="Iacute" unicode="&#xcd;" horiz-adv-x="696" 
d="M302 1l-73 -10q-55 0 -55 42q2 17 14.5 32t25.5 31.5t29.5 35t29.5 34.5q30 39 30 56l4 696q0 239 -5 427q0 31 -68 95q-58 55 -58 84q0 43 86 21q72 -18 140.5 -5.5t102 12.5t33.5 -28q0 -21 -34.5 -47.5t-56 -48.5t-32.5 -40q-16 -26 -16 -63l4 -489l-10 -570v-30
q0 -14 1.5 -38t27 -56t44.5 -58q31 -42 31 -60q0 -32 -54 -32zM576 1785l-99 13q-16 0 -28 -5.5t-42 -24.5t-58 -38q-70 -48 -82 -60q-28 -28 -55 -28t-39.5 13t-12.5 29q0 35 39 57q38 22 191 141q10 6 21 64q21 100 62 100q23 0 34 -18t21 -45t23 -58.5t32 -51.5
q38 -40 38 -57q0 -31 -45 -31z" />
    <glyph glyph-name="Icircumflex" unicode="&#xce;" horiz-adv-x="696" 
d="M302 1l-73 -10q-55 0 -55 42q2 17 14.5 32t25.5 31.5t29.5 35t29.5 34.5q30 39 30 56l4 696q0 239 -5 427q0 31 -68 95q-58 55 -58 84q0 43 86 21q72 -18 140.5 -5.5t102 12.5t33.5 -28q0 -21 -34.5 -47.5t-56 -48.5t-32.5 -40q-16 -26 -16 -63l4 -489l-10 -570v-30
q0 -14 1.5 -38t27 -56t44.5 -58q31 -42 31 -60q0 -32 -54 -32zM136 1682l3 -24q0 -43 -29 -58q-35 -20 -107 98q-8 15 -37.5 32t-40 28t-10.5 28q0 36 59 36l81 -7q54 0 134 65q45 37 139 104q26 30 59 1.5t59.5 -48.5t53.5 -37q32 -19 128 -67q33 -13 77 -14.5t61 -5.5
q40 -10 40 -34q0 -26 -22 -41q-48 -36 -61 -53l-45 -66q-23 -34 -38 -34q-36 0 -41 49q-8 72 -18 88t-17 26q-51 31 -103.5 60t-105.5 64l-105 -64q-12 -8 -81 -55q-33 -27 -33 -71z" />
    <glyph glyph-name="Idieresis" unicode="&#xcf;" horiz-adv-x="696" 
d="M302 1l-73 -10q-55 0 -55 42q2 17 14.5 32t25.5 31.5t29.5 35t29.5 34.5q30 39 30 56l4 696q0 239 -5 427q0 31 -68 95q-58 55 -58 84q0 43 86 21q72 -18 140.5 -5.5t102 12.5t33.5 -28q0 -21 -34.5 -47.5t-56 -48.5t-32.5 -40q-16 -26 -16 -63l4 -489l-10 -570v-30
q0 -14 1.5 -38t27 -56t44.5 -58q31 -42 31 -60q0 -32 -54 -32zM537 1917q8 0 46 -7t172 -7q55 0 55 -34q0 -25 -33 -61q-77 -82 -84 -95q-28 -47 -62 -25q-9 6 -14.5 17.5t-17.5 27.5t-28 37q-71 90 -71 117q0 30 37 30zM347 1869q0 -27 -34 -62q-75 -79 -84 -94
q-42 -66 -82 -6l-80 115q-61 95 8 95l55 -7q75 -7 146 -7t71 -34z" />
    <glyph glyph-name="Eth" unicode="&#xd0;" horiz-adv-x="1504" 
d="M155 -3q0 18 12 33t25 33t28 37t27 36q28 41 28 56q-9 122 -34 628q-41 -6 -57 -9t-37 -25.5t-40 -48t-36.5 -46t-36.5 -20.5q-31 0 -31 38l13 139l-11 112q0 49 53 14l90 -62q21 -14 33 -14l56 6q-18 369 -32 553q-2 24 -28 50l-82 76q-24 24 -24 46q0 31 39 31l96 -11
q52 0 100 10q67 14 96.5 14t29.5 -28q0 -22 -42 -56q-88 -71 -88 -124l1 -36l195 51q382 92 647 -56q144 -81 209 -247q34 -87 34 -224t-50 -255t-132.5 -205.5t-189 -147.5t-219.5 -98q-203 -68 -427 -83q6 -18 42.5 -61.5t51 -63.5t14.5 -35q0 -34 -60 -34l-100 2
q-30 0 -65 -7q-98 -20 -98 32zM336 833l24 -566h21q315 0 596 181q192 123 271 302q40 93 40 214.5t-42.5 213t-113.5 146.5q-133 102 -356 102t-467 -86l24 -425q135 14 351 51q37 7 83 54.5t65 64.5t36 17q30 0 30 -66l-5 -101q0 -45 6 -63t7 -28q0 -68 -58 -54
q-9 2 -18 8l-42 27q-78 49 -103 49l-32 -4l-198 -22q-62 -8 -119 -15z" />
    <glyph glyph-name="Ntilde" unicode="&#xd1;" horiz-adv-x="1722" 
d="M402 22q0 -40 -93 -21q-69 15 -193 15q-29 0 -29 24q0 30 30 45t47 28.5t26 30.5q18 32 29 122.5t19.5 165t18 164.5t19.5 180.5t19 175.5l31 293q0 43 -66 99q-19 16 -40 26q-38 17 -38 39q0 43 46 43l143 -9q44 0 78.5 5.5t65 5.5t30.5 -27q0 -31 -34 -47
q-83 -39 -103 -106q41 -96 475 -627q427 -523 454 -523q3 0 0 6l82 1166q0 28 -26 65t-51 70t-25 51q0 25 30.5 25t65.5 -6t83 -6l105 5q79 0 9 -70l-38 -38q-41 -44 -49.5 -65.5t-13.5 -70t-11.5 -126.5t-13.5 -177t-14.5 -205.5t-14 -212.5t-11.5 -197q-11 -202 -11 -264
l1 -33q0 -43 -17 -61t-33 -18q-26 0 -36.5 10.5t-38.5 43t-73 86t-104.5 123.5t-125.5 148.5t-135.5 162t-135.5 164t-125.5 153.5t-105.5 131q-97 124 -105 148q-95 -885 -95 -906v-26q0 -42 18 -67l40 -49t40 -62zM670 1657q0 -37 -26 -37q-17 0 -35 13.5t-25.5 27.5
t-16.5 28t-23 27q-31 28 -66 38q-55 14 -55 39q0 14 12.5 25.5t29.5 11.5l32 -1q66 3 81 16t30.5 32.5t39.5 39.5q60 50 144 50q92 0 155 -79l34 -44q58 -73 115 -73q62 0 101 35q34 32 6 149q-7 33 5.5 48t24.5 15q26 -2 44 -32q45 -72 112 -97q45 -19 45 -45
q0 -16 -15.5 -27.5t-48.5 -14t-53.5 -6t-28.5 -15t-24.5 -27.5t-42.5 -32q-89 -55 -179 -37q-50 10 -84 44t-52 56.5t-35 42.5q-46 50 -82.5 50t-58.5 -9.5t-37 -22.5q-30 -27 -36 -48t-6 -37z" />
    <glyph glyph-name="Ograve" unicode="&#xd2;" horiz-adv-x="1451" 
d="M966.5 13q-111.5 -56 -213.5 -56t-178 20t-145 62t-128.5 108t-103.5 159q-93 200 -93 485q0 347 176 565q175 217 452 217q263 0 421 -163q184 -192 184 -597q0 -400 -178 -635q-82 -109 -193.5 -165zM722 53q62 -1 119 13.5t113 48.5t106.5 90t89.5 141q84 185 84 465
q0 554 -354 649q-88 23 -139.5 23t-109 -12.5t-116 -41.5t-114.5 -77.5t-99 -121.5q-96 -161 -96 -399q0 -536 273 -708q107 -68 243 -70zM458 1835q-45 0 -45 31q0 19 27.5 46.5t40.5 59t23.5 59t22 46.5t34.5 19t34 -22t17.5 -50.5t12.5 -55.5t17 -35t35 -26.5t52 -40.5
q73 -56 100 -71q45 -26 45 -52q0 -51 -45 -51q-34 0 -70 36q-17 17 -89.5 63t-84.5 51.5t-28 5.5z" />
    <glyph glyph-name="Oacute" unicode="&#xd3;" horiz-adv-x="1451" 
d="M966.5 13q-111.5 -56 -213.5 -56t-178 20t-145 62t-128.5 108t-103.5 159q-93 200 -93 485q0 347 176 565q175 217 452 217q263 0 421 -163q184 -192 184 -597q0 -400 -178 -635q-82 -109 -193.5 -165zM722 53q62 -1 119 13.5t113 48.5t106.5 90t89.5 141q84 185 84 465
q0 554 -354 649q-88 23 -139.5 23t-109 -12.5t-116 -41.5t-114.5 -77.5t-99 -121.5q-96 -161 -96 -399q0 -536 273 -708q107 -68 243 -70zM957 1809l-99 13q-16 0 -28 -5.5t-42 -24.5t-58 -38q-70 -48 -82 -60q-28 -28 -55 -28t-39.5 13t-12.5 29q0 35 39 57q38 22 191 141
q10 6 21 64q21 100 62 100q23 0 34 -18t21 -45t23 -58.5t32 -51.5q38 -40 38 -57q0 -31 -45 -31z" />
    <glyph glyph-name="Ocircumflex" unicode="&#xd4;" horiz-adv-x="1451" 
d="M966.5 13q-111.5 -56 -213.5 -56t-178 20t-145 62t-128.5 108t-103.5 159q-93 200 -93 485q0 347 176 565q175 217 452 217q263 0 421 -163q184 -192 184 -597q0 -400 -178 -635q-82 -109 -193.5 -165zM722 53q62 -1 119 13.5t113 48.5t106.5 90t89.5 141q84 185 84 465
q0 554 -354 649q-88 23 -139.5 23t-109 -12.5t-116 -41.5t-114.5 -77.5t-99 -121.5q-96 -161 -96 -399q0 -536 273 -708q107 -68 243 -70zM492 1759l3 -24q0 -43 -29 -58q-35 -20 -107 98q-8 15 -37.5 32t-40 28t-10.5 28q0 36 59 36l81 -7q54 0 134 65q45 37 139 104
q26 30 59 1.5t59.5 -48.5t53.5 -37q32 -19 128 -67q33 -13 77 -14.5t61 -5.5q40 -10 40 -34q0 -26 -22 -41q-48 -36 -61 -53l-45 -66q-23 -34 -38 -34q-36 0 -41 49q-8 72 -18 88t-17 26q-51 31 -103.5 60t-105.5 64l-105 -64q-12 -8 -81 -55q-33 -27 -33 -71z" />
    <glyph glyph-name="Otilde" unicode="&#xd5;" horiz-adv-x="1451" 
d="M966.5 13q-111.5 -56 -213.5 -56t-178 20t-145 62t-128.5 108t-103.5 159q-93 200 -93 485q0 347 176 565q175 217 452 217q263 0 421 -163q184 -192 184 -597q0 -400 -178 -635q-82 -109 -193.5 -165zM722 53q62 -1 119 13.5t113 48.5t106.5 90t89.5 141q84 185 84 465
q0 554 -354 649q-88 23 -139.5 23t-109 -12.5t-116 -41.5t-114.5 -77.5t-99 -121.5q-96 -161 -96 -399q0 -536 273 -708q107 -68 243 -70zM455 1734q0 -37 -26 -37q-17 0 -35 13.5t-25.5 27.5t-16.5 28t-23 27q-31 28 -66 38q-55 14 -55 39q0 14 12.5 25.5t29.5 11.5l32 -1
q66 3 81 16t30.5 32.5t39.5 39.5q60 50 144 50q92 0 155 -79l34 -44q58 -73 115 -73q62 0 101 35q34 32 6 149q-7 33 5.5 48t24.5 15q26 -2 44 -32q45 -72 112 -97q45 -19 45 -45q0 -16 -15.5 -27.5t-48.5 -14t-53.5 -6t-28.5 -15t-24.5 -27.5t-42.5 -32q-89 -55 -179 -37
q-50 10 -84 44t-52 56.5t-35 42.5q-46 50 -82.5 50t-58.5 -9.5t-37 -22.5q-30 -27 -36 -48t-6 -37z" />
    <glyph glyph-name="Odieresis" unicode="&#xd6;" horiz-adv-x="1451" 
d="M966.5 13q-111.5 -56 -213.5 -56t-178 20t-145 62t-128.5 108t-103.5 159q-93 200 -93 485q0 347 176 565q175 217 452 217q263 0 421 -163q184 -192 184 -597q0 -400 -178 -635q-82 -109 -193.5 -165zM722 53q62 -1 119 13.5t113 48.5t106.5 90t89.5 141q84 185 84 465
q0 554 -354 649q-88 23 -139.5 23t-109 -12.5t-116 -41.5t-114.5 -77.5t-99 -121.5q-96 -161 -96 -399q0 -536 273 -708q107 -68 243 -70zM893 1994q8 0 46 -7t172 -7q55 0 55 -34q0 -25 -33 -61q-77 -82 -84 -95q-28 -47 -62 -25q-9 6 -14.5 17.5t-17.5 27.5t-28 37
q-71 90 -71 117q0 30 37 30zM703 1946q0 -27 -34 -62q-75 -79 -84 -94q-42 -66 -82 -6l-80 115q-61 95 8 95l55 -7q75 -7 146 -7t71 -34z" />
    <glyph glyph-name="multiply" unicode="&#xd7;" horiz-adv-x="1555" 
d="M1085 1292q0 48 42 48q20 0 37.5 -16t37.5 -40q59 -69 96 -89q53 -30 53 -59.5t-49 -35.5q-128 0 -156 -36q-21 -26 -304 -339q256 -248 353 -322q32 -26 133 -30q84 -4 84 -41q0 -26 -62 -73q-73 -54 -87 -79q-47 -82 -88 -44q-18 18 -22 93t-18 97l-133 131t-214 209
l-302 -335q-28 -32 -32 -39q-9 -16 -9 -55t-1 -60t-6 -37q-9 -33 -36 -33q-34 0 -58 44q-24 39 -62.5 68.5t-59.5 35t-34.5 19.5t-13.5 28q0 40 98 54q105 16 128.5 32.5t56.5 48.5t75 76q99 102 194 210q-214 206 -301.5 280t-103 84t-49 14t-64 6t-52 8.5t-21.5 22.5
q0 40 38.5 57.5t73 45t60 52t44.5 42t35 17.5q41 0 41 -50l-10 -126q0 -34 17 -53q91 -96 345 -340q294 331 309 392q5 18 5 38z" />
    <glyph glyph-name="Oslash" unicode="&#xd8;" horiz-adv-x="1511" 
d="M1202 1388q166 -192 166 -575q0 -400 -178 -635q-167 -221 -433 -221q-188 0 -339 109q-51 38 -96 91l-35 -50q-7 -11 -17.5 -31t-11 -53.5t-0.5 -60.5t-6 -44.5t-26 -17.5q-38 0 -60 43q-16 29 -115 52q-57 15 -57 49q0 38 91 54q70 12 98 40q19 19 82 100
q-130 212 -130 551q0 349 175.5 566.5t452.5 217.5q216 0 367 -116l36 49q14 23 14 45l-16 107q0 26 14 37.5t34.5 11.5t39.5 -16t40 -39q63 -71 97 -91q58 -33 58 -56q0 -14 -14 -26t-37 -12l-32 1q-69 0 -93 -13q-35 -18 -69 -67zM1072 1376q-177 145 -410 94
q-125 -27 -231 -118q-117 -102 -169 -292q-26 -99 -26 -248q0 -295 96 -485q170 232 374 526q302 434 366 523zM383 243q141 -191 380 -191q190 0 327 153q107 118 151 340q41 206 14 431q-26 211 -115 329l-374 -523l-274 -384q-62 -88 -109 -155z" />
    <glyph glyph-name="Ugrave" unicode="&#xd9;" horiz-adv-x="1546" 
d="M1487 1605q0 -10 -21 -35t-38 -52q-43 -67 -44.5 -111.5t-3.5 -106.5t-5.5 -136.5t-9 -157t-13.5 -162.5q-20 -180 -40 -252.5t-40 -133.5t-51 -125t-74 -125t-103 -110q-133 -107 -318 -107q-197 0 -321 147q-152 180 -182 546l-57 609q-4 43 -17 61q-20 26 -60 61
t-48 48t-8 24q0 36 63 36l52 -5l155 29q77 13 77 -17q0 -20 -23.5 -43.5t-39 -47t-26.5 -48.5q-24 -55 -24 -90t3 -94.5t9 -139.5q33 -446 68.5 -584.5t84.5 -220.5q108 -179 300 -179q288 0 421 328q141 349 141 983q0 41 -14 61q-15 22 -53 59q-57 54 -57 76.5t59 22.5
l98 -5q45 0 72 10q88 32 88 -13zM489 1758q-45 0 -45 31q0 19 27.5 46.5t40.5 59t23.5 59t22 46.5t34.5 19t34 -22t17.5 -50.5t12.5 -55.5t17 -35t35 -26.5t52 -40.5q73 -56 100 -71q45 -26 45 -52q0 -51 -45 -51q-34 0 -70 36q-17 17 -89.5 63t-84.5 51.5t-28 5.5z" />
    <glyph glyph-name="Uacute" unicode="&#xda;" horiz-adv-x="1546" 
d="M1487 1605q0 -10 -21 -35t-38 -52q-43 -67 -44.5 -111.5t-3.5 -106.5t-5.5 -136.5t-9 -157t-13.5 -162.5q-20 -180 -40 -252.5t-40 -133.5t-51 -125t-74 -125t-103 -110q-133 -107 -318 -107q-197 0 -321 147q-152 180 -182 546l-57 609q-4 43 -17 61q-20 26 -60 61
t-48 48t-8 24q0 36 63 36l52 -5l155 29q77 13 77 -17q0 -20 -23.5 -43.5t-39 -47t-26.5 -48.5q-24 -55 -24 -90t3 -94.5t9 -139.5q33 -446 68.5 -584.5t84.5 -220.5q108 -179 300 -179q288 0 421 328q141 349 141 983q0 41 -14 61q-15 22 -53 59q-57 54 -57 76.5t59 22.5
l98 -5q45 0 72 10q88 32 88 -13zM963 1785l-99 13q-16 0 -28 -5.5t-42 -24.5t-58 -38q-70 -48 -82 -60q-28 -28 -55 -28t-39.5 13t-12.5 29q0 35 39 57q38 22 191 141q10 6 21 64q21 100 62 100q23 0 34 -18t21 -45t23 -58.5t32 -51.5q38 -40 38 -57q0 -31 -45 -31z" />
    <glyph glyph-name="Ucircumflex" unicode="&#xdb;" horiz-adv-x="1546" 
d="M1487 1605q0 -10 -21 -35t-38 -52q-43 -67 -44.5 -111.5t-3.5 -106.5t-5.5 -136.5t-9 -157t-13.5 -162.5q-20 -180 -40 -252.5t-40 -133.5t-51 -125t-74 -125t-103 -110q-133 -107 -318 -107q-197 0 -321 147q-152 180 -182 546l-57 609q-4 43 -17 61q-20 26 -60 61
t-48 48t-8 24q0 36 63 36l52 -5l155 29q77 13 77 -17q0 -20 -23.5 -43.5t-39 -47t-26.5 -48.5q-24 -55 -24 -90t3 -94.5t9 -139.5q33 -446 68.5 -584.5t84.5 -220.5q108 -179 300 -179q288 0 421 328q141 349 141 983q0 41 -14 61q-15 22 -53 59q-57 54 -57 76.5t59 22.5
l98 -5q45 0 72 10q88 32 88 -13zM523 1682l3 -24q0 -43 -29 -58q-35 -20 -107 98q-8 15 -37.5 32t-40 28t-10.5 28q0 36 59 36l81 -7q54 0 134 65q45 37 139 104q26 30 59 1.5t59.5 -48.5t53.5 -37q32 -19 128 -67q33 -13 77 -14.5t61 -5.5q40 -10 40 -34q0 -26 -22 -41
q-48 -36 -61 -53l-45 -66q-23 -34 -38 -34q-36 0 -41 49q-8 72 -18 88t-17 26q-51 31 -103.5 60t-105.5 64l-105 -64q-12 -8 -81 -55q-33 -27 -33 -71z" />
    <glyph glyph-name="Udieresis" unicode="&#xdc;" horiz-adv-x="1546" 
d="M1487 1605q0 -10 -21 -35t-38 -52q-43 -67 -44.5 -111.5t-3.5 -106.5t-5.5 -136.5t-9 -157t-13.5 -162.5q-20 -180 -40 -252.5t-40 -133.5t-51 -125t-74 -125t-103 -110q-133 -107 -318 -107q-197 0 -321 147q-152 180 -182 546l-57 609q-4 43 -17 61q-20 26 -60 61
t-48 48t-8 24q0 36 63 36l52 -5l155 29q77 13 77 -17q0 -20 -23.5 -43.5t-39 -47t-26.5 -48.5q-24 -55 -24 -90t3 -94.5t9 -139.5q33 -446 68.5 -584.5t84.5 -220.5q108 -179 300 -179q288 0 421 328q141 349 141 983q0 41 -14 61q-15 22 -53 59q-57 54 -57 76.5t59 22.5
l98 -5q45 0 72 10q88 32 88 -13zM924 1917q8 0 46 -7t172 -7q55 0 55 -34q0 -25 -33 -61q-77 -82 -84 -95q-28 -47 -62 -25q-9 6 -14.5 17.5t-17.5 27.5t-28 37q-71 90 -71 117q0 30 37 30zM734 1869q0 -27 -34 -62q-75 -79 -84 -94q-42 -66 -82 -6l-80 115q-61 95 8 95
l55 -7q75 -7 146 -7t71 -34z" />
    <glyph glyph-name="Yacute" unicode="&#xdd;" horiz-adv-x="1411" 
d="M543 -80q-33 0 -33 28q0 31 56 82q74 65 74 113l3 329q0 172 -8 258l-296 431q-57 82 -123 175q-22 30 -50.5 39t-46 12t-32.5 6.5t-29 9.5q-34 15 -34 39q0 23 50.5 43.5t88 40.5t63.5 36q59 34 79 34q30 0 30 -30q0 -17 -9.5 -34.5t-18.5 -34.5q-38 -72 -20 -94
q159 -253 273 -411.5t136 -186.5q226 310 406 627q22 41 15 73.5t-11 49.5q-26 112 19 112q10 0 42 -26.5t56 -44.5q62 -45 96 -57q68 -26 68 -64q0 -35 -73 -37q-83 -2 -105 -36t-55.5 -84t-73 -109t-83 -126t-87.5 -136q-94 -148 -168 -272q-4 -104 -4 -173v-105l1 -155
l1 -84q0 -56 51 -126q15 -20 26 -30q31 -26 31 -44t-17.5 -24t-65.5 -6l-107 1zM1022 1785l-99 13q-16 0 -28 -5.5t-42 -24.5t-58 -38q-70 -48 -82 -60q-28 -28 -55 -28t-39.5 13t-12.5 29q0 35 39 57q38 22 191 141q10 6 21 64q21 100 62 100q23 0 34 -18t21 -45t23 -58.5
t32 -51.5q38 -40 38 -57q0 -31 -45 -31z" />
    <glyph glyph-name="Thorn" unicode="&#xde;" horiz-adv-x="1296" 
d="M166 5q0 18 12 33.5t24.5 32t27.5 34.5t28 34q28 36 28 51q-14 192 -28 500q-25 556 -42 786q-2 23 -28 45q-77 65 -91.5 79.5t-14.5 36.5q0 31 39 31l98 -9q69 0 120.5 12.5t64.5 12.5q39 0 39 -31q0 -22 -42 -56q-88 -71 -88 -110q0 -17 16 -281q199 71 408 71
q319 0 423 -187q39 -69 39 -170t-24.5 -176.5t-67.5 -131.5t-102 -93.5t-127 -60.5q-212 -72 -515 -25q6 -190 10.5 -228.5t13.5 -53.5t21 -30l58 -63q23 -28 23 -46q0 -34 -60 -34l-100 2q-30 0 -65 -7q-98 -20 -98 32zM870 1172q-226 54 -536 -60l13 -296q7 -179 12 -278
q223 -59 424 -6q192 51 275 196q41 73 41 160t-29 142q-56 107 -200 142z" />
    <glyph glyph-name="germandbls" unicode="&#xdf;" horiz-adv-x="1227" 
d="M369 -179l-119 6q-84 0 -118.5 -6.5t-46 -6.5t-20 9t-8.5 20t9 24t22 28t29 33t29 42q31 57 31 109.5t-3 120.5t-6 158q-17 439 -7 634t36 285.5t66 156t89 109t100 69.5q156 80 322 29q127 -39 182 -143q27 -53 27 -131t-18.5 -139t-48.5 -103t-68.5 -70t-79.5 -53
q33 -21 73.5 -42t81 -48.5t79 -64t68.5 -87.5q66 -112 66 -279q0 -173 -100 -281q-105 -112 -278 -112q-41 0 -94 19q-99 36 -137 36q-72 0 -72 28q0 22 18 35t43.5 29.5t54 42t41.5 56.5q18 44 40 44q29 0 37 -17.5t8 -39.5l-1 -31q0 -55 12 -75q23 -39 78.5 -39
t101.5 20.5t80 58.5q72 82 72 215q0 207 -110 316q-58 57 -115.5 88.5t-84 47.5t-46 24.5t-34.5 15.5q-32 16 -32 37.5t5.5 31.5t15.5 17q4 3 49 23t78.5 44.5t58.5 59.5q54 76 54 189q0 102 -84 156q-66 42 -156 42t-160.5 -46.5t-118.5 -121.5q-93 -147 -100 -355
q-8 -286 -1.5 -532t9.5 -341t8 -120.5t18 -52.5q31 -65 97 -102q33 -20 33 -45t-55 -25z" />
    <glyph glyph-name="agrave" unicode="&#xe0;" horiz-adv-x="1555" 
d="M1362 3q-47 0 -34 66q26 122 14 154l-184 289q-53 85 -112 187q-46 -125 -85.5 -205t-107.5 -162t-133 -140q-219 -195 -401 -195q-96 0 -153 62q-67 77 -23 223q58 194 280 353q200 144 427 197q61 15 109 20q-109 192 -142 261q-18 22 -51 33q-123 42 -140 52.5
t-17 24.5q0 32 52 48q90 25 159 81q39 33 76 33t37 -39l-37 -122q-11 -44 2 -69l212 -390q138 -247 255 -413q41 -59 63.5 -73.5t54.5 -27.5t61 -25q71 -30 71 -55q0 -28 -50.5 -48t-82 -41t-52 -38.5t-35.5 -29t-33 -11.5zM246 268q-13 -44 -13 -70t6 -44t17 -32
q26 -30 59 -30q60 0 136 30.5t136 76t117 104.5q122 127 189 258q60 114 92 210q-158 -14 -337 -103q-164 -81 -276 -202q-97 -105 -126 -198zM407 1674q-45 0 -45 31q0 19 27.5 46.5t40.5 59t23.5 59t22 46.5t34.5 19t34 -22t17.5 -50.5t12.5 -55.5t17 -35t35 -26.5
t53 -40.5q72 -56 99 -71q45 -26 45 -52q0 -51 -45 -51q-34 0 -70 36q-17 17 -89.5 63t-84.5 51.5t-28 5.5z" />
    <glyph glyph-name="aacute" unicode="&#xe1;" horiz-adv-x="1555" 
d="M1362 3q-47 0 -34 66q26 122 14 154l-184 289q-53 85 -112 187q-46 -125 -85.5 -205t-107.5 -162t-133 -140q-219 -195 -401 -195q-96 0 -153 62q-67 77 -23 223q58 194 280 353q200 144 427 197q61 15 109 20q-109 192 -142 261q-18 22 -51 33q-123 42 -140 52.5
t-17 24.5q0 32 52 48q90 25 159 81q39 33 76 33t37 -39l-37 -122q-11 -44 2 -69l212 -390q138 -247 255 -413q41 -59 63.5 -73.5t54.5 -27.5t61 -25q71 -30 71 -55q0 -28 -50.5 -48t-82 -41t-52 -38.5t-35.5 -29t-33 -11.5zM246 268q-13 -44 -13 -70t6 -44t17 -32
q26 -30 59 -30q60 0 136 30.5t136 76t117 104.5q122 127 189 258q60 114 92 210q-158 -14 -337 -103q-164 -81 -276 -202q-97 -105 -126 -198zM1147 1674l-99 13q-16 0 -28 -5.5t-42 -24.5t-58 -39q-70 -47 -82 -59q-28 -28 -55 -28t-39.5 13t-12.5 28q0 36 39 58
q38 22 191 141q10 6 21 64q21 100 62 100q23 0 34 -18t21 -45t23 -58.5t32 -51.5q38 -40 38 -57q0 -31 -45 -31z" />
    <glyph glyph-name="acircumflex" unicode="&#xe2;" horiz-adv-x="1555" 
d="M1362 3q-47 0 -34 66q26 122 14 154l-184 289q-53 85 -112 187q-46 -125 -85.5 -205t-107.5 -162t-133 -140q-219 -195 -401 -195q-96 0 -153 62q-67 77 -23 223q58 194 280 353q200 144 427 197q61 15 109 20q-109 192 -142 261q-18 22 -51 33q-123 42 -140 52.5
t-17 24.5q0 32 52 48q90 25 159 81q39 33 76 33t37 -39l-37 -122q-11 -44 2 -69l212 -390q138 -247 255 -413q41 -59 63.5 -73.5t54.5 -27.5t61 -25q71 -30 71 -55q0 -28 -50.5 -48t-82 -41t-52 -38.5t-35.5 -29t-33 -11.5zM246 268q-13 -44 -13 -70t6 -44t17 -32
q26 -30 59 -30q60 0 136 30.5t136 76t117 104.5q122 127 189 258q60 114 92 210q-158 -14 -337 -103q-164 -81 -276 -202q-97 -105 -126 -198zM557 1528l3 -24q0 -43 -29 -58q-35 -20 -107 98q-8 15 -37.5 32t-40 28t-10.5 28q0 36 59 36l81 -7q54 0 134 65q45 37 95 74
t59.5 40t21.5 3q27 0 43 -18q63 -80 148 -143q27 -20 55 -39q33 -23 77.5 -32.5t59.5 -14.5q38 -14 38 -37q0 -27 -35 -46q-51 -27 -63.5 -39.5t-26 -27.5t-25.5 -28q-30 -29 -43.5 -29t-24 13t-10.5 36l1 40q0 47 -17 85q-179 148 -187 155q-50 -17 -104 -58.5t-82 -60.5
q-33 -27 -33 -71z" />
    <glyph glyph-name="atilde" unicode="&#xe3;" horiz-adv-x="1555" 
d="M1362 3q-47 0 -34 66q26 122 14 154l-184 289q-53 85 -112 187q-46 -125 -85.5 -205t-107.5 -162t-133 -140q-219 -195 -401 -195q-96 0 -153 62q-67 77 -23 223q58 194 280 353q200 144 427 197q61 15 109 20q-109 192 -142 261q-18 22 -51 33q-123 42 -140 52.5
t-17 24.5q0 32 52 48q90 25 159 81q39 33 76 33t37 -39l-37 -122q-11 -44 2 -69l212 -390q138 -247 255 -413q41 -59 63.5 -73.5t54.5 -27.5t61 -25q71 -30 71 -55q0 -28 -50.5 -48t-82 -41t-52 -38.5t-35.5 -29t-33 -11.5zM246 268q-13 -44 -13 -70t6 -44t17 -32
q26 -30 59 -30q60 0 136 30.5t136 76t117 104.5q122 127 189 258q60 114 92 210q-158 -14 -337 -103q-164 -81 -276 -202q-97 -105 -126 -198zM562 1570q0 -69 -38 -69q-19 0 -36.5 15.5t-23.5 38.5q-21 71 -107 112q-31 15 -31 35t15.5 33.5t33.5 13.5l85 -12q26 0 38.5 7
t28 17t35.5 20q84 42 155 17q57 -18 77 -41t27.5 -39t16.5 -32q43 -76 108 -76q76 0 86 82q3 23 3 48l-1 34q0 29 14.5 45.5t29.5 16.5q30 0 42.5 -32t35.5 -57.5t45.5 -46t39 -36t16.5 -33t-17 -31t-42 -13.5l-70 7q-25 0 -34 -9t-23.5 -19t-36.5 -20q-97 -44 -178 -10
q-63 26 -108 112q-38 71 -113 71q-40 0 -61 -39q-15 -26 -15 -57z" />
    <glyph glyph-name="adieresis" unicode="&#xe4;" horiz-adv-x="1555" 
d="M1362 3q-47 0 -34 66q26 122 14 154l-184 289q-53 85 -112 187q-46 -125 -85.5 -205t-107.5 -162t-133 -140q-219 -195 -401 -195q-96 0 -153 62q-67 77 -23 223q58 194 280 353q200 144 427 197q61 15 109 20q-109 192 -142 261q-18 22 -51 33q-123 42 -140 52.5
t-17 24.5q0 32 52 48q90 25 159 81q39 33 76 33t37 -39l-37 -122q-11 -44 2 -69l212 -390q138 -247 255 -413q41 -59 63.5 -73.5t54.5 -27.5t61 -25q71 -30 71 -55q0 -28 -50.5 -48t-82 -41t-52 -38.5t-35.5 -29t-33 -11.5zM246 268q-13 -44 -13 -70t6 -44t17 -32
q26 -30 59 -30q60 0 136 30.5t136 76t117 104.5q122 127 189 258q60 114 92 210q-158 -14 -337 -103q-164 -81 -276 -202q-97 -105 -126 -198zM948 1742q8 0 46 -7t172 -7q55 0 55 -34q0 -25 -33 -61q-77 -82 -84 -95q-28 -47 -62 -25q-9 6 -14.5 17.5t-17.5 27.5t-28 36
q-71 91 -71 118q0 30 37 30zM758 1694q0 -27 -34 -62q-75 -79 -84 -94q-42 -66 -82 -6l-80 116q-61 94 8 94l55 -6q75 -8 146 -8t71 -34z" />
    <glyph glyph-name="aring" unicode="&#xe5;" horiz-adv-x="1555" 
d="M1362 3q-47 0 -34 66q26 122 14 154l-184 289q-53 85 -112 187q-46 -125 -85.5 -205t-107.5 -162t-133 -140q-219 -195 -401 -195q-96 0 -153 62q-67 77 -23 223q58 194 280 353q200 144 427 197q61 15 109 20q-109 192 -142 261q-18 22 -51 33q-123 42 -140 52.5
t-17 24.5q0 32 52 48q90 25 159 81q39 33 76 33t37 -39l-37 -122q-11 -44 2 -69l212 -390q138 -247 255 -413q41 -59 63.5 -73.5t54.5 -27.5t61 -25q71 -30 71 -55q0 -28 -50.5 -48t-82 -41t-52 -38.5t-35.5 -29t-33 -11.5zM246 268q-13 -44 -13 -70t6 -44t17 -32
q26 -30 59 -30q60 0 136 30.5t136 76t117 104.5q122 127 189 258q60 114 92 210q-158 -14 -337 -103q-164 -81 -276 -202q-97 -105 -126 -198zM799.5 1506q-25.5 -2 -37.5 -2t-37 3t-54.5 11.5t-60 24.5t-54.5 43q-57 61 -57 156q0 98 81 174q101 93 252 73
q161 -22 208 -164q14 -42 14 -96t-18.5 -90.5t-47.5 -61.5t-63.5 -39.5t-67 -22t-58 -9.5zM947 1742q0 45 -18.5 75t-44.5 47q-47 32 -94 32t-78 -12.5t-54 -33.5q-47 -44 -47 -94q0 -81 60 -131t141 -30q135 32 135 147z" />
    <glyph glyph-name="ae" unicode="&#xe6;" horiz-adv-x="1855" 
d="M1078 7l13 124q0 28 -5 41.5t-68 120t-175 316.5q-78 -217 -238 -381q-204 -209 -376 -209q-83 0 -134 58q-59 72 -20 209q32 111 127 222q127 146 339 240q104 45 194 62q-142 270 -182 357q-14 20 -44 31q-104 38 -121 48.5t-17 23.5q0 30 42 43.5t71.5 32t53.5 35.5
q116 82 116 -2q0 -26 -13 -58q-33 -87 -17 -114l164 -327q5 269 199 429q106 88 226 119q131 34 286 -10q162 -48 216 -173q19 -46 19 -105.5t-16 -105t-41 -78.5t-56 -55.5t-60 -36.5q-54 -24 -95 -24q-103 0 -150 15t-82 18t-59.5 5t-37.5 8.5t-13 22t16.5 37t37.5 45.5
q59 68 62 75t8 14.5t12 13.5q34 32 59 2q14 -16 26 -87.5t18.5 -73.5t15 -4.5t20.5 -4.5q81 -10 116.5 9t61.5 46q85 91 48 219q-26 89 -141 129q-61 21 -153.5 21t-173 -39t-142.5 -105q-136 -143 -136 -330q0 -174 118 -281q118 -106 311 -106q210 0 281 71
q30 28 48.5 65.5t26.5 48.5t19.5 11t23.5 -8.5t12 -26.5t3.5 -38.5t9.5 -41.5q11 -41 27 -69t16 -44q0 -38 -44 -38q-14 0 -58 20.5t-47 20.5l-114 -36q-221 -54 -428 15q-42 14 -82 35q78 -138 115.5 -192.5t51 -63t42.5 -20.5t56 -24q65 -29 65 -51q0 -21 -47 -48
q-109 -62 -122 -76q-27 -33 -52 -33q-33 0 -33 41zM175 136q20 -28 66.5 -28t103 25.5t111 69t106 101.5t95.5 124q92 136 138 269l-22 41q-203 -31 -389 -178q-177 -139 -219 -287q-25 -89 10 -137z" />
    <glyph glyph-name="ccedilla" unicode="&#xe7;" horiz-adv-x="1536" 
d="M429 -379q-49 0 -49 32q0 15 23 33q72 57 103 127q16 35 35.5 35t30 -11.5t10.5 -26.5l-2 -45q0 -113 182 -113q107 0 128 79q15 53 -3 80.5t-38.5 42.5t-44 27t-44.5 25q-62 40 -44 90l23 56q-173 29 -289 149q-148 154 -148 439q0 192 109 332q90 114 245 178
q129 53 257 53l158 -14q79 0 135 56q26 26 56 26q40 0 26 -42q-43 -129 -43 -218l4 -35q0 -16 -7.5 -28t-17.5 -12q-22 0 -43.5 31t-35.5 54t-29 41q-32 39 -70 44q-89 12 -142 12t-112 -14.5t-115.5 -41.5t-106 -67t-86.5 -91q-82 -111 -82 -252t42 -242.5t110 -163.5
q127 -114 333 -114q87 0 161 16t114.5 28t67 24.5t42 26.5t26.5 29l36 69q21 39 46 39t25 -58q0 -120 30 -219q25 -76 -23 -76q-20 0 -49 14.5t-42.5 26.5t-24.5 21q-41 32 -136 11q-189 -40 -327 -40q-22 -54 -3 -73t52.5 -32.5t55.5 -31.5t40 -42q52 -72 37 -134
t-39 -93.5t-58 -48.5q-55 -28 -132.5 -28t-114.5 11t-68.5 23.5t-59 23.5t-52.5 11z" />
    <glyph glyph-name="egrave" unicode="&#xe8;" horiz-adv-x="1381" 
d="M1293 165q0 -56 -59 -37q-96 29 -116 22.5t-54.5 -22t-81.5 -31.5q-163 -56 -363 -32q-144 17 -267 89q-140 81 -199 245q-31 86 -31 200.5t30.5 204.5t81.5 161t117.5 122t138.5 85q204 97 440 50q174 -36 253 -159q41 -64 41 -144.5t-17 -130.5t-45 -87t-63.5 -61.5
t-72.5 -39.5q-68 -28 -116 -28q-111 0 -168.5 17.5t-98.5 21t-69 5t-42.5 8t-14.5 21.5q0 28 29 53q70 60 109 125q46 71 85 35q11 -10 15 -62q8 -103 45 -120q26 -15 119 -15q61 0 127 65q73 71 73 154q0 268 -365 268q-210 0 -370 -164q-158 -163 -158 -374
q0 -220 135 -342q132 -118 369 -118q214 0 318 78q42 31 61.5 72t31 64t22.5 37.5t25.5 14.5t22.5 -6.5t12 -15.5q2 -4 8 -42q15 -90 32 -121q30 -52 30 -66zM456 1546q-45 0 -45 31q0 19 27.5 46.5t40.5 59t23.5 59t22 46.5t34.5 19t34 -22t17.5 -50.5t12.5 -55.5t17 -35
t35 -26.5t53 -40.5q72 -56 99 -71q45 -26 45 -52q0 -51 -45 -51q-34 0 -70 36q-17 17 -89.5 63t-84.5 51.5t-28 5.5z" />
    <glyph glyph-name="eacute" unicode="&#xe9;" horiz-adv-x="1381" 
d="M1293 165q0 -56 -59 -37q-96 29 -116 22.5t-54.5 -22t-81.5 -31.5q-163 -56 -363 -32q-144 17 -267 89q-140 81 -199 245q-31 86 -31 200.5t30.5 204.5t81.5 161t117.5 122t138.5 85q204 97 440 50q174 -36 253 -159q41 -64 41 -144.5t-17 -130.5t-45 -87t-63.5 -61.5
t-72.5 -39.5q-68 -28 -116 -28q-111 0 -168.5 17.5t-98.5 21t-69 5t-42.5 8t-14.5 21.5q0 28 29 53q70 60 109 125q46 71 85 35q11 -10 15 -62q8 -103 45 -120q26 -15 119 -15q61 0 127 65q73 71 73 154q0 268 -365 268q-210 0 -370 -164q-158 -163 -158 -374
q0 -220 135 -342q132 -118 369 -118q214 0 318 78q42 31 61.5 72t31 64t22.5 37.5t25.5 14.5t22.5 -6.5t12 -15.5q2 -4 8 -42q15 -90 32 -121q30 -52 30 -66zM1000 1510l-99 13q-16 0 -28 -5.5t-42 -24.5t-58 -39q-70 -47 -82 -59q-28 -28 -55 -28t-39.5 13t-12.5 28
q0 36 39 58q38 22 191 141q10 6 21 64q21 100 62 100q23 0 34 -18t21 -45t23 -58.5t32 -51.5q38 -40 38 -57q0 -31 -45 -31z" />
    <glyph glyph-name="ecircumflex" unicode="&#xea;" horiz-adv-x="1381" 
d="M1293 165q0 -56 -59 -37q-96 29 -116 22.5t-54.5 -22t-81.5 -31.5q-163 -56 -363 -32q-144 17 -267 89q-140 81 -199 245q-31 86 -31 200.5t30.5 204.5t81.5 161t117.5 122t138.5 85q204 97 440 50q174 -36 253 -159q41 -64 41 -144.5t-17 -130.5t-45 -87t-63.5 -61.5
t-72.5 -39.5q-68 -28 -116 -28q-111 0 -168.5 17.5t-98.5 21t-69 5t-42.5 8t-14.5 21.5q0 28 29 53q70 60 109 125q46 71 85 35q11 -10 15 -62q8 -103 45 -120q26 -15 119 -15q61 0 127 65q73 71 73 154q0 268 -365 268q-210 0 -370 -164q-158 -163 -158 -374
q0 -220 135 -342q132 -118 369 -118q214 0 318 78q42 31 61.5 72t31 64t22.5 37.5t25.5 14.5t22.5 -6.5t12 -15.5q2 -4 8 -42q15 -90 32 -121q30 -52 30 -66zM575 1415l3 -24q0 -43 -29 -58q-35 -20 -107 98q-8 15 -37.5 32t-40 28t-10.5 28q0 36 59 36l81 -7q54 0 134 65
q45 37 95 74t59.5 40t21.5 3q27 0 43 -18q63 -80 148 -143q27 -20 55 -39q33 -23 77.5 -32.5t59.5 -14.5q38 -14 38 -37q0 -27 -35 -46q-51 -27 -63.5 -39.5t-26 -27.5t-25.5 -28q-30 -29 -43.5 -29t-24 13t-10.5 36l1 40q0 47 -17 85q-179 148 -187 155q-50 -17 -104 -58.5
t-82 -60.5q-33 -27 -33 -71z" />
    <glyph glyph-name="edieresis" unicode="&#xeb;" horiz-adv-x="1381" 
d="M1293 165q0 -56 -59 -37q-96 29 -116 22.5t-54.5 -22t-81.5 -31.5q-163 -56 -363 -32q-144 17 -267 89q-140 81 -199 245q-31 86 -31 200.5t30.5 204.5t81.5 161t117.5 122t138.5 85q204 97 440 50q174 -36 253 -159q41 -64 41 -144.5t-17 -130.5t-45 -87t-63.5 -61.5
t-72.5 -39.5q-68 -28 -116 -28q-111 0 -168.5 17.5t-98.5 21t-69 5t-42.5 8t-14.5 21.5q0 28 29 53q70 60 109 125q46 71 85 35q11 -10 15 -62q8 -103 45 -120q26 -15 119 -15q61 0 127 65q73 71 73 154q0 268 -365 268q-210 0 -370 -164q-158 -163 -158 -374
q0 -220 135 -342q132 -118 369 -118q214 0 318 78q42 31 61.5 72t31 64t22.5 37.5t25.5 14.5t22.5 -6.5t12 -15.5q2 -4 8 -42q15 -90 32 -121q30 -52 30 -66zM933 1629q8 0 46 -7t172 -7q55 0 55 -34q0 -25 -33 -61q-77 -82 -84 -95q-28 -47 -62 -25q-9 6 -14.5 17.5
t-17.5 27.5t-28 36q-71 91 -71 118q0 30 37 30zM743 1581q0 -27 -34 -62q-75 -79 -84 -94q-42 -66 -82 -6l-80 116q-61 94 8 94l55 -6q75 -8 146 -8t71 -34z" />
    <glyph glyph-name="igrave" unicode="&#xec;" horiz-adv-x="877" 
d="M352 -52q-51 0 -51 38q0 16 28 53.5t54.5 73t29.5 55.5l22 827q-1 30 -20.5 53t-42.5 44t-42 41t-19 43q0 44 71 27q54 -13 116 -13l113 5q51 0 51 -38q0 -21 -30.5 -44.5t-50 -40.5t-30.5 -30q-19 -21 -19 -39l-21 -769l1 -68q0 -43 29.5 -85.5t43 -61.5t13.5 -33
q0 -35 -57 -35l-44 2zM167 1612q-45 0 -45 31q0 19 27.5 46.5t40.5 59t23.5 59t22 46.5t34.5 19t34 -22t17.5 -50.5t12.5 -55.5t17 -35t35 -26.5t53 -40.5q72 -56 99 -71q45 -26 45 -52q0 -51 -45 -51q-34 0 -70 36q-17 17 -89.5 63t-84.5 51.5t-28 5.5z" />
    <glyph glyph-name="iacute" unicode="&#xed;" horiz-adv-x="877" 
d="M352 -52q-51 0 -51 38q0 16 28 53.5t54.5 73t29.5 55.5l22 827q-1 30 -20.5 53t-42.5 44t-42 41t-19 43q0 44 71 27q54 -13 116 -13l113 5q51 0 51 -38q0 -21 -30.5 -44.5t-50 -40.5t-30.5 -30q-19 -21 -19 -39l-21 -769l1 -68q0 -43 29.5 -85.5t43 -61.5t13.5 -33
q0 -35 -57 -35l-44 2zM827 1620l-99 13q-16 0 -28 -5.5t-42 -24.5t-58 -39q-70 -47 -82 -59q-28 -28 -55 -28t-39.5 13t-12.5 28q0 36 39 58q38 22 191 141q10 6 21 64q21 100 62 100q23 0 34 -18t21 -45t23 -58.5t32 -51.5q38 -40 38 -57q0 -31 -45 -31z" />
    <glyph glyph-name="icircumflex" unicode="&#xee;" horiz-adv-x="877" 
d="M352 -52q-51 0 -51 38q0 16 28 53.5t54.5 73t29.5 55.5l22 827q-1 30 -20.5 53t-42.5 44t-42 41t-19 43q0 44 71 27q54 -13 116 -13l113 5q51 0 51 -38q0 -21 -30.5 -44.5t-50 -40.5t-30.5 -30q-19 -21 -19 -39l-21 -769l1 -68q0 -43 29.5 -85.5t43 -61.5t13.5 -33
q0 -35 -57 -35l-44 2zM270 1474l3 -24q0 -43 -29 -58q-35 -20 -107 98q-8 15 -37.5 32t-40 28t-10.5 28q0 36 59 36l81 -7q54 0 134 65q45 37 95 74t59.5 40t21.5 3q27 0 43 -18q63 -80 148 -143q27 -20 55 -39q33 -23 77.5 -32.5t59.5 -14.5q38 -14 38 -37q0 -27 -35 -46
q-51 -27 -63.5 -39.5t-26 -27.5t-25.5 -28q-30 -29 -43.5 -29t-24 13t-10.5 36l1 40q0 47 -17 85q-179 148 -187 155q-50 -17 -104 -58.5t-82 -60.5q-33 -27 -33 -71z" />
    <glyph glyph-name="idieresis" unicode="&#xef;" horiz-adv-x="877" 
d="M352 -52q-51 0 -51 38q0 16 28 53.5t54.5 73t29.5 55.5l22 827q-1 30 -20.5 53t-42.5 44t-42 41t-19 43q0 44 71 27q54 -13 116 -13l113 5q51 0 51 -38q0 -21 -30.5 -44.5t-50 -40.5t-30.5 -30q-19 -21 -19 -39l-21 -769l1 -68q0 -43 29.5 -85.5t43 -61.5t13.5 -33
q0 -35 -57 -35l-44 2zM661 1691q8 0 46 -7t172 -7q55 0 55 -34q0 -25 -33 -61q-77 -82 -84 -95q-28 -47 -62 -25q-9 6 -14.5 17.5t-17.5 27.5t-28 36q-71 91 -71 118q0 30 37 30zM471 1643q0 -27 -34 -62q-75 -79 -84 -94q-42 -66 -82 -6l-80 116q-61 94 8 94l55 -6
q75 -8 146 -8t71 -34z" />
    <glyph glyph-name="eth" unicode="&#xf0;" horiz-adv-x="1227" 
d="M357 1840q47 0 25 -76q-18 -62 2 -138q3 -11 95 -110l33 29q39 36 50.5 77t17.5 72q16 73 38 73q19 0 40 -37l20 -46q22 -50 84 -102q14 -13 14 -33t-19.5 -26.5t-48.5 -8.5q-92 -4 -110 -13t-25.5 -14.5t-15.5 -11.5t-28 -22q266 -279 305.5 -329t69 -82t60.5 -69
t60.5 -81t52.5 -98q51 -118 51 -263q0 -124 -68 -243q-105 -182 -298 -243q-108 -34 -242 -9q-123 23 -228 100q-112 84 -160 228q-24 74 -24 167.5t23 169t63 134.5t93.5 102.5t114.5 72.5q161 74 332 50q35 -5 57 -12q-76 92 -325 359q-14 -14 -35 -27.5t-32.5 -30.5
t-18.5 -53t-15 -76q-12 -59 -47 -59q-18 0 -29 16.5t-20.5 36t-19.5 33t-21 25.5q-24 28 -44 40q-28 16 -28 34q0 48 49 48q103 0 172 43q21 13 33 28q-76 74 -91.5 85t-34 14t-43.5 6t-52 6t-50 8q-53 10 -53 24.5t18 29t48 36.5q93 64 156 135q27 31 49 31zM215.5 626
q-9.5 -47 -9.5 -87t7.5 -88t26 -95.5t49.5 -91.5t79 -78q103 -74 266 -74q182 0 296 140q98 123 98 279q0 203 -105 335q-30 37 -62 73q-87 36 -193 36t-171.5 -21.5t-114 -57t-82.5 -81t-54.5 -94t-30 -95.5z" />
    <glyph glyph-name="ntilde" unicode="&#xf1;" horiz-adv-x="1418" 
d="M473 -7q0 -28 -31 -28l-52 5l-180 7q-55 3 -6 70l62 91q17 23 20 41.5t6 57.5t6 97.5t6.5 131.5t7.5 151t7 156.5t5 146.5q6 150 6 225q-7 30 -40 72.5t-47 60t-14 26.5q0 22 31 22t65.5 0.5t68.5 1.5l131 12q57 0 12 -70l-97 -110q-15 -19 -16 -27.5t-2.5 -37
t-3.5 -67.5q-4 -50 -7 -156q53 129 147 236q119 134 255 134q197 0 299 -283q31 -85 52.5 -203t35 -197.5t21.5 -128.5q15 -88 18 -100t15.5 -30t28.5 -35q34 -36 65 -50.5t31 -37t-18.5 -29.5t-50.5 -12q-102 -14 -137 -31q-43 -21 -62 -21q-49 0 -31 49l20 43
q42 100 42 124t-3.5 56.5t-8.5 74.5q-12 97 -23.5 149.5t-20.5 108.5t-22 118t-33 122.5t-51 109.5q-67 109 -177 109q-169 0 -297 -270q-94 -197 -103 -332q-21 -315 -21 -344t10 -52t23 -47l53 -88q5 -11 5 -22zM522 1557q0 -69 -38 -69q-19 0 -36.5 15.5t-23.5 38.5
q-21 71 -107 112q-31 15 -31 35t15.5 33.5t33.5 13.5l85 -12q26 0 38.5 7t28 17t35.5 20q84 42 155 17q57 -18 77 -41t27.5 -39t16.5 -32q43 -76 108 -76q76 0 86 82q3 23 3 48l-1 34q0 29 14.5 45.5t29.5 16.5q30 0 42.5 -32t35.5 -57.5t45.5 -46t39 -36t16.5 -33t-17 -31
t-42 -13.5l-70 7q-25 0 -34 -9t-23.5 -19t-36.5 -20q-97 -44 -178 -10q-63 26 -108 112q-38 71 -113 71q-40 0 -61 -39q-15 -26 -15 -57z" />
    <glyph glyph-name="ograve" unicode="&#xf2;" horiz-adv-x="1273" 
d="M677 115.5q-45 -4.5 -66 -4.5t-65 6t-96 23.5t-106 51t-98 88.5q-100 123 -100 322q0 190 126 337q115 136 254 159q88 27 207 9q114 -18 211 -89q111 -80 158 -242q24 -85 24 -196t-33 -187.5t-84 -128t-112 -82t-118 -46.5t-102 -20.5zM554 210.5q37 -6.5 57 -6.5
t56.5 4t82 17t95 37.5t90.5 66.5q94 96 94 252q0 319 -229 409q-175 68 -358 -29q-25 -13 -44 -22q-71 -49 -114 -154q-37 -90 -37 -178.5t20.5 -150t53 -105.5t73.5 -72.5t82 -45t78 -23zM413 1438q-45 0 -45 31q0 19 27.5 46.5t40.5 59t23.5 59t22 46.5t34.5 19t34 -22
t17.5 -50.5t12.5 -55.5t17 -35t35 -26.5t53 -40.5q72 -56 99 -71q45 -26 45 -52q0 -51 -45 -51q-34 0 -70 36q-17 17 -89.5 63t-84.5 51.5t-28 5.5z" />
    <glyph glyph-name="oacute" unicode="&#xf3;" horiz-adv-x="1273" 
d="M677 115.5q-45 -4.5 -66 -4.5t-65 6t-96 23.5t-106 51t-98 88.5q-100 123 -100 322q0 190 126 337q115 136 254 159q88 27 207 9q114 -18 211 -89q111 -80 158 -242q24 -85 24 -196t-33 -187.5t-84 -128t-112 -82t-118 -46.5t-102 -20.5zM554 210.5q37 -6.5 57 -6.5
t56.5 4t82 17t95 37.5t90.5 66.5q94 96 94 252q0 319 -229 409q-175 68 -358 -29q-25 -13 -44 -22q-71 -49 -114 -154q-37 -90 -37 -178.5t20.5 -150t53 -105.5t73.5 -72.5t82 -45t78 -23zM914 1444l-99 13q-16 0 -28 -5.5t-42 -24.5t-58 -39q-70 -47 -82 -59
q-28 -28 -55 -28t-39.5 13t-12.5 28q0 36 39 58q38 22 191 141q10 6 21 64q21 100 62 100q23 0 34 -18t21 -45t23 -58.5t32 -51.5q38 -40 38 -57q0 -31 -45 -31z" />
    <glyph glyph-name="ocircumflex" unicode="&#xf4;" horiz-adv-x="1273" 
d="M677 115.5q-45 -4.5 -66 -4.5t-65 6t-96 23.5t-106 51t-98 88.5q-100 123 -100 322q0 190 126 337q115 136 254 159q88 27 207 9q114 -18 211 -89q111 -80 158 -242q24 -85 24 -196t-33 -187.5t-84 -128t-112 -82t-118 -46.5t-102 -20.5zM554 210.5q37 -6.5 57 -6.5
t56.5 4t82 17t95 37.5t90.5 66.5q94 96 94 252q0 319 -229 409q-175 68 -358 -29q-25 -13 -44 -22q-71 -49 -114 -154q-37 -90 -37 -178.5t20.5 -150t53 -105.5t73.5 -72.5t82 -45t78 -23zM420 1339l3 -24q0 -43 -29 -58q-35 -20 -107 98q-8 15 -37.5 32t-40 28t-10.5 28
q0 36 59 36l81 -7q54 0 134 65q45 37 95 74t59.5 40t21.5 3q27 0 43 -18q63 -80 148 -143q27 -20 55 -39q33 -23 77.5 -32.5t59.5 -14.5q38 -14 38 -37q0 -27 -35 -46q-51 -27 -63.5 -39.5t-26 -27.5t-25.5 -28q-30 -29 -43.5 -29t-24 13t-10.5 36l1 40q0 47 -17 85
q-179 148 -187 155q-50 -17 -104 -58.5t-82 -60.5q-33 -27 -33 -71z" />
    <glyph glyph-name="otilde" unicode="&#xf5;" horiz-adv-x="1273" 
d="M677 115.5q-45 -4.5 -66 -4.5t-65 6t-96 23.5t-106 51t-98 88.5q-100 123 -100 322q0 190 126 337q115 136 254 159q88 27 207 9q114 -18 211 -89q111 -80 158 -242q24 -85 24 -196t-33 -187.5t-84 -128t-112 -82t-118 -46.5t-102 -20.5zM554 210.5q37 -6.5 57 -6.5
t56.5 4t82 17t95 37.5t90.5 66.5q94 96 94 252q0 319 -229 409q-175 68 -358 -29q-25 -13 -44 -22q-71 -49 -114 -154q-37 -90 -37 -178.5t20.5 -150t53 -105.5t73.5 -72.5t82 -45t78 -23zM427 1355q0 -69 -38 -69q-19 0 -36.5 15.5t-23.5 38.5q-21 71 -107 112
q-31 15 -31 35t15.5 33.5t33.5 13.5l85 -12q26 0 38.5 7t28 17t35.5 20q84 42 155 17q57 -18 77 -41t27.5 -39t16.5 -32q43 -76 108 -76q76 0 86 82q3 23 3 48l-1 34q0 29 14.5 45.5t29.5 16.5q30 0 42.5 -32t35.5 -57.5t45.5 -46t39 -36t16.5 -33t-17 -31t-42 -13.5l-70 7
q-25 0 -34 -9t-23.5 -19t-36.5 -20q-97 -44 -178 -10q-63 26 -108 112q-38 71 -113 71q-40 0 -61 -39q-15 -26 -15 -57z" />
    <glyph glyph-name="odieresis" unicode="&#xf6;" horiz-adv-x="1273" 
d="M677 115.5q-45 -4.5 -66 -4.5t-65 6t-96 23.5t-106 51t-98 88.5q-100 123 -100 322q0 190 126 337q115 136 254 159q88 27 207 9q114 -18 211 -89q111 -80 158 -242q24 -85 24 -196t-33 -187.5t-84 -128t-112 -82t-118 -46.5t-102 -20.5zM554 210.5q37 -6.5 57 -6.5
t56.5 4t82 17t95 37.5t90.5 66.5q94 96 94 252q0 319 -229 409q-175 68 -358 -29q-25 -13 -44 -22q-71 -49 -114 -154q-37 -90 -37 -178.5t20.5 -150t53 -105.5t73.5 -72.5t82 -45t78 -23zM827 1518q8 0 46 -7t172 -7q55 0 55 -34q0 -25 -33 -61q-77 -82 -84 -95
q-28 -47 -62 -25q-9 6 -14.5 17.5t-17.5 27.5t-28 36q-71 91 -71 118q0 30 37 30zM637 1470q0 -27 -34 -62q-75 -79 -84 -94q-42 -66 -82 -6l-80 116q-61 94 8 94l55 -6q75 -8 146 -8t71 -34z" />
    <glyph glyph-name="divide" unicode="&#xf7;" horiz-adv-x="1753" 
d="M194 784q-33 0 -33 -37l19 -69q12 -61 -10 -142q-9 -37 6 -54.5t27.5 -17.5t24.5 6t24 15q24 18 52 44.5t42.5 30t59 4t116.5 1t163 1.5q273 1 373 1q284 1 317 1t49 -9t32 -21q20 -17 49 -46q36 -36 53 -36q39 0 39 45l-11 101q0 42 6 73.5t6 50t-11.5 37t-29 18.5
t-33 -15.5t-34.5 -35.5q-48 -51 -90 -57t-113 -10.5t-157 -7.5q-429 -15 -680 3q-61 4 -86 19t-46 31l-70 55q-32 21 -54 21zM999 240l-61 -2q-97 0 -137 8q-45 10 -58.5 10t-23.5 -11q-21 -23 4.5 -60.5t61 -80t51.5 -74.5q42 -86 86 -10q13 23 36.5 47.5t45.5 48.5
q55 60 55 87q0 37 -60 37zM987 980l-61 2q-97 0 -137 -8q-45 -10 -58.5 -10t-23.5 11q-21 23 4.5 60.5t61 80t51.5 74.5q42 86 86 10q13 -23 36.5 -47.5t45.5 -48.5q55 -60 55 -87q0 -37 -60 -37z" />
    <glyph glyph-name="oslash" unicode="&#xf8;" horiz-adv-x="1274" 
d="M614 111q-131 0 -251 68l-45 -60q-25 -30 -27 -51.5t-2 -60.5t-7.5 -70.5t-35.5 -31.5q-16 0 -32.5 13.5t-23 26.5t-20.5 21q-33 20 -79 32q-73 19 -73 52q0 34 49 45v-1q84 20 136 50q19 19 81 93q-138 128 -138 365q0 190 126 337q115 136 254 159q55 17 114 17
q144 0 260 -67l72 100q17 17 17 33l-16 120q0 47 46 47q25 0 44.5 -17t40.5 -41q60 -71 96 -89q55 -28 55 -53q0 -32 -55 -39q-108 0 -154 -37q-6 -3 -69 -82q149 -140 149 -414q0 -201 -117 -320q-144 -145 -395 -145zM846 975q-88 47 -206 47q-62 0 -122.5 -31.5t-91 -50
t-55.5 -28.5q-79 -82 -107 -223q-27 -137 20 -253q27 -68 69 -113q207 263 493 652zM426 264q142 -86 324 -36q187 50 256 205q27 61 27 167.5t-31.5 188t-79.5 130.5l-160 -209l-262 -346q-40 -54 -74 -100z" />
    <glyph glyph-name="ugrave" unicode="&#xf9;" horiz-adv-x="1241" 
d="M899 246l1 23l-27 455l-50 -142q-68 -189 -96.5 -242.5t-54.5 -90t-59 -65.5q-75 -64 -161 -64q-257 0 -257 482l12 488q0 35 -26 62t-43 45q-31 31 -31 52q0 33 56 33l65 -3q76 0 122 12t56 12q25 0 25 -20q0 -35 -63 -95q-24 -22 -45 -44t-23 -38.5t-4.5 -63.5
t-5.5 -112q-12 -321 -3.5 -410.5t19 -135t28.5 -80.5q42 -80 118 -80q169 0 315 444q128 390 70 484q-13 20 -48 43q-50 33 -50 59q0 39 56 39l49 -1q73 0 112 8q43 10 49 10q31 0 31 -28t-32.5 -66t-48 -62t-16 -45t1.5 -61t5 -98t7 -128.5t8.5 -143.5t9.5 -143.5t9 -128.5
q11 -133 15 -152.5t9.5 -34.5t13.5 -27l62 -73q18 -36 -18 -47q-27 -7 -96.5 -7t-94.5 -7q-70 -22 -70 20q0 24 10.5 36.5t23.5 28.5t27 35q35 48 37 68zM289 1636q-45 0 -45 31q0 19 27.5 46.5t40.5 59t23.5 59t22 46.5t34.5 19t34 -22t17.5 -50.5t12.5 -55.5t17 -35
t35 -26.5t53 -40.5q72 -56 99 -71q45 -26 45 -52q0 -51 -45 -51q-34 0 -70 36q-17 17 -89.5 63t-84.5 51.5t-28 5.5z" />
    <glyph glyph-name="uacute" unicode="&#xfa;" horiz-adv-x="1241" 
d="M899 246l1 23l-27 455l-50 -142q-68 -189 -96.5 -242.5t-54.5 -90t-59 -65.5q-75 -64 -161 -64q-257 0 -257 482l12 488q0 35 -26 62t-43 45q-31 31 -31 52q0 33 56 33l65 -3q76 0 122 12t56 12q25 0 25 -20q0 -35 -63 -95q-24 -22 -45 -44t-23 -38.5t-4.5 -63.5
t-5.5 -112q-12 -321 -3.5 -410.5t19 -135t28.5 -80.5q42 -80 118 -80q169 0 315 444q128 390 70 484q-13 20 -48 43q-50 33 -50 59q0 39 56 39l49 -1q73 0 112 8q43 10 49 10q31 0 31 -28t-32.5 -66t-48 -62t-16 -45t1.5 -61t5 -98t7 -128.5t8.5 -143.5t9.5 -143.5t9 -128.5
q11 -133 15 -152.5t9.5 -34.5t13.5 -27l62 -73q18 -36 -18 -47q-27 -7 -96.5 -7t-94.5 -7q-70 -22 -70 20q0 24 10.5 36.5t23.5 28.5t27 35q35 48 37 68zM857 1620l-99 13q-16 0 -28 -5.5t-42 -24.5t-58 -39q-70 -47 -82 -59q-28 -28 -55 -28t-39.5 13t-12.5 28q0 36 39 58
q38 22 191 141q10 6 21 64q21 100 62 100q23 0 34 -18t21 -45t23 -58.5t32 -51.5q38 -40 38 -57q0 -31 -45 -31z" />
    <glyph glyph-name="ucircumflex" unicode="&#xfb;" horiz-adv-x="1241" 
d="M899 246l1 23l-27 455l-50 -142q-68 -189 -96.5 -242.5t-54.5 -90t-59 -65.5q-75 -64 -161 -64q-257 0 -257 482l12 488q0 35 -26 62t-43 45q-31 31 -31 52q0 33 56 33l65 -3q76 0 122 12t56 12q25 0 25 -20q0 -35 -63 -95q-24 -22 -45 -44t-23 -38.5t-4.5 -63.5
t-5.5 -112q-12 -321 -3.5 -410.5t19 -135t28.5 -80.5q42 -80 118 -80q169 0 315 444q128 390 70 484q-13 20 -48 43q-50 33 -50 59q0 39 56 39l49 -1q73 0 112 8q43 10 49 10q31 0 31 -28t-32.5 -66t-48 -62t-16 -45t1.5 -61t5 -98t7 -128.5t8.5 -143.5t9.5 -143.5t9 -128.5
q11 -133 15 -152.5t9.5 -34.5t13.5 -27l62 -73q18 -36 -18 -47q-27 -7 -96.5 -7t-94.5 -7q-70 -22 -70 20q0 24 10.5 36.5t23.5 28.5t27 35q35 48 37 68zM392 1525l3 -24q0 -43 -29 -58q-35 -20 -107 98q-8 15 -37.5 32t-40 28t-10.5 28q0 36 59 36l81 -7q54 0 134 65
q45 37 95 74t59.5 40t21.5 3q27 0 43 -18q63 -80 148 -143q27 -20 55 -39q33 -23 77.5 -32.5t59.5 -14.5q38 -14 38 -37q0 -27 -35 -46q-51 -27 -63.5 -39.5t-26 -27.5t-25.5 -28q-30 -29 -43.5 -29t-24 13t-10.5 36l1 40q0 47 -17 85q-179 148 -187 155q-50 -17 -104 -58.5
t-82 -60.5q-33 -27 -33 -71z" />
    <glyph glyph-name="udieresis" unicode="&#xfc;" horiz-adv-x="1241" 
d="M899 246l1 23l-27 455l-50 -142q-68 -189 -96.5 -242.5t-54.5 -90t-59 -65.5q-75 -64 -161 -64q-257 0 -257 482l12 488q0 35 -26 62t-43 45q-31 31 -31 52q0 33 56 33l65 -3q76 0 122 12t56 12q25 0 25 -20q0 -35 -63 -95q-24 -22 -45 -44t-23 -38.5t-4.5 -63.5
t-5.5 -112q-12 -321 -3.5 -410.5t19 -135t28.5 -80.5q42 -80 118 -80q169 0 315 444q128 390 70 484q-13 20 -48 43q-50 33 -50 59q0 39 56 39l49 -1q73 0 112 8q43 10 49 10q31 0 31 -28t-32.5 -66t-48 -62t-16 -45t1.5 -61t5 -98t7 -128.5t8.5 -143.5t9.5 -143.5t9 -128.5
q11 -133 15 -152.5t9.5 -34.5t13.5 -27l62 -73q18 -36 -18 -47q-27 -7 -96.5 -7t-94.5 -7q-70 -22 -70 20q0 24 10.5 36.5t23.5 28.5t27 35q35 48 37 68zM785 1688q8 0 46 -7t172 -7q55 0 55 -34q0 -25 -33 -61q-77 -82 -84 -95q-28 -47 -62 -25q-9 6 -14.5 17.5t-17.5 27.5
t-28 36q-71 91 -71 118q0 30 37 30zM595 1640q0 -27 -34 -62q-75 -79 -84 -94q-42 -66 -82 -6l-80 116q-61 94 8 94l55 -6q75 -8 146 -8t71 -34z" />
    <glyph glyph-name="yacute" unicode="&#xfd;" horiz-adv-x="1326" 
d="M486 -30l-49 -1q-54 0 -29 49q12 22 38 46.5t39 39.5q32 35 36.5 70t9 70.5t8.5 71.5l38 312q-237 77 -322 357q-25 80 -37.5 135t-26 69t-27 26t-32 25t-37.5 30q-49 41 -49 74q0 20 28.5 20t63.5 2.5t71 7.5q85 10 116.5 22t41.5 12q17 0 17 -17.5t-14 -39.5t-31 -47
q-46 -70 -46 -105t10 -83t30 -101.5t50 -107t70 -96.5q92 -97 204 -97q212 0 351 266q60 114 71 190q0 29 -48 84q-47 53 -47 71q0 26 30 26q8 0 44 -5t73.5 -5t58 2.5t36.5 5.5q43 8 55 8q59 0 15 -74q-19 -32 -53 -61q-68 -59 -81 -94t-32.5 -85.5t-47.5 -106.5
t-66 -111.5t-88 -100.5q-113 -100 -251 -104q-2 -12 -30 -222q-31 -226 -31 -240.5t15.5 -40t34 -49.5t34 -45.5t15.5 -39.5q0 -23 -36 -23zM972 1623l-99 13q-16 0 -28 -5.5t-42 -24.5t-58 -39q-70 -47 -82 -59q-28 -28 -55 -28t-39.5 13t-12.5 28q0 36 39 58
q38 22 191 141q10 6 21 64q21 100 62 100q23 0 34 -18t21 -45t23 -58.5t32 -51.5q38 -40 38 -57q0 -31 -45 -31z" />
    <glyph glyph-name="thorn" unicode="&#xfe;" horiz-adv-x="1224" 
d="M195 -114q-81 0 -81 36q0 23 68 79q84 68 88 129l-4 296l-4 390q-7 681 -11 701t-13 34t-20 27l-47 50q-46 46 -46 67q0 32 40 32l96 -11l134 15q25 0 47 -9q37 -16 16 -52q-6 -11 -27.5 -28t-39 -33t-27.5 -29q-17 -25 -17 -45v-206q0 -170 2 -352q41 140 151 215
q123 85 282 60q220 -36 284 -270q19 -69 19 -156.5t-18.5 -148.5t-48.5 -105t-68 -73t-78 -45q-171 -71 -345 19q-121 63 -172 177q7 -523 25 -566q21 -47 77 -90h-1q56 -44 56 -77t-46 -33l-153 9zM881 565q30 21 53 55q53 76 53 176t-14.5 155.5t-39 94.5t-55 63.5
t-62.5 38.5q-145 62 -270 -34q-101 -78 -135 -206q-24 -91 5 -185q42 -130 166 -184q161 -70 299 26z" />
    <glyph glyph-name="ydieresis" unicode="&#xff;" horiz-adv-x="1326" 
d="M486 -30l-49 -1q-54 0 -29 49q12 22 38 46.5t39 39.5q32 35 36.5 70t9 70.5t8.5 71.5l38 312q-237 77 -322 357q-25 80 -37.5 135t-26 69t-27 26t-32 25t-37.5 30q-49 41 -49 74q0 20 28.5 20t63.5 2.5t71 7.5q85 10 116.5 22t41.5 12q17 0 17 -17.5t-14 -39.5t-31 -47
q-46 -70 -46 -105t10 -83t30 -101.5t50 -107t70 -96.5q92 -97 204 -97q212 0 351 266q60 114 71 190q0 29 -48 84q-47 53 -47 71q0 26 30 26q8 0 44 -5t73.5 -5t58 2.5t36.5 5.5q43 8 55 8q59 0 15 -74q-19 -32 -53 -61q-68 -59 -81 -94t-32.5 -85.5t-47.5 -106.5
t-66 -111.5t-88 -100.5q-113 -100 -251 -104q-2 -12 -30 -222q-31 -226 -31 -240.5t15.5 -40t34 -49.5t34 -45.5t15.5 -39.5q0 -23 -36 -23zM932 1748q8 0 46 -7t172 -7q55 0 55 -34q0 -25 -33 -61q-77 -82 -84 -95q-28 -47 -62 -25q-9 6 -14.5 17.5t-17.5 27.5t-28 36
q-71 91 -71 118q0 30 37 30zM742 1700q0 -27 -34 -62q-75 -79 -84 -94q-42 -66 -82 -6l-80 116q-61 94 8 94l55 -6q75 -8 146 -8t71 -34z" />
    <glyph glyph-name="amacron" unicode="&#x101;" horiz-adv-x="1555" 
d="M1362 3q-47 0 -34 66q26 122 14 154l-184 289q-53 85 -112 187q-46 -125 -85.5 -205t-107.5 -162t-133 -140q-219 -195 -401 -195q-96 0 -153 62q-67 77 -23 223q58 194 280 353q200 144 427 197q61 15 109 20q-109 192 -142 261q-18 22 -51 33q-123 42 -140 52.5
t-17 24.5q0 32 52 48q90 25 159 81q39 33 76 33t37 -39l-37 -122q-11 -44 2 -69l212 -390q138 -247 255 -413q41 -59 63.5 -73.5t54.5 -27.5t61 -25q71 -30 71 -55q0 -28 -50.5 -48t-82 -41t-52 -38.5t-35.5 -29t-33 -11.5zM246 268q-13 -44 -13 -70t6 -44t17 -32
q26 -30 59 -30q60 0 136 30.5t136 76t117 104.5q122 127 189 258q60 114 92 210q-158 -14 -337 -103q-164 -81 -276 -202q-97 -105 -126 -198zM835 1743l-162 -3q-25 0 -58.5 -23.5t-56.5 -38.5q-38 -25 -62 -8q-16 12 -16 36t7 39t7 35.5t-4 36.5t-9 31q-19 62 -4 76
t30.5 14t31.5 -11.5t34 -26.5q52 -45 76 -54q100 1 148 1h99t47 3q8 3 48 37q50 50 86 50t36 -49q0 -17 -10 -48q-20 -59 -20 -96l3 -52q0 -47 -28 -47q-25 0 -49 29.5t-39 44.5t-33 19q-27 5 -102 5z" />
    <glyph glyph-name="cacute" unicode="&#x107;" horiz-adv-x="1536" 
d="M1405 306q0 -120 30 -219q25 -76 -23 -76q-20 0 -49 14.5t-42.5 26.5t-25.5 21q-40 32 -136 11q-191 -40 -282 -40t-148 10t-115.5 35t-114.5 68.5t-100 109.5q-97 145 -97 373q0 192 109 332q90 114 245 178q129 53 257 53l158 -14q79 0 135 56q26 26 55 26q41 0 27 -42
q-43 -129 -43 -218l4 -35q0 -16 -7.5 -28t-18.5 -12q-21 0 -42.5 31t-35.5 54t-28 41q-33 39 -71 44q-89 12 -142 12t-112 -14.5t-115.5 -41.5t-106 -67t-87.5 -91q-81 -111 -81 -252t42 -242.5t110 -163.5q127 -114 333 -114q87 0 161 16t114.5 28t67 24.5t42 26.5t25.5 29
l37 69q21 39 46 39t25 -58zM1194 1512l-99 13q-16 0 -28 -5.5t-42 -24.5t-58 -39q-70 -47 -82 -59q-28 -28 -55 -28t-39.5 13t-12.5 28q0 36 39 58q38 22 191 141q10 6 21 64q21 100 62 100q23 0 34 -18t21 -45t23 -58.5t32 -51.5q38 -40 38 -57q0 -31 -45 -31z" />
    <glyph glyph-name="ccircumflex" unicode="&#x109;" horiz-adv-x="1536" 
d="M1405 306q0 -120 30 -219q25 -76 -23 -76q-20 0 -49 14.5t-42.5 26.5t-25.5 21q-40 32 -136 11q-191 -40 -282 -40t-148 10t-115.5 35t-114.5 68.5t-100 109.5q-97 145 -97 373q0 192 109 332q90 114 245 178q129 53 257 53l158 -14q79 0 135 56q26 26 55 26q41 0 27 -42
q-43 -129 -43 -218l4 -35q0 -16 -7.5 -28t-18.5 -12q-21 0 -42.5 31t-35.5 54t-28 41q-33 39 -71 44q-89 12 -142 12t-112 -14.5t-115.5 -41.5t-106 -67t-87.5 -91q-81 -111 -81 -252t42 -242.5t110 -163.5q127 -114 333 -114q87 0 161 16t114.5 28t67 24.5t42 26.5t25.5 29
l37 69q21 39 46 39t25 -58zM729 1466l3 -24q0 -43 -29 -58q-35 -20 -107 98q-8 15 -37.5 32t-40 28t-10.5 28q0 36 59 36l81 -7q54 0 134 65q45 37 95 74t59.5 40t21.5 3q27 0 43 -18q63 -80 148 -143q27 -20 55 -39q33 -23 77.5 -32.5t59.5 -14.5q38 -14 38 -37
q0 -27 -35 -46q-51 -27 -63.5 -39.5t-26 -27.5t-25.5 -28q-30 -29 -43.5 -29t-24 13t-10.5 36l1 40q0 47 -17 85q-179 148 -187 155q-50 -17 -104 -58.5t-82 -60.5q-33 -27 -33 -71z" />
    <glyph glyph-name="Dcroat" unicode="&#x110;" horiz-adv-x="1501" 
d="M155 -3q0 18 12 33t25 33t28 37t27 36q28 41 28 56q-9 122 -34 628q-41 -6 -57 -9t-37 -25.5t-40 -48t-36.5 -46t-36.5 -20.5q-31 0 -31 38l13 139l-11 112q0 49 53 14l90 -62q21 -14 33 -14l56 6q-18 369 -32 553q-2 24 -28 50l-82 76q-24 24 -24 46q0 31 39 31l96 -11
q52 0 100 10q67 14 96.5 14t29.5 -28q0 -22 -42 -56q-88 -71 -88 -124l1 -36l195 51q382 92 647 -56q144 -81 209 -247q34 -87 34 -224t-50 -255t-132.5 -205.5t-189 -147.5t-219.5 -98q-203 -68 -427 -83q6 -18 42.5 -61.5t51 -63.5t14.5 -35q0 -34 -60 -34l-100 2
q-30 0 -65 -7q-98 -20 -98 32zM336 833l24 -566h21q315 0 596 181q192 123 271 302q40 93 40 214.5t-42.5 213t-113.5 146.5q-133 102 -356 102t-467 -86l24 -425q135 14 351 51q37 7 83 54.5t65 64.5t36 17q30 0 30 -66l-5 -101q0 -45 6 -63t7 -28q0 -68 -58 -54
q-9 2 -18 8l-42 27q-78 49 -103 49l-32 -4l-198 -22q-62 -8 -119 -15z" />
    <glyph glyph-name="dcroat" unicode="&#x111;" horiz-adv-x="1114" 
d="M779 -34q-41 0 -41 39q0 15 22 67q36 83 36 102.5t-8.5 47.5t-15.5 66q-60 -135 -196 -172q-99 -27 -222 12q-166 52 -222 202q-22 59 -22 147t34 158t88 115q107 91 256 91q100 0 188 -70q30 -24 54 -56q-11 218 -11 333v142q0 27 1 54h-84q-59 0 -100 -42
q-15 -16 -28.5 -29t-34.5 -13q-32 0 -32 43l15 114l-5 83q0 20 9 33.5t22 13.5q26 0 54 -44q23 -37 68 -61q10 -5 41.5 -5t77.5 -2q3 78 9 156q0 45 -94 151q-22 25 -22 45q0 32 33.5 32t73 -9t79.5 -9l95 10q26 0 46 -12t20 -32t-32 -53q-81 -86 -93 -105q-19 -30 -25 -179
q139 -8 176 20q21 15 38.5 32.5t33.5 31.5t36 14q32 0 32 -46l-7 -108l12 -92q0 -38 -37 -38q-14 0 -34 14q-74 72 -115 80l-138 4q-1 -26 -1 -52v-56q0 -668 76 -918q9 -32 55 -49q62 -24 72 -31q67 -49 9 -76q-15 -6 -91.5 -31t-93.5 -39q-31 -24 -57 -24zM209 468
q0 -55 15 -97t39 -72.5t55 -50.5t63 -32q167 -63 267 44q71 76 71 209q0 134 -77 213q-69 71 -162 71q-119 0 -196 -87q-75 -82 -75 -198z" />
    <glyph glyph-name="Emacron" unicode="&#x112;" horiz-adv-x="1289" 
d="M841 693h-348.5t-286.5 -13v-23q5 -258 124 -419q132 -179 410 -237q134 -28 166 -28t59 14t49 31t40.5 31t34.5 14q29 0 29 -33t-17 -76q-37 -93 -41 -187q-2 -44 -31 -44q-39 0 -100 97q-36 56 -107 68q-576 82 -692 540q-24 98 -24 238.5t43.5 262t113.5 213t157 155
t175 103.5q158 73 301 84q51 2 105 78q53 73 85 73q50 0 32 -67q-14 -56 10 -199q6 -37 -5 -52t-23 -15q-25 0 -49 36q-39 56 -122 56q-95 0 -162.5 -20.5t-134 -55t-133.5 -85.5t-124 -117q-128 -150 -159 -327q28 -2 60 -2h70q178 0 502 12q19 1 55 29q105 80 130 80
q36 0 36 -46l-29 -132q-5 -30 -5 -64l2 -39q0 -50 -33 -50q-20 0 -36.5 17.5t-34.5 39.5q-47 56 -92 59zM833 1855l-162 -3l-44 -20q-23 -11 -58 -34q-70 -45 -87 1q-11 29 -0.5 51t10.5 42.5t-4 36.5t-9 31q-19 62 -4 76t30.5 14t31.5 -11.5t34 -26.5q52 -45 76 -54
q100 1 148 1h99t47 3q8 3 48 37q50 50 86 50t36 -49q0 -17 -10 -48q-20 -59 -20 -96l3 -52q0 -49 -34 -49q-28 0 -58 43q-33 46 -53 51q-31 6 -106 6z" />
    <glyph glyph-name="hbar" unicode="&#x127;" horiz-adv-x="1333" 
d="M340 33l-110 -10q-29 0 -29 24t15.5 46t33.5 45q49 61 49 102q0 8 30 1118l-66 -3q-38 -8 -76.5 -42t-57 -48.5t-32.5 -14.5q-44 0 -32 48q25 99 25 173l-5 64q0 30 20 30q18 0 58 -43q76 -80 93 -80h75q2 86 2 136l-1 37q0 22 -71 89q-16 15 -29.5 28t-13.5 28
q0 25 37 25t76.5 3.5t74.5 7.5q97 13 103 13q70 0 -15 -101q-63 -76 -67 -107q-4 -24 -6 -159l122 2q44 0 103 56q21 20 40 37t38 17q33 0 33 -57l-9 -107q0 -9 5 -36l7 -40q14 -73 -36 -73q-8 0 -22.5 12t-42 33t-41 32t-25.5 18q-26 17 -63 17t-111 4l-4 -249
q-2 -118 -2 -193q45 90 125 155q91 76 185 76q158 0 235 -160q42 -86 58 -166.5t38 -200.5q56 -318 61.5 -336.5t18 -36.5t28.5 -35q38 -38 59 -49q63 -31 26 -64q-13 -11 -98.5 -26t-108.5 -27q-32 -16 -50 -16q-52 0 -26 60l32 71q24 64 25 83.5t-2 45t-7.5 61.5
t-10.5 79.5t-13 86.5q-36 224 -56.5 288.5t-40 105t-45.5 72.5q-58 70 -138 70q-94 0 -168 -96q-79 -100 -121 -270q-19 -76 -22 -226l-6 -222q0 -51 87 -144q16 -18 16 -39q0 -29 -31 -29z" />
    <glyph glyph-name="Itilde" unicode="&#x128;" horiz-adv-x="696" 
d="M302 1l-73 -10q-55 0 -55 42q2 17 14.5 32t25.5 31.5t29.5 35t29.5 34.5q30 39 30 56l4 696q0 239 -5 427q0 31 -68 95q-58 55 -58 84q0 43 86 21q72 -18 140.5 -5.5t102 12.5t33.5 -28q0 -21 -34.5 -47.5t-56 -48.5t-32.5 -40q-16 -26 -16 -63l4 -489l-10 -570v-30
q0 -14 1.5 -38t27 -56t44.5 -58q31 -42 31 -60q0 -32 -54 -32zM99 1657q0 -37 -26 -37q-17 0 -35 13.5t-25.5 27.5t-16.5 28t-23 27q-31 28 -66 38q-55 14 -55 39q0 14 12.5 25.5t29.5 11.5l32 -1q66 3 81 16t30.5 32.5t39.5 39.5q60 50 144 50q92 0 155 -79l34 -44
q58 -73 115 -73q62 0 101 35q34 32 6 149q-7 33 5.5 48t24.5 15q26 -2 44 -32q45 -72 112 -97q45 -19 45 -45q0 -16 -15.5 -27.5t-48.5 -14t-53.5 -6t-28.5 -15t-24.5 -27.5t-42.5 -32q-89 -55 -179 -37q-50 10 -84 44t-52 56.5t-35 42.5q-46 50 -82.5 50t-58.5 -9.5
t-37 -22.5q-30 -27 -36 -48t-6 -37z" />
    <glyph glyph-name="itilde" unicode="&#x129;" horiz-adv-x="877" 
d="M352 -52q-51 0 -51 38q0 16 28 53.5t54.5 73t29.5 55.5l22 827q-1 30 -20.5 53t-42.5 44t-42 41t-19 43q0 44 71 27q54 -13 116 -13l113 5q51 0 51 -38q0 -21 -30.5 -44.5t-50 -40.5t-30.5 -30q-19 -21 -19 -39l-21 -769l1 -68q0 -43 29.5 -85.5t43 -61.5t13.5 -33
q0 -35 -57 -35l-44 2zM284 1516q0 -69 -38 -69q-19 0 -36.5 15.5t-23.5 38.5q-21 71 -107 112q-31 15 -31 35t15.5 33.5t33.5 13.5l85 -12q26 0 38.5 7t28 17t35.5 20q84 42 155 17q57 -18 77 -41t27.5 -39t16.5 -32q43 -76 108 -76q76 0 86 82q3 23 3 48l-1 34
q0 29 14.5 45.5t29.5 16.5q30 0 42.5 -32t35.5 -57.5t45.5 -46t39 -36t16.5 -33t-17 -31t-42 -13.5l-70 7q-25 0 -34 -9t-23.5 -19t-36.5 -20q-97 -44 -178 -10q-63 26 -108 112q-38 71 -113 71q-40 0 -61 -39q-15 -26 -15 -57z" />
    <glyph glyph-name="Imacron" unicode="&#x12a;" horiz-adv-x="626" 
d="M268 1l-73 -10q-55 0 -55 42q2 17 14.5 32t25.5 31.5t29.5 35t29.5 34.5q30 39 30 56l4 696q0 239 -5 427q0 31 -68 95q-58 55 -58 84q0 43 86 21q72 -18 140.5 -5.5t102 12.5t33.5 -28q0 -21 -34.5 -47.5t-56 -48.5t-32.5 -40q-16 -26 -16 -63l4 -489l-10 -570v-30
q0 -14 1.5 -38t27 -56t44.5 -58q31 -42 31 -60q0 -32 -54 -32zM382 1899l-162 -3l-44 -20q-23 -11 -58 -34q-70 -45 -87 1q-11 29 -0.5 51t10.5 42.5t-4 36.5t-9 31q-19 62 -4 76t30.5 14t31.5 -11.5t34 -26.5q52 -45 76 -54q100 1 148 1h99t47 3q8 3 48 37q50 50 86 50
t36 -49q0 -17 -10 -48q-20 -59 -20 -96l3 -52q0 -49 -34 -49q-28 0 -58 43q-33 46 -53 51q-31 6 -106 6z" />
    <glyph glyph-name="dotlessi" unicode="&#x131;" horiz-adv-x="777" 
d="M302 -52q-51 0 -51 38q0 16 28 53.5t54.5 73t29.5 55.5l22 827q-1 30 -20.5 53t-42.5 44t-42 41t-19 43q0 44 71 27q54 -13 116 -13l113 5q51 0 51 -38q0 -21 -30.5 -44.5t-50 -40.5t-30.5 -30q-19 -21 -19 -39l-21 -769l1 -68q0 -43 29.5 -85.5t43 -61.5t13.5 -33
q0 -35 -57 -35l-44 2z" />
    <glyph glyph-name="IJ" unicode="&#x132;" horiz-adv-x="1202" 
d="M204 331q-55 0 -55 42q1 18 14 32.5t26 31t29 35.5t30 36q30 37 30 54v168q0 65 -11 615q0 31 -69 95q-57 55 -57 84q0 43 87 21q71 -18 139.5 -5.5t102 12.5t33.5 -28q0 -21 -45 -55q-92 -71 -94 -121l-2 -254v-245q0 -180 3.5 -248.5t11.5 -85.5t19 -33l55 -71
q55 -79 -33 -79l-141 9zM1119 1576q64 0 -6 -73l-83 -81q-21 -23 -23 -47l-17 -789q-2 -98 -8 -198t-33.5 -180t-78.5 -142q-98 -117 -312 -198q-29 -11 -66 -55t-46.5 -58.5t-18.5 -29t-19 -27.5q-51 -67 -62 11q-15 88 -31.5 126.5t-24 55t-15 32.5t-15.5 31q-36 75 4 75
q18 0 55 -14t67.5 -24.5t51.5 -16.5q80 -22 138.5 -2t95.5 44q178 110 208 318q13 85 20.5 386.5t9.5 377.5l5 218l1 23q0 50 -11.5 63.5t-28 30t-34.5 33.5q-43 41 -54 48q-15 10 -15 44t28 34l125 -20q17 -2 33 -2h30z" />
    <glyph glyph-name="ij" unicode="&#x133;" horiz-adv-x="1579" 
d="M248 204q-51 0 -51 38q0 16 28 53.5t54.5 73t28 46t3 43t4 83t5.5 114t6 127.5q5 139 5 219q-1 30 -20.5 53t-42.5 44t-42 41t-19 43q0 44 71 27q54 -13 116 -13l113 5q51 0 51 -38q0 -21 -30.5 -44.5t-50 -40.5t-30.5 -30q-19 -21 -19 -39l-21 -525l1 -62
q0 -43 29.5 -85.5t43 -61.5t13.5 -33q0 -35 -57 -35l-44 2zM515 1800q88 0 45 -58l-112 -134q-38 -71 -70 -3l-76 95q-46 64 -46 84q0 29 37 29q115 -14 194 -14zM1341 1406q55 10 55 -18q0 -31 -41 -58q-56 -36 -78 -124q-11 -44 0 -255.5t15 -291.5q24 -418 24 -503
t-4 -141.5t-11 -101.5q-42 -272 -211 -323q-120 -38 -256 42q-97 58 -149 61.5t-71.5 19.5t-19.5 35.5t22 32.5q51 29 100.5 57.5t82.5 63.5t53 35q30 0 30 -52l-3 -52q0 -107 65 -147q47 -28 114 -8q50 16 78.5 49t45.5 78q38 105 30 363q-23 819 -47 1016q-5 38 -34 67.5
t-63 54.5q-59 44 -59 74t38 30t88 -9t84 -9t53 2zM1322 1828q88 0 44 -58l-111 -134q-38 -71 -70 -3l-75 95q-47 64 -47 84q0 29 37 29q116 -14 194 -14z" />
    <glyph glyph-name="Jcircumflex" unicode="&#x134;" horiz-adv-x="986" 
d="M895 1614q64 0 -6 -73l-83 -81q-21 -23 -23 -47l-16 -789q-3 -98 -9 -198t-33.5 -180t-79.5 -142q-97 -117 -311 -198q-29 -11 -66 -55t-46.5 -58.5t-18.5 -29t-19 -27.5q-51 -67 -62 11q-15 88 -31.5 126.5t-24 55t-15 32.5t-14.5 31q-37 75 3 75q18 0 55 -14
t67.5 -24.5t52.5 -16.5q79 -22 137.5 -2t96.5 44q177 110 208 318q12 85 19.5 386.5t9.5 377.5l5 218l1 23q0 50 -11.5 63.5t-28 30t-34.5 33.5q-43 41 -54 48q-15 10 -15 44t28 34l125 -20q17 -2 33 -2h30zM472 1770l3 -24q0 -43 -29 -58q-35 -20 -107 98q-8 15 -37.5 32
t-40 28t-10.5 28q0 36 59 36l81 -7q54 0 134 65q45 37 139 104q26 30 59 1.5t59.5 -48.5t53.5 -37q32 -19 128 -67q33 -13 77 -14.5t61 -5.5q40 -10 40 -34q0 -26 -22 -41q-48 -36 -61 -53l-45 -66q-23 -34 -38 -34q-36 0 -41 49q-8 72 -18 88t-17 26q-51 31 -103.5 60
t-105.5 64l-105 -64q-12 -8 -81 -55q-33 -27 -33 -71z" />
    <glyph glyph-name="jcircumflex" unicode="&#x135;" horiz-adv-x="835" 
d="M638 1406q55 10 55 -18q0 -31 -41 -58q-56 -36 -78 -124q-11 -44 0 -255.5t16 -291.5q23 -418 23 -503t-4 -141.5t-11 -101.5q-42 -272 -210 -323q-121 -38 -256 42q-98 58 -150 61.5t-71.5 19.5t-19.5 35.5t22 32.5q51 29 100.5 57.5t82.5 63.5t53 35q30 0 30 -52
l-3 -52q0 -107 66 -147q46 -28 112 -8q51 16 79.5 49t44.5 78q39 105 32 363q-24 819 -48 1016q-5 38 -34 67.5t-64 54.5q-58 44 -58 74t38 30t88 -9t84 -9t53 2zM307 1637l3 -24q0 -43 -29 -58q-35 -20 -107 98q-8 15 -37.5 32t-40 28t-10.5 28q0 36 59 36l81 -7
q54 0 134 65q45 37 95 74t59.5 40t21.5 3q27 0 43 -18q63 -80 148 -143q27 -20 55 -39q33 -23 77.5 -32.5t59.5 -14.5q38 -14 38 -37q0 -27 -35 -46q-51 -27 -63.5 -39.5t-26 -27.5t-25.5 -28q-30 -29 -43.5 -29t-24 13t-10.5 36l1 40q0 47 -17 85q-179 148 -187 155
q-50 -17 -104 -58.5t-82 -60.5q-33 -27 -33 -71z" />
    <glyph glyph-name="Kcommaaccent" unicode="&#x136;" horiz-adv-x="1395" 
d="M183 -102q-53 0 -53 39q0 29 46 77t67 73t23 45q66 852 54 1301q0 33 -72 100q-20 18 -41 39t-21 43q0 31 39 31l126 -11q57 0 94 5t60 5q51 0 51 -34q0 -22 -42 -56q-97 -79 -97 -114l1 -92q0 -265 -13 -486l-5 -82q157 129 348 310q239 228 326 317q21 36 32 146
q9 55 43 55q21 0 36.5 -19t32.5 -47q52 -85 85 -110q71 -55 43 -81q-16 -14 -62 -14q-97 16 -146 -14h-1q-44 -26 -335.5 -295.5t-326.5 -301.5q318 -277 690 -561q48 -18 104 -20.5t94.5 -5.5t55 -10t16.5 -23.5t-6 -26.5t-16 -18l-44 -31q-41 -37 -70 -89t-41.5 -68
t-30.5 -16q-35 0 -45 48q-13 61 -40.5 122t-34.5 69l-31 25q-484 392 -661 549l-23 -22q-27 -373 -27 -431.5t4 -84t14 -50.5q21 -51 47 -84q39 -48 39 -65q0 -34 -60 -34l-152 9q-26 0 -38 -4q-21 -7 -36 -7zM1000 -88q0 -16 -14 -38t-35 -61.5t-51 -82.5
q-73 -109 -153 -157q-45 -27 -74 9q-15 18 -15 34t6.5 20t25 9.5t38.5 15.5q52 26 52 68q0 21 -18.5 41.5t-39.5 48.5q-45 58 -52 72q-24 50 28 50l117 -9q81 0 108 8q77 22 77 -28z" />
    <glyph glyph-name="kcommaaccent" unicode="&#x137;" horiz-adv-x="1167" 
d="M264 35l-118 -6q-32 0 -32 26q0 20 15 40.5t33 43.5q49 60 51 89t3 76.5t1.5 117.5t1.5 157.5t1 182.5q2 285 2 382v178q0 81 -2 141l-66 86q-43 56 -43 81q0 34 29 27q99 -23 230 1q54 10 54 -17q0 -28 -33 -71t-51 -68t-24 -50l-5 -714q236 182 415 361
q19 19 29.5 97.5t22.5 91t30.5 12.5t33.5 -19t32 -47q52 -85 93.5 -117t41.5 -54q0 -35 -59 -35l-71 5q-57 0 -76 -11t-42.5 -29t-57.5 -46t-76 -62.5t-85 -70.5q-70 -57 -162 -136q408 -353 501 -420q24 -17 61 -20t72.5 -5t61 -8t25.5 -26.5t-17 -38t-40 -36.5
q-68 -55 -83 -83q-47 -92 -87 -49q-15 15 -21 61t-9 65q-7 45 -21 61l-323 281q-92 80 -191 167q-2 -206 -2 -388q0 -21 35 -70q65 -93 65 -118t-28 -25zM714 -88q0 -16 -14 -38t-35 -61.5t-51 -82.5q-73 -109 -153 -157q-45 -27 -74 9q-15 18 -15 34t6.5 20t25 9.5
t38.5 15.5q52 26 52 68q0 21 -18.5 41.5t-39.5 48.5q-45 58 -52 72q-24 50 28 50l117 -9q81 0 108 8q77 22 77 -28z" />
    <glyph glyph-name="kgreenlandic" unicode="&#x138;" horiz-adv-x="1077" 
d="M145 29q-32 0 -32 26q0 22 31 64q61 83 69 122q15 381 6 862l-67 86q-42 56 -42 81q0 34 30 27q98 -23 229 1q54 10 54 -17q0 -28 -33 -71t-51 -68t-24 -50l-5 -384q249 190 415 361q22 37 31 106.5t21 82t30.5 12.5t33.5 -19t32 -47q52 -85 93.5 -117t41.5 -54
q0 -35 -59 -35l-71 5q-60 0 -89 -18h-1q-34 -17 -409 -337q217 -188 420 -332q52 -37 78.5 -56t63.5 -22t72.5 -5t61 -8t25.5 -26.5t-17 -38t-41 -36.5q-67 -55 -82 -83q-47 -92 -87 -49q-15 15 -21 61t-9 65q-7 45 -21 61l-158 123q-203 160 -356 295l-2 -271v-87
q0 -19 34 -70q66 -95 66 -119t-28 -24l-86 4z" />
    <glyph glyph-name="Ldot" unicode="&#x13f;" horiz-adv-x="1321" 
d="M164 -70q-81 0 -81 37q0 18 14 33.5t28 32t32 32.5t33 31q37 34 37 48q0 207 15 467q27 493 27 700q0 33 -63 97q-56 55 -56 84q0 40 60 27l65 -14q50 -9 107.5 -1t80.5 8q49 0 49 -29q0 -18 -32 -44q-82 -55 -112 -127q-6 -17 -11.5 -233.5t-10.5 -374.5l-19 -530
q188 -51 598 -88q50 0 125 69q19 18 37 18q39 0 39 -46l-32 -135q-6 -30 -6 -64l2 -36q0 -51 -34 -51q-19 0 -35.5 18.5t-34.5 42.5q-49 65 -87.5 75.5t-84 20t-97 18.5t-105 17.5t-104.5 15.5l-175 24q11 -66 31 -96q32 -50 32 -64q0 -39 -74 -30q-24 3 -65 18
q-75 29 -93 29zM1169 862q60 0 60 -37q0 -27 -38.5 -69t-62 -66.5t-33.5 -43.5q-47 -82 -82 -8q-23 46 -58 88q-76 91 -76 110q0 51 57 40q75 -16 172 -16z" />
    <glyph glyph-name="ldot" unicode="&#x140;" horiz-adv-x="1080" 
d="M853 25q-38 0 -75 8t-92 8q-16 -2 -65 -22q-92 -39 -166 -37t-128 34.5t-87 95.5q-64 119 -64 375l14 924q0 204 -19 256q-13 36 -34 50t-43 30t-22 37q0 34 62 34l75 -4l168 7q50 0 50 -34q0 -21 -19.5 -36.5t-44.5 -34.5q-67 -51 -74 -116q-16 -136 -16 -1113
q0 -391 157 -413q57 -9 88 0.5t53 19.5q16 7 73 38q19 10 31.5 39.5t25.5 73t27 54t29.5 10.5t24 -14t18.5 -40q31 -87 56 -122q72 -100 -3 -108zM925 1162q60 0 60 -37q0 -27 -38.5 -69t-62 -66.5t-33.5 -43.5q-47 -82 -82 -8q-23 46 -58 88q-76 91 -76 110q0 51 57 40
q75 -16 172 -16z" />
    <glyph glyph-name="Lslash" unicode="&#x141;" horiz-adv-x="1198" 
d="M218 -70q-81 0 -81 37q0 18 14 33.5t28 32t32 32.5t34 31q36 34 36 48q0 153 13 423l-57 -32q-43 -24 -62 -65t-32 -89q-17 -43 -44 -43q-22 0 -33 38q-30 98 -95 201q-31 48 14 48q2 0 75 -19q92 -24 99 -17q46 30 141 76q23 463 23 646q0 33 -64 97q-55 55 -55 84
q0 40 61 27l64 -14q50 -9 107.5 -1t80.5 8q49 0 49 -29q0 -18 -32 -44q-82 -55 -111 -127q-7 -17 -12.5 -233.5t-8.5 -308.5l-2 -55q163 87 264 160q29 19 42.5 51t22.5 62.5t19 53t27 22.5t28 -11.5t22 -32.5l56 -107l54 -71q5 -9 5 -22q0 -38 -45 -38l-99 12q-34 4 -49 4
t-48.5 -15.5t-81.5 -40.5q-93 -47 -220 -118l-16 -450q180 -35 525 -46q45 -2 69 -2q54 0 129 69q19 18 37 18q39 0 39 -46l-32 -135q-6 -30 -6 -64l2 -36q0 -51 -34 -51q-21 0 -38 21t-34 46q-45 67 -84 70.5t-85 8.5t-97 10t-104.5 10.5t-104.5 10.5q-118 12 -176 15
q11 -66 31 -96q32 -50 32 -64q0 -39 -74 -30q-24 3 -65 18q-75 29 -93 29z" />
    <glyph glyph-name="lslash" unicode="&#x142;" horiz-adv-x="1050" 
d="M976 25q-38 0 -75 8t-92 8q-16 -2 -65 -22q-92 -39 -166 -37t-128 34.5t-87 95.5q-64 119 -64 375q0 105 4 297l-54 -29q-67 -37 -94 -144q-17 -43 -44 -43q-22 0 -33 38q-30 98 -95 201q-31 48 14 48q2 0 75 -19q87 -23 99 -17q53 27 134 65l8 410q1 245 -5.5 299.5
t-13.5 73.5t-17 32q-8 10 -45 37t-37 48q0 34 62 34l75 -4l168 7q50 0 50 -34q0 -21 -19.5 -36.5t-43.5 -34.5q-68 -52 -75 -116q-9 -76 -14 -674q126 59 206 101q29 19 44 51t26 62.5t22.5 53t28.5 22.5t28 -11.5t22 -32.5l56 -107l54 -71q5 -9 5 -22q0 -38 -45 -38l-99 12
q-34 4 -49 4t-43.5 -10t-68.5 -26q-73 -30 -188 -84q-1 -93 -1 -180v-163q0 -391 157 -413q57 -9 88 0.5t53 19.5q16 7 73 38q19 10 31.5 39.5t25.5 73t27 54t29.5 10.5t24 -14t18.5 -40q31 -87 56 -122q72 -100 -3 -108z" />
    <glyph glyph-name="Nacute" unicode="&#x143;" horiz-adv-x="1722" 
d="M402 22q0 -40 -93 -21q-69 15 -193 15q-29 0 -29 24q0 30 30 45t47 28.5t26 30.5q18 32 29 122.5t19.5 165t18 164.5t19.5 180.5t19 175.5l31 293q0 43 -66 99q-19 16 -40 26q-38 17 -38 39q0 43 46 43l143 -9q44 0 78.5 5.5t65 5.5t30.5 -27q0 -31 -34 -47
q-83 -39 -103 -106q41 -96 475 -627q427 -523 454 -523q3 0 0 6l82 1166q0 28 -26 65t-51 70t-25 51q0 25 30.5 25t65.5 -6t83 -6l105 5q79 0 9 -70l-38 -38q-41 -44 -49.5 -65.5t-13.5 -70t-11.5 -126.5t-13.5 -177t-14.5 -205.5t-14 -212.5t-11.5 -197q-11 -202 -11 -264
l1 -33q0 -43 -17 -61t-33 -18q-26 0 -36.5 10.5t-38.5 43t-73 86t-104.5 123.5t-125.5 148.5t-135.5 162t-135.5 164t-125.5 153.5t-105.5 131q-97 124 -105 148q-95 -885 -95 -906v-26q0 -42 18 -67l40 -49t40 -62zM1147 1785l-99 13q-16 0 -28 -5.5t-42 -24.5t-58 -38
q-70 -48 -82 -60q-28 -28 -55 -28t-39.5 13t-12.5 29q0 35 39 57q38 22 191 141q10 6 21 64q21 100 62 100q23 0 34 -18t21 -45t23 -58.5t32 -51.5q38 -40 38 -57q0 -31 -45 -31z" />
    <glyph glyph-name="nacute" unicode="&#x144;" horiz-adv-x="1418" 
d="M473 -7q0 -28 -31 -28l-52 5l-180 7q-55 3 -6 70l62 91q17 23 20 41.5t6 57.5t6 97.5t6.5 131.5t7.5 151t7 156.5t5 146.5q6 150 6 225q-7 30 -40 72.5t-47 60t-14 26.5q0 22 31 22t65.5 0.5t68.5 1.5l131 12q57 0 12 -70l-97 -110q-15 -19 -16 -27.5t-2.5 -37
t-3.5 -67.5q-4 -50 -7 -156q53 129 147 236q119 134 255 134q197 0 299 -283q31 -85 52.5 -203t35 -197.5t21.5 -128.5q15 -88 18 -100t15.5 -30t28.5 -35q34 -36 65 -50.5t31 -37t-18.5 -29.5t-50.5 -12q-102 -14 -137 -31q-43 -21 -62 -21q-49 0 -31 49l20 43
q42 100 42 124t-3.5 56.5t-8.5 74.5q-12 97 -23.5 149.5t-20.5 108.5t-22 118t-33 122.5t-51 109.5q-67 109 -177 109q-169 0 -297 -270q-94 -197 -103 -332q-21 -315 -21 -344t10 -52t23 -47l53 -88q5 -11 5 -22zM1037 1608l-99 13q-16 0 -28 -5.5t-42 -24.5t-58 -39
q-70 -47 -82 -59q-28 -28 -55 -28t-39.5 13t-12.5 28q0 36 39 58q38 22 191 141q10 6 21 64q21 100 62 100q23 0 34 -18t21 -45t23 -58.5t32 -51.5q38 -40 38 -57q0 -31 -45 -31z" />
    <glyph glyph-name="Ohungarumlaut" unicode="&#x150;" horiz-adv-x="1451" 
d="M966.5 13q-111.5 -56 -213.5 -56t-178 20t-145 62t-128.5 108t-103.5 159q-93 200 -93 485q0 347 176 565q175 217 452 217q263 0 421 -163q184 -192 184 -597q0 -400 -178 -635q-82 -109 -193.5 -165zM722 53q62 -1 119 13.5t113 48.5t106.5 90t89.5 141q84 185 84 465
q0 554 -354 649q-88 23 -139.5 23t-109 -12.5t-116 -41.5t-114.5 -77.5t-99 -121.5q-96 -161 -96 -399q0 -536 273 -708q107 -68 243 -70zM752 1845l-99 13q-16 0 -28 -5.5t-42 -24.5t-59 -38q-69 -48 -81 -60q-28 -28 -55 -28t-39.5 13t-12.5 29q0 35 39 57q38 22 191 141
q10 6 21 64q21 100 62 100q23 0 34 -18t21 -45t23 -58.5t32 -51.5q38 -40 38 -57q0 -31 -45 -31zM1294 1815l-99 13q-16 0 -28 -5.5t-42 -24.5t-59 -38q-69 -48 -81 -60q-28 -28 -55 -28t-39.5 13t-12.5 29q0 35 39 57q38 22 191 141q10 6 21 64q21 100 62 100q23 0 34 -18
t21 -45t23 -58.5t32 -51.5q38 -40 38 -57q0 -31 -45 -31z" />
    <glyph glyph-name="ohungarumlaut" unicode="&#x151;" horiz-adv-x="1253" 
d="M667 115.5q-45 -4.5 -66 -4.5t-65 6t-96 23.5t-106 51t-98 88.5q-100 123 -100 322q0 190 126 337q115 136 254 159q88 27 207 9q114 -18 211 -89q111 -80 158 -242q24 -85 24 -196t-33 -187.5t-84 -128t-112 -82t-118 -46.5t-102 -20.5zM544 210.5q37 -6.5 57 -6.5
t56.5 4t82 17t95 37.5t90.5 66.5q94 96 94 252q0 319 -229 409q-175 68 -358 -29q-25 -13 -44 -22q-71 -49 -114 -154q-37 -90 -37 -178.5t20.5 -150t53 -105.5t73.5 -72.5t82 -45t78 -23zM736 1441l-99 13q-16 0 -28 -5.5t-42 -24.5t-58 -39q-70 -47 -82 -59
q-28 -28 -55 -28t-39.5 13t-12.5 28q0 36 39 58q38 22 191 141q10 6 21 64q21 100 62 100q23 0 34 -18t21 -45t23 -58.5t32 -51.5q38 -40 38 -57q0 -31 -45 -31zM1278 1411l-99 13q-16 0 -28 -5.5t-42 -24.5t-58 -39q-70 -47 -82 -59q-28 -28 -55 -28t-39.5 13t-12.5 28
q0 36 39 58q38 22 191 141q10 6 21 64q21 100 62 100q23 0 34 -18t21 -45t23 -58.5t32 -51.5q38 -40 38 -57q0 -31 -45 -31z" />
    <glyph glyph-name="OE" unicode="&#x152;" horiz-adv-x="2051" 
d="M990 -7q-39 0 -39 26q0 19 42 48q28 19 50 54q33 51 35 73l12 208q-50 -132 -182 -236q-127 -98 -230 -98q-129 0 -204 30t-129.5 74t-98.5 118q-97 164 -112 443q-1 12 -1 24v24q0 283 165 472q164 188 408 188q164 0 296 -159q43 -51 77 -115l-13 218q-2 37 -3.5 59
t-10.5 34.5t-24 24.5q-12 10 -48 34q-56 36 -56 57q0 28 48 28l55 -2q52 0 116 16t76 16q35 0 35 -34q0 -22 -25.5 -42.5t-38.5 -38.5t-20 -35q-11 -27 -11 -60l1 -23v-25l246 70q155 47 220 77q23 12 88 127q21 36 43.5 36t32 -20.5t15.5 -53.5q20 -106 40 -142t20 -54
q0 -29 -28 -29q-22 0 -59 19q-70 36 -96 36t-59.5 -7t-76 -18.5t-91.5 -26.5t-99 -32q-123 -40 -194 -61q7 -248 15 -427q88 -4 226 -4h210q29 0 118 99q20 22 41 22q53 0 38 -81q-20 -100 -20 -158l6 -73q0 -39 -33 -39q-20 0 -37 20t-34 44t-36 45t-43.5 23t-69.5 5.5
t-99 6.5q-144 8 -218 8l-45 -1q1 -25 1 -49v-108l-12 -384l284 -92q213 -66 238.5 -66t49.5 9.5t47 20.5q63 30 80 30q29 0 29 -28q0 -19 -32 -71q-60 -99 -64 -126q-10 -67 -46 -67q-34 0 -82 111q-11 27 -24 38q-133 48 -275 90t-197 59q0 -49 38 -92q14 -16 26 -30.5
t12 -35.5t-46 -21l-143 5zM741 164q61 24 106 58.5t86.5 85t72.5 117.5q69 146 69 306t-22 256.5t-56.5 162t-76.5 105t-81 61.5q-79 43 -137.5 43t-106.5 -12.5t-98.5 -40t-98.5 -72.5t-85 -110q-83 -147 -83 -354q0 -455 254 -580q48 -24 122 -37t135 11z" />
    <glyph glyph-name="oe" unicode="&#x153;" horiz-adv-x="2594" 
d="M2423 280l-47 1q-80 0 -141 -24q-115 -103 -305 -147q-294 -68 -558 85q-221 128 -281 362q-45 -131 -159 -211q-178 -124 -398 -94q-105 14 -180.5 61t-119.5 101q-100 124 -100 323q0 229 162 378q187 171 435 124q128 -24 233 -115q55 -49 94 -123q61 220 252 359
q277 203 629 120q204 -47 295 -190q47 -74 47 -158.5t-21 -132.5t-54 -81.5t-74.5 -54.5t-82.5 -33q-95 -26 -231 -16q-45 4 -69 12q-56 17 -201 -8q-18 -3 -24 -3q-60 0 -60 36q0 18 30.5 49t55 74.5t42.5 80t35 60t37 23.5q44 0 54 -66q14 -89 57 -145q10 -13 16.5 -14.5
t16 -4t23.5 -4.5q162 -23 269 51q129 89 62 264q-48 122 -216 173q-112 35 -247 27t-231 -58.5t-171 -132.5q-225 -246 -145 -572q39 -160 148 -284q218 -247 584 -186q119 19 175.5 52t80.5 52q56 46 71 79t23 57q14 46 19.5 85t8.5 48q8 20 24.5 20t27 -6.5t19.5 -15.5
q17 -17 22.5 -33.5t13.5 -34.5t20 -38q30 -50 55 -70q64 -51 22 -87q-17 -13 -43 -14zM656 343q37 4 84 17t97.5 37.5t92.5 66.5q97 95 97 252q0 317 -237 412q-77 30 -164 30t-159 -35t-124 -93q-108 -122 -108 -295q0 -274 229 -367q73 -29 114 -29t78 4z" />
    <glyph glyph-name="Racute" unicode="&#x154;" horiz-adv-x="1452" 
d="M236 -66q-115 -29 -115 24q0 23 31.5 54t48.5 51t26 38q20 39 21.5 106.5t3 126.5t3 134t3 158t2.5 169.5t2 168.5q5 377 1 416.5t-14.5 60t-25 37.5t-33 32t-30.5 26q-19 17 -19 32t23 15l43 -1q127 0 199 10.5t88.5 10.5t16.5 -12t-21 -33q-80 -80 -106 -118
t-27.5 -44.5t-3 -23t-2.5 -39.5t-1.5 -49.5t-1.5 -51.5q-1 -75 -1 -88q42 109 167 231q89 86 200 125q105 37 241 6q130 -30 187 -154q30 -66 30 -161.5t-28 -160t-73.5 -112.5t-104 -82t-119.5 -60l-227 -84q527 -541 554 -549q33 -12 82.5 -9.5t71.5 0.5q55 -3 55 -22
t-44 -62q-93 -89 -126 -158q-18 -35 -33 -45.5t-23 -10.5q-46 0 -46 184q0 39 -7.5 44.5t-33 31t-64.5 66t-88 91t-100.5 104t-101 105t-90.5 92.5q-93 96 -106.5 107t-27.5 34t-14 37q0 30 41 35.5t99.5 18.5t120.5 35t122 54.5t107 76.5q105 100 105 233.5t-60 192
t-184 58.5q-123 0 -238 -104q-135 -122 -216 -318q-20 -49 -28 -78v-787q0 -23 25 -45q67 -61 79 -76.5t19 -26.5q44 -64 -20 -64l-110 8q-63 0 -104 -11zM894 1785l-99 13q-16 0 -28 -5.5t-42 -24.5t-58 -38q-70 -48 -82 -60q-28 -28 -55 -28t-39.5 13t-12.5 29q0 35 39 57
q38 22 191 141q10 6 21 64q21 100 62 100q23 0 34 -18t21 -45t23 -58.5t32 -51.5q38 -40 38 -57q0 -31 -45 -31z" />
    <glyph glyph-name="Rcommaaccent" unicode="&#x156;" horiz-adv-x="1452" 
d="M236 -66q-115 -29 -115 24q0 23 31.5 54t48.5 51t26 38q20 39 21.5 106.5t3 126.5t3 134t3 158t2.5 169.5t2 168.5q5 377 1 416.5t-14.5 60t-25 37.5t-33 32t-30.5 26q-19 17 -19 32t23 15l43 -1q127 0 199 10.5t88.5 10.5t16.5 -12t-21 -33q-80 -80 -106 -118
t-27.5 -44.5t-3 -23t-2.5 -39.5t-1.5 -49.5t-1.5 -51.5q-1 -75 -1 -88q42 109 167 231q89 86 200 125q105 37 241 6q130 -30 187 -154q30 -66 30 -161.5t-28 -160t-73.5 -112.5t-104 -82t-119.5 -60l-227 -84q527 -541 554 -549q33 -12 82.5 -9.5t71.5 0.5q55 -3 55 -22
t-44 -62q-93 -89 -126 -158q-18 -35 -33 -45.5t-23 -10.5q-46 0 -46 184q0 39 -7.5 44.5t-33 31t-64.5 66t-88 91t-100.5 104t-101 105t-90.5 92.5q-93 96 -106.5 107t-27.5 34t-14 37q0 30 41 35.5t99.5 18.5t120.5 35t122 54.5t107 76.5q105 100 105 233.5t-60 192
t-184 58.5q-123 0 -238 -104q-135 -122 -216 -318q-20 -49 -28 -78v-787q0 -23 25 -45q67 -61 79 -76.5t19 -26.5q44 -64 -20 -64l-110 8q-63 0 -104 -11zM954 -88q0 -16 -14 -38t-35 -61.5t-51 -82.5q-73 -109 -153 -157q-45 -27 -74 9q-15 18 -15 34t6.5 20t25 9.5
t38.5 15.5q52 26 52 68q0 21 -18.5 41.5t-39.5 48.5q-45 58 -52 72q-24 50 28 50l117 -9q81 0 108 8q77 22 77 -28z" />
    <glyph glyph-name="rcommaaccent" unicode="&#x157;" horiz-adv-x="907" 
d="M406 82l-172 10q-56 0 -69 -3q-57 -12 -57 24q0 21 33.5 54t59.5 63.5t29 49.5q4 21 9 298q9 511 4 549.5t-13 55.5q-10 22 -41.5 43.5t-47 33t-15.5 23t2 17.5t8 12q14 14 40 14l79 -8q57 0 87.5 9.5t45.5 9.5t29.5 -9t14.5 -24.5t-13.5 -29t-30.5 -29.5
q-49 -46 -58 -77l-5 -217q64 164 175 244q83 59 169 62q24 0 132 90h1q8 6 17 13.5t22 7.5q30 0 30 -41l-5 -141l3 -63q0 -17 -9 -31q-20 -32 -62 1v-1q-38 41 -82 59t-69 18t-63 -21t-71.5 -55.5t-62.5 -79t-51 -92.5q-46 -100 -51.5 -171t-9 -126.5t-6.5 -110.5
q-12 -229 -2 -250t22 -38l73 -99q25 -44 -19 -44zM459 -88q0 -16 -14 -38t-35 -61.5t-51 -82.5q-73 -109 -153 -157q-45 -27 -74 9q-15 18 -15 34t6.5 20t25 9.5t38.5 15.5q52 26 52 68q0 21 -18.5 41.5t-39.5 48.5q-45 58 -52 72q-24 50 28 50l117 -9q81 0 108 8
q77 22 77 -28z" />
    <glyph glyph-name="Rcaron" unicode="&#x158;" horiz-adv-x="1452" 
d="M236 -66q-115 -29 -115 24q0 23 31.5 54t48.5 51t26 38q20 39 21.5 106.5t3 126.5t3 134t3 158t2.5 169.5t2 168.5q5 377 1 416.5t-14.5 60t-25 37.5t-33 32t-30.5 26q-19 17 -19 32t23 15l43 -1q127 0 199 10.5t88.5 10.5t16.5 -12t-21 -33q-80 -80 -106 -118
t-27.5 -44.5t-3 -23t-2.5 -39.5t-1.5 -49.5t-1.5 -51.5q-1 -75 -1 -88q42 109 167 231q89 86 200 125q105 37 241 6q130 -30 187 -154q30 -66 30 -161.5t-28 -160t-73.5 -112.5t-104 -82t-119.5 -60l-227 -84q527 -541 554 -549q33 -12 82.5 -9.5t71.5 0.5q55 -3 55 -22
t-44 -62q-93 -89 -126 -158q-18 -35 -33 -45.5t-23 -10.5q-46 0 -46 184q0 39 -7.5 44.5t-33 31t-64.5 66t-88 91t-100.5 104t-101 105t-90.5 92.5q-93 96 -106.5 107t-27.5 34t-14 37q0 30 41 35.5t99.5 18.5t120.5 35t122 54.5t107 76.5q105 100 105 233.5t-60 192
t-184 58.5q-123 0 -238 -104q-135 -122 -216 -318q-20 -49 -28 -78v-787q0 -23 25 -45q67 -61 79 -76.5t19 -26.5q44 -64 -20 -64l-110 8q-63 0 -104 -11zM1043 1756l-76 5q-27 0 -55.5 -17t-53 -31t-44.5 -29q-37 -26 -99 -83q-32 -28 -73 -7q-17 9 -25 26l-74 54l-47 38
q-93 72 -130 72l-94 -12q-46 0 -46 31q0 27 31 44t52 41.5t39.5 48.5t34.5 41.5t30.5 17.5t26 -11.5t11.5 -33.5l-4 -45q0 -54 30 -77.5t48 -38t37 -28.5q43 -30 108 -69q128 80 197 129q11 18 12 55t4 61.5t15 36.5t29.5 12t29.5 -13.5t24 -35.5q38 -67 64 -89
q68 -56 31 -83q-13 -10 -33 -10z" />
    <glyph glyph-name="rcaron" unicode="&#x159;" horiz-adv-x="907" 
d="M406 82l-172 10q-56 0 -69 -3q-57 -12 -57 24q0 21 33.5 54t59.5 63.5t29 49.5q4 21 9 298q9 511 4 549.5t-13 55.5q-10 22 -41.5 43.5t-47 33t-15.5 23t2 17.5t8 12q14 14 40 14l79 -8q57 0 87.5 9.5t45.5 9.5t29.5 -9t14.5 -24.5t-13.5 -29t-30.5 -29.5
q-49 -46 -58 -77l-5 -217q64 164 175 244q83 59 169 62q24 0 132 90h1q8 6 17 13.5t22 7.5q30 0 30 -41l-5 -141l3 -63q0 -17 -9 -31q-20 -32 -62 1v-1q-38 41 -82 59t-69 18t-63 -21t-71.5 -55.5t-62.5 -79t-51 -92.5q-46 -100 -51.5 -171t-9 -126.5t-6.5 -110.5
q-12 -229 -2 -250t22 -38l73 -99q25 -44 -19 -44zM937 1630l-76 5q-27 0 -55.5 -17t-57.5 -35t-55 -36q-42 -29 -114 -95q-31 -29 -83 -3q-21 11 -26 30q-16 20 -31.5 34t-31 30t-29 31t-28.5 33q-80 89 -105 99t-42 10h-43q-79 0 -79 34q0 30 35.5 43.5t59 33.5t44.5 40
q55 51 71.5 51t26 -12t9.5 -27l-13 -78q0 -37 22.5 -61.5t43 -47.5t42.5 -46q54 -55 112 -103q35 16 92.5 57.5t134.5 95.5q11 18 12 55t4 61.5t15 36.5t29.5 12t29.5 -13.5t24 -34.5q38 -68 64 -90q68 -56 31 -83q-13 -10 -33 -10z" />
    <glyph glyph-name="Scaron" unicode="&#x160;" horiz-adv-x="1126" 
d="M898 1334q0 -56 -51 -35q-37 15 -60 47q-33 44 -83 97q-171 20 -274 -51q-97 -69 -97 -207q0 -112 119 -233q73 -74 130 -115.5t99.5 -74t83 -70.5t71.5 -84q70 -100 70 -220q0 -232 -259 -334q-147 -57 -309 -57q-55 0 -148 -107q-43 -49 -59 13l1 102q0 104 -11 157.5
t-11 62.5q0 35 27 35q18 0 37 -19t42 -45q65 -73 119 -96q12 -1 23 -1h23q220 0 330 95q95 83 95 219q0 124 -170 262l-192 157q-204 165 -204 353q0 183 123 271q103 75 284 75l50 -1q39 0 107 57q25 21 47.5 39t41.5 18q40 0 29 -55q-29 -109 -29 -164zM898 1875l-76 5
q-27 0 -55.5 -17t-53 -31t-44.5 -29q-37 -26 -99 -83q-32 -28 -73 -7q-17 9 -25 26l-74 54l-47 38q-93 72 -130 72l-94 -12q-46 0 -46 31q0 27 31 44t52 41.5t39.5 48.5t34.5 41.5t30.5 17.5t26 -11.5t11.5 -33.5l-4 -45q0 -54 30 -77.5t48 -38t37 -28.5q43 -30 108 -69
q128 80 197 129q11 18 12 55t4 61.5t15 36.5t29.5 12t29.5 -13.5t24 -35.5q38 -67 64 -89q68 -56 31 -83q-13 -10 -33 -10z" />
    <glyph glyph-name="scaron" unicode="&#x161;" horiz-adv-x="832" 
d="M654 1126q0 -30 -16.5 -30t-34 14t-34.5 31q-47 45 -63 46.5t-39 -1t-49 -9.5t-53 -19t-48 -32q-50 -44 -50 -112q0 -78 136 -180q106 -80 151 -121t75 -81q67 -91 67 -194q0 -195 -218 -286q-70 -30 -108 -30t-65.5 -20t-50.5 -43.5t-40.5 -43.5t-27 -20t-15.5 5t-10 12
q-8 16 -8 29l-5 177q0 122 41 90q10 -7 26.5 -28t27 -32t25.5 -18q61 -29 163 1q119 35 162 127q68 145 -126 310l-153 119q-140 111 -140 227q0 174 192 238q61 21 112 21q12 0 52.5 38t55.5 51q36 31 43 31q18 0 18 -63l-1 -82zM840 1676l-76 5q-27 0 -55.5 -17t-57.5 -35
t-55 -36q-42 -29 -114 -95q-31 -29 -83 -3q-21 11 -26 30q-16 20 -31.5 34t-31 30t-29 31t-28.5 33q-80 89 -105 99t-42 10h-43q-79 0 -79 34q0 30 35.5 43.5t59 33.5t44.5 40q55 51 71.5 51t26 -12t9.5 -27l-13 -78q0 -37 22.5 -61.5t43 -47.5t42.5 -46q54 -55 112 -103
q35 16 92.5 57.5t134.5 95.5q11 18 12 55t4 61.5t15 36.5t29.5 12t29.5 -13.5t24 -34.5q38 -68 64 -90q68 -56 31 -83q-13 -10 -33 -10z" />
    <glyph glyph-name="umacron" unicode="&#x16b;" horiz-adv-x="1241" 
d="M899 246l1 23l-27 455l-50 -142q-68 -189 -96.5 -242.5t-54.5 -90t-59 -65.5q-75 -64 -161 -64q-257 0 -257 482l12 488q0 35 -26 62t-43 45q-31 31 -31 52q0 33 56 33l65 -3q76 0 122 12t56 12q25 0 25 -20q0 -35 -63 -95q-24 -22 -45 -44t-23 -38.5t-4.5 -63.5
t-5.5 -112q-12 -321 -3.5 -410.5t19 -135t28.5 -80.5q42 -80 118 -80q169 0 315 444q128 390 70 484q-13 20 -48 43q-50 33 -50 59q0 39 56 39l49 -1q73 0 112 8q43 10 49 10q31 0 31 -28t-32.5 -66t-48 -62t-16 -45t1.5 -61t5 -98t7 -128.5t8.5 -143.5t9.5 -143.5t9 -128.5
q11 -133 15 -152.5t9.5 -34.5t13.5 -27l62 -73q18 -36 -18 -47q-27 -7 -96.5 -7t-94.5 -7q-70 -22 -70 20q0 24 10.5 36.5t23.5 28.5t27 35q35 48 37 68zM679 1689l-162 -3q-25 0 -58.5 -23.5t-56.5 -38.5q-38 -25 -62 -8q-16 12 -16 36t7 39t7 35.5t-4 36.5t-9 31
q-19 62 -4 76t30.5 14t31.5 -11.5t34 -26.5q52 -45 76 -54q100 1 148 1h99t47 3q8 3 48 37q50 50 86 50t36 -49q0 -17 -10 -48q-20 -59 -20 -96l3 -52q0 -47 -28 -47q-25 0 -49 29.5t-39 44.5t-33 19q-27 5 -102 5z" />
    <glyph glyph-name="uring" unicode="&#x16f;" horiz-adv-x="1241" 
d="M899 246l1 23l-27 455l-50 -142q-68 -189 -96.5 -242.5t-54.5 -90t-59 -65.5q-75 -64 -161 -64q-257 0 -257 482l12 488q0 35 -26 62t-43 45q-31 31 -31 52q0 33 56 33l65 -3q76 0 122 12t56 12q25 0 25 -20q0 -35 -63 -95q-24 -22 -45 -44t-23 -38.5t-4.5 -63.5
t-5.5 -112q-12 -321 -3.5 -410.5t19 -135t28.5 -80.5q42 -80 118 -80q169 0 315 444q128 390 70 484q-13 20 -48 43q-50 33 -50 59q0 39 56 39l49 -1q73 0 112 8q43 10 49 10q31 0 31 -28t-32.5 -66t-48 -62t-16 -45t1.5 -61t5 -98t7 -128.5t8.5 -143.5t9.5 -143.5t9 -128.5
q11 -133 15 -152.5t9.5 -34.5t13.5 -27l62 -73q18 -36 -18 -47q-27 -7 -96.5 -7t-94.5 -7q-70 -22 -70 20q0 24 10.5 36.5t23.5 28.5t27 35q35 48 37 68zM643.5 1452q-25.5 -2 -37.5 -2t-37 3t-54.5 11.5t-60 24.5t-54.5 43q-57 61 -57 156q0 98 81 174q101 93 252 73
q161 -22 208 -164q14 -42 14 -96t-18.5 -90.5t-47.5 -61.5t-63.5 -39.5t-67 -22t-58 -9.5zM791 1688q0 45 -18.5 75t-44.5 47q-47 32 -94 32t-78 -12.5t-54 -33.5q-47 -44 -47 -94q0 -81 60 -131t141 -30q135 32 135 147z" />
    <glyph glyph-name="Uhungarumlaut" unicode="&#x170;" horiz-adv-x="1546" 
d="M1487 1605q0 -10 -21 -35t-38 -52q-43 -67 -44.5 -111.5t-3.5 -106.5t-5.5 -136.5t-9 -157t-13.5 -162.5q-20 -180 -40 -252.5t-40 -133.5t-51 -125t-74 -125t-103 -110q-133 -107 -318 -107q-197 0 -321 147q-152 180 -182 546l-57 609q-4 43 -17 61q-20 26 -60 61
t-48 48t-8 24q0 36 63 36l52 -5l155 29q77 13 77 -17q0 -20 -23.5 -43.5t-39 -47t-26.5 -48.5q-24 -55 -24 -90t3 -94.5t9 -139.5q33 -446 68.5 -584.5t84.5 -220.5q108 -179 300 -179q288 0 421 328q141 349 141 983q0 41 -14 61q-15 22 -53 59q-57 54 -57 76.5t59 22.5
l98 -5q45 0 72 10q88 32 88 -13zM728 1845l-99 13q-16 0 -28 -5.5t-42 -24.5t-59 -38q-69 -48 -81 -60q-28 -28 -55 -28t-39.5 13t-12.5 29q0 35 39 57q38 22 191 141q10 6 21 64q21 100 62 100q23 0 34 -18t21 -45t23 -58.5t32 -51.5q38 -40 38 -57q0 -31 -45 -31z
M1270 1815l-99 13q-16 0 -28 -5.5t-42 -24.5t-59 -38q-69 -48 -81 -60q-28 -28 -55 -28t-39.5 13t-12.5 29q0 35 39 57q38 22 191 141q10 6 21 64q21 100 62 100q23 0 34 -18t21 -45t23 -58.5t32 -51.5q38 -40 38 -57q0 -31 -45 -31z" />
    <glyph glyph-name="uhungarumlaut" unicode="&#x171;" horiz-adv-x="1357" 
d="M935 246l1 23l-27 455l-50 -142q-68 -189 -96.5 -242.5t-54.5 -90t-59 -65.5q-75 -64 -161 -64q-257 0 -257 482l12 488q0 35 -26 62t-43 45q-31 31 -31 52q0 33 56 33l65 -3q76 0 122 12t56 12q25 0 25 -20q0 -35 -63 -95q-24 -22 -45 -44t-23 -38.5t-4.5 -63.5
t-5.5 -112q-12 -321 -3.5 -410.5t19 -135t28.5 -80.5q42 -80 118 -80q169 0 315 444q128 390 70 484q-13 20 -48 43q-50 33 -50 59q0 39 56 39l49 -1q73 0 112 8q43 10 49 10q31 0 31 -28t-32.5 -66t-48 -62t-16 -45t1.5 -61t5 -98t7 -128.5t8.5 -143.5t9.5 -143.5t9 -128.5
q11 -133 15 -152.5t9.5 -34.5t13.5 -27l62 -73q18 -36 -18 -47q-27 -7 -96.5 -7t-94.5 -7q-70 -22 -70 20q0 24 10.5 36.5t23.5 28.5t27 35q35 48 37 68zM757 1658l-99 13q-16 0 -28 -5.5t-42 -24.5t-58 -39q-70 -47 -82 -59q-28 -28 -55 -28t-39.5 13t-12.5 28q0 36 39 58
q38 22 191 141q10 6 21 64q21 100 62 100q23 0 34 -18t21 -45t23 -58.5t32 -51.5q38 -40 38 -57q0 -31 -45 -31zM1299 1628l-99 13q-16 0 -28 -5.5t-42 -24.5t-58 -39q-70 -47 -82 -59q-28 -28 -55 -28t-39.5 13t-12.5 28q0 36 39 58q38 22 191 141q10 6 21 64
q21 100 62 100q23 0 34 -18t21 -45t23 -58.5t32 -51.5q38 -40 38 -57q0 -31 -45 -31z" />
    <glyph glyph-name="Ydieresis" unicode="&#x178;" horiz-adv-x="1411" 
d="M543 -80q-33 0 -33 28q0 31 56 82q74 65 74 113l3 329q0 172 -8 258l-296 431q-57 82 -123 175q-22 30 -50.5 39t-46 12t-32.5 6.5t-29 9.5q-34 15 -34 39q0 23 50.5 43.5t88 40.5t63.5 36q59 34 79 34q30 0 30 -30q0 -17 -9.5 -34.5t-18.5 -34.5q-38 -72 -20 -94
q159 -253 273 -411.5t136 -186.5q226 310 406 627q22 41 15 73.5t-11 49.5q-26 112 19 112q10 0 42 -26.5t56 -44.5q62 -45 96 -57q68 -26 68 -64q0 -35 -73 -37q-83 -2 -105 -36t-55.5 -84t-73 -109t-83 -126t-87.5 -136q-94 -148 -168 -272q-4 -104 -4 -173v-105l1 -155
l1 -84q0 -56 51 -126q15 -20 26 -30q31 -26 31 -44t-17.5 -24t-65.5 -6l-107 1zM891 1936q8 0 46 -7t172 -7q55 0 55 -34q0 -25 -33 -61q-77 -82 -84 -95q-28 -47 -62 -25q-9 6 -14.5 17.5t-17.5 27.5t-28 37q-71 90 -71 117q0 30 37 30zM701 1888q0 -27 -34 -62
q-75 -79 -84 -94q-42 -66 -82 -6l-80 115q-61 95 8 95l55 -7q75 -7 146 -7t71 -34z" />
    <glyph glyph-name="Zcaron" unicode="&#x17d;" horiz-adv-x="1593" 
d="M267.5 -20.5q-35.5 -10.5 -50.5 -10.5t-25.5 3.5t-20.5 9.5q-34 22 -14 58q6 13 32.5 37t90.5 94.5t145 164.5t173.5 204.5t185 225t181 225.5t161.5 206q163 212 199 274q-717 0 -816 -7t-118 -12t-40.5 -21.5t-40.5 -36.5q-24 -24 -55 -64q-15 -17 -32 -17
q-22 0 -22 24v61q0 170 -15 220q-3 10 -3 20q0 29 23 29q13 0 35 -17.5t48 -39.5q71 -57 108 -59q65 -5 242 -5l752 5q108 0 63 -77q-58 -96 -532 -689q-522 -652 -624 -716l648 9q197 4 259.5 13t93.5 26.5t56 38.5l74 71q21 21 44 21q36 0 17 -69q-21 -84 -21 -204l2 -55
q0 -34 -28 -34q-26 0 -66 35.5t-61.5 52t-40.5 18.5l-54 1q-767 -5 -842.5 -4t-111 -9.5zM1220 1840l-76 5q-27 0 -55.5 -17t-53 -31t-44.5 -29q-37 -26 -99 -83q-32 -28 -73 -7q-17 9 -25 26l-74 54l-47 38q-93 72 -130 72l-94 -12q-46 0 -46 31q0 27 31 44t52 41.5
t39.5 48.5t34.5 41.5t30.5 17.5t26 -11.5t11.5 -33.5l-4 -45q0 -54 30 -77.5t48 -38t37 -28.5q43 -30 108 -69q128 80 197 129q11 18 12 55t4 61.5t15 36.5t29.5 12t29.5 -13.5t24 -35.5q38 -67 64 -89q68 -56 31 -83q-13 -10 -33 -10z" />
    <glyph glyph-name="zcaron" unicode="&#x17e;" horiz-adv-x="1306" 
d="M163.5 87q-10.5 0 -23 11.5t-12.5 28.5q0 34 29.5 65t67 71t94.5 106q322 372 724 922q-567 -3 -662 -12q-57 -7 -133 -92q-33 -37 -43.5 -42t-20.5 -5q-28 0 -20 32q24 104 7 206q-6 37 -6 68t28 31q21 0 42.5 -21.5t34.5 -36t26 -25.5q26 -25 51.5 -24t82.5 1h354
q293 -1 299.5 2.5t16.5 7.5q41 17 54 9t18 -16q20 -29 7 -50.5t-24.5 -34t-41.5 -55t-82 -114.5q-148 -203 -282 -372l-347 -436q-61 -76 -99 -125q56 2 115 2l401 -6q161 0 213 14.5t87 34.5t61.5 38.5t45.5 32t31 13.5q37 0 21 -59q-24 -93 -24 -166l2 -43q0 -34 -28 -34
q-19 0 -66 32q-90 59 -122 62l-62 1q-557 -3 -636.5 -2t-123.5 -9.5t-54.5 -10.5zM1071 1675l-76 5q-27 0 -55.5 -17t-57.5 -35t-55 -36q-42 -29 -114 -95q-31 -29 -83 -3q-21 11 -26 30q-16 20 -31.5 34t-31 30t-29 31t-28.5 33q-80 89 -105 99t-42 10h-43q-79 0 -79 34
q0 30 35.5 43.5t59 33.5t44.5 40q55 51 71.5 51t26 -12t9.5 -27l-13 -78q0 -37 22.5 -61.5t43 -47.5t42.5 -46q54 -55 112 -103q35 16 92.5 57.5t134.5 95.5q11 18 12 55t4 61.5t15 36.5t29.5 12t29.5 -13.5t24 -34.5q38 -68 64 -90q68 -56 31 -83q-13 -10 -33 -10z" />
    <glyph glyph-name="florin" unicode="&#x192;" horiz-adv-x="1337" 
d="M810 978l-167 -1q-36 -639 -45.5 -724.5t-23 -143.5t-36 -110.5t-58.5 -92.5q-77 -86 -209 -86q-42 0 -68 5t-45.5 5t-35.5 -6.5t-32 -17.5l-86 -70q-29 -17 -29 23l10 102q7 89 7 195q0 20 10 36.5t24 16.5q31 0 57 -50q41 -76 65 -98q52 -46 144 -46q90 0 140 93
q55 106 68 336l28 472q5 87 10 161q-63 -1 -108 -1h-83q-47 0 -78 -22q-39 -27 -87 -72q-22 -19 -40 -19q-32 0 -32 34l11 115q3 56 3 92v50q0 50 28 50q26 0 52 -43q30 -53 102 -93q19 -11 41.5 -11t42 -0.5t39.5 -0.5q40 -1 115 2q14 165 31 236.5t46.5 138.5t80.5 119
q143 148 419 112q86 -11 108.5 -1t36.5 22l63 62q19 16 36 16q37 0 21 -67q-11 -51 -11 -123l7 -120q0 -35 -25 -35t-51 26t-39 42.5t-28 33.5q-35 38 -65.5 46.5t-75.5 8.5h-117q-144 0 -223 -112q-91 -128 -110 -404q168 5 272 14q54 5 122 80q62 70 82 70q42 0 26 -53
q-30 -93 -30 -226l5 -65q0 -16 -10 -26.5t-23 -10.5t-23 9.5t-20 22.5l-33 43q-55 54 -85 59.5t-55.5 3.5t-65.5 -2z" />
    <glyph glyph-name="AEacute" unicode="&#x1fc;" horiz-adv-x="1907" 
d="M349 155q-3 -9 -3 -28.5t30 -166.5q10 -52 -37 -52q-31 0 -48.5 19t-42 34.5t-54.5 32.5q-63 37 -95 52q-79 36 -49 68q42 44 116 50v-1q36 4 118 78q29 27 123 162q189 276 243 356q-238 0 -262 -5t-46.5 -22.5t-42.5 -36.5q-51 -48 -74 -48q-29 0 -29 36l16 153l-5 76
q0 69 35 69q18 0 55 -45q76 -92 104 -92q8 0 308 -8q293 430 369 590l-56 62l-71 64q-2 4 -2 13q0 28 47 28q28 0 88 9l87 12q89 13 89 -26q-1 -23 -15.5 -41t-28 -37.5t-19 -34.5t-7.5 -31q-3 -17 -6 -70q93 20 201.5 44t218.5 66q39 16 100 122q22 37 47 37t34 -22t15 -57
q17 -111 40 -151.5t23 -59t-11 -25.5t-21.5 -7t-26.5 11q-102 68 -160 60t-122.5 -23t-127.5 -33l-216 -61l-20 -445l223 1l192 1q81 0 143 85q8 12 23 21.5t25 9.5q46 0 29 -61q-24 -84 -24 -195l2 -42q0 -17 -8.5 -33.5t-20.5 -16.5q-22 0 -40 25l-42 61q-27 38 -45 46
q-40 16 -143 16l-247 -3l-71 1l-20 -542q74 -37 258.5 -114t220 -93.5t50.5 -16.5t52.5 14.5t68.5 25.5q47 15 61 15q24 0 24 -25.5t-14 -50t-35 -53.5q-60 -83 -75 -126q-24 -64 -51 -64q-34 0 -52 92q-17 83 -53 103t-95.5 47t-125.5 54q-125 52 -238 95v-23q0 -53 56 -94
q20 -15 37.5 -26.5t17.5 -25.5q0 -29 -60 -32.5t-98.5 -8t-62.5 -8.5q-58 -10 -67 -10q-45 0 -45 20q0 28 16.5 44.5t32 38t31.5 46.5q38 64 40 96.5t5 99.5t7 151l15 373q-241 6 -293 8q-216 -321 -305 -447t-108 -154zM820 833q124 -2 239 -2l30 436l-59 -97
q-116 -195 -210 -337zM1634 1847l-99 13q-16 0 -28 -5.5t-42 -24.5t-58 -38q-70 -48 -82 -60q-28 -28 -55 -28t-39.5 13t-12.5 29q0 35 39 57q38 22 191 141q10 6 21 64q21 100 62 100q23 0 34 -18t21 -45t23 -58.5t32 -51.5q38 -40 38 -57q0 -31 -45 -31z" />
    <glyph glyph-name="aeacute" unicode="&#x1fd;" horiz-adv-x="1878" 
d="M1101 7l13 124q0 28 -5 41.5t-68 120t-175 316.5q-78 -217 -237 -381q-205 -209 -377 -209q-83 0 -134 58q-59 72 -20 209q32 111 127 222q127 146 340 240q103 45 193 62q-142 270 -182 357q-14 20 -44 31q-104 38 -121 48.5t-17 23.5q0 30 42 43.5t71.5 32t53.5 35.5
q116 82 116 -2q0 -26 -12 -58q-34 -87 -17 -118t39 -74.5t46 -93.5q37 -74 109 -216q75 -7 55 -106l14 -28q0 294 201 457q167 137 335 137q153 0 268 -63q142 -76 142 -240q0 -196 -174 -276q-53 -24 -94 -24q-103 0 -150 15t-82 18t-59.5 5t-37.5 8.5t-13 22t16.5 37
t37.5 45.5q59 68 62 75t8 14.5t12 13.5q34 32 59 2q14 -16 26 -87.5t18.5 -73.5t15 -4.5t20.5 -4.5q81 -10 116.5 9t60.5 46q86 91 49 219q-26 89 -141 129q-61 21 -153.5 21t-173 -39t-142.5 -105q-136 -143 -136 -330q0 -174 119 -281q117 -106 310 -106q210 0 281 71
q30 28 48.5 65.5t26.5 48.5t19.5 11t23.5 -8.5t12 -26.5t3.5 -38.5t9.5 -41.5q11 -41 27 -69t16 -44q0 -38 -44 -38q-14 0 -58 20.5t-47 20.5l-114 -36q-223 -54 -430 15q-42 14 -82 36l13 -19q18 -27 29 -45.5t25.5 -28t43.5 -21t56 -23.5q65 -29 65 -51q0 -21 -46 -48
q-110 -62 -123 -76q-27 -33 -52 -33q-33 0 -33 41zM197 136q21 -28 67.5 -28t103 25.5t111 69t106 101.5t95.5 124q92 136 138 269l-22 41q-203 -31 -389 -178q-177 -139 -218 -287q-26 -89 8 -137zM1443 1676l-99 13q-16 0 -28 -5.5t-42 -24.5t-59 -39q-69 -47 -81 -59
q-28 -28 -55 -28t-39.5 13t-12.5 28q0 36 39 58q38 22 191 141q10 6 21 64q21 100 62 100q23 0 34 -18t21 -45t23 -58.5t32 -51.5q38 -40 38 -57q0 -31 -45 -31z" />
    <glyph glyph-name="dotlessj" unicode="&#x237;" horiz-adv-x="835" 
d="M638 1406q55 10 55 -18q0 -31 -41 -58q-56 -36 -78 -124q-11 -44 0 -255.5t16 -291.5q23 -418 23 -503t-4 -141.5t-11 -101.5q-42 -272 -210 -323q-121 -38 -256 42q-98 58 -150 61.5t-71.5 19.5t-19.5 35.5t22 32.5q51 29 100.5 57.5t82.5 63.5t53 35q30 0 30 -52
l-3 -52q0 -107 66 -147q46 -28 112 -8q51 16 79.5 49t44.5 78q39 105 32 363q-24 819 -48 1016q-5 38 -34 67.5t-64 54.5q-58 44 -58 74t38 30t88 -9t84 -9t53 2z" />
    <glyph glyph-name="circumflex" unicode="&#x2c6;" horiz-adv-x="1118" 
d="M312 1474l3 -24q0 -43 -29 -58q-35 -20 -107 98q-8 15 -37.5 32t-40 28t-10.5 28q0 36 59 36l81 -7q54 0 134 65q45 37 95 74t59.5 40t21.5 3q27 0 43 -18q63 -80 148 -143q27 -20 55 -39q33 -23 77.5 -32.5t59.5 -14.5q38 -14 38 -37q0 -27 -35 -46q-51 -27 -63.5 -39.5
t-26 -27.5t-25.5 -28q-30 -29 -43.5 -29t-24 13t-10.5 36l1 40q0 47 -17 85q-179 148 -187 155q-50 -17 -104 -58.5t-82 -60.5q-33 -27 -33 -71z" />
    <glyph glyph-name="caron" unicode="&#x2c7;" horiz-adv-x="1079" 
d="M949 1589l-76 5q-27 0 -55.5 -17t-57.5 -35t-55 -36q-42 -29 -114 -95q-31 -29 -83 -3q-21 11 -26 30q-16 20 -31.5 34t-31 30t-29 31t-28.5 33q-80 89 -105 99t-42 10h-43q-79 0 -79 34q0 30 35.5 43.5t59 33.5t44.5 40q55 51 71.5 51t26 -12t9.5 -27l-13 -78
q0 -37 22.5 -61.5t43 -47.5t42.5 -46q54 -55 112 -103q35 16 92.5 57.5t134.5 95.5q11 18 12 55t4 61.5t15 36.5t29.5 12t29.5 -13.5t24 -34.5q38 -68 64 -90q68 -56 31 -83q-13 -10 -33 -10z" />
    <glyph glyph-name="breve" unicode="&#x2d8;" horiz-adv-x="1079" 
d="M772 1735l-21 112q0 23 11.5 34.5t28 11.5t31.5 -11t32 -28q47 -47 93 -68q70 -33 35 -70q-14 -15 -48.5 -20.5t-47.5 -8.5q-27 -6 -43 -24q-37 -89 -108.5 -142.5t-154.5 -53.5t-135 20t-91 51q-77 62 -107 146q-14 37 -72 45q-97 14 -97 49q0 11 11 24.5t40 18
t54.5 18.5t48.5 29q60 40 78 40q36 0 36 -37l-26 -73q-13 -40 6 -71t40 -62t48 -55q63 -56 131 -56t101 14.5t55 37.5t36.5 52t31.5 59q3 9 3 18z" />
    <glyph glyph-name="dotaccent" unicode="&#x2d9;" horiz-adv-x="683" 
d="M502 1568q88 0 44 -58l-111 -134q-38 -71 -70 -3l-75 95q-47 64 -47 84q0 29 37 29q116 -14 194 -14z" />
    <glyph glyph-name="ring" unicode="&#x2da;" horiz-adv-x="856" 
d="M439.5 1452q-25.5 -2 -37.5 -2t-37 3t-54.5 11.5t-60 24.5t-54.5 43q-57 61 -57 156q0 98 81 174q101 93 252 73q161 -22 208 -164q14 -42 14 -96t-18.5 -90.5t-47.5 -61.5t-63.5 -39.5t-67 -22t-58 -9.5zM587 1688q0 45 -18.5 75t-44.5 47q-47 32 -94 32t-78 -12.5
t-54 -33.5q-47 -44 -47 -94q0 -81 60 -131t141 -30q135 32 135 147z" />
    <glyph glyph-name="tilde" unicode="&#x2dc;" horiz-adv-x="1202" 
d="M386 1516q0 -69 -38 -69q-19 0 -36.5 15.5t-23.5 38.5q-21 71 -107 112q-31 15 -31 35t15.5 33.5t33.5 13.5l85 -12q26 0 38.5 7t28 17t35.5 20q84 42 155 17q57 -18 77 -41t27.5 -39t16.5 -32q43 -76 108 -76q76 0 86 82q3 23 3 48l-1 34q0 29 14.5 45.5t29.5 16.5
q30 0 42.5 -32t35.5 -57.5t45.5 -46t39 -36t16.5 -33t-17 -31t-42 -13.5l-70 7q-25 0 -34 -9t-23.5 -19t-36.5 -20q-97 -44 -178 -10q-63 26 -108 112q-38 71 -113 71q-40 0 -61 -39q-15 -26 -15 -57z" />
    <glyph glyph-name="hungarumlaut" unicode="&#x2dd;" horiz-adv-x="1205" 
d="M567 1620l-99 13q-16 0 -28 -5.5t-42 -24.5t-58 -39q-70 -47 -82 -59q-28 -28 -55 -28t-39.5 13t-12.5 28q0 36 39 58q38 22 191 141q10 6 21 64q21 100 62 100q23 0 34 -18t21 -45t23 -58.5t32 -51.5q38 -40 38 -57q0 -31 -45 -31zM1109 1590l-99 13q-16 0 -28 -5.5
t-42 -24.5t-58 -39q-70 -47 -82 -59q-28 -28 -55 -28t-39.5 13t-12.5 28q0 36 39 58q38 22 191 141q10 6 21 64q21 100 62 100q23 0 34 -18t21 -45t23 -58.5t32 -51.5q38 -40 38 -57q0 -31 -45 -31z" />
    <glyph glyph-name="uni0394" unicode="&#x394;" horiz-adv-x="1844" 
d="M1533 48h-1197q-17 0 -18.5 5.5t-3.5 5.5q-34 -32 -52 -128q-7 -33 -16.5 -57t-27.5 -24q-30 0 -49 51q-33 84 -62 119t-41 52q-31 46 -31 70q0 41 53 26q91 -26 127 -28l63 126q600 1201 632 1351q-54 58 -125 125q-23 24 2 49q12 12 33 12l34 -2l271 21q87 0 44 -57
q-28 -37 -70 -81.5t-64 -71.5q317 -872 564 -1434q37 -35 67 -40l93 -10q17 -3 29 -3t24 -9t12 -21t-6 -21t-14 -17l-33 -26q-49 -40 -98 -101t-68 -80t-37 -19q-36 0 -23 61q33 150 -12 156zM343 142q922 -12 1153 -1h2l-265 689l-149 382q-91 233 -113 286
q-140 -363 -628 -1356z" />
    <glyph glyph-name="uni03A9" unicode="&#x3a9;" horiz-adv-x="1643" 
d="M105 -84l9 80q0 33 -4 69l-6 59l-7 51q0 24 19 24q31 0 61.5 -25.5t51 -42t43.5 -31.5q55 -35 81 -35l207 -6q-121 154 -218 388q-101 241 -101 416t42.5 319t120.5 246q162 210 436 210q269 0 416 -200q146 -196 146 -548q0 -233 -108 -468q-83 -181 -224 -344h238
q36 0 73 29l102 86q58 42 58 -25l-10 -87q0 -56 9.5 -100t9.5 -60q0 -42 -30 -42q-19 0 -34 13q-38 32 -164 98l-326 -4q-58 0 -58 43q0 28 45.5 78.5t103 134.5t105.5 186q162 345 84 701q-55 248 -224 355q-87 55 -207.5 55t-213.5 -52t-157 -145q-129 -188 -129 -499
q0 -217 167 -527q75 -139 149 -225q34 -40 34 -69q0 -45 -66 -45l-266 6q-63 0 -91 -19l-106 -83q-61 -44 -61 35z" />
    </font>
</defs>
</svg>
