<?xml version="1.0" standalone="no"?>
<!DOCTYPE svg PUBLIC "-//W3C//DTD SVG 1.1//EN" "http://www.w3.org/Graphics/SVG/1.1/DTD/svg11.dtd" >
<svg>
<metadata>
Created by FontForge 20120731 at Fri Oct 18 14:42:35 2019
 By www-data
Typeface (c) (your company). 2005. All Rights Reserved
</metadata>
<defs>
<font id="SimonScript" horiz-adv-x="1139" >
  <font-face 
    font-family="Simon Script"
    font-weight="400"
    font-stretch="normal"
    units-per-em="2048"
    panose-1="2 0 0 0 0 0 0 0 0 0"
    ascent="1638"
    descent="-410"
    x-height="1668"
    cap-height="1692"
    bbox="-88 -327 1824 1854"
    underline-thickness="150"
    underline-position="-142"
    unicode-range="U+0020-F005"
  />
<missing-glyph horiz-adv-x="1536" 
d="M256 0v1280h1024v-1280h-1024zM288 32h960v1216h-960v-1216z" />
    <glyph glyph-name=".notdef" horiz-adv-x="1536" 
d="M256 0v1280h1024v-1280h-1024zM288 32h960v1216h-960v-1216z" />
    <glyph glyph-name=".null" horiz-adv-x="0" 
 />
    <glyph glyph-name="nonmarkingreturn" horiz-adv-x="569" 
 />
    <glyph glyph-name="space" unicode=" " horiz-adv-x="569" 
 />
    <glyph glyph-name="space" unicode="&#xa0;" horiz-adv-x="569" 
 />
    <glyph glyph-name="exclam" unicode="!" horiz-adv-x="355" 
d="M286 1762q40 0 40 -86l-11 -31l11 -9l-6 -5l6 -4q-19 -137 -28 -149l5 -18l-17 -27l6 -4v-5l-6 -22l6 -27l-11 -91l11 -121l-6 -54v-14l12 -18q0 -36 -12 -36l6 -22l-6 -131l-5 -4v-5l5 -5q-5 -36 -17 -36l6 -13l-17 -90l6 -5h5l-40 -243h-5l5 -4q0 -127 -68 -208
q-17 -18 -56 -22l-52 112l6 86q-13 0 -17 32l11 18l-5 4v23l5 4l-28 131l11 49l-5 18l5 158l-5 14h5l-5 13l11 90v45l-6 18l6 18v41q1 25 17 49l-6 23v13l6 5l-6 13l17 127l-11 117l6 18l-6 18h6l-6 4v5q0 22 11 22l-11 41h6l-6 4v5l11 18l-11 9l6 13l-6 50v4l17 14h11
q17 -4 29 -32l-6 -18l6 -85v-5l-6 -36l6 -36v-13l-6 -5l6 -4l-6 -23l6 -22h-6l6 -5v-45l6 -18l-12 -50l6 -18l-17 -103l6 -18l-18 -50l6 -31l-6 -41l6 -27l-6 -13l6 -5l-6 -36l6 -167h-6l6 -13l-11 -27l5 -32l-11 -85q15 0 29 -144l-6 -32l17 -63l-11 -36q14 -36 22 -36
q51 66 51 158l-5 4l28 108l-6 23l12 9l-6 27l11 112v9l23 104l-6 5l12 85v104l5 4l-5 5v58l5 41q-11 10 -17 90l12 18l-6 54l11 54l-5 18h5l-5 5v31q17 15 17 77v18l11 9v9h-5l5 45v67l-11 32h-6q-31 -23 -57 -23l-5 5v13q0 20 22 32q0 27 74 27zM127 226q64 0 74 -171
q-33 -59 -102 -59h-6q-19 14 -34 14q3 54 11 54l-11 36q11 20 23 22h11q17 0 17 -49v-23h17q17 3 17 36v27l-28 99v5z" />
    <glyph glyph-name="quotedbl" unicode="&#x22;" horiz-adv-x="727" 
 />
    <glyph glyph-name="numbersign" unicode="#" horiz-adv-x="1129" 
d="M730 1553h3l4 -4l3 4q172 -18 172 -39v-7l-21 -25l-11 10q-24 -10 -50 -10h-4q-16 10 -32 10v-7l7 -7l-3 -25v-7l7 -32h-4q11 -50 22 -61v-18l-4 -10l7 -72l-7 -10l4 -25l-7 -39l7 -72v-14l-4 -14l4 -11l-4 -36l4 -3v-4q-18 -80 -18 -121v-4l7 -7h32l7 -7l43 7l32 -10
l22 7l39 -4h7v4l18 -4h43l18 18v4l-4 14q8 22 18 25h11l11 -7l-4 -43v-22l11 -17q-7 -20 -18 -29q0 -14 -7 -14h-7q-7 0 -15 21l-53 15l-4 -4h-3q-54 4 -54 11l-11 -4l-86 4h-28q-25 0 -25 -47l-18 -235h4l17 4l4 -4l197 21l7 15v3q3 75 21 75l7 -7l4 3h4q9 0 17 -49l-3 -33
l3 -3v-4l-7 -32l11 -10v-8l-21 -21h-4q-25 0 -25 18l-89 7l-25 -4v4l-29 -7l-4 3h-3q-7 -6 -86 -10l-7 -22l3 -75l-7 -67l4 -4l-4 -25v-64l4 -29l-7 -114l3 -21l-7 -7v-4q25 -59 79 -96l-25 -25q-13 18 -22 18l-64 3l-104 -10q-39 5 -39 32h3q9 13 54 21q0 6 32 18l4 4v3
l-7 61l7 21l-11 79l4 17l-4 15h4l-4 10l4 4v4l-4 3v4l4 14v7h-4l4 36v39l3 4l-3 3l3 25v61l4 21l-4 18v7l-18 4l-160 -15l-4 4h-4l-14 -7h-7v3l-54 -3h-25l-7 -7v-25l-3 -18l3 -22v-10q0 -61 -7 -61l7 -32l-3 -4v-3l3 -14l-7 -11l4 -14q-3 -32 -8 -32l8 -33l-4 -17
q0 -57 11 -68v-43l3 -36l-10 -7h-25l-15 -3l-14 3l-22 -3q-16 4 -25 28l8 68q-8 16 -8 46v8l4 3l-7 29l3 10l-10 25l3 4h4l-4 3l7 36l-3 4l3 35l-3 32l3 11l-3 4v3l3 4l-3 18l3 17l-3 4v4l3 17l-3 40l3 14l-32 3l-14 -7l-25 4h-61l-11 -7v3l-3 -3h-47l-14 3l-18 -7l-11 4
l-7 -22l4 -10h-4l15 -43l-15 -11q-39 13 -39 64l4 11l-4 21q0 31 14 50h11l14 -25l4 4l11 -4l207 15h11q7 0 10 28l-10 68l7 11l-4 25v32l4 14l-4 14v15l4 21l-4 3v4l7 32l-17 4l-25 -4l-4 4h-4l-14 -4l-11 7l-10 -7l-18 4h-18l-54 -4l-3 4v-7l3 -29l-18 -28h-3
q-22 11 -22 53l4 4v3l-11 18v21l-3 29q3 53 18 53q32 0 32 -25l-11 -14l4 -3v-4l-4 -32v-4h189l4 36v46l-4 40l4 3v4l-4 3v4l4 3v4l-11 71l4 4l-4 18v18l7 7l-3 17v15q11 34 11 96v4l-4 14l7 32l-3 25v39l3 39q-10 56 -28 75v22q0 10 39 10h43l3 -3l4 3h4q132 -9 132 -25
v-10q-10 -21 -82 -40l-4 -3l4 -18v-11l-4 -3l14 -72l-3 -24l7 -82l-11 -54l4 -4v-3l-4 -11l4 -25l-18 -64l3 -11l-3 -3v-4l3 -3l-3 -25v-72l-4 -3l4 -4v-7q0 -25 -7 -39l3 -22h68l40 4l3 -4l75 8l11 -4q93 10 93 18q6 68 11 68l-4 3v11l4 68l-4 75v14l4 14l-4 4l4 25v42
l-4 22l4 14l-4 4v3l4 18l-15 93l4 14l-14 46q7 32 25 32q8 0 21 -117l-4 -4v-3l8 -25h-4l7 -29l-3 -14l3 -25h-3l3 -4v-3l-3 -100l3 -11l-3 -14v-21l3 -36l-3 -21l3 -11l-7 -68l4 -14l-4 -4v-3l4 -4l-4 -18q5 -35 11 -35l21 10l15 -3l10 3v18l4 14l-4 15q1 17 7 17l-3 11
l3 4v3l-3 4v3l11 43l-4 11l7 43l-3 35l3 22l-7 21l7 57l-3 4l7 75l-4 14h4l-7 25l3 3v4l-3 11h3q-18 31 -25 103l-3 4q-22 13 -22 25q-21 0 -21 18l-22 24v18l7 7h7l4 -3h4zM344 1482q0 -5 28 -15l4 4v7l-22 11h-3zM808 1485h11v-7h-11v7zM326 1446v-36l-4 -3q7 -27 7 -79
q-7 -135 -18 -182l4 -82h-4l11 -82v-10l-3 -11l3 -18v-28l-3 -40l17 -21q-28 -22 -28 -135l3 -47h-3l3 -3v-43l8 -22l-8 -39l4 -18l-4 -10l4 -4v-3l-4 -15l8 -18l-4 -21l4 -3v-4l-4 -4v-3l4 -11l-4 -14l4 -4v-3l-4 -11l4 -4v-3l-8 -32l8 -36l-8 -32l4 -11l-4 -50
q8 -67 15 -67l-4 -18v-14l4 -15l-4 -14v-14q0 -22 22 -22h7q7 0 7 25h4l-4 4v21l4 4l-11 89l3 4v3l-3 29l3 3v4l-3 3l3 18v54l4 35l-4 25l4 25l-7 25l7 29v82l4 14l-4 14v54l4 3l-4 4v28l4 15q-8 20 -8 57l4 3h4l-4 11q4 96 11 96l-4 18v11q1 53 7 53l-3 4v28l10 107l-3 4v4
q11 39 11 74l-4 11h4l-4 4v3l11 47v3q-7 129 -15 129l4 3v4q-6 64 -39 64zM715 858l-3 -4v-3l-4 -58l7 -21h-3l3 -3v-18l8 -43l-8 -11l8 -43l-8 -64q9 -21 15 -21q28 3 28 14l-3 4q3 61 11 71l-4 18l7 110l4 4h3l-3 18v3l3 43l-3 4h-11l-32 -4zM655 851h-54l-14 -8l-11 8
l-125 -18l-4 3l-18 -3h-10l-4 3q-21 -4 -21 -10l-7 -90l3 -53l-3 -4v-3l3 -14l-3 -15l7 -10l-4 -18l4 -22l-4 -28q3 -18 11 -18q156 0 236 14v-3q50 5 50 18q3 42 7 42l-4 4v21q0 93 -10 136h3l-3 3v43l3 14l-3 11zM712 515l3 -3v-4l-3 -50l3 -43l-3 -74v-11l-7 -11v-3
l3 -15l-3 -25v-32q0 -36 10 -50v-42l-7 -11q15 -30 15 -64v-25l-8 -11l4 -4h47v22q-15 9 -26 53q0 25 8 25l-4 4v28l11 15l-11 10l4 36v18l-4 53h4l-4 4v7l4 21l-8 18l8 18l-4 4l4 18l-4 10l7 7v111l4 3q-2 10 -18 15q-17 -5 -25 -22z" />
    <glyph glyph-name="dollar" unicode="$" horiz-adv-x="1028" 
d="M401 1854h4q45 -25 45 -82h-4l4 -3v-8l-11 -74l3 -4h4q0 9 110 12l41 -4l8 23l-4 4l7 43q-16 13 -45 15l-4 4v27q0 13 38 16l11 -4q0 23 31 27q0 -21 34 -27l3 -4v-27l-11 -97l196 -62l42 -39l22 -39q0 -93 -68 -93q0 -10 -41 -16h-30q-76 35 -76 82q22 46 61 46h11
l11 -11q-1 -17 -41 -39v-4q24 -35 56 -35q80 12 80 54h-4l-15 -11h-19q-51 63 -121 85q0 12 -53 12h-11l-4 4h-4v-8h-3l3 -12l-11 -186l8 -74h-4l4 -4q-3 -23 -8 -23l4 -4l-4 -12l4 -46l-4 -24l11 -50l-15 -55l8 -42l-4 -4v-4l4 -12l-8 -27l8 -50l-4 -4l11 -8l4 4h4
q158 -41 226 -117q87 -68 87 -132q19 0 19 -54q7 -3 15 -35l-4 -16l4 -15v-8h-4l4 -47v-46q-33 -191 -53 -191q0 -25 -41 -58q-47 -68 -136 -117q-21 -22 -98 -46l-11 -43q11 0 11 -8l-4 -11l8 -66l-4 -47l4 -11l-4 -4v-4l4 -23q0 -54 -72 -78h-30q-21 0 -30 23v8q0 7 30 23
l4 28l-8 147l-19 15l-26 -4l-4 4q0 -11 -8 -11h-3l-8 7h8v4h-4q-96 -50 -155 -50h-11l-19 4l-7 -8h-46l-34 15q-27 23 -79 28l-64 15q0 9 -83 74l-11 23v24l-4 42q34 74 87 74l53 8q52 -19 52 -82q-2 -35 -7 -35q8 -54 38 -89q0 -27 86 -27l42 -4l22 4v-4l8 -8q0 8 41 12
l4 4v4l-7 7l7 24v155l4 23l-4 16l4 12l-4 23l8 8l-15 97v46l3 59l-15 151v8l4 23q-10 24 -19 113h-4l-7 -47l4 -11l-4 -20v-46q9 -63 19 -63l-4 -11q5 -163 11 -163l-7 -51l7 -15l-3 -24l7 -66l-7 -15l7 -63l-4 -31v-11l4 -16l-4 -4v-4l4 -15l-7 -23l3 -16q-7 -18 -15 -19
h-11l-19 19v4l8 8l-4 4v3l4 140v4l3 4l-3 4v62l-4 39l4 23l-4 31l4 66v4l-8 31v4l-4 70l4 16l-19 113l4 73l-4 12l12 124q-91 29 -110 43l-4 -4h-3q-61 13 -61 31l-4 -4h-3q-3 12 -38 20q-68 54 -83 78q-8 17 -8 54h-3l3 19v39l4 16l-4 4v4q8 67 31 128q13 32 86 132l53 46
q9 16 68 55l79 43q12 8 12 27v19l-4 12l4 19v47q-27 5 -27 15l-19 -3h-19l-15 11q3 27 27 27h4l34 -3q19 3 41 19zM405 1792v-20h7v20h-7zM409 1722v-8h-4l4 -4l-8 -27h15v12l-4 27h-3zM439 1601l3 -31l-7 -15l4 -16l-4 -4l15 -73l-4 -28l4 -4q-8 -42 -8 -139l4 -24l-7 -85
l3 -4v-4l-11 -19l19 -43l-4 -4l12 -93l-4 -12l7 -12l87 -7l4 4l19 -4h34l7 7l-4 16l-18 -4q-9 0 -19 27l4 27v43l11 132l-4 20l4 15l-4 51q7 97 11 97l-3 19v28l3 101l-3 3v4l3 16v19q0 35 -64 35l-41 4q-33 0 -49 -43zM397 1625v-8q6 -16 12 -16l3 4q-7 18 -15 20z
M273 1442v-43l-8 -23l4 -19l-4 -4l4 -20v-15l-4 -24q15 -34 19 -108h-4l8 -24v-7l-4 -4q26 -66 76 -117v39l-12 35l8 23v4l-4 16q5 19 11 19l-7 31v27l4 55l-4 11l4 20l-4 23h4l-4 4v31q0 22 15 55l-4 27l4 46l-4 16l8 54l-4 31h-11q-50 -28 -80 -124q0 -27 -7 -35zM77 1232
l3 -4v-3l-7 -20q28 -97 49 -97q91 -70 151 -70l19 -8l3 -4l12 -4v4l3 12q-31 0 -64 144l4 4v4l-15 108l4 12l-4 23q0 97 11 97l-3 4q13 109 26 109v20q-86 -77 -109 -109q-12 0 -12 -20q-14 0 -45 -81q-11 -16 -26 -121zM405 1524v-27h4v27h-4zM405 1481q-2 -39 -8 -39l4 -4
v-4l-11 -38l3 -4v-8l-3 -55l7 -15l-7 -89l7 -63l-4 -19h4l8 8v19l7 97l-3 27l3 90v54l4 4l-4 4v4l4 23zM616 1329v-27h4l7 20zM397 1077l-7 -39q0 -39 34 -39v20l-15 11l-4 4v43h-8zM397 949v-8l4 4h4q15 -8 15 -20l7 8v4q0 9 -30 12zM461 929v-35l4 -11l-4 -20v-74
q0 -29 -15 -54l4 -78l-8 -23q9 0 12 -47h-4l4 -4v-3l-4 -28q9 0 11 -31l-7 -15l4 -12l-4 -39l4 -11l-4 -4v-4l15 -55l-8 -97l4 -4v-4l-4 -15l4 -12l-7 -23l3 -16v-3l-7 -12v-4l7 -12v-4l-3 -42l3 -4v-4l-3 -12l3 -4v-3q-8 -32 -22 -32v-3h3q60 0 114 73l26 51l8 23l-8 20
l4 50l-4 31q5 35 11 35l-7 264l4 12l-8 27l4 16l-11 128l7 39l-4 15l4 4v4l-4 4v4l4 35q0 31 -75 31v4q-46 -4 -46 -12zM684 925q49 -61 49 -105v-23l-4 -4l4 -4v-4l-4 -3v-4l4 -12l-8 -12q8 -15 8 -42v-43l-4 -4l4 -4v-54l-4 -4l4 -4v-4l-19 -167q-7 0 -7 -43
q-17 0 -31 -144v-19l4 -47h-4l4 -3v-12l-4 -20h23q55 23 170 109q83 111 83 140q15 105 26 105l-7 47v4l7 66q-6 0 -19 66q-6 0 -7 19h3q-37 107 -98 136q-44 58 -75 58l-91 35h-7zM616 914l-8 -31l4 -12v-8h-4l4 -27v-35q0 -58 12 -113l-4 -15l4 -51l-4 -15l4 -4v-4l-4 -19
l7 -24l-7 -23l7 -16l-3 -46l3 -55l-3 -11l3 -16l-3 -4v-4l3 -15l-7 -31v-24l7 -11l-3 -12q12 0 22 58l-7 24l3 11l-3 12l15 74l-4 78v23l4 4l-4 4v11l4 12l-8 66h4l-23 132l8 62q-2 55 -19 55zM424 906v-31h7l4 19q-8 0 -8 12h-3zM665 879l-8 -66l8 -28l-4 -3v-4
q19 -61 19 -82h-4l8 -19l-4 -4v-4l4 -35v-16h7l4 16l-4 23q3 66 8 66l-4 4v82q-15 70 -30 70zM684 611v-16h4v16h-4zM43 199q0 -59 71 -93q0 -12 53 -32h11v4q-22 87 -22 117l4 23q-6 0 -15 27l-23 8q-79 -15 -79 -54zM639 210v-19q-8 -9 -12 -39l4 -19h8l7 7l-4 24l4 11
l-4 12l8 8v8l-8 7h-3zM635 78v-15l11 -4l4 4l-4 23h-4zM390 -7h15l7 -7v-90l-3 -23l3 -4v-4l-7 -27l4 -4h3l53 19l8 -11q0 -53 -80 -59q-67 0 -67 32v7q6 16 26 16h23v4l-4 19h4l-4 4l4 27v4l-4 16q9 81 19 81zM646 -69q0 -15 -26 -15v-31q2 -24 11 -24h11l12 16l-4 11l4 24
v11z" />
    <glyph glyph-name="percent" unicode="%" horiz-adv-x="1049" 
d="M808 1736h32l152 -16q40 -16 44 -28q-39 -36 -112 -64l-64 -148l-36 -92q0 -15 -44 -92q0 -19 -76 -164l-52 -112q0 -18 -56 -136q-27 -87 -64 -148l-40 -112q0 -15 -32 -68q0 -18 -52 -136l-36 -92q0 -14 -20 -32l4 -4v-4l-60 -164l4 -12q-9 0 -16 -36v-12h8
q52 0 52 -36q-22 -20 -112 -28l-44 12q-17 -8 -64 -8h-80q-44 6 -44 16l4 4v4l-4 12q57 36 100 52q25 7 48 88q9 0 12 40q23 31 40 104q20 12 36 76l160 368q9 0 24 56q52 62 104 216q10 0 20 52q20 66 76 180q0 22 36 100q88 212 144 300l-4 4v28q0 30 12 32zM652 1280
l4 -4v-4q-52 -110 -92 -224q0 -13 -56 -132q0 -30 -76 -156q-51 -109 -84 -208q-26 -39 -60 -140q-6 0 -40 -72h-4l4 -4v-4q-20 -29 -40 -92q-27 -96 -44 -96l4 -4q-9 -76 -32 -76l-52 -12v-4q0 -8 36 -8v-4l24 8l4 -4l40 4h8l32 -8l28 76q0 28 40 112l116 300l48 120
l92 232l84 196q8 3 56 128q12 0 28 52q31 57 48 116q22 17 40 80q16 56 52 116q35 116 68 116h4v4l-12 4l-12 -4l-56 8h-4q-11 -5 -72 -144q-44 -75 -104 -232q-13 -36 -20 -36zM192 1560q64 0 64 -44l4 -32l-4 -4v-4l4 -36v-36l-4 -4l4 -4v-16l-8 -8l4 -4q0 -134 -60 -188
l-20 -8h-4q-32 11 -32 64v72q1 20 8 20l-16 92l4 4h4l-4 4v16l4 24l-4 4v4q0 60 24 60q0 19 32 24zM168 1448l8 -48v-8h-4l8 -76q-8 -20 -8 -72v-24h4q32 0 48 184l-4 24h4l-4 4v68q0 22 -16 28q-28 0 -28 -40q-7 0 -8 -40zM764 460q100 0 100 -24v-12l-4 -12l8 -68h-4l4 -4
v-20l-4 -20l8 -44l-4 -20l4 -4v-4l-4 -16l4 -4v-4l-12 -60l4 -12l-8 -44l4 -4v-4q-22 -68 -52 -68q-22 0 -68 108v72q14 268 24 268zM788 388l4 -36v-4q0 -21 -12 -36l16 -12q0 10 40 28l-4 4v28l-4 24l4 24q-6 16 -12 16h-12q-10 0 -20 -36zM792 288l-16 -28v-20l4 -20
l-8 -36l4 -4v-4l-4 -36q8 0 8 -32l28 -36q12 0 24 148l-4 4v4l8 24l-24 36h-20z" />
    <glyph glyph-name="ampersand" unicode="&#x26;" horiz-adv-x="1312" 
d="M459 1695l13 -4l4 4h4l16 -4l21 4v-4l4 4l21 -4l12 4l16 -4l4 4h4q124 -47 160 -83q41 0 70 -129v-17q0 -30 -8 -46l4 -17l-29 -79q-28 -25 -28 -54q-12 -4 -45 -58q-81 -114 -152 -175v-9l86 -166q63 -97 82 -158q38 -46 74 -117q8 0 8 -21q19 0 29 -58q15 0 20 -25
q21 -12 21 -38q15 0 24 -33q13 0 13 -33q18 -8 20 -17v-4l-4 -4v-5q6 0 37 -58l66 -75l28 -29l58 -88q0 -17 20 -33q0 -45 115 -79l13 -8l4 4h4q23 -5 49 -33v-8q-10 -21 -45 -30q-80 24 -131 55h-62l-16 -5l-74 17l-54 -12q-61 4 -61 16v13q22 33 70 33q22 16 37 16
l-91 146q-38 109 -78 154h-4q0 -55 -57 -79q-125 -75 -152 -133q-40 -43 -111 -75v4l-135 -46v4l-29 -12l-57 8l-5 -4h-4q-53 6 -53 12l-4 -4h-12q-20 0 -58 25q-28 4 -74 50l-37 88l-12 50l-4 4v4l4 4l-4 13v8h4l-4 29v9l4 45l-4 5v4q12 154 103 291q34 41 41 63l172 171
q0 17 82 79v12l-41 67q-17 61 -111 192l-49 100l-33 116v59l8 25l-4 12l25 54l78 50zM439 1637l-12 4q-177 -42 -177 -67q0 -21 41 -75q0 -21 82 -183l86 -150q14 -6 46 -71l16 -12q12 0 70 50q15 0 20 29l-4 25q54 80 54 146q8 0 8 33h4l-4 4v13l12 16q-20 87 -37 117
q0 24 -66 71l-41 8l-16 -4q-21 0 -21 50l-4 4h-32zM607 1628v-8q35 0 90 -121q0 -41 21 -75l-16 -75v-46q-9 -9 -13 -45h4q8 0 21 45q12 0 20 25q24 24 37 96l8 21l-8 8v9l4 4l-12 46h4q-66 104 -139 104q0 9 -21 12zM201 1495v-29q8 -43 41 -129q12 -3 45 -88
q65 -88 103 -171l45 -75q24 0 33 -8l-4 -21v-12l53 -84q0 -9 70 -104q116 -146 246 -375q24 -55 41 -75l90 -179q12 -8 74 -125l25 -16l49 8q-10 7 -62 112q-13 7 -41 63q-79 69 -106 142q-43 60 -78 133q-11 0 -37 67q-61 86 -164 287l-41 62q-37 91 -78 146q0 21 -25 38
l-66 108l-45 88q-52 81 -111 216l-32 59v4h-9q-11 0 -16 -42zM418 928q0 -24 -57 -45l-12 -21v-13l4 -16q-7 -29 -49 -29l-66 -155q0 -39 -21 -83v-4l4 -17l-24 -116v-55l-4 -54q0 -67 41 -146q0 -56 78 -87l24 -4q114 0 255 125q26 33 94 66q33 30 78 55l21 41v21
q0 26 -95 167l-61 87q-116 151 -181 267l-16 16h-13zM221 724q0 -9 -28 -25q0 -8 -25 -16q0 -18 -33 -54q0 -15 -37 -63q-49 -130 -49 -150l-12 -67l8 -12l-8 -42l4 -4v-4l-4 -29q43 -154 74 -154q49 -46 139 -46l4 4q-45 55 -74 150q-8 0 -20 67l4 37q-8 0 -8 13
q0 60 16 154l-4 4v4l8 21l-4 12q12 19 21 100q18 66 37 96v4h-9zM1112 716l20 -4l4 4h5q26 -4 65 -71q0 -40 -29 -87q-23 -43 -110 -96q-13 0 -13 -13q-19 0 -32 -16q-61 -25 -87 -25l-12 16v5q5 10 94 50q62 34 95 70q-41 34 -41 80v4q7 7 12 50zM1112 616v-4q24 -8 24 -25
h5q16 12 28 46l-33 37h-4q-13 0 -20 -54zM271 62l-4 -4v-4h12z" />
    <glyph glyph-name="quotesingle" unicode="'" horiz-adv-x="171" 
d="M90 1699q64 0 64 -104h4l-12 -80l4 -4v-20l-4 -20l4 -24v-8l-4 -12l4 -20v-68q0 -40 -32 -40q-72 16 -72 56q-9 0 -12 20h4l-12 56l4 16l-4 28l8 80v28l-4 48l32 8l8 -8v-20l4 -36l-4 -16l4 -4l-4 -20v-124q7 -60 36 -60v4l4 24v124l4 24l-4 4l4 20v48q0 47 -44 68v16
q2 8 20 16z" />
    <glyph glyph-name="parenleft" unicode="(" horiz-adv-x="326" 
d="M304 1706q25 -3 25 -13v-13q-34 -39 -98 -140l8 -52v-18l-4 -17l4 -5v-4q0 -22 -8 -22l4 -4l-8 -52l4 -27l-4 -35l8 -8v-31l-8 -13q3 -31 8 -31l-8 -43l4 -5v-34l-4 -14l4 -21v-44q0 -44 -8 -44l4 -4l-16 -157l4 -5v-4l-4 -4v-13h4l-4 -31v-70q0 -23 -12 -39v-4l8 -9
l-8 -61l8 -44l-8 -26v-31q0 -96 -8 -96l4 -4v-70l4 -17l-8 -53l4 -39v-31l8 -13v-4q0 -59 8 -96l-4 -13q17 -71 73 -113q0 -19 53 -35l4 -5q-19 -35 -45 -35q-97 71 -97 114q-45 88 -45 109q-10 0 -16 56l-9 9l5 22q-10 0 -41 140q0 30 -20 96h4q-6 39 -13 39l4 22v4l-16 87
v22l4 5l-8 26v17l4 5v4q-12 0 -12 9l4 4l-4 22v57l4 4l-4 4v5q7 74 12 74l-4 4l8 88l-4 4h-4l4 22l-4 22q3 48 20 48v4l-12 26l8 31l-4 4l21 83l-4 5v4q40 160 57 175l40 148q10 0 25 48q15 9 65 96zM195 1435q-25 -36 -45 -126q-49 -116 -49 -162v-17l-8 -18l4 -4v-4
l-8 -27l4 -4l-8 -39l4 -18v-4l-4 -4l4 -5l-8 -65l4 -5v-4l-4 -26l4 -44l-8 -22l4 -13l-8 -135l4 -4v-5l-4 -4v-5l4 -4v-4l-4 -31q11 -13 36 -201v-26l41 -144l8 9v13l4 61l-4 4v5l8 65l-8 48q9 16 12 66q-8 0 -8 13l12 83l-8 17l12 105l-4 13l4 4l-4 18q3 39 8 39l-4 5v4
l4 4l-4 22q4 83 17 140l-4 22h4l-4 4v4q12 78 12 131v22l4 5v4l-8 9v8q9 10 12 48l-12 40l4 17l-4 39v14l4 17l-4 13l4 35l-4 4h-4z" />
    <glyph glyph-name="parenright" unicode=")" horiz-adv-x="330" 
d="M87 1697q124 -161 149 -319l37 -112l32 -207v-5l4 -138h-4l4 -4v-13l-4 -4l4 -5q-6 -105 -16 -112l4 -4v-5q-4 -53 -12 -60l4 -13l-4 -21v-35l-8 -13l4 -4v-5l-8 -8v-56l-49 -156q0 -23 -32 -99q-8 -39 -20 -39l4 -4v-4l-4 -5l4 -4v-4q-35 -131 -77 -164q0 -21 -57 -116
q-37 -42 -92 -61h-8l-17 26q61 0 125 134q34 43 41 77l-4 39h4l-4 4v5l4 47l-8 13l4 4v5l-4 13q6 73 12 73l-4 4v39l4 4l-4 5v17l12 125l-4 30l8 44l-4 69v17l4 60l-4 30q10 0 16 91l-4 17l4 5v4l-4 17q11 0 20 181l8 9v13l-4 47l4 56v35l-4 22l8 8l-4 4h-4l8 39l-4 48v64
l25 18q-18 69 -73 142q-29 32 -29 91l5 4h16zM180 1421l-8 -121l4 -13h-4l4 -4v-9l-4 -4l8 -26v-13l-4 -17l4 -4v-5l-4 -47v-9l4 -4v-5l-8 -8l4 -17l-17 -108l4 -18l-4 -4v-4l4 -17l-8 -13l4 -35l-8 -30v-30l-8 -13l8 -13q-5 0 -20 -86l4 -35l-4 -65l4 -69l-4 -4v-4l4 -5
l-4 -21v-17q0 -61 -12 -104l4 -13l-4 -43l12 -78q-12 -22 -12 -43l8 -8q5 0 20 69q45 92 89 297q16 81 37 363l-4 21l4 30q-28 192 -49 242l-32 121l-8 43h-4z" />
    <glyph glyph-name="asterisk" unicode="*" horiz-adv-x="727" 
d="M238 1561h37q5 -5 33 -10l2 3q31 -3 40 -10l9 2q16 -2 16 -5l3 3h2l28 -5h12l2 -3l2 3h3q35 0 35 -10v-10q-8 -10 -47 -28l-2 -7l2 -3v-2l2 -70l-2 -48l2 -10l-4 -45l2 -2h2l82 75q10 0 10 15q10 4 16 15q0 5 -28 30v7q3 10 21 10h2l42 -32l40 -53q-5 -15 -9 -15h-5
q-13 6 -40 35l-93 -82q-6 0 -24 -28v-5h3l28 3l9 -3l7 3v-3l2 3h26l3 -3l2 3h28l2 -3l3 3h2l33 -3l25 3l3 -3h2q30 16 30 43l12 17h7l7 -7v-48l-2 -15l2 -7l-5 -35l3 -18l-3 -55v-10q-3 -10 -16 -10q0 13 -23 35q-7 25 -17 25l-14 3l-53 -13h-7l-3 3l-75 -20h-7l40 -43
q0 -8 66 -72h7l32 45h5l7 -5q-3 -33 -21 -60l7 -15v-8l-12 -10l-14 3q-28 -15 -37 -15l-7 17q0 5 19 23v5l-92 100l-28 15l-2 -8l2 -12h-2l2 -3l-2 -15l2 -37l-2 -43l5 -15v-52q0 -10 51 -13l9 -15v-5q0 -12 -56 -22q-18 -10 -123 -28l-7 13q0 17 28 22q8 0 11 38l-7 45
l3 25l-3 37h3q-5 20 -5 53l2 20l-2 30v7l2 3l-2 7h-2q-13 -6 -80 -77q-7 0 -7 -10q-12 -19 -37 -43l-7 -15q0 -20 47 -35v-7q0 -8 -21 -13h-5q-19 0 -56 48l-40 37v13l7 7h7l37 -25h8q13 8 93 100q9 0 35 40v3h-19l-11 -8q-12 0 -12 5l-7 -2l-40 2l-25 -5l-12 3l-10 -5
l-11 2h-5q-49 -6 -56 -10l-9 3q-40 -5 -40 -20q-11 -40 -28 -40q-7 6 -9 30l2 10l-5 52l3 3h2l-7 52q0 31 16 45h5q28 -9 28 -45l-2 -7h2l35 5v-3l2 3h49l3 -3l2 3h110l47 5q0 4 -40 37q-33 34 -33 48q-25 41 -70 57h-2q-48 -28 -59 -40h-4l-5 5v15l108 93h7l7 -8v-15
q-22 -12 -33 -32v-3q12 0 40 -27q35 -43 49 -68q7 0 58 -45l5 5l-3 3v25l3 42l-3 25l3 18l-3 7l5 18q-4 0 -7 12l5 15q-12 68 -63 68q-23 0 -33 15v12zM338 1521l-2 -2v-3q0 -15 18 -32l-2 -23l2 -17l-4 -18l2 -7h-2l2 -3l-2 -12v-43l-3 -2l3 -3v-27l-3 -10l3 -3v-2l-3 -3
l3 -12v-35l-5 -18l2 -20l-4 -62l7 -53l-7 -30l4 -20v-2l-2 -3l5 -32l-3 -15l3 -18l-3 -2l10 -70v-3q53 3 53 13l-14 12l3 13v2l-3 23l3 2v3l-7 52l4 23l-2 2v3l2 52v8l-2 12h2l-2 3v2l2 3l-11 47l9 10v28l-2 12l-12 -2l-7 15q2 9 21 27l-2 20l2 13l-2 2v3l4 35l-4 5v17
l-3 23q7 11 7 45l-2 12h2l-7 48l3 2l-3 8zM23 1266l2 -15h2l5 20l-2 13q-4 0 -7 -18zM621 1249h-17l-18 5l-7 -5h-28l-19 5l-45 -5l-7 2q-65 0 -65 -15l-2 -7l2 -13v-27h2l7 7l28 -2l152 25q33 -5 33 -35h5v2l4 80h-7zM303 1241h-49l-65 3l-45 -3l-2 -2h-3l-9 2l-2 -2h-3
l-2 2h-2l-12 -2l-14 2q-34 0 -58 -17l-5 5l-7 -8l2 -2v-3l-2 -10l7 -20l33 20l2 -2h2q53 12 73 12l21 -2l4 5h22l25 5h24l21 -3l44 8h14q5 0 7 17h-2z" />
    <glyph glyph-name="plus" unicode="+" horiz-adv-x="1196" 
 />
    <glyph glyph-name="comma" unicode="," horiz-adv-x="276" 
d="M150 257h10q38 0 74 -168l-6 -37l11 -37h-5l5 -5v-6l-47 -220q0 -36 -48 -74l-73 -37q-32 11 -32 43q0 28 69 42q33 33 57 136l11 37l-5 27l10 15l-5 27l5 31l-16 26v11l6 5q-6 42 -16 42h-5q-39 -68 -90 -68l-15 -6h-6q-21 0 -26 74q0 83 137 142zM74 162l15 -5
q14 0 58 58v16h-21q-52 -47 -52 -69z" />
    <glyph glyph-name="hyphen" unicode="-" horiz-adv-x="606" 
d="M476 784q105 -23 105 -99v-52q-16 -18 -46 -18l-13 6l-64 -11l-23 5l-50 -11l-32 6l-22 -6l-5 6h-4l-14 -6l-18 6l-41 -6l-14 6l-5 -6h-4l-41 6l-14 -6q-68 8 -68 41q0 14 59 17v6l-13 6q-88 0 -110 -70l-4 -6h-14l-9 12v35q48 93 105 93l4 -6h5l4 6l32 -6h55l27 6l5 -6
l191 46zM349 691v6q-82 -18 -82 -29l55 -6l18 12l4 -6q178 11 178 29l-55 29z" />
    <glyph glyph-name="hyphen" unicode="&#xad;" horiz-adv-x="606" 
d="M476 784q105 -23 105 -99v-52q-16 -18 -46 -18l-13 6l-64 -11l-23 5l-50 -11l-32 6l-22 -6l-5 6h-4l-14 -6l-18 6l-41 -6l-14 6l-5 -6h-4l-41 6l-14 -6q-68 8 -68 41q0 14 59 17v6l-13 6q-88 0 -110 -70l-4 -6h-14l-9 12v35q48 93 105 93l4 -6h5l4 6l32 -6h55l27 6l5 -6
l191 46zM349 691v6q-82 -18 -82 -29l55 -6l18 12l4 -6q178 11 178 29l-55 29z" />
    <glyph glyph-name="period" unicode="." horiz-adv-x="209" 
d="M79 270q95 0 95 -76l10 -46q-14 -148 -129 -148q-33 0 -45 25v87l-10 82q3 30 15 30h35q0 24 29 46zM65 209h-20l15 -97l-5 -5l5 -46q51 0 74 77q0 48 -35 76z" />
    <glyph glyph-name="slash" unicode="/" horiz-adv-x="569" 
 />
    <glyph glyph-name="zero" unicode="0" 
 />
    <glyph glyph-name="one" unicode="1" 
 />
    <glyph glyph-name="two" unicode="2" 
 />
    <glyph glyph-name="three" unicode="3" 
 />
    <glyph glyph-name="four" unicode="4" 
 />
    <glyph glyph-name="five" unicode="5" 
 />
    <glyph glyph-name="six" unicode="6" 
 />
    <glyph glyph-name="seven" unicode="7" 
 />
    <glyph glyph-name="eight" unicode="8" 
 />
    <glyph glyph-name="nine" unicode="9" 
 />
    <glyph glyph-name="colon" unicode=":" horiz-adv-x="188" 
d="M44 888h8l12 -16l4 -4h4q0 6 28 20l4 -4h4l20 4q16 -26 16 -40v-16q-21 -151 -36 -196l4 -4v-4q-5 -40 -36 -40q-48 41 -60 76v8l4 4l-4 4q8 36 8 96l8 8l-4 44l4 12l-4 4v4q5 40 16 40zM68 856l-4 -12l4 -4v-4l-4 -12l8 -12q-9 -84 -16 -84q5 -68 16 -68q8 6 24 164
l8 12l-32 20h-4zM40 332q0 -19 44 -28q44 -42 44 -128l-4 -24v-28l-4 -4l4 -4v-8l-12 -16l8 -16q0 -28 -48 -76q-47 0 -72 76l4 16l-4 16l16 116q-9 0 -12 44l4 4v4l-4 4v4q10 44 16 44zM52 264v-16q0 -28 -8 -44l4 -20q-5 -79 -12 -88q7 -36 16 -36h12q9 0 20 60l-4 28l4 4
l-4 20v48q0 17 -16 40v4h-12z" />
    <glyph glyph-name="semicolon" unicode=";" horiz-adv-x="242" 
d="M95 894h28l20 -56q23 -56 32 -116q0 -120 -68 -148h-4q-30 0 -36 84l-4 4v4h4l-8 28l4 4v4l-4 24l28 144zM107 786l-12 -48v-20q0 -50 20 -76l20 64q-6 0 -20 80h-8zM99 246h8q48 -38 48 -104q8 0 8 -20l-4 -24l4 -4l-4 -16l4 -40h-4l4 -4v-8l-24 -108
q-42 -140 -108 -140h-4q-34 0 -44 32l-8 8l8 12l40 -12q54 0 96 208l-4 16q8 0 8 12l-8 32h-4q-52 -48 -76 -48q-28 0 -32 36h4l-4 4v40q10 63 36 80q33 47 60 48zM35 114v-20l8 -8q60 47 60 92v4l-12 12q-27 0 -56 -80z" />
    <glyph glyph-name="semicolon" unicode="&#x37e;" horiz-adv-x="242" 
d="M95 894h28l20 -56q23 -56 32 -116q0 -120 -68 -148h-4q-30 0 -36 84l-4 4v4h4l-8 28l4 4v4l-4 24l28 144zM107 786l-12 -48v-20q0 -50 20 -76l20 64q-6 0 -20 80h-8zM99 246h8q48 -38 48 -104q8 0 8 -20l-4 -24l4 -4l-4 -16l4 -40h-4l4 -4v-8l-24 -108
q-42 -140 -108 -140h-4q-34 0 -44 32l-8 8l8 12l40 -12q54 0 96 208l-4 16q8 0 8 12l-8 32h-4q-52 -48 -76 -48q-28 0 -32 36h4l-4 4v40q10 63 36 80q33 47 60 48zM35 114v-20l8 -8q60 47 60 92v4l-12 12q-27 0 -56 -80z" />
    <glyph glyph-name="less" unicode="&#x3c;" horiz-adv-x="1196" 
 />
    <glyph glyph-name="equal" unicode="=" horiz-adv-x="1041" 
d="M53 983h4q19 -22 36 -24l12 4q91 -4 184 -20l4 4l28 -4l184 12l28 -8q0 10 80 20h8v-4l20 4h124l12 -8l8 8h24l12 -8l4 4l72 -12l20 4h12l24 -4l20 4l16 -24v-40l-8 -12l4 -4v-4q-21 -32 -52 -32l-8 8l-4 -4h-4l-12 4l-84 -8v4l-4 -4h-4l-12 4q0 -12 -60 -16l-56 4l-4 -4
l-20 4h-40l-12 4l-20 -4h-52l-16 -4l-12 4l-68 -12q-59 0 -120 16l-12 -4v4l-4 -4h-4l-4 4l-4 -4l-36 4l-132 -16q-84 20 -84 36q4 24 12 24h4q44 0 76 -16l72 8l4 -4h4q36 3 36 8q100 -5 100 -12l12 4l16 -4l4 4l44 -8l4 4h4l20 -4l52 12q28 -3 28 -8l20 4h116l16 4l16 -4
h56l20 4v-4l4 4h20l64 8h24l24 -4l4 4h4l24 -8q8 0 12 28q-5 8 -144 24l-12 4h-60l-24 -4l-52 8l-32 -8l-4 4l-4 -4h-12l-24 4q-21 -12 -76 -12l-40 4l-28 -12l-16 4l-84 -8q-149 4 -208 16l-24 -4q-104 4 -104 24v16q0 6 44 28zM89 607h12l12 -8l20 4q98 -24 244 -32
q92 16 260 24l28 -4l32 8l4 -4l16 4q204 0 204 -32q8 0 20 -60l-20 -12l-64 4l-68 -4l-40 8q0 -9 -52 -12l-4 4h-4l-24 -8h-12l-24 4l-24 -8l-4 4h-4l-40 -12l-4 4l-64 -12h-8v4l-40 -4h-40l-120 -8v4q-18 -8 -140 -16l-40 8l-16 -4l-8 8h-4l-12 -8q-52 0 -52 52v4
q2 36 12 36h12l8 -8v-12l-4 -20q21 -12 96 -12h44l56 8l12 -4l68 12l12 -12q3 12 32 12l20 -4q168 8 212 24h20l172 16l24 -4h52l8 8l-104 12l-16 -4l-12 4l-4 -4h-4l-4 4l-48 -4h-24l-16 4l-92 -12l-4 4h-4l-36 -4l-16 4q-74 -20 -136 -20v4l-4 -4h-28l-32 8h-12l-16 -4
q-48 20 -140 20l-24 -8h-12q-16 7 -16 28q0 16 28 32z" />
    <glyph glyph-name="greater" unicode="&#x3e;" horiz-adv-x="1196" 
 />
    <glyph glyph-name="question" unicode="?" horiz-adv-x="1074" 
d="M804 1770h33l16 -4l16 4q108 0 168 -86q12 -24 12 -86v-8q-14 -155 -24 -155l4 -12q0 -55 -29 -107l4 -12q-9 -4 -61 -119q-33 -77 -98 -163q0 -17 -139 -180l4 -4v-4q-27 -53 -37 -53q-6 0 -32 -49q-33 -16 -33 -37q18 0 25 -16v-25l4 -20l-8 -103h-4l4 -4l-4 -20l4 -21
l-4 -24l4 -4l-9 -53l5 -21l-5 -4l9 -45l-13 -57l9 -41l-5 -4v-4l5 -25v-4l-25 -20q-86 9 -86 37l-4 4l-24 16v37l-4 16l8 37l-8 8v8h4l-13 90l5 4v4l-5 5v4l9 20l-4 57l4 41l-4 17q0 28 40 49q0 58 53 77l25 33l-4 24q89 131 106 168q61 137 61 164h8v20l13 37l-4 4v4l12 33
l-4 4v4l12 37l-4 20l16 45l-20 65v45l-8 9l8 45q-25 110 -57 143q-64 61 -106 61q-29 0 -29 8l-4 -4l-53 8l-119 -28l-85 -62q-82 -45 -82 -77q-82 -120 -82 -180l-8 -8l4 -4l-20 -103l8 -24l-8 -17l8 -8l-4 -4v-4q12 -53 20 -53l-4 -20v-9q17 -74 49 -90q7 -18 25 -28
q37 0 37 41q9 71 32 106q40 23 82 24l28 -32v-8q-36 -126 -118 -172l-24 -8l-37 4l-12 -4q-16 0 -41 32q-32 0 -82 66q-61 65 -61 106q-19 14 -37 135l-4 4l4 16l-8 9v53l4 16l-4 4q0 166 208 270q203 98 347 98l4 4l4 -4l168 29l4 4h57zM788 1729l-37 -8l-33 4
q-4 -12 -24 -12v-8q22 -1 61 -49q51 -49 57 -94l-4 -5v-4q18 0 21 -163q8 -11 12 -61l-4 -5v-4l4 -4v-4l-4 -16l4 -4v-4q-13 -77 -25 -103l4 -12q-24 -114 -61 -200v-4q20 1 86 106q151 266 151 356l12 69l-4 29l8 37v36l-4 29l4 4q-8 0 -24 49q-45 41 -106 41q0 6 -37 8
l-12 -4v4l-4 -4h-41zM261 1627l-98 -65q-93 -62 -106 -107q-16 -9 -16 -49l-8 -12l4 -4l-4 -21v-40l-4 -5l4 -4v-4l-4 -4q40 -175 61 -200q0 -16 41 -61q0 -13 8 -13l-25 135l4 29l-4 28l4 13l-4 12q13 68 21 78l-4 20q12 0 12 33l20 61q35 51 74 131q49 37 49 49h-4l-17 -4
zM302 981h4q24 0 57 65v45h-8q-41 -18 -41 -81zM514 560l8 -8l-8 -49l4 -4v-4l-8 -82v-4q8 -7 17 -82l-5 -29l5 -16l-5 -20q0 -17 58 -37l8 24l-8 29l8 82l-4 28l8 13l-8 57l8 69l-4 49l12 70l-8 33l8 8h-4q-45 -25 -45 -62l-29 -40zM608 151q25 0 25 -28l4 -4l12 -17
q0 -67 -53 -90q-17 -12 -41 -12q-43 0 -53 74q8 33 53 69zM547 78q2 -29 20 -29q28 11 37 29v4l-4 20h-8q-8 -8 -33 -8z" />
    <glyph glyph-name="at" unicode="@" horiz-adv-x="1517" 
d="M751 1586q92 0 249 -59q60 0 168 -43q92 -26 92 -79q63 -48 86 -126q81 -96 81 -152h-5l16 -49l-5 -4v-5q16 -24 16 -73v-49l-6 -44l6 -15q-50 -166 -179 -258q-69 -49 -183 -49l-92 34q0 -57 -114 -103h-32q-143 0 -200 49q-125 50 -125 156l6 25l-11 44q13 78 38 78
q14 0 70 63q50 25 108 29q159 0 254 -122q27 -27 27 -73l-5 -5v-4q0 -113 97 -113q130 129 141 230q43 92 43 185v5l5 5l-5 5v5l11 14l-6 20l6 5v5l-6 14l6 68v30q-41 69 -70 92q-117 127 -190 127q0 16 -194 54l-44 -5l-32 5q-238 -25 -238 -68q-18 -2 -130 -176
q-37 -154 -75 -229l5 -5v-5q-21 -56 -27 -171l-5 -5v-5l11 -24l-11 -29v-39l5 -25l-5 -29v-5l38 -229v-30q27 -32 27 -53h-6q19 -45 60 -98l5 -5q11 0 11 -24q20 0 43 -49q83 -62 157 -88q67 -33 216 -53q107 0 287 58q156 82 156 98q-108 0 -129 63q-33 56 -33 78
q21 112 141 112h70q135 -34 135 -97q11 0 11 -34v-15l-5 -5l5 -5v-14q-52 -115 -292 -235q-208 -63 -422 -63l-162 24l-27 -4q-50 0 -243 78q-114 27 -189 122q-103 134 -103 185l-49 171h-5l5 24v147q0 185 22 185l-5 5v5q0 57 64 224q19 23 38 88l65 93l87 68
q44 42 167 108q167 58 298 58l5 5h5zM54 820l5 -20l-5 -19l5 -39l-10 -88l10 -24h-5l5 -5v-30l-5 -5q16 -83 32 -117q22 -90 55 -136q42 -113 167 -166q74 -42 270 -98v15q-66 0 -146 97v5l6 5v5q-32 0 -87 88q-51 94 -54 166q-9 0 -10 24v20l5 5l-16 24l5 5q-11 70 -22 78
v88l-5 19l5 5v5l-5 15q4 34 11 34l-6 19l6 147l38 151l32 68l-5 5v5q27 91 65 166l102 147h-5q-91 -24 -270 -176q-54 -64 -114 -230q-11 0 -38 -151zM1346 1161v-9l11 -44q-11 0 -16 -44l5 -5q0 -136 -65 -229l6 -5v-5q-45 -107 -103 -176h5q85 31 168 151l43 108l-5 24v54
l5 29l-11 34l6 15l-38 102h-11zM735 898l22 -24v-15l-33 -68l6 -83h-6q0 -94 146 -137h17q54 30 54 63h10v20l11 39v49q0 34 -38 78h-10v-5l10 -29l-16 -20v-44q-33 -132 -54 -132l-11 10q0 36 27 137q0 57 -43 122q0 29 -22 29l-54 10h-16zM584 786v-49q0 -94 103 -127
l16 -15l5 5l-16 25l5 5v4l-16 25v53l6 25l-6 29v34q12 75 33 93h-6q-78 0 -119 -102zM1189 356q21 -88 98 -88q103 0 135 88v5q-9 36 -81 59l-44 5q-102 -20 -102 -54zM368 117l10 -10h11l-11 10h-10z" />
    <glyph glyph-name="A" unicode="A" horiz-adv-x="1367" 
d="M696 1672q0 -6 40 -16q18 -20 40 -20v-8h-20v-4q12 -14 24 -72q20 -32 48 -116l40 -188l-4 -4v-4q23 -50 56 -232l8 -20l-4 -12q24 -65 36 -152q15 -25 44 -120q10 -17 28 -108l40 -4h32l36 4l12 -4l4 4h4l4 -4l20 4h36l24 4l4 -4h4l76 8l24 -4h24l16 -16v-16
q0 -11 -40 -16q-40 -30 -40 -56l-40 -60h-12q-7 0 -24 56q-20 4 -72 48l-4 -4h-4q-13 0 -28 12h-72l-8 -8q15 -20 56 -168l96 -272q28 0 84 -56v-12q0 -28 -36 -28l-8 8l-16 -4l-24 4l-4 -4h-4l-4 4l-76 -12v4l-4 -4h-4l-16 4l-12 -4l-48 12v8q12 0 12 16q108 41 108 92
l-36 88q0 23 -52 172q0 17 -12 36l4 4v4l-28 84l-24 36l-104 -8l-4 4v4q-203 -24 -408 -36v-8h-4l4 -4v-8q-34 -73 -56 -200q-8 0 -12 -24h-4l4 -4v-4q-36 -80 -56 -176l-8 -8q0 -10 72 -28q2 -16 12 -16v-4q-14 -28 -44 -28l-24 4l-52 -8l-52 12l-28 -4l-12 4l-16 -4l-16 4
l-136 -16l-4 4h-4l-4 -4h-4q-40 6 -40 16v8l4 20h-28l-36 -20q-28 7 -28 16v8l4 4l12 4v4l28 -4h48q32 0 100 56q44 98 76 200l56 124l44 164q27 58 52 164q5 0 40 120l48 128q16 17 40 140l32 80l12 8l-4 20q6 0 20 76q26 46 56 148q17 22 60 144l-12 4v8q22 0 60 36h12z
M688 1632l-72 -164l-60 -164l-32 -104q-29 -80 -36 -128q-60 -122 -160 -476q-11 -17 -36 -120l-160 -420l12 -4l84 4l12 -4q76 0 76 28q32 132 48 132h4v40l20 44l-4 16q17 0 28 84l44 148q27 38 40 148q20 0 52 176q20 43 68 252q7 56 20 56q0 51 32 108l-4 16
q48 136 56 196q5 0 20 68q-16 68 -52 68zM844 1636h4l12 -4v-4h-16v8zM792 1632h40v-8h-40v8zM756 1484v-20l-16 -40l4 -4v-4q-28 -45 -52 -168q-16 -23 -16 -48l-4 -4h-4l4 -4v-4q0 -20 -24 -92l-48 -188q-9 0 -20 -100q-11 0 -28 -88q-6 -1 -44 -152l152 4l4 4h4l4 -4h4
q102 20 312 20l4 4v4l-12 60h4q-69 176 -100 352l-8 8l4 20q-13 68 -20 68l4 20v4q-12 17 -12 32l4 4q-8 2 -16 20l4 16q-15 35 -56 240q-11 0 -20 44zM1236 548v-4q9 0 40 -28h4l8 36h-24zM980 20h4l4 -4h4l4 4v-8h-16v8z" />
    <glyph glyph-name="B" unicode="B" horiz-adv-x="936" 
d="M275 1695l78 -4l4 4h4l4 -4l22 4l85 -8l4 4l26 -4h52q148 -37 216 -100q66 -43 101 -196q7 0 7 -39v-50l-4 -23l4 -19v-16l-7 -7l3 -20l-33 -92q0 -25 -49 -81q0 -14 -37 -50q0 -16 -15 -16q-33 -58 -108 -130q-27 -11 -104 -66q-69 -33 -104 -65v-4h15l126 -43
q73 -30 160 -111q81 -101 97 -178h-4l15 -77q0 -44 -33 -77q-8 -32 -101 -96q-51 -49 -119 -81l-3 -4v-4l-4 4h-11l3 -4v-3q-126 -35 -152 -35l-4 4l-11 -4q-37 2 -37 8l-45 -8l-11 4l-56 -8l-22 8l-48 -8l-108 19l-4 -4h-4q-21 0 -48 31v8q0 35 63 35q9 68 19 88l-8 23v12
l4 15l-4 16q0 19 8 19l-4 4v4l4 4v3l-4 12l4 62v3l-4 16l11 100l-4 35l4 54l-4 23h4l-7 42l7 31l-4 42l4 43l-4 11l4 23v23l-4 16l4 4v4l-4 3l4 16l-4 23l4 4v4l-4 15v8l12 15l-8 46v31l8 62v27l3 4l-3 3v4q2 70 7 70l-4 19v46l4 19l-4 24v11l4 39l-4 34l4 4h4l-8 31l4 23v8
l-4 15l8 23l-4 4h-4l8 58q0 23 -30 23q-16 0 -74 27q-19 0 -19 12v3q0 19 19 31q7 27 100 58l48 19l4 -4zM257 1649h-4q-7 0 -7 -12l7 -15q-7 0 -7 -12l3 -11l-3 -16l7 -42l-15 -100l4 -4v-4l-8 -42l4 -23q0 -20 -7 -20l3 -4v-3l-3 -4l3 -12l-7 -23l7 -8v-3l-3 -4l3 -4v-8
l-7 -11v-47l-4 -23l4 -11l-7 -31l3 -4l-3 -12l3 -46l-3 -4v-4l3 -3v-4l-7 -23l4 -4l-4 -27v-23l-4 -124l8 -46l-8 -19l4 -4v-15l-4 -39l4 -34v-8h4l33 15q144 0 212 62q77 39 141 88q34 19 45 39l-7 31v4q37 41 37 81l-4 15l11 46l-3 39l7 61l-4 12l8 65q-7 9 -11 54l-4 4
h-4l4 23q-23 216 -45 216q0 12 -18 31q-5 35 -41 35q0 9 -86 19l-11 -4l-104 8l-23 -4l-3 4h-4l-15 -4l-26 4zM145 1630l8 -8l-8 -23q8 -10 11 -70l-3 -23l3 -19l-7 -12l7 -104l-7 -34l4 -43v-19l-8 -11l8 -58l-8 -27l4 -35v-15l-4 -4l4 -4q-4 -58 -11 -58l3 -23l-7 -81
l4 -23l-4 -35l4 -3v-4l-8 -31l8 -62l-8 -50l4 -15l-4 -50l4 -16l-4 -4v-3l4 -20q0 -19 -8 -19l4 -4v-11l-4 -16l12 -31l-8 -65l4 -12l-4 -3v-4l4 -4l-11 -108l3 -4l-3 -46v-42l-4 -20l4 -23v-69q0 -45 -8 -62l19 4q7 0 7 -12l-7 -34q0 -9 37 -12q15 66 19 147l-4 3v4l4 23
l-4 12l4 19v23l-4 35l4 12l-8 34l8 97l-4 30h4q-11 26 -11 54l7 23l-4 16l4 19l-4 39h4l-4 3v16l4 4l-4 4v19l4 4l-4 4v30l-3 16l7 23l-4 35v7l4 16l-4 4v3l4 4v4q0 19 -7 19l3 20v3l-3 16l11 77l-4 27l11 58l-11 11q0 19 7 19l-3 4v4l7 58l-7 8l7 11l-4 4v8l8 11l-4 12
l8 77l-4 15l7 54l-3 50l3 4v4l-3 4v4l3 4v3l-3 12l18 112l-7 7l4 4q-4 43 -12 43l-7 7v16l11 23l-4 4q-63 -8 -63 -19zM63 1595v-4q0 -7 34 -19q15 6 15 11v39q-28 0 -49 -27zM673 1595v-4l30 -89l-4 -3v-4l4 -16l-4 -4l15 -107l-3 -4v-4q11 -41 11 -93l-4 -11l4 -4l-4 -46
v-19l4 -24l-8 -23l4 -4v-3l-4 -12l4 -42v-8q-7 -6 -15 -77l-11 -27h4q9 0 59 81q39 37 52 85q8 0 8 27q11 0 26 100v4l-8 7l4 20v3l-4 16l8 27q0 31 -41 146q-27 69 -127 112zM279 925l4 -4v-4l-4 -4h-7v4zM231 666l-15 4h-4l-4 -15l4 -4v-23l4 -46h-4l4 -4v-43l7 -11v-15
l-7 -8l4 -19v-8l-4 -35l4 -4v-4l-4 -15l4 -12l-4 -19v-7l7 -62v-46l-3 -4l7 -35l-4 -11l4 -35l-7 -35v-34l-4 -16l4 -15v-8l-4 -23l4 -12l55 -3l8 7h3l12 -4l18 4h19l4 -4l3 4h8l48 -4q73 0 123 23q83 30 97 51l-4 15q30 32 30 69l15 16l-4 15q0 25 15 43v23l-8 50l8 19
l-4 19l4 39q-14 15 -23 135l-74 61l-112 39l-137 23q-75 -8 -93 -16zM688 524l15 -89h-4l4 -4l-4 -46v-19l-3 -4l7 -27l-4 -19l4 -23l-26 -131h4q14 0 82 69l26 46l7 39q-42 150 -85 189q0 9 -19 19h-4z" />
    <glyph glyph-name="C" unicode="C" horiz-adv-x="1149" 
d="M796 1692q120 -14 120 -20l4 4q112 -28 112 -44v-16q-34 -112 -116 -112q-88 43 -88 72l12 32v12q0 10 -32 16h-16l-36 -4l-20 8l-40 -12l-4 4h-4q-135 -34 -216 -136q-42 -42 -84 -116l-4 -32q-14 0 -36 -88l-16 -36l4 -16q-13 -16 -28 -60h-8l8 -16l-28 -124l4 -4
l-4 -88v-44l-8 -8l4 -28v-20l-4 -24l8 -16l-12 -84l4 -24v-44q8 -9 12 -44h4l-4 -20v-4q28 -161 56 -256q88 -194 132 -204q63 -48 128 -48l4 -4q252 0 312 92v4h-12q-52 0 -52 96l-4 4v4q0 34 76 64l28 8q76 0 92 -80l8 -8v-24l-52 -80q-60 -70 -152 -92q-70 -32 -188 -32
v4l-4 -4h-96l-4 4l-4 -4h-16l-4 4l-4 -4q-36 4 -36 12l-4 -4h-4l-60 20l-4 -4h-4q-73 37 -160 108q-13 0 -48 48q-9 0 -72 84l-40 64l-36 88l-20 64l-24 116l4 4v4q-7 8 -12 64l4 12l-4 4l4 16l-8 48l4 52q-8 0 -8 12l4 32l-4 4v4l4 28l-4 4l4 20v24l-4 16l16 40l-4 20v8
q15 33 24 108l4 4l-8 12l72 168l36 68l92 120q56 36 112 84q81 65 268 104q48 0 72 8l4 -4zM892 1636l-24 -56l44 -40q47 0 76 48v20q-23 12 -88 24l-4 4h-4zM64 1120l4 -16q-8 -9 -24 -124l-4 -4v-4l-4 -72l4 -4v-4l-4 -4v-4l4 -52l-4 -16l8 -104l-4 -4q20 -234 64 -300
q0 -18 64 -128q19 -12 44 -56q144 -133 212 -148q0 10 -56 76q0 13 -52 120q-28 63 -36 128q-8 0 -8 28l4 16q-5 20 -12 20l4 4v4q-16 24 -16 68v8l4 16l-24 100l8 24l-8 12q8 9 8 28h4l-4 4v16l4 40l-4 20l4 28l-4 4v4l8 40l-4 24l4 28l-4 4v4l8 24l-4 32l24 96l-4 4h-4
l12 20l-4 4q1 31 28 76q0 35 68 212q31 72 148 180q24 20 36 20v8q-83 -8 -184 -76q-1 -9 -96 -72l-40 -40q-1 -17 -64 -84q0 -12 -28 -48l-32 -88q-28 -52 -32 -76q-6 0 -12 -16zM888 236l4 -12l-4 -4v-4l12 -32h4q41 0 56 12h4l4 -4q28 7 28 44h4q0 40 -60 40
q-52 -13 -52 -40z" />
    <glyph glyph-name="D" unicode="D" horiz-adv-x="1258" 
d="M353 1699h4l42 -4l12 4v-4l4 4q266 -37 319 -75q37 -14 99 -59l12 4q12 -13 15 -34q60 -47 215 -216l62 -134q8 -65 34 -157l-3 -3v-4l3 -4v-4l-3 -11l3 -3h4l-4 -27v-3l12 -19l-8 -48l4 -15l-4 -34l4 -15h-4l4 -3v-4q-19 -133 -57 -272q-20 -34 -47 -123l-42 -82l4 -4
v-7l-38 -60q-10 -26 -50 -59q-13 -33 -123 -116q-39 -14 -54 -30q-40 0 -104 -30l-38 -14l-85 -27h-53l-4 4l-77 -11q-35 0 -81 30l-7 -11l-119 15l-20 -4l-19 4l-11 -4l-8 7h-12q-107 0 -134 49v11q0 26 104 52l23 4v18l-12 94l8 41l-4 29l4 12l-15 85q6 52 11 52l-4 4
l8 82l-4 26l4 4v4l-4 11l4 3l-8 79l4 3v4l-4 4l4 19v11q0 74 8 97l-8 44l4 26v123l-4 23q7 26 12 26l-4 18v23q19 118 19 179v33l4 4l-4 4v3l8 52l-4 30l4 82v11q-41 53 -62 53q-57 24 -57 52v7q0 30 265 67l3 -3h4zM350 1651l-16 3q-38 -2 -38 -11v-11l-4 -45l4 -30l-4 -37
l4 -15l-8 -59l4 -4l-4 -19v-15l4 -15q-8 -20 -8 -104q-7 0 -7 -11l7 -34l-7 -55l7 -45h-4l4 -4v-4l-4 -11l8 -33l-4 -4l8 -89l-8 -34l4 -19l-8 -85l4 -19l-7 -37l7 -60l-7 -11l3 -4l-3 -74v-60l7 -48l-4 -15l8 -15l-11 -75l3 -18l-3 -11q11 0 11 -49v-26l-4 -11l4 -19v-78
l4 -22l-4 -4l4 -15q0 -85 -15 -97l3 -11l-3 -4h-12l-15 15v49l4 41l-4 22h4l-4 4v52l4 41l-4 4v3l4 4v4l-4 3v4l7 26l-15 90q6 26 12 26l-4 18v15l4 15l-16 116v33l12 41l-8 90l4 37v52l4 15l-4 4l4 18v60l7 11l-3 4h-4l7 22v23l-7 11v30l4 3l-4 4v26l4 4l-4 3v12l4 3l-8 23
v7l4 4v4l-8 7l4 15l-4 11h4l-4 4v4l8 7l-8 22v12l8 11l-8 11v4l8 15l-4 3v4l8 22l-4 4v4l7 104l-3 4l3 19v41l4 55l-4 19l4 22l-4 45h-50q-23 -11 -23 -22l4 -11l-4 -12l8 -89l-4 -4v-3l4 -34q0 -66 -11 -160l3 -34l-3 -11l3 -15l-7 -41l4 -15h-4l4 -3v-4q-12 -64 -20 -71
v-71q0 -56 -7 -56l7 -33l-4 -34v-7l4 -49q-4 -89 -11 -89l4 -4v-59l-4 -15l4 -4v-4l-8 -26l8 -7l-4 -4v-4l7 -26l-3 -11l3 -15q-3 -132 -15 -171l15 -86l-3 -19l3 -11l-3 -11l3 -41v-15l-3 -4q8 -12 15 -52l-4 -26q22 -12 31 -26v-4l-23 -26l-39 4h-15l-11 -7l-12 3
q-29 -10 -31 -18q16 -1 16 -8l4 4l42 -7l4 3h3l4 -3h4l4 3h4l46 -7l4 4l84 -12l23 4q28 0 104 -30h15l27 4v-4l4 4h15l62 7l11 -3l227 78q0 9 35 19q115 79 115 119q0 20 11 41l-3 11q19 72 19 142l11 55v23q0 12 -11 26l4 26l-4 26l4 4l-20 138l4 3h4l-11 86l3 4l-3 18v30
l7 8l-4 3v38q-11 11 -15 41l-4 3v41l-8 12l4 22l-7 19h3l-11 29l4 30l-8 30l4 15q-23 158 -35 182l8 15l-8 30l4 4q-14 19 -34 86q-16 21 -62 48q-5 20 -80 45q0 21 -246 59l-12 -3l-23 7zM88 1613l62 -30v4q-3 41 -12 41q-50 -4 -50 -15zM899 1438l-4 -4v-7l8 -41v-26
l7 -11v-64q10 -10 23 -152h-3q5 -23 11 -23l-8 -33l8 -8l-4 -3q8 -15 8 -41l-4 -4v-4q18 -32 23 -71l-4 -3v-4l8 -56l-4 -19l4 -3v-4l-4 -11l8 -60l-4 -11l4 -4v-3l-4 -23q0 -41 15 -97l-4 -11l8 -22l-4 -26l12 -38l-4 -18l4 -15l-12 -49l4 -3v-11l-4 -23l4 -4l-8 -33l4 -15
q-2 -47 -11 -56v-7h7l27 63q31 47 66 171q30 43 65 243l8 115l-8 41l4 11q-12 0 -12 71q-32 160 -57 194q-42 102 -173 212z" />
    <glyph glyph-name="E" unicode="E" horiz-adv-x="1032" 
d="M485 1682h80l3 -4l4 4h54l40 -4l22 4v-4l4 4h3l11 -4h7v4l36 -4h40l15 -4l3 4h4q134 0 134 -26v-8q-17 -17 -22 -49l8 -45l-11 -82l3 -4v-4l-7 -19l4 -15q-8 0 -15 -41l-18 -15h-7q-24 0 -47 158q-12 60 -55 60l-50 49h-36l-4 4l-22 -8l-11 8l-11 -4l-21 4l-11 -4l-33 4
h-18l-3 3l-4 -3h-4l-25 3l-11 -3l-18 3l-25 -3v3l-11 -3l-4 3l-36 -7l-14 4l-77 -8l-25 4l-3 -4l-19 4l-54 -4v4l-4 -4h-36l-18 4v-23l-3 -15q7 -16 7 -52l-15 -128l4 -4l-4 -15l4 -27l-11 -79q8 0 11 -18l-15 -8l8 -7l-8 -117h-3l7 -19l-4 -26l11 -38l-7 -11l7 -27l-7 -22
l4 -23h-4l7 -15q-2 -26 -7 -26q6 -8 11 -56l-4 -31l4 -11h11l61 4v-4l171 19l25 -8v4l47 154l-11 49l7 8v11l-7 8q7 17 15 19h3q15 -14 26 -83v-4l3 -135l-3 -12l3 -15l-3 -26l7 -68v-49l-7 -7l3 -12l-3 -3l3 -15q-7 -91 -29 -91q-11 0 -51 91l-3 3v38l-15 71q-10 31 -58 31
l-3 3q-21 -11 -44 -11v4l-18 -8l-3 4l-26 -4h-32l-22 -7l-11 3q-40 -2 -40 -11q11 -26 11 -150q7 0 11 -30l-4 -4v-4l4 -15l-4 -11l11 -34l-3 -26l3 -4l-3 -19v-23l7 -11v-15l7 -53l-3 -3l-4 -12h-4l15 -56l-4 -4v-4l11 -98q-7 0 -11 -41l7 -11l-3 -11l3 -61l-7 -19h4l145 4
v-4l3 4l152 4h11l69 -4l4 4h3l76 -8l36 8q16 0 37 90l-4 15q34 121 72 121h29q33 -23 33 -91h-4l8 -48l-4 -42l7 -22l-3 -4v-4l7 -38q-4 -56 -26 -56l-90 23q-15 0 -15 7q-15 0 -68 -22q-25 24 -58 26l-22 -8l-7 8h-11l-51 -4l-11 8l-3 -4h-44l-3 4l-4 -4l-25 4
q-80 -5 -80 -12l-90 8l-11 -4l-15 4q-13 -8 -83 -15h-33l-3 4l-11 -4l-29 4l-65 -8q-18 5 -18 26l7 27l-4 45l7 15l-7 26l4 45l-7 57l3 4v3l-3 12l3 15l-7 26l7 26l-7 27l4 34v15l-4 34l4 11l-4 15l7 41l-3 4l7 38l-4 15q3 56 7 56l-7 23h4l-4 4v67l-3 15l7 30l-7 57l7 34
l-4 3v27l7 7l-3 12l3 3l-3 19v8l3 19l-7 67h4l-4 4v4l7 26l-3 4l3 19v7l-7 38l7 34l-7 11v8l7 33l-3 4v4l11 53l-4 11l4 19l-4 71l4 75l-4 12l4 4l-11 109l3 11l-7 30v15q26 41 58 41l73 -3h7l14 3l15 -3h11l21 3l4 -3l11 3l32 -3l73 3l32 -3q22 11 127 11zM58 1637
q0 -8 -11 -8l4 -26v-4l-4 -11l7 -79h-3l7 -11l-4 -19v-11l-3 -95l3 -67l-7 -19v-8h4l-4 -26v-30l-7 -11l7 -79l-4 -61l4 -3l-4 -19v-30l4 -98l-7 -15l7 -8v-3l-4 -4l4 -4v-4l-7 -45l3 -19l-3 -30l3 -37h-3l3 -4v-11l-7 -16l11 -101l-4 -11l4 -4v-4q-3 -23 -7 -23l3 -3v-23
l-7 -37l4 -16l-7 -60l7 -22l-4 -27l7 -34l-3 -11l3 -19l-7 -33q7 -47 11 -177l-4 -4l4 -19v-26h7v-4l4 4l18 -4h47l15 -4l14 4h18v4l-7 11v8l7 52l-7 30q3 45 7 45l-3 4v4q0 19 7 19l-7 60h3l-7 34l4 4l-8 71l4 4l-11 60l7 23l-3 3v4l3 15l-7 8l4 15l-8 56l4 4v4l-14 60v26
l3 23l-14 98l7 34l-7 7v30l7 30q-7 0 -7 27h-4l4 19v41l-4 15l4 4v3l-4 4l4 27v22l-8 27l4 11l-7 7v27q1 26 7 26l-4 11l8 136h3l-3 4v3l7 8l-7 64q2 22 7 22l-7 46l14 45l-3 34v3l7 12l-7 22l7 11q0 38 -58 38zM811 1629v-3q47 -26 47 -68q8 -5 25 -94h8v4l3 86
q0 75 -36 75h-47zM471 854l-15 -53q0 -87 22 -109h4l3 34l-7 12l4 18l-8 98h-3zM764 151v-46l-7 -11v-15l7 -8l69 12l3 15l-3 19l3 3h4q-7 16 -11 91l4 15l-4 30v15h-14q-18 0 -51 -120z" />
    <glyph glyph-name="F" unicode="F" horiz-adv-x="1082" 
d="M724 1712h33l126 -19l28 4l4 -4h4l16 4l12 -4l21 8q28 -8 28 -35q-19 -19 -61 -19l-44 4l-4 -4v-3q49 -25 65 -69l32 -99h8q11 0 24 103l5 11v19l-9 12v38q0 10 29 15l12 -30l-8 -46l4 -4v-4q-3 -53 -8 -53l4 -4q-3 -22 -12 -34l4 -4v-4q-24 -64 -37 -64h-8q-28 0 -36 38
q-15 0 -25 42l4 3q-10 0 -24 57q-18 24 -65 54l-12 -4v4l-24 -8h-9l-4 15l8 35l-60 7l-17 -4l-32 8q0 -9 -45 -15l-12 4q-69 -16 -183 -23l-16 4l-20 -4l-12 7l-12 -3l-98 3l-12 -3l4 -4v-4q-9 -106 -24 -171l4 -4l-4 -46v-15l4 -15l-4 -15l8 -46l-8 -46l4 -4v-15l-8 -64
l4 -16h-4l4 -3v-23l-8 -65l4 -4v-4l-8 -22v-19l-5 -73l5 -3v-4l-9 -69h4l69 8l25 -4l24 8l61 -4q26 33 49 114l-4 19q0 31 40 80h8q29 -18 29 -50l-8 -38l8 -22l-4 -19v-16l4 -15l-4 -27v-125q0 -46 -8 -46l8 -26l-12 -50l4 -4v-3q-12 -84 -41 -84q-33 29 -69 133l-12 34h4
l-4 4l4 15l-4 54v26q-22 0 -37 15q-16 -10 -65 -15l-16 4h-4l-12 -8h-37l-8 -41l8 -111l-12 -49v-31l-8 -64l4 -76l-8 -77l8 -45l-4 -19l4 -12q-3 -22 -8 -22l8 -27l-8 -8l4 -23l-8 -22l4 -42l-8 -46v-26l-4 -16q0 -24 53 -26q4 11 24 11h49q25 0 52 -30v-8q0 -15 -89 -34
l-28 4l-45 -8l-20 8l-4 -4h-4l-4 4l-49 -4h-49l-12 7l-40 -3q-106 15 -106 53q0 18 81 23v-4l4 4h4l21 -4l8 11l-4 16l12 91l-4 57l8 30v8l-4 38h4l-4 4v4l4 3v4l-4 19h4l-4 4v80l-4 15l4 4v4l-4 19l8 23l-4 3v4l8 38l-4 12l4 22l-4 65h4l-4 4v4l4 30l-4 15l4 42v12l-4 26
q8 0 12 38l-4 46l4 11l-8 16l8 11l-4 19l4 34l-4 4v4l4 4v11h-4l8 88l-8 15l4 19v84l4 15l-4 15l8 15l-8 38l4 4h4l-4 4v15l-4 42l4 4v4l-4 11l4 19l-8 30l12 46q-12 0 -16 57v19q-12 14 -12 27v26l-4 35l8 26l-4 16q7 0 24 34h20l17 -4l4 4h12v-4l28 4h57l4 -4l4 4h45
l113 -15l37 3l32 -3q94 3 268 30zM91 1602l4 -16l-4 -3v-4q21 -57 21 -80v-65l4 -23l-4 -15l4 -61l-4 -22l4 -19l-4 -46l4 -4l-4 -19v-34l-5 -34l5 -38v-54l-5 -4l5 -3v-16l-5 -3l5 -4v-12l-9 -7l9 -53l-5 -16l5 -3l-13 -46l13 -19v-12l-5 -19l5 -22l-9 -42l9 -19
q-9 0 -13 -46l4 -11h-4l4 -4l-4 -19v-8l4 -15l-4 -15l4 -46h-4l8 -49l-8 -84v-61l-4 -11l4 -19v-168l-8 -23l4 -15l-4 -4l8 -15l-4 -11l8 -69l-8 -19l57 -11q20 5 20 11l-12 31l12 11v27l8 42l-4 22l13 27l-9 15q5 31 13 31l-8 26h4l-4 12l8 34l-4 15l4 12l-4 41l4 16
q-8 15 -8 42l8 7l-4 69h4l-4 11l8 53l-4 4v4l4 4v4l-4 15l8 30l-4 4l12 57l-8 57v57l-8 31l20 34l-4 4l4 22l-4 16l4 34v38l-4 23l12 38l-4 4q6 53 12 53l-4 4v7q1 19 8 19l-8 19l4 12l-4 19l8 64l-4 16l4 23l-4 11l4 19l-4 19h4l-4 11l4 50l-4 4v3l4 16l-4 15l12 53l-4 4v4
l4 19l-4 26q7 9 12 54l5 3q0 31 -29 31h-16l-12 -4l-21 8l-24 -4v4q-57 -10 -57 -19zM497 940q-24 -66 -49 -73v-7l8 -23v-23l-4 -23l4 -11h-4q26 -107 41 -107q5 35 12 35l-4 22l4 77v3l4 4l-4 4v19l-4 38h4l-4 4l4 26v27z" />
    <glyph glyph-name="G" unicode="G" horiz-adv-x="1220" 
d="M706 1691l77 -8l3 4h4l69 -16l4 4h4q159 -40 299 -181v-15l-46 -44q0 -10 -27 -27l-19 4h-31q-84 29 -84 51q0 47 -35 79q0 7 -23 31q-98 59 -130 59l-138 -4q-82 -12 -130 -51q-50 -45 -50 -63q-12 -3 -58 -90q-28 -108 -50 -126q-7 -58 -19 -67l4 -20q-31 -58 -58 -236
l4 -4l-30 -220l-4 -4l7 -12l-3 -4v-4l3 -4v-4l-7 -23l4 -4v-4l-4 -39l4 -4v-4l-4 -4v-4l4 -4l-4 -20v-39l7 -32v-11l-3 -4l7 -16l-4 -20q32 -166 104 -318q36 -55 65 -55q0 -23 131 -51h49l4 -4l4 4h8l15 -4q79 0 184 82l23 40l8 43v39l-27 83v27q-9 0 -23 20q-35 27 -81 27
q-17 0 -34 -11h-12l-11 8l4 19l-8 47q0 18 131 28v-4q0 16 306 16h12q30 0 50 -24q0 -79 -39 -79l-34 12q-35 -13 -58 -43q-6 -28 -11 -28q7 -9 11 -70l8 -8v-40l-4 -15l19 -79q-4 -31 -11 -31l11 -52q-6 -17 -11 -137l-23 -12l-31 4l-4 -4h-4q-61 19 -61 40l19 102l-4 43h4
l-4 12h-7q-102 -86 -250 -110l-3 3h-4l-12 -3h-7v3l-39 -3h-46l-4 3l-3 -3h-31q-117 13 -196 66q-16 0 -57 36q-43 19 -85 94q-36 36 -92 177q-34 86 -34 122l-19 83l-4 4v35q-9 12 -23 106l4 12l-8 43l8 36v137l15 56l-4 19q15 25 39 138q15 3 38 94q8 0 11 32q15 4 27 43
l77 106q29 57 123 130q0 27 153 79q13 15 31 15v-4q15 12 138 24v-4l4 4h3l4 -4zM936 1604v-3q42 -37 61 -126l69 -32q39 0 50 36q-5 31 -31 31q-40 43 -107 71q0 7 -42 23zM39 920l3 -12l-7 -43q4 -35 11 -35l-4 -4v-40l-3 -15l7 -16l-4 -4l20 -157l23 -56l-4 -11
q27 -99 46 -138l-4 -4q0 -29 23 -47l46 -91q82 -115 149 -137l4 -4v4q-26 34 -30 63q-46 60 -104 322l4 28l-12 63v4l4 43l-4 4v4l8 35l-4 51l4 12l-4 4v4l19 67l-3 12l7 15l-4 20l12 12v4l-8 12v4l8 11v8l-8 12l12 28l-4 15q11 38 27 158q7 0 27 86q13 87 30 87v11l23 67
q24 88 89 173q15 33 38 48v4q-68 -14 -127 -59q-7 0 -15 -20q-78 -68 -115 -134q-33 -37 -69 -122q-18 -22 -54 -122q-15 -25 -27 -106q-23 -68 -26 -118zM978 476l-38 3l-16 -3l-23 3l-19 -3v3l-27 -7l-19 7l-7 -7h-16l-57 -8v-4q50 -16 50 -32h19q23 -2 23 -11l-4 -4v-4
l34 -150l8 -8l-4 -47v-27q0 -17 -19 -40v-4h12q35 40 46 40l26 4q14 -13 20 -55l3 -4l-3 -12l3 -20v-23l-7 -12v-24l4 -20l-8 -7v-35l15 -8h4q27 0 27 58v12l-12 39l12 28l-4 31l4 28l-23 67l4 4v4l-4 15l8 44l-16 82l8 16l-4 16q32 47 96 71l19 -4h8v8h-12l-34 3l-4 -3h-4
l-19 7z" />
    <glyph glyph-name="H" unicode="H" horiz-adv-x="1246" 
d="M259 1703q64 0 64 -11l4 4h3q105 -6 105 -25v-11l-67 -65q-34 -30 -34 -40l-7 -22l7 -29l-4 -3l4 -4v-3l-4 -15l4 -32v-15l-7 -21l3 -4l-3 -25v-58l-4 -32l4 -15l-8 -43l8 -36l-4 -11l4 -18l-4 -4l4 -18v-32l-4 -4l4 -4v-3l-8 -47l4 -4v-3l-4 -11l4 -40v-11l-4 -3l4 -4
v-3l-4 -26l4 -3l-4 -18v-8l4 -25h-4l4 -3l-4 -37v-18l15 -10l37 10l27 -3l67 3v-3l116 14h26l3 -3l101 14l4 -4h4l4 4l18 -4l90 8l22 -8l4 4h4l4 -4q55 7 63 15l-4 14l4 11l-4 22l8 7v7l-4 15l8 29v10l-4 15l4 14l-4 4l4 18v4l-4 18h4l-4 3l15 191l-4 22l15 141l-4 14v33
l8 29v21l7 65l-11 11l-4 -3h-4q-71 20 -71 54l38 18l37 -4h26l71 7q56 -7 56 -25v-4q-52 -22 -52 -57q-7 -19 -11 -76l-4 -4h-4l4 -32l-4 -22l4 -3v-4l-4 -22l4 -25h-4l8 -25l-11 -47l3 -11q-3 -37 -15 -65l4 -14v-4l-7 -7l3 -4v-7l-3 -4l3 -3v-47q-7 -9 -7 -25h-4l4 -4v-15
l-4 -21l4 -4l-4 -25v-4l4 -39l-7 -15l3 -3v-47l-3 -33l7 -47l-7 -29q11 -17 11 -54v-18l-4 -3l7 -11l-3 -22l7 -32l-7 -83l3 -11l-3 -15v-36l-4 -3l4 -4v-4l-8 -10q8 -7 19 -73v-3l-4 -15l4 -10l-4 -4l8 -61l-4 -11l11 -62v-3l-4 -15l4 -3v-4l-4 -14l4 -4l-4 -18v-54l4 -40
l-7 -32l3 -36h15l30 -8h8l15 4q37 -8 37 -14v-15q-30 -36 -64 -36l-3 4h-4q-50 -4 -56 -11h-19q0 -18 -71 -29q-21 0 -37 36q-45 10 -45 40q8 9 67 21l8 8l-8 14l8 40l-4 3l11 69l-7 22l4 29l-4 14l4 4l-8 83h4l-4 3v4l4 3l-4 4v4l4 3l-4 11l8 97l-4 26l7 58l-3 14l3 58v47
l4 3l-4 4l4 43v94l-41 -14l-30 3l-67 -7l-4 4h-4l-15 -4l-15 4l-41 -11l-18 3l-12 -3l-3 3l-53 -7l-3 4h-4l-15 -4l-19 4q0 -10 -149 -22l-4 4h-4l-33 -4h-4l-4 4l-3 -4h-27q-14 18 -37 18l-4 -4l4 -3v-4l-15 -122v-8h4q-5 -157 -11 -177l7 -39h-4l4 -4v-3l-11 -40l4 -15
l-4 -10q11 0 11 -65v-4l-4 -14q8 -14 8 -40v-11l-4 -18l4 -25l-4 -51q17 -30 67 -50l12 -18v-15q0 -13 -53 -18l-11 4v-4q0 -10 -142 -25l-4 4h-3l-12 -4v4l-3 -4h-30l-34 4l-4 -4q-78 4 -78 36q4 13 49 25q30 12 44 36v47l12 51l-4 14l4 11l-8 7l4 4l-8 65l8 22l-4 14l8 11
l-4 11l4 28l-4 44q4 115 11 141l-4 21l4 47l-4 65l4 18l-4 18q5 18 12 18l-4 4v50l4 4l-8 18l8 83l-4 14l4 4v4l-4 25l7 22v93l4 87l-4 4v3l8 91l-4 3l7 58l-3 3v4l3 47l-3 14q11 38 11 105v36l7 11v4l-3 18l7 54q0 21 -60 29l-7 11v3q0 20 15 25h15l15 -3l3 3l23 -3z
M196 1652v-7l11 -36q-19 -33 -34 -227l4 -33l-7 -133l3 -4v-3l-3 -11l3 -4l-7 -94l4 -11l-8 -18l8 -36l-8 -14l4 -18l-8 -112l4 -4v-3l-4 -15l4 -3l-4 -15l4 -25l-11 -119l4 -29h-4l4 -4v-50l3 -22l-3 -18v-11l3 -14l-11 -40l4 -54l-4 -11l4 -14l-4 -101l-4 -11l4 -4v-3
l-7 -22l3 -4v-3l-3 -4v-3l7 -29l-4 -44l8 -7v-11l-8 -10l4 -4l-4 -18q12 -28 12 -51q-34 -44 -53 -47v-10h38q94 0 168 25l-11 14l-8 -7h-11l-11 11l4 32l-4 44l4 3h3l-3 22l3 18l-3 33v39l3 4l-3 3v8l3 21l-11 58h4l-4 4l8 54l-4 36l4 3v4l-4 4v3l7 83l-3 11l7 7l-7 8l3 25
l-3 29l11 79l-4 4l4 18v32l7 83l-4 4l4 25v69l4 14l-8 22l12 141l-4 25h4l-8 58l4 14l-4 14l8 33l-8 29l11 11q0 16 -11 32l8 11l-4 18v7l4 4l-4 3v8q1 25 7 25l-3 4l3 18v39l-7 7l7 40l-15 25l4 4l-4 18q0 29 15 29l-3 18v11l3 3l-3 11h-15q-36 0 -86 -11zM330 1656l-3 -4
v-3l7 -33l-4 -10q9 3 30 43zM1021 1627q-26 -15 -26 -54l4 -4l-7 -50l3 -4l-3 -25v-61l-8 -8l4 -18v-10l-4 -4l4 -4l-15 -104l4 -4v-3l-4 -11l4 -51v-3q0 -37 -8 -37l4 -18q0 -47 -11 -47l3 -18v-10l-3 -18l7 -58l-7 -7l7 -33q-7 -14 -7 -40v-90l-4 -14l4 -15v-50l3 -15
l-7 -10l4 -4v-4l-8 -54l8 -18l-8 -36v-7h4l-4 -25v-44l4 -39l-4 -11l4 -11l-15 -134l4 -3h3l-3 -11l11 -105l-8 -14l4 -4v-32l-4 -4l8 -40l-4 -32l4 -11l-8 -32l8 -40l45 22l-8 21q12 55 12 94v29l-4 36l7 65l-3 14l3 15l-11 40v36l-7 39v58l-12 54l8 58l-8 40l12 18l-4 3
v11h4l-8 105l4 3v4l-4 14h4q-10 44 -15 44l7 47l-3 47h3l-7 25l4 40v14l11 14l-8 8v36l8 7l-4 29q2 36 8 36l-4 4l4 18v3l-4 18l22 202l-3 15l3 14l-3 11l3 11l-7 7v15l15 75l-4 36l15 40v11z" />
    <glyph glyph-name="I" unicode="I" horiz-adv-x="489" 
d="M208 1692l20 -8l4 4q184 -10 184 -44v-12q-102 -52 -112 -64l-8 -16l4 -12l-4 -28l4 -20l-4 -4h-4l4 -20v-4l-12 -56l4 -16l-8 -36v-12l4 -16l-8 -40l4 -12l-4 -16l4 -4v-4l-4 -4v-4l4 -16l-8 -8l8 -44l-8 -8l4 -40q-5 -80 -12 -80l4 -20v-20l-4 -56l4 -48l-4 -4v-4
l4 -12l-8 -16l8 -32l-4 -24v-24l-4 -4l4 -4v-24l-4 -16l4 -4v-4l-4 -4q4 -53 12 -60q-16 -30 -16 -64l4 -4l-20 -128l4 -4q-7 -80 -16 -80l4 -4v-60l-8 -12l4 -36q-8 0 -12 -32h-4l4 -28l-4 -52l4 -4v-4l-4 -16q0 -44 60 -52l12 -8l44 12h12q52 0 52 -36q-17 -3 -76 -40
l-84 -16l-4 4l-20 -4h-76q-120 16 -120 48v12q39 46 72 48l20 16l-8 48l4 4l-4 16l4 96v28l-4 24l4 20v4l-8 12l8 12v20l-8 24h-4l4 20v32l-4 16l4 16l-4 32l8 48l-8 8v40l4 4l-8 24q3 24 8 24l-4 4v4l4 4l-4 12l4 56v12l-8 32l8 32v8l-4 20l8 88l-4 12q8 0 8 32h4l-4 4v4
l4 4v4l-4 28l4 16l-4 4v4l8 64l-4 36l12 8l-4 4v4l4 4l-4 4v4l8 84l-4 4l4 20v44l4 16l-8 20q6 112 12 112l-4 4v8l4 4v4l-8 8v48q-104 26 -104 40q-16 26 -16 44q0 9 108 16v-4l4 4h4zM184 1652l-4 -4v-4h12zM160 1632v-148l-8 -52l4 -12l-4 -16l4 -60q-2 -44 -8 -44l4 -4
v-4l-16 -212l4 -20l-8 -28l4 -4l-4 -20v-56q-12 -16 -12 -60l4 -28l-4 -4v-4l4 -16h-4l4 -12l-4 -56l4 -20l-4 -32l4 -32l-4 -48v-8l8 -8l-8 -56l4 -12l-4 -16l4 -16l-4 -12l4 -36l-4 -4l4 -4v-4l-4 -20l16 -144l-4 -4l4 -40v-4l-4 -24l4 -16l-4 -4v-4l4 -4v-4l-4 -4l8 -96
q-21 -16 -68 -28v-12l16 -4l4 4l20 -4h68l16 4l16 -4h8l4 12q-44 12 -44 52l-4 28l4 4v4l-4 24v4l4 16l-4 12q7 69 16 92v20q0 52 8 72l-4 16l12 84l-4 16l8 20l-4 12q7 0 12 36l-4 24l12 96l-8 24l8 20l-4 4l4 24l-4 52l4 40l-4 12l4 36v20l4 4l-8 52l4 16l-4 4l8 52l-4 4
v4l8 32l-4 24l8 24v68l-4 16l4 16v52l8 12q-8 0 -8 12l4 40l-4 4v4q11 23 16 124q5 0 12 48l-4 16q8 37 48 72l-44 4l-28 -4l-52 4h-28z" />
    <glyph glyph-name="J" unicode="J" horiz-adv-x="899" 
d="M788 1650q64 -37 65 -46v-17q0 -13 -49 -16q-21 -16 -24 -38l4 -12q-2 -42 -8 -42l4 -13q-18 -38 -20 -104l4 -21l-4 -12l4 -80v-42l-4 -16l4 -4v-5l-17 -58l4 -13l5 -58l-9 -67l13 -63l-4 -4v-4l4 -12h-4l4 -5l-4 -41l8 -67l-4 -4l4 -21v-54l4 -34q-6 -58 -12 -67l8 -21
h-4l12 -20v-9l-4 -42l4 -20l-4 -25l4 -25l-4 -5v-4l4 -12h-4l8 -42l-4 -17l12 -29q-8 -11 -8 -38h-4l4 -4v-29l-4 -17l4 -4q0 -59 -33 -100q0 -15 -61 -67q0 -27 -56 -42l-17 -4q0 -12 -57 -25l-4 -4l-4 4h-4q0 -8 -20 -8q0 -12 -8 -12h-4l-17 4l-12 -8l-20 4
q-34 -18 -97 -30l-25 13l-32 -4q-45 6 -45 17l-12 -5q-31 5 -61 21l-4 -4h-16q0 23 -74 41l-61 84q-28 56 -28 71h4l-8 25v29l28 84q0 27 122 41q38 -35 57 -83l-4 -17l4 -12q-18 -76 -61 -96l-44 -30h-13l-20 5q42 -80 175 -113l113 -21l163 38q0 55 20 70q29 143 29 230
l-8 34l4 4l-4 29l8 63l-8 25v12l4 17l-4 17l4 4l-9 50l5 21v87l4 34l-9 100l9 46l-4 4v4l4 46l-4 42l8 71l-8 71l4 138l-4 33q8 0 12 29l-4 5l4 20v25l-4 17l12 25l-4 25v9l4 4l-8 25l8 21q0 76 -53 104v8l20 25l21 -4l20 4l12 -4l4 4v5l12 -5q41 9 171 13zM589 1583v-4
q20 -22 20 -33l-4 -30l8 -62l-8 -29l4 -34l-16 -121l4 -25h-4l4 -4v-4l-4 -59l4 -25l-4 -17l4 -25l-4 -20l8 -9q-3 -25 -8 -25l4 -21v-4l-4 -33l4 -21l-4 -25l8 -30q-12 -17 -12 -91q0 -69 12 -88l-8 -84l4 -33l-4 -25l4 -4v-4l-4 -25l8 -55v-33l-4 -4l4 -4v-84l-4 -33
l4 -34v-33l-8 -34l4 -4v-4l-4 -21l4 -4v-4l-20 -125l-4 -5l4 -4v-12l-4 -13h4q98 39 150 142l16 75l-4 4v42l4 25l-4 4v5l4 4l-8 75l4 42l-8 12l4 42v25l-4 29h4l-8 13l4 62l-4 151l4 29l-8 17l4 12l-4 13l8 41q-11 0 -16 101q1 16 8 16l-4 21v17l4 17l-12 50q16 25 16 71v4
l-4 38l4 41v25l4 17l-4 4v4l20 167l-8 50q21 6 21 30v4h-4l-49 -4l-4 4h-4zM41 210q16 -3 40 -26h8q52 0 78 80v12q0 42 -33 42h-24q-52 0 -69 -83v-25z" />
    <glyph glyph-name="K" unicode="K" horiz-adv-x="1087" 
d="M738 1661l77 -8h40l4 -4l36 8l61 -8l24 4h12q21 0 28 -17q0 -21 -32 -41q-16 -26 -73 -45q-42 -59 -68 -82q0 -8 -24 -29q0 -14 -49 -53q0 -19 -32 -57q-5 -29 -68 -107q-9 -33 -65 -90q0 -30 -44 -62q-10 -25 -16 -25l44 -86h-4l52 -123q30 -50 37 -99l4 -24
q15 -5 40 -86q32 -55 32 -103q27 -47 44 -123q9 0 13 -41q29 -49 60 -136q32 -49 32 -86q12 -41 40 -41q65 -61 65 -74q-13 -36 -32 -36q-24 3 -24 8l-133 -16l-4 4l-21 -4l-20 4l-32 -9q-25 9 -28 21v32q4 10 56 33l8 25v8q-20 22 -20 37l4 12q-15 8 -48 123l-24 74
q-6 0 -45 128q-72 182 -76 213l-28 62l4 4v4l-65 164q-6 23 -20 33q0 -30 -117 -160q-27 -34 -56 -50q-4 -77 -32 -250l4 -20l-8 -99l4 -37l-12 -37l8 -33v-49l8 -12v-21l-4 -37q14 -45 96 -45l16 -20v-17q-23 -37 -60 -37l-85 -16l-4 4l-20 -4l-32 4l-4 -4v-4
q-153 0 -153 53l48 29q19 0 45 41v4l-4 4l4 21l-4 20l4 25l-4 20l8 54l-4 28h4l-4 4l4 21l-4 16l4 25l-4 4v4q8 21 8 62l-4 16l8 17l-8 32l20 144l-8 33v8l4 17l-4 4l4 20v33l4 4l-4 4v4q5 62 12 62l-4 4l4 49v25l-4 25l8 16l-8 8v17l20 164l-4 33l4 4v4l-4 4l4 20v54l8 66
v82l4 4l-4 4v8l4 4l-4 4v4l4 4q0 115 -89 115q-24 17 -24 37q54 41 81 50l20 -5l4 5l20 -5h36l17 5l4 -5l24 5l129 4q72 -3 72 -21q0 -34 -109 -74q-28 -24 -28 -65l-4 -4v-5l12 -24l-4 -37l4 -12h-4l4 -5v-4l-4 -33l4 -12l-4 -4v-4l4 -37v-8l-4 -4l4 -4v-13l-4 -4l4 -4
l-4 -16l4 -33l-12 -78l4 -17l-8 -24v-8l8 -25q-8 -11 -8 -37l-8 -41h-4l8 -45l-8 -8v-83l-8 -12l8 -8q122 152 125 168q16 0 16 17q28 22 40 61q12 0 12 17q18 9 45 78q40 48 64 102l40 66q8 0 29 37l40 66l68 90v4l-16 4l-8 -8h-40q-65 0 -65 61q39 45 89 62zM698 1591v-8
h44l93 16v9l-41 -4q0 9 -48 12v4q-37 -12 -48 -29zM529 1074q9 0 72 86l-4 4v4q81 80 81 111q20 25 28 25v8q0 29 28 62l32 53q19 0 24 29q27 20 77 94q12 0 12 17q11 19 52 28l4 17h-36q-24 0 -36 -45l-81 -91l-40 -49l-20 -29q0 -25 -77 -123q0 -12 -12 -12
q-23 -55 -80 -136q0 -12 -12 -12zM190 1583l8 -86l-4 -49l4 -17l-4 -16l4 -21l-16 -209l4 -37l-4 -4h-4l4 -25l-4 -90l-8 -8v-99l4 -33q-4 -67 -20 -139l4 -17l-4 -12l4 -29v-94l-8 -66v-41l-4 -4l8 -12l-4 -29v-29l-4 -4l4 -4v-4l-12 -62l4 -24h-4l4 -4v-4l-4 -17l4 -24
l-4 -95v-20l8 -37q-8 0 -12 -33q-28 -14 -28 -21v-8l20 -4q137 3 137 16q-9 0 -16 29q-16 0 -16 25q-13 0 -13 8v25l4 4q-6 14 -16 127l8 111l-4 12l8 90l-4 13l17 45l-4 4v4l24 127q-7 29 -12 29l24 144l-4 20l12 74l-4 4v4q0 29 8 45l-4 13l8 16l-4 13l8 41l-4 12l12 180
l-4 5v4l4 24l-4 37q3 29 8 29l-4 4v70l-4 16l8 58l-4 12q36 45 48 45v8h-133zM496 967q38 -86 61 -106l-4 -5v-4l4 -16l-4 -16q7 0 36 -103l48 -131q53 -112 61 -177l52 -148q23 -20 44 -131l21 -33l16 -12v-54l36 -4l72 13v8q-64 37 -64 66l-8 12l4 12l-8 25h4
q-85 174 -85 201q-28 87 -60 156q0 42 -40 103q0 40 -25 73l-24 78v13q-18 0 -24 45q-8 0 -40 98l-16 33l-16 17l4 12l-20 16q-25 -9 -25 -41z" />
    <glyph glyph-name="L" unicode="L" horiz-adv-x="945" 
d="M23 1712v-4l4 4l120 -9l4 5h4l124 -17l34 8l22 -8l4 4h8l43 -34q-4 -30 -13 -30h-4l-47 8q-57 -10 -73 -21l13 -43l-4 -30v-26q-3 -119 -21 -119l4 -5v-4l-13 -111l9 -9l-5 -4v-4l5 -13l-9 -9v-64l-9 -47v-51l-8 -81v-13l-4 -5l4 -4l-9 -55l13 -22v-4l-8 -13l8 -90
l-13 -34l5 -4l-5 -13l17 -133l-4 -34l4 -17l-4 -22l9 -42l-9 -26l9 -9v-12l-5 -5v-4l5 -4h4l-4 -30v-47l-5 -39l9 -51q-9 0 -9 -13l9 -38v-22l-9 -13l5 -17l-5 -30l5 -30l-5 -38l18 -9l29 5l26 -5h9v5l42 -5h99l25 -4l13 4l22 -4h8v4l30 -4h39l98 30q31 0 43 240
q11 55 21 55h17l13 -13v-4l-4 -4l4 -13q-10 -26 -17 -26l4 -13l-8 -59v-35l4 -38q-14 -82 -39 -111v-5l5 -4l13 -4v-5l85 9l4 -4h5q19 5 21 17q-12 28 -26 257l-30 17v8q5 13 26 13q47 -22 47 -98l4 -30h-4l13 -112l-4 -12l21 -69q-1 -16 -43 -34h-8l-56 -4l-34 4l-9 -8h-4
l-8 8l-13 -4l-35 4l-21 -8l-47 8l-21 -4v4l-5 -4l-21 4h-201l-17 4l-17 -4h-116l-17 4l-4 -4h-13v4l-30 -4h-64q-7 0 -17 -30h-26l-8 9v9q1 63 8 63l-4 5v55l-8 56l4 43l-4 12l4 13l-4 111v52l4 4l-4 13l4 30l-4 43l8 55l-4 22l13 72l-9 22l9 30l-9 8l9 9l-5 13l9 25l9 107
l-5 56l5 81l-5 34l5 13l-5 5q7 93 17 98l-8 21l8 22v8h-4l4 30v90l5 22l-5 25v30l5 47l-5 17l9 9v64l-13 17l4 30v17q0 19 -30 52l-4 -5h-4q-39 22 -98 26l-9 13v17q0 14 86 17zM138 1656l-4 -4v-38q0 -37 -9 -56l9 -9v-25l-5 -26l5 -13l-13 -85l4 -13l-4 -43l4 -4v-4
l-8 -56l4 -4h4l-4 -18l4 -25h-4l4 -4v-9l-8 -17l4 -51q-10 -78 -17 -90l4 -5v-4l-4 -13l4 -21v-51l-4 -18l4 -17v-25l-4 -17l4 -18l-9 -119l5 -5v-4l-9 -26v-51l-8 -13l8 -34l-4 -38v-35l-4 -17l4 -4l-13 -176l4 -4v-4l-8 -21q8 -16 13 -82l-5 -77l9 -25v-77h43l51 4l-9 38
l9 22l-4 21v13l8 9l-4 4l4 21v13l-4 17l9 26l-5 4v26l5 4l-5 4v64l-4 13l4 22v38l-4 56l4 30l-8 51l4 17l-4 17l4 5v4l-9 30l5 4v4q-13 38 -17 86l4 13l-4 21l12 43q-8 0 -8 13l8 21l-4 5h-4l4 25l-4 39l13 119l-5 5v4l9 39l-4 4v4q8 19 8 56v60l22 128l-5 4v5l5 38l-5 4v5
q13 114 26 132l-4 13l4 13l-9 8v9l5 4v5q-11 0 -17 47l4 4l-4 4v9l4 21h-9v4l-4 -4h-4z" />
    <glyph glyph-name="M" unicode="M" horiz-adv-x="1363" 
d="M80 1720h13l13 -9l25 9h8l126 -137h5l12 13h21l13 -9l-9 -53l93 -88q29 -52 76 -98l113 -164l34 -57q24 0 75 48l93 98l139 159l37 45q0 12 164 185q26 36 55 36l8 -27h9q8 0 8 14h9q0 -16 17 -36l-9 -66l9 -84l-9 -9v-5l9 -13l-9 -13v-5l9 -13v-18l-5 -4l13 -27l-4 -97
v-102l-4 -26l4 -14q-8 -7 -13 -106l-4 -4l4 -27v-18l-8 -13v-31l8 -9l-8 -31l4 -22q0 -22 -9 -22l5 -4v-9l-5 -49l5 -58v-4q0 -23 -13 -40l4 -22l-4 -35l8 -89l-12 -71l4 -4l-4 -13q2 -89 12 -89l-8 -97l4 -5v-4l-4 -5v-4l4 -27l-4 -17l4 -5v-4l-4 -18l4 -4h4l-4 -22v-31
q8 -14 89 -54q29 -28 29 -57v-5l-17 -22l4 -4v-9l-16 -22l-34 9q-52 -4 -59 -13l-42 4l-118 -9h-8q-7 0 -13 27q21 75 72 75q71 24 71 84q0 21 9 31l-9 9l4 44l-4 22l4 27l-4 13l4 31l-8 120q6 17 13 17l-5 5v4l5 5v4l-9 9v4l4 5l-4 4v5l9 13v9l-5 17l5 5v4l-5 5l5 22l-5 48
h5l-5 5v40l9 84l-4 31h4l-4 13l4 5v4l-4 18l4 4l-4 5v4l4 4v5l-4 13l8 18l-4 13l8 36l-4 53l4 13l-4 18v9h4l-4 22q0 64 17 93l-4 35h4l-4 4v49q1 31 8 31l-8 27v4l8 13l-4 14h4l-4 4v53l-9 89l5 18l-5 13l5 4v5l-9 31l9 88q-3 36 -9 36q-11 -1 -25 -31q-23 0 -76 -85
q-87 -72 -235 -261h-8q0 -21 -26 -35q-8 -23 -42 -40q0 -12 -50 -53q0 -10 -63 -71l46 -57q26 21 143 172q36 47 97 102q4 15 75 80q0 13 26 13q29 66 46 66q0 12 54 58q12 0 21 -22q0 -28 -100 -137l-51 -31q-14 -33 -88 -102l-88 -98q-7 -22 -110 -146q0 -13 -17 -13v-4
q-54 0 -54 44q-33 53 -55 53q-70 131 -80 137l-88 129q-15 0 -59 70l-46 49l-21 13h-9l-16 -132l4 -18l-13 -22l4 -22v-49l-4 -5l4 -4l-4 -22v-13l4 -18l-16 -106l8 -18l-8 -44l4 -5v-4q-9 -13 -13 -120l4 -4v-5l-4 -13l4 -31l-4 -4v-5l4 -4v-5l-17 -57q9 0 9 -13l4 -89
l-8 -49l4 -4v-53l4 -44l-8 -93l4 -14l-9 -9v-35l5 -40l-5 -4v-5l5 -22l-5 -4v-5l5 -26v-14l-5 -26l13 -44l21 4q126 -31 126 -57v-9l-25 -18h-38l-97 -22l-4 4h-4l-4 -4h-4l-21 9q0 -12 -51 -22l-12 4q-28 -18 -63 -18l-43 14l-21 -5q-42 12 -50 36v4q0 27 105 44
q21 17 21 40v18l-4 44h4l-4 4l4 27l-12 115l4 27l-9 35l9 93l-9 53l9 9l-9 9v9l5 4v5l-9 9v8l9 14l-9 13v31l9 9l-9 13l4 13l-8 67l4 31l-8 40l12 35l-4 22l9 53l-9 18l4 31l-4 27q9 17 9 48v5l-9 13l9 26l-5 18l5 5l-5 4v22l5 27l-5 4v5l13 48l-17 124l4 18l-4 4v5l9 40
l-5 17v5l5 4l-9 27l4 4l-4 13l9 14l-9 40l4 93l-4 4h-4l4 35l-8 18zM114 1667v-13l4 -31l-4 -31l4 -80l-4 -27l4 -35l-4 -18l4 -13h-4l4 -4l-4 -14l8 -88h-4l4 -5v-9l-4 -4l9 -53l-5 -18l5 -26l-9 -111v-111l-4 -84l4 -4v-5l-8 -40l4 -13l-4 -35l8 -93l-4 -14l4 -31l-4 -35
l4 -66v-18l9 -35l-9 -9v-62l-8 -14v-8l8 -14v-66l13 -27l-4 -4v-5l4 -48l-4 -18l8 -31l-8 -62l4 -4v-5l-4 -4v-5l4 -17l-17 -31v-9l101 18v17l-4 36l4 35l-4 18l4 22l-13 102l4 13l-4 13q13 0 13 18l-4 4l4 23v48l4 27l-4 22v4l4 18l-4 18l4 18l-4 22l4 66q-3 89 -8 89l4 22
v53l8 18l-8 62l8 17l-4 5q8 45 8 124q8 0 13 22l-4 40v4q0 31 8 49l-4 22l4 49l-4 35l17 111l-4 26v9l12 84l-4 18l4 26q-58 52 -63 76q-7 0 -33 40q-10 0 -51 44h-4zM1203 82q0 -9 -25 -18q0 -26 -59 -26q0 -7 -34 -18v-13h9v-5q66 5 75 14l21 -9l80 26q-39 49 -67 49z" />
    <glyph glyph-name="N" unicode="N" horiz-adv-x="1429" 
d="M1145 1724h15l4 -4q0 -26 80 -26h67q68 0 68 -18v-17q-38 -61 -68 -61l-103 -39q-56 -54 -56 -83l4 -21l-11 -48v-4l7 -18l-3 -4l3 -22v-82l4 -26l-4 -5v-4l8 -30l-4 -5v-4l4 -4v-5l-4 -17l4 -5v-4l-8 -48l4 -4v-4l-4 -44l8 -91l-4 -13l12 -82l-4 -18l4 -26l-4 -4v-5
l4 -4l-8 -113q12 -21 12 -65v-30l8 -18l-4 -43l4 -4v-5l-8 -35l8 -30l4 -187l-4 -21l4 -5v-4l-8 -13l8 -74l-4 -43l4 -13h-4l4 -5v-13l-4 -4v-4q21 -12 24 -27q0 -32 -95 -39q0 -8 -104 -17q-18 0 -23 52l-52 87l-40 78q-10 0 -51 74q0 11 -32 48q0 11 -52 91l-79 139
l-116 191q-25 35 -31 65q-53 70 -100 178q-7 0 -20 39l-103 183q-55 81 -95 165h-4q-8 0 -12 -44h-12q-10 0 -12 18h-12v-9h-4l4 -22l-4 -13l4 -26v-13l-4 -4l4 -5v-73q0 -22 -8 -22l8 -18l-4 -56l4 -13l-8 -35l4 -4l-8 -78l8 -113l-4 -26l4 -39l-8 -22l8 -39l-8 -74
q9 0 12 -65l-4 -22l4 -13l-4 -4l16 -83l-8 -21l4 -22v-87l8 -35v-4l-4 -17l4 -5v-4l-4 -13l4 -22l-4 -13l8 -9v-13l-4 -4l8 -52l-4 -4v-5q5 -30 12 -30l16 4q0 -13 51 -13q68 -45 84 -65v-17q0 -12 -112 -31l-27 5l-12 -5l-16 9l-12 -4l-4 4q-58 -13 -115 -13q-1 10 -40 26
l-4 22v17q37 51 99 78q12 28 44 44l-4 4v70l4 4q-16 90 -16 156v18l4 4l-8 26l4 26l-8 26l4 4l-4 22l-12 178l8 18l-8 47l8 74l-4 57l4 13l-8 43l4 26l-4 31l8 13l-4 21v26l8 26l-4 5h-4l8 61l-4 13l4 34l-4 18h4l-4 13q2 56 8 56l-4 22v82l4 5l-4 4v4l4 13l-12 66l8 65
q-7 0 -16 56v13q0 17 64 31v-5l4 5h4l12 -5l4 5h4q63 -11 63 -40v-4h-4q0 -45 56 -104l83 -117q80 -142 80 -174q90 -129 143 -221q0 -16 28 -61q15 -56 55 -109l44 -74l-4 -4v-4l28 -61q33 -50 115 -213l76 -117l75 -139q0 -25 32 -48l32 -48q0 -22 28 -26v-26h8q6 0 16 48
l-4 117l4 26l-4 5v4l4 4v5l-4 4l4 13l-4 135v13l-8 39l4 4v4l-4 26v5l4 26q-8 9 -12 100l4 4l-4 22v30l-8 13l4 26l-4 22l12 61q-13 0 -20 260l8 44l-8 13l8 56l-8 96v8h4l-4 31v91q-25 0 -40 96q-23 40 -52 60q-16 48 -51 48l-16 -4l-8 13h4l-4 4v13l16 18h16q40 0 67 13
l28 -5h60q1 22 12 22zM1049 1650q0 -20 32 -43l28 -35h8l8 78q-44 4 -44 13zM1160 1607l8 -18l-4 -13v-4h4q0 21 104 56q16 0 16 13l-16 9l-4 -4h-68l-4 4l-4 -4h-4l-12 4q-16 0 -16 -43zM151 1615v-4l4 -74q27 0 56 -69l35 -48q0 -10 16 -26q27 -60 100 -178l8 -9
q14 -46 47 -78q57 -141 167 -313q0 -16 111 -186q0 -12 52 -87l52 -96q0 -11 36 -52q30 -63 79 -139q79 -138 107 -165q15 -13 28 -13l24 5q-25 52 -68 112q0 28 -103 187q-59 83 -71 126q-21 24 -36 70q-8 23 -32 43q-58 129 -103 208q-9 3 -32 61q-31 52 -56 126
q-55 64 -55 91q-88 98 -88 148q-12 0 -12 26l-47 87q-65 79 -96 143q-21 18 -67 104l-4 5h-4zM159 1476v-13h16l-12 13h-4zM44 56l20 -13h51q17 13 32 13q-7 8 -12 53h-12q-36 -12 -36 -26q-42 -15 -43 -27zM191 83l-12 -22v-5l28 -8l43 8v5l-8 13l-4 -5h-4z" />
    <glyph glyph-name="O" unicode="O" horiz-adv-x="1354" 
d="M678 1682q133 -22 230 -69q86 -51 107 -91q50 -30 87 -121q11 0 55 -91q17 -8 36 -104q34 -50 40 -112q7 -62 27 -104l12 -39l-4 -13l8 -43l-4 -22q14 -77 20 -77l-8 -104l4 -17l-8 -26l4 -5q-8 -100 -28 -155l4 -5v-4q-34 -148 -123 -229q-91 -137 -245 -186
q-69 -43 -115 -43q-75 -22 -103 -22h-36l-16 4l-4 -4q-51 4 -51 13l-32 -9h-8q-72 0 -174 57q-46 26 -107 99q-15 5 -76 82q0 22 -39 78q-17 19 -60 121q-39 89 -55 147l8 13q-16 25 -16 95h4l-8 17l4 5l-8 82l4 35v17q8 8 8 34l4 31l8 8v13q7 135 75 290l67 125
q92 143 195 212q0 39 142 95q94 22 175 22zM408 1427l4 -4v-5q-9 -38 -24 -56l4 -13q-5 0 -23 -43l4 -17q-12 0 -20 -57q-7 0 -24 -129q-8 0 -20 -182q-7 0 -12 -52l4 -4v-5l-4 -25v-5l4 -30h-4l4 -4v-9l-8 -9l4 -13l-4 -52l12 -155l-4 -5l24 -151l-4 -4v-5q12 -71 32 -112
q0 -19 27 -69q22 -82 92 -126q84 -30 138 -30l4 5h4l12 -5q133 0 234 104q61 92 91 186l24 104l36 164v26l8 9l-4 21v5q1 21 7 21l-3 4v9q0 22 7 22l-4 17l8 65l-4 52h4l-4 4l4 22l-11 112l3 4v5q-6 0 -15 168l4 5q0 147 -72 298q-28 37 -67 48l-12 17v9q0 8 12 8v5
q-62 41 -171 60q-25 0 -35 9q-77 0 -175 -43q-51 -69 -79 -160zM75 1068v-26l-23 -121l3 -13q-7 0 -19 -91l4 -21v-52l8 -74h-4q3 -86 67 -229q2 -17 48 -95q21 -16 43 -74l16 -21q17 -32 63 -65q23 -38 111 -100h8v5q-23 26 -35 65q-11 2 -60 155q-12 38 -24 130l4 4v5
q-15 59 -27 203l4 17l-8 87q5 21 12 21l-8 35l4 39v47l11 13l-7 31q6 0 23 121l-4 17l8 43l-4 5v4q28 98 40 173l51 134l-3 13q21 25 47 112l4 5h-4q-89 -67 -198 -195q0 -11 -40 -61q-87 -167 -87 -198zM1007 1457q51 -137 51 -419l4 -13l-4 -5v-4q7 0 20 -108l-4 -13
l4 -39v-65l-4 -4l4 -4v-5l-8 -21l4 -26v-9l-12 -52l4 -13q-4 -32 -12 -43v-26l-59 -259q-42 -133 -91 -191l-4 -13h4q71 12 190 147q55 48 99 147q25 63 44 195q0 60 7 78l-4 4v4l8 70l-11 43l3 4v5l-7 25v83q-20 55 -52 194q-37 139 -158 325l-8 8h-8zM598 1042h24
q12 -2 36 -56q47 -121 47 -195q0 -47 8 -47q-9 -157 -43 -169q-80 13 -83 26l-4 22v52l-4 17l4 13l-8 26v4l4 4l-4 5v34l4 22l-8 52l12 34l-12 13l4 5l-4 21v44l12 13h23v8q-19 29 -19 43zM610 960v-48l4 -39l-4 -17l4 -21l-4 -22l4 -13l-4 -17l4 -39l-4 -26q13 -81 20 -91
h20q12 0 16 35l-4 4l8 86l-4 18l4 21q-8 8 -16 87q-14 8 -36 82h-8z" />
    <glyph glyph-name="P" unicode="P" horiz-adv-x="907" 
d="M212 1692l4 -4h4l16 4l56 -8l4 4q92 -8 92 -16h52q140 -23 140 -48q136 -79 184 -140q79 -86 104 -184l4 -16v-4l-4 -24q8 -8 12 -68q-34 -132 -80 -184q0 -40 -156 -180l-76 -44l-132 -48q-109 -32 -160 -32l-40 4l-12 -36l4 -24v-12l-4 -32l8 -76q-6 -88 -12 -88l4 -4
v-8l-4 -4q8 -20 8 -72v-72l4 -24l-4 -20l20 -116q13 -32 36 -32q49 0 128 -44h4v-4q0 -36 -44 -36l-104 16l-136 -16l-32 8l-16 -4l-4 4l-4 -4h-40l-4 4l-4 -4h-4q-24 8 -24 44l4 -4q72 21 72 36v36l-4 104l4 12l-4 16l4 12l-8 28l4 4l-4 20v68l4 16l-4 12l4 28l-8 116l4 52
l-4 12l4 24v52l-4 28l4 4h4l-4 40v16l4 24l-8 24l4 28v28l-4 24l4 24l-4 4l4 20v32l-4 40l4 32l-12 60l4 32l-8 220l4 68l-4 28h4l-8 36l4 4v4l-8 24v8l4 16l-16 104q0 16 180 28zM132 1640q0 -8 -36 -8l-4 -4q-14 0 -16 -32l20 -168l-8 -24v-8l4 -20h-4l4 -4v-16l-4 -20
l4 -24v-36l4 -16l-4 -4l4 -28v-24l-4 -4l8 -20l-4 -20v-32l8 -48l-4 -4v-4q8 -18 8 -56l-8 -24v-8l4 -24l-8 -32l8 -8v-12l4 -44l-4 -4l4 -28v-84l-4 -24l4 -4v-4l-8 -16l4 -40v-28l-8 -56q8 0 12 -92l-4 -20l4 -32v-12l-4 -24l4 -20l-4 -4l4 -20v-28l-4 -4l4 -4v-68l4 -24
l-4 -24l8 -84v-68h4l40 -4q60 5 60 28q-20 61 -28 164h4l-4 4v12l4 4l-4 4v36l4 16l-4 16l4 4v4l-12 84l8 148l-4 12l8 20l-8 8v32l4 36l-4 12l4 40l-16 28v8q16 0 28 164l12 52l-4 12l4 32l-4 32l8 24l-4 20l8 52l-4 4l4 32l-4 40h4l-8 44l4 4v4l-4 84v12l4 24l-8 24l4 56
v24l-8 76v8q2 8 20 16q-11 36 -20 36l-24 -4l-28 4l-20 -4zM264 1640v-24l-4 -12l4 -20v-36l-12 -40l8 -28l-4 -64v-56l-4 -16l4 -4v-4l-4 -4l16 -92l-12 -112l4 -4l-4 -20v-48l-8 -8l8 -16l-24 -208v-20l-4 -4l8 -32l-4 -4v-4q18 -16 36 -16l16 4l12 -4q65 0 268 80l-4 4
v28q22 0 76 208v32l4 4l-4 4v36l4 4l-4 4v28l4 20l-4 4h-4l4 20q-12 41 -12 80l4 16q-7 0 -20 136q-16 17 -32 88q-13 7 -36 44l-48 32l-4 -4h-4q0 8 -168 24l-4 -4h-4zM632 1528v-12q32 -144 32 -184l-4 -4v-4l8 -28l-4 -16l8 -20l-4 -4l8 -52l-4 -4v-4l4 -4v-4l-4 -4v-4
l4 -20q-8 0 -8 -12l8 -56v-20l-40 -164q-8 -48 -24 -48h-4v-4h4q35 9 132 116q64 95 84 164q8 0 8 88v16l-4 16l4 4q0 74 -124 220z" />
    <glyph glyph-name="Q" unicode="Q" horiz-adv-x="1321" 
d="M604 1707v-4l4 4h19q31 0 50 -13l12 5l131 -22q0 -8 12 -8q127 -57 127 -84l116 -106q0 -11 35 -42q53 -76 54 -105q51 -71 58 -148l4 -4l-4 -13q13 0 20 -134v-51l3 -101q-7 -12 -11 -89q-8 0 -8 -42q-18 -14 -42 -114l-4 -4v-25q0 -29 -31 -93l4 -4v-4q-7 -8 -12 -51
l-12 -17h-7v-25q-53 -101 -109 -185q-9 -25 -61 -72q126 -148 154 -148l-4 -4v-4q154 -105 236 -122q0 -12 62 -17h8v5l-8 33l4 13q-12 20 -12 55q0 43 70 92l66 8q72 -17 100 -75q31 -59 31 -72v-4l-4 -4l4 -4q0 -83 -77 -114l-39 -9q-131 0 -325 85l-100 67q-22 0 -97 71
q-18 0 -46 55l-39 38l-23 17h-4q-64 -58 -174 -93l-4 -4l-15 4v-8h-4q-28 0 -50 -13l-54 9l-12 -5l-23 5l-12 -5q-22 3 -35 13l-11 -8h-12q-14 21 -39 21q0 8 -27 8l-181 135l-74 80q-7 0 -7 13q-19 27 -35 33q0 12 -58 118q-17 73 -31 81q-35 112 -35 155l4 5v4
q-12 29 -12 55l4 17q-11 0 -11 8v30l-8 33v42l-4 59l4 5v4l-4 25l4 46l-4 5q0 64 54 265q7 0 16 47q21 28 81 143q64 38 139 126q137 99 228 114zM194 856v-17l-19 -152l3 -13l-7 -38l7 -16l-3 -43q0 -191 85 -311q0 -47 147 -123l92 -8q117 0 205 105q9 0 43 51v12
q-77 50 -120 55v-8q-16 -106 -54 -106q0 -11 -47 -21q-38 20 -38 80q17 72 65 102l24 8h15q93 0 182 -76h4q48 52 61 101q89 106 194 531l-4 5v4q26 60 54 278v30l-4 25l4 17q0 56 -35 105q0 10 -42 51q0 12 -16 12l-93 93l-85 42l-112 25l-4 -4h-3l-31 9l-4 -5h-4l-31 9
q-115 -23 -139 -51q-77 -77 -77 -88q-17 -51 -39 -68q0 -22 -19 -54q-45 -139 -82 -224q-8 -54 -46 -185q-17 -118 -27 -139zM113 1340l4 -4v-4q-38 -68 -55 -148l-7 -25l-4 -4h-4l4 -4v-9q0 -21 -8 -21l4 -4v-4l-15 -55v-63l-8 -9l4 -4v-17l-4 -17l8 -25v-34l-8 -12v-17
l8 -13v-25l3 -63h-3l7 -30h-4q16 -36 20 -80l-4 -25q26 -96 46 -127q0 -29 70 -160q8 0 8 -12l3 -5h4l4 5v4q-11 11 -31 80l4 17l-15 42l3 38v33q-11 17 -11 51l4 4h4l-4 13l4 21l-4 42l11 89l-4 12q20 92 35 219l58 224l39 76l15 59q0 40 85 194h4l-4 4v4l43 59h-8
q-143 -71 -143 -105h-8q0 -13 -19 -13q0 -16 -73 -67q-16 -17 -27 -55zM1126 1311v-9q0 -85 -24 -130l4 -13q-10 -133 -23 -143q-8 -78 -27 -127l-62 -215q-12 0 -12 -33l-34 -89l-12 -4l4 -4v-5q-14 -47 -46 -96q-23 -64 -82 -135v-5q88 -113 109 -113q91 90 170 261
q45 144 58 219q54 144 54 245l-4 46l4 13l-12 177q-9 0 -19 42v46q-13 0 -31 55zM526 291l4 -17h16q34 0 34 42l8 9l-15 33h-8q-39 -25 -39 -67zM774 253q-12 -32 -101 -101q-40 -43 -120 -59l-23 -5l-11 5q0 -9 -20 -9v-4q65 -17 124 -21q74 0 201 55l50 42v4
q-70 93 -93 93h-7zM1435 -46q6 -55 23 -55l19 5l8 -13q0 -18 -19 -34v-12q46 -13 89 -13q35 0 61 72l-30 67q0 33 -39 33q0 11 -43 17h-7q-58 -17 -58 -54z" />
    <glyph glyph-name="R" unicode="R" horiz-adv-x="1119" 
d="M206 1665q253 -4 300 -40l20 4h8q0 -12 8 -12v8l16 -24q74 -12 176 -136l52 -96l-4 -4v-4l12 -68l-12 -76l4 -16l-40 -96l-68 -92l-28 -32q-16 0 -16 -24l-64 -68q-45 -53 -136 -108q-44 -12 -44 -20v-4q15 -33 108 -116q36 -87 96 -160q27 -86 84 -148q40 -104 88 -164
l84 -108l56 -60q22 -34 64 -60h8v16l12 48l-4 4l4 4h4l4 -4h4q81 64 156 64q35 0 64 -64q8 0 28 -56q-9 -112 -96 -112l-16 -4q-61 2 -184 56l-64 52q0 14 -40 52q-16 11 -16 28l-20 12q-48 68 -68 84q0 14 -36 48q0 17 -24 48q-33 85 -100 176q-16 55 -64 112l-44 80
q0 26 -88 100q-25 47 -96 68l-24 8h-4q-16 0 -16 -52l4 -12l-8 -60l4 -60l-4 -56l4 -4v-4l-4 -4v-4l8 -32l-4 -40l4 -16l-4 -4v-4l4 -4v-4l-8 -60l4 -16h-4q8 -16 8 -44v-4l-4 -16l4 -4v-4l-4 -4v-4l4 -12l-4 -4v-4l4 -4v-4l-4 -36l4 -20l-4 -32q0 -36 40 -36q46 0 88 -52
l8 -16v-16l-52 -16h-8l-44 4l-4 -4h-4l-16 4l-208 -28q-72 18 -72 32v16q5 15 88 36l8 12l-4 4v4l4 4v4l-8 24v92l-8 108l4 4v4l-4 16l4 28l-8 84l8 56l-4 12l4 16l-8 68l4 12l-8 8l4 4v4l-4 4l8 40l-4 24h4l-4 4l4 60v24l4 4l-4 4l4 44l-4 56q3 28 8 28l-4 4v88l4 4l-4 4v4
l4 4v4l-4 16l4 4v4l-8 12l4 20l-4 12l4 24v28l4 4l-4 4v4l4 12l-4 44v24l4 4l-4 4v8l4 4l-4 4v12l4 36l-4 4l4 20v12l-4 76l4 4v4l-4 24v8l4 16q-12 36 -12 100l4 16l-4 4q-49 -4 -56 -12h-4l-12 12v12q0 18 72 28q0 12 132 20zM582 1629q16 -6 16 -12h-12l-8 8zM614 1625h4
l8 -8l-4 -4h-4l-4 4v8zM738 1625h8l8 -8l-4 -4h-4l-8 8v4zM198 1613h-24l-16 -8l-4 4h-4l-12 -4l-4 4l-20 -4h-16v-24l-4 -20l8 -60l-4 -4v-4l8 -16l-4 -4v-4l4 -24l-4 -16l4 -24h-4l4 -4v-64l-4 -36l4 -24l-4 -28l4 -12l-4 -4v-4l4 -12l-4 -12l4 -24l-8 -16l4 -24l-4 -16
l8 -24v-12q0 -20 -8 -20l8 -76l-4 -4v-4l4 -4l-4 -20l4 -16l-4 -24v-4l4 -16l-8 -12l4 -4l-4 -20v-8l4 -12l-4 -20v-84q0 -20 -8 -20l4 -4v-20l-4 -4l4 -12l-4 -16l8 -28l-8 -8v-32q12 -14 12 -76l-4 -12l4 -12l-4 -4v-4l4 -4l-8 -64l4 -16l-4 -4v-4l8 -44l-4 -44l8 -116
l-4 -24l8 -140l-4 -4h40l96 16h40l4 -4l12 4v4l-8 8h-52q-21 0 -28 88v12q1 28 8 28l-8 32l8 56l-8 40l4 4l-4 20v36l8 84l-8 12l4 20v4l-4 28l8 8v4q-12 15 -12 28v4l4 4l-4 4v4l4 4v4l-4 4l4 20l-4 16l4 16l-4 16l4 4l-4 12l12 88l-4 16v4l4 4l-8 32q11 0 16 100l4 4h4
l-4 12l8 52l-4 4l12 92l-4 16l4 16l-8 24l4 4v4l-4 4v4l4 20l-4 36l8 56l-8 8v48l-4 16l8 16l-4 32l8 8l-8 52q0 20 8 20l-8 36l4 4l-8 64l4 12q-24 0 -24 20q0 12 12 12v8zM266 1609v-4q12 0 12 -12l-4 -16l8 -96l-4 -12l4 -24l-8 -40l4 -36v-36l-4 -16l12 -56l-8 -20
l4 -12l-4 -40l4 -32l-4 -20l4 -52l-12 -116l4 -4q-6 -44 -12 -44l4 -20v-8l-4 -16l4 -4l-4 -28v-32l68 -20q72 0 176 92q60 62 60 128q10 0 36 156l-4 24l4 32l-4 16l4 36l-12 32l4 16q-49 220 -84 220q-12 40 -36 40q0 7 -92 24l-4 4h-52l-36 -4l-12 4zM582 1537v-4l24 -80
l-4 -4q40 -106 40 -192l-4 -68v-24l-4 -4l4 -4v-24l-16 -28l4 -4q-8 -62 -20 -76l4 -24h8q0 10 44 48l64 96l24 84l-4 12q2 52 8 52q-22 89 -64 152q0 10 -52 60v4l-4 -4h-4q-6 17 -48 32zM1022 -47v-4l20 -8q4 12 24 12q9 0 12 -20q-12 0 -20 -36l72 -16l4 4h8l4 -4
q47 0 60 60q-37 90 -64 92l-52 -20q0 -10 -40 -12q-28 -35 -28 -48z" />
    <glyph glyph-name="S" unicode="S" horiz-adv-x="1144" 
d="M592 1748q106 0 220 -40l84 -48q22 -26 40 -76l-4 -24l8 -12l-16 -60q-15 -40 -100 -68l-20 -4q0 9 -40 12q-24 17 -28 52l4 36l-4 12q0 64 56 64l60 16v4q-2 18 -112 64l-4 -4h-4l-92 16l-4 -4h-4l-4 4h-4l-4 -4h-4l-24 4q-113 0 -204 -88q-39 -52 -48 -52v-28
q-12 -12 -24 -72h-4l4 -4v-24l-4 -4l4 -4v-8l4 -76l-8 -12l8 -24v-4l-4 -4l4 -4v-64l-8 -12v-4q8 -6 8 -44l44 -104l40 -56q58 -52 124 -52l12 4q132 -14 132 -24l12 4q181 -45 248 -112q0 -11 68 -68q88 -157 88 -236l-4 -4v-4l12 -56l-16 -56l4 -4v-4l-36 -108
q-51 -74 -84 -100q-52 -52 -180 -108l-4 4h-4l-108 -24q0 -5 -32 -8l-4 -4l-4 4h-4q-85 -36 -104 -36l-4 4h-4l-44 -8l-4 4h-4l-24 -4l-40 8l-32 -4q0 6 -28 20l-4 -4l-68 24l-28 -4l-28 8l-12 -4l-12 4l-12 -4q-74 0 -128 68q-19 0 -44 76q0 68 40 80q44 35 92 40
q92 -11 92 -68q6 0 44 -108q48 -60 88 -60l52 -16q147 0 196 32q84 85 84 116q11 9 44 96q9 0 12 36q15 0 40 100l48 208l-4 4l4 28l-4 44l4 20q-5 0 -40 76q-64 55 -128 64l-88 16v4l-64 -8l-4 4h-4l-16 -4l-4 4l-20 -8q-24 3 -24 8q0 -7 -108 -12l-44 8l-20 -4
q-120 0 -148 72q-36 65 -52 160v48l-8 32q0 136 12 136l-4 4v12q29 52 52 124q3 44 132 152l44 36q15 0 32 24l100 36h20l4 -4h4q0 9 136 28zM92 1280l4 -16l-4 -64l12 -48l-4 -16q21 -95 36 -124q34 -80 96 -80h36l16 -4l16 4l16 -4l4 4h4l12 -8q68 7 68 16l-72 84l-40 92
q-12 31 -12 56v60l-4 24l8 48l-4 12l4 4l-8 88h4l-8 24v8l16 68q10 7 20 56q8 0 40 52l52 52h-8q-92 -52 -176 -116q-58 -67 -64 -108q-9 -2 -20 -32l-4 -20q-14 0 -32 -112h-4zM772 1524q4 -56 12 -56l44 -4l4 4q56 15 56 56l-4 20l4 16q-8 0 -8 16q-104 -24 -104 -44v-8
h-4zM844 820v-4l32 -68l4 -48h-4l4 -4v-4l-8 -12l4 -36l-4 -4v-4l4 -4v-4l-20 -68l4 -4v-4q-8 -12 -16 -68q-8 -52 -36 -116q-4 -35 -28 -52l-20 -56l4 -4v-4q-16 -18 -28 -64l-56 -88v-4l128 24q118 69 140 92q17 15 52 76q20 0 52 164q0 106 -48 192q0 27 -80 116h-8
q0 10 -28 32q0 7 -44 28zM40 216v-40q22 -32 68 -64q8 -23 140 -32l12 4q-24 29 -24 44q-11 0 -44 84q-8 0 -8 24q-4 16 -44 28q-51 0 -100 -48z" />
    <glyph glyph-name="T" unicode="T" horiz-adv-x="1413" 
d="M230 1641l4 -4h4l14 4h7l15 -4l14 4l4 -4l3 4h4l14 -4l4 4l97 -12l75 4l4 -4l18 4h97l90 4v-4l4 4h3l22 -4l11 4v-4l3 4l15 -4q134 -3 173 -13h194l3 -4l4 4h4l3 -4h4l3 4l18 -4h4l14 4l4 -4l54 4h18l58 -8h28l11 8h25q22 0 22 -61l-7 -33l3 -37q-14 -88 -28 -94l-47 -78
h-11q-29 34 -50 98q-16 50 -98 103q-13 0 -32 29v4l4 20h-4l-40 -4l-64 8l-22 -4h-54l-14 4l-11 -4l-29 13l-14 -5l-51 5l-21 -5l-43 9l-4 -4l-18 4h-22l-3 -4h-4l22 -115l-4 -4l7 -99l-3 -37v-53q0 -74 -7 -123l3 -13h-3l7 -24v-49l3 -25l-3 -4q7 -51 7 -127l-7 -13l3 -4
v-4q0 -65 -14 -94l11 -17v-12q0 -20 -7 -20l3 -21v-4q0 -20 -7 -20q19 -111 22 -185h-4l4 -4l-15 -90l4 -5l-11 -41l4 -28l-4 -17l4 -16h-4l4 -4l-4 -29l4 -41q-8 0 -8 -12l4 -4v-4l-4 -5l4 -16l-4 -29l4 -16l-4 -4q8 0 8 -13l-4 -20q118 -12 126 -70l-11 -12l-25 8l-61 -12
l-4 4q-35 -4 -57 -21h-4l-14 13h-47l-18 -4l-4 4v4l-29 -8l-39 4q-73 -25 -126 -25v4l-11 -4l-11 4q0 -8 -11 -8q-32 4 -32 16v17q0 12 68 37l4 -4q101 10 101 32l7 107l-4 4v4q8 16 8 45v9l-4 28h4l-4 4v5l7 28l-3 4l3 21v29l4 98l-4 4l4 21v61l3 91l-3 49l7 12l-7 29l7 49
l-7 33l3 12l-3 4v4l7 21l-4 16q4 44 15 70l-7 49l3 13l-3 24l7 45v78l3 4l-3 4v13l7 33l-4 16l11 61l-7 25v4l4 4l-4 4l4 25l-4 25l11 127l-4 24q0 17 15 25q0 8 -18 25l-29 -4l-108 -5l-18 5l-18 -5l-15 5l-3 -5h-4l-72 13l-3 -4h-4l-32 8l-7 -8h-29l-33 4l-3 -4l-18 4h-18
l14 -21v-4q0 -17 -14 -29l-4 -16l4 -16l-4 -17l4 -12l-11 -12v-29l-7 -33l3 -12q-7 0 -18 -62h-3l3 -4v-20q0 -20 -25 -46h-25q-43 0 -65 66l-3 53l3 33l-7 66l7 78l-7 37q0 22 29 45zM36 1584l4 -29l-8 -181l8 -28l-4 -17l29 -29h14q11 0 22 87q11 2 11 32l-4 13q7 0 7 12
l-3 4v4l3 4v4l-3 5v4l7 24l-4 17h4l-4 4v4q11 10 15 57l10 13v4h-10q-31 0 -47 -8l-25 8zM655 1584l-18 4q-22 -6 -22 -21q-3 -106 -14 -115l4 -4v-20l-4 -17l4 -4l-4 -49v-62l-4 -4l4 -4l-14 -189l3 -4l-7 -53l4 -12h-4l4 -4v-4l-4 -5l4 -4v-4q-5 -86 -11 -86l3 -4v-4
l-3 -17l3 -24l-3 -25l3 -28q-2 -50 -7 -50l4 -4v-106l-4 -5l4 -4v-12l-4 -33l4 -33q0 -32 -7 -32l7 -54l-7 -8l7 -33v-12l-11 -17v-16l4 -16l-4 -4v-5l4 -12h-4l4 -4l-4 -49v-29l-4 -4l8 -29h-4l4 -4v-4l-4 -4l4 -4q-9 -53 -15 -53l4 -5v-98l3 -4v-4l18 4h76q27 0 29 12v37
l11 41l-4 12l4 5v4l-4 16l11 33q-11 0 -11 45l4 16l-4 4v5q7 16 7 45v16l4 4l-4 4v4l15 74l-4 4l7 58l-3 33l3 4v4l-3 12l3 12q-11 0 -18 95l4 4v4l-4 4l11 82v41l4 37l-4 4v4l4 13l-4 12l7 8l-7 41l4 4l-4 41v8l4 17l-4 4v4l4 21l-11 32l3 29l-3 29l7 8l-7 8v50l3 4l-3 4
v41q1 20 7 20l-4 21l4 82l-4 4v4l4 16l-7 13l3 20v8l-3 17l3 4v4l-7 25v4l4 4l-11 37v41l-7 16l3 13l-18 8zM1191 1567h-18v-4q1 -10 51 -25l57 -73v-21q10 0 25 -41l11 -8h4q36 23 36 74l3 4l4 16l-4 4v25l4 49h-144l-14 4z" />
    <glyph glyph-name="U" unicode="U" horiz-adv-x="1338" 
d="M928 1684l108 -4h24l16 -4l12 4l4 -4h4l4 4q200 -19 200 -44q0 -36 -68 -36q-100 -58 -100 -84l4 -16v-4l-4 -4l8 -24l-4 -28l8 -32q-4 -40 -12 -40l8 -32v-112l-4 -16l8 -44q-7 -84 -16 -84l4 -12l-4 -20l8 -8v-32l4 -20l-12 -56q0 -57 -8 -84l4 -28l-4 -84l-4 -4h-4
l4 -4v-4l-8 -76l4 -16l-80 -268q-44 -136 -72 -136q-14 -28 -40 -44q-78 -105 -152 -136q-28 -18 -108 -44l-4 4h-4l-12 -4l-4 4h-4l-24 -8h-52l-4 4l-4 -4h-16q-118 24 -176 52q-16 20 -64 44l-60 60q-41 33 -84 192q-8 67 -20 80v8h4l-4 28v20l4 4l-12 36v40
q-10 0 -20 172l8 20q-2 44 -8 44l4 28v80l4 36l-8 32v4l4 12l-4 20v16l12 156h4l-4 4v4l4 32l-4 12l4 24l-4 20l8 36l-4 4v4l8 84l-4 16h4l-4 4v4l4 24l-4 4l8 52l-4 28l4 4q-8 0 -12 32q-36 28 -76 28l-24 -4l-16 12v24q0 9 64 16l4 -4l20 4h132l4 -4l4 4l104 -8l4 4h4
q67 -14 72 -24v-12q-2 -9 -52 -36l-12 -72l4 -44v-8q-12 -31 -12 -56l-12 -16v-44l-8 -32l4 -4l-24 -136l4 -24q-3 -64 -8 -64l4 -4v-20l-12 -188l4 -12l-4 -12l4 -4v-4l-4 -12l4 -12l-4 -28l4 -20l-4 -32q0 -39 12 -56l-4 -4l16 -68l-4 -12q12 -32 24 -168q13 -5 48 -176
q12 -76 44 -120l28 -28l-4 -20v-12q42 0 80 -20q255 0 344 152q100 95 100 144q40 88 40 124q11 0 40 128l16 36l-4 4v4l4 4v4l-4 24l8 40l-4 16q12 32 12 60v12l-4 16l8 44l-4 24v16l16 96l-8 40l8 68l-4 4v4l8 32v116l-4 16l4 16l-4 180q-32 13 -32 48q-24 47 -72 76
q0 20 -76 60v4zM1024 1628q12 -19 44 -36h8l8 40l-28 4h-24zM1124 1584l4 -4h4q44 40 52 40v4l-28 8q-28 0 -28 -24zM160 1596l16 -52q-8 0 -8 -16l-4 -4h-4l4 -4l-4 -20v-44l-4 -4l4 -4v-20l-4 -4l4 -4v-24l-4 -4l4 -4l-4 -20v-48l-4 -16l4 -12l-4 -52l4 -28h-4l4 -4v-4
l-8 -24l4 -28l-12 -100v-40l-8 -8l12 -52l-4 -32l4 -28h-4l4 -4l-4 -60l4 -28l-4 -4v-4l4 -4l-4 -20v-60l8 -108v-32l12 -16l-4 -12l28 -176h-4l64 -168q89 -84 112 -84l16 -12h8q-28 45 -28 100q-24 121 -44 164q0 37 -20 80l4 4v4q-7 9 -12 112q-17 0 -28 180l8 32l-4 12
l4 4l-12 92l16 152l-4 12l4 4v4l-4 36v4l8 64v16l8 8l-4 4q19 208 28 208l20 72l-4 4v44l4 4l-4 12l-4 68h-12q-20 0 -20 8l-4 -4h-4l-72 4l-4 -4h-4l-16 4h-4z" />
    <glyph glyph-name="V" unicode="V" horiz-adv-x="1275" 
d="M938 1699h8l173 -25l42 8q89 -13 89 -25v-34l-25 -25l-5 4h-4q0 -23 -63 -46q-9 -41 -42 -59q0 -48 -72 -182q-3 -23 -42 -109q0 -31 -26 -68l-29 -122q-10 -2 -47 -135q-57 -130 -76 -219q-11 -14 -34 -89q-12 -15 -80 -240q-5 -63 -12 -63q5 -63 25 -63v-64l-30 -17h-8
q-17 7 -17 30v13l4 4v4l-4 4h-4l-9 -12l5 -5l-34 -84q-31 -79 -51 -80l-13 8l5 13l-5 4v5q81 221 81 252q-54 246 -114 418l4 12q-13 16 -42 135q-20 23 -38 93q-13 19 -30 89l4 12q-6 0 -42 169q-46 107 -46 152l-9 8v4l4 17l-16 55l4 13q-12 42 -38 42l-5 34l5 12
q-13 0 -13 30q-8 8 -42 8v4l-4 -4h-9l-63 4q20 -74 80 -219l21 -80q4 -56 25 -139l-4 -4v-4l9 -26l-5 -4q9 0 30 -164q7 0 17 -68l25 -88l-4 -13q38 -121 68 -287q8 0 8 -21h-4q17 -32 38 -164q13 0 25 -101q11 0 30 -64q7 0 12 -33h9q15 12 29 12l5 -4v-4q-13 -68 -47 -68
h-4q-21 6 -21 13v4l4 4v5q-29 32 -63 173l-4 4l4 4v4l-110 451l-25 93l4 13l-9 17l5 4v4q-17 28 -22 76q-12 16 -12 34h4l-17 97l4 4q-11 0 -25 109l-8 9l8 29q-17 19 -34 135l-72 186q-21 0 -21 33l5 34l-5 4h-55l-12 17q-34 18 -34 26v12q0 17 38 17l13 4v4l21 -4l17 4
l4 -4h4l21 9l21 -5h9l34 5q42 -5 42 -13l4 4h4l110 -29l59 -9l4 5h9l8 -9v-25l-42 -30q-12 -38 -42 -38v-4q25 -75 55 -215l4 -4l-4 -21q14 0 42 -135l25 -114l5 -4v-4l-5 -5l38 -105l-4 -4q30 -30 63 -177q13 -59 64 -198h-4q25 -78 25 -110v-17q17 -17 17 -38h4q8 0 25 72
q25 39 34 93l80 219q30 103 106 303q0 35 84 258l68 147l25 106q-44 50 -67 50q-20 17 -38 17q0 6 -51 17l-8 12v9zM1149 1615v-5q21 0 25 17h-13z" />
    <glyph glyph-name="W" unicode="W" horiz-adv-x="1860" 
d="M208 1668h8q8 0 8 -12l4 -4h8l140 -12q0 9 36 16l8 -36q-17 -20 -40 -20q0 -20 -28 -20v-4l40 -164q0 -38 32 -188q15 -51 36 -188l-4 -12l32 -112h-4q15 -70 32 -112l-4 -4v-4l8 -32v-4l-4 -4q16 -24 16 -36l-4 -4q24 -53 52 -156l-4 -4v-4q36 -62 48 -132q16 -9 16 -32
h12l52 116h8v24q12 12 12 40q7 0 12 40q28 44 44 100q11 0 56 152q8 0 24 56l8 8v4q-20 125 -40 164l4 4v4l-12 8l4 4v4l-4 4v4l4 4v4q-12 16 -20 76h4q-16 24 -16 44v16q-12 0 -32 72l4 12l-40 96v4l4 4l-28 60l-24 20l-40 -8l-12 16v8q33 72 100 72q13 9 76 20
q37 -8 52 -24l-4 -20q32 -45 52 -188q20 -34 24 -68q5 0 44 -120l4 -28h4q29 34 60 140l36 80l24 72l-4 4v4l20 52q-8 0 -8 12l4 20l-28 4l-12 -4q-49 4 -60 12q0 44 32 44q0 8 80 16l12 -4l16 4h8v-4l20 4h16l24 -4l16 4q92 -25 92 -40q0 -44 -44 -44q-128 -17 -128 -24
l-40 -136q-38 -59 -76 -192l-40 -76l4 -4v-4l-4 -4v-4q0 -25 24 -84q0 -30 32 -100l4 -24l-4 -12q10 0 32 -96q28 -59 88 -248l52 -136l-4 -4v-4q17 -35 28 -40h4l68 192q9 0 16 40q20 44 40 140l8 8l-4 4v4l24 72l-4 4v4l72 212q15 16 48 132q17 30 28 76l4 20q9 7 28 68
q12 0 44 108q9 6 32 60l-4 4v4l-4 -4h-4q-118 36 -140 56l-4 -4l-12 16l4 4l-4 4v8q0 12 60 20l72 -4l24 4l12 -4l32 4l76 -4h4q31 0 56 -44q-4 -36 -12 -36h-32q-88 0 -88 -40q-11 -37 -36 -72q-16 -32 -28 -88q-15 0 -48 -112l-56 -148l-92 -280q0 -53 -116 -376l-36 -124
l8 -20l-16 -44h-12v12q-13 0 -36 -84q-32 -88 -40 -92q-6 -16 -12 -16h-8q-12 4 -12 24l80 232q-35 55 -48 116q-12 0 -12 40q-14 0 -64 156l-8 32l-4 4h-4l4 4v4q-20 29 -28 88q-19 27 -40 120l4 4q-18 24 -36 100l4 12h-4q-12 9 -32 96l-8 12l4 4v4q-21 85 -40 124l4 4v4
l-40 100l-44 192q-8 0 -12 32l-12 16l-36 -20h-8l-12 12v8l4 4v4l-4 4l-40 -12h-16v-12q37 -32 56 -108q52 -142 60 -196q8 -8 16 -68l4 -20q10 0 24 -96q8 0 8 -20l-4 -4q12 -51 48 -116q0 -35 24 -88l-4 -16q20 -17 44 -144l44 -164l-4 -4q10 0 24 -104h-4q11 -20 24 -84
l68 -208q-9 -28 -16 -28q-16 0 -16 32q-32 20 -32 72q-12 0 -24 96q-11 8 -24 52l4 16l-20 84l-4 4v4l4 4v4q-44 113 -80 304q-11 6 -20 64q-12 0 -12 8l4 4l-4 12h-4q-24 -39 -72 -192q-41 -53 -76 -208q-18 -9 -52 -108q-9 0 -20 -56q8 0 12 -28l-12 -16h-4l-20 4
q-12 -44 -68 -148l-36 -84l-24 -24h-12q-8 0 -16 28l4 4v4l-64 200l-28 112q-8 0 -24 76q-16 14 -28 136q-6 0 -24 48l4 16q-44 126 -60 232q-12 5 -24 100l4 16q-16 0 -16 36q-12 0 -20 76q-11 8 -44 124q-16 37 -28 112q-18 28 -32 100q-16 9 -36 88q-27 32 -72 60v8
q0 11 20 12v24q0 24 104 52h56l20 -4zM64 1592v-4q60 -65 60 -136q23 -8 48 -124l16 -44l-4 -16q92 -240 92 -308l8 -44q7 0 20 -92l16 -28l-4 -4v-4q24 -67 60 -220q14 -30 36 -156l4 -16l4 -24q20 -19 20 -40h-4l76 -232l-4 -4l4 -4h8q28 34 64 124l40 100l-68 208
q-20 12 -20 52l4 4l-20 52l4 4q-8 0 -32 88q0 16 -12 28l4 32q-16 0 -16 60l-20 64l4 4l-24 96l4 4q-8 0 -8 44q-10 0 -16 84l4 16q-11 0 -36 120q0 40 -20 116h4l-40 144l-20 44v4h4q-5 17 -20 24h-40l-8 -8l-20 4h-4l-20 -4l-8 8q-76 -4 -120 -16zM1180 1604l8 -8h32l-8 8
l-16 -4zM1636 1572q24 0 24 -24l-4 -12q8 0 8 12q15 24 52 24l4 4v4q-32 0 -32 8q-9 -8 -48 -8l-4 -4v-4z" />
    <glyph glyph-name="X" unicode="X" horiz-adv-x="1112" 
d="M0 1678h35v-8h9v8l22 -4l13 4v-4l5 4l22 -4h43l18 -4l4 4h5l4 -4l18 4q31 0 31 -8l4 4h22l110 -9l17 5l9 -9h9v9l13 -9l13 9q67 0 93 -42v-13l-22 -20l-35 12l-5 -4h-4l-18 4h-4v-12l101 -238q22 -81 110 -312l39 75q36 56 71 150q15 17 79 195q70 98 70 130l-22 4
q0 -13 -66 -21h-9q-66 0 -87 25v21q4 12 26 12h31q52 0 132 21h4l4 -4l31 8q110 -4 110 -12l13 4v-21q-26 -46 -88 -46l-17 25l-101 -183q-27 -51 -66 -175q-15 0 -27 -54q-38 -84 -66 -125l-35 -96q67 -232 101 -274l84 -217q10 -1 39 -87q43 -73 71 -146q23 -27 39 -71
l31 -54l-13 -17q35 -2 79 -46v-12q0 -26 -141 -38l-79 9l-88 -13q-66 0 -66 50l62 50v9q-29 37 -57 95l4 5v4l-31 45l-118 296q-35 95 -49 158l-30 63h-5l-136 -288l-27 -58l5 -12q-14 -1 -75 -138q0 -18 -22 -62q0 -22 -13 -25l4 -4v-4q-22 -40 -26 -71l22 -17
q0 -33 -26 -33l-5 -4v-5h9l40 9v-4q31 15 118 25q81 0 106 -59q0 -26 -79 -33l-66 8h-79l-62 4l-40 -8q-109 0 -109 25l-9 13v8q123 21 123 42q8 41 22 41q0 41 70 208q0 12 49 88l-5 4v4q29 42 57 121q101 196 101 246l36 50l-27 66l-57 154l4 4v5l-162 374l-88 163h-84
q-70 0 -70 46v12zM215 1611l27 -54l4 -4v-21q13 0 13 -21l79 -162q31 -88 75 -179q64 -186 71 -187l-5 -5v-4q66 -155 92 -250l18 -37l-4 -4v-4l105 -275q0 -21 27 -54q0 -33 26 -71q14 -14 39 -79q22 -22 49 -79h-5q31 -45 31 -59l66 -4h62q32 0 35 13q0 16 -22 16
q-44 108 -62 113l-22 62q-6 30 -52 104l-198 479q0 18 -106 300q0 29 -22 46q0 48 -70 208l-88 187l-4 21q-107 4 -137 13z" />
    <glyph glyph-name="Y" unicode="Y" horiz-adv-x="1120" 
d="M31 1749h4q34 0 66 -13l4 5h31l18 -5l17 5h9l13 -5l22 5h22l13 -5l22 5h53l5 -5l4 5h48q27 -3 27 -13v-26l-22 -17h-84v-21q21 -27 27 -64q36 -37 118 -233l44 -127q19 -14 35 -68q8 -3 27 -60q10 -2 22 -34h8q36 34 36 64q11 0 35 68q22 22 22 47q15 3 61 114
q31 37 93 183q43 78 43 93h5q0 17 -70 30h-44l-5 4l-13 -4q-79 0 -79 34l18 13h105l18 -5l22 9l22 -4h39l75 -13l13 4l13 -4l5 4q0 -8 39 -13l9 9l17 -4l5 4h4q27 0 31 -34v-4q-63 -63 -193 -102q-49 0 -49 -64q-14 -15 -61 -123q-35 -47 -57 -106q-6 -23 -35 -60l-27 -59
l-66 -144v-5l22 -25q0 -24 -31 -55v-13l5 -4v-5l-9 -29l9 -26q-13 -2 -13 -34v-80l-5 -5l5 -4v-148l4 -47l-4 -30l4 -13l-4 -25l4 -21l-4 -38v-39l4 -46l-4 -13l4 -47l-9 -25l18 -123v-9q0 -7 97 -25l35 -26v-25q0 -10 -40 -22q-9 8 -70 13q-172 -13 -194 -21l-30 8l-14 -4
l-83 -4l-18 21v13q0 14 75 25v-4l62 17l-27 115l5 13l-5 29l5 77l-5 4v4l9 26l-4 4v8l4 5l-9 17l5 17l-5 4v4l5 4l-9 43l4 29l-4 22q4 37 13 46l-4 17l4 5l-9 106l5 17q-9 21 -9 76v9l4 25l-13 72l4 5h27q10 0 22 -132l-5 -4v-5l9 -157l-9 -119l5 -12l-5 -5l5 -21v-68l9 -12
v-9l-9 -8l4 -5v-4l-9 -51l5 -76v-13l4 -21h-4l17 -34l-4 -4v-5l13 -29q18 -2 18 -13l-18 -4v-9l22 -4l13 4v-4l5 4h4l5 -4q48 4 48 13q-21 0 -31 8l-9 -8h-13v8l22 4h18q0 18 13 39l-5 4l5 30l-9 106l4 12l-4 5v4l4 25l-4 34l9 13l-5 26l5 38l-5 4v4l5 5v4l-5 4l5 17l-5 34
v8h5l-5 43v106l-4 17l4 4v4l-4 60h4l-4 4l4 85v13l5 4l-5 4v5l9 34l-4 12l4 4v5l-4 4v4l4 4l-4 22v4l9 13v4h-14q-17 -43 -39 -43v5l9 42l-5 17q27 35 27 51v13q-33 34 -49 102q-23 23 -61 140q-84 207 -154 305l-31 77q0 30 -30 30l-66 4l-14 -4v4l-4 -4h-13l-5 4l-4 -4
h-26v-5l4 -21l-4 -4q33 0 114 -221l31 -64q36 -48 136 -276l48 -97l-9 -30l5 -42h-5q-11 6 -61 123l-22 51q-29 39 -79 165q-13 0 -13 34q-28 17 -75 140q-15 17 -53 119q-47 20 -83 85l9 30l-40 34q0 38 31 38zM914 1613h4q87 37 88 47l-48 8q-8 0 -44 -55z" />
    <glyph glyph-name="Z" unicode="Z" horiz-adv-x="1187" 
d="M274 1670q0 -11 69 -21l13 13q0 -10 51 -13l22 8l4 -4v-4l4 4h5l4 -4h4l9 8h4l13 -8l30 4l4 -4h5l25 8q0 -8 56 -12q0 7 30 12l13 -4l52 4l25 -4l99 13l116 -13l4 4h4l5 -4h4l4 4q42 -8 116 -8h9q26 -15 26 -51l25 21q26 -2 26 -12v-9q0 -24 -69 -118l-77 -161
q-14 -9 -30 -51q-17 0 -17 -25q-29 -31 -47 -89q-23 0 -65 -110q-25 -18 -34 -59l-43 -80q-13 -1 -39 -93q119 -22 134 -38v-25l-26 -9v4l-5 -4h-12l-116 21q-44 -95 -60 -97q-49 -108 -56 -110l-77 -148l-78 -131l-12 -12l4 -5v-4q-47 -107 -99 -177v-13l22 -4l197 29l4 -4
l283 25v-4l39 13q69 131 69 182v25l25 17l13 -30l-4 -4v-4l4 -26l-25 -93q-30 -30 -30 -63h8l56 -8q13 18 13 97h4l-4 4v21l4 38l-8 42h4l30 9q17 -24 17 -38l-13 -106l4 -4h5l-5 -30v-38l13 -17v-8l-25 -55l12 -21q-13 0 -17 -33l-4 -5h-4q-22 6 -22 13v42q0 42 -73 42
l-4 4q-31 -4 -51 -25h-5l-4 4l-4 -4h-9l-30 13l-146 -9l-4 4h-4q0 -8 -129 -16v4q-23 -11 -112 -21l-13 4l-4 -4h-4l-5 4q-107 -9 -107 -38l-21 -4l-22 16l-68 -3q0 -38 -43 -38l-5 -5h-8l-13 13v21q10 21 43 21h4l13 -9h4v9l-8 13q0 23 107 33q77 114 116 212l86 148
q49 103 150 270q35 53 81 169l125 245l73 123q11 33 60 97l51 93q33 84 95 169v9l-22 -5l-64 5q-60 -63 -64 -93q-12 -1 -56 -81q-32 -31 -95 -160l-47 -64q-13 0 -38 -84q-13 -2 -43 -80q-54 -87 -112 -161q0 -16 -60 -106q-33 -43 -69 -135q-7 0 -21 -46q-27 -47 -34 -47
l4 -13q-40 -55 -77 -131q-7 0 -22 -29l-4 4h-9v-8l5 4h4v-9q-25 -57 -86 -118l-77 -135q-34 -32 -52 -64v-8l5 -4v-5l-43 -17h-5l-17 17v9q15 38 78 93q30 42 30 67q51 55 55 81q45 30 73 101q80 140 116 186q0 15 22 47l64 143h-13v5l-17 -5l-43 5l-26 -5q-51 6 -51 22v16
l21 22l39 -9l4 4h4l112 -8q43 44 69 110q54 83 77 105l34 72q58 121 108 190q32 35 68 127q18 5 30 47l52 67q10 10 43 85h-5q-7 8 -137 21l-4 4v5q-10 -8 -95 -17l-25 8l-116 -21l-5 4l-42 -4q-111 0 -151 8l-17 -4h-21l-17 4l-18 -4h-8l-22 4l-25 -4h-43q-10 -1 -90 -106
q-22 -88 -48 -88q-55 30 -55 63v17l4 4l-4 4v5l4 17l-13 29q5 38 17 38h17q15 0 22 -105h8q25 73 65 118l4 4v4l-69 13h-4l-21 -4l-5 21v8l22 26q81 -4 81 -13l5 4h25l9 -8z" />
    <glyph glyph-name="bracketleft" unicode="[" horiz-adv-x="345" 
d="M96 1706h53l35 -4l35 4h43q24 0 31 -18v-13l-17 -18h-5l-26 5l-18 -9l-4 4q-48 0 -48 -31l4 -18l-4 -4l9 -62l-5 -5v-13h5l-9 -75l4 -5v-4l-13 -49l5 -40l-9 -93l4 -5q-7 -102 -13 -102l4 -22v-62l-4 -27l4 -22l-4 -5l4 -4l-4 -22v-31l-4 -5l4 -4v-31l-4 -18l4 -4v-5
l-4 -22l4 -27l-4 -4v-5l4 -31l-4 -4l4 -22l-4 -58l4 -18l-13 -93l4 -22h-4l9 -40l-9 -9l4 -4v-5l-8 -58l4 -13l-9 -44l9 -36v-9l-4 -4l4 -14q0 -44 -13 -84l4 -13l-4 -40v-27l9 -35l-5 -18l9 -13l-9 -18l5 -5l-5 -44v-22l9 -35v-45l4 -4v-4q114 13 114 26q0 9 26 9l9 -13
v-22q-36 -49 -96 -49l-5 4h-4l-149 -27q-27 0 -30 67h4l-4 5l8 101l-13 76h5l-5 4v4l5 49l-9 40v22l9 14v9l-5 13l5 22v76l4 4l-4 5v35l17 67l-4 4v5l9 84l-5 35h5q-9 20 -9 58q1 58 9 58l-5 13l13 178l-4 26l4 182l9 36l-4 4v5l4 4v5l-4 31l13 57l-9 45v9h4l-4 18l13 208
l-4 5v4l4 18l-4 22l4 13l-4 5v4l4 18l-9 9q0 62 44 62zM105 1653q-9 -27 -9 -80l5 -22l-18 -205l4 -4l-8 -107l4 -31l-4 -4v-5l4 -13h-4l4 -4v-9q0 -45 -9 -45l5 -4l-5 -76v-53l-4 -26l9 -76l-9 -102v-9l-9 -35v-58l-4 -27q9 -22 9 -66l-5 -14l5 -4v-5l-5 -26l5 -18
q-5 -84 -14 -84l5 -5q-3 -53 -9 -53l4 -4v-27q0 -52 -8 -71l4 -5v-4l-4 -4v-5l4 -4l-9 -142q13 -17 13 -124v-53l14 -14h13l22 5l-5 31v4l5 40l-5 4v5l5 4l-5 53v49l5 18l-9 49q6 149 13 168l-4 18v5l4 31l-4 4h-5l13 84l-4 18q8 0 13 124l-4 18l8 40l-4 5v4l9 36l-9 40
l4 226h5l-5 13l5 85l-5 17l5 14l-9 9v8q0 32 9 49l-5 5l9 115l-4 31v5l4 4l-4 5v31l13 13l-4 31l4 18l-4 13l8 13l-4 32v111q-13 22 -35 22z" />
    <glyph glyph-name="backslash" unicode="\" horiz-adv-x="807" 
d="M124 1660q20 -6 20 -24l148 8l20 -4l24 4l24 -8l16 4l4 -4v-32q-62 -20 -116 -20v-20l28 -60l-4 -4q7 0 16 -124v-8l20 -76q33 -46 76 -200q64 -130 120 -388q28 -64 32 -92q8 0 16 -28l-4 -4l44 -120q28 -52 28 -72q20 -36 24 -60h-4q0 -36 56 -136q0 -31 36 -80l48 -76
v-16l-24 -20q-63 0 -88 24q-21 16 -44 16h-48q-22 0 -28 20q0 20 52 36v12l-24 72q-33 64 -56 168q-9 7 -56 136q-43 95 -100 324l-8 24l-4 4l4 4q-75 233 -116 320q-52 162 -84 292q-9 0 -20 52q-7 0 -16 40q-31 21 -132 60l-4 24l12 8h16l72 -8q10 32 24 32zM164 1588
q0 -8 12 -8q0 -29 44 -144q0 -39 60 -228l84 -224q64 -188 64 -228l52 -180l96 -236q23 -83 40 -104l24 -68q16 -73 64 -116l32 -12h12v8q-10 0 -40 64q-17 20 -56 116q-13 0 -36 128l-64 152l-60 180q0 20 -20 52v8l4 4v4q-14 0 -24 92q-14 18 -24 88q-19 29 -36 92
q-8 2 -16 20l4 4v4l-68 184q-23 26 -40 124h4l-8 40l4 4v4l-20 96q-44 61 -44 92q-44 -3 -44 -12z" />
    <glyph glyph-name="bracketright" unicode="]" horiz-adv-x="339" 
d="M92 1721l69 -9l5 4h5l5 -4h5l5 4h5l35 -9l39 9l30 -4l15 4q20 -6 20 -13q-5 -23 -20 -23v-63l-5 -27l5 -4v-5l-15 -40l5 -32v-32l-10 -13l5 -5q-10 -162 -20 -162l5 -18l-5 -108v-18l-5 -23l5 -27v-63l-5 -4l5 -5l-5 -45v-5l5 -22h-5l5 -5v-58l-10 -36l5 -5l-9 -81l9 -36
l-5 -5v-4l5 -23q-13 -32 -19 -99l5 -18l-5 -45l10 -27l-5 -41l5 -31h-5l9 -36q-9 -11 -9 -32h-5l14 -63h-4l4 -5v-13l-4 -5l4 -4v-41q0 -54 -9 -54l5 -4v-9h-5l5 -77v-95l4 -17l-4 -5l4 -22v-68q0 -13 -19 -13l5 -5v-4l-10 -10l-10 10l-5 -5h-5l-20 5l-5 -5h-5l-10 9h-35v-9
l-19 5l-40 -5l-25 5l-5 -5q0 9 -15 9l-5 5v4h10v5l-5 13l25 18l15 -4l20 36l-5 22l5 23l-10 8l5 18l-5 5v4l10 50q-5 40 -15 50v36l5 18l-5 4v5l5 85v5l5 4l-5 5v54l5 18l-5 23l10 63v4l-5 23l5 27v4l-10 59l5 23l-5 4v5l5 13l-5 36l5 18l-10 27v36l5 5l-5 4v5l5 4v5l-5 18
l15 63q0 23 -10 23l5 22l-5 23l5 13l-5 36l20 54l-5 5l5 23l-5 4v5l5 4v5l-10 45l25 153l-5 5v4l10 50l-5 18l9 9l-9 54l5 36l-5 22q3 41 9 41l-4 5v4l4 5v13h-4l9 99q0 50 -44 50q-25 -9 -75 -9l-10 13l5 5l-5 4v14q0 11 80 27zM221 1658h-30l-10 -9v-77l-5 -4l5 -5
l-10 -113l5 -4v-5l-10 -58l10 -9v-23l-10 -13l5 -5v-4l-5 -5l5 -22l-5 -41l5 -4v-5q-15 -22 -25 -149l10 -40l-10 -14l5 -32v-22q0 -32 -10 -32l5 -4v-5q-6 -54 -14 -54l9 -63l-9 -27l4 -4l-4 -46l4 -22l-9 -54l9 -59v-9h-4l4 -45v-77l5 -27l-9 -40l4 -27v-27l-4 -36l4 -37
v-22l-4 -18l4 -5v-4l-9 -36l5 -23l-5 -13l9 -100h-4l4 -4v-72l10 -49h-5l5 -5v-4l-5 -5v-4l5 -14h60q11 0 15 41l-5 80l5 27l-10 86l10 77v22l5 5l-15 54v9h5l-5 32v4q0 61 15 81l-15 41v9l5 4l-10 36l5 14l-5 27q10 126 20 153l-10 118l10 36v54l5 18l-5 22l10 118l-5 4
l10 81l-5 5v4l5 5v4l-10 41l20 149l-5 18l15 63l-5 4v5l5 27l-5 14l5 22v45l4 27l-9 54zM-57 1491l-5 -14h-5v14h10zM-57 1275v-14h-10v14h10z" />
    <glyph glyph-name="asciicircum" unicode="^" horiz-adv-x="961" 
 />
    <glyph glyph-name="underscore" unicode="_" 
 />
    <glyph glyph-name="grave" unicode="`" horiz-adv-x="682" 
 />
    <glyph glyph-name="a" unicode="a" horiz-adv-x="1367" 
d="M696 1672q0 -6 40 -16q18 -20 40 -20v-8h-20v-4q12 -14 24 -72q20 -32 48 -116l40 -188l-4 -4v-4q23 -50 56 -232l8 -20l-4 -12q24 -65 36 -152q15 -25 44 -120q10 -17 28 -108l40 -4h32l36 4l12 -4l4 4h4l4 -4l20 4h36l24 4l4 -4h4l76 8l24 -4h24l16 -16v-16
q0 -11 -40 -16q-40 -30 -40 -56l-40 -60h-12q-7 0 -24 56q-20 4 -72 48l-4 -4h-4q-13 0 -28 12h-72l-8 -8q15 -20 56 -168l96 -272q28 0 84 -56v-12q0 -28 -36 -28l-8 8l-16 -4l-24 4l-4 -4h-4l-4 4l-76 -12v4l-4 -4h-4l-16 4l-12 -4l-48 12v8q12 0 12 16q108 41 108 92
l-36 88q0 23 -52 172q0 17 -12 36l4 4v4l-28 84l-24 36l-104 -8l-4 4v4q-203 -24 -408 -36v-8h-4l4 -4v-8q-34 -73 -56 -200q-8 0 -12 -24h-4l4 -4v-4q-36 -80 -56 -176l-8 -8q0 -10 72 -28q2 -16 12 -16v-4q-14 -28 -44 -28l-24 4l-52 -8l-52 12l-28 -4l-12 4l-16 -4l-16 4
l-136 -16l-4 4h-4l-4 -4h-4q-40 6 -40 16v8l4 20h-28l-36 -20q-28 7 -28 16v8l4 4l12 4v4l28 -4h48q32 0 100 56q44 98 76 200l56 124l44 164q27 58 52 164q5 0 40 120l48 128q16 17 40 140l32 80l12 8l-4 20q6 0 20 76q26 46 56 148q17 22 60 144l-12 4v8q22 0 60 36h12z
M688 1632l-72 -164l-60 -164l-32 -104q-29 -80 -36 -128q-60 -122 -160 -476q-11 -17 -36 -120l-160 -420l12 -4l84 4l12 -4q76 0 76 28q32 132 48 132h4v40l20 44l-4 16q17 0 28 84l44 148q27 38 40 148q20 0 52 176q20 43 68 252q7 56 20 56q0 51 32 108l-4 16
q48 136 56 196q5 0 20 68q-16 68 -52 68zM844 1636h4l12 -4v-4h-16v8zM792 1632h40v-8h-40v8zM756 1484v-20l-16 -40l4 -4v-4q-28 -45 -52 -168q-16 -23 -16 -48l-4 -4h-4l4 -4v-4q0 -20 -24 -92l-48 -188q-9 0 -20 -100q-11 0 -28 -88q-6 -1 -44 -152l152 4l4 4h4l4 -4h4
q102 20 312 20l4 4v4l-12 60h4q-69 176 -100 352l-8 8l4 20q-13 68 -20 68l4 20v4q-12 17 -12 32l4 4q-8 2 -16 20l4 16q-15 35 -56 240q-11 0 -20 44zM1236 548v-4q9 0 40 -28h4l8 36h-24zM980 20h4l4 -4h4l4 4v-8h-16v8z" />
    <glyph glyph-name="b" unicode="b" horiz-adv-x="936" 
d="M275 1695l78 -4l4 4h4l4 -4l22 4l85 -8l4 4l26 -4h52q148 -37 216 -100q66 -43 101 -196q7 0 7 -39v-50l-4 -23l4 -19v-16l-7 -7l3 -20l-33 -92q0 -25 -49 -81q0 -14 -37 -50q0 -16 -15 -16q-33 -58 -108 -130q-27 -11 -104 -66q-69 -33 -104 -65v-4h15l126 -43
q73 -30 160 -111q81 -101 97 -178h-4l15 -77q0 -44 -33 -77q-8 -32 -101 -96q-51 -49 -119 -81l-3 -4v-4l-4 4h-11l3 -4v-3q-126 -35 -152 -35l-4 4l-11 -4q-37 2 -37 8l-45 -8l-11 4l-56 -8l-22 8l-48 -8l-108 19l-4 -4h-4q-21 0 -48 31v8q0 35 63 35q9 68 19 88l-8 23v12
l4 15l-4 16q0 19 8 19l-4 4v4l4 4v3l-4 12l4 62v3l-4 16l11 100l-4 35l4 54l-4 23h4l-7 42l7 31l-4 42l4 43l-4 11l4 23v23l-4 16l4 4v4l-4 3l4 16l-4 23l4 4v4l-4 15v8l12 15l-8 46v31l8 62v27l3 4l-3 3v4q2 70 7 70l-4 19v46l4 19l-4 24v11l4 39l-4 34l4 4h4l-8 31l4 23v8
l-4 15l8 23l-4 4h-4l8 58q0 23 -30 23q-16 0 -74 27q-19 0 -19 12v3q0 19 19 31q7 27 100 58l48 19l4 -4zM257 1649h-4q-7 0 -7 -12l7 -15q-7 0 -7 -12l3 -11l-3 -16l7 -42l-15 -100l4 -4v-4l-8 -42l4 -23q0 -20 -7 -20l3 -4v-3l-3 -4l3 -12l-7 -23l7 -8v-3l-3 -4l3 -4v-8
l-7 -11v-47l-4 -23l4 -11l-7 -31l3 -4l-3 -12l3 -46l-3 -4v-4l3 -3v-4l-7 -23l4 -4l-4 -27v-23l-4 -124l8 -46l-8 -19l4 -4v-15l-4 -39l4 -34v-8h4l33 15q144 0 212 62q77 39 141 88q34 19 45 39l-7 31v4q37 41 37 81l-4 15l11 46l-3 39l7 61l-4 12l8 65q-7 9 -11 54l-4 4
h-4l4 23q-23 216 -45 216q0 12 -18 31q-5 35 -41 35q0 9 -86 19l-11 -4l-104 8l-23 -4l-3 4h-4l-15 -4l-26 4zM145 1630l8 -8l-8 -23q8 -10 11 -70l-3 -23l3 -19l-7 -12l7 -104l-7 -34l4 -43v-19l-8 -11l8 -58l-8 -27l4 -35v-15l-4 -4l4 -4q-4 -58 -11 -58l3 -23l-7 -81
l4 -23l-4 -35l4 -3v-4l-8 -31l8 -62l-8 -50l4 -15l-4 -50l4 -16l-4 -4v-3l4 -20q0 -19 -8 -19l4 -4v-11l-4 -16l12 -31l-8 -65l4 -12l-4 -3v-4l4 -4l-11 -108l3 -4l-3 -46v-42l-4 -20l4 -23v-69q0 -45 -8 -62l19 4q7 0 7 -12l-7 -34q0 -9 37 -12q15 66 19 147l-4 3v4l4 23
l-4 12l4 19v23l-4 35l4 12l-8 34l8 97l-4 30h4q-11 26 -11 54l7 23l-4 16l4 19l-4 39h4l-4 3v16l4 4l-4 4v19l4 4l-4 4v30l-3 16l7 23l-4 35v7l4 16l-4 4v3l4 4v4q0 19 -7 19l3 20v3l-3 16l11 77l-4 27l11 58l-11 11q0 19 7 19l-3 4v4l7 58l-7 8l7 11l-4 4v8l8 11l-4 12
l8 77l-4 15l7 54l-3 50l3 4v4l-3 4v4l3 4v3l-3 12l18 112l-7 7l4 4q-4 43 -12 43l-7 7v16l11 23l-4 4q-63 -8 -63 -19zM63 1595v-4q0 -7 34 -19q15 6 15 11v39q-28 0 -49 -27zM673 1595v-4l30 -89l-4 -3v-4l4 -16l-4 -4l15 -107l-3 -4v-4q11 -41 11 -93l-4 -11l4 -4l-4 -46
v-19l4 -24l-8 -23l4 -4v-3l-4 -12l4 -42v-8q-7 -6 -15 -77l-11 -27h4q9 0 59 81q39 37 52 85q8 0 8 27q11 0 26 100v4l-8 7l4 20v3l-4 16l8 27q0 31 -41 146q-27 69 -127 112zM279 925l4 -4v-4l-4 -4h-7v4zM231 666l-15 4h-4l-4 -15l4 -4v-23l4 -46h-4l4 -4v-43l7 -11v-15
l-7 -8l4 -19v-8l-4 -35l4 -4v-4l-4 -15l4 -12l-4 -19v-7l7 -62v-46l-3 -4l7 -35l-4 -11l4 -35l-7 -35v-34l-4 -16l4 -15v-8l-4 -23l4 -12l55 -3l8 7h3l12 -4l18 4h19l4 -4l3 4h8l48 -4q73 0 123 23q83 30 97 51l-4 15q30 32 30 69l15 16l-4 15q0 25 15 43v23l-8 50l8 19
l-4 19l4 39q-14 15 -23 135l-74 61l-112 39l-137 23q-75 -8 -93 -16zM688 524l15 -89h-4l4 -4l-4 -46v-19l-3 -4l7 -27l-4 -19l4 -23l-26 -131h4q14 0 82 69l26 46l7 39q-42 150 -85 189q0 9 -19 19h-4z" />
    <glyph glyph-name="c" unicode="c" horiz-adv-x="1149" 
d="M796 1692q120 -14 120 -20l4 4q112 -28 112 -44v-16q-34 -112 -116 -112q-88 43 -88 72l12 32v12q0 10 -32 16h-16l-36 -4l-20 8l-40 -12l-4 4h-4q-135 -34 -216 -136q-42 -42 -84 -116l-4 -32q-14 0 -36 -88l-16 -36l4 -16q-13 -16 -28 -60h-8l8 -16l-28 -124l4 -4
l-4 -88v-44l-8 -8l4 -28v-20l-4 -24l8 -16l-12 -84l4 -24v-44q8 -9 12 -44h4l-4 -20v-4q28 -161 56 -256q88 -194 132 -204q63 -48 128 -48l4 -4q252 0 312 92v4h-12q-52 0 -52 96l-4 4v4q0 34 76 64l28 8q76 0 92 -80l8 -8v-24l-52 -80q-60 -70 -152 -92q-70 -32 -188 -32
v4l-4 -4h-96l-4 4l-4 -4h-16l-4 4l-4 -4q-36 4 -36 12l-4 -4h-4l-60 20l-4 -4h-4q-73 37 -160 108q-13 0 -48 48q-9 0 -72 84l-40 64l-36 88l-20 64l-24 116l4 4v4q-7 8 -12 64l4 12l-4 4l4 16l-8 48l4 52q-8 0 -8 12l4 32l-4 4v4l4 28l-4 4l4 20v24l-4 16l16 40l-4 20v8
q15 33 24 108l4 4l-8 12l72 168l36 68l92 120q56 36 112 84q81 65 268 104q48 0 72 8l4 -4zM892 1636l-24 -56l44 -40q47 0 76 48v20q-23 12 -88 24l-4 4h-4zM64 1120l4 -16q-8 -9 -24 -124l-4 -4v-4l-4 -72l4 -4v-4l-4 -4v-4l4 -52l-4 -16l8 -104l-4 -4q20 -234 64 -300
q0 -18 64 -128q19 -12 44 -56q144 -133 212 -148q0 10 -56 76q0 13 -52 120q-28 63 -36 128q-8 0 -8 28l4 16q-5 20 -12 20l4 4v4q-16 24 -16 68v8l4 16l-24 100l8 24l-8 12q8 9 8 28h4l-4 4v16l4 40l-4 20l4 28l-4 4v4l8 40l-4 24l4 28l-4 4v4l8 24l-4 32l24 96l-4 4h-4
l12 20l-4 4q1 31 28 76q0 35 68 212q31 72 148 180q24 20 36 20v8q-83 -8 -184 -76q-1 -9 -96 -72l-40 -40q-1 -17 -64 -84q0 -12 -28 -48l-32 -88q-28 -52 -32 -76q-6 0 -12 -16zM888 236l4 -12l-4 -4v-4l12 -32h4q41 0 56 12h4l4 -4q28 7 28 44h4q0 40 -60 40
q-52 -13 -52 -40z" />
    <glyph glyph-name="d" unicode="d" horiz-adv-x="1258" 
d="M353 1699h4l42 -4l12 4v-4l4 4q266 -37 319 -75q37 -14 99 -59l12 4q12 -13 15 -34q60 -47 215 -216l62 -134q8 -65 34 -157l-3 -3v-4l3 -4v-4l-3 -11l3 -3h4l-4 -27v-3l12 -19l-8 -48l4 -15l-4 -34l4 -15h-4l4 -3v-4q-19 -133 -57 -272q-20 -34 -47 -123l-42 -82l4 -4
v-7l-38 -60q-10 -26 -50 -59q-13 -33 -123 -116q-39 -14 -54 -30q-40 0 -104 -30l-38 -14l-85 -27h-53l-4 4l-77 -11q-35 0 -81 30l-7 -11l-119 15l-20 -4l-19 4l-11 -4l-8 7h-12q-107 0 -134 49v11q0 26 104 52l23 4v18l-12 94l8 41l-4 29l4 12l-15 85q6 52 11 52l-4 4
l8 82l-4 26l4 4v4l-4 11l4 3l-8 79l4 3v4l-4 4l4 19v11q0 74 8 97l-8 44l4 26v123l-4 23q7 26 12 26l-4 18v23q19 118 19 179v33l4 4l-4 4v3l8 52l-4 30l4 82v11q-41 53 -62 53q-57 24 -57 52v7q0 30 265 67l3 -3h4zM350 1651l-16 3q-38 -2 -38 -11v-11l-4 -45l4 -30l-4 -37
l4 -15l-8 -59l4 -4l-4 -19v-15l4 -15q-8 -20 -8 -104q-7 0 -7 -11l7 -34l-7 -55l7 -45h-4l4 -4v-4l-4 -11l8 -33l-4 -4l8 -89l-8 -34l4 -19l-8 -85l4 -19l-7 -37l7 -60l-7 -11l3 -4l-3 -74v-60l7 -48l-4 -15l8 -15l-11 -75l3 -18l-3 -11q11 0 11 -49v-26l-4 -11l4 -19v-78
l4 -22l-4 -4l4 -15q0 -85 -15 -97l3 -11l-3 -4h-12l-15 15v49l4 41l-4 22h4l-4 4v52l4 41l-4 4v3l4 4v4l-4 3v4l7 26l-15 90q6 26 12 26l-4 18v15l4 15l-16 116v33l12 41l-8 90l4 37v52l4 15l-4 4l4 18v60l7 11l-3 4h-4l7 22v23l-7 11v30l4 3l-4 4v26l4 4l-4 3v12l4 3l-8 23
v7l4 4v4l-8 7l4 15l-4 11h4l-4 4v4l8 7l-8 22v12l8 11l-8 11v4l8 15l-4 3v4l8 22l-4 4v4l7 104l-3 4l3 19v41l4 55l-4 19l4 22l-4 45h-50q-23 -11 -23 -22l4 -11l-4 -12l8 -89l-4 -4v-3l4 -34q0 -66 -11 -160l3 -34l-3 -11l3 -15l-7 -41l4 -15h-4l4 -3v-4q-12 -64 -20 -71
v-71q0 -56 -7 -56l7 -33l-4 -34v-7l4 -49q-4 -89 -11 -89l4 -4v-59l-4 -15l4 -4v-4l-8 -26l8 -7l-4 -4v-4l7 -26l-3 -11l3 -15q-3 -132 -15 -171l15 -86l-3 -19l3 -11l-3 -11l3 -41v-15l-3 -4q8 -12 15 -52l-4 -26q22 -12 31 -26v-4l-23 -26l-39 4h-15l-11 -7l-12 3
q-29 -10 -31 -18q16 -1 16 -8l4 4l42 -7l4 3h3l4 -3h4l4 3h4l46 -7l4 4l84 -12l23 4q28 0 104 -30h15l27 4v-4l4 4h15l62 7l11 -3l227 78q0 9 35 19q115 79 115 119q0 20 11 41l-3 11q19 72 19 142l11 55v23q0 12 -11 26l4 26l-4 26l4 4l-20 138l4 3h4l-11 86l3 4l-3 18v30
l7 8l-4 3v38q-11 11 -15 41l-4 3v41l-8 12l4 22l-7 19h3l-11 29l4 30l-8 30l4 15q-23 158 -35 182l8 15l-8 30l4 4q-14 19 -34 86q-16 21 -62 48q-5 20 -80 45q0 21 -246 59l-12 -3l-23 7zM88 1613l62 -30v4q-3 41 -12 41q-50 -4 -50 -15zM899 1438l-4 -4v-7l8 -41v-26
l7 -11v-64q10 -10 23 -152h-3q5 -23 11 -23l-8 -33l8 -8l-4 -3q8 -15 8 -41l-4 -4v-4q18 -32 23 -71l-4 -3v-4l8 -56l-4 -19l4 -3v-4l-4 -11l8 -60l-4 -11l4 -4v-3l-4 -23q0 -41 15 -97l-4 -11l8 -22l-4 -26l12 -38l-4 -18l4 -15l-12 -49l4 -3v-11l-4 -23l4 -4l-8 -33l4 -15
q-2 -47 -11 -56v-7h7l27 63q31 47 66 171q30 43 65 243l8 115l-8 41l4 11q-12 0 -12 71q-32 160 -57 194q-42 102 -173 212z" />
    <glyph glyph-name="e" unicode="e" horiz-adv-x="1032" 
d="M485 1682h80l3 -4l4 4h54l40 -4l22 4v-4l4 4h3l11 -4h7v4l36 -4h40l15 -4l3 4h4q134 0 134 -26v-8q-17 -17 -22 -49l8 -45l-11 -82l3 -4v-4l-7 -19l4 -15q-8 0 -15 -41l-18 -15h-7q-24 0 -47 158q-12 60 -55 60l-50 49h-36l-4 4l-22 -8l-11 8l-11 -4l-21 4l-11 -4l-33 4
h-18l-3 3l-4 -3h-4l-25 3l-11 -3l-18 3l-25 -3v3l-11 -3l-4 3l-36 -7l-14 4l-77 -8l-25 4l-3 -4l-19 4l-54 -4v4l-4 -4h-36l-18 4v-23l-3 -15q7 -16 7 -52l-15 -128l4 -4l-4 -15l4 -27l-11 -79q8 0 11 -18l-15 -8l8 -7l-8 -117h-3l7 -19l-4 -26l11 -38l-7 -11l7 -27l-7 -22
l4 -23h-4l7 -15q-2 -26 -7 -26q6 -8 11 -56l-4 -31l4 -11h11l61 4v-4l171 19l25 -8v4l47 154l-11 49l7 8v11l-7 8q7 17 15 19h3q15 -14 26 -83v-4l3 -135l-3 -12l3 -15l-3 -26l7 -68v-49l-7 -7l3 -12l-3 -3l3 -15q-7 -91 -29 -91q-11 0 -51 91l-3 3v38l-15 71q-10 31 -58 31
l-3 3q-21 -11 -44 -11v4l-18 -8l-3 4l-26 -4h-32l-22 -7l-11 3q-40 -2 -40 -11q11 -26 11 -150q7 0 11 -30l-4 -4v-4l4 -15l-4 -11l11 -34l-3 -26l3 -4l-3 -19v-23l7 -11v-15l7 -53l-3 -3l-4 -12h-4l15 -56l-4 -4v-4l11 -98q-7 0 -11 -41l7 -11l-3 -11l3 -61l-7 -19h4l145 4
v-4l3 4l152 4h11l69 -4l4 4h3l76 -8l36 8q16 0 37 90l-4 15q34 121 72 121h29q33 -23 33 -91h-4l8 -48l-4 -42l7 -22l-3 -4v-4l7 -38q-4 -56 -26 -56l-90 23q-15 0 -15 7q-15 0 -68 -22q-25 24 -58 26l-22 -8l-7 8h-11l-51 -4l-11 8l-3 -4h-44l-3 4l-4 -4l-25 4
q-80 -5 -80 -12l-90 8l-11 -4l-15 4q-13 -8 -83 -15h-33l-3 4l-11 -4l-29 4l-65 -8q-18 5 -18 26l7 27l-4 45l7 15l-7 26l4 45l-7 57l3 4v3l-3 12l3 15l-7 26l7 26l-7 27l4 34v15l-4 34l4 11l-4 15l7 41l-3 4l7 38l-4 15q3 56 7 56l-7 23h4l-4 4v67l-3 15l7 30l-7 57l7 34
l-4 3v27l7 7l-3 12l3 3l-3 19v8l3 19l-7 67h4l-4 4v4l7 26l-3 4l3 19v7l-7 38l7 34l-7 11v8l7 33l-3 4v4l11 53l-4 11l4 19l-4 71l4 75l-4 12l4 4l-11 109l3 11l-7 30v15q26 41 58 41l73 -3h7l14 3l15 -3h11l21 3l4 -3l11 3l32 -3l73 3l32 -3q22 11 127 11zM58 1637
q0 -8 -11 -8l4 -26v-4l-4 -11l7 -79h-3l7 -11l-4 -19v-11l-3 -95l3 -67l-7 -19v-8h4l-4 -26v-30l-7 -11l7 -79l-4 -61l4 -3l-4 -19v-30l4 -98l-7 -15l7 -8v-3l-4 -4l4 -4v-4l-7 -45l3 -19l-3 -30l3 -37h-3l3 -4v-11l-7 -16l11 -101l-4 -11l4 -4v-4q-3 -23 -7 -23l3 -3v-23
l-7 -37l4 -16l-7 -60l7 -22l-4 -27l7 -34l-3 -11l3 -19l-7 -33q7 -47 11 -177l-4 -4l4 -19v-26h7v-4l4 4l18 -4h47l15 -4l14 4h18v4l-7 11v8l7 52l-7 30q3 45 7 45l-3 4v4q0 19 7 19l-7 60h3l-7 34l4 4l-8 71l4 4l-11 60l7 23l-3 3v4l3 15l-7 8l4 15l-8 56l4 4v4l-14 60v26
l3 23l-14 98l7 34l-7 7v30l7 30q-7 0 -7 27h-4l4 19v41l-4 15l4 4v3l-4 4l4 27v22l-8 27l4 11l-7 7v27q1 26 7 26l-4 11l8 136h3l-3 4v3l7 8l-7 64q2 22 7 22l-7 46l14 45l-3 34v3l7 12l-7 22l7 11q0 38 -58 38zM811 1629v-3q47 -26 47 -68q8 -5 25 -94h8v4l3 86
q0 75 -36 75h-47zM471 854l-15 -53q0 -87 22 -109h4l3 34l-7 12l4 18l-8 98h-3zM764 151v-46l-7 -11v-15l7 -8l69 12l3 15l-3 19l3 3h4q-7 16 -11 91l4 15l-4 30v15h-14q-18 0 -51 -120z" />
    <glyph glyph-name="f" unicode="f" horiz-adv-x="1082" 
d="M724 1712h33l126 -19l28 4l4 -4h4l16 4l12 -4l21 8q28 -8 28 -35q-19 -19 -61 -19l-44 4l-4 -4v-3q49 -25 65 -69l32 -99h8q11 0 24 103l5 11v19l-9 12v38q0 10 29 15l12 -30l-8 -46l4 -4v-4q-3 -53 -8 -53l4 -4q-3 -22 -12 -34l4 -4v-4q-24 -64 -37 -64h-8q-28 0 -36 38
q-15 0 -25 42l4 3q-10 0 -24 57q-18 24 -65 54l-12 -4v4l-24 -8h-9l-4 15l8 35l-60 7l-17 -4l-32 8q0 -9 -45 -15l-12 4q-69 -16 -183 -23l-16 4l-20 -4l-12 7l-12 -3l-98 3l-12 -3l4 -4v-4q-9 -106 -24 -171l4 -4l-4 -46v-15l4 -15l-4 -15l8 -46l-8 -46l4 -4v-15l-8 -64
l4 -16h-4l4 -3v-23l-8 -65l4 -4v-4l-8 -22v-19l-5 -73l5 -3v-4l-9 -69h4l69 8l25 -4l24 8l61 -4q26 33 49 114l-4 19q0 31 40 80h8q29 -18 29 -50l-8 -38l8 -22l-4 -19v-16l4 -15l-4 -27v-125q0 -46 -8 -46l8 -26l-12 -50l4 -4v-3q-12 -84 -41 -84q-33 29 -69 133l-12 34h4
l-4 4l4 15l-4 54v26q-22 0 -37 15q-16 -10 -65 -15l-16 4h-4l-12 -8h-37l-8 -41l8 -111l-12 -49v-31l-8 -64l4 -76l-8 -77l8 -45l-4 -19l4 -12q-3 -22 -8 -22l8 -27l-8 -8l4 -23l-8 -22l4 -42l-8 -46v-26l-4 -16q0 -24 53 -26q4 11 24 11h49q25 0 52 -30v-8q0 -15 -89 -34
l-28 4l-45 -8l-20 8l-4 -4h-4l-4 4l-49 -4h-49l-12 7l-40 -3q-106 15 -106 53q0 18 81 23v-4l4 4h4l21 -4l8 11l-4 16l12 91l-4 57l8 30v8l-4 38h4l-4 4v4l4 3v4l-4 19h4l-4 4v80l-4 15l4 4v4l-4 19l8 23l-4 3v4l8 38l-4 12l4 22l-4 65h4l-4 4v4l4 30l-4 15l4 42v12l-4 26
q8 0 12 38l-4 46l4 11l-8 16l8 11l-4 19l4 34l-4 4v4l4 4v11h-4l8 88l-8 15l4 19v84l4 15l-4 15l8 15l-8 38l4 4h4l-4 4v15l-4 42l4 4v4l-4 11l4 19l-8 30l12 46q-12 0 -16 57v19q-12 14 -12 27v26l-4 35l8 26l-4 16q7 0 24 34h20l17 -4l4 4h12v-4l28 4h57l4 -4l4 4h45
l113 -15l37 3l32 -3q94 3 268 30zM91 1602l4 -16l-4 -3v-4q21 -57 21 -80v-65l4 -23l-4 -15l4 -61l-4 -22l4 -19l-4 -46l4 -4l-4 -19v-34l-5 -34l5 -38v-54l-5 -4l5 -3v-16l-5 -3l5 -4v-12l-9 -7l9 -53l-5 -16l5 -3l-13 -46l13 -19v-12l-5 -19l5 -22l-9 -42l9 -19
q-9 0 -13 -46l4 -11h-4l4 -4l-4 -19v-8l4 -15l-4 -15l4 -46h-4l8 -49l-8 -84v-61l-4 -11l4 -19v-168l-8 -23l4 -15l-4 -4l8 -15l-4 -11l8 -69l-8 -19l57 -11q20 5 20 11l-12 31l12 11v27l8 42l-4 22l13 27l-9 15q5 31 13 31l-8 26h4l-4 12l8 34l-4 15l4 12l-4 41l4 16
q-8 15 -8 42l8 7l-4 69h4l-4 11l8 53l-4 4v4l4 4v4l-4 15l8 30l-4 4l12 57l-8 57v57l-8 31l20 34l-4 4l4 22l-4 16l4 34v38l-4 23l12 38l-4 4q6 53 12 53l-4 4v7q1 19 8 19l-8 19l4 12l-4 19l8 64l-4 16l4 23l-4 11l4 19l-4 19h4l-4 11l4 50l-4 4v3l4 16l-4 15l12 53l-4 4v4
l4 19l-4 26q7 9 12 54l5 3q0 31 -29 31h-16l-12 -4l-21 8l-24 -4v4q-57 -10 -57 -19zM497 940q-24 -66 -49 -73v-7l8 -23v-23l-4 -23l4 -11h-4q26 -107 41 -107q5 35 12 35l-4 22l4 77v3l4 4l-4 4v19l-4 38h4l-4 4l4 26v27z" />
    <glyph glyph-name="g" unicode="g" horiz-adv-x="1220" 
d="M706 1691l77 -8l3 4h4l69 -16l4 4h4q159 -40 299 -181v-15l-46 -44q0 -10 -27 -27l-19 4h-31q-84 29 -84 51q0 47 -35 79q0 7 -23 31q-98 59 -130 59l-138 -4q-82 -12 -130 -51q-50 -45 -50 -63q-12 -3 -58 -90q-28 -108 -50 -126q-7 -58 -19 -67l4 -20q-31 -58 -58 -236
l4 -4l-30 -220l-4 -4l7 -12l-3 -4v-4l3 -4v-4l-7 -23l4 -4v-4l-4 -39l4 -4v-4l-4 -4v-4l4 -4l-4 -20v-39l7 -32v-11l-3 -4l7 -16l-4 -20q32 -166 104 -318q36 -55 65 -55q0 -23 131 -51h49l4 -4l4 4h8l15 -4q79 0 184 82l23 40l8 43v39l-27 83v27q-9 0 -23 20q-35 27 -81 27
q-17 0 -34 -11h-12l-11 8l4 19l-8 47q0 18 131 28v-4q0 16 306 16h12q30 0 50 -24q0 -79 -39 -79l-34 12q-35 -13 -58 -43q-6 -28 -11 -28q7 -9 11 -70l8 -8v-40l-4 -15l19 -79q-4 -31 -11 -31l11 -52q-6 -17 -11 -137l-23 -12l-31 4l-4 -4h-4q-61 19 -61 40l19 102l-4 43h4
l-4 12h-7q-102 -86 -250 -110l-3 3h-4l-12 -3h-7v3l-39 -3h-46l-4 3l-3 -3h-31q-117 13 -196 66q-16 0 -57 36q-43 19 -85 94q-36 36 -92 177q-34 86 -34 122l-19 83l-4 4v35q-9 12 -23 106l4 12l-8 43l8 36v137l15 56l-4 19q15 25 39 138q15 3 38 94q8 0 11 32q15 4 27 43
l77 106q29 57 123 130q0 27 153 79q13 15 31 15v-4q15 12 138 24v-4l4 4h3l4 -4zM936 1604v-3q42 -37 61 -126l69 -32q39 0 50 36q-5 31 -31 31q-40 43 -107 71q0 7 -42 23zM39 920l3 -12l-7 -43q4 -35 11 -35l-4 -4v-40l-3 -15l7 -16l-4 -4l20 -157l23 -56l-4 -11
q27 -99 46 -138l-4 -4q0 -29 23 -47l46 -91q82 -115 149 -137l4 -4v4q-26 34 -30 63q-46 60 -104 322l4 28l-12 63v4l4 43l-4 4v4l8 35l-4 51l4 12l-4 4v4l19 67l-3 12l7 15l-4 20l12 12v4l-8 12v4l8 11v8l-8 12l12 28l-4 15q11 38 27 158q7 0 27 86q13 87 30 87v11l23 67
q24 88 89 173q15 33 38 48v4q-68 -14 -127 -59q-7 0 -15 -20q-78 -68 -115 -134q-33 -37 -69 -122q-18 -22 -54 -122q-15 -25 -27 -106q-23 -68 -26 -118zM978 476l-38 3l-16 -3l-23 3l-19 -3v3l-27 -7l-19 7l-7 -7h-16l-57 -8v-4q50 -16 50 -32h19q23 -2 23 -11l-4 -4v-4
l34 -150l8 -8l-4 -47v-27q0 -17 -19 -40v-4h12q35 40 46 40l26 4q14 -13 20 -55l3 -4l-3 -12l3 -20v-23l-7 -12v-24l4 -20l-8 -7v-35l15 -8h4q27 0 27 58v12l-12 39l12 28l-4 31l4 28l-23 67l4 4v4l-4 15l8 44l-16 82l8 16l-4 16q32 47 96 71l19 -4h8v8h-12l-34 3l-4 -3h-4
l-19 7z" />
    <glyph glyph-name="h" unicode="h" horiz-adv-x="1246" 
d="M259 1703q64 0 64 -11l4 4h3q105 -6 105 -25v-11l-67 -65q-34 -30 -34 -40l-7 -22l7 -29l-4 -3l4 -4v-3l-4 -15l4 -32v-15l-7 -21l3 -4l-3 -25v-58l-4 -32l4 -15l-8 -43l8 -36l-4 -11l4 -18l-4 -4l4 -18v-32l-4 -4l4 -4v-3l-8 -47l4 -4v-3l-4 -11l4 -40v-11l-4 -3l4 -4
v-3l-4 -26l4 -3l-4 -18v-8l4 -25h-4l4 -3l-4 -37v-18l15 -10l37 10l27 -3l67 3v-3l116 14h26l3 -3l101 14l4 -4h4l4 4l18 -4l90 8l22 -8l4 4h4l4 -4q55 7 63 15l-4 14l4 11l-4 22l8 7v7l-4 15l8 29v10l-4 15l4 14l-4 4l4 18v4l-4 18h4l-4 3l15 191l-4 22l15 141l-4 14v33
l8 29v21l7 65l-11 11l-4 -3h-4q-71 20 -71 54l38 18l37 -4h26l71 7q56 -7 56 -25v-4q-52 -22 -52 -57q-7 -19 -11 -76l-4 -4h-4l4 -32l-4 -22l4 -3v-4l-4 -22l4 -25h-4l8 -25l-11 -47l3 -11q-3 -37 -15 -65l4 -14v-4l-7 -7l3 -4v-7l-3 -4l3 -3v-47q-7 -9 -7 -25h-4l4 -4v-15
l-4 -21l4 -4l-4 -25v-4l4 -39l-7 -15l3 -3v-47l-3 -33l7 -47l-7 -29q11 -17 11 -54v-18l-4 -3l7 -11l-3 -22l7 -32l-7 -83l3 -11l-3 -15v-36l-4 -3l4 -4v-4l-8 -10q8 -7 19 -73v-3l-4 -15l4 -10l-4 -4l8 -61l-4 -11l11 -62v-3l-4 -15l4 -3v-4l-4 -14l4 -4l-4 -18v-54l4 -40
l-7 -32l3 -36h15l30 -8h8l15 4q37 -8 37 -14v-15q-30 -36 -64 -36l-3 4h-4q-50 -4 -56 -11h-19q0 -18 -71 -29q-21 0 -37 36q-45 10 -45 40q8 9 67 21l8 8l-8 14l8 40l-4 3l11 69l-7 22l4 29l-4 14l4 4l-8 83h4l-4 3v4l4 3l-4 4v4l4 3l-4 11l8 97l-4 26l7 58l-3 14l3 58v47
l4 3l-4 4l4 43v94l-41 -14l-30 3l-67 -7l-4 4h-4l-15 -4l-15 4l-41 -11l-18 3l-12 -3l-3 3l-53 -7l-3 4h-4l-15 -4l-19 4q0 -10 -149 -22l-4 4h-4l-33 -4h-4l-4 4l-3 -4h-27q-14 18 -37 18l-4 -4l4 -3v-4l-15 -122v-8h4q-5 -157 -11 -177l7 -39h-4l4 -4v-3l-11 -40l4 -15
l-4 -10q11 0 11 -65v-4l-4 -14q8 -14 8 -40v-11l-4 -18l4 -25l-4 -51q17 -30 67 -50l12 -18v-15q0 -13 -53 -18l-11 4v-4q0 -10 -142 -25l-4 4h-3l-12 -4v4l-3 -4h-30l-34 4l-4 -4q-78 4 -78 36q4 13 49 25q30 12 44 36v47l12 51l-4 14l4 11l-8 7l4 4l-8 65l8 22l-4 14l8 11
l-4 11l4 28l-4 44q4 115 11 141l-4 21l4 47l-4 65l4 18l-4 18q5 18 12 18l-4 4v50l4 4l-8 18l8 83l-4 14l4 4v4l-4 25l7 22v93l4 87l-4 4v3l8 91l-4 3l7 58l-3 3v4l3 47l-3 14q11 38 11 105v36l7 11v4l-3 18l7 54q0 21 -60 29l-7 11v3q0 20 15 25h15l15 -3l3 3l23 -3z
M196 1652v-7l11 -36q-19 -33 -34 -227l4 -33l-7 -133l3 -4v-3l-3 -11l3 -4l-7 -94l4 -11l-8 -18l8 -36l-8 -14l4 -18l-8 -112l4 -4v-3l-4 -15l4 -3l-4 -15l4 -25l-11 -119l4 -29h-4l4 -4v-50l3 -22l-3 -18v-11l3 -14l-11 -40l4 -54l-4 -11l4 -14l-4 -101l-4 -11l4 -4v-3
l-7 -22l3 -4v-3l-3 -4v-3l7 -29l-4 -44l8 -7v-11l-8 -10l4 -4l-4 -18q12 -28 12 -51q-34 -44 -53 -47v-10h38q94 0 168 25l-11 14l-8 -7h-11l-11 11l4 32l-4 44l4 3h3l-3 22l3 18l-3 33v39l3 4l-3 3v8l3 21l-11 58h4l-4 4l8 54l-4 36l4 3v4l-4 4v3l7 83l-3 11l7 7l-7 8l3 25
l-3 29l11 79l-4 4l4 18v32l7 83l-4 4l4 25v69l4 14l-8 22l12 141l-4 25h4l-8 58l4 14l-4 14l8 33l-8 29l11 11q0 16 -11 32l8 11l-4 18v7l4 4l-4 3v8q1 25 7 25l-3 4l3 18v39l-7 7l7 40l-15 25l4 4l-4 18q0 29 15 29l-3 18v11l3 3l-3 11h-15q-36 0 -86 -11zM330 1656l-3 -4
v-3l7 -33l-4 -10q9 3 30 43zM1021 1627q-26 -15 -26 -54l4 -4l-7 -50l3 -4l-3 -25v-61l-8 -8l4 -18v-10l-4 -4l4 -4l-15 -104l4 -4v-3l-4 -11l4 -51v-3q0 -37 -8 -37l4 -18q0 -47 -11 -47l3 -18v-10l-3 -18l7 -58l-7 -7l7 -33q-7 -14 -7 -40v-90l-4 -14l4 -15v-50l3 -15
l-7 -10l4 -4v-4l-8 -54l8 -18l-8 -36v-7h4l-4 -25v-44l4 -39l-4 -11l4 -11l-15 -134l4 -3h3l-3 -11l11 -105l-8 -14l4 -4v-32l-4 -4l8 -40l-4 -32l4 -11l-8 -32l8 -40l45 22l-8 21q12 55 12 94v29l-4 36l7 65l-3 14l3 15l-11 40v36l-7 39v58l-12 54l8 58l-8 40l12 18l-4 3
v11h4l-8 105l4 3v4l-4 14h4q-10 44 -15 44l7 47l-3 47h3l-7 25l4 40v14l11 14l-8 8v36l8 7l-4 29q2 36 8 36l-4 4l4 18v3l-4 18l22 202l-3 15l3 14l-3 11l3 11l-7 7v15l15 75l-4 36l15 40v11z" />
    <glyph glyph-name="i" unicode="i" horiz-adv-x="489" 
d="M208 1692l20 -8l4 4q184 -10 184 -44v-12q-102 -52 -112 -64l-8 -16l4 -12l-4 -28l4 -20l-4 -4h-4l4 -20v-4l-12 -56l4 -16l-8 -36v-12l4 -16l-8 -40l4 -12l-4 -16l4 -4v-4l-4 -4v-4l4 -16l-8 -8l8 -44l-8 -8l4 -40q-5 -80 -12 -80l4 -20v-20l-4 -56l4 -48l-4 -4v-4
l4 -12l-8 -16l8 -32l-4 -24v-24l-4 -4l4 -4v-24l-4 -16l4 -4v-4l-4 -4q4 -53 12 -60q-16 -30 -16 -64l4 -4l-20 -128l4 -4q-7 -80 -16 -80l4 -4v-60l-8 -12l4 -36q-8 0 -12 -32h-4l4 -28l-4 -52l4 -4v-4l-4 -16q0 -44 60 -52l12 -8l44 12h12q52 0 52 -36q-17 -3 -76 -40
l-84 -16l-4 4l-20 -4h-76q-120 16 -120 48v12q39 46 72 48l20 16l-8 48l4 4l-4 16l4 96v28l-4 24l4 20v4l-8 12l8 12v20l-8 24h-4l4 20v32l-4 16l4 16l-4 32l8 48l-8 8v40l4 4l-8 24q3 24 8 24l-4 4v4l4 4l-4 12l4 56v12l-8 32l8 32v8l-4 20l8 88l-4 12q8 0 8 32h4l-4 4v4
l4 4v4l-4 28l4 16l-4 4v4l8 64l-4 36l12 8l-4 4v4l4 4l-4 4v4l8 84l-4 4l4 20v44l4 16l-8 20q6 112 12 112l-4 4v8l4 4v4l-8 8v48q-104 26 -104 40q-16 26 -16 44q0 9 108 16v-4l4 4h4zM184 1652l-4 -4v-4h12zM160 1632v-148l-8 -52l4 -12l-4 -16l4 -60q-2 -44 -8 -44l4 -4
v-4l-16 -212l4 -20l-8 -28l4 -4l-4 -20v-56q-12 -16 -12 -60l4 -28l-4 -4v-4l4 -16h-4l4 -12l-4 -56l4 -20l-4 -32l4 -32l-4 -48v-8l8 -8l-8 -56l4 -12l-4 -16l4 -16l-4 -12l4 -36l-4 -4l4 -4v-4l-4 -20l16 -144l-4 -4l4 -40v-4l-4 -24l4 -16l-4 -4v-4l4 -4v-4l-4 -4l8 -96
q-21 -16 -68 -28v-12l16 -4l4 4l20 -4h68l16 4l16 -4h8l4 12q-44 12 -44 52l-4 28l4 4v4l-4 24v4l4 16l-4 12q7 69 16 92v20q0 52 8 72l-4 16l12 84l-4 16l8 20l-4 12q7 0 12 36l-4 24l12 96l-8 24l8 20l-4 4l4 24l-4 52l4 40l-4 12l4 36v20l4 4l-8 52l4 16l-4 4l8 52l-4 4
v4l8 32l-4 24l8 24v68l-4 16l4 16v52l8 12q-8 0 -8 12l4 40l-4 4v4q11 23 16 124q5 0 12 48l-4 16q8 37 48 72l-44 4l-28 -4l-52 4h-28z" />
    <glyph glyph-name="j" unicode="j" horiz-adv-x="899" 
d="M788 1650q64 -37 65 -46v-17q0 -13 -49 -16q-21 -16 -24 -38l4 -12q-2 -42 -8 -42l4 -13q-18 -38 -20 -104l4 -21l-4 -12l4 -80v-42l-4 -16l4 -4v-5l-17 -58l4 -13l5 -58l-9 -67l13 -63l-4 -4v-4l4 -12h-4l4 -5l-4 -41l8 -67l-4 -4l4 -21v-54l4 -34q-6 -58 -12 -67l8 -21
h-4l12 -20v-9l-4 -42l4 -20l-4 -25l4 -25l-4 -5v-4l4 -12h-4l8 -42l-4 -17l12 -29q-8 -11 -8 -38h-4l4 -4v-29l-4 -17l4 -4q0 -59 -33 -100q0 -15 -61 -67q0 -27 -56 -42l-17 -4q0 -12 -57 -25l-4 -4l-4 4h-4q0 -8 -20 -8q0 -12 -8 -12h-4l-17 4l-12 -8l-20 4
q-34 -18 -97 -30l-25 13l-32 -4q-45 6 -45 17l-12 -5q-31 5 -61 21l-4 -4h-16q0 23 -74 41l-61 84q-28 56 -28 71h4l-8 25v29l28 84q0 27 122 41q38 -35 57 -83l-4 -17l4 -12q-18 -76 -61 -96l-44 -30h-13l-20 5q42 -80 175 -113l113 -21l163 38q0 55 20 70q29 143 29 230
l-8 34l4 4l-4 29l8 63l-8 25v12l4 17l-4 17l4 4l-9 50l5 21v87l4 34l-9 100l9 46l-4 4v4l4 46l-4 42l8 71l-8 71l4 138l-4 33q8 0 12 29l-4 5l4 20v25l-4 17l12 25l-4 25v9l4 4l-8 25l8 21q0 76 -53 104v8l20 25l21 -4l20 4l12 -4l4 4v5l12 -5q41 9 171 13zM589 1583v-4
q20 -22 20 -33l-4 -30l8 -62l-8 -29l4 -34l-16 -121l4 -25h-4l4 -4v-4l-4 -59l4 -25l-4 -17l4 -25l-4 -20l8 -9q-3 -25 -8 -25l4 -21v-4l-4 -33l4 -21l-4 -25l8 -30q-12 -17 -12 -91q0 -69 12 -88l-8 -84l4 -33l-4 -25l4 -4v-4l-4 -25l8 -55v-33l-4 -4l4 -4v-84l-4 -33
l4 -34v-33l-8 -34l4 -4v-4l-4 -21l4 -4v-4l-20 -125l-4 -5l4 -4v-12l-4 -13h4q98 39 150 142l16 75l-4 4v42l4 25l-4 4v5l4 4l-8 75l4 42l-8 12l4 42v25l-4 29h4l-8 13l4 62l-4 151l4 29l-8 17l4 12l-4 13l8 41q-11 0 -16 101q1 16 8 16l-4 21v17l4 17l-12 50q16 25 16 71v4
l-4 38l4 41v25l4 17l-4 4v4l20 167l-8 50q21 6 21 30v4h-4l-49 -4l-4 4h-4zM41 210q16 -3 40 -26h8q52 0 78 80v12q0 42 -33 42h-24q-52 0 -69 -83v-25z" />
    <glyph glyph-name="k" unicode="k" horiz-adv-x="1087" 
d="M738 1661l77 -8h40l4 -4l36 8l61 -8l24 4h12q21 0 28 -17q0 -21 -32 -41q-16 -26 -73 -45q-42 -59 -68 -82q0 -8 -24 -29q0 -14 -49 -53q0 -19 -32 -57q-5 -29 -68 -107q-9 -33 -65 -90q0 -30 -44 -62q-10 -25 -16 -25l44 -86h-4l52 -123q30 -50 37 -99l4 -24
q15 -5 40 -86q32 -55 32 -103q27 -47 44 -123q9 0 13 -41q29 -49 60 -136q32 -49 32 -86q12 -41 40 -41q65 -61 65 -74q-13 -36 -32 -36q-24 3 -24 8l-133 -16l-4 4l-21 -4l-20 4l-32 -9q-25 9 -28 21v32q4 10 56 33l8 25v8q-20 22 -20 37l4 12q-15 8 -48 123l-24 74
q-6 0 -45 128q-72 182 -76 213l-28 62l4 4v4l-65 164q-6 23 -20 33q0 -30 -117 -160q-27 -34 -56 -50q-4 -77 -32 -250l4 -20l-8 -99l4 -37l-12 -37l8 -33v-49l8 -12v-21l-4 -37q14 -45 96 -45l16 -20v-17q-23 -37 -60 -37l-85 -16l-4 4l-20 -4l-32 4l-4 -4v-4
q-153 0 -153 53l48 29q19 0 45 41v4l-4 4l4 21l-4 20l4 25l-4 20l8 54l-4 28h4l-4 4l4 21l-4 16l4 25l-4 4v4q8 21 8 62l-4 16l8 17l-8 32l20 144l-8 33v8l4 17l-4 4l4 20v33l4 4l-4 4v4q5 62 12 62l-4 4l4 49v25l-4 25l8 16l-8 8v17l20 164l-4 33l4 4v4l-4 4l4 20v54l8 66
v82l4 4l-4 4v8l4 4l-4 4v4l4 4q0 115 -89 115q-24 17 -24 37q54 41 81 50l20 -5l4 5l20 -5h36l17 5l4 -5l24 5l129 4q72 -3 72 -21q0 -34 -109 -74q-28 -24 -28 -65l-4 -4v-5l12 -24l-4 -37l4 -12h-4l4 -5v-4l-4 -33l4 -12l-4 -4v-4l4 -37v-8l-4 -4l4 -4v-13l-4 -4l4 -4
l-4 -16l4 -33l-12 -78l4 -17l-8 -24v-8l8 -25q-8 -11 -8 -37l-8 -41h-4l8 -45l-8 -8v-83l-8 -12l8 -8q122 152 125 168q16 0 16 17q28 22 40 61q12 0 12 17q18 9 45 78q40 48 64 102l40 66q8 0 29 37l40 66l68 90v4l-16 4l-8 -8h-40q-65 0 -65 61q39 45 89 62zM698 1591v-8
h44l93 16v9l-41 -4q0 9 -48 12v4q-37 -12 -48 -29zM529 1074q9 0 72 86l-4 4v4q81 80 81 111q20 25 28 25v8q0 29 28 62l32 53q19 0 24 29q27 20 77 94q12 0 12 17q11 19 52 28l4 17h-36q-24 0 -36 -45l-81 -91l-40 -49l-20 -29q0 -25 -77 -123q0 -12 -12 -12
q-23 -55 -80 -136q0 -12 -12 -12zM190 1583l8 -86l-4 -49l4 -17l-4 -16l4 -21l-16 -209l4 -37l-4 -4h-4l4 -25l-4 -90l-8 -8v-99l4 -33q-4 -67 -20 -139l4 -17l-4 -12l4 -29v-94l-8 -66v-41l-4 -4l8 -12l-4 -29v-29l-4 -4l4 -4v-4l-12 -62l4 -24h-4l4 -4v-4l-4 -17l4 -24
l-4 -95v-20l8 -37q-8 0 -12 -33q-28 -14 -28 -21v-8l20 -4q137 3 137 16q-9 0 -16 29q-16 0 -16 25q-13 0 -13 8v25l4 4q-6 14 -16 127l8 111l-4 12l8 90l-4 13l17 45l-4 4v4l24 127q-7 29 -12 29l24 144l-4 20l12 74l-4 4v4q0 29 8 45l-4 13l8 16l-4 13l8 41l-4 12l12 180
l-4 5v4l4 24l-4 37q3 29 8 29l-4 4v70l-4 16l8 58l-4 12q36 45 48 45v8h-133zM496 967q38 -86 61 -106l-4 -5v-4l4 -16l-4 -16q7 0 36 -103l48 -131q53 -112 61 -177l52 -148q23 -20 44 -131l21 -33l16 -12v-54l36 -4l72 13v8q-64 37 -64 66l-8 12l4 12l-8 25h4
q-85 174 -85 201q-28 87 -60 156q0 42 -40 103q0 40 -25 73l-24 78v13q-18 0 -24 45q-8 0 -40 98l-16 33l-16 17l4 12l-20 16q-25 -9 -25 -41z" />
    <glyph glyph-name="l" unicode="l" horiz-adv-x="945" 
d="M23 1712v-4l4 4l120 -9l4 5h4l124 -17l34 8l22 -8l4 4h8l43 -34q-4 -30 -13 -30h-4l-47 8q-57 -10 -73 -21l13 -43l-4 -30v-26q-3 -119 -21 -119l4 -5v-4l-13 -111l9 -9l-5 -4v-4l5 -13l-9 -9v-64l-9 -47v-51l-8 -81v-13l-4 -5l4 -4l-9 -55l13 -22v-4l-8 -13l8 -90
l-13 -34l5 -4l-5 -13l17 -133l-4 -34l4 -17l-4 -22l9 -42l-9 -26l9 -9v-12l-5 -5v-4l5 -4h4l-4 -30v-47l-5 -39l9 -51q-9 0 -9 -13l9 -38v-22l-9 -13l5 -17l-5 -30l5 -30l-5 -38l18 -9l29 5l26 -5h9v5l42 -5h99l25 -4l13 4l22 -4h8v4l30 -4h39l98 30q31 0 43 240
q11 55 21 55h17l13 -13v-4l-4 -4l4 -13q-10 -26 -17 -26l4 -13l-8 -59v-35l4 -38q-14 -82 -39 -111v-5l5 -4l13 -4v-5l85 9l4 -4h5q19 5 21 17q-12 28 -26 257l-30 17v8q5 13 26 13q47 -22 47 -98l4 -30h-4l13 -112l-4 -12l21 -69q-1 -16 -43 -34h-8l-56 -4l-34 4l-9 -8h-4
l-8 8l-13 -4l-35 4l-21 -8l-47 8l-21 -4v4l-5 -4l-21 4h-201l-17 4l-17 -4h-116l-17 4l-4 -4h-13v4l-30 -4h-64q-7 0 -17 -30h-26l-8 9v9q1 63 8 63l-4 5v55l-8 56l4 43l-4 12l4 13l-4 111v52l4 4l-4 13l4 30l-4 43l8 55l-4 22l13 72l-9 22l9 30l-9 8l9 9l-5 13l9 25l9 107
l-5 56l5 81l-5 34l5 13l-5 5q7 93 17 98l-8 21l8 22v8h-4l4 30v90l5 22l-5 25v30l5 47l-5 17l9 9v64l-13 17l4 30v17q0 19 -30 52l-4 -5h-4q-39 22 -98 26l-9 13v17q0 14 86 17zM138 1656l-4 -4v-38q0 -37 -9 -56l9 -9v-25l-5 -26l5 -13l-13 -85l4 -13l-4 -43l4 -4v-4
l-8 -56l4 -4h4l-4 -18l4 -25h-4l4 -4v-9l-8 -17l4 -51q-10 -78 -17 -90l4 -5v-4l-4 -13l4 -21v-51l-4 -18l4 -17v-25l-4 -17l4 -18l-9 -119l5 -5v-4l-9 -26v-51l-8 -13l8 -34l-4 -38v-35l-4 -17l4 -4l-13 -176l4 -4v-4l-8 -21q8 -16 13 -82l-5 -77l9 -25v-77h43l51 4l-9 38
l9 22l-4 21v13l8 9l-4 4l4 21v13l-4 17l9 26l-5 4v26l5 4l-5 4v64l-4 13l4 22v38l-4 56l4 30l-8 51l4 17l-4 17l4 5v4l-9 30l5 4v4q-13 38 -17 86l4 13l-4 21l12 43q-8 0 -8 13l8 21l-4 5h-4l4 25l-4 39l13 119l-5 5v4l9 39l-4 4v4q8 19 8 56v60l22 128l-5 4v5l5 38l-5 4v5
q13 114 26 132l-4 13l4 13l-9 8v9l5 4v5q-11 0 -17 47l4 4l-4 4v9l4 21h-9v4l-4 -4h-4z" />
    <glyph glyph-name="m" unicode="m" horiz-adv-x="1363" 
d="M80 1720h13l13 -9l25 9h8l126 -137h5l12 13h21l13 -9l-9 -53l93 -88q29 -52 76 -98l113 -164l34 -57q24 0 75 48l93 98l139 159l37 45q0 12 164 185q26 36 55 36l8 -27h9q8 0 8 14h9q0 -16 17 -36l-9 -66l9 -84l-9 -9v-5l9 -13l-9 -13v-5l9 -13v-18l-5 -4l13 -27l-4 -97
v-102l-4 -26l4 -14q-8 -7 -13 -106l-4 -4l4 -27v-18l-8 -13v-31l8 -9l-8 -31l4 -22q0 -22 -9 -22l5 -4v-9l-5 -49l5 -58v-4q0 -23 -13 -40l4 -22l-4 -35l8 -89l-12 -71l4 -4l-4 -13q2 -89 12 -89l-8 -97l4 -5v-4l-4 -5v-4l4 -27l-4 -17l4 -5v-4l-4 -18l4 -4h4l-4 -22v-31
q8 -14 89 -54q29 -28 29 -57v-5l-17 -22l4 -4v-9l-16 -22l-34 9q-52 -4 -59 -13l-42 4l-118 -9h-8q-7 0 -13 27q21 75 72 75q71 24 71 84q0 21 9 31l-9 9l4 44l-4 22l4 27l-4 13l4 31l-8 120q6 17 13 17l-5 5v4l5 5v4l-9 9v4l4 5l-4 4v5l9 13v9l-5 17l5 5v4l-5 5l5 22l-5 48
h5l-5 5v40l9 84l-4 31h4l-4 13l4 5v4l-4 18l4 4l-4 5v4l4 4v5l-4 13l8 18l-4 13l8 36l-4 53l4 13l-4 18v9h4l-4 22q0 64 17 93l-4 35h4l-4 4v49q1 31 8 31l-8 27v4l8 13l-4 14h4l-4 4v53l-9 89l5 18l-5 13l5 4v5l-9 31l9 88q-3 36 -9 36q-11 -1 -25 -31q-23 0 -76 -85
q-87 -72 -235 -261h-8q0 -21 -26 -35q-8 -23 -42 -40q0 -12 -50 -53q0 -10 -63 -71l46 -57q26 21 143 172q36 47 97 102q4 15 75 80q0 13 26 13q29 66 46 66q0 12 54 58q12 0 21 -22q0 -28 -100 -137l-51 -31q-14 -33 -88 -102l-88 -98q-7 -22 -110 -146q0 -13 -17 -13v-4
q-54 0 -54 44q-33 53 -55 53q-70 131 -80 137l-88 129q-15 0 -59 70l-46 49l-21 13h-9l-16 -132l4 -18l-13 -22l4 -22v-49l-4 -5l4 -4l-4 -22v-13l4 -18l-16 -106l8 -18l-8 -44l4 -5v-4q-9 -13 -13 -120l4 -4v-5l-4 -13l4 -31l-4 -4v-5l4 -4v-5l-17 -57q9 0 9 -13l4 -89
l-8 -49l4 -4v-53l4 -44l-8 -93l4 -14l-9 -9v-35l5 -40l-5 -4v-5l5 -22l-5 -4v-5l5 -26v-14l-5 -26l13 -44l21 4q126 -31 126 -57v-9l-25 -18h-38l-97 -22l-4 4h-4l-4 -4h-4l-21 9q0 -12 -51 -22l-12 4q-28 -18 -63 -18l-43 14l-21 -5q-42 12 -50 36v4q0 27 105 44
q21 17 21 40v18l-4 44h4l-4 4l4 27l-12 115l4 27l-9 35l9 93l-9 53l9 9l-9 9v9l5 4v5l-9 9v8l9 14l-9 13v31l9 9l-9 13l4 13l-8 67l4 31l-8 40l12 35l-4 22l9 53l-9 18l4 31l-4 27q9 17 9 48v5l-9 13l9 26l-5 18l5 5l-5 4v22l5 27l-5 4v5l13 48l-17 124l4 18l-4 4v5l9 40
l-5 17v5l5 4l-9 27l4 4l-4 13l9 14l-9 40l4 93l-4 4h-4l4 35l-8 18zM114 1667v-13l4 -31l-4 -31l4 -80l-4 -27l4 -35l-4 -18l4 -13h-4l4 -4l-4 -14l8 -88h-4l4 -5v-9l-4 -4l9 -53l-5 -18l5 -26l-9 -111v-111l-4 -84l4 -4v-5l-8 -40l4 -13l-4 -35l8 -93l-4 -14l4 -31l-4 -35
l4 -66v-18l9 -35l-9 -9v-62l-8 -14v-8l8 -14v-66l13 -27l-4 -4v-5l4 -48l-4 -18l8 -31l-8 -62l4 -4v-5l-4 -4v-5l4 -17l-17 -31v-9l101 18v17l-4 36l4 35l-4 18l4 22l-13 102l4 13l-4 13q13 0 13 18l-4 4l4 23v48l4 27l-4 22v4l4 18l-4 18l4 18l-4 22l4 66q-3 89 -8 89l4 22
v53l8 18l-8 62l8 17l-4 5q8 45 8 124q8 0 13 22l-4 40v4q0 31 8 49l-4 22l4 49l-4 35l17 111l-4 26v9l12 84l-4 18l4 26q-58 52 -63 76q-7 0 -33 40q-10 0 -51 44h-4zM1203 82q0 -9 -25 -18q0 -26 -59 -26q0 -7 -34 -18v-13h9v-5q66 5 75 14l21 -9l80 26q-39 49 -67 49z" />
    <glyph glyph-name="n" unicode="n" horiz-adv-x="1429" 
d="M1145 1724h15l4 -4q0 -26 80 -26h67q68 0 68 -18v-17q-38 -61 -68 -61l-103 -39q-56 -54 -56 -83l4 -21l-11 -48v-4l7 -18l-3 -4l3 -22v-82l4 -26l-4 -5v-4l8 -30l-4 -5v-4l4 -4v-5l-4 -17l4 -5v-4l-8 -48l4 -4v-4l-4 -44l8 -91l-4 -13l12 -82l-4 -18l4 -26l-4 -4v-5
l4 -4l-8 -113q12 -21 12 -65v-30l8 -18l-4 -43l4 -4v-5l-8 -35l8 -30l4 -187l-4 -21l4 -5v-4l-8 -13l8 -74l-4 -43l4 -13h-4l4 -5v-13l-4 -4v-4q21 -12 24 -27q0 -32 -95 -39q0 -8 -104 -17q-18 0 -23 52l-52 87l-40 78q-10 0 -51 74q0 11 -32 48q0 11 -52 91l-79 139
l-116 191q-25 35 -31 65q-53 70 -100 178q-7 0 -20 39l-103 183q-55 81 -95 165h-4q-8 0 -12 -44h-12q-10 0 -12 18h-12v-9h-4l4 -22l-4 -13l4 -26v-13l-4 -4l4 -5v-73q0 -22 -8 -22l8 -18l-4 -56l4 -13l-8 -35l4 -4l-8 -78l8 -113l-4 -26l4 -39l-8 -22l8 -39l-8 -74
q9 0 12 -65l-4 -22l4 -13l-4 -4l16 -83l-8 -21l4 -22v-87l8 -35v-4l-4 -17l4 -5v-4l-4 -13l4 -22l-4 -13l8 -9v-13l-4 -4l8 -52l-4 -4v-5q5 -30 12 -30l16 4q0 -13 51 -13q68 -45 84 -65v-17q0 -12 -112 -31l-27 5l-12 -5l-16 9l-12 -4l-4 4q-58 -13 -115 -13q-1 10 -40 26
l-4 22v17q37 51 99 78q12 28 44 44l-4 4v70l4 4q-16 90 -16 156v18l4 4l-8 26l4 26l-8 26l4 4l-4 22l-12 178l8 18l-8 47l8 74l-4 57l4 13l-8 43l4 26l-4 31l8 13l-4 21v26l8 26l-4 5h-4l8 61l-4 13l4 34l-4 18h4l-4 13q2 56 8 56l-4 22v82l4 5l-4 4v4l4 13l-12 66l8 65
q-7 0 -16 56v13q0 17 64 31v-5l4 5h4l12 -5l4 5h4q63 -11 63 -40v-4h-4q0 -45 56 -104l83 -117q80 -142 80 -174q90 -129 143 -221q0 -16 28 -61q15 -56 55 -109l44 -74l-4 -4v-4l28 -61q33 -50 115 -213l76 -117l75 -139q0 -25 32 -48l32 -48q0 -22 28 -26v-26h8q6 0 16 48
l-4 117l4 26l-4 5v4l4 4v5l-4 4l4 13l-4 135v13l-8 39l4 4v4l-4 26v5l4 26q-8 9 -12 100l4 4l-4 22v30l-8 13l4 26l-4 22l12 61q-13 0 -20 260l8 44l-8 13l8 56l-8 96v8h4l-4 31v91q-25 0 -40 96q-23 40 -52 60q-16 48 -51 48l-16 -4l-8 13h4l-4 4v13l16 18h16q40 0 67 13
l28 -5h60q1 22 12 22zM1049 1650q0 -20 32 -43l28 -35h8l8 78q-44 4 -44 13zM1160 1607l8 -18l-4 -13v-4h4q0 21 104 56q16 0 16 13l-16 9l-4 -4h-68l-4 4l-4 -4h-4l-12 4q-16 0 -16 -43zM151 1615v-4l4 -74q27 0 56 -69l35 -48q0 -10 16 -26q27 -60 100 -178l8 -9
q14 -46 47 -78q57 -141 167 -313q0 -16 111 -186q0 -12 52 -87l52 -96q0 -11 36 -52q30 -63 79 -139q79 -138 107 -165q15 -13 28 -13l24 5q-25 52 -68 112q0 28 -103 187q-59 83 -71 126q-21 24 -36 70q-8 23 -32 43q-58 129 -103 208q-9 3 -32 61q-31 52 -56 126
q-55 64 -55 91q-88 98 -88 148q-12 0 -12 26l-47 87q-65 79 -96 143q-21 18 -67 104l-4 5h-4zM159 1476v-13h16l-12 13h-4zM44 56l20 -13h51q17 13 32 13q-7 8 -12 53h-12q-36 -12 -36 -26q-42 -15 -43 -27zM191 83l-12 -22v-5l28 -8l43 8v5l-8 13l-4 -5h-4z" />
    <glyph glyph-name="o" unicode="o" horiz-adv-x="1354" 
d="M678 1682q133 -22 230 -69q86 -51 107 -91q50 -30 87 -121q11 0 55 -91q17 -8 36 -104q34 -50 40 -112q7 -62 27 -104l12 -39l-4 -13l8 -43l-4 -22q14 -77 20 -77l-8 -104l4 -17l-8 -26l4 -5q-8 -100 -28 -155l4 -5v-4q-34 -148 -123 -229q-91 -137 -245 -186
q-69 -43 -115 -43q-75 -22 -103 -22h-36l-16 4l-4 -4q-51 4 -51 13l-32 -9h-8q-72 0 -174 57q-46 26 -107 99q-15 5 -76 82q0 22 -39 78q-17 19 -60 121q-39 89 -55 147l8 13q-16 25 -16 95h4l-8 17l4 5l-8 82l4 35v17q8 8 8 34l4 31l8 8v13q7 135 75 290l67 125
q92 143 195 212q0 39 142 95q94 22 175 22zM408 1427l4 -4v-5q-9 -38 -24 -56l4 -13q-5 0 -23 -43l4 -17q-12 0 -20 -57q-7 0 -24 -129q-8 0 -20 -182q-7 0 -12 -52l4 -4v-5l-4 -25v-5l4 -30h-4l4 -4v-9l-8 -9l4 -13l-4 -52l12 -155l-4 -5l24 -151l-4 -4v-5q12 -71 32 -112
q0 -19 27 -69q22 -82 92 -126q84 -30 138 -30l4 5h4l12 -5q133 0 234 104q61 92 91 186l24 104l36 164v26l8 9l-4 21v5q1 21 7 21l-3 4v9q0 22 7 22l-4 17l8 65l-4 52h4l-4 4l4 22l-11 112l3 4v5q-6 0 -15 168l4 5q0 147 -72 298q-28 37 -67 48l-12 17v9q0 8 12 8v5
q-62 41 -171 60q-25 0 -35 9q-77 0 -175 -43q-51 -69 -79 -160zM75 1068v-26l-23 -121l3 -13q-7 0 -19 -91l4 -21v-52l8 -74h-4q3 -86 67 -229q2 -17 48 -95q21 -16 43 -74l16 -21q17 -32 63 -65q23 -38 111 -100h8v5q-23 26 -35 65q-11 2 -60 155q-12 38 -24 130l4 4v5
q-15 59 -27 203l4 17l-8 87q5 21 12 21l-8 35l4 39v47l11 13l-7 31q6 0 23 121l-4 17l8 43l-4 5v4q28 98 40 173l51 134l-3 13q21 25 47 112l4 5h-4q-89 -67 -198 -195q0 -11 -40 -61q-87 -167 -87 -198zM1007 1457q51 -137 51 -419l4 -13l-4 -5v-4q7 0 20 -108l-4 -13
l4 -39v-65l-4 -4l4 -4v-5l-8 -21l4 -26v-9l-12 -52l4 -13q-4 -32 -12 -43v-26l-59 -259q-42 -133 -91 -191l-4 -13h4q71 12 190 147q55 48 99 147q25 63 44 195q0 60 7 78l-4 4v4l8 70l-11 43l3 4v5l-7 25v83q-20 55 -52 194q-37 139 -158 325l-8 8h-8zM598 1042h24
q12 -2 36 -56q47 -121 47 -195q0 -47 8 -47q-9 -157 -43 -169q-80 13 -83 26l-4 22v52l-4 17l4 13l-8 26v4l4 4l-4 5v34l4 22l-8 52l12 34l-12 13l4 5l-4 21v44l12 13h23v8q-19 29 -19 43zM610 960v-48l4 -39l-4 -17l4 -21l-4 -22l4 -13l-4 -17l4 -39l-4 -26q13 -81 20 -91
h20q12 0 16 35l-4 4l8 86l-4 18l4 21q-8 8 -16 87q-14 8 -36 82h-8z" />
    <glyph glyph-name="p" unicode="p" horiz-adv-x="907" 
d="M212 1692l4 -4h4l16 4l56 -8l4 4q92 -8 92 -16h52q140 -23 140 -48q136 -79 184 -140q79 -86 104 -184l4 -16v-4l-4 -24q8 -8 12 -68q-34 -132 -80 -184q0 -40 -156 -180l-76 -44l-132 -48q-109 -32 -160 -32l-40 4l-12 -36l4 -24v-12l-4 -32l8 -76q-6 -88 -12 -88l4 -4
v-8l-4 -4q8 -20 8 -72v-72l4 -24l-4 -20l20 -116q13 -32 36 -32q49 0 128 -44h4v-4q0 -36 -44 -36l-104 16l-136 -16l-32 8l-16 -4l-4 4l-4 -4h-40l-4 4l-4 -4h-4q-24 8 -24 44l4 -4q72 21 72 36v36l-4 104l4 12l-4 16l4 12l-8 28l4 4l-4 20v68l4 16l-4 12l4 28l-8 116l4 52
l-4 12l4 24v52l-4 28l4 4h4l-4 40v16l4 24l-8 24l4 28v28l-4 24l4 24l-4 4l4 20v32l-4 40l4 32l-12 60l4 32l-8 220l4 68l-4 28h4l-8 36l4 4v4l-8 24v8l4 16l-16 104q0 16 180 28zM132 1640q0 -8 -36 -8l-4 -4q-14 0 -16 -32l20 -168l-8 -24v-8l4 -20h-4l4 -4v-16l-4 -20
l4 -24v-36l4 -16l-4 -4l4 -28v-24l-4 -4l8 -20l-4 -20v-32l8 -48l-4 -4v-4q8 -18 8 -56l-8 -24v-8l4 -24l-8 -32l8 -8v-12l4 -44l-4 -4l4 -28v-84l-4 -24l4 -4v-4l-8 -16l4 -40v-28l-8 -56q8 0 12 -92l-4 -20l4 -32v-12l-4 -24l4 -20l-4 -4l4 -20v-28l-4 -4l4 -4v-68l4 -24
l-4 -24l8 -84v-68h4l40 -4q60 5 60 28q-20 61 -28 164h4l-4 4v12l4 4l-4 4v36l4 16l-4 16l4 4v4l-12 84l8 148l-4 12l8 20l-8 8v32l4 36l-4 12l4 40l-16 28v8q16 0 28 164l12 52l-4 12l4 32l-4 32l8 24l-4 20l8 52l-4 4l4 32l-4 40h4l-8 44l4 4v4l-4 84v12l4 24l-8 24l4 56
v24l-8 76v8q2 8 20 16q-11 36 -20 36l-24 -4l-28 4l-20 -4zM264 1640v-24l-4 -12l4 -20v-36l-12 -40l8 -28l-4 -64v-56l-4 -16l4 -4v-4l-4 -4l16 -92l-12 -112l4 -4l-4 -20v-48l-8 -8l8 -16l-24 -208v-20l-4 -4l8 -32l-4 -4v-4q18 -16 36 -16l16 4l12 -4q65 0 268 80l-4 4
v28q22 0 76 208v32l4 4l-4 4v36l4 4l-4 4v28l4 20l-4 4h-4l4 20q-12 41 -12 80l4 16q-7 0 -20 136q-16 17 -32 88q-13 7 -36 44l-48 32l-4 -4h-4q0 8 -168 24l-4 -4h-4zM632 1528v-12q32 -144 32 -184l-4 -4v-4l8 -28l-4 -16l8 -20l-4 -4l8 -52l-4 -4v-4l4 -4v-4l-4 -4v-4
l4 -20q-8 0 -8 -12l8 -56v-20l-40 -164q-8 -48 -24 -48h-4v-4h4q35 9 132 116q64 95 84 164q8 0 8 88v16l-4 16l4 4q0 74 -124 220z" />
    <glyph glyph-name="q" unicode="q" horiz-adv-x="1321" 
d="M604 1707v-4l4 4h19q31 0 50 -13l12 5l131 -22q0 -8 12 -8q127 -57 127 -84l116 -106q0 -11 35 -42q53 -76 54 -105q51 -71 58 -148l4 -4l-4 -13q13 0 20 -134v-51l3 -101q-7 -12 -11 -89q-8 0 -8 -42q-18 -14 -42 -114l-4 -4v-25q0 -29 -31 -93l4 -4v-4q-7 -8 -12 -51
l-12 -17h-7v-25q-53 -101 -109 -185q-9 -25 -61 -72q126 -148 154 -148l-4 -4v-4q154 -105 236 -122q0 -12 62 -17h8v5l-8 33l4 13q-12 20 -12 55q0 43 70 92l66 8q72 -17 100 -75q31 -59 31 -72v-4l-4 -4l4 -4q0 -83 -77 -114l-39 -9q-131 0 -325 85l-100 67q-22 0 -97 71
q-18 0 -46 55l-39 38l-23 17h-4q-64 -58 -174 -93l-4 -4l-15 4v-8h-4q-28 0 -50 -13l-54 9l-12 -5l-23 5l-12 -5q-22 3 -35 13l-11 -8h-12q-14 21 -39 21q0 8 -27 8l-181 135l-74 80q-7 0 -7 13q-19 27 -35 33q0 12 -58 118q-17 73 -31 81q-35 112 -35 155l4 5v4
q-12 29 -12 55l4 17q-11 0 -11 8v30l-8 33v42l-4 59l4 5v4l-4 25l4 46l-4 5q0 64 54 265q7 0 16 47q21 28 81 143q64 38 139 126q137 99 228 114zM194 856v-17l-19 -152l3 -13l-7 -38l7 -16l-3 -43q0 -191 85 -311q0 -47 147 -123l92 -8q117 0 205 105q9 0 43 51v12
q-77 50 -120 55v-8q-16 -106 -54 -106q0 -11 -47 -21q-38 20 -38 80q17 72 65 102l24 8h15q93 0 182 -76h4q48 52 61 101q89 106 194 531l-4 5v4q26 60 54 278v30l-4 25l4 17q0 56 -35 105q0 10 -42 51q0 12 -16 12l-93 93l-85 42l-112 25l-4 -4h-3l-31 9l-4 -5h-4l-31 9
q-115 -23 -139 -51q-77 -77 -77 -88q-17 -51 -39 -68q0 -22 -19 -54q-45 -139 -82 -224q-8 -54 -46 -185q-17 -118 -27 -139zM113 1340l4 -4v-4q-38 -68 -55 -148l-7 -25l-4 -4h-4l4 -4v-9q0 -21 -8 -21l4 -4v-4l-15 -55v-63l-8 -9l4 -4v-17l-4 -17l8 -25v-34l-8 -12v-17
l8 -13v-25l3 -63h-3l7 -30h-4q16 -36 20 -80l-4 -25q26 -96 46 -127q0 -29 70 -160q8 0 8 -12l3 -5h4l4 5v4q-11 11 -31 80l4 17l-15 42l3 38v33q-11 17 -11 51l4 4h4l-4 13l4 21l-4 42l11 89l-4 12q20 92 35 219l58 224l39 76l15 59q0 40 85 194h4l-4 4v4l43 59h-8
q-143 -71 -143 -105h-8q0 -13 -19 -13q0 -16 -73 -67q-16 -17 -27 -55zM1126 1311v-9q0 -85 -24 -130l4 -13q-10 -133 -23 -143q-8 -78 -27 -127l-62 -215q-12 0 -12 -33l-34 -89l-12 -4l4 -4v-5q-14 -47 -46 -96q-23 -64 -82 -135v-5q88 -113 109 -113q91 90 170 261
q45 144 58 219q54 144 54 245l-4 46l4 13l-12 177q-9 0 -19 42v46q-13 0 -31 55zM526 291l4 -17h16q34 0 34 42l8 9l-15 33h-8q-39 -25 -39 -67zM774 253q-12 -32 -101 -101q-40 -43 -120 -59l-23 -5l-11 5q0 -9 -20 -9v-4q65 -17 124 -21q74 0 201 55l50 42v4
q-70 93 -93 93h-7zM1435 -46q6 -55 23 -55l19 5l8 -13q0 -18 -19 -34v-12q46 -13 89 -13q35 0 61 72l-30 67q0 33 -39 33q0 11 -43 17h-7q-58 -17 -58 -54z" />
    <glyph glyph-name="r" unicode="r" horiz-adv-x="1119" 
d="M206 1665q253 -4 300 -40l20 4h8q0 -12 8 -12v8l16 -24q74 -12 176 -136l52 -96l-4 -4v-4l12 -68l-12 -76l4 -16l-40 -96l-68 -92l-28 -32q-16 0 -16 -24l-64 -68q-45 -53 -136 -108q-44 -12 -44 -20v-4q15 -33 108 -116q36 -87 96 -160q27 -86 84 -148q40 -104 88 -164
l84 -108l56 -60q22 -34 64 -60h8v16l12 48l-4 4l4 4h4l4 -4h4q81 64 156 64q35 0 64 -64q8 0 28 -56q-9 -112 -96 -112l-16 -4q-61 2 -184 56l-64 52q0 14 -40 52q-16 11 -16 28l-20 12q-48 68 -68 84q0 14 -36 48q0 17 -24 48q-33 85 -100 176q-16 55 -64 112l-44 80
q0 26 -88 100q-25 47 -96 68l-24 8h-4q-16 0 -16 -52l4 -12l-8 -60l4 -60l-4 -56l4 -4v-4l-4 -4v-4l8 -32l-4 -40l4 -16l-4 -4v-4l4 -4v-4l-8 -60l4 -16h-4q8 -16 8 -44v-4l-4 -16l4 -4v-4l-4 -4v-4l4 -12l-4 -4v-4l4 -4v-4l-4 -36l4 -20l-4 -32q0 -36 40 -36q46 0 88 -52
l8 -16v-16l-52 -16h-8l-44 4l-4 -4h-4l-16 4l-208 -28q-72 18 -72 32v16q5 15 88 36l8 12l-4 4v4l4 4v4l-8 24v92l-8 108l4 4v4l-4 16l4 28l-8 84l8 56l-4 12l4 16l-8 68l4 12l-8 8l4 4v4l-4 4l8 40l-4 24h4l-4 4l4 60v24l4 4l-4 4l4 44l-4 56q3 28 8 28l-4 4v88l4 4l-4 4v4
l4 4v4l-4 16l4 4v4l-8 12l4 20l-4 12l4 24v28l4 4l-4 4v4l4 12l-4 44v24l4 4l-4 4v8l4 4l-4 4v12l4 36l-4 4l4 20v12l-4 76l4 4v4l-4 24v8l4 16q-12 36 -12 100l4 16l-4 4q-49 -4 -56 -12h-4l-12 12v12q0 18 72 28q0 12 132 20zM582 1629q16 -6 16 -12h-12l-8 8zM614 1625h4
l8 -8l-4 -4h-4l-4 4v8zM738 1625h8l8 -8l-4 -4h-4l-8 8v4zM198 1613h-24l-16 -8l-4 4h-4l-12 -4l-4 4l-20 -4h-16v-24l-4 -20l8 -60l-4 -4v-4l8 -16l-4 -4v-4l4 -24l-4 -16l4 -24h-4l4 -4v-64l-4 -36l4 -24l-4 -28l4 -12l-4 -4v-4l4 -12l-4 -12l4 -24l-8 -16l4 -24l-4 -16
l8 -24v-12q0 -20 -8 -20l8 -76l-4 -4v-4l4 -4l-4 -20l4 -16l-4 -24v-4l4 -16l-8 -12l4 -4l-4 -20v-8l4 -12l-4 -20v-84q0 -20 -8 -20l4 -4v-20l-4 -4l4 -12l-4 -16l8 -28l-8 -8v-32q12 -14 12 -76l-4 -12l4 -12l-4 -4v-4l4 -4l-8 -64l4 -16l-4 -4v-4l8 -44l-4 -44l8 -116
l-4 -24l8 -140l-4 -4h40l96 16h40l4 -4l12 4v4l-8 8h-52q-21 0 -28 88v12q1 28 8 28l-8 32l8 56l-8 40l4 4l-4 20v36l8 84l-8 12l4 20v4l-4 28l8 8v4q-12 15 -12 28v4l4 4l-4 4v4l4 4v4l-4 4l4 20l-4 16l4 16l-4 16l4 4l-4 12l12 88l-4 16v4l4 4l-8 32q11 0 16 100l4 4h4
l-4 12l8 52l-4 4l12 92l-4 16l4 16l-8 24l4 4v4l-4 4v4l4 20l-4 36l8 56l-8 8v48l-4 16l8 16l-4 32l8 8l-8 52q0 20 8 20l-8 36l4 4l-8 64l4 12q-24 0 -24 20q0 12 12 12v8zM266 1609v-4q12 0 12 -12l-4 -16l8 -96l-4 -12l4 -24l-8 -40l4 -36v-36l-4 -16l12 -56l-8 -20
l4 -12l-4 -40l4 -32l-4 -20l4 -52l-12 -116l4 -4q-6 -44 -12 -44l4 -20v-8l-4 -16l4 -4l-4 -28v-32l68 -20q72 0 176 92q60 62 60 128q10 0 36 156l-4 24l4 32l-4 16l4 36l-12 32l4 16q-49 220 -84 220q-12 40 -36 40q0 7 -92 24l-4 4h-52l-36 -4l-12 4zM582 1537v-4l24 -80
l-4 -4q40 -106 40 -192l-4 -68v-24l-4 -4l4 -4v-24l-16 -28l4 -4q-8 -62 -20 -76l4 -24h8q0 10 44 48l64 96l24 84l-4 12q2 52 8 52q-22 89 -64 152q0 10 -52 60v4l-4 -4h-4q-6 17 -48 32zM1022 -47v-4l20 -8q4 12 24 12q9 0 12 -20q-12 0 -20 -36l72 -16l4 4h8l4 -4
q47 0 60 60q-37 90 -64 92l-52 -20q0 -10 -40 -12q-28 -35 -28 -48z" />
    <glyph glyph-name="s" unicode="s" horiz-adv-x="1144" 
d="M592 1748q106 0 220 -40l84 -48q22 -26 40 -76l-4 -24l8 -12l-16 -60q-15 -40 -100 -68l-20 -4q0 9 -40 12q-24 17 -28 52l4 36l-4 12q0 64 56 64l60 16v4q-2 18 -112 64l-4 -4h-4l-92 16l-4 -4h-4l-4 4h-4l-4 -4h-4l-24 4q-113 0 -204 -88q-39 -52 -48 -52v-28
q-12 -12 -24 -72h-4l4 -4v-24l-4 -4l4 -4v-8l4 -76l-8 -12l8 -24v-4l-4 -4l4 -4v-64l-8 -12v-4q8 -6 8 -44l44 -104l40 -56q58 -52 124 -52l12 4q132 -14 132 -24l12 4q181 -45 248 -112q0 -11 68 -68q88 -157 88 -236l-4 -4v-4l12 -56l-16 -56l4 -4v-4l-36 -108
q-51 -74 -84 -100q-52 -52 -180 -108l-4 4h-4l-108 -24q0 -5 -32 -8l-4 -4l-4 4h-4q-85 -36 -104 -36l-4 4h-4l-44 -8l-4 4h-4l-24 -4l-40 8l-32 -4q0 6 -28 20l-4 -4l-68 24l-28 -4l-28 8l-12 -4l-12 4l-12 -4q-74 0 -128 68q-19 0 -44 76q0 68 40 80q44 35 92 40
q92 -11 92 -68q6 0 44 -108q48 -60 88 -60l52 -16q147 0 196 32q84 85 84 116q11 9 44 96q9 0 12 36q15 0 40 100l48 208l-4 4l4 28l-4 44l4 20q-5 0 -40 76q-64 55 -128 64l-88 16v4l-64 -8l-4 4h-4l-16 -4l-4 4l-20 -8q-24 3 -24 8q0 -7 -108 -12l-44 8l-20 -4
q-120 0 -148 72q-36 65 -52 160v48l-8 32q0 136 12 136l-4 4v12q29 52 52 124q3 44 132 152l44 36q15 0 32 24l100 36h20l4 -4h4q0 9 136 28zM92 1280l4 -16l-4 -64l12 -48l-4 -16q21 -95 36 -124q34 -80 96 -80h36l16 -4l16 4l16 -4l4 4h4l12 -8q68 7 68 16l-72 84l-40 92
q-12 31 -12 56v60l-4 24l8 48l-4 12l4 4l-8 88h4l-8 24v8l16 68q10 7 20 56q8 0 40 52l52 52h-8q-92 -52 -176 -116q-58 -67 -64 -108q-9 -2 -20 -32l-4 -20q-14 0 -32 -112h-4zM772 1524q4 -56 12 -56l44 -4l4 4q56 15 56 56l-4 20l4 16q-8 0 -8 16q-104 -24 -104 -44v-8
h-4zM844 820v-4l32 -68l4 -48h-4l4 -4v-4l-8 -12l4 -36l-4 -4v-4l4 -4v-4l-20 -68l4 -4v-4q-8 -12 -16 -68q-8 -52 -36 -116q-4 -35 -28 -52l-20 -56l4 -4v-4q-16 -18 -28 -64l-56 -88v-4l128 24q118 69 140 92q17 15 52 76q20 0 52 164q0 106 -48 192q0 27 -80 116h-8
q0 10 -28 32q0 7 -44 28zM40 216v-40q22 -32 68 -64q8 -23 140 -32l12 4q-24 29 -24 44q-11 0 -44 84q-8 0 -8 24q-4 16 -44 28q-51 0 -100 -48z" />
    <glyph glyph-name="t" unicode="t" horiz-adv-x="1413" 
d="M230 1641l4 -4h4l14 4h7l15 -4l14 4l4 -4l3 4h4l14 -4l4 4l97 -12l75 4l4 -4l18 4h97l90 4v-4l4 4h3l22 -4l11 4v-4l3 4l15 -4q134 -3 173 -13h194l3 -4l4 4h4l3 -4h4l3 4l18 -4h4l14 4l4 -4l54 4h18l58 -8h28l11 8h25q22 0 22 -61l-7 -33l3 -37q-14 -88 -28 -94l-47 -78
h-11q-29 34 -50 98q-16 50 -98 103q-13 0 -32 29v4l4 20h-4l-40 -4l-64 8l-22 -4h-54l-14 4l-11 -4l-29 13l-14 -5l-51 5l-21 -5l-43 9l-4 -4l-18 4h-22l-3 -4h-4l22 -115l-4 -4l7 -99l-3 -37v-53q0 -74 -7 -123l3 -13h-3l7 -24v-49l3 -25l-3 -4q7 -51 7 -127l-7 -13l3 -4
v-4q0 -65 -14 -94l11 -17v-12q0 -20 -7 -20l3 -21v-4q0 -20 -7 -20q19 -111 22 -185h-4l4 -4l-15 -90l4 -5l-11 -41l4 -28l-4 -17l4 -16h-4l4 -4l-4 -29l4 -41q-8 0 -8 -12l4 -4v-4l-4 -5l4 -16l-4 -29l4 -16l-4 -4q8 0 8 -13l-4 -20q118 -12 126 -70l-11 -12l-25 8l-61 -12
l-4 4q-35 -4 -57 -21h-4l-14 13h-47l-18 -4l-4 4v4l-29 -8l-39 4q-73 -25 -126 -25v4l-11 -4l-11 4q0 -8 -11 -8q-32 4 -32 16v17q0 12 68 37l4 -4q101 10 101 32l7 107l-4 4v4q8 16 8 45v9l-4 28h4l-4 4v5l7 28l-3 4l3 21v29l4 98l-4 4l4 21v61l3 91l-3 49l7 12l-7 29l7 49
l-7 33l3 12l-3 4v4l7 21l-4 16q4 44 15 70l-7 49l3 13l-3 24l7 45v78l3 4l-3 4v13l7 33l-4 16l11 61l-7 25v4l4 4l-4 4l4 25l-4 25l11 127l-4 24q0 17 15 25q0 8 -18 25l-29 -4l-108 -5l-18 5l-18 -5l-15 5l-3 -5h-4l-72 13l-3 -4h-4l-32 8l-7 -8h-29l-33 4l-3 -4l-18 4h-18
l14 -21v-4q0 -17 -14 -29l-4 -16l4 -16l-4 -17l4 -12l-11 -12v-29l-7 -33l3 -12q-7 0 -18 -62h-3l3 -4v-20q0 -20 -25 -46h-25q-43 0 -65 66l-3 53l3 33l-7 66l7 78l-7 37q0 22 29 45zM36 1584l4 -29l-8 -181l8 -28l-4 -17l29 -29h14q11 0 22 87q11 2 11 32l-4 13q7 0 7 12
l-3 4v4l3 4v4l-3 5v4l7 24l-4 17h4l-4 4v4q11 10 15 57l10 13v4h-10q-31 0 -47 -8l-25 8zM655 1584l-18 4q-22 -6 -22 -21q-3 -106 -14 -115l4 -4v-20l-4 -17l4 -4l-4 -49v-62l-4 -4l4 -4l-14 -189l3 -4l-7 -53l4 -12h-4l4 -4v-4l-4 -5l4 -4v-4q-5 -86 -11 -86l3 -4v-4
l-3 -17l3 -24l-3 -25l3 -28q-2 -50 -7 -50l4 -4v-106l-4 -5l4 -4v-12l-4 -33l4 -33q0 -32 -7 -32l7 -54l-7 -8l7 -33v-12l-11 -17v-16l4 -16l-4 -4v-5l4 -12h-4l4 -4l-4 -49v-29l-4 -4l8 -29h-4l4 -4v-4l-4 -4l4 -4q-9 -53 -15 -53l4 -5v-98l3 -4v-4l18 4h76q27 0 29 12v37
l11 41l-4 12l4 5v4l-4 16l11 33q-11 0 -11 45l4 16l-4 4v5q7 16 7 45v16l4 4l-4 4v4l15 74l-4 4l7 58l-3 33l3 4v4l-3 12l3 12q-11 0 -18 95l4 4v4l-4 4l11 82v41l4 37l-4 4v4l4 13l-4 12l7 8l-7 41l4 4l-4 41v8l4 17l-4 4v4l4 21l-11 32l3 29l-3 29l7 8l-7 8v50l3 4l-3 4
v41q1 20 7 20l-4 21l4 82l-4 4v4l4 16l-7 13l3 20v8l-3 17l3 4v4l-7 25v4l4 4l-11 37v41l-7 16l3 13l-18 8zM1191 1567h-18v-4q1 -10 51 -25l57 -73v-21q10 0 25 -41l11 -8h4q36 23 36 74l3 4l4 16l-4 4v25l4 49h-144l-14 4z" />
    <glyph glyph-name="u" unicode="u" horiz-adv-x="1338" 
d="M928 1684l108 -4h24l16 -4l12 4l4 -4h4l4 4q200 -19 200 -44q0 -36 -68 -36q-100 -58 -100 -84l4 -16v-4l-4 -4l8 -24l-4 -28l8 -32q-4 -40 -12 -40l8 -32v-112l-4 -16l8 -44q-7 -84 -16 -84l4 -12l-4 -20l8 -8v-32l4 -20l-12 -56q0 -57 -8 -84l4 -28l-4 -84l-4 -4h-4
l4 -4v-4l-8 -76l4 -16l-80 -268q-44 -136 -72 -136q-14 -28 -40 -44q-78 -105 -152 -136q-28 -18 -108 -44l-4 4h-4l-12 -4l-4 4h-4l-24 -8h-52l-4 4l-4 -4h-16q-118 24 -176 52q-16 20 -64 44l-60 60q-41 33 -84 192q-8 67 -20 80v8h4l-4 28v20l4 4l-12 36v40
q-10 0 -20 172l8 20q-2 44 -8 44l4 28v80l4 36l-8 32v4l4 12l-4 20v16l12 156h4l-4 4v4l4 32l-4 12l4 24l-4 20l8 36l-4 4v4l8 84l-4 16h4l-4 4v4l4 24l-4 4l8 52l-4 28l4 4q-8 0 -12 32q-36 28 -76 28l-24 -4l-16 12v24q0 9 64 16l4 -4l20 4h132l4 -4l4 4l104 -8l4 4h4
q67 -14 72 -24v-12q-2 -9 -52 -36l-12 -72l4 -44v-8q-12 -31 -12 -56l-12 -16v-44l-8 -32l4 -4l-24 -136l4 -24q-3 -64 -8 -64l4 -4v-20l-12 -188l4 -12l-4 -12l4 -4v-4l-4 -12l4 -12l-4 -28l4 -20l-4 -32q0 -39 12 -56l-4 -4l16 -68l-4 -12q12 -32 24 -168q13 -5 48 -176
q12 -76 44 -120l28 -28l-4 -20v-12q42 0 80 -20q255 0 344 152q100 95 100 144q40 88 40 124q11 0 40 128l16 36l-4 4v4l4 4v4l-4 24l8 40l-4 16q12 32 12 60v12l-4 16l8 44l-4 24v16l16 96l-8 40l8 68l-4 4v4l8 32v116l-4 16l4 16l-4 180q-32 13 -32 48q-24 47 -72 76
q0 20 -76 60v4zM1024 1628q12 -19 44 -36h8l8 40l-28 4h-24zM1124 1584l4 -4h4q44 40 52 40v4l-28 8q-28 0 -28 -24zM160 1596l16 -52q-8 0 -8 -16l-4 -4h-4l4 -4l-4 -20v-44l-4 -4l4 -4v-20l-4 -4l4 -4v-24l-4 -4l4 -4l-4 -20v-48l-4 -16l4 -12l-4 -52l4 -28h-4l4 -4v-4
l-8 -24l4 -28l-12 -100v-40l-8 -8l12 -52l-4 -32l4 -28h-4l4 -4l-4 -60l4 -28l-4 -4v-4l4 -4l-4 -20v-60l8 -108v-32l12 -16l-4 -12l28 -176h-4l64 -168q89 -84 112 -84l16 -12h8q-28 45 -28 100q-24 121 -44 164q0 37 -20 80l4 4v4q-7 9 -12 112q-17 0 -28 180l8 32l-4 12
l4 4l-12 92l16 152l-4 12l4 4v4l-4 36v4l8 64v16l8 8l-4 4q19 208 28 208l20 72l-4 4v44l4 4l-4 12l-4 68h-12q-20 0 -20 8l-4 -4h-4l-72 4l-4 -4h-4l-16 4h-4z" />
    <glyph glyph-name="v" unicode="v" horiz-adv-x="1275" 
d="M938 1699h8l173 -25l42 8q89 -13 89 -25v-34l-25 -25l-5 4h-4q0 -23 -63 -46q-9 -41 -42 -59q0 -48 -72 -182q-3 -23 -42 -109q0 -31 -26 -68l-29 -122q-10 -2 -47 -135q-57 -130 -76 -219q-11 -14 -34 -89q-12 -15 -80 -240q-5 -63 -12 -63q5 -63 25 -63v-64l-30 -17h-8
q-17 7 -17 30v13l4 4v4l-4 4h-4l-9 -12l5 -5l-34 -84q-31 -79 -51 -80l-13 8l5 13l-5 4v5q81 221 81 252q-54 246 -114 418l4 12q-13 16 -42 135q-20 23 -38 93q-13 19 -30 89l4 12q-6 0 -42 169q-46 107 -46 152l-9 8v4l4 17l-16 55l4 13q-12 42 -38 42l-5 34l5 12
q-13 0 -13 30q-8 8 -42 8v4l-4 -4h-9l-63 4q20 -74 80 -219l21 -80q4 -56 25 -139l-4 -4v-4l9 -26l-5 -4q9 0 30 -164q7 0 17 -68l25 -88l-4 -13q38 -121 68 -287q8 0 8 -21h-4q17 -32 38 -164q13 0 25 -101q11 0 30 -64q7 0 12 -33h9q15 12 29 12l5 -4v-4q-13 -68 -47 -68
h-4q-21 6 -21 13v4l4 4v5q-29 32 -63 173l-4 4l4 4v4l-110 451l-25 93l4 13l-9 17l5 4v4q-17 28 -22 76q-12 16 -12 34h4l-17 97l4 4q-11 0 -25 109l-8 9l8 29q-17 19 -34 135l-72 186q-21 0 -21 33l5 34l-5 4h-55l-12 17q-34 18 -34 26v12q0 17 38 17l13 4v4l21 -4l17 4
l4 -4h4l21 9l21 -5h9l34 5q42 -5 42 -13l4 4h4l110 -29l59 -9l4 5h9l8 -9v-25l-42 -30q-12 -38 -42 -38v-4q25 -75 55 -215l4 -4l-4 -21q14 0 42 -135l25 -114l5 -4v-4l-5 -5l38 -105l-4 -4q30 -30 63 -177q13 -59 64 -198h-4q25 -78 25 -110v-17q17 -17 17 -38h4q8 0 25 72
q25 39 34 93l80 219q30 103 106 303q0 35 84 258l68 147l25 106q-44 50 -67 50q-20 17 -38 17q0 6 -51 17l-8 12v9zM1149 1615v-5q21 0 25 17h-13z" />
    <glyph glyph-name="w" unicode="w" horiz-adv-x="1860" 
d="M208 1668h8q8 0 8 -12l4 -4h8l140 -12q0 9 36 16l8 -36q-17 -20 -40 -20q0 -20 -28 -20v-4l40 -164q0 -38 32 -188q15 -51 36 -188l-4 -12l32 -112h-4q15 -70 32 -112l-4 -4v-4l8 -32v-4l-4 -4q16 -24 16 -36l-4 -4q24 -53 52 -156l-4 -4v-4q36 -62 48 -132q16 -9 16 -32
h12l52 116h8v24q12 12 12 40q7 0 12 40q28 44 44 100q11 0 56 152q8 0 24 56l8 8v4q-20 125 -40 164l4 4v4l-12 8l4 4v4l-4 4v4l4 4v4q-12 16 -20 76h4q-16 24 -16 44v16q-12 0 -32 72l4 12l-40 96v4l4 4l-28 60l-24 20l-40 -8l-12 16v8q33 72 100 72q13 9 76 20
q37 -8 52 -24l-4 -20q32 -45 52 -188q20 -34 24 -68q5 0 44 -120l4 -28h4q29 34 60 140l36 80l24 72l-4 4v4l20 52q-8 0 -8 12l4 20l-28 4l-12 -4q-49 4 -60 12q0 44 32 44q0 8 80 16l12 -4l16 4h8v-4l20 4h16l24 -4l16 4q92 -25 92 -40q0 -44 -44 -44q-128 -17 -128 -24
l-40 -136q-38 -59 -76 -192l-40 -76l4 -4v-4l-4 -4v-4q0 -25 24 -84q0 -30 32 -100l4 -24l-4 -12q10 0 32 -96q28 -59 88 -248l52 -136l-4 -4v-4q17 -35 28 -40h4l68 192q9 0 16 40q20 44 40 140l8 8l-4 4v4l24 72l-4 4v4l72 212q15 16 48 132q17 30 28 76l4 20q9 7 28 68
q12 0 44 108q9 6 32 60l-4 4v4l-4 -4h-4q-118 36 -140 56l-4 -4l-12 16l4 4l-4 4v8q0 12 60 20l72 -4l24 4l12 -4l32 4l76 -4h4q31 0 56 -44q-4 -36 -12 -36h-32q-88 0 -88 -40q-11 -37 -36 -72q-16 -32 -28 -88q-15 0 -48 -112l-56 -148l-92 -280q0 -53 -116 -376l-36 -124
l8 -20l-16 -44h-12v12q-13 0 -36 -84q-32 -88 -40 -92q-6 -16 -12 -16h-8q-12 4 -12 24l80 232q-35 55 -48 116q-12 0 -12 40q-14 0 -64 156l-8 32l-4 4h-4l4 4v4q-20 29 -28 88q-19 27 -40 120l4 4q-18 24 -36 100l4 12h-4q-12 9 -32 96l-8 12l4 4v4q-21 85 -40 124l4 4v4
l-40 100l-44 192q-8 0 -12 32l-12 16l-36 -20h-8l-12 12v8l4 4v4l-4 4l-40 -12h-16v-12q37 -32 56 -108q52 -142 60 -196q8 -8 16 -68l4 -20q10 0 24 -96q8 0 8 -20l-4 -4q12 -51 48 -116q0 -35 24 -88l-4 -16q20 -17 44 -144l44 -164l-4 -4q10 0 24 -104h-4q11 -20 24 -84
l68 -208q-9 -28 -16 -28q-16 0 -16 32q-32 20 -32 72q-12 0 -24 96q-11 8 -24 52l4 16l-20 84l-4 4v4l4 4v4q-44 113 -80 304q-11 6 -20 64q-12 0 -12 8l4 4l-4 12h-4q-24 -39 -72 -192q-41 -53 -76 -208q-18 -9 -52 -108q-9 0 -20 -56q8 0 12 -28l-12 -16h-4l-20 4
q-12 -44 -68 -148l-36 -84l-24 -24h-12q-8 0 -16 28l4 4v4l-64 200l-28 112q-8 0 -24 76q-16 14 -28 136q-6 0 -24 48l4 16q-44 126 -60 232q-12 5 -24 100l4 16q-16 0 -16 36q-12 0 -20 76q-11 8 -44 124q-16 37 -28 112q-18 28 -32 100q-16 9 -36 88q-27 32 -72 60v8
q0 11 20 12v24q0 24 104 52h56l20 -4zM64 1592v-4q60 -65 60 -136q23 -8 48 -124l16 -44l-4 -16q92 -240 92 -308l8 -44q7 0 20 -92l16 -28l-4 -4v-4q24 -67 60 -220q14 -30 36 -156l4 -16l4 -24q20 -19 20 -40h-4l76 -232l-4 -4l4 -4h8q28 34 64 124l40 100l-68 208
q-20 12 -20 52l4 4l-20 52l4 4q-8 0 -32 88q0 16 -12 28l4 32q-16 0 -16 60l-20 64l4 4l-24 96l4 4q-8 0 -8 44q-10 0 -16 84l4 16q-11 0 -36 120q0 40 -20 116h4l-40 144l-20 44v4h4q-5 17 -20 24h-40l-8 -8l-20 4h-4l-20 -4l-8 8q-76 -4 -120 -16zM1180 1604l8 -8h32l-8 8
l-16 -4zM1636 1572q24 0 24 -24l-4 -12q8 0 8 12q15 24 52 24l4 4v4q-32 0 -32 8q-9 -8 -48 -8l-4 -4v-4z" />
    <glyph glyph-name="x" unicode="x" horiz-adv-x="1112" 
d="M0 1678h35v-8h9v8l22 -4l13 4v-4l5 4l22 -4h43l18 -4l4 4h5l4 -4l18 4q31 0 31 -8l4 4h22l110 -9l17 5l9 -9h9v9l13 -9l13 9q67 0 93 -42v-13l-22 -20l-35 12l-5 -4h-4l-18 4h-4v-12l101 -238q22 -81 110 -312l39 75q36 56 71 150q15 17 79 195q70 98 70 130l-22 4
q0 -13 -66 -21h-9q-66 0 -87 25v21q4 12 26 12h31q52 0 132 21h4l4 -4l31 8q110 -4 110 -12l13 4v-21q-26 -46 -88 -46l-17 25l-101 -183q-27 -51 -66 -175q-15 0 -27 -54q-38 -84 -66 -125l-35 -96q67 -232 101 -274l84 -217q10 -1 39 -87q43 -73 71 -146q23 -27 39 -71
l31 -54l-13 -17q35 -2 79 -46v-12q0 -26 -141 -38l-79 9l-88 -13q-66 0 -66 50l62 50v9q-29 37 -57 95l4 5v4l-31 45l-118 296q-35 95 -49 158l-30 63h-5l-136 -288l-27 -58l5 -12q-14 -1 -75 -138q0 -18 -22 -62q0 -22 -13 -25l4 -4v-4q-22 -40 -26 -71l22 -17
q0 -33 -26 -33l-5 -4v-5h9l40 9v-4q31 15 118 25q81 0 106 -59q0 -26 -79 -33l-66 8h-79l-62 4l-40 -8q-109 0 -109 25l-9 13v8q123 21 123 42q8 41 22 41q0 41 70 208q0 12 49 88l-5 4v4q29 42 57 121q101 196 101 246l36 50l-27 66l-57 154l4 4v5l-162 374l-88 163h-84
q-70 0 -70 46v12zM215 1611l27 -54l4 -4v-21q13 0 13 -21l79 -162q31 -88 75 -179q64 -186 71 -187l-5 -5v-4q66 -155 92 -250l18 -37l-4 -4v-4l105 -275q0 -21 27 -54q0 -33 26 -71q14 -14 39 -79q22 -22 49 -79h-5q31 -45 31 -59l66 -4h62q32 0 35 13q0 16 -22 16
q-44 108 -62 113l-22 62q-6 30 -52 104l-198 479q0 18 -106 300q0 29 -22 46q0 48 -70 208l-88 187l-4 21q-107 4 -137 13z" />
    <glyph glyph-name="y" unicode="y" horiz-adv-x="1120" 
d="M31 1749h4q34 0 66 -13l4 5h31l18 -5l17 5h9l13 -5l22 5h22l13 -5l22 5h53l5 -5l4 5h48q27 -3 27 -13v-26l-22 -17h-84v-21q21 -27 27 -64q36 -37 118 -233l44 -127q19 -14 35 -68q8 -3 27 -60q10 -2 22 -34h8q36 34 36 64q11 0 35 68q22 22 22 47q15 3 61 114
q31 37 93 183q43 78 43 93h5q0 17 -70 30h-44l-5 4l-13 -4q-79 0 -79 34l18 13h105l18 -5l22 9l22 -4h39l75 -13l13 4l13 -4l5 4q0 -8 39 -13l9 9l17 -4l5 4h4q27 0 31 -34v-4q-63 -63 -193 -102q-49 0 -49 -64q-14 -15 -61 -123q-35 -47 -57 -106q-6 -23 -35 -60l-27 -59
l-66 -144v-5l22 -25q0 -24 -31 -55v-13l5 -4v-5l-9 -29l9 -26q-13 -2 -13 -34v-80l-5 -5l5 -4v-148l4 -47l-4 -30l4 -13l-4 -25l4 -21l-4 -38v-39l4 -46l-4 -13l4 -47l-9 -25l18 -123v-9q0 -7 97 -25l35 -26v-25q0 -10 -40 -22q-9 8 -70 13q-172 -13 -194 -21l-30 8l-14 -4
l-83 -4l-18 21v13q0 14 75 25v-4l62 17l-27 115l5 13l-5 29l5 77l-5 4v4l9 26l-4 4v8l4 5l-9 17l5 17l-5 4v4l5 4l-9 43l4 29l-4 22q4 37 13 46l-4 17l4 5l-9 106l5 17q-9 21 -9 76v9l4 25l-13 72l4 5h27q10 0 22 -132l-5 -4v-5l9 -157l-9 -119l5 -12l-5 -5l5 -21v-68l9 -12
v-9l-9 -8l4 -5v-4l-9 -51l5 -76v-13l4 -21h-4l17 -34l-4 -4v-5l13 -29q18 -2 18 -13l-18 -4v-9l22 -4l13 4v-4l5 4h4l5 -4q48 4 48 13q-21 0 -31 8l-9 -8h-13v8l22 4h18q0 18 13 39l-5 4l5 30l-9 106l4 12l-4 5v4l4 25l-4 34l9 13l-5 26l5 38l-5 4v4l5 5v4l-5 4l5 17l-5 34
v8h5l-5 43v106l-4 17l4 4v4l-4 60h4l-4 4l4 85v13l5 4l-5 4v5l9 34l-4 12l4 4v5l-4 4v4l4 4l-4 22v4l9 13v4h-14q-17 -43 -39 -43v5l9 42l-5 17q27 35 27 51v13q-33 34 -49 102q-23 23 -61 140q-84 207 -154 305l-31 77q0 30 -30 30l-66 4l-14 -4v4l-4 -4h-13l-5 4l-4 -4
h-26v-5l4 -21l-4 -4q33 0 114 -221l31 -64q36 -48 136 -276l48 -97l-9 -30l5 -42h-5q-11 6 -61 123l-22 51q-29 39 -79 165q-13 0 -13 34q-28 17 -75 140q-15 17 -53 119q-47 20 -83 85l9 30l-40 34q0 38 31 38zM914 1613h4q87 37 88 47l-48 8q-8 0 -44 -55z" />
    <glyph glyph-name="z" unicode="z" horiz-adv-x="1187" 
d="M274 1670q0 -11 69 -21l13 13q0 -10 51 -13l22 8l4 -4v-4l4 4h5l4 -4h4l9 8h4l13 -8l30 4l4 -4h5l25 8q0 -8 56 -12q0 7 30 12l13 -4l52 4l25 -4l99 13l116 -13l4 4h4l5 -4h4l4 4q42 -8 116 -8h9q26 -15 26 -51l25 21q26 -2 26 -12v-9q0 -24 -69 -118l-77 -161
q-14 -9 -30 -51q-17 0 -17 -25q-29 -31 -47 -89q-23 0 -65 -110q-25 -18 -34 -59l-43 -80q-13 -1 -39 -93q119 -22 134 -38v-25l-26 -9v4l-5 -4h-12l-116 21q-44 -95 -60 -97q-49 -108 -56 -110l-77 -148l-78 -131l-12 -12l4 -5v-4q-47 -107 -99 -177v-13l22 -4l197 29l4 -4
l283 25v-4l39 13q69 131 69 182v25l25 17l13 -30l-4 -4v-4l4 -26l-25 -93q-30 -30 -30 -63h8l56 -8q13 18 13 97h4l-4 4v21l4 38l-8 42h4l30 9q17 -24 17 -38l-13 -106l4 -4h5l-5 -30v-38l13 -17v-8l-25 -55l12 -21q-13 0 -17 -33l-4 -5h-4q-22 6 -22 13v42q0 42 -73 42
l-4 4q-31 -4 -51 -25h-5l-4 4l-4 -4h-9l-30 13l-146 -9l-4 4h-4q0 -8 -129 -16v4q-23 -11 -112 -21l-13 4l-4 -4h-4l-5 4q-107 -9 -107 -38l-21 -4l-22 16l-68 -3q0 -38 -43 -38l-5 -5h-8l-13 13v21q10 21 43 21h4l13 -9h4v9l-8 13q0 23 107 33q77 114 116 212l86 148
q49 103 150 270q35 53 81 169l125 245l73 123q11 33 60 97l51 93q33 84 95 169v9l-22 -5l-64 5q-60 -63 -64 -93q-12 -1 -56 -81q-32 -31 -95 -160l-47 -64q-13 0 -38 -84q-13 -2 -43 -80q-54 -87 -112 -161q0 -16 -60 -106q-33 -43 -69 -135q-7 0 -21 -46q-27 -47 -34 -47
l4 -13q-40 -55 -77 -131q-7 0 -22 -29l-4 4h-9v-8l5 4h4v-9q-25 -57 -86 -118l-77 -135q-34 -32 -52 -64v-8l5 -4v-5l-43 -17h-5l-17 17v9q15 38 78 93q30 42 30 67q51 55 55 81q45 30 73 101q80 140 116 186q0 15 22 47l64 143h-13v5l-17 -5l-43 5l-26 -5q-51 6 -51 22v16
l21 22l39 -9l4 4h4l112 -8q43 44 69 110q54 83 77 105l34 72q58 121 108 190q32 35 68 127q18 5 30 47l52 67q10 10 43 85h-5q-7 8 -137 21l-4 4v5q-10 -8 -95 -17l-25 8l-116 -21l-5 4l-42 -4q-111 0 -151 8l-17 -4h-21l-17 4l-18 -4h-8l-22 4l-25 -4h-43q-10 -1 -90 -106
q-22 -88 -48 -88q-55 30 -55 63v17l4 4l-4 4v5l4 17l-13 29q5 38 17 38h17q15 0 22 -105h8q25 73 65 118l4 4v4l-69 13h-4l-21 -4l-5 21v8l22 26q81 -4 81 -13l5 4h25l9 -8z" />
    <glyph glyph-name="braceleft" unicode="{" horiz-adv-x="684" 
 />
    <glyph glyph-name="bar" unicode="|" horiz-adv-x="532" 
 />
    <glyph glyph-name="braceright" unicode="}" horiz-adv-x="684" 
 />
    <glyph glyph-name="asciitilde" unicode="~" horiz-adv-x="1196" 
 />
    <glyph glyph-name="Adieresis" unicode="&#xc4;" horiz-adv-x="1366" 
 />
    <glyph glyph-name="Aring" unicode="&#xc5;" horiz-adv-x="1366" 
 />
    <glyph glyph-name="Ccedilla" unicode="&#xc7;" horiz-adv-x="1479" 
 />
    <glyph glyph-name="Eacute" unicode="&#xc9;" horiz-adv-x="986" 
d="M500 1668h82l4 -4l4 4h56l41 -4l22 4v-4l4 4h4l11 -4h7v4l37 -4h42l14 -3l4 3h4q138 0 138 -26v-7q-17 -17 -22 -49l7 -44l-11 -83l4 -3v-4l-8 -19l4 -15q-9 0 -15 -41l-19 -15h-7q-25 0 -49 157q-12 60 -56 60l-52 48h-37l-4 4l-22 -7l-12 7l-11 -4l-22 4l-11 -4l-34 4
h-19l-3 4l-4 -4h-4l-26 4l-11 -4l-19 4l-26 -4v4l-11 -4l-4 4l-37 -8l-15 4l-78 -7l-27 3l-3 -3l-19 3l-56 -3v3l-4 -3h-37l-19 3v-22l-3 -15q7 -16 7 -52l-15 -127l4 -4l-4 -15l4 -26l-11 -78q8 0 11 -19l-15 -7l7 -8l-7 -116h-4l8 -18l-4 -26l11 -38l-7 -11l7 -26l-7 -22
l3 -23h-3l7 -15q-2 -26 -7 -26q6 -8 11 -56l-4 -30l4 -11h11l64 4v-4l175 19l26 -8v4l49 153l-12 49l8 7v11l-8 8q8 17 15 18h4q15 -13 26 -82v-3l4 -135l-4 -11l4 -15l-4 -26l8 -67v-49l-8 -7l4 -11l-4 -4l4 -15q-7 -90 -30 -90q-11 0 -52 90l-4 4v37l-15 71q-10 30 -60 30
l-3 4q-22 -12 -45 -12v4l-19 -7l-3 3l-27 -3h-33l-23 -8l-11 4q-41 -3 -41 -11q11 -27 11 -150q8 0 12 -29l-4 -4v-4l4 -15l-4 -11l11 -34l-4 -26l4 -3l-4 -19v-23l8 -11v-15l7 -52l-3 -4l-4 -11h-4l15 -56l-4 -4v-3l11 -97q-7 0 -11 -41l8 -12l-4 -11l4 -59l-8 -19h4l149 4
v-4l4 4l157 3h11l71 -3l4 3h3l79 -7l37 7q16 0 37 90l-3 15q34 119 74 119h30q34 -22 34 -89h-4l7 -49l-3 -41l7 -22l-4 -4v-4l8 -37q-4 -56 -26 -56l-94 22q-15 0 -15 8q-15 0 -70 -23q-26 25 -60 27l-23 -8l-7 8h-11l-52 -4l-12 7l-3 -3h-45l-4 3l-4 -3l-26 3
q-82 -4 -82 -11l-93 8l-11 -4l-15 4q-14 -8 -86 -15h-34l-3 3l-12 -3l-29 3l-68 -7q-18 5 -18 26l7 26l-4 45l8 15l-8 26l4 45l-7 56l3 3v4l-3 11l3 15l-7 26l7 27l-7 26l4 33v15l-4 34l4 11l-4 15l7 41l-3 4l7 37l-4 15q3 56 8 56l-8 22h4l-4 4v67l-3 15l7 30l-7 56l7 34
l-4 3v26l8 8l-4 11l4 4l-4 18v8l4 19l-8 67h4l-4 4v3l8 26l-4 4l4 19v7l-8 38l8 33l-8 11v8l8 33l-4 4v4l11 52l-3 11l3 19l-3 71l3 74l-3 12l3 3l-11 109l4 11l-8 30v15q27 41 60 41l75 -4h7l15 4l15 -4h11l23 4l3 -4l12 4l33 -4l75 4l33 -4q23 11 131 11zM60 1623
q0 -7 -11 -7l3 -26v-4l-3 -11l7 -79h-4l8 -11l-4 -18v-12l-4 -93l4 -67l-7 -19v-7h3l-3 -26v-30l-8 -11l8 -79l-4 -59l4 -4l-4 -19v-30l4 -97l-8 -15l8 -7v-4l-4 -4l4 -3v-4l-8 -45l4 -18l-4 -30l4 -38h-4l4 -3v-12l-8 -14l12 -101l-4 -11l4 -4v-4q-3 -22 -8 -22l4 -4v-22
l-8 -38l4 -15l-7 -59l7 -23l-4 -26l8 -33l-4 -12l4 -18l-8 -34q8 -46 12 -175l-4 -4l4 -19v-26h7v-4l4 4l18 -4h49l15 -3l15 3h18v4l-7 11v8l7 52l-7 30q3 45 7 45l-3 3v4q1 19 7 19l-7 60h3l-7 33l4 4l-8 71l4 3l-11 60l7 23l-4 3v4l4 15l-7 7l3 15l-7 56l4 4v4l-15 60v26
l4 22l-15 97l7 34l-7 7v30l7 30q-7 0 -7 26h-4l4 19v41l-4 15l4 3v4l-4 4l4 26v22l-8 26l4 12l-8 7v26q2 26 8 26l-4 12l8 134h3l-3 4v3l7 8l-7 63q2 23 7 23l-7 44l15 45l-4 34v4l7 11l-7 22l7 11q0 38 -59 38zM836 1616v-4q48 -25 48 -67q9 -4 27 -93h7v3l4 86
q0 75 -38 75h-48zM485 847l-15 -52q0 -87 23 -108h3l4 33l-7 11l3 19l-7 97h-4zM787 149v-45l-7 -11v-15l7 -7l71 11l4 15l-4 19l4 3h4q-8 15 -11 90l3 15l-3 30v15h-15q-19 0 -53 -120zM561 1848q87 -49 95 -75l-6 -16q-26 -20 -54 -20q-24 -14 -79 -18q-25 -15 -66 -22
q-42 -24 -98 -22l-3 1l-6 13q15 42 92 93l57 48l20 7q7 19 48 11zM527 1824l-111 -96l-3 -6q71 24 80 21q31 13 71 17l23 13l3 6q-48 40 -63 45z" />
    <glyph glyph-name="Ntilde" unicode="&#xd1;" horiz-adv-x="1479" 
 />
    <glyph glyph-name="Odieresis" unicode="&#xd6;" horiz-adv-x="1593" 
 />
    <glyph glyph-name="Udieresis" unicode="&#xdc;" horiz-adv-x="1479" 
 />
    <glyph glyph-name="aacute" unicode="&#xe1;" 
 />
    <glyph glyph-name="agrave" unicode="&#xe0;" 
 />
    <glyph glyph-name="acircumflex" unicode="&#xe2;" 
 />
    <glyph glyph-name="adieresis" unicode="&#xe4;" 
 />
    <glyph glyph-name="atilde" unicode="&#xe3;" 
 />
    <glyph glyph-name="aring" unicode="&#xe5;" 
 />
    <glyph glyph-name="ccedilla" unicode="&#xe7;" horiz-adv-x="1024" 
 />
    <glyph glyph-name="eacute" unicode="&#xe9;" 
 />
    <glyph glyph-name="egrave" unicode="&#xe8;" 
 />
    <glyph glyph-name="ecircumflex" unicode="&#xea;" 
 />
    <glyph glyph-name="edieresis" unicode="&#xeb;" 
 />
    <glyph glyph-name="iacute" unicode="&#xed;" horiz-adv-x="569" 
 />
    <glyph glyph-name="igrave" unicode="&#xec;" horiz-adv-x="569" 
 />
    <glyph glyph-name="icircumflex" unicode="&#xee;" horiz-adv-x="569" 
 />
    <glyph glyph-name="idieresis" unicode="&#xef;" horiz-adv-x="569" 
 />
    <glyph glyph-name="ntilde" unicode="&#xf1;" 
 />
    <glyph glyph-name="oacute" unicode="&#xf3;" 
 />
    <glyph glyph-name="ograve" unicode="&#xf2;" 
 />
    <glyph glyph-name="ocircumflex" unicode="&#xf4;" 
 />
    <glyph glyph-name="odieresis" unicode="&#xf6;" 
 />
    <glyph glyph-name="otilde" unicode="&#xf5;" 
 />
    <glyph glyph-name="uacute" unicode="&#xfa;" 
 />
    <glyph glyph-name="ugrave" unicode="&#xf9;" 
 />
    <glyph glyph-name="ucircumflex" unicode="&#xfb;" 
 />
    <glyph glyph-name="udieresis" unicode="&#xfc;" 
 />
    <glyph glyph-name="dagger" unicode="&#x2020;" 
 />
    <glyph glyph-name="degree" unicode="&#xb0;" horiz-adv-x="819" 
 />
    <glyph glyph-name="cent" unicode="&#xa2;" 
 />
    <glyph glyph-name="sterling" unicode="&#xa3;" horiz-adv-x="1099" 
d="M580 1701h24q118 -29 200 -104q17 -13 32 -64q6 0 12 -16l-4 -16l4 -4v-4q0 -36 -44 -36q-16 -19 -72 -36q-68 0 -80 88v12l4 16l-4 4v4l8 48q0 40 -32 40l-20 4q-36 0 -100 -76q-38 -70 -40 -120h-4l4 -4l-12 -124l4 -4v-4l-40 -284l-16 -84h4l20 4l84 -8h32l4 -4h4
q0 19 28 20q0 48 32 48q13 -15 20 -56l-12 -24l4 -20v-32l-16 -16h-8q-20 10 -20 32l4 4l-4 4h-12l-16 -12l-140 12q-15 0 -24 -48l4 -4l-12 -72q0 -12 16 -12l8 -8l4 4h4q24 -3 24 -8l20 4h72l4 -4q18 8 52 8h16l28 32h4q12 0 12 -28l16 -20v-20l-8 -8q12 -19 12 -52
q0 -11 -36 -16l-16 32l4 16l-4 4q-7 12 -24 12v4l-52 -8v4l-4 -4l-40 4h-92l-20 4l-12 -52l4 -4v-4l-4 -16l4 -4l-28 -152l4 -4l-4 -28v-40l-8 -12l4 -20l-4 -4l4 -20v-32l-8 -32v-36q-10 -116 -36 -116v-4q0 -22 180 -40l112 -44q122 -40 224 -56l4 -4l44 12v48l-4 20
q28 52 84 52h52q64 -22 64 -56v-32q-37 -88 -92 -88l-104 -8v4l-4 -4h-24q-163 31 -168 44l-4 -4l-56 16l-12 -4q0 16 -116 60q-128 9 -140 28l-20 -4l-104 12q-21 0 -48 -32q-60 -35 -100 -44h-16l-12 12q0 80 144 104q44 66 44 116q9 6 16 64l4 4v40l8 44v16l-4 12l4 20
v36l-4 48h4l-20 116l4 24v8q-13 40 -24 40l-20 4l-4 -4h-4q-52 3 -52 8l-4 -4h-40q-17 0 -40 -28h-4q-44 44 -44 92v4l20 28h8l24 -16l32 4q36 -5 64 -40l20 -4q52 0 52 20v8h4l-8 40h4l-12 60l-52 -8l-24 8l-16 -4l-44 8q-5 -16 -20 -24h-4l-36 44v20l4 4q16 8 20 40l-4 12
l20 12q12 -15 12 -28v-20h4l24 4q36 0 60 -20q56 0 56 28l-8 40l4 12l-4 12l4 4h4q-8 10 -12 64l8 76l-4 4v4q7 8 12 80q8 0 8 24h4l-4 4l24 108q11 9 20 40q11 8 24 64h4l-4 4v4q55 97 112 112l8 8l20 -4q52 28 116 48q0 12 36 40zM680 1529q13 -72 52 -72q64 22 64 40v12
q0 39 -60 92l-4 -4h-12l-4 4q-23 0 -36 -72zM232 1153l4 -4v-100l4 -64l-4 -12q7 0 12 -36l24 -8l16 4q44 -4 52 -12q0 8 20 8l24 76l-4 16l16 60l-4 4q5 64 24 124l-4 4v4q12 34 12 72v8h-4l4 28v32q0 106 52 232l8 8h-4q-128 -45 -128 -76q-11 0 -40 -76
q-55 -110 -60 -192q-8 0 -8 -64q-8 0 -8 -36h-4zM320 881l-44 4l-28 -4l4 -20v-8q0 -108 24 -108v-16l-12 -16l12 -92v-12l-4 -4l4 -4l-4 -20v-4l8 -8l-4 -20v-8l12 -76l-4 -16l4 -32l-4 -4l4 -20q-15 -188 -28 -188l4 -4v-4l-12 -44h4q26 0 36 140l4 4l4 12l-4 16l12 84
l-4 4v12l4 4l-4 4l4 12l-4 28l16 64l-4 4v4l8 16l-4 16q16 22 16 128v24l12 68l-4 4v4l12 20l-4 4l4 28v32zM240 141v-4h8v12zM892 41q5 -40 40 -40h8q52 0 52 24l-4 4v4l8 36l-40 4h-24q-28 0 -40 -32z" />
    <glyph glyph-name="section" unicode="&#xa7;" horiz-adv-x="711" 
d="M355 1699q115 0 200 -67q123 -119 123 -149l12 -4q-5 -36 -23 -36l-19 4q-20 -43 -58 -43l-23 -8q-31 0 -47 43q-15 0 -19 52q44 29 81 39v4q-78 86 -108 86q0 12 -42 28l-16 -8l-42 12l-8 -8l-27 4q-56 0 -108 -173v-8q10 -66 50 -122q7 0 155 -145q158 -128 204 -229
l27 -55v-11q-15 -88 -104 -158h-8l-4 4l-54 -23l-4 4l-3 -4h-16l-15 4l-4 -4h-4l-35 4h-11l-12 -12v-4l89 -75q63 -66 115 -181q70 -110 70 -193q-16 -131 -50 -180q-65 -71 -104 -71q-26 -16 -62 -16h-23q-28 0 -35 12l-4 -4h-4q-65 0 -100 39q-44 0 -81 43q-87 34 -92 67
q-12 0 -12 16q-15 0 -27 35q-73 50 -73 107q17 82 81 82h4q39 -6 65 -43v-8l-15 -59l4 -4q0 -17 -16 -51q10 -42 47 -71l135 -31q107 24 107 43q13 0 39 43q34 0 73 173l-4 4v40q0 132 -104 208q-33 18 -61 51q-52 49 -104 83q-101 93 -101 118l-7 8v19l3 4l-11 102
q7 64 50 130q45 24 143 36l23 -4h38q0 7 -81 71q-52 59 -108 106l-50 78q-13 0 -34 51v4q0 43 23 67v55q35 55 73 55l4 -4h4zM150 1518q31 -75 43 -75h7v40q0 31 27 78q13 38 39 79v4q-85 -10 -85 -32q-14 0 -31 -94zM547 1463v-4l16 -24q58 9 58 32l-8 35h-8
q-58 -31 -58 -39zM170 1050l3 -55l-3 -4v-4l3 -16l-3 -11q22 -75 84 -130h12v16l-8 31v20l4 4l-4 4v3l4 16l-4 12l4 16l-4 35q23 128 50 150l4 11h-46l-69 -31zM289 948l4 -20h-4l4 -4v-39q21 -94 46 -94l16 -4l23 7q7 0 7 -11l4 -4h8q27 17 50 47q22 0 70 130l3 4l-3 27
q7 0 7 12l-4 16l4 4v4q-10 51 -15 51q-39 55 -108 55q-64 0 -85 -44q-11 -34 -27 -137zM555 1023v-12l4 -20q-30 -136 -112 -220v-4h50q65 0 116 83q15 31 15 55q-9 34 -54 102l-7 16h-12zM559 444l-8 -114q-7 -1 -31 -82q-30 -60 -61 -71q-48 -75 -108 -75q0 -8 -27 -8
l-66 4l-4 -4v-4q125 -51 178 -51q135 0 165 103q11 0 27 74l12 16l-4 12l4 4q0 65 -69 196h-8zM58 358q-16 -20 -23 -55q6 -25 58 -67l23 94v8q0 15 -58 20zM517 334v-8h15v4z" />
    <glyph glyph-name="bullet" unicode="&#x2022;" horiz-adv-x="717" 
 />
    <glyph glyph-name="paragraph" unicode="&#xb6;" horiz-adv-x="1100" 
 />
    <glyph glyph-name="germandbls" unicode="&#xdf;" horiz-adv-x="1251" 
 />
    <glyph glyph-name="registered" unicode="&#xae;" horiz-adv-x="1509" 
 />
    <glyph glyph-name="copyright" unicode="&#xa9;" horiz-adv-x="1509" 
 />
    <glyph glyph-name="trademark" unicode="&#x2122;" horiz-adv-x="2048" 
 />
    <glyph glyph-name="acute" unicode="&#xb4;" horiz-adv-x="359" 
d="M193 1596q117 -19 136 -44v-20q-21 -33 -52 -44q-20 -26 -80 -52q-22 -28 -64 -52q-37 -44 -100 -64h-4l-12 12q0 53 64 140l44 76l20 16q0 24 48 32zM165 1556l-84 -152v-8q68 56 80 56q29 27 72 48l20 24v8q-69 24 -88 24z" />
    <glyph glyph-name="dieresis" unicode="&#xa8;" horiz-adv-x="682" 
 />
    <glyph glyph-name="notequal" unicode="&#x2260;" horiz-adv-x="1124" 
 />
    <glyph glyph-name="AE" unicode="&#xc6;" horiz-adv-x="2048" 
 />
    <glyph glyph-name="Oslash" unicode="&#xd8;" horiz-adv-x="1593" 
 />
    <glyph glyph-name="infinity" unicode="&#x221e;" horiz-adv-x="1460" 
 />
    <glyph glyph-name="plusminus" unicode="&#xb1;" horiz-adv-x="1124" 
 />
    <glyph glyph-name="lessequal" unicode="&#x2264;" horiz-adv-x="1124" 
 />
    <glyph glyph-name="greaterequal" unicode="&#x2265;" horiz-adv-x="1124" 
 />
    <glyph glyph-name="yen" unicode="&#xa5;" horiz-adv-x="1220" 
d="M56 1676l44 -4h88q236 -30 236 -60v-16l-12 -12h-8l-28 8l-24 -8h-32q6 -38 40 -76q30 -24 48 -60q39 -47 80 -116q26 -7 76 -100q148 -147 148 -156q30 -28 48 -28l96 184q48 82 48 92q36 51 52 112q13 0 24 56q40 50 40 108l16 20v4q-20 0 -32 8l-28 -4l-52 8l-12 -4
q-26 10 -28 20v12l8 8h32l36 4l16 -4l20 4v-4l4 4h4l32 -4l24 4l4 -4h4l12 4l20 -16q108 -13 108 -36v-8q0 -6 -28 -16q-52 16 -104 16q-11 -11 -36 -92q-5 -21 -36 -56q0 -38 -100 -232q-11 0 -52 -96q-15 0 -56 -112v-4l4 -12l-8 -8v-4l4 -36l-8 -32l4 -4v-4l-8 -24v-60
l-8 -12v-52q0 -8 48 -16l4 4h4l52 -20q28 5 28 64q6 0 12 44l24 8q16 -6 16 -28l-8 -116v-28l-4 -4l4 -4v-4l-4 -20l4 -4v-4q-16 -50 -28 -56h-12q-6 0 -28 72l-24 20v4l8 12l-40 8l-4 -4l-20 4h-32q0 -22 -12 -52l4 -4l-8 -40l4 -4v-4l-8 -12l8 -32v-12l-8 -44v-28l12 -4
l24 4l32 -8l8 8l4 -4h4l24 4h12l32 100h8l28 -36v-4l-4 -24l4 -16l-28 -64h-4q8 -18 8 -52l-16 -16h-12q-12 4 -12 24v32q0 10 -52 20l-4 4l-12 -8h-12l-4 4q-39 -11 -40 -24l8 -24h-4l16 -100l-4 -4v-4l4 -40h-4l4 -4v-56q0 -124 84 -124q15 -1 44 -40l-12 -12l-48 8
l-32 -4l-16 4l-4 -4h-4l-16 4l-32 -8l-4 4l-56 -8l-4 4h-4l-16 -8l-48 4h-80l-48 -4v4l-4 -4h-4q-30 0 -32 36q30 20 68 28l20 -4l68 8v16l-4 56l4 4l-4 20v24l4 20l-8 8v12l8 40l-12 56l4 64v36l-12 12q-7 -8 -56 -12l-24 8l-8 -8l-28 4l-8 -16l-24 8v-4l4 -12
q-11 -92 -32 -92l-20 20v16l4 4l-4 4l4 20l-20 132l16 16q7 0 44 -56h4l20 4l32 -4q104 7 104 16v4l-8 44l8 8q-8 0 -8 12l4 16l-4 12h4l-4 4v4l8 32l-12 96h-40l-4 4l-4 -4h-16l-116 20l-32 -8l4 -4v-44q-8 -7 -8 -40l-24 -8l-16 16v40l-8 48l4 28q-9 42 -24 68q8 18 16 20
h8q52 -29 52 -56l20 -24q44 -2 44 -8l4 4l28 -4h48q15 0 36 16h28l4 20q-7 5 -12 88l4 20q-15 64 -20 64q-57 51 -92 104q-11 0 -24 28q-11 4 -40 48q-25 14 -88 104l-104 152q-19 51 -56 104q-32 63 -52 84q-11 13 -48 20q-35 16 -44 36q0 20 56 24zM172 1640v-4l8 -12
q-3 -15 -32 -28v-8l104 -176q73 -130 184 -248l104 -128q52 -43 52 -64l12 -76v-28q0 -96 16 -96l16 -4h40l44 -4q24 0 24 88l4 12l-4 12q8 10 8 40l4 12h4q-19 86 -52 108q-7 0 -96 100q-19 0 -76 76q-23 17 -32 52l-96 112l-36 64q-69 64 -88 116l-60 56l4 12h-4zM612 720
l-4 -4l8 -28h-4l4 -4v-160l4 -24l-4 -12l8 -8v-32l-4 -24l4 -12h-4l4 -4v-8l-4 -16l8 -20l-4 -20v-48l8 -76l-8 -12q3 -24 8 -24l-4 -20v-8l8 -36l-4 -12q0 -60 24 -60l24 -4l20 8l12 -8l52 12v20l-16 56l4 4v4q-8 15 -16 76l4 12l-4 68l4 16q-15 128 -28 128q2 23 12 36
l-4 12l8 44l-4 20l4 28l-4 12l4 4v4l-4 4v4l16 76v24l-8 8h-112l-4 4h-4z" />
    <glyph glyph-name="mu" unicode="&#xb5;" horiz-adv-x="1180" 
 />
    <glyph glyph-name="partialdiff" unicode="&#x2202;" horiz-adv-x="1012" 
 />
    <glyph glyph-name="summation" unicode="&#x2211;" horiz-adv-x="1460" 
 />
    <glyph glyph-name="product" unicode="&#x220f;" horiz-adv-x="1686" 
 />
    <glyph glyph-name="glyph155" horiz-adv-x="1124" 
 />
    <glyph glyph-name="integral" unicode="&#x222b;" horiz-adv-x="561" 
 />
    <glyph glyph-name="ordfeminine" unicode="&#xaa;" horiz-adv-x="758" 
 />
    <glyph glyph-name="ordmasculine" unicode="&#xba;" horiz-adv-x="748" 
 />
    <glyph glyph-name="Omega" unicode="&#x2126;" horiz-adv-x="1573" 
 />
    <glyph glyph-name="ae" unicode="&#xe6;" horiz-adv-x="1821" 
 />
    <glyph glyph-name="oslash" unicode="&#xf8;" horiz-adv-x="1251" 
 />
    <glyph glyph-name="questiondown" unicode="&#xbf;" horiz-adv-x="1251" 
 />
    <glyph glyph-name="exclamdown" unicode="&#xa1;" horiz-adv-x="682" 
 />
    <glyph glyph-name="logicalnot" unicode="&#xac;" horiz-adv-x="1196" 
 />
    <glyph glyph-name="radical" unicode="&#x221a;" horiz-adv-x="1124" 
 />
    <glyph glyph-name="florin" unicode="&#x192;" 
 />
    <glyph glyph-name="approxequal" unicode="&#x2248;" horiz-adv-x="1124" 
 />
    <glyph glyph-name="Delta" unicode="&#x2206;" horiz-adv-x="1253" 
 />
    <glyph glyph-name="guillemotleft" unicode="&#xab;" horiz-adv-x="878" 
d="M348 1002h8l8 -8v-12q-98 -98 -212 -184v-8q112 -116 164 -116q19 -64 80 -64l4 -4v-36l-16 -16h-28q0 -23 -32 -28l-12 4q-6 -16 -28 -16q-16 8 -16 24l4 4l-156 112q-46 48 -108 92l-4 4v20q0 12 112 52q79 49 232 180zM672 986q16 -6 16 -12v-8q0 -20 -56 -56l-64 -52
l56 -68q91 -66 160 -144q68 -51 68 -64v-4l-16 -8h-12q-35 0 -96 64h-4v-8h-4l8 -24l-4 -12l8 -8v-8l-8 -8l4 -20q-3 -20 -12 -20h-12q-31 40 -64 44q-53 46 -88 96q-47 24 -76 108q-6 0 -24 36q0 28 84 76q0 8 68 48q52 52 68 52zM504 818v-12l40 -76q121 -124 136 -124h4
v32l-4 36l4 12l-68 56q-8 0 -64 60l-4 -4h-12l-28 20h-4zM80 766v-4q82 -99 152 -120q19 -28 36 -28l4 4v8q-2 9 -76 56q-84 84 -108 84h-8z" />
    <glyph glyph-name="guillemotright" unicode="&#xbb;" 
d="M24 960h8q22 -39 208 -116q93 -25 104 -44v-20q-20 -19 -20 -68q-57 -41 -112 -124q-79 -92 -92 -92q-24 9 -24 16v16q35 21 120 124l28 40v4q-12 13 -108 64q-81 48 -108 48q-28 30 -28 44q8 0 8 32h4l-4 4v44q0 22 16 28zM464 956q20 -22 192 -88q5 -9 36 -20
q60 -24 60 -52q-2 -12 -20 -28v-12q0 -12 88 -28v-16q0 -6 -28 -20q-64 0 -88 20q-37 -5 -100 -128l-68 -108q-27 -16 -44 -16h-4l-8 8q0 18 32 44l128 200l8 16q-22 25 -112 60l-40 24h-4l-16 -28l-4 -4h-12q-20 9 -20 40l4 4v4q-8 18 -16 20l20 44l-16 28v12q16 24 32 24z
M484 884l-4 -4v-8q48 -34 192 -92l4 -4h12l12 12v8zM52 880v-12q0 -19 68 -44l76 -40q46 -34 80 -40h4q8 0 12 32q-41 23 -88 32l-148 72h-4z" />
    <glyph glyph-name="ellipsis" unicode="&#x2026;" horiz-adv-x="2048" 
 />
    <glyph glyph-name="Agrave" unicode="&#xc0;" horiz-adv-x="1366" 
 />
    <glyph glyph-name="Atilde" unicode="&#xc3;" horiz-adv-x="1366" 
 />
    <glyph glyph-name="Otilde" unicode="&#xd5;" horiz-adv-x="1593" 
 />
    <glyph glyph-name="OE" unicode="&#x152;" horiz-adv-x="2048" 
 />
    <glyph glyph-name="oe" unicode="&#x153;" horiz-adv-x="1933" 
 />
    <glyph glyph-name="endash" unicode="&#x2013;" 
 />
    <glyph glyph-name="emdash" unicode="&#x2014;" horiz-adv-x="2048" 
 />
    <glyph glyph-name="quotedblleft" unicode="&#x201c;" horiz-adv-x="682" 
 />
    <glyph glyph-name="quotedblright" unicode="&#x201d;" horiz-adv-x="682" 
 />
    <glyph glyph-name="quoteleft" unicode="&#x2018;" horiz-adv-x="455" 
 />
    <glyph glyph-name="quoteright" unicode="&#x2019;" horiz-adv-x="455" 
 />
    <glyph glyph-name="divide" unicode="&#xf7;" horiz-adv-x="1124" 
 />
    <glyph glyph-name="lozenge" unicode="&#x25ca;" horiz-adv-x="1012" 
 />
    <glyph glyph-name="ydieresis" unicode="&#xff;" horiz-adv-x="1024" 
 />
    <glyph glyph-name="Ydieresis" unicode="&#x178;" horiz-adv-x="1366" 
 />
    <glyph glyph-name="fraction" unicode="&#x2044;" horiz-adv-x="342" 
 />
    <glyph glyph-name="fraction" unicode="&#x2215;" horiz-adv-x="342" 
 />
    <glyph glyph-name="Euro" unicode="&#x20ac;" horiz-adv-x="1400" 
d="M1036 1680h68q72 0 120 -8l12 4q28 0 88 -36q20 0 20 -12l-4 -4v-4q28 -42 28 -64v-56q-27 -104 -76 -104q-16 -8 -44 -8h-8q-44 0 -84 68l-8 20q29 116 52 116h4q20 -1 20 -8l4 4h4q27 0 60 -40l-16 -20h-12l-36 20q-44 -24 -44 -60q22 -68 72 -68q72 13 72 84
q0 84 -64 112q-46 12 -80 12l-4 -4h-4l-44 8l-12 -4l-80 4l-20 -4l-4 4l-28 -4h-48l-4 4l-112 -44q-29 0 -88 -64q-113 -102 -124 -156q-40 -73 -60 -304l4 -80q11 -9 48 -16l4 4h4q19 -12 44 -12l88 4q4 40 16 40h12q10 0 16 -48q24 0 24 -12v-4l-24 -28v-36l-4 -4l4 -4v-4
l-12 -12h-8q-10 0 -32 60h-56l-4 4l-4 -4h-28l-52 4l-40 -8l-4 -12l4 -20q-2 -36 -8 -36l4 -4l-16 -100v-28q0 -20 144 -24h24q25 48 32 48q23 0 28 -64l-8 -32l8 -64l-16 -12h-4l-28 28v28q0 24 -16 24l-12 -4q-24 3 -24 8l-4 -4l-48 8l-16 -4l-36 8h-12l-4 -4h-4
q8 -177 20 -212h-4q19 -140 48 -168q0 -40 32 -80v-8l-4 -4v-4l72 -52q68 -36 124 -36h36l24 -4l12 4l4 -4h4q57 16 148 24q87 25 120 84q31 28 68 40l16 -4l12 4q93 -23 116 -56v-4q0 -97 -128 -140q-40 0 -68 -24l-20 4l-100 -8l-16 4l-4 -4h-4l-32 8l-60 -8l-36 8l-16 -4
l-64 12l-8 -8q-2 16 -32 16h-36l-32 16l-20 -4l-176 60q-145 99 -160 152l-8 24q-42 30 -80 152l-12 44l4 4v4l-28 148l-28 12l-12 -4l-64 8l-88 -12l-4 4l-12 -36l4 -4v-4l-4 -12l8 -56l-12 -8h-20q-11 0 -16 40q3 52 8 52l-4 4v16l4 4l-4 4q7 92 16 92h16l12 -12l-4 -28
v-16l112 12l92 -12q8 29 16 168l-4 4v4l12 76l-12 8l-32 -4l-8 8h-40l-24 4l-4 -4h-4l-32 8h-16l-36 -8l4 -28h-4l4 -4v-4q-7 -36 -16 -36q-17 10 -24 28l4 4v4l-8 36l4 4q-12 4 -12 24l4 12l-16 24v4q8 16 20 16q8 0 36 -36h12l96 4l16 -4l24 4l76 -12l24 100l-4 16
q28 45 28 84q12 0 12 28q16 6 32 56q6 0 48 92q44 78 88 104l144 108q0 8 16 8q33 52 80 52q0 8 12 8l24 -4q46 30 128 44zM688 1540h12v8h-4zM652 1508h4q14 3 24 24h-4q-18 0 -24 -24zM324 988q3 -12 16 -16l44 8l28 -8l8 8h92v84l8 24l-4 20l16 80l-4 16q0 59 52 192
q20 22 40 68q10 0 24 24v12h-8q-88 -60 -144 -112l-40 -64q0 -18 -52 -96q-64 -161 -64 -180q0 -43 -12 -60zM304 852v-12q-12 -11 -12 -100l4 -48l-12 -64l12 -32l-4 -4q23 -193 72 -264q99 -158 200 -200l100 -32v8q-20 0 -40 28q-13 0 -28 40q-34 58 -64 160l-8 24v16
l-24 160l4 28l-4 16l4 4l-12 136q0 34 8 56l-4 4l16 112l-4 12h4q-11 32 -76 32q-128 0 -128 -24zM1096 84h-24q0 -20 -64 -20l-4 4l-56 -12v-4h48l4 -4l4 4h4l4 -4l4 4h16l24 -8l32 4l28 -4q135 17 164 40q56 19 56 84q-38 24 -56 24h-48q-8 0 -64 -68q-22 -24 -72 -40z
" />
    <glyph glyph-name="guilsinglleft" unicode="&#x2039;" horiz-adv-x="682" 
 />
    <glyph glyph-name="guilsinglright" unicode="&#x203a;" horiz-adv-x="682" 
 />
    <glyph glyph-name="uniF001" unicode="&#xf001;" horiz-adv-x="1024" 
 />
    <glyph glyph-name="uniF001" unicode="&#xfb01;" horiz-adv-x="1024" 
 />
    <glyph glyph-name="uniF002" unicode="&#xf002;" horiz-adv-x="1024" 
 />
    <glyph glyph-name="uniF002" unicode="&#xfb02;" horiz-adv-x="1024" 
 />
    <glyph glyph-name="daggerdbl" unicode="&#x2021;" 
 />
    <glyph glyph-name="periodcentered" unicode="&#xb7;" horiz-adv-x="569" 
 />
    <glyph glyph-name="periodcentered" unicode="&#x2219;" horiz-adv-x="569" 
 />
    <glyph glyph-name="quotesinglbase" unicode="&#x201a;" horiz-adv-x="455" 
 />
    <glyph glyph-name="quotedblbase" unicode="&#x201e;" horiz-adv-x="682" 
 />
    <glyph glyph-name="perthousand" unicode="&#x2030;" horiz-adv-x="2048" 
 />
    <glyph glyph-name="Acircumflex" unicode="&#xc2;" horiz-adv-x="1366" 
 />
    <glyph glyph-name="Ecircumflex" unicode="&#xca;" horiz-adv-x="1366" 
 />
    <glyph glyph-name="Aacute" unicode="&#xc1;" horiz-adv-x="1366" 
 />
    <glyph glyph-name="Edieresis" unicode="&#xcb;" horiz-adv-x="1366" 
 />
    <glyph glyph-name="Egrave" unicode="&#xc8;" horiz-adv-x="1366" 
 />
    <glyph glyph-name="Iacute" unicode="&#xcd;" horiz-adv-x="569" 
 />
    <glyph glyph-name="Icircumflex" unicode="&#xce;" horiz-adv-x="569" 
 />
    <glyph glyph-name="Idieresis" unicode="&#xcf;" horiz-adv-x="569" 
 />
    <glyph glyph-name="Igrave" unicode="&#xcc;" horiz-adv-x="569" 
 />
    <glyph glyph-name="Oacute" unicode="&#xd3;" horiz-adv-x="1593" 
 />
    <glyph glyph-name="Ocircumflex" unicode="&#xd4;" horiz-adv-x="1593" 
 />
    <glyph glyph-name="Ograve" unicode="&#xd2;" horiz-adv-x="1593" 
 />
    <glyph glyph-name="Uacute" unicode="&#xda;" horiz-adv-x="1479" 
 />
    <glyph glyph-name="Ucircumflex" unicode="&#xdb;" horiz-adv-x="1479" 
 />
    <glyph glyph-name="Ugrave" unicode="&#xd9;" horiz-adv-x="1479" 
 />
    <glyph glyph-name="dotlessi" unicode="&#x131;" horiz-adv-x="569" 
 />
    <glyph glyph-name="circumflex" unicode="&#x2c6;" horiz-adv-x="682" 
 />
    <glyph glyph-name="tilde" unicode="&#x2dc;" horiz-adv-x="682" 
 />
    <glyph glyph-name="uni02C9" unicode="&#x2c9;" horiz-adv-x="682" 
 />
    <glyph glyph-name="breve" unicode="&#x2d8;" horiz-adv-x="682" 
 />
    <glyph glyph-name="dotaccent" unicode="&#x2d9;" horiz-adv-x="682" 
 />
    <glyph glyph-name="ring" unicode="&#x2da;" horiz-adv-x="682" 
 />
    <glyph glyph-name="cedilla" unicode="&#xb8;" horiz-adv-x="682" 
 />
    <glyph glyph-name="hungarumlaut" unicode="&#x2dd;" horiz-adv-x="682" 
 />
    <glyph glyph-name="ogonek" unicode="&#x2db;" horiz-adv-x="682" 
 />
    <glyph glyph-name="caron" unicode="&#x2c7;" horiz-adv-x="682" 
 />
    <glyph glyph-name="Lslash" unicode="&#x141;" 
 />
    <glyph glyph-name="lslash" unicode="&#x142;" horiz-adv-x="455" 
 />
    <glyph glyph-name="Scaron" unicode="&#x160;" horiz-adv-x="1366" 
 />
    <glyph glyph-name="scaron" unicode="&#x161;" horiz-adv-x="1024" 
 />
    <glyph glyph-name="Zcaron" unicode="&#x17d;" horiz-adv-x="1251" 
 />
    <glyph glyph-name="zcaron" unicode="&#x17e;" horiz-adv-x="1024" 
 />
    <glyph glyph-name="brokenbar" unicode="&#xa6;" horiz-adv-x="532" 
 />
    <glyph glyph-name="Eth" unicode="&#xd0;" horiz-adv-x="1479" 
 />
    <glyph glyph-name="eth" unicode="&#xf0;" 
 />
    <glyph glyph-name="Yacute" unicode="&#xdd;" horiz-adv-x="1366" 
 />
    <glyph glyph-name="yacute" unicode="&#xfd;" horiz-adv-x="1024" 
 />
    <glyph glyph-name="Thorn" unicode="&#xde;" horiz-adv-x="1366" 
 />
    <glyph glyph-name="thorn" unicode="&#xfe;" 
 />
    <glyph glyph-name="minus" unicode="&#x2212;" horiz-adv-x="1196" 
 />
    <glyph glyph-name="multiply" unicode="&#xd7;" horiz-adv-x="1196" 
 />
    <glyph glyph-name="uni00B9" unicode="&#xb9;" horiz-adv-x="682" 
 />
    <glyph glyph-name="uni00B2" unicode="&#xb2;" horiz-adv-x="682" 
 />
    <glyph glyph-name="uni00B3" unicode="&#xb3;" horiz-adv-x="682" 
 />
    <glyph glyph-name="onehalf" unicode="&#xbd;" horiz-adv-x="1708" 
 />
    <glyph glyph-name="onequarter" unicode="&#xbc;" horiz-adv-x="1708" 
 />
    <glyph glyph-name="threequarters" unicode="&#xbe;" horiz-adv-x="1708" 
 />
    <glyph glyph-name="franc" unicode="&#x20a3;" 
 />
    <glyph glyph-name="Gbreve" unicode="&#x11e;" horiz-adv-x="1593" 
 />
    <glyph glyph-name="gbreve" unicode="&#x11f;" 
 />
    <glyph glyph-name="Idotaccent" unicode="&#x130;" horiz-adv-x="569" 
 />
    <glyph glyph-name="Scedilla" unicode="&#x15e;" horiz-adv-x="1366" 
 />
    <glyph glyph-name="scedilla" unicode="&#x15f;" horiz-adv-x="1024" 
 />
    <glyph glyph-name="Cacute" unicode="&#x106;" horiz-adv-x="1479" 
 />
    <glyph glyph-name="cacute" unicode="&#x107;" horiz-adv-x="1024" 
 />
    <glyph glyph-name="Ccaron" unicode="&#x10c;" horiz-adv-x="1479" 
 />
    <glyph glyph-name="ccaron" unicode="&#x10d;" horiz-adv-x="1024" 
 />
    <glyph glyph-name="dcroat" unicode="&#x111;" 
 />
    <glyph glyph-name="currency" unicode="&#xa4;" 
 />
    <glyph glyph-name="macron" unicode="&#xaf;" horiz-adv-x="1131" 
 />
    <glyph glyph-name="Amacron" unicode="&#x100;" horiz-adv-x="1366" 
 />
    <glyph glyph-name="amacron" unicode="&#x101;" 
 />
    <glyph glyph-name="Abreve" unicode="&#x102;" horiz-adv-x="1366" 
 />
    <glyph glyph-name="abreve" unicode="&#x103;" 
 />
    <glyph glyph-name="Aogonek" unicode="&#x104;" horiz-adv-x="1366" 
 />
    <glyph glyph-name="aogonek" unicode="&#x105;" 
 />
    <glyph glyph-name="Ccircumflex" unicode="&#x108;" horiz-adv-x="1479" 
 />
    <glyph glyph-name="ccircumflex" unicode="&#x109;" horiz-adv-x="1024" 
 />
    <glyph glyph-name="Cdotaccent" unicode="&#x10a;" horiz-adv-x="1479" 
 />
    <glyph glyph-name="cdotaccent" unicode="&#x10b;" horiz-adv-x="1024" 
 />
    <glyph glyph-name="Dcaron" unicode="&#x10e;" horiz-adv-x="1479" 
 />
    <glyph glyph-name="dcaron" unicode="&#x10f;" horiz-adv-x="1259" 
 />
    <glyph glyph-name="Dcroat" unicode="&#x110;" horiz-adv-x="1479" 
 />
    <glyph glyph-name="Emacron" unicode="&#x112;" horiz-adv-x="1366" 
 />
    <glyph glyph-name="emacron" unicode="&#x113;" 
 />
    <glyph glyph-name="Ebreve" unicode="&#x114;" horiz-adv-x="1366" 
 />
    <glyph glyph-name="ebreve" unicode="&#x115;" 
 />
    <glyph glyph-name="Edotaccent" unicode="&#x116;" horiz-adv-x="1366" 
 />
    <glyph glyph-name="edotaccent" unicode="&#x117;" 
 />
    <glyph glyph-name="Eogonek" unicode="&#x118;" horiz-adv-x="1366" 
 />
    <glyph glyph-name="eogonek" unicode="&#x119;" 
 />
    <glyph glyph-name="Ecaron" unicode="&#x11a;" horiz-adv-x="1366" 
 />
    <glyph glyph-name="ecaron" unicode="&#x11b;" 
 />
    <glyph glyph-name="Gcircumflex" unicode="&#x11c;" horiz-adv-x="1593" 
 />
    <glyph glyph-name="gcircumflex" unicode="&#x11d;" 
 />
    <glyph glyph-name="Gdotaccent" unicode="&#x120;" horiz-adv-x="1593" 
 />
    <glyph glyph-name="gdotaccent" unicode="&#x121;" 
 />
    <glyph glyph-name="Gcommaaccent" unicode="&#x122;" horiz-adv-x="1593" 
 />
    <glyph glyph-name="gcommaaccent" unicode="&#x123;" 
 />
    <glyph glyph-name="Hcircumflex" unicode="&#x124;" horiz-adv-x="1479" 
 />
    <glyph glyph-name="hcircumflex" unicode="&#x125;" 
 />
    <glyph glyph-name="Hbar" unicode="&#x126;" horiz-adv-x="1479" 
 />
    <glyph glyph-name="hbar" unicode="&#x127;" 
 />
    <glyph glyph-name="Itilde" unicode="&#x128;" horiz-adv-x="569" 
 />
    <glyph glyph-name="itilde" unicode="&#x129;" horiz-adv-x="569" 
 />
    <glyph glyph-name="Imacron" unicode="&#x12a;" horiz-adv-x="569" 
 />
    <glyph glyph-name="imacron" unicode="&#x12b;" horiz-adv-x="569" 
 />
    <glyph glyph-name="Ibreve" unicode="&#x12c;" horiz-adv-x="569" 
 />
    <glyph glyph-name="ibreve" unicode="&#x12d;" horiz-adv-x="569" 
 />
    <glyph glyph-name="Iogonek" unicode="&#x12e;" horiz-adv-x="569" 
 />
    <glyph glyph-name="iogonek" unicode="&#x12f;" horiz-adv-x="455" 
 />
    <glyph glyph-name="IJ" unicode="&#x132;" horiz-adv-x="1505" 
 />
    <glyph glyph-name="ij" unicode="&#x133;" horiz-adv-x="909" 
 />
    <glyph glyph-name="Jcircumflex" unicode="&#x134;" horiz-adv-x="1024" 
 />
    <glyph glyph-name="jcircumflex" unicode="&#x135;" horiz-adv-x="455" 
 />
    <glyph glyph-name="Kcommaaccent" unicode="&#x136;" horiz-adv-x="1366" 
 />
    <glyph glyph-name="kcommaaccent" unicode="&#x137;" horiz-adv-x="1024" 
 />
    <glyph glyph-name="kgreenlandic" unicode="&#x138;" horiz-adv-x="1024" 
 />
    <glyph glyph-name="Lacute" unicode="&#x139;" 
 />
    <glyph glyph-name="lacute" unicode="&#x13a;" horiz-adv-x="455" 
 />
    <glyph glyph-name="Lcommaaccent" unicode="&#x13b;" 
 />
    <glyph glyph-name="lcommaaccent" unicode="&#x13c;" horiz-adv-x="455" 
 />
    <glyph glyph-name="Lcaron" unicode="&#x13d;" 
 />
    <glyph glyph-name="lcaron" unicode="&#x13e;" horiz-adv-x="597" 
 />
    <glyph glyph-name="Ldot" unicode="&#x13f;" 
 />
    <glyph glyph-name="ldot" unicode="&#x140;" horiz-adv-x="684" 
 />
    <glyph glyph-name="Nacute" unicode="&#x143;" horiz-adv-x="1479" 
 />
    <glyph glyph-name="nacute" unicode="&#x144;" 
 />
    <glyph glyph-name="Ncommaaccent" unicode="&#x145;" horiz-adv-x="1479" 
 />
    <glyph glyph-name="ncommaaccent" unicode="&#x146;" 
 />
    <glyph glyph-name="Ncaron" unicode="&#x147;" horiz-adv-x="1479" 
 />
    <glyph glyph-name="ncaron" unicode="&#x148;" 
 />
    <glyph glyph-name="napostrophe" unicode="&#x149;" horiz-adv-x="1237" 
 />
    <glyph glyph-name="Eng" unicode="&#x14a;" horiz-adv-x="1481" 
 />
    <glyph glyph-name="eng" unicode="&#x14b;" 
 />
    <glyph glyph-name="Omacron" unicode="&#x14c;" horiz-adv-x="1593" 
 />
    <glyph glyph-name="omacron" unicode="&#x14d;" 
 />
    <glyph glyph-name="Obreve" unicode="&#x14e;" horiz-adv-x="1593" 
 />
    <glyph glyph-name="obreve" unicode="&#x14f;" 
 />
    <glyph glyph-name="Ohungarumlaut" unicode="&#x150;" horiz-adv-x="1593" 
 />
    <glyph glyph-name="ohungarumlaut" unicode="&#x151;" 
 />
    <glyph glyph-name="Racute" unicode="&#x154;" horiz-adv-x="1479" 
 />
    <glyph glyph-name="racute" unicode="&#x155;" horiz-adv-x="682" 
 />
    <glyph glyph-name="Rcommaaccent" unicode="&#x156;" horiz-adv-x="1479" 
 />
    <glyph glyph-name="rcommaaccent" unicode="&#x157;" horiz-adv-x="682" 
 />
    <glyph glyph-name="Rcaron" unicode="&#x158;" horiz-adv-x="1479" 
 />
    <glyph glyph-name="rcaron" unicode="&#x159;" horiz-adv-x="682" 
 />
    <glyph glyph-name="Sacute" unicode="&#x15a;" horiz-adv-x="1366" 
 />
    <glyph glyph-name="sacute" unicode="&#x15b;" horiz-adv-x="1024" 
 />
    <glyph glyph-name="Scircumflex" unicode="&#x15c;" horiz-adv-x="1366" 
 />
    <glyph glyph-name="scircumflex" unicode="&#x15d;" horiz-adv-x="1024" 
 />
    <glyph glyph-name="Tcommaaccent" unicode="&#x162;" horiz-adv-x="1251" 
 />
    <glyph glyph-name="tcommaaccent" unicode="&#x163;" horiz-adv-x="569" 
 />
    <glyph glyph-name="Tcaron" unicode="&#x164;" horiz-adv-x="1251" 
 />
    <glyph glyph-name="tcaron" unicode="&#x165;" horiz-adv-x="768" 
 />
    <glyph glyph-name="Tbar" unicode="&#x166;" horiz-adv-x="1251" 
 />
    <glyph glyph-name="tbar" unicode="&#x167;" horiz-adv-x="569" 
 />
    <glyph glyph-name="Utilde" unicode="&#x168;" horiz-adv-x="1479" 
 />
    <glyph glyph-name="utilde" unicode="&#x169;" 
 />
    <glyph glyph-name="Umacron" unicode="&#x16a;" horiz-adv-x="1479" 
 />
    <glyph glyph-name="umacron" unicode="&#x16b;" 
 />
    <glyph glyph-name="Ubreve" unicode="&#x16c;" horiz-adv-x="1479" 
 />
    <glyph glyph-name="ubreve" unicode="&#x16d;" 
 />
    <glyph glyph-name="Uring" unicode="&#x16e;" horiz-adv-x="1479" 
 />
    <glyph glyph-name="uring" unicode="&#x16f;" 
 />
    <glyph glyph-name="Uhungarumlaut" unicode="&#x170;" horiz-adv-x="1479" 
 />
    <glyph glyph-name="uhungarumlaut" unicode="&#x171;" 
 />
    <glyph glyph-name="Uogonek" unicode="&#x172;" horiz-adv-x="1479" 
 />
    <glyph glyph-name="uogonek" unicode="&#x173;" 
 />
    <glyph glyph-name="Wcircumflex" unicode="&#x174;" horiz-adv-x="1933" 
 />
    <glyph glyph-name="wcircumflex" unicode="&#x175;" horiz-adv-x="1479" 
 />
    <glyph glyph-name="Ycircumflex" unicode="&#x176;" horiz-adv-x="1366" 
 />
    <glyph glyph-name="ycircumflex" unicode="&#x177;" horiz-adv-x="1024" 
 />
    <glyph glyph-name="Zacute" unicode="&#x179;" horiz-adv-x="1251" 
 />
    <glyph glyph-name="zacute" unicode="&#x17a;" horiz-adv-x="1024" 
 />
    <glyph glyph-name="Zdotaccent" unicode="&#x17b;" horiz-adv-x="1251" 
 />
    <glyph glyph-name="zdotaccent" unicode="&#x17c;" horiz-adv-x="1024" 
 />
    <glyph glyph-name="longs" unicode="&#x17f;" horiz-adv-x="455" 
 />
    <glyph glyph-name="Aringacute" unicode="&#x1fa;" horiz-adv-x="1366" 
 />
    <glyph glyph-name="aringacute" unicode="&#x1fb;" 
 />
    <glyph glyph-name="AEacute" unicode="&#x1fc;" horiz-adv-x="2048" 
 />
    <glyph glyph-name="aeacute" unicode="&#x1fd;" horiz-adv-x="1821" 
 />
    <glyph glyph-name="Oslashacute" unicode="&#x1fe;" horiz-adv-x="1593" 
 />
    <glyph glyph-name="oslashacute" unicode="&#x1ff;" horiz-adv-x="1251" 
 />
    <glyph glyph-name="tonos" unicode="&#x384;" horiz-adv-x="682" 
 />
    <glyph glyph-name="dieresistonos" unicode="&#x385;" horiz-adv-x="682" 
 />
    <glyph glyph-name="Alphatonos" unicode="&#x386;" horiz-adv-x="1367" 
 />
    <glyph glyph-name="anoteleia" unicode="&#x387;" horiz-adv-x="569" 
 />
    <glyph glyph-name="Epsilontonos" unicode="&#x388;" horiz-adv-x="1606" 
 />
    <glyph glyph-name="Etatonos" unicode="&#x389;" horiz-adv-x="1716" 
 />
    <glyph glyph-name="Iotatonos" unicode="&#x38a;" horiz-adv-x="786" 
 />
    <glyph glyph-name="Omicrontonos" unicode="&#x38c;" horiz-adv-x="1586" 
 />
    <glyph glyph-name="Upsilontonos" unicode="&#x38e;" horiz-adv-x="1752" 
 />
    <glyph glyph-name="Omegatonos" unicode="&#x38f;" horiz-adv-x="1541" 
 />
    <glyph glyph-name="iotadieresistonos" unicode="&#x390;" horiz-adv-x="455" 
 />
    <glyph glyph-name="Alpha" unicode="&#x391;" horiz-adv-x="1366" 
 />
    <glyph glyph-name="Beta" unicode="&#x392;" horiz-adv-x="1366" 
 />
    <glyph glyph-name="Gamma" unicode="&#x393;" horiz-adv-x="1128" 
 />
    <glyph glyph-name="uni0394" unicode="&#x394;" horiz-adv-x="1368" 
 />
    <glyph glyph-name="Epsilon" unicode="&#x395;" horiz-adv-x="1366" 
 />
    <glyph glyph-name="Zeta" unicode="&#x396;" horiz-adv-x="1251" 
 />
    <glyph glyph-name="Eta" unicode="&#x397;" horiz-adv-x="1479" 
 />
    <glyph glyph-name="Theta" unicode="&#x398;" horiz-adv-x="1593" 
 />
    <glyph glyph-name="Iota" unicode="&#x399;" horiz-adv-x="569" 
 />
    <glyph glyph-name="Kappa" unicode="&#x39a;" horiz-adv-x="1366" 
 />
    <glyph glyph-name="Lambda" unicode="&#x39b;" horiz-adv-x="1368" 
 />
    <glyph glyph-name="Mu" unicode="&#x39c;" horiz-adv-x="1706" 
 />
    <glyph glyph-name="Nu" unicode="&#x39d;" horiz-adv-x="1479" 
 />
    <glyph glyph-name="Xi" unicode="&#x39e;" horiz-adv-x="1331" 
 />
    <glyph glyph-name="Omicron" unicode="&#x39f;" horiz-adv-x="1593" 
 />
    <glyph glyph-name="Pi" unicode="&#x3a0;" horiz-adv-x="1479" 
 />
    <glyph glyph-name="Rho" unicode="&#x3a1;" horiz-adv-x="1366" 
 />
    <glyph glyph-name="Sigma" unicode="&#x3a3;" horiz-adv-x="1266" 
 />
    <glyph glyph-name="Tau" unicode="&#x3a4;" horiz-adv-x="1251" 
 />
    <glyph glyph-name="Upsilon" unicode="&#x3a5;" horiz-adv-x="1366" 
 />
    <glyph glyph-name="Phi" unicode="&#x3a6;" horiz-adv-x="1634" 
 />
    <glyph glyph-name="Chi" unicode="&#x3a7;" horiz-adv-x="1366" 
 />
    <glyph glyph-name="Psi" unicode="&#x3a8;" horiz-adv-x="1711" 
 />
    <glyph glyph-name="uni03A9" unicode="&#x3a9;" horiz-adv-x="1531" 
 />
    <glyph glyph-name="Iotadieresis" unicode="&#x3aa;" horiz-adv-x="569" 
 />
    <glyph glyph-name="Upsilondieresis" unicode="&#x3ab;" horiz-adv-x="1366" 
 />
    <glyph glyph-name="alphatonos" unicode="&#x3ac;" horiz-adv-x="1184" 
 />
    <glyph glyph-name="epsilontonos" unicode="&#x3ad;" horiz-adv-x="913" 
 />
    <glyph glyph-name="etatonos" unicode="&#x3ae;" 
 />
    <glyph glyph-name="iotatonos" unicode="&#x3af;" horiz-adv-x="455" 
 />
    <glyph glyph-name="upsilondieresistonos" unicode="&#x3b0;" horiz-adv-x="1120" 
 />
    <glyph glyph-name="alpha" unicode="&#x3b1;" horiz-adv-x="1184" 
 />
    <glyph glyph-name="beta" unicode="&#x3b2;" horiz-adv-x="1178" 
 />
    <glyph glyph-name="gamma" unicode="&#x3b3;" horiz-adv-x="1024" 
 />
    <glyph glyph-name="delta" unicode="&#x3b4;" horiz-adv-x="1140" 
 />
    <glyph glyph-name="epsilon" unicode="&#x3b5;" horiz-adv-x="913" 
 />
    <glyph glyph-name="zeta" unicode="&#x3b6;" horiz-adv-x="903" 
 />
    <glyph glyph-name="eta" unicode="&#x3b7;" 
 />
    <glyph glyph-name="theta" unicode="&#x3b8;" 
 />
    <glyph glyph-name="iota" unicode="&#x3b9;" horiz-adv-x="455" 
 />
    <glyph glyph-name="kappa" unicode="&#x3ba;" horiz-adv-x="1024" 
 />
    <glyph glyph-name="lambda" unicode="&#x3bb;" horiz-adv-x="1024" 
 />
    <glyph glyph-name="uni03BC" unicode="&#x3bc;" horiz-adv-x="1180" 
 />
    <glyph glyph-name="nu" unicode="&#x3bd;" horiz-adv-x="1024" 
 />
    <glyph glyph-name="xi" unicode="&#x3be;" horiz-adv-x="917" 
 />
    <glyph glyph-name="omicron" unicode="&#x3bf;" 
 />
    <glyph glyph-name="pi" unicode="&#x3c0;" horiz-adv-x="1413" 
 />
    <glyph glyph-name="rho" unicode="&#x3c1;" horiz-adv-x="1165" 
 />
    <glyph glyph-name="sigma1" unicode="&#x3c2;" horiz-adv-x="987" 
 />
    <glyph glyph-name="sigma" unicode="&#x3c3;" horiz-adv-x="1264" 
 />
    <glyph glyph-name="tau" unicode="&#x3c4;" horiz-adv-x="809" 
 />
    <glyph glyph-name="upsilon" unicode="&#x3c5;" horiz-adv-x="1120" 
 />
    <glyph glyph-name="phi" unicode="&#x3c6;" horiz-adv-x="1328" 
 />
    <glyph glyph-name="chi" unicode="&#x3c7;" horiz-adv-x="1075" 
 />
    <glyph glyph-name="psi" unicode="&#x3c8;" horiz-adv-x="1460" 
 />
    <glyph glyph-name="omega" unicode="&#x3c9;" horiz-adv-x="1599" 
 />
    <glyph glyph-name="iotadieresis" unicode="&#x3ca;" horiz-adv-x="455" 
 />
    <glyph glyph-name="upsilondieresis" unicode="&#x3cb;" horiz-adv-x="1120" 
 />
    <glyph glyph-name="omicrontonos" unicode="&#x3cc;" 
 />
    <glyph glyph-name="upsilontonos" unicode="&#x3cd;" horiz-adv-x="1120" 
 />
    <glyph glyph-name="omegatonos" unicode="&#x3ce;" horiz-adv-x="1599" 
 />
    <glyph glyph-name="afii10023" unicode="&#x401;" horiz-adv-x="1367" 
 />
    <glyph glyph-name="afii10051" unicode="&#x402;" horiz-adv-x="1771" 
 />
    <glyph glyph-name="afii10052" unicode="&#x403;" horiz-adv-x="1109" 
 />
    <glyph glyph-name="afii10053" unicode="&#x404;" horiz-adv-x="1472" 
 />
    <glyph glyph-name="afii10054" unicode="&#x405;" horiz-adv-x="1366" 
 />
    <glyph glyph-name="afii10055" unicode="&#x406;" horiz-adv-x="569" 
 />
    <glyph glyph-name="afii10056" unicode="&#x407;" horiz-adv-x="569" 
 />
    <glyph glyph-name="afii10057" unicode="&#x408;" horiz-adv-x="1024" 
 />
    <glyph glyph-name="afii10058" unicode="&#x409;" horiz-adv-x="2165" 
 />
    <glyph glyph-name="afii10059" unicode="&#x40a;" horiz-adv-x="2069" 
 />
    <glyph glyph-name="afii10060" unicode="&#x40b;" horiz-adv-x="1749" 
 />
    <glyph glyph-name="afii10061" unicode="&#x40c;" horiz-adv-x="1193" 
 />
    <glyph glyph-name="afii10062" unicode="&#x40e;" horiz-adv-x="1301" 
 />
    <glyph glyph-name="afii10145" unicode="&#x40f;" horiz-adv-x="1472" 
 />
    <glyph glyph-name="afii10017" unicode="&#x410;" horiz-adv-x="1366" 
 />
    <glyph glyph-name="afii10018" unicode="&#x411;" horiz-adv-x="1344" 
 />
    <glyph glyph-name="afii10019" unicode="&#x412;" horiz-adv-x="1366" 
 />
    <glyph glyph-name="afii10020" unicode="&#x413;" horiz-adv-x="1109" 
 />
    <glyph glyph-name="afii10021" unicode="&#x414;" horiz-adv-x="1387" 
 />
    <glyph glyph-name="afii10022" unicode="&#x415;" horiz-adv-x="1366" 
 />
    <glyph glyph-name="afii10024" unicode="&#x416;" horiz-adv-x="1891" 
 />
    <glyph glyph-name="afii10025" unicode="&#x417;" horiz-adv-x="1237" 
 />
    <glyph glyph-name="afii10026" unicode="&#x418;" horiz-adv-x="1472" 
 />
    <glyph glyph-name="afii10027" unicode="&#x419;" horiz-adv-x="1472" 
 />
    <glyph glyph-name="afii10028" unicode="&#x41a;" horiz-adv-x="1193" 
 />
    <glyph glyph-name="afii10029" unicode="&#x41b;" horiz-adv-x="1344" 
 />
    <glyph glyph-name="afii10030" unicode="&#x41c;" horiz-adv-x="1706" 
 />
    <glyph glyph-name="afii10031" unicode="&#x41d;" horiz-adv-x="1479" 
 />
    <glyph glyph-name="afii10032" unicode="&#x41e;" horiz-adv-x="1593" 
 />
    <glyph glyph-name="afii10033" unicode="&#x41f;" horiz-adv-x="1472" 
 />
    <glyph glyph-name="afii10034" unicode="&#x420;" horiz-adv-x="1366" 
 />
    <glyph glyph-name="afii10035" unicode="&#x421;" horiz-adv-x="1479" 
 />
    <glyph glyph-name="afii10036" unicode="&#x422;" horiz-adv-x="1251" 
 />
    <glyph glyph-name="afii10037" unicode="&#x423;" horiz-adv-x="1301" 
 />
    <glyph glyph-name="afii10038" unicode="&#x424;" horiz-adv-x="1557" 
 />
    <glyph glyph-name="afii10039" unicode="&#x425;" horiz-adv-x="1366" 
 />
    <glyph glyph-name="afii10040" unicode="&#x426;" horiz-adv-x="1515" 
 />
    <glyph glyph-name="afii10041" unicode="&#x427;" horiz-adv-x="1365" 
 />
    <glyph glyph-name="afii10042" unicode="&#x428;" horiz-adv-x="1877" 
 />
    <glyph glyph-name="afii10043" unicode="&#x429;" horiz-adv-x="1920" 
 />
    <glyph glyph-name="afii10044" unicode="&#x42a;" horiz-adv-x="1621" 
 />
    <glyph glyph-name="afii10045" unicode="&#x42b;" horiz-adv-x="1813" 
 />
    <glyph glyph-name="afii10046" unicode="&#x42c;" horiz-adv-x="1344" 
 />
    <glyph glyph-name="afii10047" unicode="&#x42d;" horiz-adv-x="1472" 
 />
    <glyph glyph-name="afii10048" unicode="&#x42e;" horiz-adv-x="2069" 
 />
    <glyph glyph-name="afii10049" unicode="&#x42f;" horiz-adv-x="1479" 
 />
    <glyph glyph-name="afii10065" unicode="&#x430;" 
 />
    <glyph glyph-name="afii10066" unicode="&#x431;" horiz-adv-x="1173" 
 />
    <glyph glyph-name="afii10067" unicode="&#x432;" horiz-adv-x="1088" 
 />
    <glyph glyph-name="afii10068" unicode="&#x433;" horiz-adv-x="747" 
 />
    <glyph glyph-name="afii10069" unicode="&#x434;" horiz-adv-x="1195" 
 />
    <glyph glyph-name="afii10070" unicode="&#x435;" 
 />
    <glyph glyph-name="afii10072" unicode="&#x436;" horiz-adv-x="1370" 
 />
    <glyph glyph-name="afii10073" unicode="&#x437;" horiz-adv-x="939" 
 />
    <glyph glyph-name="afii10074" unicode="&#x438;" horiz-adv-x="1144" 
 />
    <glyph glyph-name="afii10075" unicode="&#x439;" horiz-adv-x="1144" 
 />
    <glyph glyph-name="afii10076" unicode="&#x43a;" horiz-adv-x="896" 
 />
    <glyph glyph-name="afii10077" unicode="&#x43b;" horiz-adv-x="1195" 
 />
    <glyph glyph-name="afii10078" unicode="&#x43c;" horiz-adv-x="1408" 
 />
    <glyph glyph-name="afii10079" unicode="&#x43d;" horiz-adv-x="1131" 
 />
    <glyph glyph-name="afii10080" unicode="&#x43e;" 
 />
    <glyph glyph-name="afii10081" unicode="&#x43f;" horiz-adv-x="1109" 
 />
    <glyph glyph-name="afii10082" unicode="&#x440;" 
 />
    <glyph glyph-name="afii10083" unicode="&#x441;" horiz-adv-x="1024" 
 />
    <glyph glyph-name="afii10084" unicode="&#x442;" horiz-adv-x="938" 
 />
    <glyph glyph-name="afii10085" unicode="&#x443;" horiz-adv-x="1024" 
 />
    <glyph glyph-name="afii10086" unicode="&#x444;" horiz-adv-x="1685" 
 />
    <glyph glyph-name="afii10087" unicode="&#x445;" horiz-adv-x="1024" 
 />
    <glyph glyph-name="afii10088" unicode="&#x446;" horiz-adv-x="1173" 
 />
    <glyph glyph-name="afii10089" unicode="&#x447;" horiz-adv-x="1067" 
 />
    <glyph glyph-name="afii10090" unicode="&#x448;" horiz-adv-x="1643" 
 />
    <glyph glyph-name="afii10091" unicode="&#x449;" horiz-adv-x="1685" 
 />
    <glyph glyph-name="afii10092" unicode="&#x44a;" horiz-adv-x="1280" 
 />
    <glyph glyph-name="afii10093" unicode="&#x44b;" horiz-adv-x="1472" 
 />
    <glyph glyph-name="afii10094" unicode="&#x44c;" horiz-adv-x="1067" 
 />
    <glyph glyph-name="afii10095" unicode="&#x44d;" horiz-adv-x="1045" 
 />
    <glyph glyph-name="afii10096" unicode="&#x44e;" horiz-adv-x="1536" 
 />
    <glyph glyph-name="afii10097" unicode="&#x44f;" horiz-adv-x="1109" 
 />
    <glyph glyph-name="afii10071" unicode="&#x451;" 
 />
    <glyph glyph-name="afii10099" unicode="&#x452;" 
 />
    <glyph glyph-name="afii10100" unicode="&#x453;" horiz-adv-x="747" 
 />
    <glyph glyph-name="afii10101" unicode="&#x454;" horiz-adv-x="1045" 
 />
    <glyph glyph-name="afii10102" unicode="&#x455;" horiz-adv-x="1024" 
 />
    <glyph glyph-name="afii10103" unicode="&#x456;" horiz-adv-x="455" 
 />
    <glyph glyph-name="afii10104" unicode="&#x457;" horiz-adv-x="569" 
 />
    <glyph glyph-name="afii10105" unicode="&#x458;" horiz-adv-x="455" 
 />
    <glyph glyph-name="afii10106" unicode="&#x459;" horiz-adv-x="1856" 
 />
    <glyph glyph-name="afii10107" unicode="&#x45a;" horiz-adv-x="1664" 
 />
    <glyph glyph-name="afii10108" unicode="&#x45b;" 
 />
    <glyph glyph-name="afii10109" unicode="&#x45c;" horiz-adv-x="896" 
 />
    <glyph glyph-name="afii10110" unicode="&#x45e;" horiz-adv-x="1024" 
 />
    <glyph glyph-name="afii10193" unicode="&#x45f;" horiz-adv-x="1131" 
 />
    <glyph glyph-name="afii10050" unicode="&#x490;" horiz-adv-x="1001" 
 />
    <glyph glyph-name="afii10098" unicode="&#x491;" horiz-adv-x="842" 
 />
    <glyph glyph-name="Wgrave" unicode="&#x1e80;" horiz-adv-x="1933" 
 />
    <glyph glyph-name="wgrave" unicode="&#x1e81;" horiz-adv-x="1479" 
 />
    <glyph glyph-name="Wacute" unicode="&#x1e82;" horiz-adv-x="1933" 
 />
    <glyph glyph-name="wacute" unicode="&#x1e83;" horiz-adv-x="1479" 
 />
    <glyph glyph-name="Wdieresis" unicode="&#x1e84;" horiz-adv-x="1933" 
 />
    <glyph glyph-name="wdieresis" unicode="&#x1e85;" horiz-adv-x="1479" 
 />
    <glyph glyph-name="Ygrave" unicode="&#x1ef2;" horiz-adv-x="1366" 
 />
    <glyph glyph-name="ygrave" unicode="&#x1ef3;" horiz-adv-x="1024" 
 />
    <glyph glyph-name="afii00208" unicode="&#x2015;" horiz-adv-x="2048" 
 />
    <glyph glyph-name="underscoredbl" unicode="&#x2017;" horiz-adv-x="1131" 
 />
    <glyph glyph-name="quotereversed" unicode="&#x201b;" horiz-adv-x="455" 
 />
    <glyph glyph-name="minute" unicode="&#x2032;" horiz-adv-x="384" 
 />
    <glyph glyph-name="second" unicode="&#x2033;" horiz-adv-x="725" 
 />
    <glyph glyph-name="exclamdbl" unicode="&#x203c;" horiz-adv-x="1024" 
 />
    <glyph glyph-name="uni203E" unicode="&#x203e;" horiz-adv-x="682" 
 />
    <glyph glyph-name="uni207F" unicode="&#x207f;" horiz-adv-x="747" 
 />
    <glyph glyph-name="lira" unicode="&#x20a4;" 
 />
    <glyph glyph-name="peseta" unicode="&#x20a7;" horiz-adv-x="2240" 
 />
    <glyph glyph-name="afii61248" unicode="&#x2105;" horiz-adv-x="1813" 
 />
    <glyph glyph-name="afii61289" unicode="&#x2113;" horiz-adv-x="662" 
 />
    <glyph glyph-name="afii61352" unicode="&#x2116;" horiz-adv-x="2197" 
 />
    <glyph glyph-name="estimated" unicode="&#x212e;" horiz-adv-x="1229" 
 />
    <glyph glyph-name="oneeighth" unicode="&#x215b;" horiz-adv-x="1708" 
 />
    <glyph glyph-name="threeeighths" unicode="&#x215c;" horiz-adv-x="1708" 
 />
    <glyph glyph-name="fiveeighths" unicode="&#x215d;" horiz-adv-x="1708" 
 />
    <glyph glyph-name="seveneighths" unicode="&#x215e;" horiz-adv-x="1708" 
 />
    <glyph glyph-name="arrowleft" unicode="&#x2190;" horiz-adv-x="2048" 
 />
    <glyph glyph-name="arrowup" unicode="&#x2191;" horiz-adv-x="1024" 
 />
    <glyph glyph-name="arrowright" unicode="&#x2192;" horiz-adv-x="2048" 
 />
    <glyph glyph-name="arrowdown" unicode="&#x2193;" horiz-adv-x="1024" 
 />
    <glyph glyph-name="arrowboth" unicode="&#x2194;" horiz-adv-x="2048" 
 />
    <glyph glyph-name="arrowupdn" unicode="&#x2195;" horiz-adv-x="1024" 
 />
    <glyph glyph-name="arrowupdnbse" unicode="&#x21a8;" horiz-adv-x="1024" 
 />
    <glyph glyph-name="orthogonal" unicode="&#x221f;" horiz-adv-x="2005" 
 />
    <glyph glyph-name="intersection" unicode="&#x2229;" horiz-adv-x="1472" 
 />
    <glyph glyph-name="equivalence" unicode="&#x2261;" horiz-adv-x="1195" 
 />
    <glyph glyph-name="house" unicode="&#x2302;" horiz-adv-x="1237" 
 />
    <glyph glyph-name="revlogicalnot" unicode="&#x2310;" horiz-adv-x="1196" 
 />
    <glyph glyph-name="integraltp" unicode="&#x2320;" horiz-adv-x="1237" 
 />
    <glyph glyph-name="integralbt" unicode="&#x2321;" horiz-adv-x="1237" 
 />
    <glyph glyph-name="SF100000" unicode="&#x2500;" horiz-adv-x="1451" 
 />
    <glyph glyph-name="SF110000" unicode="&#x2502;" horiz-adv-x="1280" 
 />
    <glyph glyph-name="SF010000" unicode="&#x250c;" horiz-adv-x="1451" 
 />
    <glyph glyph-name="SF030000" unicode="&#x2510;" horiz-adv-x="1451" 
 />
    <glyph glyph-name="SF020000" unicode="&#x2514;" horiz-adv-x="1451" 
 />
    <glyph glyph-name="SF040000" unicode="&#x2518;" horiz-adv-x="1451" 
 />
    <glyph glyph-name="SF080000" unicode="&#x251c;" horiz-adv-x="1451" 
 />
    <glyph glyph-name="SF090000" unicode="&#x2524;" horiz-adv-x="1451" 
 />
    <glyph glyph-name="SF060000" unicode="&#x252c;" horiz-adv-x="1451" 
 />
    <glyph glyph-name="SF070000" unicode="&#x2534;" horiz-adv-x="1451" 
 />
    <glyph glyph-name="SF050000" unicode="&#x253c;" horiz-adv-x="1451" 
 />
    <glyph glyph-name="SF430000" unicode="&#x2550;" horiz-adv-x="1451" 
 />
    <glyph glyph-name="SF240000" unicode="&#x2551;" horiz-adv-x="1451" 
 />
    <glyph glyph-name="SF510000" unicode="&#x2552;" horiz-adv-x="1451" 
 />
    <glyph glyph-name="SF520000" unicode="&#x2553;" horiz-adv-x="1451" 
 />
    <glyph glyph-name="SF390000" unicode="&#x2554;" horiz-adv-x="1451" 
 />
    <glyph glyph-name="SF220000" unicode="&#x2555;" horiz-adv-x="1451" 
 />
    <glyph glyph-name="SF210000" unicode="&#x2556;" horiz-adv-x="1451" 
 />
    <glyph glyph-name="SF250000" unicode="&#x2557;" horiz-adv-x="1451" 
 />
    <glyph glyph-name="SF500000" unicode="&#x2558;" horiz-adv-x="1451" 
 />
    <glyph glyph-name="SF490000" unicode="&#x2559;" horiz-adv-x="1451" 
 />
    <glyph glyph-name="SF380000" unicode="&#x255a;" horiz-adv-x="1451" 
 />
    <glyph glyph-name="SF280000" unicode="&#x255b;" horiz-adv-x="1451" 
 />
    <glyph glyph-name="SF270000" unicode="&#x255c;" horiz-adv-x="1451" 
 />
    </font>
</defs>
</svg>
