<?xml version="1.0" standalone="no"?>
<!DOCTYPE svg PUBLIC "-//W3C//DTD SVG 1.1//EN" "http://www.w3.org/Graphics/SVG/1.1/DTD/svg11.dtd" >
<svg xmlns="http://www.w3.org/2000/svg" xmlns:xlink="http://www.w3.org/1999/xlink" version="1.1">
<metadata>
Created by FontForge 20170924 at Mon Mar 15 14:20:50 1999
 By www-data
 (c) 1997  Inspire Graphics Inc.  All rights reserved.
</metadata>
<defs>
<font id="ScrapStates" horiz-adv-x="538" >
  <font-face 
    font-family="Scrap States"
    font-weight="400"
    font-stretch="normal"
    units-per-em="1200"
    panose-1="0 0 4 0 0 0 0 0 0 0"
    ascent="960"
    descent="-240"
    x-height="681"
    cap-height="1030"
    bbox="-28 -195 1925 1200"
    underline-thickness="20"
    underline-position="-143"
    unicode-range="U+0020-007A"
  />
<missing-glyph horiz-adv-x="600" 
d="M75 0v1200h450v-1200h-450zM150 75h300v1050h-300v-1050z" />
    <glyph glyph-name=".notdef" horiz-adv-x="600" 
d="M75 0v1200h450v-1200h-450zM150 75h300v1050h-300v-1050z" />
    <glyph glyph-name=".null" horiz-adv-x="0" 
 />
    <glyph glyph-name="nonmarkingreturn" 
 />
    <glyph glyph-name="space" unicode=" " 
 />
    <glyph glyph-name="exclam" unicode="!" horiz-adv-x="1069" 
d="M989 -31q10 -10 -4 -13q-301 -61 -833 -60q-6 0 -8 6l-30 61q-23 0 -63 13q-5 2 -5 8l34 965q0 13 11 7q18 -12 26 -15.5t27 -7.5q4 -1 6 -3l13 -19q8 4 16 4q13 0 36 -19q29 -24 47 -33q5 -1 5 -9q-12 -78 14 -139l27 2q63 -43 67 -118l27 -40q3 -23 6 -45q5 -27 14 -42
q30 -3 36 -21q8 -22 19 -28q24 20 39 20q26 0 48 -68l72 -92q49 -67 46 -95q12 -9 36 -10t37 -11q24 -16 48 -66q24 -6 34 -22q14 -24 25 -33q31 6 45 6q21 0 34 -20q27 -42 48 -63zM969 -33q-11 12 -36 51q-11 17 -31 17q-14 0 -42 -5q-6 0 -7 1q-10 8 -23 34q-9 16 -36 22
q-4 0 -6 4q-23 51 -47 67q-13 8 -37 8.5t-36 13.5q-5 3 -3 7q7 25 -44 91q-36 45 -73 91q-17 54 -35 54q-11 0 -29 -16q-4 -3 -9 -1q-15 6 -21 29q-5 19 -36 22q-3 0 -6 3q-13 17 -24 93l-28 40q-3 70 -55 109l-28 -3q-7 0 -8 4q-21 45 -21 111q0 20 3 37q-15 8 -39 31
q-19 18 -30 18q-8 0 -17 -6q-5 -6 -10 2l-17 22q-28 4 -43 16l-34 -945q16 -5 58 -12q6 0 8 -4l30 -60q529 0 812 54z" />
    <glyph glyph-name="numbersign" unicode="#" horiz-adv-x="1430" 
d="M746 947q4 -25 -1 -78q-6 -30 -15 -73q5 -5 10 -18.5t1 -13.5q-1 0 -3 1q-8 6 -25 3q-11 -3 -21 -6q-9 -8 -10 -12q24 15 40 15q12 0 12 -10q3 -17 -7.5 -32t-28.5 -15q-59 0 -61 16q1 6 -4 19q-2 1 -11 -14q-10 -18 -18 -18q-15 0 -30 9.5t-12 19.5l9 27q34 16 46 13
l32 -8l6 15q5 14 11 13q-1 0 7 -1q-1 3 -1 7q-7 10 -7 16q0 5 5 8q8 5 0 30q-5 11 -5 12q11 4 28 18q-7 0 -17 -3.5t-14 -3.5q-8 0 -14 7q-2 3 -2 8q0 15 18 38.5t34.5 30t28.5 6.5q20 0 20 -17q0 -4 -1 -9zM644 800q-18 0 -26 36q-3 14 3.5 42.5t6.5 16.5l23 -11
q14 -6 14 -31q0 -53 -21 -53zM621 818q9 -7 9 -13q0 -15 -37 -15q-8 0 -14 1q-11 3 -23.5 20.5t-12.5 32.5q0 8 4 12q4 3 31.5 -11.5t42.5 -26.5zM989 483q0 -37 -23 -37q-15 0 -47 10.5t-41 19.5q-16 14 -26 16q-23 -28 -38 -28q-8 0 -8 9q0 8 15 31t18 33q4 14 -1 29.5
t-14 19.5q-22 17 -54 36q-3 1 -11 -6.5t-22.5 -7.5t-32.5 -5t-21 -5q-9 0 -10 9.5t-11 30t-10 27.5q0 3 2.5 6.5t18.5 15t15 11.5q27 11 37 9q6 -1 28 -23q22 12 39 12q9 0 12.5 -4.5t37.5 -18.5t42 -24q25 -33 45 -34.5t35 -15.5t13 -27q-5 -35 -15 -35q-6 0 -14 4
q-24 15 -24 4q0 -2 8 -6q27 -15 32 -18q15 -9 20 -16.5t5 -21.5zM1280 123q7 -2 7 -6q0 -5 -25 -26q-3 -2 -6 -2q-12 0 -16 39q0 4 22 -1q4 -1 18 -4zM1190 180q15 0 15 -12q0 -20 -19 -20q-4 0 -7 2q-15 2 -26 13q-12 12 4.5 14.5t32.5 2.5zM1208 105q-13 0 -34 23
q-9 9 6 12l35 4q9 -5 9 -15q0 -5 -2 -11q-6 -13 -14 -13zM546 725q-55 -6 -64 15q-2 4 -9.5 10t-7.5 10q0 3 7.5 9.5t7.5 8.5q-1 2 -6 2q-18 0 -25 -3q-6 0 -7 6q-2 18 -2 20q0 13 62 16q9 0 8 -9l-3 -18l11 -18q11 18 19 18q3 -1 4 -2q18 -10 18 -45q0 -19 -13 -20z
M475 730q3 -4 3 -8q0 -19 -38 -31q-3 -1 -28 -23q-3 -2 -6 -2q-9 0 -20.5 18t-10.5 26q2 10 21.5 28.5t32.5 20.5q18 -6 46 -29zM1335 160q-8 0 -20 17q-6 -29 -21 -29q-9 0 -13 14q-24 -17 -39 -22q-21 -7 -26 56q0 4 -5 39l-21 -32l-86 -38q-7 -3 -11 -15q-5 -16 -9 -21
q-6 -17 -17 -46q12 26 31.5 50t26.5 24q13 0 35 -25q6 -7 -1 -10l-14 -8q17 0 17 -5q15 -21 18 -21q15 0 37 12q5 3 9 -1l17 -15q8 -7 0 -13q-13 -12 -22 -22q-23 -25 -24 -38q-1 -21 -10 -23q4 1 -29 1q-14 0 -14 20q0 19 14 42q-22 -13 -32 -23q-6 -4 -12 -4q-18 0 -23 33
q-1 3 -2 3q-8 0 -18 -52q-5 -31 -66 -27q-22 -22 -30 -41q-9 -22 -27 -23q-7 -1 -10 4q-3 3 -7 0q-5 -2 -4 -10q2 -8 7 -12t5 -8q0 -9 -15 -17.5t-27 -8.5t-19.5 -10t-16.5 -10q-10 0 -19 12q-4 6 0 10q14 15 12 24q-2 14 15 28q3 3 3 7q0 5 -4 14.5t-4 13.5q0 9 9 9
q7 0 17 -5q-2 5 -20 8q-13 2 -27 4q-43 5 -43 37q0 6 -19 10q-8 1 -17 7t-14 6q-4 -5 -23 -24q-7 -7 -18 -7q-21 0 -47 19h-23q-20 -1 -27 16q-45 7 -110 5q-74 -2 -332 74q-14 20 -34 61q-5 16 -28 29q-4 1 -4 8l7 48q3 10 0 21q-5 13 -5 22q0 18 7 24t15 11q5 4 4 11
q-7 30 -7 46q0 8 -4 36t-4 35q0 3 -4 3q-3 0 -13.5 -3.5t-13.5 -1.5q-14 5 0 50q0 1 -3.5 -1t-5.5 -2q-4 0 -5 6t3 10l159 204q8 10 15 -2l21 -42q25 7 44 4q13 -1 31.5 -15.5t20.5 -27.5q0 -6 7 -4q13 4 16 4q16 0 53 -47q8 -16 6 -21q-4 -12 35 -12q5 0 10 -13q5 12 15 16
q5 2 3 4q-27 3 -61 26q-14 9 -14 17q0 9 21 17q-27 29 -27 46q0 10 34 17q30 7 60 7q19 0 23 -3q8 -5 9 -34q2 -36 3 -38q1 -5 8.5 -17.5t7.5 -20.5q0 -25 -31 -25q4 -2 11 -9q17 -15 31 -5q2 1 2 3t-5.5 10t-3.5 15q5 17 8 17t15 -7q23 -14 14 -36l2 -8q3 7 13 17q7 5 2 10
q-35 17 -35 33q0 13 17 30l-3 9l-19 -18q-6 -8 -11 0q-11 12 -25 43q-4 16 14 29t35 9q9 -2 11 -8l1 3q2 4 6 5q41 -11 41 -13q0 -12 -22 -32q0 -12 2 -20.5t26 -44t34 -45.5q4 -6 5 0q0 4 -1 16.5t-1 15.5q0 21 21 21q6 0 12 -2q10 -2 21.5 -33t9.5 -50q-2 -16 -23 -25
q58 -29 58 -39t-43 -10q-18 -26 -26 -26q-10 0 -23 35q-5 -11 -14 -27q-5 -6 -22 -8h1q5 -4 1 -10q-45 -82 -45 -85q0 -16 19 -21q11 -2 29 -46q35 -3 52 -17q13 -11 92 -23q4 0 6 -5q2 -12 5 -23q7 -26 23 -46q6 -8 10 -8q3 0 3 9q0 13 -6 40q-10 29 -10 39q0 14 10 23
q5 4 5 13q0 16 -16 43q-18 32 -18 34q0 7 8 14q2 3 2 7q0 8 -13 30t-15 31q-7 24 54 24q10 0 42 -6.5t39 -11.5q2 -1 7.5 -26.5t20.5 -31.5q13 -5 14 17q0 17 -1 34q1 7 8 7q2 0 46 -21q49 -23 47 -50q-1 -13 67 -22q8 -1 6 -17q19 13 27 13q13 0 41 -44q12 -27 5 -41
q-2 -5 6.5 -7.5t13.5 -1.5q4 1 15 9q7 5 17 4q15 -2 23 -22q8 0 19.5 -4t11.5 -22q0 -40 -16 -40zM104 306q-5 -4 -22 -13q-3 -1 -5 -1q-11 0 -11 15q0 20 14 17l19 -7q8 -4 5 -11zM82 242q-7 0 -13.5 14t-6.5 24q0 14 11 8q19 -11 19 -27q0 -19 -10 -19zM136 165
q10 -34 10 -40t-3 -6q-4 0 -12 9q-14 13 -28 39l-13 23q-4 0 -4 3q0 9 10 9q2 0 4 -1q16 -10 36 -36zM644 873q-2 1 -7.5 1t-5.5 2q0 5 -1 0q-2 -5 -2 -14q0 -11 1 -20q7 -28 10 -28q3 1 4 5q17 45 1 54zM732 949q1 10 -6 11q-7 2 -20 -3.5t-30.5 -24.5t-17.5 -29q0 -4 2 -5
q3 -5 8 -5q3 0 11.5 3.5t15.5 3.5q12 -1 12 -7q0 -4 -11 -14q-15 -14 -16 -16q8 -33 8 -25q0 -7 -5 -10q-7 -4 0 -17q9 -16 9 -19q0 -10 -23 -3l-7 -30q-2 -9 -10 -5q-12 5 -35 14q-15 2 -34 -10q-1 -6 -4 -20q-1 -4 7 -9t16 -5q7 0 14 17.5t14 14.5q17 -6 18 -32
q1 -6 11 -7q7 -1 21 0q17 1 20 1q10 0 17.5 9.5t6.5 19.5q-1 6 -6 6q-4 0 -17 -6t-18.5 -7.5t-8.5 -1.5q-6 0 -6 5q0 9 13 26q2 2 46 12q-11 0 -9 15q2 24 12 77q4 16 2 42q-2 27 0 34zM616 808q-24 14 -63 37q3 -38 31 -42q9 -3 23 0q14 2 9 5zM938 523q-28 15 -28 23
q0 15 26 15q8 0 16.5 -4t9.5 -4q3 0 3 8q1 13 1 14q0 8 -13 17.5t-25 10.5q-32 3 -57 35q-7 9 -39 23.5t-36 19.5q-2 2 -7 2q-11 0 -34 -14q-7 -6 -11 1q-6 11 -20 23q-3 1 -7 1q-12 0 -32 -12q-16 -11 -20 -17q-2 -4 7 -20q11 -19 12 -27t7 -8q3 0 17 4.5t24 4.5
q18 0 23 10.5t8 9.5q26 -16 67 -38q26 -10 26 -52q0 -10 -2 -17.5t-13 -23.5q-9 -11 -18 -23q-1 -4 -1 -8q9 4 21 22q1 4 9 4q9 -1 33 -16q8 -8 38 -17.5t44 -9.5q8 0 11 16q2 16 -3 23t-37 24zM1272 113q-8 3 -21 9q-3 -6 1 -15.5t8 -6.5q13 10 13 11t-1 2zM1194 161
q7 8 -1 10q-10 2 -28 -1q-1 1 -2 1q-3 0 0 -4q3 -5 8 -6q13 -11 23 0zM1212 132l-24 -3q14 -18 20 -10q2 6 4 13zM543 735q5 1 5 8q0 25 -14 34q-4 2 -5 -7v-9t-6 -7t-8 5l-19 32l3 17q-43 6 -43 -5q0 -6 1 -11q2 0 5 1t9 1q20 0 20 -13q0 -10 -9 -18q-3 -1 2 -6
q8 -9 13 -16.5t46 -5.5zM426 745q-10 -3 -24 -17t-15 -21q-1 -6 8.5 -16.5t14.5 -6.5q6 7 28 19q28 11 28 17q0 12 -40 25zM1335 206q-11 3 -19.5 3t-9 7.5t-10.5 15.5q-8 0 -14.5 -5t-10 -6t-7.5 -1q-12 0 -23.5 8.5t-11.5 17.5q0 3 1 6q5 8 -4 25q-18 36 -27 36
q-10 0 -33 -16q-4 -4 -8 -3q-5 2 -5 7q0 3 3 5q9 14 2 16q-72 6 -68 26q-3 22 -44 43q-3 1 -14.5 8.5t-15.5 7.5t-6 -28.5t-18 -28.5q-4 0 -9 2q-15 6 -25.5 34t-13.5 30q-26 15 -64 15q4 0 -16 1q-14 1 -22 -1.5t-6 -10.5q3 -9 15 -36q11 -22 11 -32q0 -6 -3.5 -10.5
t-3.5 -6.5q0 -3 7 -10t11 -13q15 -29 15 -53q0 -14 -7 -22t-7 -14q0 -7 6.5 -27t6.5 -34q0 -45 -15 -45q-6 0 -14 11q-29 37 -37 77q-82 13 -94.5 23.5t-48.5 16.5q-5 0 -7 5q-6 19 -20 40q-31 7 -31 34q0 26 43 89l-15 11q-5 4 -3 10t9 5q27 -7 35.5 1t18.5 42q1 7 8 7
q7 -1 7 -8q10 -44 17 -44q5 0 14 23q3 6 8 3q21 -7 21 -2q0 1 -3 5q-16 14 -57 25q-7 2 -6 8t9 6.5t14 2.5q15 5 16 15q2 14 -6 41t-16 29q-11 4 -11 -4q0 -53 -13 -53q-3 0 -7 2q-11 5 -39 49q-27 41 -29 51q-6 14 -7 31q0 3 3 5q26 10 21 17q-8 6 -19 4l-9 -15
q-2 -5 -6 -8t-7 -2q-2 0 -1 5q2 16 -8 18q-10 3 -20.5 -3.5t-9.5 -16.5q4 -13 17 -29l22 21q3 4 6 4q5 0 7 -7l7 -26q4 -5 -2 -8q-18 -10 -18 -17q0 -10 31 -25q8 -10 8 -19q0 -11 -11 -18t-13 -21q-1 -7 -7 -8q-5 -1 -8 6l-11 26q-1 2 1 6q8 11 0 17.5t-9 3.5
q-1 -7 3 -17.5t4 -13.5q0 -5 -4 -8q-29 -14 -51 4q-11 10 -12 19q-4 6 1.5 13t11.5 4q7 -6 12 8q2 3 2 7q0 6 -7 15.5t-8 14t-1 34.5q1 25 -6 30.5t-49 0.5q-43 -4 -43 -15q0 -14 31 -39q5 -5 4 -9q-1 -5 -8 -5q-20 1 -20 -5q0 -3 7 -7q24 -17 57 -21q5 0 6 -3q5 -8 5 -15
q0 -11 -12.5 -16t-11.5 -35q1 -8 -8 -8t-8 8q3 32 -4 32q-13 0 -31 6q-21 8 -18.5 16t-4.5 16q-28 41 -40 41q-28 0 -27 -1q-11 2 -12 16q-1 10 -14.5 19t-23.5 10q-14 1 -44 -5q-7 -1 -10 4l-18 35l-145 -186q10 -4 6 -14q-3 -9 -5 -17q-4 -12 1 -14q3 -1 22 3q13 2 13 -6
t4.5 -40.5t4.5 -40.5q0 -14 5 -42q4 -21 -10 -28t-14 -22q0 -9 5 -24q3 -12 0 -24q-8 -27 -8 -40q27 -18 33 -35q8 -24 28 -54q250 -72 322 -70q76 1 118 -8q4 -2 6 -6q3 -7 12 -7q21 2 32 0q22 -22 36 -22q6 0 10 4q10 14 30 29q6 1 17 -4q15 -7 22 -8q31 -8 31 -25t30 -23
q18 -4 54 -14q7 -2 5 -9l-4 -15q-6 -16 -12 -4q-9 12 -11 12t-2 -2q0 -6 5.5 -17t5.5 -15q0 -5 -9 -12.5t-8 -16.5q1 -5 -10 -29q6 -1 8 1q10 11 16 13q-3 -1 15 -1q6 0 16.5 5t10.5 10q-1 2 -2 3q-10 8 -10 16q0 10 14 26q1 -3 17 -4q8 1 15 15q4 9 35 47q3 5 8 3
q48 -11 53 13t16.5 46t20.5 22q3 0 5 -3q3 -12 5 -23q4 -15 10 -15q2 0 4 1q15 12 45 28q6 4 11 0q4 -4 0 -10q-17 -33 -17 -47q0 -7 6 -7q21 0 14 -1q5 1 6 11q2 23 44 65l-8 6q-40 -17 -56 -8q-17 9 -17 26l-18 -6q-7 -2 -10 3t2 10l22 21q-8 12 -16 12q-12 0 -62 -89
q-4 -7 -10 -5t-5 10q6 30 25 79q4 6 10 24q4 12 15 17q33 14 81 34l28 52q3 6 8 6q5 -1 6 -8q4 -20 10 -64q1 -15 2.5 -30.5t10.5 -12.5q14 5 36 28q6 5 11 3q6 -2 2 -8q-8 -18 -2 -14q11 8 14 33q0 7 7 8q6 1 7 -6q2 -30 8 -24q12 14 12 27q0 4 -4 5zM91 310l-13 5
q-8 -11 -1 -15q7 -5 14 10zM79 252q3 -1 4 3q1 3 -1 9t-5 11t-6 3q-2 -3 -5 -5q4 -9 13 -21zM135 133q-1 7 -6 28q-1 2 -25 26q8 -19 31 -54z" />
    <glyph glyph-name="dollar" unicode="$" horiz-adv-x="1995" 
d="M1738 516q-3 -12 -12 -12q-10 0 -24 12l17 36v14q23 -24 19 -50zM1851 186q-4 9 -31 22q-24 6 -43 18q-11 6 -39 41q21 -4 37 -10q40 -12 51 -26q16 -21 25 -45zM1654 287q0 -15 -17 -48q-7 0 -26 13q-13 12 -13 32q0 -4 3 -4q9 0 43 40q10 -19 10 -33zM1925 -44l-3 -20
q0 -6 -3 -10q-7 -12 -28 -8zM1861 25q-21 -36 -80 -41q8 6 8 13q0 9 -19 15q-12 3 -27 3q-6 0 -64 -11q-13 -3 -28 -3q-10 36 -7 69q1 21 17 34q23 17 26 21q12 19 45 54l31 -6q-10 -8 -10 -17q0 -10 14 -19q7 -4 12 -4q16 0 19 30q67 -85 67 -125q0 -8 -4 -13zM1058 733
q-1 -6 -19 -15q-13 1 -30 0q15 15 27 15h22zM1798 700h-28q7 -13 7 -19q0 -15 -30 -11q8 -7 26 -28q9 -11 8 -20q-7 4 -28 15q-14 8 -31 46l-14 -10q-52 -8 -52 -10q0 -6 12 -16l19 -17l5 17q16 -24 12 -43l-22 -28q-8 5 -17 -8q-3 -2 -3 -6q0 -11 20 -28l-10 -13l-21 31
l-24 12l-13 -20q8 -15 32 -41q7 -4 7 -11q0 -6 -5 -18t-6 -18q-5 -21 -39 -36q-16 -6 -32 -20q3 -8 17 -32q3 -5 3 -9q0 -11 -13 -19l-35 22l-2 -22q6 -7 25 -26q11 -11 7 -53l7 -25q7 0 34 -3q18 -2 13 -19l-59 17q-18 20 -50 64q-2 3 -3 5q0 9 45 -19l-17 31l-18 63
q-12 13 -35 44q-5 8 -11 8q-12 0 -29 -24q-15 -19 -44 -71q-18 40 -52 106q-12 19 -75 35q-20 5 -42 28q-1 -31 14 -41q2 -1 24 -10q16 -6 23 -20q11 -22 -90 -51l-53 124q-5 -6 0 -60q4 -54 85 -86q-9 -25 -40 -70q-39 -34 -39 -67q0 -6 3.5 -16t3.5 -16q0 -13 -10 -25.5
l-18 -22.5q-9 -13 -28 -50q-13 -29 -26 -51q-7 -11 -50 -4q-7 25 -25.5 78t-7.5 85q4 10 4 21q0 27 -16 52q-11 16 -14 39l-29 16q-9 -2 -20 -2q-42 0 -82 33q-12 10 -12 27q0 55 111 165q49 2 98 3l-7 -18l42 -18l21 7l64 -2l19 28h-41l-9 31l-31 -31v31q0 20 -25 24
q9 -25 0 -38l-26 38l-47 -16q-12 -25 -37 -25q-28 0 -28 12t65 29l6 26l64 30q30 1 56 -3q17 -3 19 10q1 5 -1 14l-48 -8q-6 8 -6 15q0 6 6 10q12 7 113 53l41 -23q8 -5 3 -6q-4 -1 -14 1q-4 0 -9 1l10 -14q25 11 78 23q27 2 33 5q-1 -20 15 -20q17 0 8 28l80 25
q10 -6 54 -22q30 -9 47 -6l30 3q11 -6 43 -20q6 -3 16 -3q20 0 47 9q60 -14 76.5 -14t27.5 -18zM1054 684l-11 -24l-24 -13l17 34zM996 650q-8 1 -19 -1l39 24q6 -5 6 -10q0 -12 -26 -13zM1228 180l-20 -96q-27 2 -27 17q0 3 1 7q3 9 10 21q4 7 2 14q-2 12 -5 22zM615 724
q0 -5 3 -13.5t3 -10.5q0 -3 -5 -3q-16 0 -47 27q-43 38 -46 39q-19 12 -55 28l126 -5q12 0 20 -23q11 -7 11 -16q0 -5 -5 -11t-5 -12zM505 716q-16 2 -45 12l-7 30l-25 11q28 -7 60 -18q24 -28 24 -32t-7 -3zM539 422h-41q-1 14 18 14t23 -14zM443 456q23 11 35 2
q17 -13 17 -24q-1 -2 -3 -2q-3 0 -49 24zM737 253q7 -3 7 -11q0 -5 -21 -48q-6 -22 -25 -62q-12 -16 -56 -37q-3 -18 -3 -31q0 -7 -21 -21q-29 -20 -38 -29q-22 -21 -94 -86q5 39 5 58q0 39 27 161q4 14 -14 43q-36 57 -36 59q-7 12 -7 28q0 34 27 72l-30 6q-10 6 -34 28
q-24 28 -58 28t-50 49q-4 17 -36 54l12 -46l-23 25q2 28 -23 59q-12 14 -12 35q0 22 12 46q-64 77 -75 77q-32 0 -72 -29q0 -3 16 29l25 16q-5 17 7 20t13 19q9 0 45 -2q112 -7 117 -7q14 0 15 5.5t7 3.5q14 -2 26 -14l-36 -8h45q22 0 25 13l34 -23q-21 -18 -43 -38
q0 -12 48 -22q21 -5 25 -24q-2 52 -2 67q0 4 2 4q6 0 23 -20l22 -8q17 -12 53 -37q4 -3 4 -5q0 -8 -44 -8q-14 0 -15 -17l35 -8l-20 -5q-14 -9 -43 -38q-24 -32 -19 -58q2 -6 16 -29q5 -7 -16 -7q-5 0 -24 41q-35 -3 -71 -7q-8 -7 -2 -66q1 -12 17 -12q15 0 38 9l-2 -38
l25 4v-36l46 -15q47 14 72 14q37 0 34 -42q7 -3 39 -12q13 -4 13 -15q0 -10 -10 -24h29q18 0 69 -28z" />
    <glyph glyph-name="percent" unicode="%" horiz-adv-x="1149" 
d="M1064 384q0 -209 -149 -358t-358 -149q-210 0 -358 149t-148 359q0 209 148 356t358 147q209 0 358 -147.5t149 -356.5zM469 864zM214 216q-56 114 -53 271q-28 3 -80 11q-10 -47 -13 -114q-4 -102 49 -215zM644 180q-67 -31 -118 -69q66 -61 161 -120q21 22 53 36
q-23 34 -92 153h-4zM996 602q-78 154 -235 228q-25 -46 -46 -72q109 -86 178 -205zM745 836q-89 36 -188 36q-40 0 -70 -4q-3 -7 -7 -19q115 -15 219 -81q32 42 46 68zM1047 384q2 50 -19 130q-20 74 -23 71q-21 -11 -100 -51q56 -123 48 -274q38 -3 71 -11q20 56 23 135z
M876 545q-25 48 -99 126q-68 72 -71 69q-25 -30 -84 -91q80 -84 121 -172q136 63 133 68zM686 751q3 4 -77 39q-87 39 -135 44q-4 -10 -25 -42q-1 -2 -3 -4q89 -53 158 -122q47 40 82 85zM931 263q6 144 -45 258q-32 -13 -135 -64q15 -18 34 -112q18 -89 19 -89q125 7 127 7
zM590 655q-61 62 -156 122q-13 -15 -41 -32q22 -41 84 -162q27 14 71 42t42 30zM469 864q-144 -25 -247 -124q26 -5 52 -5q66 0 118 30q57 35 77 99zM720 468q-42 92 -116 170q-1 2 -45 -29q-51 -36 -71 -46q28 -55 85 -167q2 -3 75.5 33.5t71.5 38.5zM1020 232q-8 3 -68 8
q-13 -108 -71 -205q3 -1 9 -3.5l6 -2.5q97 99 124 203zM460 571q-41 83 -83 165q-3 -1 -56 -12q0 -115 10 -195q45 11 129 42zM779 246q-15 117 -49 202q-52 -24 -149 -71q-4 -2 79 -166q2 -3 48 12q58 20 71 23zM928 242q-32 1 -77 -2q-48 -4 -47 -9q5 -71 1 -188l56 -2
q8 -2 6 -2q49 85 61 203zM552 385l-84 164q0 1 -45 -15q-53 -18 -90 -23q17 -121 58 -208q163 77 161 82zM787 41q3 85 -7 187q-25 -6 -67.5 -20.5t-41.5 -18.5q84 -165 84 -156q12 5 32 8zM310 522q-8 59 -8 198q-35 -4 -73 4q-19 -48 -36 -137q-16 -83 -12 -83
q42 -1 129 18zM642 199q-27 56 -80 165q-2 2 -166 -79q38 -84 117 -161q51 39 129 75zM208 727q-88 -90 -124 -213q51 -9 76 -10q8 111 48 223zM884 15q-29 10 -61 10q-61 0 -110 -34t-59 -89q0 1 8 1q124 27 222 112zM369 293q-41 90 -57 212q-83 -19 -123 -19q-2 0 -9 1
v-7q-2 -136 55 -254q136 62 134 67zM675 -20q-87 53 -164 120q-39 -31 -78 -81q-1 -2 -6 -9q105 -63 208 -87q7 -2 7 -1q4 14 33 58zM500 113q-81 77 -125 162l-132 -67q56 -108 169 -188q3 4 7 8q25 30 81 85zM637 -100q-1 3 -1 8q-117 26 -218 86q-26 -38 -38 -69
q81 -32 177 -32q80 0 80 7zM400 7q-117 77 -179 190l-94 -44q81 -150 238 -221q13 37 35 75z" />
    <glyph glyph-name="ampersand" unicode="&#x26;" horiz-adv-x="1059" 
d="M493 1083l-6 -84q-1 -14 -13 -5l-69 62q-11 10 4 14l75 22q5 1 7.5 -1t1.5 -8zM997 588q0 -170 -121 -291t-291 -121t-291 121t-121 291q0 169 121 290t291 121t291 -120.5t121 -290.5zM740 76q-83 -24 -155 -24q-221 0 -377.5 157.5t-156.5 378.5q0 177 105.5 318
t270.5 192q7 2 9 -5q2 -8 -5 -10q-160 -50 -261 -185q-104 -138 -104 -310q0 -215 152 -367.5t367 -152.5q73 0 150 22q8 3 10 -4q2 -8 -5 -10zM764 123q11 -11 -3 -15l-75 -21q-5 -1 -8 1t-2 8l7 84q1 16 13 5zM631 8q0 -39 -47 -39q-44 0 -44 39q0 18 13 31.5t32 13.5
t32.5 -13.5t13.5 -31.5zM827 -160q6 -12 -8 -12h-469q-12 0 -7 12q24 56 91 91.5t151 35.5t151 -35.5t91 -91.5zM477 1073l-50 -13l46 -42zM982 588q0 163 -116.5 279t-280.5 116t-280 -116t-116 -279q0 -164 116 -280t280 -116t280.5 116t116.5 280zM743 120l-46 41l-5 -55
zM615 8q0 28 -30 28q-29 0 -29 -28q0 -22 28 -22q31 0 31 22zM806 -156q-25 49 -85 78t-136 29q-75 0 -135.5 -29.5t-85.5 -77.5h442z" />
    <glyph glyph-name="parenleft" unicode="(" horiz-adv-x="1166" 
d="M1093 453q0 -216 -153 -369t-368 -153t-367.5 153t-152.5 369q0 215 152.5 367.5t367.5 152.5q216 0 368.5 -152.5t152.5 -367.5zM1077 453q0 209 -148 356.5t-357 147.5q-208 0 -356 -147.5t-148 -356.5t148 -357.5t356 -148.5q209 0 357 148.5t148 357.5zM690 910
q0 -47 1 -23q0 -10 -10 -10q-4 0 -10 1q-26 8 -24 32q20 9 32 9q11 0 11 -9zM631 835q-18 13 -34.5 25t-35.5 15q-13 -1 -25 -1q-11 0 -19 12q-12 20 -27 24l-68 -4q58 39 99 32q29 -2 58 -3q26 -2 29 -21q1 -13 17 -44t16 -36q0 -2 -2 -2t-8 3zM430 871q-53 -4 -79 0
q-8 1 -8 5q0 7 28 22zM730 512q-14 -10 -47 -28q-18 -7 -23 4l11 31zM647 508q-16 -27 -48 -27q-17 0 -65 23q38 15 58 8q18 -7 36 -4q22 14 22 7q-1 -3 -3 -7zM1025 377q19 0 19 -10q0 -5 -10 -30q-11 -29 -15 -54q-8 -44 -39 -78q-13 -13 -56 -48q-30 -23 -68 -99
q-8 -17 -39 -18q-38 -1 -52 -10q-9 -6 -35 -16q-17 -7 -28 -22.5t-41 -20.5q-34 -6 -42 -12q-28 -23 -71 -7q-5 2 -5 4q0 5 19 16q32 18 33 19q18 12 65 51q14 13 16 54q-1 -29 -1 68q0 26 -33 51l-66 44q-14 10 -14 28q0 31 38 75q-48 -7 -71 12q-8 7 -17 25q-4 10 -22 10
q-14 0 -27 7.5t-20 7.5q-5 0 -14.5 -3t-15.5 -3q-10 0 -26 11.5t-28 11.5q-17 0 -23.5 17t-11.5 34q-8 18 -44 67l13 -64l-44 21q0 20 -4 63q-1 5 -7 24q-5 14 -5 34q0 55 30 55q5 0 10 -3t5 5q0 19 -29 94l-84 -52l76 71l43 52q31 -5 63.5 -5t55.5 -11l31 8l16 24
q22 -3 39 -6q42 -9 56 -21q6 -5 6 -8q0 -5 -23 0l-46 8q-4 -8 -10 -13q-14 -14 -33 -16q-8 -1 -8 -5q0 -7 32 -29q34 -25 37 -30.5t5 -5.5q3 0 0 29q-4 40 -4 46q0 9 3 9q2 0 13.5 -9t22.5 -12q6 -1 11 -1q15 0 13 16q18 -8 72 -20q17 -2 29 -14.5t12 -24.5q0 -17 -18 -17
t-31 26l-44 -24q17 -5 63 -17q10 -2 10 -7t-15 -16q-21 -15 -26 -20t-8 -5q-9 0 -4 32q-10 -6 -36 -42q-14 -30 -31 -90q3 -24 3 -52q0 -9 -2 -9q-8 0 -28 44q-28 -2 -91 -12q-25 -5 -25 -16q0 7 9 -48q4 -24 25 -24q13 0 37 11l40 18q8 4 13 4q6 0 6 -7q0 -5 -6.5 -25.5
t-4.5 -30.5q1 -12 6 -12q7 0 18 16l11 -48l64 8q13 14 26 25q30 25 52 30q9 2 16 2q8 0 17 -4t15 -4q5 0 12 2q21 6 94 -8q70 -13 94 -42t87 -29z" />
    <glyph glyph-name="parenright" unicode=")" horiz-adv-x="1135" 
d="M1056 480q0 -216 -153 -369t-368 -153t-368 153t-153 369q0 215 153 367.5t368 152.5t368 -152.5t153 -367.5zM1040 480q0 209 -148 356.5t-357 147.5t-357 -147.5t-148 -356.5t148 -357.5t357 -148.5t357 148.5t148 357.5zM469 891q5 -4 5 -8q0 -7 -30 -17
q-44 -14 -60 -22q-22 -11 -42 -11q-5 0 -15.5 1t-15.5 1q-15 0 -31 -6q-5 -2 -8 -2q-1 0 -1 1q0 6 77 56l-47 4q-22 -22 -84 -63q-7 -4 -10 -4q-1 0 -2 2q0 7 45 49q13 10 27 19q32 21 60 29q39 11 130 35l-12 -20q-3 -25 14 -44zM1022 434q0 -59 -3.5 -85t-31.5 -17l-4 -28
l23 4l-35 -24l-43 44l7 20l-4 63q-13 15 -31 15t-36 16q-21 -51 -55 -134q-2 -5 -5 -5q-11 0 -43 53q-37 66 -38 66q-8 10 -22 10q-8 0 -23 -4q-19 -5 -26 -6q-26 -3 -103 28q4 -8 24 -36q6 -8 15 -8q13 0 28 13l36 -24q-6 -12 -24 -39q-23 -30 -99 -52l-86 146
q2 -18 12 -55q7 -18 37 -56q32 -42 46 -46q17 -8 50 0q0 -5 -3 -28q-2 -10 -35 -26q-41 -20 -58.5 -37.5t-17.5 -32.5q0 -8 7.5 -26.5t9.5 -32.5q2 -23 -8 -24q-20 -2 -25 -6q-9 -8 -11 -18q-3 -15 -20 -38q-11 -15 -26 -15q-27 0 -97 71q-25 26 -44 84q-16 47 -19 85
q-6 64 -62 75q-35 6 -49 25q-17 21 -31 81q-2 9 -2 17q0 69 112 129l88 -15q13 -3 13 -7q0 4 -13 -25q-2 -4 -2 -8q0 -11 17 -23q28 -17 32.5 -21.5t9.5 -4.5q12 0 18 24l83 -19l19 40l-71 28q19 16 47 16q14 0 30.5 -5t21.5 -5q17 0 17 9q0 8 -18 21.5t-34 18.5
q-26 7 -60 -39l-28 -27q-8 27 -28 78q-2 4 -3 5v-1q0 -7 12 -48l-36 -15l13 28q-32 48 -34 48q-18 0 -46 -37l-48 8l29 52q10 -7 39 -21q9 -4 9 9t-9 39h31l-4 31l-27 -3l67 39l-20 -39l13 -20l35 8l39 -24l47 87q-8 -4 -15 -9q-15 -13 -21 -31q-7 -26 -30 -28l-17 20
q-10 14 0 36q8 15 29 22t42.5 14.5t29.5 6.5q2 -1 26 -11q9 -4 17 -11q5 -5 9 -5q5 0 22.5 11.5t23.5 12.5q3 0 26 -5q12 -2 13 4l7 28q4 16 27 47q9 7 12 7q1 0 4.5 -7t11.5 -11q4 -3 7 -3q11 0 9 26l-4 59q26 -15 75 -47q23 -15 60 -55q15 -6 54 -35q22 -22 44 -71l35 -44
l-39 11q4 -12 9 -22q12 -22 26 -25q23 -3 71 -147v-30l-27 39l-12 43l-28 -62l28 -20q-17 -70 -20 -70q-6 0 -15 15v-28l11 -48q15 8 32 24q3 19 31 75zM568 80q0 -13 -11 -20q-18 -6 -36 -13q-3 -1 -5 -1q-5 0 -5 6q0 15 27 58q8 -4 16 -9q14 -10 14 -21z" />
    <glyph glyph-name="asterisk" unicode="*" horiz-adv-x="1108" 
d="M23 643q57 144 185 233.5t287 89.5q211 0 360 -149t149 -360q0 -21 -2 -42q-27 16 -54 16q-20 0 -34 -11q-31 -23 -24 -73q26 -23 55 -19q24 4 42 11q-41 -154 -141 -248q0 4 -11 9q-33 -5 -118 -27q-22 -12 -88 -31q-19 -3 -49 -17q-24 -13 -46 -13q-48 0 -58 -3
q-30 -10 -39 -56q-190 22 -319.5 166.5t-129.5 337.5q0 44 8 87q-2 -13 0 -21q9 -25 33 -62q28 -42 53 -64q30 -26 136 -75l-9 -28q6 -18 13 -33q16 -37 34 -53q30 -25 79 -166q9 34 9 71q0 19 12.5 43t12.5 47q0 40 5 104q-24 7 -82 40q-17 12 -44 12q-25 0 -51 -10l-42 15
q-23 14 -23 42q0 13 13 13q16 0 43 -16q-2 6 -17 34q-2 4 -2 8q0 12 17 33q28 35 28 36q11 16 11 40q0 37 -20 62q-6 7 -12 7q-11 0 -19.5 -21t-8.5 -38t-9 -17q-15 0 -37 33q-4 6 -4 13q0 30 82 53l-65 35q6 14 13 24q16 25 37 27q22 3 36 -30q15 -36 30 -71q7 -15 14 -15
q11 0 23 38q16 49 19 54q18 30 19 93q-46 -9 -81 -17q-84 -19 -105 -34t-26 -48q-5 -45 -10 -56q-14 -29 -16 -29t-3 24q-4 14 -20 14t-39 -12zM1020 457q0 -215 -154.5 -369t-370.5 -154t-369.5 153.5t-153.5 369.5q0 217 153.5 371t369.5 154q217 0 371 -154t154 -371z
M907 718l-35 -4l-26 -27l13 -26l-42 11l25 -80q-23 -23 -23 -41q0 -5 2 -10q9 -21 25 -90q-15 14 -26 28q-28 31 -34 54.5t-23 23.5q-6 0 -12 -3l-14 -68q-17 16 -64 59q-6 6 -12 6q-16 0 -30 -32q-11 -23 -15 -47q-2 -13 8 -13q7 0 19 7q3 -42 3 -93q0 -54 -56 -147
q-34 58 -86 154q-13 29 -17 29q1 0 -21 -12q-9 -4 -16 -4q-9 0 -23 9q-23 14 -31 18q-12 6 -12 18q0 13 18 42.5t18 37.5q7 25 92 16l43 36l-38 -7q-20 2 -69 7q-28 4 -61 -16q30 27 27 47q-4 21 -31 52l35 -34q15 9 55 27q13 3 13 12q0 6 -6.5 20.5t-8.5 23.5q-2 5 -4 6
q-7 0 -11 -55l-42 5q6 30 34 92q9 12 18 12q3 0 13 -3.5t18 -3.5q10 0 20 4h47v29l30 -8q11 21 20 38q23 40 38 49q5 3 11 3t26 -9t40 -9q41 0 35 24q22 2 63 -35q34 -32 80 -123z" />
    <glyph glyph-name="zero" unicode="0" horiz-adv-x="705" 
d="M565 -127q1 -7 -7 -7q-267 -9 -510 2q-7 0 -7 7l65 1056q0 8 7 8q56 -3 389 0q7 0 8 -8zM550 -119l-56 1043q-249 -6 -374 0l-64 -1041q231 -8 494 -2z" />
    <glyph glyph-name="one" unicode="1" horiz-adv-x="801" 
d="M670 -122q1 -9 -7 -9q-177 -15 -324 -6q-7 0 -8 5q-12 47 -42 80q-57 63 -61 69q-5 16 -39.5 91t-43.5 84q-6 28 -34 34q-20 27 -40 55q-16 24 -30 71l60 591q0 6 8 6q135 -12 479 -12q7 0 7 -7zM654 -115l-73 1036q-291 -2 -466 12l-59 -580q14 -43 28 -65l36 -50
q21 -5 27 -11.5t12 -27.5q12 -14 46 -87q30 -66 38 -88q9 -14 61 -69q29 -33 42 -78q138 -5 308 8z" />
    <glyph glyph-name="two" unicode="2" horiz-adv-x="1140" 
d="M1020 -73q4 -10 -8 -11q-338 -10 -365 -9q-2 0 -9.5 9.5t-7.5 7t-34 20.5q-42 29 -56 37q-18 47 -49 67q-41 20 -82 39l-21 11q-13 26 -39 207q-17 4 -20 8q-1 1 -7 21q-43 35 -43 55q0 14 16 30q0 5 12 47q11 39 9 69l-48 58q-4 4 -1 9l5 16q-11 16 -47 125
q-27 82 -70 101l-67 -30q-8 -6 -11 4l-26 79q-2 5 1 8t8 1q142 -33 354 -54q194 -19 360 -21q8 0 7 -7l-22 -499q-3 -82 35 -90q17 -25 103 -116q70 -75 92 -123zM241 380q12 -14 12 -25q0 -12 -13.5 -24.5t-28.5 -25.5q-5 -3 -10 -1l-17 13q-4 10 -16 27q-7 10 -7 20
q0 30 11 30t29.5 -5.5t32.5 -5.5q5 0 7 -3zM254 225l-12 -31q-5 -14 -14 0q-10 13 -19 26.5t-24 21.5q-3 4 -3 6l-3 39q-1 7 6 8q27 4 43 -18q12 -22 25 -44q2 -5 1 -8zM582 -137q-2 -5 -4 -6l-22 -7q-4 -1 -8 2l-23 26q-20 -1 -26 6q-3 3 -7 25q-6 -4 -12 -4q-9 0 -31 40
q-20 2 -20 18q0 8 5 16q-13 16 -21 20t-31 4q-44 25 -42 75q1 6 5.5 7.5t12.5 1.5q28 0 79 -22q46 -20 50 -30q4 -24 28 -49q22 -21 43 -43q1 -1 17 -40q11 -27 7 -40zM1000 -69l-26 58q-20 47 -87 119q-82 89 -101 115q-46 10 -42 102l23 490q-395 7 -697 73l18 -56l63 27
q4 2 7 1q47 -17 77 -105q39 -112 53 -131q2 -6 1 -8l-8 -21q0 -1 -1 5v4l50 -63q2 -30 -10 -75q-12 -40 -9.5 -47t-2.5 -10q-12 -11 -12 -21q0 -13 38 -44q3 -9 6.5 -15.5t17.5 -8.5q6 -2 6 -7q7 -52 14 -105q11 -73 22 -99l15 -7q72 -30 87 -41q31 -22 52 -73
q90 -59 90 -52q0 2 4.5 -6.5t7.5 -8.5q68 0 172 4q146 5 172 6zM230 368q-13 0 -27 4q-18 5 -24 5q-2 -7 -2 -12q0 -9 6 -17q10 -13 14 -23l8 -4q11 8 21 16.5t10 16.5q0 6 -6 14zM238 229q-8 16 -17.5 33t-25.5 18l2 -27q20 -11 35 -37zM568 -130q0 13 -10 34
q-13 30 -14 32q-22 22 -44.5 45t-27.5 50q-4 9 -48 26q-47 18 -68 15q1 -39 30 -54q30 0 37 -3.5t29 -29.5q6 -7 -3 -11q-3 -2 -3 -8t9 -6q5 -1 6 -3q3 -5 10 -23q5 -11 10 -11t12 5q10 7 12 -4.5t4.5 -21t19.5 -9.5q4 0 6 -2l23 -24z" />
    <glyph glyph-name="three" unicode="3" horiz-adv-x="817" 
d="M728 682l-297 -410l1 -380q0 -8 -9 -8l-369 2q-8 0 -8 8l-1 1046q0 7 8 8l365 7q4 0 6 -4q12 -22 12 -30t-5.5 -22t-5.5 -21q0 -3 11.5 -21t12.5 -40q7 -3 12 -3q9 0 17 36q3 4 8 4h14q7 0 8 -3l30 -69q18 -16 19 -19q4 -7 1 -28q15 -15 17 -19q4 -7 5 -26l20 -8
q43 25 69 25q23 0 56 -14q3 -1 4 -2q3 -3 -1 -9zM709 682q-22 9 -39 9q-24 0 -66 -25q-4 -2 -7 -1l-29 11q-3 2 -4 8q0 19 -2.5 24t-16.5 20q-2 2 -2 6q2 18 -2 24q-1 2 -16 15l-31 66h-2q-10 -43 -30 -43q-10 0 -24 8q-4 2 -4 6q-1 28 -15 51q-11 19 -8 27q9 27 9 29
q1 7 -8 23l-351 -8l1 -1030l354 -2l-1 376z" />
    <glyph glyph-name="four" unicode="4" horiz-adv-x="1290" 
d="M1195 320q2 -5 -2 -9q-8 -4 -23 -18q-25 -10 -49 -56q-19 -36 -19 -41q0 3 -6 9.5t-9 6.5q-31 5 -33 -32q0 -7 -5 -8q-13 -5 -21 2q-4 3 -5 13q-1 9 2 12v4q-3 5 -4 3q-7 -23 -26 -72q-2 -5 -6 -5q-3 0 -6 3q-7 3 -12 3q-11 0 -30 -27q-85 -32 -108 -77q-4 -4 -5 -4
q-4 -1 -42 -22q-31 -17 -47 -17q-9 0 -14 4l-8 14q-6 4 -17 20q18 -25 18 -33q0 -7 -15 -16q-4 -2 -61 -40q-5 -4 -11 2q-10 13 -17 13q-6 0 -29 -20q-27 -14 -31 -14q2 0 -14 7l-4 4l-15 10q-5 3 -6 0q-2 -5 -4 -5q-32 -4 -63 14t-41 48q-1 4 0 5q4 6 8 43q4 39 0 44
q-3 4 -4 2q-12 -7 -23 -7q-23 0 -39 28q-15 25 -15 56q0 15 5 27l-17 13q-2 2 -2 7v335q-10 10 -33 28q-5 12 -27 33q-25 25 -39 25q-6 0 -10 -6q0 -12 -3 -14.5t-18 -4.5q-5 1 -10 1q-9 0 -23.5 -10t-27.5 -12l-29 -15q-6 -2 -9 1l-34 32q-9 8 3 13l96 43l36 43v109
q0 8 8 8h42v19q0 7 8 8l102 3q6 1 8 -5q5 -36 34 -36q15 0 39 10q18 8 35 15q11 -4 17 -4q5 0 12 13.5t31 11.5q38 29 80 36q4 0 8 -5q1 -4 4 -14q23 -10 70 -23q53 3 53 -33q0 -4 -1 -11v-10q0 -20 18 -20q11 0 30 5q56 63 105 60q6 -1 8 -5q3 -4 -2 -8q7 3 28 7q4 0 6 -2
t9 -10h6q9 0 9 -8v-4q0 -7 -1 -7q6 -1 6 -34q0 -77 -33 -76q-6 0 -8 -5q-24 -43 -29 -51q-15 -22 -42 -42q10 0 32 4t32 4q32 0 42 -32q2 -3 -1 -8q-15 -18 -15 -29q0 5 6 -27q21 -15 48 -69q-4 -12 -4 -22q0 -17 13 -37q16 -24 19 -36q18 0 59 6q6 -3 18 -12q9 -7 14 -7
q7 0 17 7q12 1 36 -5.5t27 -14.5zM926 823zM1175 315q-11 9 -39 9q-14 -9 -21 -9q-6 0 -13 7q-11 10 -20 15q-20 -1 -61 -9q-7 -4 -9 6q-4 20 -20 43t-16 40q0 10 3 22q-22 44 -44 60q-2 3 -3 5q-7 42 -7 36q0 13 17 34q-9 21 -30 21q-10 0 -34 -6t-36 -6q-8 0 -14 2
q-17 4 -2 14q34 24 51 47q7 10 30 54q9 17 16 14q3 -1 7 -1q17 0 17 40q0 28 -5 46q-2 6 -2 11l-12 11q-11 -2 -33 -11q-8 -3 -13 -1q-6 3 -4 10l3 7q-37 -9 -81 -57q-27 -7 -44 -7q-32 0 -32 35v4v4q0 34 -34 31q-27 11 -81 26q-6 6 -7 15q-23 -7 -63 -33
q-27 3 -31.5 -10.5t-13.5 -13.5q-7 0 -21 4q-62 -24 -81 -24q-37 0 -45 39l-89 -5v-19q0 -9 -8 -9h-42l-1 -107l-42 -48l-87 -40l20 -20l27 13q12 2 29 12.5t27 10.5q5 0 10 -1q4 1 4 7q9 18 26 18q20 0 48 -27q22 -21 31 -38q7 -8 31 -25q4 -4 4 -7v-336l18 -14q5 -5 2 -12
q-7 -11 -7 -30q0 -24 10 -42q11 -21 27 -21q10 0 21 9q6 4 12 0q2 -2 9 -8q4 -5 2 -47q-2 -39 -6 -55q8 -21 30.5 -35t46.5 -15q2 10 17 10q27 0 32 -19q8 -4 27 7q31 25 41 25q9 0 22 -17q16 10 54 36q7 4 7 8q0 -1 -19 26q-3 4 0 10q15 14 39 41q4 4 7 4h1q8 0 7 -8
q0 -7 -13.5 -19t-13.5 -17q0 -8 15 -14l13 -14q4 -4 11 -4q15 0 74 40q22 40 110 77q23 32 39 32q6 0 13 -3q10 21 27 66q-32 34 -39 71q0 5 2 7l3 3q2 1 11 -13q14 -26 51 -79l1 -19q6 50 51 42q6 -2 6 -8q0 4 18 35q23 40 46 50q2 4 15 11z" />
    <glyph glyph-name="five" unicode="5" horiz-adv-x="1317" 
d="M1207 180q-9 -44 -17 -89q-10 -49 -34 -74q11 -35 7 -67q0 -1 -4 -5q-50 -29 -63 -29q-8 0 -8 8q0 12 23 64l-8 29q-17 -26 -28 -26q-8 0 -21 13q-5 -65 -26 -65q-5 0 -10 3q-6 -5 -43 -35q-25 -20 -37 -40l-24 -11q-5 -2 -7 0l-48 25q-5 2 -5 6q-5 54 13 88q0 1 -17 49
q-14 39 -14 74q0 32 12 66q-36 11 -36 26q0 -2 10 44q-10 17 -10 33q0 24 26 53q25 25 49 51q6 8 12 -0.5t8 -24.5t9 -27q2 -6 1 -8q-8 -17 -10 -38q0 -9 -22 -24q5 -27 22 -75q13 37 47 37q17 0 29 -14l8 -18q31 5 50 28q41 19 63 19q30 0 48 -27q4 -8 -2 -11l-13 -10
q5 -15 14 -15t25.5 14t21.5 14q4 0 7.5 -3t1.5 -8zM840 324q-6 -8 -12 -2l-45 39l-344 -183q-7 -3 -11 2q-15 17 -16 31q-1 23 -3 30l-32 15q1 -8 17.5 -32t18.5 -44q15 -18 15 -28q0 -15 -27 -15q-26 0 -70 12q-18 24 -81 59q5 -17 -8 -49q-6 -12 -14 -2q-33 31 -93 103
q-16 65 -16 79q0 15 5 28t13 1l6 -7q-1 38 0 39q3 13 29 14q4 -1 6 -2q9 -11 25 -11q30 0 62 29t32 61q0 16 -10 30q-48 38 -55 52q-6 10 -17 75l-27 16q-15 -8 -24 -8q-16 0 -22 25q-6 29 -11 57l-31 14q-7 3 -4 10l5 11q-45 110 -45 139q0 7 4 9t9 -3q11 -11 27 -17
q12 -7 20 -16q13 -11 14 -12q2 -4 -4 -24h5q4 0 6 -6q13 -39 20 -39q1 0 6.5 2t9.5 2q6 0 12 -3q7 5 15 5q13 0 23.5 -11.5t10.5 -26.5q0 -6 -2 -11l18 -7q5 -3 3 -10l-3 -17q10 3 17 3q24 0 31 -39l3 -1q18 6 79 -15q8 -3 5 -11q-4 -9 -4 -17q0 -24 29 -42q22 -14 46 -17
q8 -4 8 -8q0 -8 9 -20q10 -15 23 -15q9 0 18 8q7 4 21 4q13 0 54.5 -5.5t67.5 -6.5q8 0 8 -7q0 -14 -12 -33t-15 -33q-28 -22 -36 -38q-5 -9 -13 -47q18 7 22 41q18 25 36 51q17 21 32 21q19 0 48 -28q4 8 1 36q0 8 7 8q34 0 70 -38q0 -21 9.5 -32.5t9.5 -14.5q0 -7 -10 -22
q62 -4 62 -19q0 -9 -36 -66zM1191 169q-34 -19 -44 -19q-20 0 -28 29q-1 5 2 8l14 10q-13 14 -32 14q-16 0 -52 -16q-14 -18 -19 -21q-12 -8 -46 -12q-8 0 -9 5l-7 20q-8 9 -17 9q-13 0 -23.5 -13.5t-8.5 -26.5q0 -8 -4 -10q-5 -2 -10 3q-23 21 -38 102q-1 3 3 7
q18 13 19 15t4 22q1 8 6 19q-2 13 -10 37q-21 -20 -43 -40q-22 -24 -22 -44q0 -14 9 -28q-6 -47 -6 -38q0 -15 30 -23q9 -3 5 -10q-11 -35 -11 -69q0 -36 14 -78.5t14 -50.5q-14 -28 -11 -77l41 -21l17 6q13 21 39 42q38 31 43.5 37.5t9.5 0.5q4 -3 7 -3q12 0 12 71q0 7 5 9
t8 -4q14 -18 23 -18q5 0 25 26q10 13 14 -2l13 -49q-21 -47 -21 -51t3 -4q8 0 38 23q2 28 -8 61q-2 6 1 9q26 23 37 66q7 39 14 77zM832 341q20 32 20 38q0 11 -52 16q-15 1 -6 11q15 22 15 29q0 3 -8.5 11.5t-9.5 25.5q-21 21 -46 27q5 -20 -8 -43q-5 -11 -12 -2
q-28 27 -44 27q-12 0 -26 -18q-14 -21 -29 -43q-8 -51 -46 -51q-10 0 -8 9q10 52 14 60q7 16 40 43q2 11 11.5 25.5t10.5 23.5q-25 1 -62 7t-47 6q-11 0 -17 -3q-13 -13 -26 -13q-31 0 -48 46q-29 6 -53 24q-30 22 -30 51q0 8 2 15q-17 8 -33 9t-19 1.5t-14 1.5l-11 3
q-4 1 -6 6q-5 29 -22 29q-5 0 -22 -5q-6 -2 -9 0.5t-1 8.5l6 25l-18 8q-7 2 -4 10q3 6 3 12q0 23 -16 23q-4 0 -9 -4.5t-11 -2.5q-11 6 -20 6q-4 0 -9 -1.5t-6 -1.5q-8 0 -21 41h-11q-14 0 -7 12q5 10 5 17q0 10 -12 17t-15 9.5t-12 7.5q6 -35 44 -118q1 -4 0 -7l-3 -7
l26 -10q4 -2 4 -6q5 -25 10 -48.5t16 -23.5q6 0 14 5q4 2 8 0l34 -20q3 -8 3 -6q11 -62 18.5 -74t53.5 -48q14 -18 14 -40q0 -39 -35 -73t-72 -34q-23 0 -39 14q-15 -1 -15 -12q0 -2 2.5 -18t1.5 -31q0 -7 -4 -10q-5 -2 -10 4l-10 12q-1 -15 5 -36.5t12 -40.5q14 -21 39 -46
q32 -32 42 -43q8 21 -8 47q-5 6 0 10q4 4 10 0q29 -16 58 -33q33 -20 48 -42q5 0 26 -4t30 -4q11 0 11 6q0 5 -10 15q-1 23 -18 51.5t-17 37.5q0 18 12 14l46 -24q4 -9 5 -28q1 -14 12 -28l343 183q4 3 10 -1z" />
    <glyph glyph-name="six" unicode="6" horiz-adv-x="1150" 
d="M1024 630q-53 -17 -158 -50q-42 5 -50.5 11t-29.5 43q-2 21 -2 36q0 38 15 64q10 18 51 62q5 48 10 66q7 23 28 58q4 6 11 2q34 -23 34 -46q0 3 -12 -62q5 -35 9 -39t37 -12q9 -2 5 -10q-13 -32 -61 -67q-55 -41 -69 -61q5 -7 12 -7q14 0 35 24q18 21 29 45l88 63
q16 2 27.5 -22.5t11.5 -52.5q0 -38 -21 -45zM906 456l-10 -28q-4 -10 -13 -4l-20 16q-93 -56 -297 -125q-26 -9 -66 -36q-34 -23 -47 -23q-15 0 -27 21q-22 -21 -29 -54q0 -3 -2 -6l-57 -36l-43 -110q-73 -57 -100 -57q-16 0 -28 11q-12 -11 -35 -13q-22 -1 -25 6
q-31 27 -50 101q4 19 4 35q0 14 -3.5 31t-3.5 23q0 32 72 87l54 77q98 81 137 81q14 0 26 -7q3 -1 4 -7l1 -24q38 -10 52 -6q-36 10 -36 20q0 22 92 30l-95 -4q-4 0 -6 3q-17 25 -17 35q0 12 24 29q-6 20 25 50q22 20 45 40q3 2 5 2q3 -1 5 -2q33 -20 109 -24t115 -29
q37 2 49 11q8 5 35 39q1 1 5 2l24 1q4 1 6 0l74 -66q2 -1 2 -6l1 -35l42 -40q4 -4 2 -9zM1020 645q14 6 14 31q0 19 -8 37t-19 19l-76 -52q-5 -26 -29.5 -50t-46.5 -24q-15 0 -23 14q-5 10 -6 8q14 25 63 60t63 63q-31 7 -35.5 13t-11.5 50q13 62 13 57q0 18 -21 33
q-25 -42 -34 -116q-40 -45 -49 -59q-15 -25 -15 -63q0 -12 2 -28q18 -30 23.5 -34t39.5 -10q51 16 156 51zM889 458l-40 42l-3 36l-69 62l-16 -3q-28 -34 -39 -40q-15 -9 -60 -11q-39 26 -113 29q-80 4 -111 20q-55 -36 -55 -57q0 -6 3 -11q2 -3 -9 -11q-21 -16 -21 -23
t10 -22l103 3q6 0 8 -2q2 -3 0 -7l-3 -12q0 -1 -13 -5q-18 -3 -37 -6q-31 -5 -31 -10q0 -6 33 -11q14 -3 2 -15q-18 -13 -38 -13q-10 0 -52 10q-6 2 -6 8l-1 23q-9 4 -19 4q-27 0 -66 -29q-1 -1 -55 -46l-54 -77q-67 -52 -67 -82q0 -6 3.5 -22.5t3.5 -29.5q0 -14 -4 -31
q16 -65 45 -90q3 -7 19 -3q17 5 21.5 16.5t13.5 -0.5q10 -14 26 -14q19 0 46 20q19 17 37 33l43 110l60 37q7 42 39 69q9 7 14 -3q6 -19 19 -19q11 0 43 21q38 26 63 34q110 38 153 55q81 32 145 71q5 3 10 0l14 -11z" />
    <glyph glyph-name="seven" unicode="7" horiz-adv-x="1290" 
d="M1182 312q-15 -20 -54 -114q-24 -58 -59 -58q-8 0 -17 2q-20 -20 -56 -32q-14 -4 -22 -59q18 13 25 13q12 0 33 -34q3 -5 -1 -10q-17 -17 -64 -44q-50 -28 -71 -31q-27 -57 -67 -57q-6 0 -13 2q-11 10 -11 21q0 7 10.5 29.5t10.5 41.5q0 14 -4 29q-2 5 3 8q24 14 24 27
q0 -3 -15 42q-8 10 -8 43q0 51 27 51q17 0 42 -24q30 7 30 23q0 4 -2 9q-19 -2 -40.5 5t-41.5 14q-77 -8 -97 -8q-54 0 -90 20q-10 17 -37 32q-22 12 -22 22q0 11 17 32q-72 39 -115 39q-36 0 -66 -22q-5 -2 -32 -46q-26 -40 -46 -40q-4 0 -7 1q-41 -21 -80 -21
q-36 0 -42 24l-28 16q-8 -37 -31 -37q-12 0 -41.5 15.5t-41.5 15.5q-8 0 -8 9l-18 294l210 368q4 6 10 2q47 -20 94 -41q47 -17 103 -17q16 0 34 1q38 31 60 31q17 0 30 -14q34 -10 49 -82.5t59 -86.5q10 -3 4 -11l-1 -5q60 -17 87 -49q4 0 10 -6l70 -226q30 -59 42 -71
q23 -23 77 -24q16 -9 29 -9q7 0 27 7q15 5 27 -1q24 29 83 29q36 0 36 -16q0 -9 -14 -22zM1170 323q3 4 3 7q0 5 -10 5q-17 0 -43.5 -10.5t-30.5 -20t-13 -4.5q-18 12 -40 4t-44 4q-59 2 -85 27q-14 14 -48 78l-67 223q-1 0 -37 25q-31 21 -62 26q-12 2 -6 12l3 6
q-36 13 -51 55q-8 35 -17 71t-34 41q-10 11 -23 11q-19 0 -51 -30q-24 -2 -44 -2q-54 0 -100.5 18.5t-92.5 37.5l-206 -359l18 -276q20 -7 46 -22q21 -12 27 -12q13 0 20 34q4 10 13 6l39 -22q10 -9 10 -5q-3 -19 23 -19q33 0 64 19q12 7 13 6q2 -2 5 -2q14 0 41 40.5
t32 42.5q34 25 72 25q46 0 137 -46q11 -6 2 -14q-22 -18 -22 -26q0 -6 18 -16q23 -12 33 -29q33 -16 79 -16q8 0 101 9q1 -1 35 -13q21 -7 35 -7q6 0 12 1q5 2 8 -2q10 -15 10 -27q0 -26 -47 -35q-6 0 -8 2q-17 16 -29 16q-17 0 -17 -32q0 -23 7 -30q2 -9 12 -32
q6 -16 6 -23q0 -17 -27 -33q3 -13 3 -25q0 -21 -11 -45t-11 -29t3 -9q23 -2 38 15q8 9 22 39q2 5 8 5q12 -2 57 22.5t68 43.5q-12 17 -19 17q-6 0 -28 -19q-6 -5 -10 -2q-4 2 -3 10q7 64 13 76q4 8 23 13q25 6 53 34q4 4 7 2q7 -2 13 -2q26 0 51 58q38 86 54 109z" />
    <glyph glyph-name="eight" unicode="8" horiz-adv-x="1392" 
d="M1242 278q-61 0 -110 -22q-24 0 -33 -25t-16 -49q-14 -26 -47 -26q-9 0 -20 2q-5 -13 -5 -24q0 -7 3 -17t3 -16t-1 -14q16 5 26 5q21 0 21 -16q0 -12 -11 -31q-2 -4 -7 -4q-6 0 -19.5 3.5t-18.5 3.5q-15 0 -18 -21q59 11 59 -26q0 -3 -4 -7q-11 -7 -77 -28t-78 -21
q-8 0 -8 9.5t-33 31.5q-38 25 -51 50q-35 -1 -30 -2q-11 2 -11 21q0 6 6 7q44 13 47 38q-80 26 -80 70q0 9 5 18q-8 2 -39 -17q-35 -22 -54 -25q2 -3 7 -3q6 0 20.5 5.5t19.5 5.5q9 -1 9 -8q0 -22 -18.5 -35.5t-43.5 -13.5q-17 9 -64 26q-38 12 -59 33q-47 1 -100 27
q-64 30 -64 69q0 17 12 33q-14 3 -46 17q-7 0 -21 -8t-25 -8q-10 -5 -44 5q-37 11 -37 31q0 9 8 19q2 56 27 82q-3 12 -8 41q-10 -3 -10 -9l7 -21q2 -5 -2 -6t-10 2q-13 12 -36 31q-25 -9 -45 -9q-55 0 -55 59q0 50 33 89q82 129 150 182q7 15 18 15q19 0 19 -25
q0 -16 -12 -35q0 -1 12 -30.5t12 -45.5q0 -24 -25 -25q-24 -25 -57 -62q13 -5 16 -11q1 -2 2 -17q1 -9 7 -17q4 2 1 11l-5 13q0 8 8 8h20q6 0 8 -5q10 -28 15 -37q12 -17 32 -24q4 -1 6 -4q14 -63 14 -64q0 -23 -25 -49q-3 -3 -6 -3q-7 0 -7 -18q0 -11 -1 -9l1 -3q1 -3 8 -1
q1 27 13 34q7 4 37 4q9 0 9 -8q0 -4 2 -12q1 -2 -4 -9q19 -11 33 -13q7 15 7 19q0 1 -5.5 5t-5.5 20q0 8 8 8t22.5 10t38.5 10t64 -10q6 -1 6 -7q0 -18 -9.5 -24.5t-18.5 -11.5q22 7 43 14q30 9 48 9q51 0 54 -65q20 -1 83 8.5t99 9.5q49 0 82 -14l15.5 -4.5t24.5 -4.5t12 5
q-39 21 -39 30t49 9h24q17 -1 27 -1q75 0 109 12h32q23 1 36 1q88 0 88 -28q0 -22 -49 -62zM1236 294q37 30 37 46t-45 16q-15 0 -47 -2.5t-44 -2.5q-32 -10 -87 -10q-17 0 -43.5 1t-33.5 1q-17 0 -17 -3q0 -5 30 -19q6 -2 6 -8q0 -14 -28 -14q-13 0 -33.5 3l-20.5 3
q-33 14 -82 14q-35 0 -105 -9q-63 -9 -84 -7q-5 0 -5 8q0 58 -44 58q-21 0 -61 -15.5t-47 -15.5q-8 0 -8 9t19.5 17.5t22.5 23.5q-33 7 -55 7q-21 0 -34 -7l-18 -12q1 -11 6 -14t5 -5q0 -6 -9 -28q-2 -5 -8 -5q-17 0 -55 20q-11 5 -4 13q6 5 6 9q-27 0 -27 -28
q-12 -15 -23 -15q-20 0 -20 27q0 6 3 10q0 28 20 32q18 19 18 37q0 4 -13 53q-31 11 -51 62h-5q4 -32 -19 -32q-5 0 -6 3q-7 8 -7 16q0 3 1 7t1 6q0 11 -22 19q-5 1 -5 7q0 -1 64 76q5 4 7 3q14 -4 14 11q0 14 -13 46.5t-13 34.5q15 20 15 35q0 6 -3 6t-7 -9
q-59 -44 -151 -183q-27 -32 -27 -74q0 -47 43 -47q16 0 38 8q5 1 6 0q4 -2 22 -20q-6 18 31 24q9 1 9 -8q0 -13 4 -27t4 -26q0 -4 -4 -7q-25 -21 -25 -79q-5 -6 -5 -12q0 -22 51 -22q8 0 10 1q10 0 27 9t25 9q12 -8 35 -15q20 -6 26 -12t0 -12q-12 -14 -12 -27q0 -33 61 -60
q51 -23 83 -23q5 0 6 1q22 -21 59 -34q48 -17 63 -26q35 4 42 26q-49 -6 -37 -6q-18 0 -18 19q0 7 8 7q17 0 56.5 24.5t50.5 24.5q9 0 12 -10q2 -7 0 -10q-7 -9 -7 -19q0 -22 33 -41q30 -18 36 -15q12 6 12 -6q0 -42 -52 -57q1 -4 9 0q11 5 18 5q6 0 7 -5q13 -28 48.5 -53.5
t39.5 -31.5q53 9 136 43q-2 11 -16 11q-13 0 -32 -8q-11 -5 -11 7q0 48 27 48q6 0 20 -3.5t20 -3.5q4 7 4 12q0 7 -9 7q-8 0 -30 -10q-11 0 -8 12q8 23 2 41.5t4 47.5q3 6 10 5q11 -3 20 -3q28 0 42.5 51t53.5 51q47 21 107 23z" />
    <glyph glyph-name="nine" unicode="9" horiz-adv-x="1021" 
d="M906 339q3 -5 -1 -10l-117 -118q-3 -5 -8 -3l-28 11q-79 4 -162 -33q-3 -1 -6 0q-13 6 -22 6q-20 0 -25 -45q-1 -4 -2 -5l-58 -40q-36 -28 -61 -69q96 91 132 91q26 32 42 32q4 0 7 1q3 3 6 0q68 -29 68 -57q0 -18 -41 -23q-5 -12 -21 -18q-21 -7 -32 -18q-1 -2 -6 -2
q-18 2 -33 2q-45 0 -70 -19q-17 -14 -45 -60q1 -20 -21 -54t-38 -28q-21 -14 -47 -14q-53 0 -82 43q-7 -3 -17 -3q-50 0 -67 32l-38 5q-5 0 -6 4q-11 21 -42 63q-17 23 -17 53q0 25 8 69q20 111 21 118q13 48 46 92q-13 23 -13 46q0 26 15 43q-14 15 -14 29q0 15 40 54
t44 80v48q-3 10 -30 34q-2 2 -2 7q0 13 -1 24.5t-1 12.5q0 10 20 50q23 14 14 80q-10 75 3 98q1 2 6 2q14 0 34.5 -8.5t30.5 -10.5q23 9 37 9q28 0 43 -34q36 -6 51.5 -34.5t20.5 -28.5q7 0 20 10q8 7 10 -5q3 -18 0 -51q-3 -35 -1 -54q0 -4 -8.5 -16t-8.5 -15q1 -3 3 -3
q4 0 13 4q4 4 7 0q1 0 16 -12q11 -8 20 -8q21 0 51 37l-4 2q-10 6 -1 13q2 2 9 44q6 36 28 34q10 -1 7 -10q-4 -14 -1 -47q4 -33 0 -44q18 -21 8 -62q14 1 27 -43q16 -55 20 -60q2 -19 2 -32q0 -32 -16.5 -43t-57.5 -9q-5 2 -10.5 5.5t-26.5 22.5q1 -17 -2 -25
q-5 -11 -22 -7l-2 -36q3 -15 21 -49q4 12 14 12q21 0 52 -62q15 -13 20 -13q6 0 12 27q-9 24 -9 30q0 12 14 18q40 -10 40 -31q0 -9 -5 -25l219 34q7 0 8 -3zM890 335l-14 23l-227 -35q-5 -1 -7.5 1.5t-0.5 7.5q7 33 7 29q0 12 -21 19q-3 -2 -3 -5q0 -2 12 -24
q-9 -54 -22 -54q-9 0 -40 29q-24 50 -34 50q-5 0 -5 -20q0 -7 -7 -9q-6 -2 -9 5q-13 25 -33 78l2 51q0 13 11 7.5t13 4.5q1 7 -3 24q-2 7 2 10q4 2 9 -1q13 -13 37 -34q2 -2 7 -4q59 -1 59 40q0 9 -2 22q-5 9 -17 54q-11 38 -16 38q-3 -1 -4 -6q-3 -8 -10 -5q-6 2 -6 10
q10 54 10 46q0 15 -13 28q-3 6 3 16.5t3 33.5q-4 32 -4 40q-12 -30 -15 -63l7 -5q4 -2 -2 -9q-37 -49 -66 -49q-12 0 -38 18q-14 -6 -22 -6q-9 0 -9 8q0 6 6.5 21.5t7.5 20.5q-3 20 -1 49q3 34 3 44q-14 -5 -22 -5q-10 0 -22 28.5t-51 35.5q-4 0 -6 4q-12 25 -34 25
q-12 0 -31 -7q-20 9 -64 19q-6 -14 -6 -36q0 -15 4.5 -48.5t4.5 -47.5q0 -32 -17 -43q-19 -33 -19 -41q0 -2 2 -10.5t2 -19.5q24 -13 29 -39q3 -10 1 -56q-1 -40 -41 -84t-40 -55q0 -10 13 -18q3 -3 3 -6t-3 -7q-15 -13 -15 -36q0 -20 12 -41q4 -6 0 -11q-33 -42 -46 -91
q-2 -9 -21 -115q-7 -40 -7 -62q0 -30 16 -52q31 -41 39 -58l38 -5q4 0 6 -5q12 -26 53 -26q11 0 18 4q8 5 11 -3q24 -40 72 -40q24 0 43 13q3 -1 11 -1q12 6 26 31t10 36q0 4 2 5q30 53 49 68q26 23 76 23q15 0 34 -2q11 8 31 14q14 4 18 15q3 6 7 6q27 4 27 14q0 15 -52 37
q-17 0 -41 -32q-3 -3 -10 -1q-31 11 -151 -118q-5 -5 -10 -2q-6 4 -3 11q30 70 71 107l66 48q7 56 37 56q12 0 30 -7q95 38 167 31l26 -8z" />
    <glyph glyph-name="at" unicode="@" horiz-adv-x="1457" 
d="M746 947q4 -25 -1 -78q-6 -30 -15 -73q18 -19 18 -23q0 -3 -6 -2q2 0 -60 -11q-4 -1 -7.5 -5.5t-3.5 -7.5q1 -2 3 -3q6 2 28 11q17 8 24 8q8 0 8 -8q3 -17 -7.5 -32t-28.5 -15q-63 0 -64 14q2 8 -6 23q-2 1 -9 -15q-7 -19 -15 -19q-15 0 -30 9.5t-12 19.5l9 27
q34 16 46 13l32 -8l14 26q8 10 12 28q2 12 -5 34q-5 11 -5 12q5 0 19 16q-7 0 -14.5 -2.5t-9.5 -2.5q-5 0 -12 7q-2 3 -2 8q0 15 18 38.5t34.5 30t28.5 6.5q20 0 20 -17q0 -4 -1 -9zM645 805q-19 0 -27 38q-10 47 10 52q13 0 24.5 -12t11.5 -25t-4 -30q-6 -23 -15 -23z
M621 818q9 -7 9 -13q0 -15 -37 -15q-8 0 -14 1q-11 3 -23.5 20.5t-12.5 32.5q0 8 4 12q4 3 31.5 -11.5t42.5 -26.5zM988 479q0 -33 -22 -33q-15 0 -49 10.5t-43 19t-28 11.5q-17 -24 -31 -24q-9 0 -9 10q0 8 15 31t18 33q4 14 -1 29.5t-14 19.5q-23 18 -56 39q-2 1 -9.5 -8
t-22 -9t-32.5 -5t-21 -5q-9 0 -10 9.5t-11 30t-10 27.5q0 3 2 5.5t44 20.5q9 20 24 17q8 -1 31 -24q22 12 39 12q9 0 12.5 -4.5t37.5 -18.5t42 -24q25 -33 45 -34.5t35 -15.5t13 -27q-5 -35 -15 -35q-6 0 -14 4q-19 12 -19 6q2 -3 10 -7q49 -27 49 -61zM1279 122q5 -2 5 -7
q0 -6 -11 -17.5t-18 -11.5q-13 0 -13 40q0 8 4 8q2 0 5 -1q8 -4 28 -11zM1167 184q15 0 15 -12q0 -20 -19 -20q-4 0 -7 2q-15 3 -11 6q-7 7 1 17q13 7 21 7zM1204 126q5 1 5 -3q0 -5 -7 -17q-5 -8 -10 -8q-9 0 -18 15q-4 4 -2 8t8 4zM546 725q-48 -6 -64 16q-18 18 -15 23
q1 3 6.5 8t5.5 7q0 1 -5 1q-18 0 -25 -3q-6 0 -7 6q-2 18 -2 20q0 13 62 16q9 0 8 -9l-3 -18l11 -18q11 18 19 18q3 -1 4 -2q18 -10 18 -45q0 -19 -13 -20zM475 730q3 -4 3 -8q0 -19 -38 -31q-3 -1 -28 -23q-3 -2 -6 -2q-9 0 -20.5 18t-10.5 26q2 10 21.5 28.5t32.5 20.5
q18 -6 46 -29zM1335 160q-8 0 -20 17q-6 -29 -21 -29q-9 0 -13 14q-24 -17 -39 -22q-21 -7 -26 56q0 4 -5 39l-21 -36q-35 -15 -86 -38q-8 -3 -10 -13q-4 -14 -8 -20l-19 -46q13 26 32.5 50.5t25.5 24.5q13 0 35 -25q3 -4 -1 -10l-7 -5q11 0 10 -8q16 -21 19 -21q14 0 36 12
q5 3 9 -1l17 -15q8 -7 0 -13q-13 -12 -22 -22q-23 -25 -24 -38q-1 -21 -8 -24q-2 -1 -27 -1q-20 0 -8 57q-20 -12 -26.5 -16.5t-10.5 -4.5q-6 0 -11.5 10.5t-11.5 21.5q-1 3 -4 3q-10 0 -19 -49q-5 -31 -66 -27q-22 -22 -30 -41q-4 -9 -26 -19q-9 1 -19 -1q-7 -13 5 -22
q4 -3 4 -7q0 -9 -15 -17.5t-27 -8.5t-19.5 -10t-16.5 -10q-10 0 -19 12q-4 6 0 10q14 15 12 24q-2 14 15 28q3 3 3 7q0 5 -4 14.5t-4 13.5q0 9 9 9q-17 3 -30 7q-43 5 -43 37q0 6 -19 10q-8 1 -17 7t-14 6q-4 -5 -23 -24q-7 -7 -18 -7q-21 0 -47 19h-23q-20 -1 -27 16
q-45 7 -110 5q-74 -2 -332 74q-14 20 -34 61q-5 16 -28 29q-4 1 -4 8l7 48q3 10 0 21q-5 13 -5 22q0 18 7 24t15 11q5 4 4 11q-7 30 -7 46q0 8 -4 36t-4 35q0 3 -4 3q-3 0 -13.5 -3.5t-13.5 -1.5q-14 5 0 50q0 1 -3.5 -1t-5.5 -2q-4 0 -5 6t3 10l159 204q8 10 15 -2l21 -42
q25 7 44 4q13 -1 31.5 -15.5t20.5 -27.5q0 -6 7 -4q13 4 16 4q16 0 53 -47q12 -16 7 -30q-1 -4 6 -4q5 -1 15 0q12 1 13 1q5 0 10 -13q5 12 15 16q5 2 3 4q-27 3 -61 26q-14 9 -14 17q0 9 21 17q-27 29 -27 46q0 10 34 17q30 7 60 7q19 0 23 -3q8 -5 9 -34q2 -36 3 -38
q1 -5 8.5 -17.5t7.5 -20.5q0 -25 -31 -25q4 -2 11 -9q17 -15 31 -5q2 1 2 3t-5.5 10t-3.5 15q5 17 8 17t15 -7q23 -14 14 -36l2 -8q3 7 13 17q7 5 2 10q-35 17 -35 33q0 13 17 30l-3 9l-19 -18q-6 -8 -11 0q-11 12 -25 43q-4 16 14 29t35 9q9 -2 11 -8l1 3q2 4 6 5
q41 -11 41 -13q0 -12 -22 -32q0 -12 2 -20q7 -28 53 -84q2 -3 4 -3q6 0 6 29q0 21 21 21q6 0 12 -2q10 -2 21.5 -33t9.5 -50q-2 -16 -23 -25q58 -29 58 -39t-43 -10q-18 -26 -26 -26q-10 0 -23 35q-5 -11 -14 -27q-5 -6 -22 -8h1q5 -4 1 -10q-45 -82 -45 -85q0 -16 19 -21
q11 -2 29 -46q35 -3 52 -17q13 -11 92 -23q4 0 6 -5q4 -14 26 -63q2 -4 4 -7q8 -12 8 9q1 17 -3 33q-10 29 -10 39q0 14 10 23q5 4 5 13q0 16 -16 43q-18 32 -18 34q0 7 8 14q2 3 2 7q0 8 -13 30t-15 31q-7 24 54 24q10 0 42 -6.5t39 -11.5q2 -1 7.5 -26.5t20.5 -31.5
q13 -5 14 17q0 17 -1 34q1 7 8 7q2 0 46 -21q49 -23 47 -50q-1 -13 67 -22q6 -1 7 -8q1 -8 -6 -17q31 21 32 21q13 0 41 -44q12 -27 5 -41q-2 -5 6.5 -7.5t13.5 -1.5q4 1 15 9q7 5 17 4q15 -2 23 -22q8 0 19.5 -4t11.5 -22q0 -40 -16 -40zM104 306q-6 -9 -23 -23
q-16 -6 -16 20q0 24 15 21l19 -7q8 -4 5 -11zM89 244q0 -2 -3 -2q-6 0 -16 9.5t-10 19.5q0 5 8 8q7 3 13 0q12 -19 8 -35zM135 162q10 -35 10 -57q0 -9 -3 -9t-9 8q-10 14 -24 53l-13 34q-7 0 -5 10t9 5q15 -14 35 -44zM505 322zM1199 117q-1 -1 -5 -8t-12 6zM400 334z
M225 428zM257 104zM351 80zM499 53zM484 56zM673 246zM691 242zM977 -28zM277 374zM845 146v1v-1zM862 123zM1003 364zM232 411zM647 823q16 40 -5 51q-14 7 -14 2q0 -27 1 -34q6 -25 14 -25q2 0 4 6zM732 949q1 6 -3 8q-2 1 -9 0q-5 -2 -14 -6q-16 -6 -31 -22.5t-15 -27.5
q0 -6 4 -6q2 0 11.5 4t15.5 5q9 2 9 -5q0 -9 -20 -36q5 -10 5 -30q0 -47 -13 -43l-10 -31q-2 -8 -10 -5q-13 5 -37 14q-12 1 -32 -13q-2 -6 -7 -20q-1 -8 22 -8q7 0 14.5 15.5t14.5 13.5q20 -8 21 -32q1 -6 11 -7q7 -2 20 -1q19 1 20 1q10 0 19 11.5t8 22.5q-1 4 -4 4
q-6 0 -25.5 -11t-28.5 -11q-8 0 -8 8q0 9 10 26q2 2 5 2q39 14 53 12q-5 2 -10 3t-4 10q4 25 16 79q4 16 2 42q-2 27 0 34zM606 813q-20 12 -51 32q-1 -12 7.5 -26t20.5 -16q28 -9 28 3q0 3 -5 7zM971 494q-12 17 -60 45q-8 4 -8 9q0 14 28 14q15 0 26 -7q6 -4 7 0
q0 1 -1.5 8.5t-0.5 10.5q1 8 -10.5 16t-23.5 9q-28 2 -57 39q-7 9 -41.5 23.5t-38.5 20.5q-2 2 -6 2q-10 0 -30 -15q-7 -6 -11 1l-22 25q-8 5 -17 -14q-4 -4 -21 -11q-7 -1 -16 -9q-1 -1 -1 -3q0 -5 8 -19.5t9 -21.5t6 -7q2 0 19 6t28 4q6 -1 17.5 10t16.5 9q22 -16 59 -38
q26 -10 26 -52q0 -10 -3 -17q-2 -11 -14.5 -28.5t-12.5 -19.5l20 15q2 4 8 4q9 -1 31 -16q8 -8 37.5 -16t43.5 -8q8 0 9 13q0 11 -4 18zM1252 123q-3 -6 0 -18q3 -13 8 -9q13 10 13 16q0 4 -7 5.5t-14 5.5zM1171 174q-8 2 -10 0q-1 -1 -1 -2q-2 1 -3 1q-4 0 -6 -5l4 -4
q-1 0 -1 -1q-1 0 1.5 -1t8.5 -1q5 0 8 6t-1 7zM1335 206q-11 3 -19.5 3t-9 7.5t-10.5 15.5q-8 0 -14.5 -5t-10 -6t-7.5 -1q-12 0 -23.5 8.5t-11.5 17.5q0 3 1 6q5 8 -4 25q-18 36 -27 36q-10 0 -35 -25q-3 -3 -6 -3q-9 0 -9 8q0 3 3 6q9 13 9 19q0 3 -2 4q-19 1 -41 8
q-33 11 -31 25q-2 24 -39 41l-16 9q-11 7 -17 7q-4 0 -5 -6q0 -21 -3 -31q57 -52 57 -72q0 -6 -7 -7q-51 -13 -51 -34q0 -6 8 -11q28 -19 70 -13q7 2 8 -6t-6 -9q-48 -6 -81 15q-15 10 -15 22q0 29 54 42q6 2 6 7q0 14 -47 55q-9 -17 -25 -12q-15 6 -21 32.5t-9 28.5
q-8 5 -36.5 11.5t-35.5 6.5q-43 0 -43 -12q0 -3 2 -5q28 -40 28 -56q0 -6 -4 -10.5t-4 -8.5t7.5 -13t10.5 -14q15 -29 15 -53q0 -14 -7 -22t-7 -14q0 -8 6.5 -27t6.5 -32q0 -47 -15 -47q-4 0 -10 6q10 -104 42.5 -117.5t80.5 -19.5h2q4 5 7.5 9t8.5 2q48 -11 53 13t16.5 46
t20.5 22q3 0 5 -3q15 -35 23 -35q2 0 5 2q15 11 36 24q6 5 11 0q4 -4 0 -10q-10 -28 -10 -42q0 -12 7 -12q13 0 11 -1l1 11q2 23 44 65l-8 6q-40 -17 -56 -8q-17 9 -17 26l-18 -6q-7 -2 -10 3t2 10l22 21q-8 12 -16 12q-12 0 -62 -89q-4 -7 -10 -5t-5 10q6 30 25 79
q4 6 10 24q4 12 15 17q33 14 81 34l28 52q3 6 8 6q5 -1 6 -8q4 -20 10 -64l4 -28t11 -12q14 5 26 14.5t20 5.5q0 -10 3 -10q15 0 10 29q0 7 7 4t8 -10q6 -11 11 -11t9 12q3 13 -5 15zM543 734q5 1 5 8q0 27 -14 35q-6 3 -8 -16q0 -6 -5 -7q-6 -1 -9 5l-18 31l2 16
q-43 7 -43 -6q0 -3 1 -11q2 0 6.5 2.5t10.5 2.5q18 0 18 -12q0 -13 -12 -18q-1 0 4 -5q9 -6 12.5 -14.5t25.5 -10.5q17 -1 24 0zM426 743q-10 -3 -21.5 -16t-13.5 -20q-2 -6 1 -17.5t7 -11.5q1 0 14 12.5t23 16.5q28 8 28 12q0 11 -38 24zM773 468q-16 13 -50 23q-7 3 -6 8
q1 6 9 6.5t14 2.5q15 5 16 15q2 14 -5.5 39t-15.5 27q-11 4 -11 -4q0 -13 -6 -32q-6 -22 -14 -22q-2 0 -5 3q-9 10 -35.5 53t-28.5 51q-6 14 -7 31q0 3 3 5q31 14 25 21q-9 7 -26 4l-6 -15q-4 -8 -8 -7q-4 0 -2 7q-1 5 -12 13q-10 1 -22.5 -8t-11.5 -19q6 -16 20 -33l23 28
q8 11 13 -3l7 -26q4 -5 -2 -8q-18 -10 -18 -17q0 -10 31 -25q8 -10 8 -19q0 -11 -11 -18t-11.5 -15t-6.5 -9q-6 0 -9 7l-12 20q-1 2 1 6q7 11 -2 19t-8 0q1 -5 4.5 -15t3.5 -15q0 -6 -5 -9q-23 -15 -50 6q-11 10 -12 19q-4 6 1.5 13t11.5 4q7 -6 12 8q2 3 2 7q0 6 -7 15.5
t-8 14t-1 34.5q1 25 -6 30.5t-48 3.5q-43 -3 -43 -13q0 -15 30 -44q5 -5 4 -9q-1 -5 -8 -5q-25 1 -25 -5q0 -3 6 -7q25 -17 63 -21q5 0 6 -3q5 -8 5 -15q0 -11 -12.5 -16t-11.5 -35q1 -8 -8 -8t-8 8q3 32 -4 32q-13 0 -31 6q-21 8 -18.5 16t-4.5 16q-28 41 -40 41
q-28 0 -27 -1q-11 2 -12 16q-1 10 -14.5 19t-23.5 10q-14 1 -44 -5q-7 -1 -10 4l-18 35l-145 -186q10 -4 6 -14q-1 -3 -6.5 -13.5t-5.5 -14.5q0 -3 2 -4q17 1 41 -8l2 -1q14 -11 98 -57l-6 12q-1 2 -1 5q-4 16 -10 52q0 28 -11 99q-2 8 -2 19q0 41 31 98q4 5 9 3t5 -7
q0 -3 -1 -5q-29 -53 -29 -89q0 -9 2 -15q7 -27 8 -58q3 -40 3 -43q5 -34 8 -46q2 -2 3 -6l12 -29q103 -47 171 -55q87 -11 149 -11q48 1 49 6q14 32 41 72l-6 16q-6 4 -4 10t9 4q19 -11 27 -3q9 8 19 42q1 7 8 7q7 -1 7 -8q6 -36 14 -36q10 0 17 15q3 6 8 3q24 -7 11 5z
M977 -28q-46 6 -83.5 21t-48.5 153q-19 34 -24 59q-81 13 -93.5 23t-36.5 14l-81 -106q-10 -83 -7 -84q7 -1 17 -5q4 -2 6 -6q3 -7 12 -7q21 2 32 0q22 -22 36 -22q6 0 10 4q10 14 30 29q6 1 17 -4q15 -7 22 -8q31 -8 31 -25t30 -23q18 -4 54 -14q7 -2 5 -9l-4 -15
q-6 -16 -12 -4q-9 18 -9 11q0 3 4 -26q2 -16 -5 -21q-10 -9 -9 -14.5t-10 -29.5q6 -1 8 1q10 11 15 12q-6 -1 15 -1q6 0 17 6t11 11q-1 2 -2 3q-9 6 -9 16q0 9 5.5 16.5t8.5 7.5q11 -4 16 -3q9 1 15 15q3 7 17 25zM673 246l-2 4q-6 19 -20 40q-34 9 -32 34h-4q-36 -8 -95 -3
l-21 -266q4 0 3 0q41 1 86 -1l6 90zM505 322q-34 1 -83 8l-3 1h-4l-48 -254q77 -19 117 -21zM134 449q0 9 -2 20q-6 2 -9 -4t3 -9q1 -1 8 -7zM400 334q-52 11 -107 34l-58 -146l41 -123q24 -6 75 -19q14 69 49 254zM277 374q-95 41 -143 75q7 -64 7 -55q0 -14 5 -42
q4 -21 -10 -28t-14 -22q0 -9 5 -24q3 -12 0 -24q-8 -27 -8 -40q27 -18 33 -35q8 -24 28 -54q19 -5 77 -21l-38 120zM95 308l-17 6q-4 -5 -3 -15q0 -9 5 -7q6 7 15 16zM84 252q7 5 -3 19q-3 4 -9 3q-6 -2 -6 -5q0 -1 2 -2q11 -21 16 -15zM134 118l2 -2q4 0 -9 41
q-6 17 -20 30q15 -47 27 -69zM1200 276q7 -3 4 -11t-11 -4l-17 9l-86 -47q-3 -1 -5 -2q-9 0 -9 10q0 5 5 7l90 49q3 2 8 0z" />
    <glyph glyph-name="A" unicode="A" horiz-adv-x="1315" 
d="M1249 144l-1 -66q0 -9 -8 -9h-909q-7 0 -7 9v174h-260q-7 0 -7 8v370q0 7 7 7h726q6 0 7 -1l18 -25q6 0 13.5 1.5t11.5 1.5q14 0 41 -26l16 -4q9 3 29 14q14 8 26 8q10 0 23 -4l90 -49q2 -1 3 -7v-14l18 -7q6 -3 5 -9l-6 -32q8 -9 18 -27t19 -27q3 -2 3 -8q-3 -13 2 -19
q1 -2 18 -14q10 -26 2 -56q21 -4 21 -22q0 -8 -4 -19l15 -27q-1 -5 -1 -11q0 -26 34 -55q11 -39 33 -47q4 -2 4 -8zM1235 138q-28 13 -36 51q-37 31 -37 61q0 6 2 12l-15 24q-1 1 -1 7q7 21 -10 27q-7 1 -7 8q4 42 1 51q-18 11 -21 17q-6 8 -2 26q-9 18 -38 51q-3 2 -3 8
l6 31l-15 6q-4 2 -4 7l-1 14l-85 49q-11 3 -19 3q-12 0 -25 -8q-18 -11 -27 -15l-22 5q-27 24 -41 24q-3 0 -10.5 -1t-14.5 -1q-3 0 -6 3l-18 23h-713v-353h258q9 0 9 -8v-176h894z" />
    <glyph glyph-name="B" unicode="B" horiz-adv-x="923" 
d="M780 950l-1 -938q-5 -9 -18 -9q-8 0 -18 4q-4 1 -22 12q-14 9 -20 9q-7 0 -8 -8q-2 -11 3.5 -16.5t5.5 -21.5v-61q6 -6 11 -30q4 -20 5 -35q0 -7 -4 -9q-5 -1 -9 3l-659 631q-1 1 -2 5v464q0 8 8 8h719q9 0 9 -8zM763 16v926h-703v-454l640 -612q-1 2 -1.5 5.5t-0.5 5.5
q-3 17 -12 31v64q0 16 -4.5 22.5t-4.5 9.5t2 9q1 14 17 14q9 0 54 -16q11 -4 13 -5z" />
    <glyph glyph-name="C" unicode="C" horiz-adv-x="680" 
d="M579 62q-11 -24 -11 -27t4.5 -1t4.5 -28q0 -79 -37 -79q-5 0 -11 2l-15 2l-37 -33q-1 -2 -5 -2l-24 2q-1 -25 -10 -27q-26 -6 -32 -9l-338 -3q-6 0 -8 8q-5 25 -11 45q-5 15 -5 18q0 5 16 31l-5 85q25 107 68.5 204.5t87.5 194.5q-3 20 -3 35q0 41 28 59q9 6 81 33l59 72
q-14 50 -14 63q0 24 18 36q7 77 40 145l-8 32v2q2 6 35 3l19 22q5 6 11 0q14 -13 22 -13q6 0 23 10q14 8 14 -7l-1 -751l-9 -35q15 -22 41 -44q17 -14 17 -25q0 -8 -5 -20zM557 63q5 12 5 19q0 9 -15 22q-23 21 -36 41q-1 1 -1 7l9 36v735q-26 -13 -46 6l-15 -16
q-2 -2 -7 -2q-19 0 -19 -5q0 2 5 -19q-34 -64 -41 -150q0 -2 -3 -5q-17 -10 -17 -29q0 -11 7 -29q9 -26 10 -30q1 -3 -1 -8l-66 -77q-67 -25 -76 -31q-27 -17 -27 -57q0 -13 3 -29q-45 -97 -88 -195t-68 -204l4 -87q-14 -23 -14 -28q0 -3 4 -16q6 -17 10 -37l328 1q7 4 24 6
q6 0 7 23q0 8 8 8l27 -1l37 33q3 2 7 1l22 -2q4 -1 8 -1q22 0 22 46q0 41 -8 39q-4 -1 -4 7q-1 6 1 15t4 13z" />
    <glyph glyph-name="D" unicode="D" horiz-adv-x="662" 
d="M567 540q-2 -72 -15 -297q-32 -56 -90 -134q-76 -101 -95 -129q-13 -66 -66 -117q-5 -5 -11 1l-18 17q-2 2 -2 6l11 79l-72 23q-65 41 -94 71q-38 39 -59 99l-8 -2q-7 -1 -9.5 2t-0.5 9l37 90l94 47q18 47 53 73q19 14 81 42l1 3q-28 30 -56 59q-32 31 -63 44q-5 2 -5 6
l-6 48q-21 2 -35 27q-12 22 -12 50q0 46 29 48l1 33q-21 28 -21 43q0 13 18.5 27t39.5 28q21 69 23 73q16 37 50 52q3 1 6 0l272 -138q4 -2 4 -6l12 -48q1 -6 -3 -9q-33 -24 -41 -41t-13 -61q0 -5 -5 -6q-46 -11 -59 -67l11 3q4 0 7 -3l15 -14l68 13q6 1 9 -4zM553 536
l-15 31l-66 -12q-4 0 -6 2l-16 14l-19 -4q-5 -1 -7 1.5t-2 7.5q11 75 68 89q3 44 12 62t42 43l-8 39l-266 135q-29 -14 -43 -50q-10 -34 -21 -67q-18 -13 -35 -25t-17 -24t17 -32v-50q0 -10 -10 -8q-15 7 -15 -41q0 -55 34 -53q7 1 8 -6l7 -48q32 -14 66 -48q29 -30 59 -61
q3 -3 2 -9l-5 -11q-2 -2 -4 -5q-61 -27 -81 -41q-35 -25 -52 -70l-93 -47l-27 -72q7 1 9 -6q19 -60 56 -98q27 -29 91 -69l77 -23q6 -2 5 -9l-12 -81l10 -10q41 38 55 106q20 29 97 129q58 76 89 133q11 161 16 288z" />
    <glyph glyph-name="E" unicode="E" horiz-adv-x="1113" 
d="M1013 -8l-9 -7l-539 -9q5 -8 -2 -18l10 -18l-8 -6h-259l-1 -74l-7 -9l-141 2l-7 9l37 1097h918l8 -8v-959zM996 0v943h-900l-32 -1075h126l1 74l8 7h251q-8 8 -8 29q0 13 12 13z" />
    <glyph glyph-name="F" unicode="F" horiz-adv-x="1288" 
d="M1230 178q3 -18 -25 -35q-23 -15 -41 -17q-151 -79 -222 -79q-20 0 -35 6q-39 -4 -39 8q0 6 11.5 14.5t16.5 8.5q1 12 3 23t14 19l-2 12l-107 68q-46 24 -52 33q-4 6 -14 58q-21 12 -25 19.5t-7 16.5h-641q-7 0 -7 9l-1 53q0 6 4 7q44 22 63 35q33 22 48 50q17 5 17 18
q0 9 -25 47q-2 4 -1 7l16 38l3 4q53 19 98 19q56 0 100 -29l105 10q15 22 24 27q14 9 57 17q4 15 2 27q-3 23 -4 28q0 6 3 8l8 3q-11 7 -27 38q-1 2 2.5 7t49.5 33q34 20 31 43q0 16 62.5 64t86.5 48h193q7 0 7 -7l2 -25q18 -33 13 -122q-14 -18 -14 -38q0 -2 13 -59
q-3 -7 -7 -15q-2 -5 7 -5q6 0 7 -5q16 -46 3 -105q8 -37 8 -69q0 -27 -20 -130q5 -11 5 -27q0 -15 -6.5 -50.5t-6.5 -53.5q0 -22 8 -36q3 -5 -3 -10l-25 -24l8 -12q2 -4 2 -7q0 -4 -5 -6q-20 -9 -20 -22q0 -2 1 -2q4 0 14 9q54 14 159 46q16 10 34 15q9 -3 6 -8
q-7 -7 -20 -25l2 1q14 15 34 19q26 5 39 13q10 4 12 -6zM1163 180zM1212 165q-25 -3 -32 -5q-19 -6 -30 -19l-17 -7q-4 -1 -7 6q15 22 8 22q-2 -1 -6 -4q-53 -15 -158 -50q-12 -10 -22 -10q-14 0 -14 17q0 20 21 35l-8 11q-5 6 1 11l26 24q-5 13 -5 32q0 17 6 53t6 51
q0 19 -6 30q21 101 21 134q0 31 -7 67q11 55 -1 95q-16 2 -16 9l6 26q-13 56 -13 61q0 21 15 42q0 89 -13 111l-1 21l-186 1q-41 0 -134 -99q1 -4 1 -8q0 -20 -32 -41q-49 -31 -51 -32q5 -12 18 -25q9 -11 8 -17q0 -3 -2 -6l-7 -4q5 -44 0 -61q-1 -1 -7 -5q-43 -9 -55 -16
q-8 -4 -24 -26q-1 -1 -4 -3l-115 -9q-41 27 -95 27q-43 0 -89 -16l-12 -32q25 -38 25 -55q0 -18 -21 -27q-23 -39 -112 -85l1 -40h637q7 0 8 -3l8 -20q3 -5 24 -15q3 -1 3 -7q10 -50 12 -54q6 -9 47 -29l110 -70q2 -3 2 -6l5 -22q1 -4 -4 -8q-12 -9 -13 -12l-2 -20
q-5 -11 -10.5 -11t-9.5 -4q-5 -5 2 -5q4 0 12 3t7 3q15 -7 38 -7q77 0 204 72q10 1 34 12t25 19z" />
    <glyph glyph-name="G" unicode="G" horiz-adv-x="1306" 
d="M1252 461q-10 -5 -27 -21q-13 -13 -30 -18q-20 -3 -36 4q-11 4 -15 11.5l-4 7.5q-6 -19 4 -22q5 -2 6 -5t1 -6q0 -4 -2.5 -8.5t-2.5 -6.5q0 -3 1 -4q3 -7 -2 -11q-21 -22 -42 -18q-2 -3 -4 -3q39 -12 64 13q2 3 10 -1l11 -6q4 -5 1 -11q-27 -45 -76 -45q-9 0 -23 1
l-43 -45q-33 -16 -45 -33q-9 -12 -24 -54q-12 -14 -41 -13q-33 1 -44 -6q-5 -2 -10 1l-151 144h-147q-8 0 -8 9v22l-18 20q-13 -5 -18 -5q-9 0 -5 18l-166 9l-40 -13l-1 -4q-1 -3 -4 -5l-54 -11l-203 -2q-5 0 -7 3t0 8l9 41q3 8 9 6q21 -3 24 10q1 36 82 44q21 10 41 19
q24 13 30 29q2 5 8 5h7q23 17 24 17q5 0 13 -7q15 7 29 15q13 5 33 4q27 20 30 33l11 50q2 6 9 5l47 -7h738q5 0 7 -2q10 -11 19.5 -22t12.5 -28q0 -4 -1 -5q-4 -8 -20 -1q-9 4 -11.5 -2t-6.5 -7q-31 -9 -54 -25l-16 -1l-2 -5q9 -5 16 -5q8 0 18 8.5t16 8.5q12 0 31 -20
q2 1 18 17q1 1 7 1l9 -1q4 0 7 -5q10 -36 1 -64zM1239 473q5 18 -1 47q-9 -10 -28 -25q-8 -2 -9 3q-10 23 -19 23q-5 0 -16.5 -9.5t-21.5 -9.5t-22 9t-11 11l7 16q2 3 8 3h15q18 14 50 24q2 11 12 11q11 -2 22 -5q-4 13 -12 19q-13 11 -15 13l-778 7l-12 -50q-5 -12 -38 -37
q-20 1 -34.5 -6t-29.5 -15q-5 -2 -9 1.5t-7 3.5q1 0 -17 -14l-8 -1q-9 -15 -36 -29q-21 -11 -42 -21q-22 -3 -45 -6q-27 -7 -28 -26q-7 -27 -33 -24l-7 -26h189l49 11l1 3q2 4 4 5l43 16l181 -10q10 -1 8 -10q1 -1 6.5 0t8.5 -3l24 -28l1 -21l143 -1l154 -144q8 3 39 0
q24 -1 35 11q16 45 25 57q14 18 51 34l41 44q2 2 6 2q35 0 49 4q20 6 35 28l-3 3q-16 -14 -49 -14q-28 0 -39 12q-3 4 1 8l4 3q3 2 6 2q32 2 49 19q0 24 1 19q-15 2 -15 15q0 3 6 29q0 8 11 8q7 0 11 -7.5t7 -12.5l2 -1q18 -11 32 -3q15 3 26 14q17 18 22 21z" />
    <glyph glyph-name="H" unicode="H" horiz-adv-x="1310" 
d="M1260 28q0 -8 -7 -8l-1189 1q-7 0 -7 9v697q0 7 7 7l1072 -1q7 0 8 -9v-14q7 -19 20 -56q-10 -16 -10 -56q0 -71 21 -134l19 -20q15 -41 24 -185q3 -8 7 -23q0 -14 1 -41q1 -16 15 -50q10 -24 19 -49l-2 -33q0 -6 1 -17.5t1 -17.5zM1245 36l-2 29l2 27l-30 85
q-1 18 -5 57q-4 8 -7 23q-3 46 -5 91q-5 53 -17 89l-19 20q-23 70 -23 143q0 41 8 55q-20 58 -18 62l-1056 1v-681z" />
    <glyph glyph-name="I" unicode="I" horiz-adv-x="978" 
d="M916 1022l-1 -352q4 -19 4 -26q0 -15 -26 -32q22 -17 22 -41q0 -16 -12 -44q-21 -50 -22 -53q1 -21 -1 -65q0 -4 -2 -6q-27 -22 -54 -45q-34 -26 -58 -26q-7 0 -12 1q-31 -24 -62 -75q3 -16 -3 -29t-18 -13q-13 0 -28 14q-21 0 -31 -44l-8 -66q0 -4 -4 -6q-13 -6 -31 -28
q-13 -15 -39 -15q-3 0 -7 4q-15 24 -46 34q-4 2 -5 5l-19 41q-44 -33 -66 -33q-21 0 -55 21q-16 -3 -24.5 -10.5t-10.5 -7.5q-5 0 -39 32q-46 1 -59 9q-16 10 -29 52l-30 31q-19 -10 -33 -10q-13 0 -23 8q-5 6 -11 11q-2 1 -2 7v685q0 8 8 8h260q10 -9 13 -9q2 0 9 3
q2 3 7 0l64 -20q33 -14 34 -43q24 -6 69 -19q38 23 44 25q12 5 51 5q54 0 51 1q-11 4 81.5 64.5t143.5 64.5q10 1 10 -8zM900 668v346q-51 -8 -131 -65q-74 -54 -68 -58t-24 -5q-28 -1 -39 0q-12 1 -21 1q-25 0 -51 -17t-32 -17q-30 8 -79 23q-5 2 -5 8q1 26 -28 37
q-29 8 -57 16q-13 -8 -16 -7q-2 0 -16 12h-246v-674q9 -11 21 -11t28 9q6 3 10 -3l38 -37q12 -36 26 -45t53 -10q30 -28 36 -28q2 0 11.5 7t24.5 9q31 -19 51 -19q19 0 65 33q7 5 13 -3l22 -46q31 -11 49 -37q19 1 29 14q16 20 25 26q13 123 46 123q6 0 13.5 -6.5t14.5 -6.5
q19 0 13 23q36 60 70 89q4 3 9 1q7 -3 15 -3q21 0 50 25q23 21 46 43q-2 21 1 62q4 12 21 50q12 27 12 41q0 22 -25 39q-10 6 0 12q27 18 27 29q0 6 -2 20z" />
    <glyph glyph-name="J" unicode="J" horiz-adv-x="1313" 
d="M1252 81q0 -9 -7 -9q-23 0 -99 46q-9 -6 -24 -6q-7 0 -21.5 2t-22.5 2q-15 -5 -34 -10q1 0 -30 0q-10 0 -26 -15h-6q-28 -2 -43 17h-2q-7 -8 -14 -8q-24 0 -27 18q-7 0 -22 -4t-23 -4q-15 -7 -22 -7q-5 0 -37 23q-33 0 -40 2q-22 5 -29 25q-15 1 -38 1q-11 0 -21.5 8.5
t-14.5 10.5q-30 -3 -42 -3q-17 0 -31 9q-4 9 -7.5 17.5t-14.5 14.5q-21 -8 -30 -8q-13 0 -34.5 21t-21.5 25v348h-404q-7 0 -7 9v83q0 8 7 8h1152q9 0 9 -8v-114q11 -63 26 -189q1 -12 1 -305zM1236 90v294q0 27 -12 93q-13 77 -14 97l-1 107h-1136v-69h403q9 0 9 -6v-354
q9 -14 33 -35q6 1 20.5 6t20.5 5q16 -10 20 -17q5 -11 10 -23q7 -4 15 -4t23.5 2t23.5 2q4 0 14.5 -9.5t19.5 -8.5t7 1q42 -4 45 -12q6 -12 19 -18q-3 1 35 1l7 -1q29 -21 32 -21q6 0 18 7q9 0 26.5 3.5t26.5 3.5q5 0 10 -12q8 -5 9 -5q2 0 5 5q6 -2 24 -2q8 -12 31 -14
q16 12 23 14q0 -1 26 -1q8 0 24 6.5t23 6.5t21.5 -3t21.5 -3q9 0 17 4.5t10 4.5q35 -19 90 -45z" />
    <glyph glyph-name="K" unicode="K" horiz-adv-x="1336" 
d="M1253 713q-19 -62 -51 -139l1 -12l-12 -24l-18 -16q-23 -51 -21 -72v-6l6 -8l22 -5l15 -15l2 -6l-3 -11l1 -7l-5 -8l4 -19l-12 -31v-357l-9 -8l-1078 16l-21 41l5 22l-5 20l5 30l-22 62l7 21q15 13 16.5 28.5t6.5 21.5l-3 26l4 8l3 2q10 16 25 49q17 46 24 115
q7 59 13 117q4 18 12 53q19 121 19 195q0 24 -6 36q1 17 36 14l8 5l31 -5q10 -4 23 -15l20 2l39 -18l14 -30l-1 -14q0 -1 9 -44l11 -13l38 -8q46 0 77 19l29 1l58 -2l16 -13l57 22q12 -1 36 -7q39 2 61 26q17 5 40 3l14 9l18 4l12 -3q10 1 33 4q13 1 30 13l293 5q6 0 13 -22
l14 -11h12l21 -11zM1236 710l-7 22q-11 7 -29 8l-20 18l-6 14l-283 -4q-14 -11 -32 -13.5t-35 -4.5l-12 2l-12 -2l-15 -9l-10 1q-15 0 -40 -14q-28 -15 -59 -18q-11 5 -30 8l-63 -24q-3 1 -19 14l-52 2l-26 -1q-31 -19 -82 -19l-46 11l-15 17q-11 58 -9 63l-10 23l-31 14
l-21 -3l-9 4l-2 5l-12 7l-24 4l-6 -3l-18 -2l-4 -3l1 -2l1 -30q2 -66 -19 -197q-4 -17 -12 -53q-6 -59 -12 -117q-8 -70 -24 -116q-3 -6 -32 -59l2 -25q-4 -8 -8 -29q-2 -15 -16 -28l-5 -11l20 -59q-4 -31 -4 -32q0 -46 1 -39l18 -34l8 -7l1049 -4v353l14 28q-3 7 -5 22l6 8
l1 11l-10 12q-8 0 -25 4l-9 15l-1 8q-2 28 24 86q19 15 28 33l-1 14q7 7 49 131z" />
    <glyph glyph-name="L" unicode="L" horiz-adv-x="1306" 
d="M1235 257l-4 -8q-34 -52 -71 -68q-9 -4 -69 -14q-45 -7 -80 -35l-947 -1q-7 0 -7 7v591q0 6 4 7q36 14 47 20q25 14 38 31q6 6 12 2l6 -6l57 34q12 7 12 -7v-61h853q4 0 6 -3q9 -13 46 -47q14 -68 15 -71q9 -17 56 -30l16 -17q5 -8 -4 -14q-18 -7 -27 -27.5t-17 -40.5
q-14 -7 -33 -27q8 -9 8 -18t-11.5 -28t-11.5 -32q0 -8 3 -16q23 -10 27 -16q1 -3 5 -30q17 -9 37 -30q16 -19 33 -37q2 -4 1 -8zM1217 254l-4 8q-13 16 -27.5 32.5t-32.5 25.5q-5 1 -5 5l-2 26q-3 5 -27 20q-4 9 -4 20q0 15 10.5 36t10.5 27t-6 11q-2 2 -2 6q3 17 37 38
q8 19 16.5 39t24.5 29l-7 8q-50 14 -59 30q0 1 -15 75q-16 12 -42 42h-858q-8 0 -8 9v56l-49 -29q-3 -2 -5 -2q-3 0 -5 2l-4 3q-24 -28 -81 -47v-578h931q43 32 121 44q59 9 92 64z" />
    <glyph glyph-name="M" unicode="M" horiz-adv-x="825" 
d="M716 400q31 -68 31 -124q0 -45 -28 -45q-14 0 -35 11q-41 -25 -42 -26q-5 -35 -9 -71q-3 -5 -9 -5q-50 5 -58 12q-5 4 -22 51l53 206l-22 27q-85 -41 -108 -61q-38 -33 -38 -88q0 -30 10 -73q-16 -64 -78 -108q-46 -33 -131 -62q-70 -22 -140 -45q-43 11 -43 62
q0 31 16 70l43 53v709q0 7 7 7h332q8 0 8 -6l13 -114l46 -43l13 -125l146 -85q3 -2 3 -7q-1 -32 13.5 -61.5t28.5 -58.5zM701 394q-15 29 -29 60t-12 62l-147 86q-3 3 -3 6l-12 121l-47 42l-12 113h-317l-2 -706l-42 -58q-17 -38 -17 -63q0 -33 28 -42q67 21 134 41
q80 26 125 57q58 41 75 101q-10 46 -10 79q0 60 41 95q26 21 121 66q7 3 10 -3l27 -35v-7l-51 -205q10 -34 15.5 -38.5t41.5 -9.5l10 72l54 30q4 3 8 1q14 -9 23 -9q16 0 16 29q0 52 -28 115z" />
    <glyph glyph-name="N" unicode="N" horiz-adv-x="1286" 
d="M1215 519q9 -8 -3 -14l-37 -19q-48 -54 -60 -72q-31 -43 -33 -84q-2 -25 -22 -53q-3 -4 -6 -4q-31 0 -76 -68q-32 -16 -77 -52q-66 -53 -74 -60q-14 -4 -27 -8q-16 -5 -15 -17q-6 -8 -35 -23q-25 -14 -25 -20q0 -4 9.5 -8t6.5 -11q-3 -9 -25.5 -24.5t-20.5 -25t-8 -10.5
q-48 -2 -61 23q-6 10 -14 68l-24 42l-32 20l-35 90l-5 29q-54 28 -105 90q-1 30 -15 44q-9 10 -41 24l-65 74q-34 17 -62 69l-48 88q-81 22 -123 73q-4 5 -1 9l26 46q38 28 127 80l71 34h317l29 -20l45 -44l3 -26h255zM1194 514l-270 229h-256q-6 0 -8 8l-3 28l-41 38
l-23 15h-309l-68 -32q-16 -8 -120 -74l-22 -40q40 -44 116 -67q23 -44 47 -88q28 -53 63 -67l66 -75q34 -15 44 -27q14 -15 16 -47q46 -56 100 -84q4 -2 4 -6l7 -31l31 -86l31 -19l28 -45q9 -57 10 -59q9 -23 44 -23q-1 11 15 24q21 17 24 22q-13 12 -13 21q0 12 26 24
q32 14 38 21q0 13 17 22q15 6 31 12q47 40 150 110q41 68 80 71q13 19 13 20q4 7 5 22q2 44 34 91q16 25 63 77z" />
    <glyph glyph-name="O" unicode="O" horiz-adv-x="1338" 
d="M1251 213q0 -8 -8 -8q-20 0 -12 1q9 -18 9 -21q0 -1 -6 -20l6 -7q8 -29 8 -30q0 -10 -11 -20l2 -17q-8 -22 -8 -37q0 -10 6.5 -29t6.5 -28q0 -16 -7 -16l-6 2q-49 37 -114 71h-25q-27 -20 -44 -20q-10 0 -28 4l-5 5l-10 27l-13 9l-48 -7l-7 3l-20 30l-852 -3q-7 0 -7 8
l-1 628q0 8 7 8l1157 -2q8 0 9 -27l-11 -24l-27 -25l2 -12q28 -24 57 -55v-388zM1241 -6q0 -6 -11 -6q-3 0 -1 6q-14 58 -14 59q0 16 10 42l-4 15q0 5 5.5 10.5t5.5 10.5q0 -5 -5 20q-11 10 -11 15q0 2 8 20q-14 24 -14 27q0 4 10.5 7t14.5 2v375l-53 50l-5 23q16 14 38 50
l-2 8l-1140 2l1 -612l852 -1l22 -29l47 5l23 -12l11 -28q10 -2 17 -2q15 0 40 19h34q121 -65 121 -76z" />
    <glyph glyph-name="P" unicode="P" horiz-adv-x="1317" 
d="M1245 665v-1q0 -18 -9 -29l-18 -11l-20 -32q-7 -8 -34 -6q-9 0 -19 -5l-7 1l-8 6q-6 -7 -19 -20l-9 -1l-4 -11q-55 -43 -73 -48l-60 -16q-4 -5 -18 -37q-8 -17 -33 -13l-60 -41l-790 -1q-9 0 -9 7q0 5 24 19v40q3 17 21 34l10 38q26 21 23 35l14 34v4q-1 11 9.5 37
t19.5 26h194q-3 18 -3 20q0 8 60 8l809 1q10 0 9 -38zM1229 687h-802l-44 -1q3 -19 3 -20q0 -8 -8 -8h-198q-19 -37 -17 -54l-13 -33v-5q1 -13 -26 -38l-10 -35q-17 -17 -21 -34q-2 -9 -2 -41v-2h759l57 40l6 1q5 -1 8 -1q12 0 14.5 12t5.5 23l14 13q75 19 130 61
q6 19 19 19q10 10 26 21q5 -2 11 -7l7 2q0 -1 2 -1t6.5 1t6.5 1h19l26 35l17 9q4 21 4 42z" />
    <glyph glyph-name="Q" unicode="Q" horiz-adv-x="1289" 
d="M1206 355q-7 -7 -7 -22q0 -10 4 -16l1 -7q-5 -21 -16 -38q4 -5 8 -13q-2 -5 -32 -16.5t-36 -11.5t-8 5q-5 2 -10 2q-12 0 -6 -11q-10 -14 -27 -41l-3 -6l-38 -28q-24 -17 -42 -18q-5 2 -12 2q-15 0 -15 -5q1 -2 3 -3l2 -8q-2 -10 -40 -34t-38 -40q0 -4 2 -8
q-3 -13 -20 -39q5 -8 5 -14q0 1 -6 -28l20 -63q8 -10 17 -26q-9 -6 -22 -18q-3 -3 -6 -3q-23 10 -83 21q-53 31 -76 31q-4 0 -17.5 29t-20.5 35l-4 23l-7 10l2 20q-7 13 -38 44t-32 33q-40 88 -42.5 91.5t-65.5 57.5h-5q-14 -1 -56 11q-4 -3 -12 -8l-14 3q-7 -6 -28 -48
q-15 -32 -36 -31l-6 1q-56 31 -73 43q-47 33 -52 62q0 13 -14 49q0 17 -15 28t-29 21q-28 30 -57 60q-50 55 -50 71q0 6 9 6h325l-1 433q0 7 8 7h249q9 0 9 -7v-193q29 -5 50 -16q16 -22 50 -28l18 4q46 -4 53 -32l6 -2q10 10 18 10t25 -10l8 5q52 0 72 -13q24 18 81 18
q4 0 9.5 3t9.5 3q5 0 38 -17.5t35 -17.5q3 0 9 1.5t9 1.5q11 0 11 -8v-156q1 -2 20 -15q13 -9 13 -18q0 -1 -2 -9q7 -7 15 -26q12 -13 12 -37q0 -17 -6 -36zM1191 361q6 16 6 30q0 19 -11 29q-1 3 -19 28v8l3 7q-12 9 -32 30v152q-3 0 -9.5 -1t-9.5 -1l-4 1q-4 3 -66 31
q-4 -2 -34 -2q-34 0 -57 -21q-2 -2 -6 -4l-4 3q-27 14 -70 14q-3 0 -5.5 -2t-4.5 -2q-14 8 -18 8t-8.5 -4.5t-10.5 -4.5q-20 0 -24.5 14t-34.5 22l-20 -7q-51 13 -60 31q-16 9 -49 13q-7 2 -7 10v191h-234l1 -432q0 -9 -8 -9h-317q10 -17 93 -108q16 -12 31 -23
q18 -14 17 -34q11 -15 12 -25q1 -13 2 -27q4 -22 54 -58q47 -33 63 -33q10 0 28 33q21 38 31 44l14 -1q9 11 12 11q1 0 22.5 -8t32.5 -8q2 0 6 1.5t6 1.5q3 0 6 -2q61 -39 80 -81l33 -72q29 -27 71 -83l-1 -20l6 -8l4 -22q5 -2 17.5 -26t13.5 -29q15 -6 47 -16l26 -17
q36 -1 43 -4l32 -14l14 7q-15 15 -23 40q-6 22 -13 45q6 25 6 24q0 5 -3.5 12t-3.5 8q0 2 10 14t12 21q-1 4 -1 8q0 24 34 46q40 27 44 33q-3 4 -3 8q0 12 16.5 17.5t27.5 1.5q15 2 35 16q16 13 32 25q2 10 12 19t12 13q-4 7 -4 13q0 18 26 18q11 0 19 -3l6 -8q0 -1 -2 -1
q-8 1 -9 3l1 1l48 19l-2 6l2 7q2 3 15 35q-5 10 -5 23q0 15 8 25z" />
    <glyph glyph-name="R" unicode="R" horiz-adv-x="1034" 
d="M902 -149q0 -8 -8 -8h-840q-8 0 -8 7v1104q0 7 8 7h505q7 0 7 -8v-197h328q8 0 8 -7v-898zM886 -141v881h-328q-8 0 -8 9v196h-488v-1086h824zM359 697q0 -31 -12 -36q-16 -6 -31 -13q-16 -13 -22 -15l-32 -2q-5 -1 -7 4q-1 3 0 9l1 9q0 4 -2 14.5t-2 16.5q-1 -9 -2 -17
q-3 -12 -8 -12q-6 0 -13 29q-6 25 -6 36q0 5 1 13.5t1 13.5q0 7 -10.5 22t-9.5 21q1 7 1 8q-3 7 -3 15q0 17 15.5 35t31.5 18q17 0 17 -44q0 -4 7 -7t7 -11q0 -4 -3 -12.5t-3 -12.5l1 -1q1 0 13 18t28 18q42 0 42 -31q0 -20 -17 -25.5t-17 -28.5q0 -9 17 -15t17 -17z
M344 774q1 3 1 6q0 21 -33 21q-9 0 -18 -17t-20 -17q-7 0 -9 6q-1 4 0 12q1 11 1 12v3q-13 9 -13 33q0 12 -7 18q-11 -1 -19 -14t-8 -25q0 -2 2.5 -7.5t2.5 -7.5q0 -3 -3 -10q17 -20 17 -40q0 -5 -1.5 -14t-1.5 -14q0 -2 7 -38q2 19 11 19q17 0 17 -54q6 0 19 2q2 0 16 13
q3 3 23 9q16 5 16 14q0 15 -17 20t-17 32q0 33 34 38z" />
    <glyph glyph-name="S" unicode="S" horiz-adv-x="794" 
d="M702 851q0 -5 -2 -7l-16 -12v-23q13 -37 13 -67q0 -50 -41 -86q-30 -27 -104 -61q-26 -26 -26 -54q0 -15 9 -49q-23 -64 -105 -224q-38 -151 -38 -261q0 -19 1 -36q-1 -4 -2 -6q-22 -24 -22 -45q0 -17 16 -46l1 -24q0 -8 -9 -8h-262q-6 0 -7 7l-26 174q20 80 20 136
q0 53 -16 108q-32 9 -32 46q0 16 12 30l-16 75q-8 39 -8 62q0 53 42 105l6 94l-19 147q-17 29 -17 57q0 7 8 65q2 7 8 7h625q7 0 7 -7v-97zM687 854v85h-610q-8 -55 -8 -58q0 -25 15 -49l22 -151l-7 -102q-40 -50 -40 -101q0 -22 8 -61q13 -62 16 -75q0 -7 -1 -7
q-14 -5 -14 -19q0 -27 16 -32q7 0 16 -8q18 -63 18 -118q0 -54 -21 -138l25 -162h248v11q-19 34 -19 53q0 25 26 52q-1 20 -1 41q0 98 39 258q41 79 56 108q29 60 47 111q-7 37 -7 52q0 33 33 66q70 31 98 55q38 33 38 81q0 27 -11 60l1 31q0 4 3 7z" />
    <glyph glyph-name="T" unicode="T" horiz-adv-x="1404" 
d="M1333 202q0 -18 -5.5 -21t-10.5 -5q-3 -7 -8 -7h-1241q-10 0 -10 8q0 14 51 14q27 0 38 14q18 18 59 45q8 25 56 51q53 30 66 52q2 4 4 4q4 0 9 -14q5 -18 22 -35t34 -17q10 0 19 7q-1 13 19 13q9 0 28 -2t28 -2q10 0 18 1q12 29 25 29q7 0 15 -8q18 17 24 17q4 0 11 -3
l25 24q-4 15 -4 25q0 16 15 34l24 28q15 36 30 73q24 55 42 55q12 0 29 -32l11 2l26 46q19 32 37 32q4 0 8 -1l16 25q29 9 41 57.5t27 53.5l7 -1l69 -55q17 36 23 36q8 0 27 -9t19 -14q-1 -6 -11 -16q9 -13 37 -17l5 -3l25 -25q18 -18 18 -27q0 -6 -22 -34.5t-23 -51.5
q8 -1 11 -1q6 0 15.5 4t10.5 4t22 -21.5t27 -24.5q3 1 7 1q14 0 38 -15q32 -20 36 -22q13 -21 13 -24q0 -5 -12 -18q1 -14 1 -16q0 -9 -8 -18q26 -19 26 -36q0 -23 -17 -23q-3 0 -8 2q1 -6 1 -9q0 -9 -11 -14q32 -14 32 -28q-1 -1 -11.5 -12.5t-11.5 -11.5q-8 5 -27 13
l21 -18q28 13 42 13q17 0 34 -4.5t17 -66.5zM1311 257q-10 2 -18 2q-13 0 -32 -8t-21 -8q-3 0 -5 1l-26 26q-4 7 -4 13q0 10 10 10q2 0 12 -5.5t13 -5.5q4 0 15 10q-3 4 -25 13q-18 8 -18 16q1 3 10.5 6.5t9.5 10.5q0 2 -1.5 7.5t-1.5 8.5q0 7 6 7q1 0 19 -6q2 4 2 8
q0 10 -16 21t-16 15q0 2 7 7.5t7 11.5v8q-1 5 -1 8l2 6q4 3 8 10l-5 10q-1 0 -30 20q-21 15 -30 14q-12 -2 -15 -2q-24 13 -47 45q-14 -7 -21 -7q-30 0 -30 16q0 23 16 46q27 41 28 42q-13 12 -37 40q-21 3 -29 7t-18 21q-1 2 -1 5q0 4 6 12q-12 6 -17 6q-7 0 -13.5 -18.5
t-11.5 -18.5q-4 0 -80 61q-1 -1 -13.5 -46t-46.5 -62q-18 -30 -21 -30t-8.5 2.5t-8.5 2.5q-13 0 -27 -32q-18 -43 -19 -44l-6 -3l-21 -2q-6 -1 -13 11.5t-15 12.5q-13 0 -31 -50q-23 -62 -24 -65q-12 -12 -24 -25.5t-12 -28.5q0 -4 1.5 -12t1.5 -11q0 -6 -18 -24t-22 -18
q-2 0 -6 2t-6 2q-5 0 -12.5 -10.5t-12.5 -10.5q-3 0 -7.5 5t-7.5 5q-2 0 -12 -16q-4 -7 -36 -7q-8 0 -25 2t-26 2q-5 0 -5 -8q0 -13 -32 -13q-25 0 -42 18q-6 6 -26 39q-14 -21 -62 -45q-41 -20 -46 -48q-3 -3 -6 -7q-12 -4 -29 -20q-22 -19 -27.5 -22.5t-10.5 -7.5h1h1159
q13 0 13 16t-10 56z" />
    <glyph glyph-name="U" unicode="U" horiz-adv-x="1329" 
d="M1255 115q0 -5 -9 -6l-299 -8q-21 -18 -78 -22q-6 1 -11 1q-12 0 -31 -12q-25 0 -55.5 -17t-54.5 -17q-18 0 -46 7q-32 -14 -69 -28q-2 1 -21 16l-88 -1q-48 -20 -90 -20q-45 0 -69 28q-4 72 -23 95l-35 15l-24 -3l-7 3q-8 13 -21.5 15t-26.5 3l-52 14q-4 1 -9 74l2 6
l6 4q2 3 4 3q1 0 11 -6q5 -7 12 -21l2 8q-1 14 -9 33q-12 -5 -13 -5q-4 0 -9.5 19t-5.5 24t22 11l12 9l-11 5q-10 -13 -14 -13q-7 0 -13 33l-6 40q-2 9 -14 51q-8 30 -8 55l-36 55l-11 99q-1 10 6 10q3 0 5.5 -1t100.5 -36q59 -22 104 -27q12 0 32 -2q10 -4 29 -11
q13 3 22 3q24 0 35 -25q7 -22 14 -45l-2 -16q-15 -16 -15 -35q0 -7 8 -29q1 -9 3 -28l5 -2l11 10v49l8 15l1 24l21 36q-3 19 -35.5 62t-32.5 53q2 6 22 9l5 24l-8 22l-11 -2q-8 0 -19 29t-11 38q0 7 9 7l863 -4q9 0 9 -8l-1 -576q-4 -4 -4 -8q0 -6 10 -16.5t10 -18.5
q-4 -10 -4 -18q0 -7 4 -17t4 -13zM1236 161q-2 6 -11 18t-9 20q0 6 3 12v563l-844 4l14 -42l11 1q8 0 20 -35q-2 -17 -13 -40l-11 -2q5 -8 36 -55q25 -37 27 -57l-19 -37l-2 -25l-8 -14l-2 -50q-21 -23 -26 -23q-1 1 -16 11q-1 11 -3 32q-12 21 -12 37q0 20 18 40l2 7
q-6 18 -14 37t-27 19q-8 0 -18 -2q-10 4 -30 10q-27 3 -77 10q-37 8 -152 52l10 -85l35 -55q0 -32 9 -58q12 -37 14 -48l9 -50q4 5 9 5q4 0 19.5 -9t15.5 -14t-17 -16t-23 -11l6 -21q8 1 14 -2q6 -7 6 -26q0 -5 3 -11.5t3 -9.5t-6 -13.5t-9 -10.5q-6 2 -11 14.5t-8 16.5
l3 -57l45 -11q15 -2 30.5 -4.5t25.5 -16.5l22 2l45 -19q23 -30 25 -99q18 -21 51 -21q43 0 92 21l97 1l18 -13l63 26q30 -7 45 -7q24 0 50.5 16.5t58.5 15.5q18 14 31 14q7 0 17 -3l47 9l24 14l293 9q-5 8 -5 15q0 8 6 21z" />
    <glyph glyph-name="V" unicode="V" horiz-adv-x="1332" 
d="M1266 555l-22 -61q-2 -3 -7 -3q-17 -4 -60 34q-30 31 -60 61q-13 -6 -17.5 -25.5t-7.5 -37.5q2 -4 2 -10q0 -21 -29.5 -49.5t-49.5 -36.5q-27 -41 -32 -41q-7 0 -26 13q-16 -18 -39 -60t-41 -62q-1 -1 -6 -1q-27 -2 -43 14q-19 18 -37 36l-88 -183l-40 -46
q-23 -28 -23 -51q0 -10 4 -20q2 -6 -1 -9q-12 -17 -25 -34q-8 -11 -18 -11q-8 0 -32 9q-46 -30 -48 -30q-7 0 -24 10q-25 -47 -73 -47q-34 0 -57 29l-16 -5l-2 -11q0 -4 -5 -6q-25 -11 -47 -11q-48 0 -99 78q-2 4 -1 6l8 17q-20 6 -35.5 27t-45.5 31q-5 2 -6 4l-60 130
q5 65 8 83q8 35 26 35q7 0 16 -4q12 20 18 27q11 10 28 15q25 145 76 134q4 0 6 -3l11 -31q17 14 19.5 20t1.5 33q62 93 101 93q6 0 12 -3l22 4q13 19 46 40q28 16 55 32q3 26 6 52.5t18 49.5l36 93q-33 17 -33 34q0 10 18 29.5t13 30.5q-3 4 3 8q15 11 21 11t13 -7v-276
h234q9 0 9 -7v-147q57 51 102 59q9 18 62 57q7 5 13 -3q12 -26 35 -26q20 0 31 21q1 3 7 3l82 11q6 0 7 -1l56 -34q13 -11 30 -81zM1251 556q-16 61 -29 70q-25 14 -51 29l-73 -9q-17 -27 -44 -27q-28 0 -47 28q-29 -20 -33 -23q-11 -10 -17 -26q-2 -5 -7 -5
q-46 -4 -113 -67q-4 -5 -8 -3q-4 1 -4 8v156h-235q-7 0 -7 9v271q0 2 -6 -6q1 -18 -11.5 -34.5t-12.5 -19.5q0 -8 22 -16q6 -1 5 -10l-40 -108q-14 -22 -16.5 -48.5t-5.5 -52.5q-1 -3 -3 -6q-28 -16 -55 -32q-33 -20 -44 -41q-2 -3 -6 -3l-33 -2q-5 2 -10 2q-20 0 -48 -32
l-38 -50q3 -32 -2 -41q-2 -4 -30 -28q-9 -8 -14 3l-13 36q-33 -2 -55 -127q-1 -2 -6 -5q-17 -5 -26.5 -17.5t-19.5 -26.5q-5 -7 -10 -2q-6 4 -10 4q-14 0 -23 -99l60 -122q26 -10 41.5 -31.5t44.5 -27.5q10 -2 6 -12l-11 -21q44 -64 83 -64q17 0 37 9l4 10q1 2 5 6l24 7
q4 3 8 -3q19 -26 48 -26q44 0 64 45q3 10 12 5q19 -11 24 -11q-1 0 42 27q5 3 8 1q18 -7 24 -7q7 0 13 9l18 26q-3 9 -3 18q0 26 24 58l42 52l90 189q4 9 12 4q13 -9 37 -37q15 -17 38 -19q23 44 81 125q4 5 11 1q16 -11 20 -11q5 0 14 16t16 20q19 14 38 29q26 22 29 46
q0 9 -1 7q6 23 14.5 48.5t27.5 30.5q3 1 8 -2q25 -27 50 -53q38 -38 56 -42z" />
    <glyph glyph-name="W" unicode="W" horiz-adv-x="1141" 
d="M1070 536q0 -24 -26.5 -67t-24.5 -65l-25 -51q-4 -51 -4 -53q-5 -22 -26 -43q-6 -11 -6 -29q0 -8 1.5 -24t1.5 -24q0 -26 -12 -42q-18 -31 -18 -91q0 -80 17 -120q1 -8 1 -53q0 -8 -8 -8l-498 -1q-5 0 -7 6q-6 23 -53 63q-42 36 -42 73q0 26 15 59q-33 40 -26 123l-4 11
l-96 80q-15 33 -52 61.5t-73 36.5q-32 35 -32 75q0 12 3.5 37.5t3.5 41.5q0 11 -1 22q10 17 10 29q0 17 -29 34q-7 3 -4 10l26 64q29 17 79 54l4 131l26 27q5 4 10 1q24 -14 64 -14q35 19 70 39q43 22 63 22q22 0 22 -27q0 -12 -4 -30l-6 -22q39 5 78 -12q44 -19 52 -54
q114 -14 135 -19q81 -20 108 -68q9 3 20 3q45 0 75 -30q6 -5 2 -9l-3 -7l47 -20q5 -2 5 -7l11 -58q8 -5 8 -21q0 -2 -1 -9v-10q0 -31 24 -48q4 -3 4 -7q0 -5 -4 -5q-17 -3 -59 -59.5t-19 -56.5q6 0 20 7q14 24 55 59q37 31 47 54q0 22 12 42.5t32 21.5q11 0 11 -23z
M1055 541q-25 -7 -25 -49q-10 -24 -52 -59q-46 -39 -61 -63q-19 -9 -30 -9q-15 0 -15 15q0 22 26.5 60.5t56.5 59.5q-20 19 -21 68q0 11 -4 15q-5 9 -5 6l-10 57l-53 23q-9 5 -4 13l4 8q-26 22 -58 22q-12 0 -21 -5q-8 -5 -11 4q-25 50 -106 68q-66 8 -132 17q-5 0 -7 7
q-5 28 -38 44q-27 14 -62 14q-15 0 -27 -3q-5 -1 -8 2t-1 8l10 33q4 12 4 20q0 16 -15 16q-16 0 -56 -21l-66 -36q-39 -4 -70 12l-18 -19l-4 -129q-8 -8 -81 -58l-22 -55q35 -22 35 -41q0 -15 -15 -37q1 -9 1 -18q0 -15 -3.5 -39t-3.5 -35q0 -34 27 -65q38 -10 74.5 -38.5
t54.5 -63.5l97 -81l6 -17q-2 -47 0 -63q5 -32 26 -56q3 -3 1 -9q-17 -36 -17 -61q0 -30 37 -60q45 -34 56 -62l484 1q2 28 -1 39q-17 49 -17 126q0 66 22 100q10 15 10 39q0 9 -1.5 26t-1.5 24q0 18 5 29q21 20 25 42q1 4 4 51l25 51q1 20 27 59.5t26 62.5q0 5 -1 10z" />
    <glyph glyph-name="X" unicode="X" horiz-adv-x="1352" 
d="M1245 -71q0 -9 -9 -9h-1172q-7 0 -7 9v928q0 7 7 7h1172q9 0 9 -7v-928zM1229 -63v912h-1156v-912h1156z" />
    <glyph glyph-name="Y" unicode="Y" horiz-adv-x="1834" 
d="M1738 769q9 -9 -1 -14l-56 -31l-27 -45l9 -42l20 -25q6 -8 -4 -12l-66 -28q-15 -11 -20 -25q-5 -10 -7 -11l-6 -48q0 -7 -7 -7h-18l16 -33q1 -4 -1 -6q-18 -26 -29 -26q-7 0 -10 13q-4 22 -17 44l-2 13q-8 -22 6 -49q25 -53 31 -90q0 -6 -1 -7l-43 -47q-12 -6 -22 -13
q-23 -16 -26 -34q-7 -45 -40 -58q-17 -6 -17 -34q0 -23 10 -47q15 -31 30 -61q19 -39 22 -65q2 -14 2 -25q0 -42 -26 -42q-7 0 -16 2q-22 8 -38 36q-3 5 -25 56q-9 28 -18.5 57.5t-24.5 29.5q-22 0 -47 -13q-7 -2 -9 0l-33 24l-50 -16l-46 -1l12 -35q3 -6 -1 -9t-10 -1
q-71 30 -94 30q-27 0 -88 -3q5 -25 -26 -35q-22 -8 -44 -27t-20 -34q2 -19 13 -46q3 -9 -6 -11q-79 -1 -99 64q-21 69 -41 89q-26 21 -29 21q-7 0 -14 -9q-16 -21 -35 -21q-23 0 -39 27q-32 53 -51 96l-38 13q-67 -11 -129 16q-37 16 -109 57l-60 15q-5 2 -6 6q-5 18 -12 33
q-18 37 -43 55q-31 23 -56 96q-23 70 -23 132q0 48 28 107l44 86q8 21 36 52q22 25 22 41q0 13 -8.5 36.5t-8.5 36.5q0 17 25 13q31 -4 52 -29q3 26 7 55q1 19 20 12q102 -40 189 -70q210 -71 314 -80q156 -15 173 -23q29 -40 78 -40q51 0 86 5q16 -5 31 -12q36 -16 63 -40
q34 -29 38 -51l24 -11l32 -69q1 -4 0 -7q-9 -25 -9 -37q0 -8 4 -8q3 0 6 2t32 4q25 1 29 11q6 14 16 42q2 10 11 7q23 -5 47 19q29 29 35 48q16 15 57 36q9 2 66 28q2 9 10 44q11 39 20 45q9 0 16 -3q18 -7 25.5 -25t15.5 -39zM1717 764l-22 19q-3 9 -17 43q-5 15 -20 20
q-6 -15 -11 -34q-8 -34 -8 -44q0 -5 -5 -7q-16 -10 -74 -32q-37 -10 -45 -25.5t-39 -55.5q-24 -24 -55 -24q-4 -9 -16 -35q-9 -18 -34 -20q-39 -4 -50 -8q-3 -1 -5 -2q-11 0 -11 23q0 19 6 42l-27 60l-23 9q-6 4 -4 12q-16 18 -35 40q-28 24 -82 51q-27 -7 -86 -7
q-62 0 -88 45q-20 5 -166 18q-99 9 -298 75q-128 42 -205 74q-4 -23 -13 -71q-5 -16 -14 -2q-22 41 -52 38q-8 -1 -8 -8q0 -5 9 -28t9 -34q0 -18 -22 -45q-27 -34 -36 -56q-22 -42 -43 -84q-28 -57 -28 -103q0 -59 22.5 -126t50.5 -88q34 -26 59 -94l58 -14q19 -13 108 -57
q45 -18 90 -18q20 0 35 3l48 -17q18 -37 52 -99q11 -18 26 -18q13 0 24.5 14.5t23.5 14.5t41 -27q21 -20 45 -96q16 -49 72 -52q-3 12 -9 39q-3 18 22.5 43.5t53.5 34.5q18 6 11 23q-4 10 7 10q75 6 99 6q18 0 84 -25l-9 31q-3 10 7 10h54l52 16q3 2 7 -2l32 -23
q24 13 51 13q18 0 32 -32t26 -64q10 -25 21.5 -51t30.5 -32q5 -2 9 -2q19 0 13 50q-3 24 -23 63q-14 29 -29 58q-11 25 -11 51q0 42 25.5 52.5t31.5 45.5q5 30 54 56l37 43q-3 19 -23 65q-17 40 -17 58q0 24 18 37q3 2 5 2q6 0 7 -8l6 -26q13 -44 16 -44q6 0 12 15l-23 40
q-4 9 8 9h25l4 45q0 3 11.5 21.5t13.5 19.5l9 7l59 22l-16 19l-10 51l32 56z" />
    <glyph glyph-name="Z" unicode="Z" horiz-adv-x="1887" 
d="M1245 713q-3 -42 -3 -72q0 -19 6 -38q2 -4 9 -13q11 -6 13 -5q14 14 14 29q0 12 -13 52q1 38 11 58q6 6 15 8q3 4 5 20q6 4 19 4q12 0 29 -6q11 -6 11 -41q0 -14 -5 -25q3 4 11 10q4 0 13 1q13 -7 17.5 -16.5t6.5 -18.5q-7 -24 -11 -59l7 -3q17 0 37 12.5t26 27.5
q23 13 34 28q1 7 1 29q8 9 68 31q5 6 6 9l-1 5l-10 10q-3 4 -3 11q18 11 22 37l9 7q21 7 43 14q28 9 37 20q3 13 10 18t20 11q3 5 3 11q0 11 -4 33.5t-4 34.5q4 12 9 17q11 6 27 5q5 6 7.5 8t10.5 1q10 -9 19 -30q13 -26 17 -32q20 -5 31 -16l3 -5l1 -7q-8 -18 -28 -32
l-16 -4q-1 -16 -5 -25q-7 -9 -20 -19q-3 -10 -3 -36l1 -13q3 -9 16 -22h4q6 0 13 4l2 -7q-1 -10 -7 -16l-11 -7l-12 -2q-8 -21 -35 -39q-22 -14 -45 -29q1 -2 11 -11q9 -25 9 -35q0 -17 -7 -27q-10 4 -22 6q0 -7 12 -17q6 -15 6 -43q0 -11 -13 -24h-2q-5 11 -10 30
q-15 9 -21 38l-6 -4l-2 -7q5 -10 10 -15q-2 -4 -2 -11v-4q11 -9 20 -40l10 -3l7 -6l5 -7l1 -12q-4 -7 -5 -11l18 -2l1 -14l-1 -7q-5 -6 -19 -10l-1 -5l5 -5l2 -7q-1 -20 -27 -31q-14 -26 -40 -50q-3 -22 -31.5 -57t-28.5 -70q0 -31 19 -48q30 -29 32 -33q12 -19 29 -61
q18 -46 18 -62q0 -4 -4 -14t-19 -22q-14 0 -19 8.5t-10 20.5q-9 8 -42 32q-12 15 -34 46q0 25 -2 36q-11 7 -30 21q-4 5 -14 14l-6 2l-6 -1q-12 -12 -25 -18h-11q-10 0 -31 8.5t-33 8.5q-3 0 -11.5 -2.5t-12.5 -2.5q-14 0 -26 4q-11 -7 -36 -13t-34 -13v-4q7 -3 11 -3h8l9 5
l10 1l2 -4l2 -6l-11 -7q-1 -2 -1 -4q6 -7 17 -15q-1 -3 -5.5 -5t-25.5 -2q-16 -10 -26 -11q-10 0 -27.5 7.5t-27.5 7.5q-2 0 -7.5 -2t-7.5 -2q-6 0 -19 1.5t-20 1.5q-17 0 -38 -9q-3 -22 -13 -40q-15 -11 -36 -12q-30 -26 -34 -68l15 -41l-6 -4q-6 -1 -17 -1q-23 8 -65 34
q-6 12 -42 60.5t-47 57.5q-7 4 -19 3q-16 -7 -42 -39h-8q-24 0 -50 36q-5 18 -14 35q-21 17 -68 47q-5 1 -15 1q-13 0 -31 -19q-12 -7 -39 -7t-68 12.5t-64 27.5q-12 10 -40 27q-16 6 -55 11q-35 4 -54 14q-11 49 -85 91q-39 49 -56 169q-7 11 -17 30.5t-9 65.5
q-13 23 -11 38q9 8 21 35q-2 27 5 76q25 56 28 66q15 37 21 69q1 33 12 90q6 -3 30 -9q17 -4 26 -20q-2 4 -4 9l2 5l5 5q-4 9 -4 18l1 9l4 7q222 -90 651 -90q41 0 70 6q2 0 16 7q11 5 16 3q11 -5 15 -14q6 -2 10 -7l16 -1q4 0 30 5q10 -7 31 -15q14 -1 33 6q11 -2 13 -8v-4
q-3 -10 -22 -27q-22 -20 -28 -29h8q12 10 20 14h12l4 -6q15 1 33 17t29 19h11q-5 -6 -12 -21q3 0 12 2t14 1l10 -7q8 2 26 13q14 10 28 9l2 -3l2 -10q23 1 30 -4l8 -7v-7q-23 -10 -48 -8q-8 -7 -24 -23l-5 -1l-6 9q-4 -7 -20 -39q7 4 16 3zM1675 511l-6 -10l-2 10h8z
M1810 885q-5 19 -33 28q-8 20 -31 57l-8 -1l-7 -9q-6 2 -15 2l-5 -1l-5 -3q-4 -4 -4 -9v-12q0 -10 4 -31.5t5 -30.5h86v-7zM1781 862h-73q-13 -4 -20.5 -10.5t-11.5 -18.5q-11 -10 -42 -19t-42 -20l-3 -8h150q0 17 5 28q25 20 23 46zM1775 728q0 4 -3 6q-8 -3 -16 -4
q-6 2 -15 15q-3 8 -2 29h-155q-6 -10 -16 -16q0 -6 3 -9l9 -9v-8l-4 -7q-6 -5 -61 -26h225q5 8 9 19q15 1 23 5l2 2zM1729 686h-224q2 -18 -2 -26q-8 -12 -33 -27q-5 -13 -18 -22h232q-1 11 -19 27l2 10q25 13 62 38zM1288 786q-1 6 -4 10h-5q-5 0 -18 -10h27zM1353 699v9
q0 14 -9 34q-5 5 -23 5l-11 -1q-4 -3 -5 -17l-4 -7q-8 -2 -14 -8t-6 -15h72zM1199 797q-8 -6 -17 -11h13q3 4 4 11zM1397 657q0 14 -19 29h-9q-5 -3 -14 -8l-3 -3v11h-72v-25q0 -4 7 -20t5 -30h91q14 29 14 46zM1687 598h-254q-17 -10 -34 -10q-10 0 -16 7l-2 3h-92l-9 -15
q-7 -7 -13 -7q3 0 -13 8q-7 6 -11 14h-337v13h331q-6 21 -2 75h-329v13h310q13 24 29 57l3 2l6 -2l4 -6q5 1 25 23l18 -2q7 0 20 3q-85 0 -87 -2l-1 2h-68q-6 -6 -21 -13h-9l-4 4h-10l-6 -1l-12 -10q-14 -7 -17 6q5 9 8 14h-188v12h202q14 12 29 32l-1 4l-5 2q-20 -8 -35 -7
q-13 4 -32 13q-5 0 -15 -1.5t-15 -1.5l-14 1q-7 2 -18 12l-11 7q-37 -15 -89 -16v-395h763q1 5 5 12l-1 11l-4 7q-7 3 -17 5q-6 29 -16 40h-726v11h722l2 10q-9 10 -10 16l1 5q7 8 10 18l7 1q3 -17 5 -22q3 -11 11 -18l5 -2l2 -8h16q0 17 -10 33t-10 20l6 5h5l14 -4
q5 11 5 22zM1238 706h-4l-5 -1l-8 -6h15zM1641 -4l-30 75h-82v-20q11 -15 32 -44l15 -11h65zM1643 -26v9h-47l7 -7q6 -17 13 -26l5 -1h7l9 8q6 8 6 17zM1684 418v4h-1535q2 -36 14 -74h1474l5 11q9 5 25 17q3 7 3 12l-2 7l-7 6l4 9l10 1l6 3zM1628 334h-1460q6 -26 31 -62
l23 -12h1354q24 25 28 53q16 9 24 21zM895 436v395q-216 5 -327 16q-180 19 -318 69l-4 -5v-5l5 -11q-3 -6 -6 -10v-9l4 -7l1 -11l-12 1q-5 11 -8 17t-7 8q-15 0 -29 7l-3 -2q-2 -30 -11 -88q-9 -34 -48 -129q-5 -11 -4 -35q3 -44 3 -36q0 -5 -6 -20l-14 -11q-2 -4 -3 -8
q1 -6 11 -26q1 -24 10 -68q13 -16 18 -32h748zM1605 84q-3 9 -28.5 31.5t-28.5 43.5h-1159q11 -8 32 -22.5t65 -29t66 -14.5q28 0 46.5 13.5t34.5 13.5l13 -2q27 -15 49 -34h544q-4 5 -3 13q27 6 73 28q17 -3 27 -3q7 0 19 2.5t19 2.5q9 0 30 -8.5t31 -8.5q11 8 35 18l6 -2
l48 -34l2 -8h79zM1566 248h-1324q21 -22 26 -28q12 -15 16 -34q23 -14 57 -14h1204l-1 16q0 42 22 60zM1283 54q-13 7 -17 14v3l-547 -5l16 -34t23 -28q9 -3 20 -3q33 38 52 38l12 -1q27 -15 38 -42h151l3 3l23 4q18 9 22 44q13 9 49 7.5t48 3.5q9 -1 27 -7.5t28 -6.5
q12 0 25 11q3 0 9.5 -1t9.5 -1zM1020 -17h-130q19 -23 51 -71l4 -3h55l-3 12v14q0 31 23 48zM1009 -115l-6 10h-33q38 -12 34 -12zM810 786l-29 -22l13 -35l-32 21l-30 -21l10 35l-29 22l37 3l12 35l12 -35zM876 692l-28 -22l10 -35l-31 20l-30 -20l9 35l-28 21l36 2l13 36
l12 -36zM684 786l-27 -22l11 -35l-32 21l-29 -21l9 35l-28 22l37 3l11 35l12 -35zM750 692l-28 -22l10 -35l-31 20l-30 -20l10 35l-28 21l36 2l12 36l13 -36zM810 597l-29 -23l13 -35l-32 20l-30 -20l10 35l-29 23l37 2l12 35l12 -35zM876 511l-28 -21l10 -36l-31 20
l-30 -20l9 36l-28 21l36 2l13 35l12 -35zM559 786l-28 -22l10 -35l-30 21l-29 -21l10 35l-29 22l36 3l12 35l12 -35zM625 692l-30 -22l12 -35l-32 20l-29 -20l10 35l-29 21l37 2l11 36l13 -36zM684 597l-27 -23l11 -35l-32 20l-29 -20l9 35l-28 23l37 2l11 35l12 -35z
M750 511l-28 -21l10 -36l-31 20l-30 -20l10 36l-28 21l36 2l12 35l13 -35zM434 786l-29 -22l11 -35l-30 21l-30 -21l10 35l-29 22l36 3l13 35l11 -35zM499 692l-28 -22l11 -35l-32 20l-30 -20l10 35l-29 21l37 2l12 36l13 -36zM559 597l-28 -23l10 -35l-30 20l-29 -20l10 35
l-29 23l36 2l12 35l12 -35zM625 511l-30 -21l12 -36l-32 20l-29 -20l10 36l-29 21l37 2l11 35l13 -35zM308 786l-28 -22l12 -35l-32 21l-30 -21l10 35l-29 22l38 3l11 35l12 -35zM373 692l-27 -22l10 -35l-32 20l-29 -20l9 35l-28 21l36 2l12 36l14 -36zM434 597l-29 -23
l11 -35l-30 20l-30 -20l10 35l-29 23l36 2l13 35l11 -35zM499 511l-28 -21l11 -36l-32 20l-30 -20l10 36l-29 21l37 2l12 35l13 -35zM259 692l-28 -22l11 -35l-31 20l-31 -20l10 35l-29 21l38 2l12 36l12 -36zM308 597l-28 -23l12 -35l-32 20l-30 -20l10 35l-29 23l38 2
l11 35l12 -35zM373 511l-27 -21l10 -36l-32 20l-29 -20l9 36l-28 21l36 2l12 35l14 -35zM249 511l-30 -21l11 -36l-31 20l-29 -20l10 36l-29 21l36 2l12 35l13 -35z" />
    <glyph glyph-name="asciicircum" unicode="^" horiz-adv-x="1149" 
d="M1020 155q-66 -131 -189.5 -205.5t-264.5 -74.5q-119 0 -225 53q-131 66 -207 191q-73 121 -73 263q0 119 53 226q65 130 189 205q120 73 261 73q119 0 227 -54q131 -65 206 -188.5t75 -265.5q0 -118 -52 -223zM703 851zM185 384q2 130 73 267q-38 21 -67 45
q-33 -43 -62 -97q-8 -15 -51 -214zM540 161q-59 3 -122 -9q32 -88 90 -180q27 9 57 8q0 81 -1 178zM937 702q-63 70 -154 116q-31 16 -64 27q-4 -3 -14 -14q97 -66 159 -170q41 19 73 41zM1057 380q-2 173 -109 309q-40 -29 -72 -44q60 -128 66 -265h115zM845 652
q5 2 -51 70q-60 73 -101 100q-9 -9 -40 -27l-6 -3q55 -82 88 -180q60 15 110 40zM703 851q-68 19 -139 19q-72 0 -140 -20q69 -54 148 -54q77 0 131 55zM717 609q-27 84 -84 178q-20 -7 -52 -9q0 -98 3 -188q29 1 81.5 8t51.5 11zM923 385q-2 54 -32 156q-28 94 -33 93
q-38 -18 -114 -45q34 -115 30 -207q149 -3 149 3zM564 591v133v53q-20 4 -57 13q-46 -87 -78 -178q97 -21 135 -21zM1057 361q-52 -2 -112 -2q-5 -133 -78 -266q31 -19 57 -41q42 39 81 110q24 44 41 125q5 37 11 74zM751 384q2 100 -28 204q0 2 -54 -6q-61 -9 -84 -10v-187
q-1 -4 82 -4q84 -1 84 3zM488 796q-29 11 -64 35q-38 -35 -93 -105q-51 -67 -47 -70q39 -21 123 -40q17 48 81 180zM924 361q-34 3 -154 -1q1 -5 1 -12q0 -30 -22 -115q-20 -77 -17 -77q39 -5 121 -51q65 114 71 256zM407 843q-118 -41 -206 -135q36 -27 65 -43
q56 97 141 178zM563 385q0 23 -1 94q-1 57 0 89q0 1 -48 7q-56 8 -92 19q-44 -130 -45 -209q186 -5 186 0zM751 361q-25 0 -83 -1h-83q-3 0 -1 -180q0 -4 48 -9q62 -5 74 -8q37 109 45 198zM401 599q-75 17 -118 37q-2 1 -7 6q0 -2 -5 -6q-63 -124 -63 -253q149 -4 149 0
q3 98 44 216zM914 38q-10 10 -58 37q-58 -89 -155 -152q2 -1 7 -7q2 -4 2 -3q131 44 204 125zM835 88q-27 16 -69 33q-45 18 -48 13q-18 -51 -82 -169q49 -26 50 -26q4 -4 4 -3q80 50 145 152zM562 364q0 1 -184 1q-3 -96 33 -197q69 13 150 12v89q1 64 1 95zM696 142
q-62 15 -103 15q-7 0 -7 -1q3 -176 2 -177q15 -1 31 -8q35 67 77 171zM395 164q-38 106 -40 201q-146 -2 -148 0q2 -124 68 -245q2 2 9 5q47 23 111 39zM695 -95q-57 57 -137 57q-78 0 -120 -55q0 1 8 -3q58 -15 122 -15q66 0 127 16zM492 -34q-57 92 -93 181
q-54 -10 -105 -38q-2 -1 -11 -4q75 -119 147 -170q5 -6 7 -5q7 8 55 36zM258 113q-69 121 -77 255l-102 -1q4 -167 113 -305q37 33 66 51zM424 -81q-95 78 -156 177q-41 -26 -64 -46q58 -65 144 -108q72 -36 74 -30z" />
    <glyph glyph-name="a" unicode="a" horiz-adv-x="658" 
d="M597 253l-17 -21l-4 -23q-11 -18 -11 -35q0 -13 14 -55l-7 -44l16 -31v-11q1 -9 -8 -9h-391q0 -7 -5 -20l6 -14q11 -8 26 -31l-8 -17q9 -8 6 -20q-13 -9 -37 -29l-31 1q-4 1 -6 5q-20 34 -20 50q0 7 2 13l-5 9l-4 -8l-15 -49q-3 -9 -11 -5l-18 8l-14 -7q-12 -8 -12 7
l-5 297l63 531l-8 8q-9 11 7 11h380q6 0 7 -6l66 -390l9 -11q2 -12 17 -44q11 -25 9 -37l9 -13q3 -4 0 -10zM581 260l-9 11q-2 5 -1 7q2 4 2 9q0 9 -11.5 29.5t-14.5 31.5l-8 12l-66 389h-359l3 -6l-63 -555l4 -257l5 4q4 2 8 0l15 -7l12 39l12 26q9 18 16 0l11 -29
q-1 -5 -1 -11q0 -11 17 -43l18 -2q9 7 29 22q-2 1 -5 4q-7 3 -4 9l9 18q-9 5 -23 20l-10 18q-1 1 -1 4q0 2 1 4q6 19 5 23q-2 9 8 9h390q5 0 -14 32l8 46q-15 43 -15 56q0 19 14 42l2 25z" />
    <glyph glyph-name="b" unicode="b" horiz-adv-x="1602" 
d="M1524 7q-2 -20 -12 -43q-64 -16 -66 -16q-10 0 -61 48q-32 31 -64 61q-10 20 -33 57l-87 56q-35 3 -58 18l-51 -8h-7l-54 44l-40 -1l2 -14q-13 -29 -22 -29t-22 -4q-3 -1 -31 -14q-24 -11 -30 -11l-4 1q-8 9 -8 13t35 77q-20 -23 -79 -87q20 -5 20 -10q0 -8 -50 -52
q-45 -39 -57 -47q-29 -18 -118 -55q-20 -8 -82 -24q-67 -19 -73 -15q-12 -2 -52 -2q-44 -22 -51 -22q-3 0 -10 3q-3 -2 -10.5 -8t-63.5 -13.5t-70 -17.5h-9q-4 2 -6 2h-9q-7 -1 -10 -1q-6 -3 -8 -3q-4 0 -23 17q1 -12 -7 -12l-9 1l-6 5q-7 15 -7 23q0 2 0.5 4.5t4.5 2.5
t12 -5l14 -1l10 -5l3 5q2 1 4 1q8 0 16 -13l4 3q2 0 3.5 2.5t4.5 2.5q0 5 4 5q9 0 20 -14h1q9 9 20 9h42q17 0 44 19t37 19q2 0 1 -5q-1 -4 0 -4h1l9 9q0 14 25 16q-12 -1 35 -1q16 0 40 18l47 4l49 28l26 -4q23 37 105 71l5 31l10 15q-36 -12 -37 -12q-4 0 -33 38
q-33 -9 -34 -9q-6 0 -13 34l1 7l10 10l-10 21l-41 7q-35 43 -35 46q0 6 11 19q-19 45 -19 46q0 4 3 6q18 12 49 37q2 1 14 20q10 15 15 15q4 0 26 -22l11 4l15 16l30 2v44l-27 -16h-7q-39 13 -45 16q-25 11 -39 26l-2 8l4 30q-22 31 -22 34q4 8 46 17l54 10q17 -3 17 -9
q0 -1 -5 -28l28 -4l7 39q-14 4 -35 15q-9 35 -39 75q-3 4 -3 5q2 6 14.5 19.5t18.5 12.5l30 -6l16 14l15 25q28 26 72 43l40 -5q12 17 15 17h3l76 -32q5 -2 5 -10l20 -10l24 4l84 -29l26 11l7 -1l49 -32l3 -6q8 -66 23 -199q9 -100 18 -281q49 9 50 9q5 0 4 -21l47 -38
q18 8 35 35q23 8 25 8t5 -4q68 -92 117 -138q9 -1 26 -6q27 -9 32 -18q5 -20 11 -39zM73 -52q-11 0 -20 15l-10 2q-7 16 -7 20q0 6 17 6q5 0 9 -2.5t9 -11.5q11 -9 11 -14q0 -15 -9 -15zM118 -77q0 -4 -8 -4q-6 0 -18 4v2q0 3 14 6q8 1 5 1q7 -6 7 -9zM1508 4l-9 34
q-20 16 -49 18q-67 60 -121 139l-11 -4q-5 -9 -21 -23q-18 -17 -26 -17l-5 2l-54 44q-2 6 -1 14q-47 -8 -48 -8q-6 0 -6 8q-8 168 -18 287q-9 65 -23 195l-42 30l-28 -13l-87 31l-27 -6l-27 15l-3 6v3l-65 27l-7 -12l-7 -3l-40 6q-39 -15 -65 -40l-13 -24l-22 -16
q-2 -1 -5 -1l-30 4l-14 -16q23 -22 35 -70q38 -14 38 -19q0 -60 -17 -60q-52 0 -52 12l5 29l-79 -19l16 -20q0 -3 1 -6l-5 -28q27 -28 71 -36q40 22 43 22q7 0 9 -18q1 -12 0 -33q-2 -26 -2 -23q0 -7 -39 -10l-13 -13q-21 -8 -22 -8q-3 0 -22 17q-16 -30 -65 -59l18 -42
l-1 -8l-9 -13l26 -33q21 -1 45 -11q14 -28 14 -30q0 -3 -1 -6l-11 -13l2 -14q31 9 32 9q3 0 7 -2l26 -36q52 17 54 17q7 0 7 -7q0 -3 -22 -38q-2 -16 -9 -37q-83 -35 -107 -71l-7 -3l-25 5q-47 -33 -91 -32l-9 -6l5 -5q49 12 141 41q43 17 114 53q14 8 49.5 38t43.5 40
q-20 6 -20 10q0 3 100 109l16 -1v-10v-6q-10 -15 -35 -73q55 27 80 27l8 19q-3 17 -3 19q0 8 29 8q18 0 35 -1l55 -43l53 8q24 -18 61 -19l92 -60q9 -6 20 -28q12 -26 16 -31q42 -49 114 -102l54 15zM72 -37q-8 6 -15 21l-11 -1l1 -8q3 -4 10 -6l9 -7l3 -1z" />
    <glyph glyph-name="c" unicode="c" horiz-adv-x="877" 
d="M754 28q0 -9 -9 -9l-253 1l-451 184q-5 2 -5 8q3 18 5 36q3 4 28 4q5 7 6 17l2 3v1l-17 12l-8 12q0 8 3 26q-4 6 -4 20q0 7 13 8l17 27l3 42l11 21l18 10l10 13h1l2 4q-6 7 -15 10q-8 22 -27 58l-1 4l1 4q-5 5 -7 38q5 11 7 37l-6 11q0 24 -3 70q0 3 -6 16q-4 10 -3 16
l7 9l20 6l27 -2l12 -10l3 -5v-1l5 -3h3q10 35 14 133q1 8 7 8h581q9 0 9 -8v-831zM737 36v815h-565q2 -70 -15 -133q-2 -4 -6 -7l-14 -2l-5 1l-10 9l-3 7v1l-4 5h-18l-13 -4l-1 -3q12 -22 9 -89l7 -8l1 -7q-1 -17 -9 -42q2 -12 8 -30q0 -4 -1 -8l10 -14l2 -14q7 -9 14 -22
q4 -3 14 -14l6 -18q-2 -12 -12 -12l-8 -9l-16 -10l-9 -13l-4 -41l-18 -33q-9 -6 -18 -6h-1q0 5 8 9q1 -1 0 -1l-1 -6l5 -12q0 -10 -4 -25q3 -5 21 -15l5 -7q2 -1 2 -4q0 -17 -14 -33l-7 -5h-18l-2 -20l442 -180h242z" />
    <glyph glyph-name="d" unicode="d" horiz-adv-x="973" 
d="M910 686q-13 -66 -68 -131l-1 -63q0 -6 -7 -7q-15 -3 -24 -26q-32 -25 -40 -45q-6 -13 -11 -62q0 -4 -3 -5q-76 -40 -81 -118l-29 -56q1 -8 25 -81q1 -4 -3 -8q-14 -9 -11 -28q1 -10 -8 -10h-502q-7 0 -7 9l-2 119l-18 6l-22 -7l-10 3q-2 1 -5 4l-10 24v369l-17 227
q-1 8 7 8h743q40 -35 40 -54q0 -9 -3 -19q-24 -16 -25 -17q-13 -11 -18 -23h102q10 0 8 -9zM893 679h-104q-10 0 -8 10q6 25 50 55q1 5 1 9q0 14 -31 39h-729l16 -217l1 -370l8 -16h1l22 7l29 -8q6 -1 6 -8l1 -118h485q-4 18 14 31q-10 30 -25 86l30 54q4 79 84 127
q6 49 11 62q9 20 43 46q7 22 28 31l1 64q44 48 66 116z" />
    <glyph glyph-name="e" unicode="e" horiz-adv-x="1068" 
d="M985 27q0 -5 -4 -8t-9 -2q-6 -6 -17 -14l-5 -15l1 -31l-12 -31l-8 -5q5 -6 4 -27l15 -9l8 -13q-1 -31 -23 -31q-41 0 -124.5 -18t-119.5 -18q-12 0 -16 24q-11 8 -18 54l-29 36q-15 14 -49 34l-11 -5l-6 1q-17 11 -13 24l-5 9l-7 4l-21 -2q-15 0 -39 12l-17 21l-14 8
q-13 1 -58 11l-15 -4q-24 5 -39 18l-5 11l1 8l5 7q-1 12 -1 36l-6 8l-6 1q-5 3 -12 19l4 11l-1 2l-13 4l-41 47l-2 12l-10 12l-2 8l-29 26l-7 35l4 10l8 6l4 7l-2 12l-4 3q-15 2 -37 14l-10 16q-11 41 -10 46q-2 8 -6 14l15 10v0q7 -5 23 -11l2 2l-1 18q-9 4 -13 13l2 4
l1 10v0q-12 -16 -26 -11l-16 -2l-21 14q0 16 -13 54q-53 36 -53 67q0 6 2 11l-7 7q-4 9 -3 27v15l7 14v1q0 13 -14.5 30t-15.5 26q-12 8 -24 52q6 25 32 67q0 5 -2 21l8 25l-3 23l-10 13l-1 8q0 1 2 19q6 14 11 14l369 -9q11 0 11 -9l-2 -360l515 -461q16 -43 33 -70h3
l10 -8zM963 35l-1 2l-6 3q-9 0 -12 15l-10 11l-1 11l-11 15q1 5 -5 23l-519 462q-2 4 -2 362l-350 8h-1l-1 -12q8 -12 14 -50l-5 -17l-5 -7l1 -16v-6q-11 -21 -29 -66q0 -9 12 -34l4 -2l8 -9q0 -1 13.5 -23.5t13.5 -41.5q0 -7 -2 -19.5t-3 -18.5q5 -8 11 -24l-4 -9
q17 -34 51 -56l20 -55l12 -6q16 9 29 15l9 -2l4 -8q1 -14 1 -25l11 -20l2 -15q0 -14 -8 -15l-26 11q5 -21 11 -41.5t35 -22.5l12 -8l8 -22l-1 -7q-6 -7 -15 -22l3 -20q20 -16 43 -48q32 -43 40 -52l11 -5l5 -5q5 -19 3 -25l5 -1l6 -5q9 -15 9 -19q0 -7 -1 -21.5t-1 -21.5
l-3 -7v-2q11 -6 27 -11l13 2q9 0 33 -5q21 -4 33 -3l19 -9l16 -23q24 -12 56 -9l13 -5q2 -14 11 -24l-2 -6l1 -1l15 3l30 -15q21 -20 59 -61l11 -41l1 -2l2 -4q13 0 13 -17l-1 -2q-6 3 -7 3l2 -1l2 -6q81 16 240 35l2 3v8v1l-14 7l-6 12v20q-7 8 -7 22q0 7 13 8l10 24l-1 30
l9 20q7 8 22 21z" />
    <glyph glyph-name="f" unicode="f" horiz-adv-x="1071" 
d="M1003 78q0 -9 -8 -9h-943q-8 0 -8 9v678q0 7 8 7h943q8 0 8 -7v-678zM987 84v663h-927v-663h927z" />
    <glyph glyph-name="g" unicode="g" horiz-adv-x="1045" 
d="M971 276q-10 -13 -19 -18q-5 -2 -9 -23q-1 -5 -9 -5l-53 5l-155 -26l-35 14q-39 -41 -59 -41q-6 0 -23 1q-22 2 -36 3q-24 -5 -49 -11q-33 -8 -53 -8q-28 0 -40 14l-81 -54l-190 -100l-70 -20q-6 -2 -8 3l-37 63q-3 7 2 11l85 58l10 21l-20 44v475q0 7 7 7h340q7 0 8 -5
l15 -31l10 31q2 5 8 5h439q8 0 8 -7zM957 281l-15 392h-427l-11 -30l-10 -7q-7 -5 -11 2l-17 35h-329v-464l21 -42q2 -4 0 -7l-15 -27l-81 -58l29 -51l64 18l188 99l81 59q4 3 14 2t11 -5q4 -13 27 -13q16 0 48 7q40 9 47 10q13 -1 29 -2t21 -1q17 0 28 8q8 6 35 34q5 3 9 2
l36 -17l152 26l48 -5q4 17 8 18q9 3 20 17z" />
    <glyph glyph-name="h" unicode="h" horiz-adv-x="612" 
d="M532 -111q-1 -12 -10 -12h-414q-8 0 -8 12l-53 969q0 8 6 9q21 9 26 18q1 1 10 30q0 2 3 8q69 37 100 37t83 -26q9 -5 4 -13l-70 -143q-4 -23 -4 -42q0 -37 18 -75q3 -6 44 -76q9 -45 39 -137q28 -88 37 -135q31 -52 114 -142q44 -64 60 -114t16 -119q0 -21 -1 -49z
M514 -102q2 89 -10 136q-14 56 -62 125q-77 80 -118 147q-9 51 -36 137q-31 95 -39 133q-41 72 -45 81q-19 40 -19 77q0 23 6 49l66 138q-37 18 -62 18q-28 0 -88 -35q-10 -31 -12 -34q-6 -10 -30 -19l53 -953h396z" />
    <glyph glyph-name="i" unicode="i" horiz-adv-x="1049" 
d="M1004 174q7 -22 7 -35q0 -19 -14 -17q-10 -23 -5 -53q-5 -21 -38 -36q-28 -13 -53 -13q-7 0 -19 6.5t-12 11.5q0 14 11 18q-18 6 -41 51q-16 6 -48 22l-15 59q-21 8 -28 23q-3 7 -7 35q-7 -3 -12 -3q-21 0 -46 64l-18 21l-1 6q3 14 15 30q14 20 17 28q-13 5 -21 7
q5 -7 10 -20q-8 -17 -17 -17q-2 0 -25 16q-3 10 -3 23q0 22 19 91l-6 31l3 8l-19 30q-21 1 -26 3q-8 4 -15 22q-37 27 -57 67l-46 30q-4 0 -11.5 1t-12.5 1q-9 0 -9 -16q0 -8 -28 -19l-37 -15q-12 0 -33.5 -7.5t-31.5 -7.5q-7 0 -7 9q0 2 1.5 6t1.5 6q0 15 -26 39
q-6 1 -21 6q-16 12 -50 28q-26 8 -25 9l1 7q-38 -7 -58 -7q-26 0 -22 10h-4q-12 -25 -38 -25h-6q-7 6 -7 12q0 7 8 13q-7 0 -7 5q0 6 7 18q-3 8 -14 26q-8 12 -8 31q0 8 7 8h307q9 0 23 -40l311 -10q5 0 8.5 -12t5.5 -12l4 6q-6 29 -6 32q0 16 19 27h9q23 -13 50 -13
q4 0 9 -45q9 -6 10 -8q0 -6 1 -12q14 -82 61 -164q20 -15 61 -80l1 -7q-1 -3 -6.5 -9.5t-5.5 -12.5q0 -11 12 -34q16 -31 17 -32q3 -12 9 -34q4 -11 34 -63q14 -23 14 -67q0 -28 -8 -57zM996 144q0 -4 -7 33q7 29 7 55q0 40 -11 58q-24 40 -27 46q-10 21 -17 52
q-29 45 -29 71q0 1 10 25q-13 20 -25 40q-15 23 -31 35q-48 81 -66 173q-1 2 -9 11l-3 6l-2 33h-5q-14 0 -40 13q-9 -6 -9 -15q0 2 6 -27q-7 -28 -18 -28t-21 31l-312 11q-5 0 -12 16q-4 11 -9 21h-293q1 -12 10.5 -26t11.5 -22l-5 -12q7 -4 7 -12l-9 -10q12 2 14.5 7.5
t5.5 13.5q8 8 11 8q11 0 25.5 -7.5t16.5 -7.5q10 0 29.5 5.5t28.5 5.5q6 0 5 -14q19 -9 57 -30q4 2 9 2q24 0 26 -19q31 -32 28 -48q16 5 48 11q15 7 31 13q22 10 22 19q0 18 22 18q5 0 16 -1h16l54 -35q17 -38 56 -68q7 -18 35 -20l5 -3l23 -36l1 -8l-3 -8l5 -28
q-2 -9 -12 -44q-8 -26 -8 -44q0 -9 2 -16l9 -10q-6 12 -6 23q0 6 2 10q7 4 12 4q6 0 23 -6.5t17 -10.5q0 -10 -15 -31t-17 -30q5 -7 16 -20l12 -32q10 -24 21 -24q3 0 9 3t8 3q6 -3 10.5 -29.5t27.5 -34.5q3 -3 19 -65q15 -5 45 -18q9 -16 19.5 -32t25.5 -24t15 -12
q0 -1 -9.5 -4.5t-11.5 -5.5q11 -6 17 -6q20 0 40 9q25 9 30 25q-3 19 -3 26q0 18 11.5 32.5t11.5 15.5z" />
    <glyph glyph-name="j" unicode="j" horiz-adv-x="903" 
d="M841 392q3 -7 -4 -10q-31 -18 -50 -90l-31 -80q0 -12 3 -34t3 -32q0 -8 -6 -9q-31 -5 -70 15q-14 -10 -14 -23q0 -1 9 -39q-8 -33 -20 -33q-15 0 -30 38h-426q-6 0 -7 6l-7 24q-31 38 -31 87q0 15 2 32q-17 46 -17 61q0 19 12 43l17 45q-11 14 -11 18t5 12q-20 14 -30 40
q-6 17 -12 33l-90 425q-2 9 8 9h385q7 0 8 -6t-17 -23t-16 -22q23 -27 78 -47q14 -25 30 -51t45 -49q23 -8 89 -74q59 -59 71 -77q11 -23 29 -76q20 -13 38 -59q14 -37 41 -35q7 0 8 -5zM823 391l-2 5q-29 -6 -50 45t-36 51q-3 1 -3 4q-11 26 -29 78q-17 24 -73 79
q-64 65 -82 66q-30 24 -45.5 49.5t-30.5 50.5q-55 14 -93 58q-2 5 11.5 17.5t16.5 19.5h-353l87 -411l10 -32q9 -25 30 -38q6 -3 4 -10q-4 -10 -3 -12q0 -1 8 -12q3 -4 1 -8l-19 -50q-11 -21 -11 -37q0 -14 17 -56q-8 -73 26 -114l8 -24h424q6 0 8 -4q10 -27 14 -27t7 11
q-9 40 -9 44q0 20 25 35q4 2 7 0q34 -18 58 -17q-6 46 -4 65l30 80q17 69 51 94z" />
    <glyph glyph-name="k" unicode="k" horiz-adv-x="1293" 
d="M1004 484q-14 -24 -31 -27h-60q-4 1 -6 3l-28 28q-28 52 -28 53q0 8 29 34q5 4 11 -1l25 -24h22q28 -7 55 -14q23 -7 23 -21q0 -11 -12 -31zM841 617q-30 -58 -70 -58q-7 0 -29 2q-43 3 -43 13q0 -1 27 52q30 16 53 16q17 0 56 -14q10 -4 6 -11zM1200 317q39 -79 39 -103
q0 -22 -29 -39q-44 -24 -88 -47q-23 -49 -39 -49q-9 0 -28 14q-37 29 -45 34q-4 1 -4 6v48q-5 19 -17 57q-8 24 -8 33q0 21 51 46q1 70 32 70q17 0 58 -24q63 -38 78 -46zM848 514q0 -14 -11 -25t-23 -11q-34 0 -34 36q0 32 34 32q13 0 23.5 -9.5t10.5 -22.5zM857 478
q19 -48 19 -47q0 -5 -5 -5t-15 4q-32 14 -32 30q0 14 22 23q7 3 11 -5zM637 666q-23 -37 -62 -37q-30 0 -57.5 21t-27.5 41q0 7 5 12q9 5 19 5q8 0 26 -5.5t28 -5.5q45 0 53 -1q22 -2 22 -14q0 -6 -6 -16zM239 833q64 -33 64 -49q0 -17 -86 -17q-60 30 -60 52q0 19 40 19
q19 0 42 -5zM128 832q4 -13 4 -21q0 -10 -24 -37q-42 -7 -41 -7q-12 0 -9 36q11 17 22 35q8 12 15 12q8 0 33 -18zM992 492q9 14 9 22q0 9 -21 13q-37 6 -45 9l-25 1l-24 21q-17 -14 -17 -20q0 -1 24 -40l23 -25q60 0 49 -1q14 2 27 20zM822 616q-30 11 -43 11
q-19 0 -42 -13q-17 -35 -17 -31q0 -6 23 -8q34 -3 49 4t30 37zM831 514q0 16 -17 16t-17 -16q0 -20 17 -20t17 20zM857 459q0 16 -12 10q-11 -4 -11 -10q0 -7 14 -15q8 -4 11 -4t3 3q0 2 -2.5 8t-2.5 8zM618 664q6 7 6 11q0 5 -8 6q-6 1 -20 0h-28q-10 0 -24 6.5t-21 6.5
q-6 0 -12 -4q-2 -1 -2 -3q0 -11 22 -28t45 -17q25 0 42 22zM234 818q-22 4 -36 4q-18 0 -18 -7q0 -12 43 -34q55 0 55 8t-44 29zM116 824q-14 9 -18 9q-5 0 -10 -9q-10 -20 -15 -27q-1 -13 3 -15q0 1 24 5q8 8 16 17q4 6 0 20zM1188 305q-11 5 -62 35q-45 27 -56 27
q-22 0 -22 -55q0 -5 -25 -18t-25 -29q0 -14 11.5 -40.5t11.5 -39.5l1 -49l28 -20q21 -15 28 -15q13 0 32 37q32 17 65 34q46 26 46 47q0 22 -33 86z" />
    <glyph glyph-name="l" unicode="l" horiz-adv-x="848" 
d="M750 259l-1 -402l-9 -9l-671 -1l-8 8v279l14 30l-2 16l2 6l2 1l2 10l-5 4l-21 6l-8 12v6q-2 24 20 70l16 10l7 14l-1 9q6 6 42 101l-5 14l-8 4l-15 2q-19 19 -26 53l4 9v3l-9 12l-2 18l3 5l2 400q0 8 8 8l101 -4l8 -6l5 -150q27 -33 36 -63l-4 -24l4 -2q11 -18 47 -35
q15 -26 46 -69l13 2q6 0 9 -13l21 1q14 -10 14 -15l-13 -51l2 -9l-1 -6l-5 -6l2 -17l3 -6l1 -13l-1 -6l-12 -15q5 -17 2 -29l17 -10l2 1q13 19 37 38l7 -4l7 -9l4 -1q6 -4 13 -14l-1 -17q-1 -34 32 -57l3 -6l1 -13l-4 -13l9 -10l13 3q25 0 24 -50l12 -14l4 -1l2 9l8 8l7 2
q22 -4 26 -4h6l5 11l13 5l10 -6l28 4l11 -3l3 3l25 4l-2 6q0 5 7.5 13.5t12.5 8.5q8 -4 25 -13l8 -20l11 -6l-4 -7h9zM741 259l-5 -7l-14 11l-8 16l-11 7l-4 -5l3 -10q0 -10 -34 -11l-10 -7l-15 5l-28 -5l-5 1l-4 4l-2 -1q-9 -14 -13 -14q-10 0 -34 5q-1 -1 -4 -14
q-2 -9 -9 -9q-1 0 -21 7l-13 19q-2 8 -1 26q-4 8 -15 16l-8 -3q-6 0 -16 10t-11 16l7 16l-1 3q-40 24 -35 84l-10 5l-7 10q-3 0 -3 1l10 2q-3 -3 -32 -38l-9 -4l-7 1q-30 18 -30 22l5 14l-6 21l1 6l13 14q-7 22 -7 36v6l5 5l-2 7l14 49l-5 4l-20 -1q-7 0 -10 10l-8 -1l-8 2
q-10 10 -24 36.5t-22 35.5q-36 16 -45 34q-15 7 -15 12l1 5l5 7l2 12q-8 24 -36 59l-4 148l-87 3l-2 -395l-5 -7l2 -6l9 -12l2 -6q-2 -9 -4 -16l8 -26l11 -10h9l16 -10l10 -25q-17 -48 -43 -105l2 -10l-12 -19l-12 -10q-20 -37 -20 -58q0 -4 3 -8l18 -4q14 -13 14 -18
l-6 -18l2 -18l-13 -29v-268l654 1l1 394h8z" />
    <glyph glyph-name="m" unicode="m" horiz-adv-x="773" 
d="M647 313q-1 -5 -3 -7t-9 -40q9 -56 9 -54q0 -21 -20 -65q-2 -8 -34 -54q-30 -42 -30 -65q0 -10 4 -17t0 -10q-4 -8 -12 -22l11 -21q2 -5 -1 -10q-6 -6 -29 -10q-18 -4 -37 -8l5 -55q0 -7 -6 -8l-21 -8q-4 -2 -7 1q-32 29 -50 29q-9 0 -20 -3l-26 -33q-8 -11 -13 1l-34 54
q-2 4 0 8q9 23 9 38q0 21 -46 72q-70 33 -95 94q-1 6 3 9l36 39q0 14 2 25.5t2 12.5q0 9 -28 34l-22 -14q-6 -3 -9 1q-11 11 -17.5 45t-21.5 48q-79 78 -79 110q-9 33 -9 54q0 36 24 65q2 16 33 47.5t31 52.5q0 20 -18 41q-2 29 25 41q28 8 56 17q33 14 39 47q22 18 22 39
q0 24 -28 45q-1 2 -2 6q-2 16 -16 28.5t-18 23.5t7 11h403q8 0 7 -9q-4 -62 17 -87q4 -10 3 -39q0 -24 10 -34q2 -3 3 -6v-460zM631 317v453q-8 8 -9 53q-1 12 -4 20q-26 33 -20 88h-380q11 -9 27 -40q34 -26 34 -56q0 -26 -27 -50q-11 -33 -41 -48q-2 -1 -50 -16
q-25 -7 -27 -25q17 -23 17 -46q0 -28 -29 -61q-33 -38 -35 -46q-22 -25 -22 -61q0 -20 8 -49q0 -32 77 -103q12 -14 18 -44q6 -33 13 -44l23 14q5 3 10 0q36 -32 36 -43q0 -1 -2.5 -16t-1.5 -33q-1 -3 -2 -5l-35 -36q22 -54 88 -85q32 -35 38 -44q14 -20 14 -41
q0 -17 -9 -41l25 -40l22 27q16 6 30 6q24 0 57 -30l12 5l-4 55q-1 7 4 8q22 3 58 13l-10 19q-3 5 3 11q1 0 11 22q-2 6 -2 13q0 25 29 73q32 52 34 60q23 34 23 57q0 18 -14 54q2 20 13 52z" />
    <glyph glyph-name="n" unicode="n" horiz-adv-x="852" 
d="M727 955l-2 -727q-2 -8 -2 -16q0 -7 2 -19t2 -18q0 -16 -10 -30l-57 -23q-32 7 -35 7q-16 0 -16 -43l-96 -102q-30 -32 -58 -32q-21 0 -42 17l-11 2q-11 -16 -21 -32q-18 -23 -37 -23q-14 0 -30 12l-29 -9q-19 -45 -33 -45q-9 0 -26 13q-40 29 -42 30q-51 -14 -84 -7
q-4 -11 -7 -22q-3 -6 -10 -6q-1 0 -31 3q-7 0 -7 7l1 24l22 87l33 28q41 71 42 73q16 32 16 59q0 30 -18 77v41q3 13 19 30v630q0 14 12 7l33 -24q70 5 93 35q1 3 6 3h414q9 0 9 -7zM710 947h-402q-26 -32 -107 -36l-24 14l-3 -620q-15 -16 -17 -28q0 1 0 -36q19 -49 19 -80
q0 -29 -16 -62q-3 -5 -45 -79l-34 -27l-20 -80l-1 -14q18 -2 21 3q3 10 6 19q2 5 9 5q40 -6 86 8q6 0 7 -2q13 -8 36 -27q15 -12 21 -12q7 0 16 16q11 22 14 25l38 10q3 2 8 -1q15 -12 26 -12q13 0 27 23q16 27 28 34l17 -4q17 -15 34 -15q23 0 47 25l93 98q3 32 7.5 42.5
t17.5 10.5q9 0 39 -8l50 20q6 11 6 22q0 4 -4 23q-3 15 -1 27z" />
    <glyph glyph-name="o" unicode="o" horiz-adv-x="1296" 
d="M1208 353l-4 -20q-22 -24 -78.5 -47.5t-66.5 -37.5q3 -18 16 -37q10 -16 10 -32q0 -12 -4 -30l-34 -65q-30 -16 -35 -34q-8 -28 -16 -39q-6 -8 -13 0l-51 58h-740q-5 0 -7 4q-15 29 -4 61q-17 40 -20 88q-1 41 -3 81q-32 23 -32 38q0 10 6 25l-19 20q-5 19 -16 43
q-7 16 -7 28q0 15 8 43q-13 19 -22 59.5t-19 56.5q-3 4 -1 8q29 65 26 106q-7 8 -8 30q-2 26 -8 39q-5 10 8 10h953q6 0 7 -5l9 -31q10 -11 15 -69q7 -78 9 -88q51 -25 103 -86q60 -69 60 -123q0 -32 -22 -54zM1193 364q22 19 22 48q0 49 -59 113q-52 56 -99 77q-5 2 -5 6
q-3 13 -8 86q-5 59 -15 70l-8 30h-935q1 -5 1 -30q0 -18 9 -27q1 -8 1 -17q0 -43 -25 -100q42 -76 42 -121q-8 -27 -8 -41q0 -11 7 -26q9 -20 14 -37l19 -22q4 -4 1 -7q-4 -13 -4 -21q0 -13 27 -33q3 -15 6 -84q3 -52 20 -90q3 -3 0 -6q-11 -25 2 -48h737q5 0 7 -1l46 -54
q2 4 14 36q5 16 35 32l29 57q3 15 3 26q0 16 -11.5 34t-13.5 38q12 19 64 41q60 26 82 47z" />
    <glyph glyph-name="p" unicode="p" horiz-adv-x="1334" 
d="M1249 84q0 -7 -9 -7h-1176q-7 0 -7 7v606q0 8 7 8l1013 3l102 -54q8 -4 2 -12l-18 -24q-5 -23 5 -28q16 -7 18 -11q8 -25 39 -33l20 -14q4 -4 4 -7v-434zM1234 92v422l-16 9q-38 12 -46 41q-28 11 -28 30q0 7 3 24l15 18l-89 48l-1000 -2v-590h1161z" />
    <glyph glyph-name="q" unicode="q" horiz-adv-x="1301" 
d="M1255 589q-11 -22 -63 -51q-47 -27 -52 -54q0 -5 -3 -7q-16 -4 -22 -22q-23 -17 -64 -39q-47 -25 -64 -37h-659l-6 4t-9 4q-7 0 -8.5 -14t-7.5 -14h-233q-13 0 -6 13q12 19 24.5 22t25.5 5q18 38 17 57q-17 12 -17 19q0 1 14 36l4 4q16 6 29 6q22 0 58 -30q13 5 13 18
q0 6 -3 20t-4 21q0 7 6 9q23 3 59 13q-9 16 -9 26q0 20 20 34q6 -1 20 1q0 33 43 19l34 10q3 2 5 -1q10 -6 27 -20q10 -8 14 -8q8 0 18 24q1 3 5 4l29 9q4 1 8 -2l18 -23q9 8 17 27t17 28q3 2 6 2t6 -2q25 -24 38 -24q16 0 27 31l69 73q3 36 17 36q3 0 12.5 -1t17.5 -1
q16 4 42 22q-8 38 2 61q2 4 8 4q12 0 20 -5.5t12 -5.5q6 0 18 7q5 3 9 0l31 -28q8 -26 19 -32t40 -6l29 -24q5 3 46 5q37 2 64 23q7 8 12 -2l19 -34q41 -13 41 -53q0 -8 -1 -23q-4 -20 14 -51q16 -23 32 -47q9 -1 23 -12.5t25 -13t7 -10.5zM1236 588q-5 2 -17.5 12t-20 9.5
t-9.5 2.5q-17 28 -35 55q-20 36 -15 58q1 28 -3 38q-6 14 -31 22q-3 1 -5 3l-15 28q-21 -14 -43.5 -14.5t-44.5 -1.5q-12 -1 -18 -8t-12 -2l-29 26q-33 -1 -44 5.5t-22 37.5l-23 21q-11 -5 -18 -5q-4 0 -13 4.5t-18 5.5q-8 -5 0 -52q-11 -17 -53 -34q-7 0 -15.5 1.5
t-10.5 1.5q-8 0 -12 -28l-70 -76q-18 -39 -40 -39q-18 0 -43 25q-7 -21 -37 -56q-7 -3 -10 1l-21 24l-19 -6q-15 -34 -26 -34q-3 0 -50 33l-35 -7h-7q-8 5 -17 3q-12 -4 -9 -20q0 1 -20 -3q-12 -12 -12 -22q0 -7 9 -23q3 -4 -2 -10.5t-65 -17.5q5 -33 5 -38q0 -27 -27 -35
q-4 -2 -8 1q-34 30 -52 30q-8 0 -18 -3q-10 -23 -10 -22q0 -4 11 -12q4 -4 4 -6q3 -24 -21 -74q-13 -1 -37 -12h206q9 26 21 26q8 0 21 -6h652q39 18 120 65q2 14 11 22l14 10q7 33 52 57q50 27 57 39z" />
    <glyph glyph-name="r" unicode="r" horiz-adv-x="1148" 
d="M1056 -34l-11 -17q-65 -23 -62 -23q-15 0 -21 43l-82 38q-3 3 -4 5q-5 15 -6 16q-4 4 -13 0l-8 -31q5 -6 5 -11q0 -12 -37 -32q-21 1 -32 25q-24 -7 -34 3l-35 -25q-20 -2 -39.5 3.5t-39.5 11.5l-44 61q-72 15 -76 56q-11 1 -35 4q-2 2 -6 5q-5 14 -11 14q-4 0 -28 -26
l12 -15q7 -8 -2 -13q-13 -7 -37 -7q-41 0 -138 26l-56 23l-132 -16q-4 0 -7 5q-11 20 -11 29q0 12 26 41l16 45q-8 16 -8 36q0 22 10 55q32 25 32 83q0 47 -23 71q-1 1 -1 7q3 24 -11.5 39.5t-14.5 25.5q0 8 5 19l-13 31l-34 43v222q0 8 7 8h552q6 0 7 -5l20 -66l1 -44
l23 -36l1 -22q1 -6 -4 -8q-25 -12 -31 -23q-7 -20 -14 -41q-65 -96 -74 -205h346q4 0 6 -3l9 -13q2 -4 1 -6q-13 -36 -13 -53q0 -28 37 -65l6 -47q1 -5 -2 -7t-7 -1l-53 12l-53 27q-34 -20 -42 -42l10 -14q14 -3 26 -3q21 0 59 21l37 -1q7 0 8 -7q3 -14 -18 -33q3 -9 16 -13
l24 33q61 22 68 21q4 0 7 -3q10 -15 10 -31q0 -27 -25 -42q-27 -33 -58 -53q-2 -22 8 -31l32 -20l67 -32l11 -14q3 -3 1 -8zM1039 -30l-3 5l-66 32q-36 22 -37 23q-12 11 -12 31q0 7 1 16q0 2 2 5q29 18 60 55q19 9 19 31q0 9 -5 17q-14 -2 -51 -20l-26 -33q-6 -3 -9 -1
q-28 6 -35 29q-1 6 2 9q8 4 18 15l-25 1q-36 -22 -61 -22q-16 0 -37 7l-16 18q-2 2 -2 8q8 34 56 57q3 2 6 0l55 -27l41 -10l-4 33q-40 38 -40 68q0 18 14 56l-4 4h-351q-8 0 -8 10q8 115 78 219q7 22 15 44q6 13 32 26l-1 12l-24 38v44l-18 58h-538v-209l32 -38l16 -37
q1 0 0 -6q-3 -7 -3 -13t12.5 -26t10.5 -41q25 -29 25 -79q0 -62 -34 -94q-13 -50 1 -79q2 -1 0 -6l-19 -50q-22 -22 -22 -32q0 -6 5 -17l130 14l58 -24l58 -14q44 -11 69 -11q15 0 25 3l-9 13q-6 7 0 11q42 35 50 35q12 0 21 -20q12 0 36 -4q5 -4 5 -8q0 -32 70 -50l44 -61
q8 -2 31 -9q16 -5 32 -5l36 28q5 4 12 -2.5t14 -5.5q9 2 17 3q6 0 9 -4q3 -8 5.5 -14.5t10.5 -8.5q25 13 25 14q0 2 -3.5 6t-2.5 9l11 40q0 5 5 6q14 7 22 7q11 0 20 -29l83 -38q4 -2 4 -7q4 -31 14 -31q-3 0 43 18z" />
    <glyph glyph-name="s" unicode="s" horiz-adv-x="850" 
d="M778 276q-7 -46 -36 -46q-8 0 -18 4l-5 -2q-32 -33 -85 -37q-37 -16 -47 -16q-12 0 -33 10l-20 -18q-2 -1 -7 -1l-6 1q-25 -32 -35 -32q-3 0 -38 14q-13 -28 -43 -56q-33 -31 -55 -29q-6 -9 -33 -30l-32 6q-5 -12 -20 -33q-7 -7 -13 1q-17 26 -18 26q1 0 -35 -17
q2 -11 2 -20q0 -28 -21 -51q-26 -24 -52 -49q-9 -23 -32 -62q-10 -13 -14 3q-8 31 -4 62l-31 40q-1 1 -1 6l6 22v456q0 5 5 8q19 6 24 6t16 -9q8 22 11.5 25.5t16.5 0.5l-1 23q0 4 2 6q57 45 69 71q9 22 14 102q1 3 3 5q38 32 42 39.5t5 59.5l130 185q3 3 7 3l41 -1
q4 0 7 -4q3 -11 -1 -28q-3 -15 1 -29q14 -1 39 10.5t39 11.5q6 0 12 -2l16 15q5 5 8 3q33 -8 56 -34q3 -3 41 -55v-288q-5 -41 3 -52l31 -18q7 2 12 2q19 0 16 -33q-9 -16 -11 -64l22 -9q5 3 10 3q14 0 25 -15.5t11 -34.5q0 -21 -15 -36q6 -4 12.5 -8.5t6.5 -10.5zM761 273
q-7 4 -20 16q-7 7 1 12q17 14 17 37q0 28 -16 28q-4 0 -7.5 -3.5t-9.5 -1.5l-31 13q-5 2 -5 8q1 34 2 38q2 20 11 36q0 13 -13 10q-6 0 -6 1l-40 24q-12 25 -5 62v281q-28 41 -34 48q-20 22 -47 31l-18 -16q-3 -4 -6 -2q-8 2 -16 2q-14 0 -37.5 -10.5t-35.5 -10.5
q-5 0 -9 0.5t-6 4.5q-5 17 -3 31q4 20 3 26l-30 1l-125 -179q-3 -56 -6.5 -64t-43.5 -41q-6 -81 -17 -104q-12 -28 -70 -74l2 -29q0 -5 -2 -7q-3 -2 -7 0q-8 2 -11 2q-4 0 -6 -6q-5 -16 -6 -18q-2 -10 -11 -4q-17 12 -29 7l-6 -473l29 -40q0 -29 2 -44q7 15 21 44
q25 23 50 47q21 22 21 47q0 10 -3 22q-1 7 5 10q54 23 52 23q3 0 21 -28q4 8 15 27q3 3 6 3l33 -5q10 5 17 14.5t12 13.5q5 1 7 1q19 -6 51 27q29 30 36 53q1 9 9 6q35 -12 36 -12q8 0 29 27q2 2 7 2l7 -1l22 19q3 3 9 1q22 -11 34 -11q10 0 39 14q59 12 82 37l9 5q4 2 7 0
q6 -3 11 -3q16 0 23 25z" />
    <glyph glyph-name="t" unicode="t" horiz-adv-x="1323" 
d="M1230 252q-22 -56 -45 -112q-11 -28 -29 -34q-40 -8 -80 -17q-27 -21 -44 -21q-19 0 -28 31.5t-17 63.5q2 5 2 9q0 10 -11 10q-8 0 -14 -6q-3 -2 -8 -2q-60 14 -60 81q0 12 3 24q-2 11 2.5 26t2.5 25l-24 16q-3 2 -3 4l-1 17q-2 6 4 8q41 14 41 30q0 4 -1.5 18t-1.5 25
q-15 8 -20 18l-8 28q-2 4 1 7q8 12 88 94q-5 13 -19 17q-20 -38 -31 -46q-7 -5 -53 -26q-9 -11 -18 -23t-9 -23q0 -9 4 -19q-1 -19 -12 -53q-12 -37 -14 -55q4 -62 7 -73q9 -39 37 -59q4 -4 4 -7q-3 -13 -21 -20l16 -9q26 -72 25 -77q-2 -8 -9 -7l-16 2q-59 53 -142 57
q-19 1 -40 38q-32 -11 -47 -11q-34 0 -30 55l30 50l47 59q-35 26 -57 76q-70 15 -70 42q0 13 15 31q-31 23 -54 23q-5 0 -7 6l-27 95q-31 -5 -59 18l-81 -10l-11 -17l-6 -3q-23 -4 -33 -4q-29 0 -45 26l-17 -21l-19 -7l-26 -26l-26 -3l-95 -70q-12 -7 -12 7v178q0 7 7 7h982
q9 0 9 -7v-444h166q14 0 8 -10zM1210 246h-163q-7 0 -7 8v443h-966v-153l85 63l25 2l23 25l21 4l21 30q8 12 13 -2q10 -21 25 -26q10 -3 37 1l11 17q3 3 6 3l90 11q6 0 7 -1q23 -20 54 -16q7 1 9 -6l28 -96q18 -2 63 -31q10 -4 1 -11q-14 -15 -14 -25q0 -17 60 -31q4 0 6 -5
q20 -48 61 -78q5 -5 1 -12l-53 -63l-28 -46q-1 -34 20 -34q10 0 42 12q7 2 10 -3q6 -12 12 -23q8 -14 18 -14q87 -3 149 -57h2q-8 21 -21 57l-24 15q-13 9 1 14q10 0 23 8q-28 22 -38 64q-5 20 -8 79q2 19 13.5 53t13.5 50q-6 13 -6 24q0 13 10 28t21 30q48 21 53 25
q12 9 31 47q3 4 10 3q22 -7 24 -8q5 -4 14 -23q2 -5 -1 -9q-32 -30 -89 -94q3 -10 6 -18.5t17 -15.5q4 -2 4 -7q1 -14 3 -34q1 -16 1 -22q0 -14 -8 -19.5t-38 -16.5l2 -6l24 -17q3 -13 -1 -31t-2 -30q-2 -10 -2 -21q0 -55 44 -67q13 11 28 11q23 0 23 -23q0 -7 -4 -17
q6 -24 12 -48.5t20 -24.5q12 0 33 16q37 8 75 16q18 6 28 30q20 48 39 96z" />
    <glyph glyph-name="u" unicode="u" horiz-adv-x="1318" 
d="M1251 46q-3 -5 -6 -6q-4 -1 -9 4l-25 30q-93 -14 -182 -60q-23 7 -26 34q-1 7 2 48l-3 1q-72 -71 -118 -97q-8 -5 -12 4q-12 31 -23 45q-17 19 -33 37q1 24 -13 35l-40 22q-3 1 -3 7l-4 42q-24 13 -24 21q0 4 5 26h-458l-12 -15q-6 -7 -13 -1l-15 13h-175q-8 0 -7 10
l12 119l68 211q2 6 8 6h629q7 17 36 19q3 1 4 2q0 31 2.5 33t37.5 2l42 41q2 2 5 2q41 -2 49 -25q3 -9 3 -63l42 -64q1 -1 1 -4t-1 -5l-13 -18q-31 -8 -56.5 -38.5t-34.5 -66.5l44 -10q74 -78 123 -231q71 -25 86 -25q32 0 75 48l-32 48q-34 31 -34 54q0 16 17 16
q21 0 48 -25q44 -118 44 -163q0 -32 -11 -63zM1239 66q6 22 6 45q0 43 -39 150q-15 22 -30 22q-8 0 -8 -8q0 -15 32 -37l36 -57q2 -4 0 -9q-51 -59 -87 -59q-18 0 -100 29q-3 2 -5 5q-28 85 -45 121q-27 59 -70 105l-49 11q-6 1 -4 9q6 40 32.5 74.5t63.5 46.5l6 11l-40 65
q0 53 0 52q-4 21 -34 23l-44 -40q-24 0 -27.5 -2.5t-3.5 -23.5q-9 -1 -18 -3q-18 -3 -23 -24q-1 -7 -8 -7h-629l-67 -204l-11 -109h171l15 -11l11 11q2 2 6 2h471q9 0 8 -8q-5 -31 -5 -26q0 -6 18 -15q3 -1 4 -7l4 -44q21 -13 42 -25q15 -11 13 -37q16 -18 32 -35
q11 -14 21 -38q27 17 111 91q3 5 7 3l13 -5q5 -1 5 -7q0 -9 -3 -26t-3 -24q0 -17 14 -21q89 45 185 60q6 0 8 -2z" />
    <glyph glyph-name="v" unicode="v" horiz-adv-x="1187" 
d="M952 674q-2 -24 -26 -24q-12 0 -29 6l-22 -5q-14 6 -37 7q-26 0 -37 4q-4 -18 -14 -18q-9 0 -29 17q-22 4 -63 15q-29 -10 -52 -25q-17 -12 -25 -12q-9 0 -25 7q-6 -16 -22 -27l-32 -22q-6 -5 -10 1l-10 10q-2 2 -2 5t2 5q16 16 16 17q0 2 -8 4l-18 -24q-10 -13 -15 2
q-7 25 -11 25t-13 -31q-10 -38 -23 -56l-23 -26l-4 -24q-3 -13 -14 -4q-24 20 -24 32q0 9 10 23q-8 -1 -23 2q-5 2 -3 7l10 55q-36 19 -36 31q0 2 1 6q-21 19 -45 19q-7 0 -13 -3q-8 -3 -11 5q-3 4 -25 17t-28 13l-127 47q-4 1 -4 6q-3 23 -14 28q-15 5 -20 15q-6 9 4 11
q29 7 41 11q25 9 33 24q2 3 6 2q52 -3 99 25l70 54q40 30 73 30q15 0 32 -5l6 -6l1 -3q1 -7 -5 -10l-28 -12q-66 -34 -69 -85q26 14 50 14q38 0 56 -26l32 -48q40 4 58 -10q16 -8 17 -8q5 0 16 11l39 21l121 14l47 16q5 1 8 -3l6 -8q1 -3 1 -5q0 -3 -1 -4q-10 -13 -10 -24
q0 -12 10 -21q5 1 73 1l19 -16q9 -26 15 -34.5t28 -21.5q36 5 48 -7q2 -2 2 -7zM1095 114l-7 -32q0 -54 -23 -54q-4 0 -8.5 2t-4.5 5l-1 3q-10 -11 -13 -38q0 -2 -4 -6q-17 -11 -21 -14.5t-12 -18.5q-2 -26 -16 -46q-20 -29 -25 -42q-1 -5 -8 -5h-181q-3 0 0 3t0 3h-287
q-7 0 -9 6q-1 5 5 10q22 14 57 69q37 59 37 90q0 8 -3 12q-1 1 -1 7q4 38 -8 83q0 1 -26 80q8 21 6 43q-4 33 -3 41q21 25 30 56q4 12 12 62q3 2 28 33q17 21 30 19q21 36 28 36t9 -56q14 6 16 22q-1 -5 -1 33q19 30 50 44q-3 20 -3 27q0 12 9 21q18 15 36 29q6 5 12 -2
l15 -15q17 -7 34.5 -14.5t27.5 -20.5q50 -18 95 -48q15 -43 15 -42q0 -10 -21 -14l-1 -3q21 -38 21 -69q0 -16 -5 -46q-11 -13 -28 -38q-3 -16 -28 -31t-25 -38q0 -7 3 -14.5t8 -13.5q2 -3 11 -4l44 48q26 26 53 40q3 2 6 0l38 -18q5 -3 5 -5l28 -109zM937 672q-3 8 -16 6
q-12 -2 -23 -4q-28 16 -35 24.5t-17 35.5l-12 10q-56 4 -65 -1q-3 -2 -8 1q-19 13 -19 32q0 14 10 31l-44 -13l-118 -15l-34 -20q-17 -15 -23 -15q-1 0 -28 12q-13 9 -55 9q-4 0 -6 4l-33 49q-14 20 -43 20q-25 0 -53 -19q-10 -7 -12 6q-6 41 32 79q35 34 68 38q-13 7 -27 7
q-26 0 -64 -30q-64 -49 -73 -55q-48 -29 -96 -27q-18 -23 -69 -34q8 -5 16.5 -10t11.5 -24l122 -45q21 -3 57 -34q6 2 12 2q39 0 63 -28q4 -5 1 -9q-2 -3 -2 -6q0 -5 13 -9q18 -5 21 -6q5 -4 4 -9l-11 -57q9 2 25 -2q9 -4 3 -11q-16 -21 -3 -33l4 17l23 25q12 19 28 62
q11 33 19 33q9 0 22 -26l14 20q3 4 8 3q25 -10 25 -19q0 -4 -14 -25q13 10 26.5 20t19.5 28q3 8 10 4q19 -8 28 -8q8 0 24 12q20 15 49 24h7q23 -6 67 -17q15 -15 20 -7q8 15 11 14q13 -6 39 -7.5t39 -8.5l22 4q20 -8 29 -8q10 0 10 10zM1081 115l-6 65l-27 105l-30 15
q-28 -16 -90 -85q-4 -2 -6 -2q-19 1 -24 5q-1 0 -15 20q-4 13 -4 23q0 22 25 39t28 33l30 39q7 60 -19 104q-2 3 0 8l5 10q2 5 5 5q14 3 14 8q0 -5 -12 24q-56 33 -92 46q-10 14 -60 34l-14 13q-14 -11 -27 -22q-8 -7 -8 -18q0 -7 2 -25q0 -6 -3 -9q-25 -11 -26 -12
q-9 -5 -19 -21q0 -39 -2 -44q-6 -19 -35 -28q-10 -4 -10 6q-3 37 -1 41q0 -1 -9 -20q-2 -3 -8 -3q-13 2 -25.5 -14.5t-24.5 -31.5q-5 -45 -10 -61q-8 -28 -29 -55q0 -4 3 -38q2 -20 -5 -40q34 -106 34 -135q0 -12 -1 -24q6 -10 6 -24q0 -62 -87 -155h273q8 0 8 -7h163
q3 9 23 38q13 20 15 42q13 26 36 42q5 35 28 52q9 6 13 -3l4 -11q6 0 8 8q1 6 0 17l-2 15z" />
    <glyph glyph-name="w" unicode="w" horiz-adv-x="1136" 
d="M1041 723q-33 -28 -106 -58q-12 -11 -34 -24q-26 -16 -35 -23q-41 -43 -82 -87q-50 -52 -86 -81l2 -99q-20 -17 -59 -51l-2 -12l-12 -30q23 -17 23 -36q0 -9 -4 -22q1 -7 1 -15q0 -9 -2 -27.5t-2 -27.5q0 -22 9 -34q25 -26 107 -61l17 -31q27 -19 55 -37q25 -21 29 -55
l20 -59q4 -11 -7 -11h-721q-8 0 -8 8v341l-46 44l-3 19q0 5 2 7q23 24 27 37q2 7 1 46l3 22l-26 81q0 26 -3 74q-3 53 -3 74l-12 51l-14 17q-16 72 -16 107q0 32 9 55l-13 55q-2 10 7 10h246l4 62q1 10 10 8l45 -12q6 -1 6 -6l8 -90l23 -17q18 2 48 -7q34 -9 44 -21
q28 0 41 14l57 5q30 -7 36 -13q9 -9 18.5 -16.5t14 -18.5t12.5 -17q17 13 25 13q9 0 27 -15l27 -7q15 -20 33 -20q13 0 68 35q5 4 9 -2l17 -18q72 7 97 -5l15 -13q14 6 48 7q7 1 9 -4q1 -4 -4 -9zM1011 719q-11 -1 -19 -8q-5 -2 -10 2l-18 15q-13 6 -30 7q-11 1 -31 -1
q-23 -2 -30 -2q-4 1 -5 2l-16 17q-50 -37 -71 -37q-23 0 -43 24l-27 8q-10 10 -16 10t-21 -11q-2 -2 -9 0q-10 7 -15.5 19t-14 19t-15.5 15q-5 5 -32 12l-49 -4q-13 -14 -24 -15q-1 -1 -29 1q-4 0 -7.5 7.5t-26 14t-41.5 6.5q-8 0 -12 -1q-5 0 -6 2l-28 20q-4 4 -4 5l-9 88
l-30 9l-3 -60q-1 -8 -8 -8h-245l14 -51q-10 -23 -10 -54q0 -25 14 -100l15 -17l11 -56q1 -22 4 -74q3 -47 3 -74l26 -81l-3 -26q3 -41 0 -50q-4 -14 -30 -40l1 -10l46 -42q3 -3 3 -5v-337h702l-17 51q-4 31 -30 50t-53 37l-15 27q-40 19 -58 29q-36 20 -51 35q-9 13 -9 39
q0 9 1.5 29t1.5 29q0 11 -1 19q3 9 3 16q0 14 -22 31q-5 4 -2 9l15 33l1 13q0 5 2 7q22 14 58 46l-3 97q-1 5 1 6q57 45 169 170q26 13 75 49q29 11 83 39z" />
    <glyph glyph-name="x" unicode="x" horiz-adv-x="783" 
d="M674 -69l-2 -8q-8 -6 -11 -6t-24 9l-3 4l-28 -8l-18 6l-66 -22q-61 -20 -73 -20q-15 0 -23 34q-18 17 -38 39l-1 51l7 24h-343q-8 0 -8 8q-1 23 2 65q10 44 32 96q12 18 33 53q4 6 9 36q3 17 34 34l-1 12l-25 35l-1 43l-26 43q1 16 2.5 34t11.5 28l-7 33l-16 17l-8 38
q28 47 28 83l17 22v24l33 48l31 19l5 17q-2 14 -2 25q0 25 13 43q6 9 32 34q2 20 10 20h376q9 0 9 -7l-2 -648l13 -119zM658 -65l-27 235q-6 36 -14 118q0 -5 1 213v427h-362l-3 -13q-29 -25 -35 -39.5t-6 -54.5l-6 -23l-2 -4l-32 -18l-28 -41l-1 -27l-15 -21
q-1 -37 -29 -80l7 -30l14 -15l11 -42q0 -2 -8 -11t-8 -23q0 -25 0 -23l25 -43l2 -42l23 -35l3 -21q0 -6 -4 -8q-24 -16 -26 -19q-5 -6 -10 -31q-1 -7 -3 -14q-13 -18 -34 -54q-40 -91 -33 -146h346q8 0 8 -8q0 -4 -5 -17.5t-5 -17.5l1 -44l37 -35q6 -24 17 -24q-2 0 131 40
l18 -5q30 9 31 9q5 0 10 -10z" />
    <glyph glyph-name="y" unicode="y" horiz-adv-x="1115" 
d="M1061 108l-17 -50q-2 -3 -4 -4l-13 -4q-4 1 -8 1q-17 0 -34 -41q-4 -24 -18 -73q-2 -6 -8 -6l-105 -1q-4 2 -6 10q5 28 45 52q2 13 -12 38h-666q-8 0 -8 8v514q-29 16 -30 17q-6 6 -13 37q-26 12 -26 30q0 16 21 42l-54 46q-3 1 -3 8q4 33 -52 113q-9 12 6 12h587
q5 0 6 -3l43 -55q3 -5 1 -8q-8 -26 -8 -48q0 -66 95 -145q12 -13 19 -43q8 -33 16 -43q21 14 30 14q4 0 38 -22q4 -8 2 -29q-3 -26 -1 -37q0 -6 -1 -7l-33 -38q25 -52 91 -78q23 -22 37 -47q20 -38 27 -47q2 -5 1 -7q-5 -7 -13 -23l26 -46q13 6 18 6q16 0 24 -43zM1045 111
q-4 22 -13 22q-1 0 -16 -5q-6 -2 -10 4l-31 54q-1 3 0 8q6 6 16 21q-12 25 -58 86q-74 30 -101 90q-1 5 1 8l36 41q4 20 2 53q-25 15 -27 15q-6 0 -26 -14q-4 -3 -10 1q-11 11 -18 44.5t-21 46.5q-100 87 -100 155q0 24 9 50l-40 50h-567q47 -71 46 -107l60 -50q6 -5 1 -11
q-22 -25 -22 -35q0 -11 18 -20q5 -1 5 -6q5 -26 11 -32q15 -8 29 -16q5 -1 5 -7v-511h663q6 0 8 -5q6 -14 11 -29q4 -11 -2 -28q-29 -22 -38 -38l86 1q5 21 18 68q8 17 18.5 34.5t26.5 17.5q5 0 10 -2l5 3z" />
    <glyph glyph-name="z" unicode="z" horiz-adv-x="1352" 
d="M1258 135q0 -8 -9 -8h-721v-41q-1 -33 -10 -33q-5 0 -15.5 17t-17.5 20l-4 -3q2 -6 2 -10q0 -5 -43 -12q-17 2 -45 9l-12 -10q-5 -1 -8 -1l-27 8q-11 -19 -15 -19q-30 0 -30 41q0 11 -3 20l-7 7l-9 -1q-6 0 -14 11t-8 17q0 2 2.5 7t2.5 8q0 4 -13 18q-12 33 -8 66
q-4 5 -12 12l-18 -18q-12 -11 -22 -11q-3 0 -16 10.5t-13 15.5t1.5 15.5t1.5 16.5l2 8l12 10v6l-2 3v25q0 2 1 7l8 5l15 49l-3 2q-18 1 -19 1q-5 2 -9 13l-8 -1q-7 0 -41 77q-8 4 -30 24t-22 24l2 5q8 9 8 20t-25 56l13 108q1 6 8 6h1171q9 0 9 -7v-593zM1242 143v576h-1158
l-12 -94q25 -50 25 -63q0 -12 -6 -22q14 -13 44 -39q12 -24 35 -71l9 1q8 0 10 -13l17 -2l11 -9l2 -7l-16 -58l-8 -8q2 -11 4 -33l-3 -6l-12 -11q1 -10 1 -12q0 -6 -3 -14l15 -12q4 2 19 18q13 13 20 13q3 0 12 -9.5t11 -11.5q2 -5 2 -23q0 -26 12 -47t12 -22q0 -6 -6 -19
l8 -11l8 1l6 -2l13 -13q1 -4 1 -28q0 -12 15 -21q10 17 15 17l30 -8q15 12 18 12l6 -2q6 -5 22 -5.5t22 -3.5l23 3q-1 4 -1 6q0 3 2 7q16 13 18 13q4 -1 14 -9.5t12 -13.5q-1 16 -1 32q1 24 10 24h722z" />
  </font>
</defs>
</svg>
