<?xml version="1.0" standalone="no"?>
<!DOCTYPE svg PUBLIC "-//W3C//DTD SVG 1.1//EN" "http://www.w3.org/Graphics/SVG/1.1/DTD/svg11.dtd" >
<svg xmlns="http://www.w3.org/2000/svg" xmlns:xlink="http://www.w3.org/1999/xlink" version="1.1">
<metadata>
Created by FontForge 20170924 at Thu Jan 12 22:25:18 2012
 By www-data
Copyright (c) 2011 by LatinoType Limitada (luciano@latinotype.com), with Reserved Font Names "Sail"
</metadata>
<defs>
<font id="Sail-Regular" horiz-adv-x="441" >
  <font-face 
    font-family="Sail"
    font-weight="400"
    font-stretch="normal"
    units-per-em="1000"
    panose-1="2 0 0 0 0 0 0 0 0 0"
    ascent="800"
    descent="-200"
    x-height="389"
    cap-height="609"
    bbox="-77 -294 1482 860"
    underline-thickness="50"
    underline-position="-100"
    unicode-range="U+0020-2122"
  />
<missing-glyph horiz-adv-x="251" 
 />
    <glyph glyph-name=".notdef" horiz-adv-x="251" 
 />
    <glyph glyph-name="i" unicode="i" horiz-adv-x="242" 
d="M248 389l-69 -378c20 2 37 12 50 28l15 -12c-19 -23 -45 -36 -75 -36c-62 0 -96 35 -96 83c0 31 9 67 16 109l33 179h-42l2 18h43c77 0 123 9 123 9zM135 536c0 40 32 73 72 73s73 -33 73 -73s-33 -72 -73 -72s-72 32 -72 72z" />
    <glyph glyph-name="f" unicode="f" horiz-adv-x="304" 
d="M172 -70h-121l77 432h-61l2 18h62l16 86c21 133 62 182 147 182c45 0 83 -33 83 -106c0 -56 -22 -110 -43 -162h38l-2 -18h-44c-18 -45 -34 -88 -34 -129h-18c0 45 15 87 33 129h-58c-25 -133 -53 -293 -77 -432zM301 630c-7 -26 -26 -124 -49 -250h62
c22 50 44 102 44 162c0 48 -25 88 -57 88z" />
    <glyph glyph-name="b" unicode="b" horiz-adv-x="461" 
d="M241 -9c-52 0 -79 23 -92 42l-84 -60h-19l112 655c-20 -2 -37 -12 -50 -28l-15 12c19 23 45 36 75 36c62 0 96 -32 96 -88c0 -8 -1 -17 -2 -26c0 0 -16 -89 -39 -214c21 34 56 68 108 68c92 0 140 -57 140 -144c0 -161 -97 -253 -230 -253zM210 248
c-12 -62 -25 -129 -37 -198c8 -15 25 -32 61 -32c74 0 124 118 124 267c0 64 -13 80 -40 80c-65 0 -106 -116 -106 -117h-2z" />
    <glyph glyph-name="p" unicode="p" horiz-adv-x="479" 
d="M259 -8c-36 0 -59 10 -73 21l-30 -161h-119l94 524c-20 -2 -37 -12 -50 -28l-15 12c19 23 45 36 75 36c59 0 93 -30 96 -82c21 36 56 75 112 75c92 0 140 -57 140 -144c0 -161 -97 -253 -230 -253zM229 249l-36 -196c7 -16 22 -38 63 -38c65 0 120 122 120 271
c0 64 -13 80 -40 80c-65 0 -106 -116 -106 -117h-1z" />
    <glyph glyph-name="q" unicode="q" horiz-adv-x="465" 
d="M363 380c77 0 123 9 123 9l-101 -552c20 2 37 12 50 28l15 -12c-19 -23 -45 -36 -75 -36c-62 0 -96 32 -96 88c0 14 4 38 9 64c0 0 5 31 15 86c-21 -33 -55 -64 -105 -64c-92 0 -140 57 -140 144c0 161 85 254 201 254c49 0 80 -23 94 -60c3 17 7 33 10 51zM211 14
c65 0 106 116 106 117l26 141v4c0 27 -7 94 -84 94c-44 0 -88 -165 -88 -276c0 -64 13 -80 40 -80z" />
    <glyph glyph-name="o" unicode="o" 
d="M59 135c0 121 43 254 235 254c104 0 157 -57 157 -144c0 -146 -78 -254 -235 -254c-105 0 -157 57 -157 144zM218 14c62 0 120 122 120 272c0 54 -11 84 -45 84c-56 0 -121 -102 -121 -276c0 -63 22 -80 46 -80z" />
    <glyph glyph-name="j" unicode="j" horiz-adv-x="229" 
d="M137 536c0 40 32 73 72 73s73 -33 73 -73s-33 -72 -73 -72s-72 32 -72 72zM43 -75c0 0 35 189 81 437h-43l2 18h43c77 0 123 9 123 9c-19 -108 -46 -251 -65 -359c-24 -138 -84 -214 -208 -214c-32 0 -46 9 -46 9l7 19s17 -9 36 -9c44 0 57 21 70 90z" />
    <glyph glyph-name="c" unicode="c" horiz-adv-x="405" 
d="M279 260c0 40 32 73 72 73c14 0 16 -2 23 -4c-12 22 -41 35 -70 35c-62 0 -133 -75 -133 -262c0 -64 34 -88 73 -88c106 0 142 116 142 117l18 -8s-27 -132 -182 -132c-110 0 -164 57 -164 144c0 161 87 254 221 254c94 0 143 -53 143 -127c0 -51 -37 -74 -71 -74
c-40 0 -72 32 -72 72z" />
    <glyph glyph-name="d" unicode="d" horiz-adv-x="481" 
d="M416 11c20 2 37 12 50 28l15 -12c-19 -23 -45 -36 -75 -36c-57 0 -91 27 -96 75c-21 -36 -56 -75 -112 -75c-92 0 -140 57 -140 144c0 161 85 254 201 254c34 0 60 -10 79 -31c6 -8 12 -16 15 -24l54 294c-20 -2 -37 -12 -50 -28l-15 12c19 23 45 36 75 36
c62 0 96 -32 96 -88c0 -8 -1 -17 -2 -26c0 0 -49 -275 -95 -523zM211 14c58 0 97 92 105 113l29 158c-2 30 -16 85 -86 85c-44 0 -88 -165 -88 -276c0 -64 13 -80 40 -80z" />
    <glyph glyph-name="colon" unicode=":" horiz-adv-x="270" 
d="M76 64c0 40 32 73 72 73s73 -33 73 -73s-33 -72 -73 -72s-72 32 -72 72zM116 316c0 40 32 73 72 73s73 -33 73 -73s-33 -72 -73 -72s-72 32 -72 72z" />
    <glyph glyph-name="l" unicode="l" horiz-adv-x="278" 
d="M168 11c62 0 97 117 97 117l18 -8s-32 -129 -125 -129c-62 0 -96 32 -96 88c0 8 1 17 2 26l65 360c24 136 66 183 133 183c45 0 83 -33 83 -106c0 -112 -85 -212 -85 -309h-18c0 108 84 193 84 309c0 48 -25 88 -57 88c-1 -33 -55 -371 -101 -619z" />
    <glyph glyph-name="A" unicode="A" horiz-adv-x="1149" 
d="M842 110c-49 0 -93 16 -134 41c-91 -158 -195 -298 -370 -298c-90 0 -165 29 -216 84c-44 49 -69 115 -69 187c0 137 92 283 262 283c69 0 126 -23 165 -67c7 -9 14 -18 20 -27c43 -18 83 -45 123 -76c25 -20 51 -41 77 -58c13 22 25 45 38 68c113 205 230 418 476 349
l-5 -19c-18 5 -35 8 -51 10c-13 -51 -101 -405 -115 -628c29 0 50 28 50 28l15 -12s-24 -36 -75 -36c-69 0 -112 29 -112 97c0 25 3 55 7 89c-29 -9 -63 -15 -86 -15zM532 197c0 -91 -55 -188 -157 -188c-66 0 -106 47 -106 91c0 90 84 100 85 100l2 -20
c-2 0 -67 -8 -67 -80c0 -35 32 -71 86 -71c90 0 138 84 138 168c0 36 -9 70 -25 99c-34 13 -69 21 -109 21c-113 0 -145 -93 -147 -97l-19 6c1 1 39 111 166 111c32 0 62 -5 89 -13l-2 3c-36 39 -83 60 -151 60c-157 0 -242 -136 -242 -263c0 -67 23 -129 64 -173
c47 -51 116 -78 201 -78c165 0 265 136 353 289c-28 18 -54 38 -80 59c-32 25 -63 46 -96 63c11 -27 17 -56 17 -87zM756 237l-38 -69c61 -36 128 -55 213 -21c22 154 74 359 90 420c-113 -53 -188 -189 -265 -330z" />
    <glyph glyph-name="e" unicode="e" horiz-adv-x="397" 
d="M275 389c91 0 127 -40 127 -101c0 -85 -85 -128 -229 -129c-1 -18 -2 -37 -2 -57c0 -64 34 -88 73 -88c106 0 142 116 142 117l18 -8s-27 -132 -182 -132c-110 0 -164 57 -164 144c0 161 87 254 217 254zM304 364c-52 0 -111 -54 -128 -182c149 1 201 43 201 106
c0 43 -26 76 -73 76z" />
    <glyph glyph-name="period" unicode="." horiz-adv-x="237" 
d="M61 64c0 40 32 73 72 73s73 -33 73 -73s-33 -72 -73 -72s-72 32 -72 72z" />
    <glyph glyph-name="g" unicode="g" horiz-adv-x="465" 
d="M37 -102c0 35 22 71 89 71c64 0 110 -23 154 -45l4 19l27 147c-22 -41 -59 -83 -116 -83c-92 0 -136 47 -136 134c0 151 85 248 201 248c34 0 60 -10 79 -31c7 -8 12 -18 16 -27l9 49c77 0 121 9 121 9l-66 -369c-10 -52 -30 -94 -60 -126c9 -2 19 -3 29 -3
c40 0 62 28 62 28l14 -12s-24 -34 -76 -34c-16 0 -31 2 -45 5c-45 -41 -107 -62 -174 -62c-85 0 -132 31 -132 82zM212 33c61 0 101 95 111 123l21 115v7c0 27 -7 92 -84 92c-44 0 -88 -149 -88 -260c0 -64 13 -77 40 -77zM165 -164c59 0 91 27 108 69
c-42 21 -84 45 -147 45c-46 0 -68 -23 -68 -50c0 -44 44 -64 107 -64z" />
    <glyph glyph-name="n" unicode="n" horiz-adv-x="499" 
d="M486 263c0 -63 -36 -166 -40 -252c26 0 50 28 50 28l15 -12s-19 -36 -84 -36c-60 0 -91 29 -91 82c0 68 36 184 36 243c0 32 -14 43 -41 43c-44 0 -87 -62 -114 -161l-34 -187c20 2 38 12 51 28l15 -12c-19 -23 -45 -36 -75 -36c-62 0 -96 35 -96 83c0 31 9 68 16 110
l33 185c-20 -2 -37 -12 -50 -28l-15 12c19 23 45 36 75 36c62 0 96 -32 96 -88v-6c23 53 59 94 128 94c78 0 125 -47 125 -126z" />
    <glyph glyph-name="r" unicode="r" horiz-adv-x="392" 
d="M80 341l-15 12c19 23 45 36 75 36c62 0 96 -32 96 -88v-6c31 65 67 94 117 94c52 0 77 -24 77 -80c0 -79 -88 -137 -88 -200h-24c0 72 86 128 86 196c0 53 -24 61 -51 61c-83 0 -130 -156 -133 -166v-1l-36 -199h-120l66 369c-20 -2 -37 -12 -50 -28z" />
    <glyph glyph-name="h" unicode="h" horiz-adv-x="487" 
d="M474 263c0 -63 -36 -166 -40 -252c26 0 50 28 50 28l15 -12s-19 -36 -84 -36c-60 0 -91 29 -91 82c0 68 36 184 36 243c0 32 -14 43 -41 43c-46 0 -90 -66 -117 -171l-33 -188h-120l111 628c-20 -2 -37 -12 -50 -28l-15 12c19 23 45 36 75 36c62 0 96 -32 96 -88
c0 -8 -1 -17 -2 -26l-42 -237c23 52 59 92 127 92c78 0 125 -47 125 -126z" />
    <glyph glyph-name="m" unicode="m" horiz-adv-x="745" 
d="M732 263c0 -63 -36 -166 -40 -252c26 0 50 28 50 28l15 -12s-19 -36 -84 -36c-60 0 -91 29 -91 82c0 68 36 184 36 243c0 32 -14 43 -41 43c-46 0 -80 -66 -107 -172c-11 -55 -28 -119 -30 -176c26 0 50 28 50 28l15 -12s-19 -36 -84 -36c-60 0 -91 29 -91 82
c0 68 36 184 36 243c0 32 -14 43 -41 43c-44 0 -78 -61 -104 -159l-36 -200h-120l66 369c-20 -2 -37 -12 -50 -28l-15 12c19 23 45 36 75 36c62 0 96 -32 96 -88v-3c22 52 55 91 118 91c74 0 120 -43 124 -116c22 64 55 116 128 116c78 0 125 -47 125 -126z" />
    <glyph glyph-name="s" unicode="s" horiz-adv-x="368" 
d="M153 17c70 0 99 50 99 146c0 62 -17 98 -23 146c-26 -27 -73 -65 -137 -76v24c64 14 113 59 135 82v4c0 55 28 92 28 92h24c0 -132 90 -147 90 -279c0 -94 -79 -165 -189 -165c-96 0 -145 57 -145 116c0 60 40 80 74 80c40 0 69 -29 69 -69s-28 -73 -68 -73
c-14 0 -20 2 -27 4c15 -22 43 -32 70 -32z" />
    <glyph glyph-name="u" unicode="u" horiz-adv-x="499" 
d="M81 117c0 63 36 166 40 252c-26 0 -50 -28 -50 -28l-15 12s19 36 84 36c60 0 91 -29 91 -82c0 -68 -36 -184 -36 -243c0 -32 14 -43 41 -43c39 0 77 48 104 128l42 231c77 0 121 9 121 9l-67 -378c20 2 37 12 50 28l15 -12c-19 -23 -45 -36 -75 -36c-61 0 -95 31 -96 84
c-24 -48 -60 -84 -124 -84c-78 0 -125 47 -125 126z" />
    <glyph glyph-name="k" unicode="k" horiz-adv-x="470" 
d="M427 20c26 0 36 19 36 19l15 -12s-19 -36 -84 -36c-167 0 -102 186 -191 202c-17 -92 -27 -142 -36 -193h-119l113 628c-20 -2 -37 -12 -50 -28l-15 12c19 23 45 36 75 36c62 0 96 -32 96 -88c0 -8 -1 -17 -2 -26c0 0 -23 -127 -50 -274c33 82 99 129 181 129
c62 0 87 -35 87 -75s-28 -70 -68 -70c-44 0 -64 28 -64 61c0 43 20 58 24 61c-69 -8 -119 -64 -153 -142c7 1 14 2 24 2c192 0 97 -206 181 -206z" />
    <glyph glyph-name="y" unicode="y" horiz-adv-x="483" 
d="M82 133c0 63 35 150 39 236c-26 0 -50 -28 -50 -28l-15 12s19 36 84 36c60 0 91 -29 91 -82c0 -68 -38 -163 -38 -222c0 -32 13 -48 40 -48c44 0 89 65 116 166l33 177c77 0 121 9 121 9l-63 -354c-24 -135 -112 -219 -253 -219c-85 0 -132 31 -132 82c0 35 22 71 87 71
c57 0 71 -21 113 -27l-2 -18c-42 4 -57 26 -111 26c-46 0 -66 -23 -66 -50c0 -44 47 -64 101 -64c84 0 115 57 128 125l25 138c-24 -53 -60 -92 -127 -92c-78 0 -121 47 -121 126z" />
    <glyph glyph-name="t" unicode="t" horiz-adv-x="322" 
d="M271 537c0 0 -14 -70 -31 -157h124l-2 -18h-125c-24 -124 -50 -274 -50 -311c0 -21 13 -32 31 -32c54 0 92 81 105 136l18 -6c-20 -85 -62 -158 -153 -158c-62 0 -112 36 -112 99c0 46 18 147 41 272h-49l2 18h51c8 47 18 96 27 148c77 0 123 9 123 9z" />
    <glyph glyph-name="v" unicode="v" 
d="M300 316c0 40 32 73 72 73c31 0 58 -20 68 -48c0 0 1 -1 1 -2v-1c5 -11 12 -37 12 -89c0 -86 -53 -258 -218 -258c-87 0 -145 61 -145 140c0 84 35 152 39 238c-35 -2 -60 -42 -60 -42l-15 12s26 50 94 50c60 0 89 -36 89 -89c0 -68 -40 -152 -40 -225
c0 -33 19 -62 56 -62c89 0 177 115 177 236c0 7 -1 14 -2 21c-13 -16 -34 -26 -56 -26c-40 0 -72 32 -72 72z" />
    <glyph glyph-name="w" unicode="w" horiz-adv-x="689" 
d="M547 316c0 40 32 73 72 73c31 0 58 -20 68 -48c0 0 1 -1 1 -2v-1c5 -11 12 -37 12 -89c0 -86 -49 -258 -214 -258c-53 0 -95 22 -120 58c-28 -34 -70 -58 -131 -58c-87 0 -145 61 -145 140c0 84 35 152 39 238c-35 -2 -60 -42 -60 -42l-15 12s26 50 94 50
c60 0 89 -36 89 -89c0 -68 -40 -152 -40 -225c0 -33 19 -62 56 -62c40 0 74 23 99 60c-7 18 -11 37 -11 58c0 84 35 152 39 238c-35 -2 -60 -42 -60 -42l-15 12s26 50 94 50c60 0 89 -36 89 -89c0 -68 -40 -152 -40 -225c0 -33 19 -62 56 -62c89 0 173 115 173 236
c0 7 -1 14 -2 21c-13 -16 -34 -26 -56 -26c-40 0 -72 32 -72 72z" />
    <glyph glyph-name="z" unicode="z" horiz-adv-x="419" 
d="M413 98l17 -6c-8 -34 -42 -101 -134 -101c-118 0 -133 28 -192 28c-29 0 -45 -19 -45 -19h-18l262 354c-95 4 -107 16 -154 16c-40 0 -64 -25 -64 -61c0 -23 13 -43 13 -43l-18 -7s-16 20 -16 52c0 45 32 78 83 78c64 0 83 -19 196 -19c76 1 98 8 102 9l-265 -353
c50 -15 63 -16 116 -17c91 0 117 89 117 89z" />
    <glyph glyph-name="space" unicode=" " horiz-adv-x="213" 
 />
    <glyph glyph-name="x" unicode="x" horiz-adv-x="474" 
d="M201 64c0 -40 -32 -73 -72 -73s-73 33 -73 73c0 67 71 116 158 125l-55 137c-8 20 -16 31 -39 31c-28 0 -44 -34 -44 -34l-15 9c14 25 32 57 99 57c71 0 101 -35 117 -74l41 -102c40 4 73 14 97 31h-1c-40 0 -72 32 -72 72s32 73 72 73s73 -33 73 -73
c0 -71 -76 -118 -160 -126l52 -127c8 -20 17 -31 40 -31c28 0 43 34 43 34l16 -9c-14 -25 -32 -57 -99 -57c-71 0 -102 35 -118 74l-38 92c-40 -4 -71 -14 -95 -30h1c40 0 72 -32 72 -72z" />
    <glyph glyph-name="braceright" unicode="}" horiz-adv-x="292" 
d="M68 -123l48 279c7 52 44 65 44 65s-25 23 -16 74l55 321c-20 -2 -37 -12 -50 -28l-15 12c19 23 45 36 75 36c62 0 96 -32 96 -88c0 -8 -1 -17 -2 -26c0 0 -6 -54 -52 -302c20 2 37 12 50 28l15 -12c-18 -22 -42 -34 -69 -36l-43 -234c-13 -74 -63 -109 -126 -109
c-30 0 -56 13 -75 36l15 12c13 -16 30 -26 50 -28z" />
    <glyph glyph-name="braceleft" unicode="{" horiz-adv-x="291" 
d="M310 616l-48 -279c-7 -52 -44 -65 -44 -65s25 -23 16 -74l-55 -321c20 2 37 12 50 28l15 -12c-19 -23 -45 -36 -75 -36c-62 0 -96 32 -96 88c0 8 1 17 2 26c0 0 6 54 52 302c-20 -2 -37 -12 -50 -28l-15 12c18 22 42 34 69 36l43 234c13 74 63 109 126 109
c30 0 56 -13 75 -36l-15 -12c-13 16 -30 26 -50 28z" />
    <glyph glyph-name="bar" unicode="|" horiz-adv-x="180" 
d="M53 -123l131 739h30l-131 -739h-30z" />
    <glyph glyph-name="underscore" unicode="_" horiz-adv-x="604" 
d="M486 -39h-383l2 18h383z" />
    <glyph glyph-name="slash" unicode="/" horiz-adv-x="312" 
d="M23 -32l351 699l26 -10l-351 -699z" />
    <glyph glyph-name="bracketleft" unicode="[" horiz-adv-x="284" 
d="M230 -143h-182l140 779h183l-2 -18h-63l-135 -743h61z" />
    <glyph glyph-name="J" unicode="J" horiz-adv-x="725" 
d="M480 210h-110l2 18h112c46 177 88 255 148 273c-34 12 -60 27 -84 41c-44 24 -82 46 -151 46c-116 0 -197 -84 -197 -204h-21c0 132 90 225 218 225c75 0 116 -24 161 -49c52 -29 106 -60 224 -60v-21c-22 0 -41 1 -59 3c-6 -6 -57 -61 -117 -254h106l-2 -18h-109
c-9 -29 -18 -59 -26 -93c-42 -179 -109 -346 -316 -346c-160 0 -256 128 -244 269h23c-11 -141 83 -248 221 -248c113 0 157 142 205 352c5 23 10 45 16 66z" />
    <glyph glyph-name="bracketright" unicode="]" horiz-adv-x="284" 
d="M0 -143l2 18h63l134 743h-62l2 18h185l-142 -779h-182z" />
    <glyph glyph-name="backslash" unicode="\" horiz-adv-x="526" 
d="M156 667l351 -699l-26 -10l-351 699z" />
    <glyph glyph-name="florin" unicode="&#x192;" horiz-adv-x="386" 
d="M331 233c0 45 15 87 33 129h-59c-12 -66 -25 -143 -40 -231c-24 -138 -84 -214 -208 -214c-32 0 -46 9 -46 9l7 19s17 -9 36 -9c44 0 57 21 70 90l61 336h-61l2 18h62l16 86c21 133 62 182 147 182c45 0 83 -33 83 -106c0 -56 -22 -110 -43 -162h18l-2 -18h-24
c-18 -45 -34 -88 -34 -129h-18zM358 630c-9 -35 -26 -118 -49 -250h62c22 50 44 102 44 162c0 48 -25 88 -57 88z" />
    <glyph glyph-name="comma" unicode="," horiz-adv-x="239" 
d="M61 64c0 40 32 73 72 73s73 -33 73 -73c0 -57 -51 -147 -167 -180l-9 21c102 33 126 91 126 91c-7 -3 -15 -4 -23 -4c-40 0 -72 32 -72 72z" />
    <glyph glyph-name="semicolon" unicode=";" horiz-adv-x="271" 
d="M76 64c0 40 32 73 72 73s73 -33 73 -73c0 -57 -51 -147 -167 -180l-9 21c102 33 126 91 126 91c-7 -3 -15 -4 -23 -4c-40 0 -72 32 -72 72zM116 316c0 40 32 73 72 73s73 -33 73 -73s-33 -72 -73 -72s-72 32 -72 72z" />
    <glyph glyph-name="_0025" horiz-adv-x="0" 
 />
    <glyph glyph-name="quotesinglbase" unicode="&#x201a;" horiz-adv-x="239" 
d="M61 64c0 40 32 73 72 73s73 -33 73 -73c0 -57 -51 -147 -167 -180l-9 21c102 33 126 91 126 91c-7 -3 -15 -4 -23 -4c-40 0 -72 32 -72 72z" />
    <glyph glyph-name="quotedblbase" unicode="&#x201e;" horiz-adv-x="475" 
d="M61 64c0 40 32 73 72 73s73 -33 73 -73c0 -57 -51 -147 -167 -180l-9 21c102 33 126 91 126 91c-7 -3 -15 -4 -23 -4c-40 0 -72 32 -72 72zM298 64c0 40 32 73 72 73s73 -33 73 -73c0 -57 -51 -147 -167 -180l-9 21c102 33 126 91 126 91c-7 -3 -15 -4 -23 -4
c-40 0 -72 32 -72 72z" />
    <glyph glyph-name="ellipsis" unicode="&#x2026;" horiz-adv-x="703" 
d="M61 64c0 40 32 73 72 73s73 -33 73 -73s-33 -72 -73 -72s-72 32 -72 72zM294 64c0 40 32 73 72 73s73 -33 73 -73s-33 -72 -73 -72s-72 32 -72 72zM527 64c0 40 32 73 72 73s73 -33 73 -73s-33 -72 -73 -72s-72 32 -72 72z" />
    <glyph glyph-name="X" unicode="X" horiz-adv-x="788" 
d="M494 381c0 169 -52 207 -129 207c-106 0 -236 -83 -236 -270c0 -176 158 -201 158 -201l-7 -19c-1 1 -172 32 -172 220c0 171 109 291 268 291c139 0 220 -62 220 -209c0 -93 -16 -171 -18 -177c90 260 289 556 445 556c79 0 102 -37 102 -97h-23c-7 62 -34 73 -79 73
c-170 0 -441 -465 -441 -652c0 -146 56 -185 133 -185c34 0 70 9 104 27v-23c-34 -16 -73 -25 -115 -25c-139 0 -229 64 -229 228c0 56 7 90 8 96c-121 -290 -286 -494 -426 -494c-79 0 -102 37 -102 97h23c7 -62 34 -73 79 -73c178 0 437 436 437 630z" />
    <glyph glyph-name="grave" unicode="`" horiz-adv-x="145" 
d="M59 574l53 -106l-26 -10l-53 106z" />
    <glyph glyph-name="aacute" unicode="&#xe1;" horiz-adv-x="484" 
d="M491 389l-69 -378c20 2 37 12 50 28l15 -12c-19 -23 -45 -36 -75 -36c-58 0 -91 28 -96 77c-21 -37 -57 -77 -112 -77c-86 0 -145 54 -145 154c0 156 85 244 201 244c54 0 83 -29 97 -69c3 19 6 36 11 60c77 0 123 9 123 9zM217 14c57 0 96 90 104 112c4 19 11 61 26 144
c-4 48 -28 94 -66 94c-71 0 -109 -159 -109 -270c0 -64 18 -80 45 -80zM274 468l53 106l26 -10l-53 -106z" />
    <glyph glyph-name="agrave" unicode="&#xe0;" horiz-adv-x="484" 
d="M491 389l-69 -378c20 2 37 12 50 28l15 -12c-19 -23 -45 -36 -75 -36c-58 0 -91 28 -96 77c-21 -37 -57 -77 -112 -77c-86 0 -145 54 -145 154c0 156 85 244 201 244c54 0 83 -29 97 -69c3 19 6 36 11 60c77 0 123 9 123 9zM217 14c57 0 96 90 104 112c4 19 11 61 26 144
c-4 48 -28 94 -66 94c-71 0 -109 -159 -109 -270c0 -64 18 -80 45 -80zM258 574l53 -106l-26 -10l-53 106z" />
    <glyph glyph-name="acute" unicode="&#xb4;" horiz-adv-x="145" 
d="M33 468l53 106l26 -10l-53 -106z" />
    <glyph glyph-name="dieresis" unicode="&#xa8;" horiz-adv-x="475" 
d="M259 589c0 32 25 59 58 59c32 0 59 -27 59 -59c0 -33 -27 -58 -59 -58c-33 0 -58 25 -58 58zM99 589c0 32 25 59 58 59c32 0 59 -27 59 -59c0 -33 -27 -58 -59 -58c-33 0 -58 25 -58 58z" />
    <glyph glyph-name="adieresis" unicode="&#xe4;" horiz-adv-x="484" 
d="M491 389l-69 -378c20 2 37 12 50 28l15 -12c-19 -23 -45 -36 -75 -36c-58 0 -91 28 -96 77c-21 -37 -57 -77 -112 -77c-86 0 -145 54 -145 154c0 156 85 244 201 244c54 0 83 -29 97 -69c3 19 6 36 11 60c77 0 123 9 123 9zM217 14c57 0 96 90 104 112c4 19 11 61 26 144
c-4 48 -28 94 -66 94c-71 0 -109 -159 -109 -270c0 -64 18 -80 45 -80zM333 493c0 32 25 59 58 59c32 0 59 -27 59 -59c0 -33 -27 -58 -59 -58c-33 0 -58 25 -58 58zM173 493c0 32 25 59 58 59c32 0 59 -27 59 -59c0 -33 -27 -58 -59 -58c-33 0 -58 25 -58 58z" />
    <glyph glyph-name="egrave" unicode="&#xe8;" horiz-adv-x="397" 
d="M275 389c91 0 127 -40 127 -101c0 -85 -85 -128 -229 -129c-1 -18 -2 -37 -2 -57c0 -64 34 -88 73 -88c106 0 142 116 142 117l18 -8s-27 -132 -182 -132c-110 0 -164 57 -164 144c0 161 87 254 217 254zM304 364c-52 0 -111 -54 -128 -182c149 1 201 43 201 106
c0 43 -26 76 -73 76zM247 574l53 -106l-26 -10l-53 106z" />
    <glyph glyph-name="eacute" unicode="&#xe9;" horiz-adv-x="397" 
d="M275 389c91 0 127 -40 127 -101c0 -85 -85 -128 -229 -129c-1 -18 -2 -37 -2 -57c0 -64 34 -88 73 -88c106 0 142 116 142 117l18 -8s-27 -132 -182 -132c-110 0 -164 57 -164 144c0 161 87 254 217 254zM304 364c-52 0 -111 -54 -128 -182c149 1 201 43 201 106
c0 43 -26 76 -73 76zM261 468l53 106l26 -10l-53 -106z" />
    <glyph glyph-name="edieresis" unicode="&#xeb;" horiz-adv-x="397" 
d="M275 389c91 0 127 -40 127 -101c0 -85 -85 -128 -229 -129c-1 -18 -2 -37 -2 -57c0 -64 34 -88 73 -88c106 0 142 116 142 117l18 -8s-27 -132 -182 -132c-110 0 -164 57 -164 144c0 161 87 254 217 254zM304 364c-52 0 -111 -54 -128 -182c149 1 201 43 201 106
c0 43 -26 76 -73 76zM289 493c0 32 25 59 58 59c32 0 59 -27 59 -59c0 -33 -27 -58 -59 -58c-33 0 -58 25 -58 58zM129 493c0 32 25 59 58 59c32 0 59 -27 59 -59c0 -33 -27 -58 -59 -58c-33 0 -58 25 -58 58z" />
    <glyph glyph-name="idieresis" unicode="&#xef;" horiz-adv-x="242" 
d="M248 389l-69 -378c20 2 37 12 50 28l15 -12c-19 -23 -45 -36 -75 -36c-62 0 -96 32 -96 88c0 8 1 17 2 26c0 0 5 26 47 257h-42l2 18h43c77 0 123 9 123 9zM211 493c0 32 25 59 58 59c32 0 59 -27 59 -59c0 -33 -27 -58 -59 -58c-33 0 -58 25 -58 58zM51 493
c0 32 25 59 58 59c32 0 59 -27 59 -59c0 -33 -27 -58 -59 -58c-33 0 -58 25 -58 58z" />
    <glyph glyph-name="ograve" unicode="&#xf2;" 
d="M241 574l53 -106l-26 -10l-53 106zM59 135c0 121 43 254 235 254c104 0 157 -57 157 -144c0 -146 -78 -254 -235 -254c-105 0 -157 57 -157 144zM218 14c62 0 120 122 120 272c0 54 -11 84 -45 84c-56 0 -121 -102 -121 -276c0 -63 22 -80 46 -80z" />
    <glyph glyph-name="oacute" unicode="&#xf3;" 
d="M265 468l53 106l26 -10l-53 -106zM59 135c0 121 43 254 235 254c104 0 157 -57 157 -144c0 -146 -78 -254 -235 -254c-105 0 -157 57 -157 144zM218 14c62 0 120 122 120 272c0 54 -11 84 -45 84c-56 0 -121 -102 -121 -276c0 -63 22 -80 46 -80z" />
    <glyph glyph-name="odieresis" unicode="&#xf6;" 
d="M317 493c0 32 25 59 58 59c32 0 59 -27 59 -59c0 -33 -27 -58 -59 -58c-33 0 -58 25 -58 58zM157 493c0 32 25 59 58 59c32 0 59 -27 59 -59c0 -33 -27 -58 -59 -58c-33 0 -58 25 -58 58zM59 135c0 121 43 254 235 254c104 0 157 -57 157 -144c0 -146 -78 -254 -235 -254
c-105 0 -157 57 -157 144zM218 14c62 0 120 122 120 272c0 54 -11 84 -45 84c-56 0 -121 -102 -121 -276c0 -63 22 -80 46 -80z" />
    <glyph glyph-name="ugrave" unicode="&#xf9;" horiz-adv-x="499" 
d="M81 117c0 63 36 166 40 252c-26 0 -50 -28 -50 -28l-15 12s19 36 84 36c60 0 91 -29 91 -82c0 -68 -36 -184 -36 -243c0 -32 14 -43 41 -43c39 0 77 48 104 128l42 231c77 0 121 9 121 9l-67 -378c20 2 37 12 50 28l15 -12c-19 -23 -45 -36 -75 -36c-61 0 -95 31 -96 84
c-24 -48 -60 -84 -124 -84c-78 0 -125 47 -125 126zM262 574l53 -106l-26 -10l-53 106z" />
    <glyph glyph-name="uacute" unicode="&#xfa;" horiz-adv-x="499" 
d="M81 117c0 63 36 166 40 252c-26 0 -50 -28 -50 -28l-15 12s19 36 84 36c60 0 91 -29 91 -82c0 -68 -36 -184 -36 -243c0 -32 14 -43 41 -43c39 0 77 48 104 128l42 231c77 0 121 9 121 9l-67 -378c20 2 37 12 50 28l15 -12c-19 -23 -45 -36 -75 -36c-61 0 -95 31 -96 84
c-24 -48 -60 -84 -124 -84c-78 0 -125 47 -125 126zM280 468l53 106l26 -10l-53 -106z" />
    <glyph glyph-name="udieresis" unicode="&#xfc;" horiz-adv-x="499" 
d="M81 117c0 63 36 166 40 252c-26 0 -50 -28 -50 -28l-15 12s19 36 84 36c60 0 91 -29 91 -82c0 -68 -36 -184 -36 -243c0 -32 14 -43 41 -43c39 0 77 48 104 128l42 231c77 0 121 9 121 9l-67 -378c20 2 37 12 50 28l15 -12c-19 -23 -45 -36 -75 -36c-61 0 -95 31 -96 84
c-24 -48 -60 -84 -124 -84c-78 0 -125 47 -125 126zM327 493c0 32 25 59 58 59c32 0 59 -27 59 -59c0 -33 -27 -58 -59 -58c-33 0 -58 25 -58 58zM167 493c0 32 25 59 58 59c32 0 59 -27 59 -59c0 -33 -27 -58 -59 -58c-33 0 -58 25 -58 58z" />
    <glyph glyph-name="yacute" unicode="&#xfd;" horiz-adv-x="483" 
d="M82 133c0 63 35 150 39 236c-26 0 -50 -28 -50 -28l-15 12s19 36 84 36c60 0 91 -29 91 -82c0 -68 -38 -163 -38 -222c0 -32 13 -48 40 -48c44 0 89 65 116 166l33 177c77 0 121 9 121 9l-63 -354c-24 -135 -112 -219 -253 -219c-85 0 -132 31 -132 82c0 35 22 71 87 71
c57 0 71 -21 113 -27l-2 -18c-42 4 -57 26 -111 26c-46 0 -66 -23 -66 -50c0 -44 47 -64 101 -64c84 0 115 57 128 125l25 138c-24 -53 -60 -92 -127 -92c-78 0 -121 47 -121 126zM285 468l53 106l26 -10l-53 -106z" />
    <glyph glyph-name="ydieresis" unicode="&#xff;" horiz-adv-x="483" 
d="M82 133c0 63 35 150 39 236c-26 0 -50 -28 -50 -28l-15 12s19 36 84 36c60 0 91 -29 91 -82c0 -68 -38 -163 -38 -222c0 -32 13 -48 40 -48c44 0 89 65 116 166l33 177c77 0 121 9 121 9l-63 -354c-24 -135 -112 -219 -253 -219c-85 0 -132 31 -132 82c0 35 22 71 87 71
c57 0 71 -21 113 -27l-2 -18c-42 4 -57 26 -111 26c-46 0 -66 -23 -66 -50c0 -44 47 -64 101 -64c84 0 115 57 128 125l25 138c-24 -53 -60 -92 -127 -92c-78 0 -121 47 -121 126zM322 493c0 32 25 59 58 59c32 0 59 -27 59 -59c0 -33 -27 -58 -59 -58c-33 0 -58 25 -58 58z
M162 493c0 32 25 59 58 59c32 0 59 -27 59 -59c0 -33 -27 -58 -59 -58c-33 0 -58 25 -58 58z" />
    <glyph glyph-name="igrave" unicode="&#xec;" horiz-adv-x="242" 
d="M248 389l-69 -378c20 2 37 12 50 28l15 -12c-19 -23 -45 -36 -75 -36c-62 0 -96 32 -96 88c0 8 1 17 2 26c0 0 5 26 47 257h-42l2 18h43c77 0 123 9 123 9zM152 574l53 -106l-26 -10l-53 106z" />
    <glyph glyph-name="iacute" unicode="&#xed;" horiz-adv-x="242" 
d="M248 389l-69 -378c20 2 37 12 50 28l15 -12c-19 -23 -45 -36 -75 -36c-62 0 -96 32 -96 88c0 8 1 17 2 26c0 0 5 26 47 257h-42l2 18h43c77 0 123 9 123 9zM172 445l53 106l26 -10l-53 -106z" />
    <glyph glyph-name="dotlessi" unicode="&#x131;" horiz-adv-x="242" 
d="M248 389l-69 -378c20 2 37 12 50 28l15 -12c-19 -23 -45 -36 -75 -36c-62 0 -96 32 -96 88c0 8 1 17 2 26c0 0 5 26 47 257h-42l2 18h43c77 0 123 9 123 9z" />
    <glyph glyph-name="oslash" unicode="&#xf8;" 
d="M69 -155l78 156c-59 20 -88 68 -88 134c0 121 43 254 235 254c16 0 32 -2 46 -5l80 160l26 -10l-79 -157c56 -21 84 -69 84 -132c0 -146 -78 -254 -235 -254c-15 0 -29 1 -41 3l-80 -159zM172 94c0 -15 1 -27 3 -37l150 297c-7 10 -18 16 -32 16
c-56 0 -121 -102 -121 -276zM218 14c62 0 120 122 120 272c0 11 -1 21 -2 30l-146 -291c8 -8 18 -11 28 -11z" />
    <glyph glyph-name="divide" unicode="&#xf7;" 
d="M445 184h-383l2 18h383zM160 64c0 40 32 73 72 73s73 -33 73 -73s-33 -72 -73 -72s-72 32 -72 72zM200 316c0 40 32 73 72 73s73 -33 73 -73s-33 -72 -73 -72s-72 32 -72 72z" />
    <glyph glyph-name="equal" unicode="=" horiz-adv-x="498" 
d="M485 246h-383l2 18h383zM465 137h-383l2 18h383z" />
    <glyph glyph-name="asciitilde" unicode="~" horiz-adv-x="496" 
d="M248 389c109 0 55 -108 133 -108c82 0 123 108 123 108h26s-41 -133 -152 -133c-104 0 -51 109 -134 109c-72 0 -121 -106 -120 -106h-31s48 130 155 130z" />
    <glyph glyph-name="atilde" unicode="&#xe3;" horiz-adv-x="484" 
d="M491 389l-69 -378c20 2 37 12 50 28l15 -12c-19 -23 -45 -36 -75 -36c-58 0 -91 28 -96 77c-21 -37 -57 -77 -112 -77c-86 0 -145 54 -145 154c0 156 85 244 201 244c54 0 83 -29 97 -69c3 19 6 36 11 60c77 0 123 9 123 9zM217 14c57 0 96 90 104 112c4 19 11 61 26 144
c-4 48 -28 94 -66 94c-71 0 -109 -159 -109 -270c0 -64 18 -80 45 -80zM246 569c109 0 55 -108 133 -108c82 0 123 108 123 108h26s-41 -133 -152 -133c-104 0 -51 109 -134 109c-72 0 -121 -106 -120 -106h-31s48 130 155 130z" />
    <glyph glyph-name="tilde" unicode="&#x2dc;" horiz-adv-x="503" 
d="M188 761c109 0 55 -108 133 -108c82 0 123 108 123 108h26s-41 -133 -152 -133c-104 0 -51 109 -134 109c-72 0 -121 -106 -120 -106h-31s48 130 155 130z" />
    <glyph glyph-name="ntilde" unicode="&#xf1;" horiz-adv-x="499" 
d="M486 263c0 -63 -36 -166 -40 -252c26 0 50 28 50 28l15 -12s-19 -36 -84 -36c-60 0 -91 29 -91 82c0 68 36 184 36 243c0 32 -14 43 -41 43c-44 0 -87 -62 -114 -161l-34 -187c20 2 38 12 51 28l15 -12c-19 -23 -45 -36 -75 -36c-62 0 -96 35 -96 83c0 31 9 68 16 110
l33 185c-20 -2 -37 -12 -50 -28l-15 12c19 23 45 36 75 36c62 0 96 -32 96 -88v-6c23 53 59 94 128 94c78 0 125 -47 125 -126zM251 569c109 0 55 -108 133 -108c82 0 123 108 123 108h26s-41 -133 -152 -133c-104 0 -51 109 -134 109c-72 0 -121 -106 -120 -106h-31
s48 130 155 130z" />
    <glyph glyph-name="hyphen" unicode="-" horiz-adv-x="497" 
d="M473 184h-383l2 18h383z" />
    <glyph glyph-name="otilde" unicode="&#xf5;" 
d="M252 569c109 0 55 -108 133 -108c82 0 123 108 123 108h26s-41 -133 -152 -133c-104 0 -51 109 -134 109c-72 0 -121 -106 -120 -106h-31s48 130 155 130zM59 135c0 121 43 254 235 254c104 0 157 -57 157 -144c0 -146 -78 -254 -235 -254c-105 0 -157 57 -157 144z
M218 14c62 0 120 122 120 272c0 54 -11 84 -45 84c-56 0 -121 -102 -121 -276c0 -63 22 -80 46 -80z" />
    <glyph glyph-name="thorn" unicode="&#xfe;" horiz-adv-x="459" 
d="M239 -9c-33 0 -56 9 -71 21c-10 -50 -19 -100 -28 -149h-113l112 655c-20 -2 -37 -12 -50 -28l-15 12c19 23 45 36 75 36c62 0 96 -32 96 -88c0 -8 -1 -17 -2 -26c0 0 -7 -38 -18 -97c22 31 55 61 104 61c92 0 140 -57 140 -144c0 -161 -97 -253 -230 -253zM212 256
l-38 -210c9 -15 26 -28 58 -28c74 0 124 118 124 267c0 64 -13 80 -40 80c-55 0 -93 -83 -104 -109z" />
    <glyph glyph-name="endash" unicode="&#x2013;" horiz-adv-x="547" 
d="M523 184h-433l2 18h433z" />
    <glyph glyph-name="emdash" unicode="&#x2014;" horiz-adv-x="647" 
d="M623 184h-533l2 18h533z" />
    <glyph glyph-name="circumflex" unicode="&#x2c6;" horiz-adv-x="330" 
d="M195 625l-151 -169l-22 17l163 180h27l96 -186l-25 -12z" />
    <glyph glyph-name="acircumflex" unicode="&#xe2;" horiz-adv-x="484" 
d="M491 389l-69 -378c20 2 37 12 50 28l15 -12c-19 -23 -45 -36 -75 -36c-58 0 -91 28 -96 77c-21 -37 -57 -77 -112 -77c-86 0 -145 54 -145 154c0 156 85 244 201 244c54 0 83 -29 97 -69c3 19 6 36 11 60c77 0 123 9 123 9zM217 14c57 0 96 90 104 112c4 19 11 61 26 144
c-4 48 -28 94 -66 94c-71 0 -109 -159 -109 -270c0 -64 18 -80 45 -80zM356 605l-151 -169l-22 17l163 180h27l96 -186l-25 -12z" />
    <glyph glyph-name="ecircumflex" unicode="&#xea;" horiz-adv-x="397" 
d="M275 389c91 0 127 -40 127 -101c0 -85 -85 -128 -229 -129c-1 -18 -2 -37 -2 -57c0 -64 34 -88 73 -88c106 0 142 116 142 117l18 -8s-27 -132 -182 -132c-110 0 -164 57 -164 144c0 161 87 254 217 254zM304 364c-52 0 -111 -54 -128 -182c149 1 201 43 201 106
c0 43 -26 76 -73 76zM314 605l-151 -169l-22 17l163 180h27l96 -186l-25 -12z" />
    <glyph glyph-name="icircumflex" unicode="&#xee;" horiz-adv-x="242" 
d="M248 389l-69 -378c20 2 37 12 50 28l15 -12c-19 -23 -45 -36 -75 -36c-62 0 -96 32 -96 88c0 8 1 17 2 26c0 0 5 26 47 257h-42l2 18h43c77 0 123 9 123 9zM217 605l-151 -169l-22 17l163 180h27l96 -186l-25 -12z" />
    <glyph glyph-name="ocircumflex" unicode="&#xf4;" 
d="M326 605l-151 -169l-22 17l163 180h27l96 -186l-25 -12zM59 135c0 121 43 254 235 254c104 0 157 -57 157 -144c0 -146 -78 -254 -235 -254c-105 0 -157 57 -157 144zM218 14c62 0 120 122 120 272c0 54 -11 84 -45 84c-56 0 -121 -102 -121 -276c0 -63 22 -80 46 -80z
" />
    <glyph glyph-name="ucircumflex" unicode="&#xfb;" horiz-adv-x="499" 
d="M81 117c0 63 36 166 40 252c-26 0 -50 -28 -50 -28l-15 12s19 36 84 36c60 0 91 -29 91 -82c0 -68 -36 -184 -36 -243c0 -32 14 -43 41 -43c39 0 77 48 104 128l42 231c77 0 121 9 121 9l-67 -378c20 2 37 12 50 28l15 -12c-19 -23 -45 -36 -75 -36c-61 0 -95 31 -96 84
c-24 -48 -60 -84 -124 -84c-78 0 -125 47 -125 126zM344 605l-151 -169l-22 17l163 180h27l96 -186l-25 -12z" />
    <glyph glyph-name="mu" unicode="&#xb5;" horiz-adv-x="551" 
d="M72 -90c61 331 79 399 82 459c-26 0 -50 -28 -50 -28l-15 12s19 36 84 36c60 0 91 -29 91 -82c0 -68 -37 -175 -37 -241c0 -32 15 -45 42 -45c39 0 77 48 104 128l42 231c77 0 121 9 121 9l-67 -378c20 2 37 12 50 28l15 -12c-19 -23 -45 -36 -75 -36
c-61 0 -95 31 -96 84c-24 -48 -60 -84 -124 -84c-20 0 -31 7 -31 7l-15 -88h-121z" />
    <glyph glyph-name="cedilla" unicode="&#xb8;" horiz-adv-x="274" 
d="M220 -139l10 -17s-29 -28 -93 -28c-62 0 -93 21 -93 68c0 42 31 72 98 72l9 46h18l-11 -65h-16c-46 0 -76 -20 -76 -54s26 -48 72 -48c52 0 82 26 82 26z" />
    <glyph glyph-name="ccedilla" unicode="&#xe7;" horiz-adv-x="406" 
d="M279 260c0 40 32 73 72 73c14 0 16 -2 23 -4c-12 22 -41 35 -70 35c-62 0 -133 -75 -133 -262c0 -64 34 -88 73 -88c106 0 142 116 142 117l18 -8s-27 -132 -182 -132c-110 0 -164 57 -164 144c0 161 87 254 221 254c94 0 143 -53 143 -127c0 -51 -37 -74 -71 -74
c-40 0 -72 32 -72 72zM303 -139l10 -17s-29 -28 -93 -28c-62 0 -93 21 -93 68c0 42 31 72 98 72l9 46h18l-11 -65h-16c-46 0 -76 -20 -76 -54s26 -48 72 -48c52 0 82 26 82 26z" />
    <glyph glyph-name="periodcentered" unicode="&#xb7;" horiz-adv-x="243" 
d="M90 238c0 40 32 73 72 73s73 -33 73 -73s-33 -72 -73 -72s-72 32 -72 72z" />
    <glyph glyph-name="asciicircum" unicode="^" horiz-adv-x="330" 
d="M195 418l-151 -169l-22 17l163 180h27l96 -186l-25 -12z" />
    <glyph glyph-name="bullet" unicode="&#x2022;" horiz-adv-x="311" 
d="M107 238c0 49 40 90 89 90s90 -41 90 -90s-41 -89 -90 -89s-89 40 -89 89z" />
    <glyph glyph-name="zcaron" unicode="&#x17e;" horiz-adv-x="419" 
d="M413 98l17 -6c-8 -34 -42 -101 -134 -101c-118 0 -133 28 -192 28c-29 0 -45 -19 -45 -19h-18l262 354c-95 4 -107 16 -154 16c-40 0 -64 -25 -64 -61c0 -23 13 -43 13 -43l-18 -7s-16 20 -16 52c0 45 32 78 83 78c64 0 83 -19 196 -19c76 1 98 8 102 9l-265 -353
c50 -15 63 -16 116 -17c91 0 117 89 117 89zM272 463l151 169l22 -17l-163 -180h-27l-96 186l25 12z" />
    <glyph glyph-name="caron" unicode="&#x2c7;" horiz-adv-x="330" 
d="M135 483l151 169l22 -17l-163 -180h-27l-96 186l25 12z" />
    <glyph glyph-name="scaron" unicode="&#x161;" horiz-adv-x="368" 
d="M153 17c70 0 99 50 99 146c0 62 -17 98 -23 146c-26 -27 -73 -65 -137 -76v24c64 14 113 59 135 82v4c0 55 28 92 28 92h24c0 -132 90 -147 90 -279c0 -94 -79 -165 -189 -165c-96 0 -145 57 -145 116c0 60 40 80 74 80c40 0 69 -29 69 -69s-28 -73 -68 -73
c-14 0 -20 2 -27 4c15 -22 43 -32 70 -32zM273 483l151 169l22 -17l-163 -180h-27l-96 186l25 12z" />
    <glyph glyph-name="Agrave" unicode="&#xc0;" horiz-adv-x="1149" 
d="M842 110c-49 0 -93 16 -134 41c-91 -158 -195 -298 -370 -298c-90 0 -165 29 -216 84c-44 49 -69 115 -69 187c0 137 92 283 262 283c69 0 126 -23 165 -67c7 -9 14 -18 20 -27c43 -18 83 -45 123 -76c25 -20 51 -41 77 -58c13 22 25 45 38 68c113 205 230 418 476 349
l-5 -19c-18 5 -35 8 -51 10c-13 -51 -101 -405 -115 -628c29 0 50 28 50 28l15 -12s-24 -36 -75 -36c-69 0 -112 29 -112 97c0 25 3 55 7 89c-29 -9 -63 -15 -86 -15zM532 197c0 -91 -55 -188 -157 -188c-66 0 -106 47 -106 91c0 90 84 100 85 100l2 -20
c-2 0 -67 -8 -67 -80c0 -35 32 -71 86 -71c90 0 138 84 138 168c0 36 -9 70 -25 99c-34 13 -69 21 -109 21c-113 0 -145 -93 -147 -97l-19 6c1 1 39 111 166 111c32 0 62 -5 89 -13l-2 3c-36 39 -83 60 -151 60c-157 0 -242 -136 -242 -263c0 -67 23 -129 64 -173
c47 -51 116 -78 201 -78c165 0 265 136 353 289c-28 18 -54 38 -80 59c-32 25 -63 46 -96 63c11 -27 17 -56 17 -87zM756 237l-38 -69c61 -36 128 -55 213 -21c22 154 74 359 90 420c-113 -53 -188 -189 -265 -330zM1050 764l53 -106l-26 -10l-53 106z" />
    <glyph glyph-name="Aacute" unicode="&#xc1;" horiz-adv-x="1149" 
d="M842 110c23 0 57 6 86 15c-4 -34 -7 -64 -7 -89c0 -68 43 -97 112 -97c51 0 75 36 75 36l-15 12s-21 -28 -50 -28c14 223 102 577 115 628c16 -2 33 -5 51 -10l5 19c-246 69 -363 -144 -476 -349c-13 -23 -25 -46 -38 -68c-26 17 -52 38 -77 58c-40 31 -80 58 -123 76
c-6 9 -13 18 -20 27c-39 44 -96 67 -165 67c-170 0 -262 -146 -262 -283c0 -72 25 -138 69 -187c51 -55 126 -84 216 -84c175 0 279 140 370 298c41 -25 85 -41 134 -41zM532 197c0 31 -6 60 -17 87c33 -17 64 -38 96 -63c26 -21 52 -41 80 -59
c-88 -153 -188 -289 -353 -289c-85 0 -154 27 -201 78c-41 44 -64 106 -64 173c0 127 85 263 242 263c68 0 115 -21 151 -60l2 -3c-27 8 -57 13 -89 13c-127 0 -165 -110 -166 -111l19 -6c2 4 34 97 147 97c40 0 75 -8 109 -21c16 -29 25 -63 25 -99
c0 -84 -48 -168 -138 -168c-54 0 -86 36 -86 71c0 72 65 80 67 80l-2 20c-1 0 -85 -10 -85 -100c0 -44 40 -91 106 -91c102 0 157 97 157 188zM756 237c77 141 152 277 265 330c-16 -61 -68 -266 -90 -420c-85 -34 -152 -15 -213 21zM1085 658l53 106l26 -10l-53 -106z" />
    <glyph glyph-name="onesuperior" unicode="&#xb9;" horiz-adv-x="204" 
d="M291 649l-96 -269h-81l77 235l-49 -10l-4 13z" />
    <glyph glyph-name="Acircumflex" unicode="&#xc2;" horiz-adv-x="1149" 
d="M842 110c-49 0 -93 16 -134 41c-91 -158 -195 -298 -370 -298c-90 0 -165 29 -216 84c-44 49 -69 115 -69 187c0 137 92 283 262 283c69 0 126 -23 165 -67c7 -9 14 -18 20 -27c43 -18 83 -45 123 -76c25 -20 51 -41 77 -58c13 22 25 45 38 68c113 205 230 418 476 349
l-5 -19c-18 5 -35 8 -51 10c-13 -51 -101 -405 -115 -628c29 0 50 28 50 28l15 -12s-24 -36 -75 -36c-69 0 -112 29 -112 97c0 25 3 55 7 89c-29 -9 -63 -15 -86 -15zM532 197c0 -91 -55 -188 -157 -188c-66 0 -106 47 -106 91c0 90 84 100 85 100l2 -20
c-2 0 -67 -8 -67 -80c0 -35 32 -71 86 -71c90 0 138 84 138 168c0 36 -9 70 -25 99c-34 13 -69 21 -109 21c-113 0 -145 -93 -147 -97l-19 6c1 1 39 111 166 111c32 0 62 -5 89 -13l-2 3c-36 39 -83 60 -151 60c-157 0 -242 -136 -242 -263c0 -67 23 -129 64 -173
c47 -51 116 -78 201 -78c165 0 265 136 353 289c-28 18 -54 38 -80 59c-32 25 -63 46 -96 63c11 -27 17 -56 17 -87zM756 237l-38 -69c61 -36 128 -55 213 -21c22 154 74 359 90 420c-113 -53 -188 -189 -265 -330zM1120 818l-151 -169l-22 17l163 180h27l96 -186l-25 -12z
" />
    <glyph glyph-name="Atilde" unicode="&#xc3;" horiz-adv-x="1149" 
d="M842 110c23 0 57 6 86 15c-4 -34 -7 -64 -7 -89c0 -68 43 -97 112 -97c51 0 75 36 75 36l-15 12s-21 -28 -50 -28c14 223 102 577 115 628c16 -2 33 -5 51 -10l5 19c-246 69 -363 -144 -476 -349c-13 -23 -25 -46 -38 -68c-26 17 -52 38 -77 58c-40 31 -80 58 -123 76
c-6 9 -13 18 -20 27c-39 44 -96 67 -165 67c-170 0 -262 -146 -262 -283c0 -72 25 -138 69 -187c51 -55 126 -84 216 -84c175 0 279 140 370 298c41 -25 85 -41 134 -41zM532 197c0 31 -6 60 -17 87c33 -17 64 -38 96 -63c26 -21 52 -41 80 -59
c-88 -153 -188 -289 -353 -289c-85 0 -154 27 -201 78c-41 44 -64 106 -64 173c0 127 85 263 242 263c68 0 115 -21 151 -60l2 -3c-27 8 -57 13 -89 13c-127 0 -165 -110 -166 -111l19 -6c2 4 34 97 147 97c40 0 75 -8 109 -21c16 -29 25 -63 25 -99
c0 -84 -48 -168 -138 -168c-54 0 -86 36 -86 71c0 72 65 80 67 80l-2 20c-1 0 -85 -10 -85 -100c0 -44 40 -91 106 -91c102 0 157 97 157 188zM756 237c77 141 152 277 265 330c-16 -61 -68 -266 -90 -420c-85 -34 -152 -15 -213 21zM998 781c109 0 55 -108 133 -108
c82 0 123 108 123 108h26s-41 -133 -152 -133c-104 0 -51 109 -134 109c-72 0 -121 -106 -120 -106h-31s48 130 155 130z" />
    <glyph glyph-name="Adieresis" unicode="&#xc4;" horiz-adv-x="1149" 
d="M842 110c-49 0 -93 16 -134 41c-91 -158 -195 -298 -370 -298c-90 0 -165 29 -216 84c-44 49 -69 115 -69 187c0 137 92 283 262 283c69 0 126 -23 165 -67c7 -9 14 -18 20 -27c43 -18 83 -45 123 -76c25 -20 51 -41 77 -58c13 22 25 45 38 68c113 205 230 418 476 349
l-5 -19c-18 5 -35 8 -51 10c-13 -51 -101 -405 -115 -628c29 0 50 28 50 28l15 -12s-24 -36 -75 -36c-69 0 -112 29 -112 97c0 25 3 55 7 89c-29 -9 -63 -15 -86 -15zM532 197c0 -91 -55 -188 -157 -188c-66 0 -106 47 -106 91c0 90 84 100 85 100l2 -20
c-2 0 -67 -8 -67 -80c0 -35 32 -71 86 -71c90 0 138 84 138 168c0 36 -9 70 -25 99c-34 13 -69 21 -109 21c-113 0 -145 -93 -147 -97l-19 6c1 1 39 111 166 111c32 0 62 -5 89 -13l-2 3c-36 39 -83 60 -151 60c-157 0 -242 -136 -242 -263c0 -67 23 -129 64 -173
c47 -51 116 -78 201 -78c165 0 265 136 353 289c-28 18 -54 38 -80 59c-32 25 -63 46 -96 63c11 -27 17 -56 17 -87zM756 237l-38 -69c61 -36 128 -55 213 -21c22 154 74 359 90 420c-113 -53 -188 -189 -265 -330zM1109 706c0 32 25 59 58 59c32 0 59 -27 59 -59
c0 -33 -27 -58 -59 -58c-33 0 -58 25 -58 58zM949 706c0 32 25 59 58 59c32 0 59 -27 59 -59c0 -33 -27 -58 -59 -58c-33 0 -58 25 -58 58z" />
    <glyph glyph-name="oe" unicode="&#x153;" horiz-adv-x="667" 
d="M545 389c91 0 127 -40 127 -101c0 -85 -85 -128 -229 -129c0 0 -2 -13 -2 -47c0 -81 34 -98 73 -98c106 0 142 116 142 117l18 -8s-27 -132 -182 -132c-59 0 -102 16 -129 45c-37 -29 -86 -45 -147 -45c-105 0 -157 57 -157 144c0 121 43 254 235 254
c53 0 94 -15 120 -42c35 28 80 42 131 42zM218 14c62 0 120 122 120 272c0 54 -11 84 -45 84c-56 0 -121 -102 -121 -276c0 -63 22 -80 46 -80zM574 364c-83 0 -115 -93 -128 -182c149 1 201 43 201 106c0 43 -26 76 -73 76z" />
    <glyph glyph-name="ae" unicode="&#xe6;" horiz-adv-x="660" 
d="M538 389c91 0 127 -40 127 -101c0 -85 -85 -128 -229 -129c-1 -18 -2 -37 -2 -57c0 -64 34 -88 73 -88c106 0 142 116 142 117l18 -8s-27 -132 -182 -132c-89 0 -142 37 -158 97c-19 -40 -57 -97 -123 -97c-86 0 -145 54 -145 154c0 156 85 244 201 244
c63 0 92 -40 102 -92c37 60 99 92 176 92zM217 14c57 0 95 88 104 111v10c0 53 9 98 26 135c-4 49 -28 94 -66 94c-71 0 -109 -159 -109 -270c0 -64 18 -80 45 -80zM567 364c-52 0 -111 -54 -128 -182c149 1 201 43 201 106c0 43 -26 76 -73 76z" />
    <glyph glyph-name="B" unicode="B" horiz-adv-x="980" 
d="M124 207c-28 26 -42 61 -42 103c0 191 208 299 572 299c217 0 299 -73 299 -175c0 -89 -63 -167 -177 -202c122 -14 184 -57 184 -129c0 -159 -255 -174 -370 -174v20c190 -13 257 63 257 146c0 90 -98 127 -98 127c-23 -5 -53 -7 -72 -7v20c117 0 254 73 254 199
c0 98 -96 154 -268 156c-11 -74 -44 -317 -84 -512c-28 -152 -159 -231 -271 -231v19c102 9 100 26 125 166l96 553c-273 -23 -428 -121 -428 -275c0 -36 14 -66 36 -88c57 -55 161 -51 162 -50v-21c-65 0 -131 13 -175 56z" />
    <glyph glyph-name="O" unicode="O" horiz-adv-x="748" 
d="M200 136c0 -162 98 -214 172 -214c190 0 350 211 350 397c0 132 -60 208 -165 208c-134 0 -203 -112 -203 -221c0 -138 111 -146 116 -146l-1 -20c-1 0 -135 10 -135 166c0 119 76 240 223 240c116 0 185 -84 185 -227c0 -200 -162 -422 -396 -422
c-161 0 -257 103 -257 277c0 239 171 427 398 436l1 -20c-227 -7 -288 -271 -288 -454z" />
    <glyph glyph-name="germandbls" unicode="&#xdf;" horiz-adv-x="473" 
d="M317 538c109 0 171 -55 171 -136c0 -101 -72 -139 -134 -152c74 -13 116 -48 116 -110c0 -80 -56 -149 -190 -149c-72 0 -111 26 -129 45l-88 -63h-19s52 298 68 387c19 106 61 178 205 178zM232 386l-60 -329c11 -14 32 -33 72 -33c67 0 105 65 105 134
c0 59 -42 78 -65 84c-11 0 -20 1 -20 1l4 22c67 0 114 27 114 166c0 57 -22 83 -59 83c-40 0 -74 -31 -91 -128z" />
    <glyph glyph-name="ring" unicode="&#x2da;" horiz-adv-x="231" 
d="M116 663c-27 0 -50 22 -50 49s23 49 50 49s49 -22 49 -49s-22 -49 -49 -49zM116 743c-16 0 -30 -14 -30 -31c0 -16 14 -30 30 -30c17 0 31 14 31 30c0 17 -14 31 -31 31z" />
    <glyph glyph-name="aring" unicode="&#xe5;" horiz-adv-x="484" 
d="M491 389l-69 -378c20 2 37 12 50 28l15 -12c-19 -23 -45 -36 -75 -36c-58 0 -91 28 -96 77c-21 -37 -57 -77 -112 -77c-86 0 -145 54 -145 154c0 156 85 244 201 244c54 0 83 -29 97 -69c3 19 6 36 11 60c77 0 123 9 123 9zM217 14c57 0 96 90 104 112c4 19 11 61 26 144
c-4 48 -28 94 -66 94c-71 0 -109 -159 -109 -270c0 -64 18 -80 45 -80zM318 435c-27 0 -50 22 -50 49s23 49 50 49s49 -22 49 -49s-22 -49 -49 -49zM318 515c-16 0 -30 -14 -30 -31c0 -16 14 -30 30 -30c17 0 31 14 31 30c0 17 -14 31 -31 31z" />
    <glyph glyph-name="Aring" unicode="&#xc5;" horiz-adv-x="1149" 
d="M842 110c-49 0 -93 16 -134 41c-91 -158 -195 -298 -370 -298c-90 0 -165 29 -216 84c-44 49 -69 115 -69 187c0 137 92 283 262 283c69 0 126 -23 165 -67c7 -9 14 -18 20 -27c43 -18 83 -45 123 -76c25 -20 51 -41 77 -58c13 22 25 45 38 68c113 205 230 418 476 349
l-5 -19c-18 5 -35 8 -51 10c-13 -51 -101 -405 -115 -628c29 0 50 28 50 28l15 -12s-24 -36 -75 -36c-69 0 -112 29 -112 97c0 25 3 55 7 89c-29 -9 -63 -15 -86 -15zM532 197c0 -91 -55 -188 -157 -188c-66 0 -106 47 -106 91c0 90 84 100 85 100l2 -20
c-2 0 -67 -8 -67 -80c0 -35 32 -71 86 -71c90 0 138 84 138 168c0 36 -9 70 -25 99c-34 13 -69 21 -109 21c-113 0 -145 -93 -147 -97l-19 6c1 1 39 111 166 111c32 0 62 -5 89 -13l-2 3c-36 39 -83 60 -151 60c-157 0 -242 -136 -242 -263c0 -67 23 -129 64 -173
c47 -51 116 -78 201 -78c165 0 265 136 353 289c-28 18 -54 38 -80 59c-32 25 -63 46 -96 63c11 -27 17 -56 17 -87zM756 237l-38 -69c61 -36 128 -55 213 -21c22 154 74 359 90 420c-113 -53 -188 -189 -265 -330zM1099 648c-27 0 -50 22 -50 49s23 49 50 49s49 -22 49 -49
s-22 -49 -49 -49zM1099 728c-16 0 -30 -14 -30 -31c0 -16 14 -30 30 -30c17 0 31 14 31 30c0 17 -14 31 -31 31z" />
    <glyph glyph-name="E" unicode="E" horiz-adv-x="563" 
d="M273 306c40 13 82 17 117 17c58 0 73 -19 73 -40c0 -31 -33 -55 -101 -55c-56 0 -96 15 -124 37c-24 -25 -63 -63 -63 -166c0 -80 77 -134 136 -134c169 0 226 170 228 178l20 -5c0 -2 -60 -193 -267 -193c-145 0 -227 67 -227 167c0 103 84 154 153 173
c-22 27 -45 62 -45 124c0 100 73 200 235 200c119 0 180 -46 180 -111c0 -75 -44 -101 -50 -164h-21c7 67 50 90 50 163c0 58 -70 94 -143 94c-90 0 -165 -58 -165 -205c0 -62 14 -80 14 -80zM362 246c58 0 81 19 81 35c0 11 -9 24 -53 24c-43 0 -72 -5 -109 -16
c0 0 19 -43 81 -43z" />
    <glyph glyph-name="D" unicode="D" horiz-adv-x="970" 
d="M570 -69c-48 0 -89 6 -125 16c-45 -32 -98 -49 -147 -49v19c50 1 69 8 87 51c-116 51 -157 140 -157 142l18 7c0 -1 38 -84 146 -132c8 21 16 49 23 87l89 514c-74 -6 -135 -21 -184 -41c55 -59 72 -132 67 -196c-9 -103 -77 -179 -161 -179c-80 0 -121 62 -121 123
c0 97 51 197 180 259c-40 34 -97 61 -174 74l4 19c84 -15 147 -46 189 -85c74 30 170 49 293 49c236 0 377 -112 377 -301c0 -183 -127 -377 -404 -377zM552 113c-13 -66 -46 -116 -88 -152c31 -7 66 -12 106 -12c265 0 385 186 385 359c0 167 -121 271 -326 281
c-14 -94 -43 -298 -77 -476zM300 537c-127 -57 -176 -152 -176 -244c0 -49 32 -104 102 -104c74 0 134 68 142 163c6 60 -13 130 -68 185z" />
    <glyph glyph-name="AE" unicode="&#xc6;" horiz-adv-x="1417" 
d="M1043 -41c121 -3 170 53 322 61l-3 -20c-136 -6 -186 -61 -329 -61c-82 0 -112 41 -112 97c0 25 3 55 7 89c-19 -7 -51 -15 -86 -15c-49 0 -93 16 -134 41c-91 -158 -195 -298 -370 -298c-90 0 -165 29 -216 84c-44 49 -69 115 -69 187c0 137 92 283 262 283
c69 0 126 -23 165 -67c7 -9 14 -18 20 -27c43 -18 83 -45 123 -76c25 -20 51 -41 77 -58c13 22 25 45 38 68c98 179 200 362 387 362c59 0 101 -19 178 -19c103 0 141 16 150 20c3 18 6 36 6 55h23c0 -110 -85 -215 -85 -309h-22c0 81 50 151 73 233
c-18 -7 -58 -17 -145 -17c-81 0 -107 11 -144 16c-10 -36 -44 -167 -74 -332h320l-2 -18h-321c-16 -87 -30 -183 -39 -279zM532 197c0 -91 -55 -188 -157 -188c-66 0 -106 47 -106 91c0 90 84 100 85 100l2 -20c-2 0 -67 -8 -67 -80c0 -35 32 -71 86 -71
c90 0 138 84 138 168c0 36 -9 70 -25 99c-34 13 -69 21 -109 21c-113 0 -145 -93 -147 -97l-19 6c1 1 39 111 166 111c32 0 62 -5 89 -13l-2 3c-36 39 -83 60 -151 60c-157 0 -242 -136 -242 -263c0 -67 23 -129 64 -173c47 -51 116 -78 201 -78c165 0 265 136 353 289
c-28 18 -54 38 -80 59c-32 25 -63 46 -96 63c11 -27 17 -56 17 -87zM756 237l-38 -69c37 -22 73 -40 126 -40c34 0 58 8 86 18c22 156 76 363 91 421c-122 -60 -204 -218 -265 -330z" />
    <glyph glyph-name="Egrave" unicode="&#xc8;" horiz-adv-x="563" 
d="M273 306c40 13 82 17 117 17c58 0 73 -19 73 -40c0 -31 -33 -55 -101 -55c-56 0 -96 15 -124 37c-24 -25 -63 -63 -63 -166c0 -80 77 -134 136 -134c169 0 226 170 228 178l20 -5c0 -2 -60 -193 -267 -193c-145 0 -227 67 -227 167c0 103 84 154 153 173
c-22 27 -45 62 -45 124c0 100 73 200 235 200c119 0 180 -46 180 -111c0 -75 -44 -101 -50 -164h-21c7 67 50 90 50 163c0 58 -70 94 -143 94c-90 0 -165 -58 -165 -205c0 -62 14 -80 14 -80zM362 246c58 0 81 19 81 35c0 11 -9 24 -53 24c-43 0 -72 -5 -109 -16
c0 0 19 -43 81 -43zM376 764l53 -106l-26 -10l-53 106z" />
    <glyph glyph-name="Eacute" unicode="&#xc9;" horiz-adv-x="563" 
d="M273 306c0 0 -14 18 -14 80c0 147 75 205 165 205c73 0 143 -36 143 -94c0 -73 -43 -96 -50 -163h21c6 63 50 89 50 164c0 65 -61 111 -180 111c-162 0 -235 -100 -235 -200c0 -62 23 -97 45 -124c-69 -19 -153 -70 -153 -173c0 -100 82 -167 227 -167
c207 0 267 191 267 193l-20 5c-2 -8 -59 -178 -228 -178c-59 0 -136 54 -136 134c0 103 39 141 63 166c28 -22 68 -37 124 -37c68 0 101 24 101 55c0 21 -15 40 -73 40c-35 0 -77 -4 -117 -17zM362 246c-62 0 -81 43 -81 43c37 11 66 16 109 16c44 0 53 -13 53 -24
c0 -16 -23 -35 -81 -35zM408 658l53 106l26 -10l-53 -106z" />
    <glyph glyph-name="Ecircumflex" unicode="&#xca;" horiz-adv-x="563" 
d="M273 306c40 13 82 17 117 17c58 0 73 -19 73 -40c0 -31 -33 -55 -101 -55c-56 0 -96 15 -124 37c-24 -25 -63 -63 -63 -166c0 -80 77 -134 136 -134c169 0 226 170 228 178l20 -5c0 -2 -60 -193 -267 -193c-145 0 -227 67 -227 167c0 103 84 154 153 173
c-22 27 -45 62 -45 124c0 100 73 200 235 200c119 0 180 -46 180 -111c0 -75 -44 -101 -50 -164h-21c7 67 50 90 50 163c0 58 -70 94 -143 94c-90 0 -165 -58 -165 -205c0 -62 14 -80 14 -80zM362 246c58 0 81 19 81 35c0 11 -9 24 -53 24c-43 0 -72 -5 -109 -16
c0 0 19 -43 81 -43zM447 818l-151 -169l-22 17l163 180h27l96 -186l-25 -12z" />
    <glyph glyph-name="Edieresis" unicode="&#xcb;" horiz-adv-x="563" 
d="M273 306c0 0 -14 18 -14 80c0 147 75 205 165 205c73 0 143 -36 143 -94c0 -73 -43 -96 -50 -163h21c6 63 50 89 50 164c0 65 -61 111 -180 111c-162 0 -235 -100 -235 -200c0 -62 23 -97 45 -124c-69 -19 -153 -70 -153 -173c0 -100 82 -167 227 -167
c207 0 267 191 267 193l-20 5c-2 -8 -59 -178 -228 -178c-59 0 -136 54 -136 134c0 103 39 141 63 166c28 -22 68 -37 124 -37c68 0 101 24 101 55c0 21 -15 40 -73 40c-35 0 -77 -4 -117 -17zM362 246c-62 0 -81 43 -81 43c37 11 66 16 109 16c44 0 53 -13 53 -24
c0 -16 -23 -35 -81 -35zM431 706c0 32 25 59 58 59c32 0 59 -27 59 -59c0 -33 -27 -58 -59 -58c-33 0 -58 25 -58 58zM271 706c0 32 25 59 58 59c32 0 59 -27 59 -59c0 -33 -27 -58 -59 -58c-33 0 -58 25 -58 58z" />
    <glyph glyph-name="F" unicode="F" horiz-adv-x="870" 
d="M462 193h-51l2 18h52l65 373c-273 -22 -427 -119 -427 -273c0 -38 11 -68 35 -90c56 -54 160 -51 161 -50l1 -21h-6c-26 0 -116 4 -170 56c-28 26 -42 62 -42 105c0 189 210 298 574 298c203 0 259 -49 259 -120c0 -104 -114 -185 -155 -278h53l-2 -18h-58
c-5 -16 -8 -31 -8 -47h-21c0 16 2 32 6 47h-127l-21 -117c-30 -152 -160 -231 -273 -231v20c93 2 102 26 126 166zM891 489c0 33 -18 100 -227 100c-6 -41 -29 -212 -58 -378h131c39 99 154 178 154 278z" />
    <glyph glyph-name="R" unicode="R" horiz-adv-x="956" 
d="M308 -153v19c83 4 100 26 125 166l96 553c-273 -23 -428 -121 -428 -275c0 -36 14 -66 36 -88c57 -55 161 -51 162 -50v-21c-65 0 -131 13 -175 56c-28 26 -42 61 -42 103c0 191 208 299 572 299c241 0 313 -73 313 -175c0 -106 -86 -182 -198 -221
c174 -361 187 -379 256 -379c41 0 77 27 90 72h25c-19 -62 -62 -104 -157 -104c-109 0 -172 53 -217 151l-108 234c-20 -2 -39 -4 -59 -4c-7 -36 -12 -72 -19 -105c-28 -152 -160 -231 -272 -231zM941 434c0 98 -89 154 -278 156l-60 -385c192 5 338 110 338 229z" />
    <glyph glyph-name="G" unicode="G" horiz-adv-x="654" 
d="M210 136c0 -125 53 -176 97 -198c16 -2 32 -3 50 -3c150 0 215 77 223 87c11 42 20 91 33 144l21 -5c-51 -212 -53 -318 -186 -354l-4 21c72 15 103 72 127 158c-30 -27 -98 -73 -214 -73c-168 0 -265 103 -265 281c0 238 168 415 424 415c119 0 166 -42 166 -130
c0 -43 -22 -78 -44 -111c-20 -32 -40 -63 -40 -100h-22c0 44 23 78 44 112c21 32 39 60 39 97c0 47 -12 111 -143 111c-21 0 -41 -2 -60 -4c-105 -32 -246 -134 -246 -448z" />
    <glyph glyph-name="C" unicode="C" horiz-adv-x="644" 
d="M210 136c0 -125 53 -176 97 -198c16 -2 32 -3 50 -3c190 0 234 148 234 148l20 -8s-42 -160 -254 -160c-168 0 -265 101 -265 279c0 238 168 415 424 415c119 0 166 -42 166 -130c0 -43 -22 -78 -44 -111c-20 -32 -40 -63 -40 -100h-22c0 44 23 78 44 112
c21 32 39 60 39 97c0 47 -12 111 -143 111c-21 0 -41 -2 -60 -4c-105 -32 -246 -134 -246 -448z" />
    <glyph glyph-name="P" unicode="P" horiz-adv-x="960" 
d="M331 -153c-99 0 -149 37 -149 83c0 43 34 78 114 78c67 0 105 -25 140 -58c7 22 14 49 20 82l6 37h-42v22h46c34 190 76 434 76 434c3 22 7 42 14 60c-275 -21 -432 -120 -432 -275c0 -36 14 -66 36 -88c57 -55 161 -51 162 -50v-21c-65 0 -131 13 -175 56
c-28 26 -42 61 -42 103c0 170 165 275 459 295c31 69 90 105 175 105v-26c-37 -5 -43 -32 -51 -75c231 -4 292 -115 292 -215c0 -219 -206 -291 -378 -314v-2c-15 -82 -57 -142 -112 -181c45 -41 103 -79 216 -79v-22c-122 0 -185 43 -234 89c-42 -25 -92 -38 -141 -38z
M954 394c0 112 -80 193 -268 196c-6 -44 -41 -292 -79 -487c165 24 347 93 347 291zM428 -72c-36 34 -71 61 -130 61c-57 0 -92 -22 -92 -59s50 -64 108 -64c57 0 93 11 114 62z" />
    <glyph glyph-name="Euro" unicode="&#x20ac;" horiz-adv-x="706" 
d="M157 177h-100l2 18h98c0 29 2 58 7 86h-87l2 18h89c42 183 196 310 413 310c119 0 166 -42 166 -130c0 -43 -22 -78 -44 -111c-20 -32 -40 -63 -40 -100h-22c0 44 23 78 44 112c21 32 39 60 39 97c0 47 -12 111 -143 111c-21 0 -41 -2 -60 -4c-85 -26 -192 -96 -231 -285
h242l-2 -18h-243c-5 -27 -8 -55 -10 -86h235l-2 -18h-234c-1 -14 -1 -27 -1 -41c0 -125 53 -176 97 -198c16 -2 32 -3 50 -3c190 0 234 148 234 148l20 -8s-42 -160 -254 -160c-163 0 -259 94 -265 262z" />
    <glyph glyph-name="Ccedilla" unicode="&#xc7;" horiz-adv-x="644" 
d="M210 136c0 -125 53 -176 97 -198c16 -2 32 -3 50 -3c190 0 234 148 234 148l20 -8s-40 -150 -236 -159l-4 -44h-14c-41 0 -65 -15 -65 -45c0 -31 20 -40 61 -40c47 0 73 23 73 23l9 -18s-26 -25 -83 -25c-55 0 -83 19 -83 60c0 38 29 65 85 65l2 23
c-168 1 -264 101 -264 279c0 238 168 415 424 415c119 0 166 -42 166 -130c0 -43 -22 -78 -44 -111c-20 -32 -40 -63 -40 -100h-22c0 44 23 78 44 112c21 32 39 60 39 97c0 47 -12 111 -143 111c-21 0 -41 -2 -61 -4c-105 -33 -245 -135 -245 -448z" />
    <glyph glyph-name="Eth" unicode="&#xd0;" horiz-adv-x="970" 
d="M434 184h-82l2 18h83l67 384c-74 -6 -135 -21 -184 -41c55 -59 72 -132 67 -196c-9 -103 -77 -179 -161 -179c-80 0 -121 62 -121 123c0 97 51 197 180 259c-40 34 -97 61 -174 74l4 19c84 -15 147 -46 189 -85c74 30 170 49 293 49c236 0 377 -112 377 -301
c0 -183 -127 -377 -404 -377c-48 0 -89 6 -125 16c-45 -32 -98 -49 -147 -49v19c50 1 69 8 87 51c-116 51 -157 140 -157 142l18 7c0 -1 38 -84 146 -132c8 21 16 49 23 87zM552 113c-13 -66 -46 -116 -88 -152c31 -7 66 -12 106 -12c265 0 385 186 385 359
c0 167 -121 271 -326 281c-12 -79 -34 -234 -61 -387h169l-2 -18h-170c-5 -24 -9 -48 -13 -71zM300 537c-127 -57 -176 -152 -176 -244c0 -49 32 -104 102 -104c74 0 134 68 142 163c6 60 -13 130 -68 185z" />
    <glyph glyph-name="I" unicode="I" horiz-adv-x="611" 
d="M357 210h-109l2 18h111c51 195 98 279 168 289c-75 31 -146 71 -226 71c-124 0 -190 -63 -190 -219h-23c0 167 72 240 207 240c132 0 247 -102 375 -102v-23c-21 0 -40 3 -59 7c0 0 -65 -29 -131 -263h108l-2 -18h-111c-6 -20 -11 -41 -16 -63
c-50 -216 -94 -332 -220 -332c-59 0 -73 12 -73 12l10 21s14 -14 69 -14c8 0 15 1 23 2l71 308c5 23 11 45 16 66z" />
    <glyph glyph-name="Igrave" unicode="&#xcc;" horiz-adv-x="611" 
d="M357 210h-109l2 18h111c51 195 98 279 168 289c-75 31 -146 71 -226 71c-124 0 -190 -63 -190 -219h-23c0 167 72 240 207 240c132 0 247 -102 375 -102v-23c-21 0 -40 3 -59 7c0 0 -65 -29 -131 -263h108l-2 -18h-111c-6 -20 -11 -41 -16 -63
c-50 -216 -94 -332 -220 -332c-59 0 -73 12 -73 12l10 21s14 -14 69 -14c8 0 15 1 23 2l71 308c5 23 11 45 16 66zM533 764l53 -106l-26 -10l-53 106z" />
    <glyph glyph-name="Iacute" unicode="&#xcd;" horiz-adv-x="611" 
d="M248 210h109c-5 -21 -11 -43 -16 -66l-71 -308c-8 -1 -15 -2 -23 -2c-55 0 -69 14 -69 14l-10 -21s14 -12 73 -12c126 0 170 116 220 332c5 22 10 43 16 63h111l2 18h-108c66 234 131 263 131 263c19 -4 38 -7 59 -7v23c-128 0 -243 102 -375 102
c-135 0 -207 -73 -207 -240h23c0 156 66 219 190 219c80 0 151 -40 226 -71c-70 -10 -117 -94 -168 -289h-111zM579 658l53 106l26 -10l-53 -106z" />
    <glyph glyph-name="Icircumflex" unicode="&#xce;" horiz-adv-x="611" 
d="M357 210h-109l2 18h111c51 195 98 279 168 289c-75 31 -146 71 -226 71c-124 0 -190 -63 -190 -219h-23c0 167 72 240 207 240c132 0 247 -102 375 -102v-23c-21 0 -40 3 -59 7c0 0 -65 -29 -131 -263h108l-2 -18h-111c-6 -20 -11 -41 -16 -63
c-50 -216 -94 -332 -220 -332c-59 0 -73 12 -73 12l10 21s14 -14 69 -14c8 0 15 1 23 2l71 308c5 23 11 45 16 66zM596 818l-151 -169l-22 17l163 180h27l96 -186l-25 -12z" />
    <glyph glyph-name="Idieresis" unicode="&#xcf;" horiz-adv-x="611" 
d="M248 210h109c-5 -21 -11 -43 -16 -66l-71 -308c-8 -1 -15 -2 -23 -2c-55 0 -69 14 -69 14l-10 -21s14 -12 73 -12c126 0 170 116 220 332c5 22 10 43 16 63h111l2 18h-108c66 234 131 263 131 263c19 -4 38 -7 59 -7v23c-128 0 -243 102 -375 102
c-135 0 -207 -73 -207 -240h23c0 156 66 219 190 219c80 0 151 -40 226 -71c-70 -10 -117 -94 -168 -289h-111zM584 706c0 32 25 59 58 59c32 0 59 -27 59 -59c0 -33 -27 -58 -59 -58c-33 0 -58 25 -58 58zM424 706c0 32 25 59 58 59c32 0 59 -27 59 -59
c0 -33 -27 -58 -59 -58c-33 0 -58 25 -58 58z" />
    <glyph glyph-name="currency" unicode="&#xa4;" horiz-adv-x="706" 
d="M157 177h-100l2 18h98c0 29 2 58 7 86h-87l2 18h89c42 183 196 310 413 310c119 0 166 -42 166 -130c0 -43 -22 -78 -44 -111c-20 -32 -40 -63 -40 -100h-22c0 44 23 78 44 112c21 32 39 60 39 97c0 47 -12 111 -143 111c-21 0 -41 -2 -60 -4c-85 -26 -192 -96 -231 -285
h242l-2 -18h-243c-5 -27 -8 -55 -10 -86h235l-2 -18h-234c-1 -14 -1 -27 -1 -41c0 -125 53 -176 97 -198c16 -2 32 -3 50 -3c190 0 234 148 234 148l20 -8s-42 -160 -254 -160c-163 0 -259 94 -265 262z" />
    <glyph glyph-name="degree" unicode="&#xb0;" horiz-adv-x="339" 
d="M122 476c0 83 36 169 161 169c73 0 110 -40 110 -101c0 -100 -54 -174 -162 -174c-73 0 -109 39 -109 106zM232 390c88 0 139 53 139 152c0 53 -33 84 -88 84c-79 0 -137 -43 -137 -148c0 -50 22 -88 86 -88z" />
    <glyph glyph-name="K" unicode="K" horiz-adv-x="1078" 
d="M202 374h-22c0 138 94 235 228 235c80 0 125 -15 173 -31c55 -20 111 -39 232 -39v-21c-49 0 -88 2 -120 7c-5 -24 -19 -94 -90 -389c-44 -187 -115 -361 -330 -361c-73 0 -147 31 -194 83c-45 52 -66 121 -59 199l22 -3c-6 -71 11 -134 53 -180c44 -49 106 -66 160 -66
c130 0 162 76 201 230c73 304 115 474 125 515l-7 3c-46 17 -90 31 -166 31c-122 0 -206 -87 -206 -213zM1150 665h23c0 -110 -85 -215 -85 -309h-22c0 69 36 131 61 198c-133 -8 -239 -115 -319 -219c-29 -36 -50 -64 -66 -86c179 -373 211 -423 281 -423c41 0 77 27 90 72
h25c-19 -62 -62 -104 -157 -104c-109 0 -171 54 -217 151l-110 232l143 186c82 107 189 211 338 215c9 27 15 56 15 87z" />
    <glyph glyph-name="M" unicode="M" horiz-adv-x="1336" 
d="M244 391h-20c0 128 86 217 210 217c74 0 120 -14 168 -29c57 -18 115 -36 234 -36l42 -540l20 28c263 362 412 539 512 539v-20c-22 0 -48 -12 -79 -34c-16 -50 -65 -211 -114 -367c-39 -121 -47 -220 -14 -265c47 0 75 34 75 34l13 -17s-33 -38 -91 -38
c-141 0 -167 128 -117 292l45 148c-62 -78 -132 -172 -213 -284c-39 -53 -81 -112 -128 -175l-18 5l-39 484l-80 -146c-152 -286 -225 -352 -394 -352c-68 0 -135 29 -179 77c-43 48 -62 111 -54 184l20 -2c-7 -67 10 -125 49 -168c40 -44 101 -71 164 -71
c159 0 228 64 376 341l180 327c-105 2 -164 20 -216 36c-46 15 -91 29 -162 29c-112 0 -190 -81 -190 -197z" />
    <glyph glyph-name="paragraph" unicode="&#xb6;" horiz-adv-x="565" 
d="M228 -158v19c106 6 223 67 252 214c38 199 77 467 83 514c-12 0 -26 1 -39 1h-10c-14 -96 -46 -310 -78 -481c-29 -152 -133 -205 -271 -217v21c102 0 225 48 252 212l2 12c-181 -18 -332 44 -332 198c0 159 153 274 409 274c3 22 14 84 14 85l20 -4
c0 -1 -11 -61 -14 -81h8c43 0 79 -3 112 -7v-20l-53 6c-4 -35 -43 -311 -84 -515c-28 -152 -159 -231 -271 -231z" />
    <glyph glyph-name="N" unicode="N" horiz-adv-x="1287" 
d="M285 403h-19c0 122 83 207 200 207c71 0 115 -14 160 -28c54 -16 110 -33 226 -33l160 -435c195 305 240 482 391 482v-20c-133 0 -195 -195 -382 -485c20 -49 34 -81 43 -99c35 -69 61 -104 113 -104c71 0 90 73 90 73h22s-13 -104 -154 -104c-118 0 -179 62 -224 167
c-127 335 -139 369 -139 369l-101 -184c-145 -271 -256 -368 -428 -368c-65 0 -129 28 -171 73c-41 46 -58 106 -51 176l19 -3c-6 -63 10 -118 46 -159c38 -43 96 -67 157 -67c162 0 270 93 412 358l170 310c-93 2 -155 19 -205 35c-44 14 -86 26 -154 26
c-107 0 -181 -76 -181 -187z" />
    <glyph glyph-name="Z" unicode="Z" horiz-adv-x="728" 
d="M698 -45h21c0 -99 -51 -158 -165 -158c-157 6 -297 186 -454 186c-47 0 -56 -25 -56 -25h-23c5 73 49 115 118 115c50 0 85 -13 85 -13l333 337c-119 32 -240 143 -337 143c-36 0 -55 -12 -66 -22v-14c0 -95 99 -115 99 -115l-5 -17c-1 1 -114 21 -114 132
c0 88 55 139 151 139c84 0 140 -40 194 -78c49 -34 95 -67 158 -67c100 0 108 47 108 47l24 1c0 -65 -26 -157 -152 -157c-12 0 -25 1 -37 3l-334 -339c125 -48 223 -163 365 -163c47 0 70 11 82 23c3 13 5 27 5 42z" />
    <glyph glyph-name="Zcaron" unicode="&#x17d;" horiz-adv-x="734" 
d="M719 -45h-21c0 -15 -2 -29 -5 -42c-12 -12 -35 -23 -82 -23c-142 0 -240 115 -365 163l334 339c12 -2 25 -3 37 -3c126 0 152 92 152 157l-24 -1s-8 -47 -108 -47c-63 0 -109 33 -158 67c-54 38 -110 78 -194 78c-96 0 -151 -51 -151 -139c0 -111 113 -131 114 -132l5 17
s-99 20 -99 115v14c11 10 30 22 66 22c97 0 218 -111 337 -143l-333 -337s-35 13 -85 13c-69 0 -113 -42 -118 -115h23s9 25 56 25c157 0 297 -180 454 -186c114 0 165 59 165 158zM598 638l151 169l22 -17l-163 -180h-27l-96 186l25 12z" />
    <glyph glyph-name="T" unicode="T" horiz-adv-x="940" 
d="M352 152l-6 -22c-2 0 -201 13 -201 216c0 131 87 263 284 263c117 0 192 -30 258 -58c56 -22 106 -44 177 -44c176 0 177 150 177 157h22c0 -1 -2 -178 -199 -178c-44 0 -80 7 -115 18c-22 -31 -76 -126 -143 -387c-47 -183 -120 -279 -316 -279
c-174 0 -254 135 -244 269h23s-11 -246 221 -246c104 0 157 73 205 283c63 263 107 355 223 371c-13 5 -26 10 -39 16c-67 28 -136 57 -250 57c-193 0 -261 -131 -261 -242c0 -187 184 -194 184 -194z" />
    <glyph glyph-name="U" unicode="U" horiz-adv-x="898" 
d="M922 665l-140 -601s-9 -37 -9 -50c0 -20 8 -42 39 -42s49 29 49 29l14 -12s-19 -36 -63 -36s-60 29 -60 58c0 18 12 66 12 66l5 23c-29 -45 -91 -109 -173 -109c-125 0 -190 72 -190 180c0 98 31 184 80 382l-7 3c-46 17 -90 31 -166 31c-122 0 -206 -87 -206 -213h-22
c0 138 94 235 228 235c80 0 125 -15 173 -31c55 -20 111 -39 232 -39v-21c-49 0 -88 2 -120 7c-39 -168 -76 -270 -76 -362c0 -78 53 -119 119 -119c82 0 126 73 142 113l118 508h21z" />
    <glyph glyph-name="W" unicode="W" horiz-adv-x="1332" 
d="M512 76c0 -143 68 -177 119 -177c68 0 112 44 152 84c-12 36 -16 80 -16 129c0 247 120 507 248 507c36 0 61 -15 61 -74c0 -108 -76 -321 -195 -483c12 -107 73 -151 151 -151c91 0 158 106 205 218c92 222 93 496 2 588l15 15c109 -109 89 -404 4 -612
c-76 -183 -176 -270 -305 -270c-65 0 -114 26 -145 79c-6 10 -11 18 -17 30c-62 -64 -132 -109 -234 -109c-119 0 -164 96 -164 191c0 276 185 478 240 533c-28 0 -56 3 -86 7c-37 2 -76 6 -119 6c-187 0 -300 -100 -300 -265c0 -171 159 -201 160 -202l-3 -21
c-1 0 -179 34 -179 223c0 176 124 287 322 287c44 0 83 -3 121 -8c90 -7 160 -14 245 32l11 -18c-50 -29 -97 -39 -143 -41c-81 -78 -150 -281 -150 -498zM878 112v-15c10 14 18 27 26 40c88 137 149 310 149 408c0 36 -12 52 -38 52c-11 0 -22 -3 -33 -8
c-33 -32 -104 -142 -104 -477z" />
    <glyph glyph-name="V" unicode="V" horiz-adv-x="1003" 
d="M533 185c0 -156 66 -194 144 -194c73 0 135 50 174 98c168 215 166 516 134 645l21 5c33 -131 34 -442 -138 -663c-82 -106 -176 -160 -274 -160c-125 0 -168 102 -168 189c0 235 152 417 205 469c-29 0 -58 3 -88 6c-37 2 -74 7 -117 7c-186 0 -298 -98 -298 -263
c0 -171 157 -200 161 -201l-5 -21c-3 0 -177 34 -177 222c0 175 123 285 319 285c43 0 83 -4 120 -7c89 -9 160 -15 243 31l12 -19c-48 -26 -91 -36 -135 -39c-69 -83 -133 -243 -133 -390z" />
    <glyph glyph-name="Y" unicode="Y" horiz-adv-x="713" 
d="M539 86c-37 -106 -70 -202 -87 -254h-134s170 378 170 592c0 112 -48 164 -125 164c-106 0 -236 -83 -236 -270c0 -176 158 -201 158 -201l-7 -19c-1 1 -172 32 -172 220c0 171 109 291 268 291c139 0 220 -62 220 -209c0 -93 -16 -154 -18 -160c117 253 279 539 445 539
c79 0 102 -37 102 -97h-23c-7 62 -34 73 -79 73c-173 0 -387 -396 -482 -669z" />
    <glyph glyph-name="yen" unicode="&#xa5;" horiz-adv-x="1012" 
d="M443 -168h-134s47 105 92 235c-144 5 -304 70 -304 251c0 171 109 291 268 291c139 0 220 -62 220 -209c0 -93 -16 -154 -18 -160c117 253 279 539 445 539c73 0 100 -32 104 -97h-25c-7 62 -35 72 -80 72c-151 0 -321 -305 -435 -560h182l-2 -18h-188
c-14 -31 -26 -62 -38 -90c0 -1 -1 -1 -1 -1h209l-2 -18h-214c-53 -132 -63 -185 -79 -235zM435 176h-162l2 18h165c23 81 39 163 39 230c0 112 -48 164 -125 164c-106 0 -236 -83 -236 -270c0 -176 163 -232 289 -233c10 29 19 60 28 91z" />
    <glyph glyph-name="H" unicode="H" horiz-adv-x="993" 
d="M1017 665l-140 -601s-9 -37 -9 -50c0 -20 8 -42 39 -42s49 29 49 29l14 -12s-19 -36 -63 -36s-60 29 -60 58c0 18 12 66 12 66l31 136h-269c-5 -24 -12 -49 -18 -77c-44 -187 -115 -361 -330 -361c-73 0 -147 31 -194 83c-45 52 -66 121 -59 199l22 -3
c-6 -71 11 -134 53 -180c44 -49 106 -66 160 -66c130 0 162 76 201 230c73 304 115 474 125 515l-7 3c-46 17 -90 31 -166 31c-122 0 -206 -87 -206 -213h-22c0 138 94 235 228 235c80 0 125 -15 173 -31c55 -20 111 -39 232 -39v-21c-49 0 -88 2 -120 7
c-5 -21 -16 -79 -67 -294h268l102 434h21z" />
    <glyph glyph-name="Ydieresis" unicode="&#x178;" horiz-adv-x="713" 
d="M539 86c-37 -106 -70 -202 -87 -254h-134s170 378 170 592c0 112 -48 164 -125 164c-106 0 -236 -83 -236 -270c0 -176 158 -201 158 -201l-7 -19c-1 1 -172 32 -172 220c0 171 109 291 268 291c139 0 220 -62 220 -209c0 -93 -16 -154 -18 -160c117 253 279 539 445 539
c79 0 102 -37 102 -97h-23c-7 62 -34 73 -79 73c-173 0 -387 -396 -482 -669zM626 692c0 32 25 59 58 59c32 0 59 -27 59 -59c0 -33 -27 -58 -59 -58c-33 0 -58 25 -58 58zM466 692c0 32 25 59 58 59c32 0 59 -27 59 -59c0 -33 -27 -58 -59 -58c-33 0 -58 25 -58 58z" />
    <glyph glyph-name="cent" unicode="&#xa2;" horiz-adv-x="411" 
d="M280 260c0 40 32 73 72 73c14 0 16 -2 23 -4c-12 22 -41 35 -70 35c-62 0 -133 -75 -133 -262c0 -64 34 -88 73 -88c106 0 142 116 142 117l18 -8s-25 -120 -161 -131l-27 -154h-30l27 153c-104 3 -155 59 -155 144c0 161 87 254 221 254h5l33 188h30l-34 -191
c72 -12 109 -60 109 -124c0 -51 -37 -74 -71 -74c-40 0 -72 32 -72 72z" />
    <glyph glyph-name="Yacute" unicode="&#xdd;" horiz-adv-x="713" 
d="M539 86c95 273 309 669 482 669c45 0 72 -11 79 -73h23c0 60 -23 97 -102 97c-166 0 -328 -286 -445 -539c2 6 18 67 18 160c0 147 -81 209 -220 209c-159 0 -268 -120 -268 -291c0 -188 171 -219 172 -220l7 19s-158 25 -158 201c0 187 130 270 236 270
c77 0 125 -52 125 -164c0 -214 -170 -592 -170 -592h134c17 52 50 148 87 254zM632 675l53 106l26 -10l-53 -106z" />
    <glyph glyph-name="Udieresis" unicode="&#xdc;" horiz-adv-x="898" 
d="M782 64l140 601h-21l-118 -508c-16 -40 -60 -113 -142 -113c-66 0 -119 41 -119 119c0 92 37 194 76 362c32 -5 71 -7 120 -7v21c-121 0 -177 19 -232 39c-48 16 -93 31 -173 31c-134 0 -228 -97 -228 -235h22c0 126 84 213 206 213c76 0 120 -14 166 -31l7 -3
c-49 -198 -80 -284 -80 -382c0 -108 65 -180 190 -180c82 0 144 64 173 109l-5 -23s-12 -48 -12 -66c0 -29 16 -58 60 -58s63 36 63 36l-14 12s-18 -29 -49 -29s-39 22 -39 42c0 13 9 50 9 50zM686 706c0 32 25 59 58 59c32 0 59 -27 59 -59c0 -33 -27 -58 -59 -58
c-33 0 -58 25 -58 58zM526 706c0 32 25 59 58 59c32 0 59 -27 59 -59c0 -33 -27 -58 -59 -58c-33 0 -58 25 -58 58z" />
    <glyph glyph-name="Q" unicode="Q" horiz-adv-x="779" 
d="M231 -95c74 0 143 -19 206 -44c166 123 304 311 304 484c0 158 -87 245 -244 245c-122 0 -287 -123 -287 -454c0 -149 74 -149 106 -149c76 0 163 97 163 222c0 45 -12 80 -36 104c-34 33 -81 32 -80 33v20c2 0 54 0 94 -39c28 -28 42 -67 42 -118
c0 -121 -78 -250 -223 -250c-122 0 -192 76 -192 210c0 183 128 441 413 441c167 0 263 -97 263 -265c0 -175 -137 -365 -303 -492c113 -48 199 -113 286 -113c105 0 140 85 141 88l19 -5c-36 -98 -160 -117 -251 -117c-129 0 -213 41 -292 80c-86 -50 -172 -80 -257 -80
c-68 0 -93 36 -93 71c0 69 97 128 221 128zM33 -223c0 -30 28 -51 75 -51c72 0 152 26 231 71c-62 30 -123 56 -202 56c-48 0 -104 -24 -104 -76z" />
    <glyph glyph-name="S" unicode="S" horiz-adv-x="710" 
d="M309 -194c143 0 222 64 222 157c0 185 -244 177 -285 354c-78 23 -108 77 -120 113c-29 89 5 208 75 260l11 -16c-63 -46 -94 -157 -68 -238c12 -36 39 -78 99 -98c-2 11 -2 22 -2 34c0 180 150 293 327 293c60 0 110 -18 144 -49c30 -28 46 -67 46 -108
c0 -74 -55 -151 -155 -151c-25 0 -47 5 -64 15c-16 -12 -65 -42 -121 -56c86 -80 240 -137 240 -276c0 -150 -126 -256 -324 -256c-81 0 -148 21 -193 60c-39 33 -60 79 -60 130c0 85 64 173 172 173c43 0 78 -12 101 -34c21 -19 32 -46 32 -76c0 -55 -39 -113 -96 -113
c-31 0 -56 10 -73 28c-29 29 -28 70 -27 72l19 -1s-1 -35 22 -58c13 -14 33 -21 59 -21c46 0 77 48 77 93c0 24 -9 47 -26 62c-19 19 -50 29 -88 29c-96 0 -153 -78 -153 -154c0 -45 19 -86 54 -116c41 -36 78 -52 155 -52zM525 383c-30 27 -46 69 -46 111
c0 57 30 102 84 102c43 0 67 -25 67 -73c0 -47 -28 -99 -73 -139c13 -6 28 -10 46 -10c88 0 136 69 136 134c0 36 -14 69 -40 94c-31 28 -76 44 -131 44c-219 0 -280 -240 -167 -317c58 13 108 43 124 54zM562 578c-41 0 -63 -35 -63 -84c0 -37 13 -76 41 -99
c39 28 70 81 70 128c0 37 -16 55 -48 55z" />
    <glyph glyph-name="Scaron" unicode="&#x160;" horiz-adv-x="710" 
d="M309 -194c143 0 222 64 222 157c0 185 -244 177 -285 354c-78 23 -108 77 -120 113c-29 89 5 208 75 260l11 -16c-63 -46 -94 -157 -68 -238c12 -36 39 -78 99 -98c-2 11 -2 22 -2 34c0 180 150 293 327 293c60 0 110 -18 144 -49c30 -28 46 -67 46 -108
c0 -74 -55 -151 -155 -151c-25 0 -47 5 -64 15c-16 -12 -65 -42 -121 -56c86 -80 240 -137 240 -276c0 -150 -126 -256 -324 -256c-81 0 -148 21 -193 60c-39 33 -60 79 -60 130c0 85 64 173 172 173c43 0 78 -12 101 -34c21 -19 32 -46 32 -76c0 -55 -39 -113 -96 -113
c-31 0 -56 10 -73 28c-29 29 -28 70 -27 72l19 -1s-1 -35 22 -58c13 -14 33 -21 59 -21c46 0 77 48 77 93c0 24 -9 47 -26 62c-19 19 -50 29 -88 29c-96 0 -153 -78 -153 -154c0 -45 19 -86 54 -116c41 -36 78 -52 155 -52zM525 383c-30 27 -46 69 -46 111
c0 57 30 102 84 102c43 0 67 -25 67 -73c0 -47 -28 -99 -73 -139c13 -6 28 -10 46 -10c88 0 136 69 136 134c0 36 -14 69 -40 94c-31 28 -76 44 -131 44c-219 0 -280 -240 -167 -317c58 13 108 43 124 54zM562 578c-41 0 -63 -35 -63 -84c0 -37 13 -76 41 -99
c39 28 70 81 70 128c0 37 -16 55 -48 55zM440 690l151 169l22 -17l-163 -180h-27l-96 186l25 12z" />
    <glyph glyph-name="Ograve" unicode="&#xd2;" horiz-adv-x="748" 
d="M200 136c0 -162 98 -214 172 -214c190 0 350 211 350 397c0 132 -60 208 -165 208c-134 0 -203 -112 -203 -221c0 -138 111 -146 116 -146l-1 -20c-1 0 -135 10 -135 166c0 119 76 240 223 240c116 0 185 -84 185 -227c0 -200 -162 -422 -396 -422
c-161 0 -257 103 -257 277c0 239 171 427 398 436l1 -20c-227 -7 -288 -271 -288 -454zM521 764l53 -106l-26 -10l-53 106z" />
    <glyph glyph-name="Ntilde" unicode="&#xd1;" horiz-adv-x="1287" 
d="M285 403h-19c0 122 83 207 200 207c71 0 115 -14 160 -28c54 -16 110 -33 226 -33l160 -435c195 305 240 482 391 482v-20c-133 0 -195 -195 -382 -485c20 -49 34 -81 43 -99c35 -69 61 -104 113 -104c71 0 90 73 90 73h22s-13 -104 -154 -104c-118 0 -179 62 -224 167
c-127 335 -139 369 -139 369l-101 -184c-145 -271 -256 -368 -428 -368c-65 0 -129 28 -171 73c-41 46 -58 106 -51 176l19 -3c-6 -63 10 -118 46 -159c38 -43 96 -67 157 -67c162 0 270 93 412 358l170 310c-93 2 -155 19 -205 35c-44 14 -86 26 -154 26
c-107 0 -181 -76 -181 -187zM1058 741c109 0 55 -108 133 -108c82 0 123 108 123 108h26s-41 -133 -152 -133c-104 0 -51 109 -134 109c-72 0 -121 -106 -120 -106h-31s48 130 155 130z" />
    <glyph glyph-name="Oacute" unicode="&#xd3;" horiz-adv-x="748" 
d="M200 136c0 -162 98 -214 172 -214c190 0 350 211 350 397c0 132 -60 208 -165 208c-134 0 -203 -112 -203 -221c0 -138 111 -146 116 -146l-1 -20c-1 0 -135 10 -135 166c0 119 76 240 223 240c116 0 185 -84 185 -227c0 -200 -162 -422 -396 -422
c-161 0 -257 103 -257 277c0 239 171 427 398 436l1 -20c-227 -7 -288 -271 -288 -454zM583 658l53 106l26 -10l-53 -106z" />
    <glyph glyph-name="Ocircumflex" unicode="&#xd4;" horiz-adv-x="748" 
d="M200 136c0 183 61 447 288 454l-1 20c-227 -9 -398 -197 -398 -436c0 -174 96 -277 257 -277c234 0 396 222 396 422c0 143 -69 227 -185 227c-147 0 -223 -121 -223 -240c0 -156 134 -166 135 -166l1 20c-5 0 -116 8 -116 146c0 109 69 221 203 221
c105 0 165 -76 165 -208c0 -186 -160 -397 -350 -397c-74 0 -172 52 -172 214zM565 818l-151 -169l-22 17l163 180h27l96 -186l-25 -12z" />
    <glyph glyph-name="Otilde" unicode="&#xd5;" horiz-adv-x="748" 
d="M200 136c0 -162 98 -214 172 -214c190 0 350 211 350 397c0 132 -60 208 -165 208c-134 0 -203 -112 -203 -221c0 -138 111 -146 116 -146l-1 -20c-1 0 -135 10 -135 166c0 119 76 240 223 240c116 0 185 -84 185 -227c0 -200 -162 -422 -396 -422
c-161 0 -257 103 -257 277c0 239 171 427 398 436l1 -20c-227 -7 -288 -271 -288 -454zM455 781c109 0 55 -108 133 -108c82 0 123 108 123 108h26s-41 -133 -152 -133c-104 0 -51 109 -134 109c-72 0 -121 -106 -120 -106h-31s48 130 155 130z" />
    <glyph glyph-name="Odieresis" unicode="&#xd6;" horiz-adv-x="748" 
d="M200 136c0 183 61 447 288 454l-1 20c-227 -9 -398 -197 -398 -436c0 -174 96 -277 257 -277c234 0 396 222 396 422c0 143 -69 227 -185 227c-147 0 -223 -121 -223 -240c0 -156 134 -166 135 -166l1 20c-5 0 -116 8 -116 146c0 109 69 221 203 221
c105 0 165 -76 165 -208c0 -186 -160 -397 -350 -397c-74 0 -172 52 -172 214zM531 709c0 32 25 59 58 59c32 0 59 -27 59 -59c0 -33 -27 -58 -59 -58c-33 0 -58 25 -58 58zM371 709c0 32 25 59 58 59c32 0 59 -27 59 -59c0 -33 -27 -58 -59 -58c-33 0 -58 25 -58 58z" />
    <glyph glyph-name="quoteright" unicode="&#x2019;" horiz-adv-x="186" 
d="M155 681c0 40 32 73 72 73s73 -33 73 -73c0 -57 -51 -147 -167 -180l-9 21c102 33 126 91 126 91c-7 -3 -15 -4 -23 -4c-40 0 -72 32 -72 72z" />
    <glyph glyph-name="quoteleft" unicode="&#x2018;" horiz-adv-x="206" 
d="M271 574c0 -40 -32 -73 -72 -73s-73 33 -73 73c0 57 51 147 167 180l9 -21c-102 -33 -126 -91 -126 -91c7 3 15 4 23 4c40 0 72 -32 72 -72z" />
    <glyph glyph-name="Oslash" unicode="&#xd8;" horiz-adv-x="748" 
d="M200 136c0 -96 34 -153 77 -184l110 223c-28 23 -53 63 -53 131c0 119 76 240 223 240c4 0 9 0 13 -1l56 113l20 -10l-52 -105c93 -17 148 -97 148 -224c0 -200 -162 -422 -396 -422c-24 0 -46 3 -67 7l-57 -116l-21 9l55 113c-106 32 -167 125 -167 264
c0 239 171 427 398 436l1 -20c-227 -7 -288 -271 -288 -454zM372 -78c190 0 350 211 350 397c0 120 -50 193 -137 206l-170 -345c28 -16 57 -19 57 -19l-3 -19c-1 0 -31 1 -63 20l-109 -222c24 -12 51 -18 75 -18zM354 306c0 -58 19 -91 43 -112l164 333h-4
c-134 0 -203 -112 -203 -221z" />
    <glyph glyph-name="Ugrave" unicode="&#xd9;" horiz-adv-x="898" 
d="M922 665l-140 -601s-9 -37 -9 -50c0 -20 8 -42 39 -42s49 29 49 29l14 -12s-19 -36 -63 -36s-60 29 -60 58c0 18 12 66 12 66l5 23c-29 -45 -91 -109 -173 -109c-125 0 -190 72 -190 180c0 98 31 184 80 382l-7 3c-46 17 -90 31 -166 31c-122 0 -206 -87 -206 -213h-22
c0 138 94 235 228 235c80 0 125 -15 173 -31c55 -20 111 -39 232 -39v-21c-49 0 -88 2 -120 7c-39 -168 -76 -270 -76 -362c0 -78 53 -119 119 -119c82 0 126 73 142 113l118 508h21zM725 764l53 -106l-26 -10l-53 106z" />
    <glyph glyph-name="Uacute" unicode="&#xda;" horiz-adv-x="898" 
d="M782 64l140 601h-21l-118 -508c-16 -40 -60 -113 -142 -113c-66 0 -119 41 -119 119c0 92 37 194 76 362c32 -5 71 -7 120 -7v21c-121 0 -177 19 -232 39c-48 16 -93 31 -173 31c-134 0 -228 -97 -228 -235h22c0 126 84 213 206 213c76 0 120 -14 166 -31l7 -3
c-49 -198 -80 -284 -80 -382c0 -108 65 -180 190 -180c82 0 144 64 173 109l-5 -23s-12 -48 -12 -66c0 -29 16 -58 60 -58s63 36 63 36l-14 12s-18 -29 -49 -29s-39 22 -39 42c0 13 9 50 9 50zM696 658l53 106l26 -10l-53 -106z" />
    <glyph glyph-name="Ucircumflex" unicode="&#xdb;" horiz-adv-x="898" 
d="M922 665l-140 -601s-9 -37 -9 -50c0 -20 8 -42 39 -42s49 29 49 29l14 -12s-19 -36 -63 -36s-60 29 -60 58c0 18 12 66 12 66l5 23c-29 -45 -91 -109 -173 -109c-125 0 -190 72 -190 180c0 98 31 184 80 382l-7 3c-46 17 -90 31 -166 31c-122 0 -206 -87 -206 -213h-22
c0 138 94 235 228 235c80 0 125 -15 173 -31c55 -20 111 -39 232 -39v-21c-49 0 -88 2 -120 7c-39 -168 -76 -270 -76 -362c0 -78 53 -119 119 -119c82 0 126 73 142 113l118 508h21zM690 816l-151 -169l-22 17l163 180h27l96 -186l-25 -12z" />
    <glyph glyph-name="quotedblleft" unicode="&#x201c;" horiz-adv-x="393" 
d="M271 574c0 -40 -32 -73 -72 -73s-73 33 -73 73c0 57 51 147 167 180l9 -21c-102 -33 -126 -91 -126 -91c7 3 15 4 23 4c40 0 72 -32 72 -72zM458 574c0 -40 -32 -73 -72 -73s-73 33 -73 73c0 57 51 147 167 180l9 -21c-102 -33 -126 -91 -126 -91c7 3 15 4 23 4
c40 0 72 -32 72 -72z" />
    <glyph glyph-name="quotedblright" unicode="&#x201d;" horiz-adv-x="373" 
d="M342 681c0 40 32 73 72 73s73 -33 73 -73c0 -57 -51 -147 -167 -180l-9 21c102 33 126 91 126 91c-7 -3 -15 -4 -23 -4c-40 0 -72 32 -72 72zM155 681c0 40 32 73 72 73s73 -33 73 -73c0 -57 -51 -147 -167 -180l-9 21c102 33 126 91 126 91c-7 -3 -15 -4 -23 -4
c-40 0 -72 32 -72 72z" />
    <glyph glyph-name="zero" unicode="0" horiz-adv-x="444" 
d="M205 -9c-80 0 -139 62 -139 146c0 166 159 260 239 260v-21c-67 0 -126 -120 -126 -243c0 -81 35 -105 80 -105c69 0 167 95 167 199c0 53 -26 87 -67 87c-24 0 -45 -8 -57 -23c-28 -27 -26 -78 -26 -78h-20c0 2 0 58 31 91c17 18 44 29 72 29c53 0 86 -41 86 -106
c0 -94 -93 -236 -240 -236z" />
    <glyph glyph-name="nine" unicode="9" horiz-adv-x="439" 
d="M-6 -159l-5 19c218 55 363 108 363 394c0 91 -55 107 -98 106c-103 -29 -151 -126 -151 -193c0 -90 70 -99 90 -99c42 0 73 29 73 30l13 -15c-2 -2 -33 -34 -86 -34c-54 0 -111 32 -111 118c0 107 90 222 235 222c81 0 130 -55 130 -146c0 -31 -13 -305 -453 -402z" />
    <glyph glyph-name="eight" unicode="8" horiz-adv-x="438" 
d="M193 -4c-101 0 -137 62 -137 104c0 128 161 178 162 178l5 -18c-56 -14 -88 -65 -88 -137c0 -63 51 -99 99 -95c81 0 117 64 117 121c0 48 -41 79 -84 113c-48 35 -97 74 -97 139c0 72 69 150 180 150c87 0 130 -32 130 -99c0 -98 -103 -149 -177 -166l-4 17
c85 23 160 77 160 142c0 59 -34 86 -109 86c-95 0 -159 -67 -159 -130c0 -57 44 -91 89 -124c45 -35 91 -71 91 -128c0 -91 -73 -153 -178 -153z" />
    <glyph glyph-name="seven" unicode="7" horiz-adv-x="370" 
d="M95 -164l-18 10l283 445h-257l-37 -75l-18 7l81 166h319z" />
    <glyph glyph-name="six" unicode="6" horiz-adv-x="460" 
d="M201 -4c-86 0 -130 47 -130 141c0 235 256 404 455 414v-20c-188 -14 -368 -118 -368 -400c0 -72 32 -106 86 -106c88 0 177 87 177 194c0 62 -34 96 -91 96c-50 0 -76 -30 -77 -31l-14 14c1 1 32 37 91 37c69 0 110 -43 110 -116c0 -88 -76 -223 -239 -223z" />
    <glyph glyph-name="five" unicode="5" horiz-adv-x="363" 
d="M69 183l88 206h258l-34 -94h-242l-41 -96h23c58 0 104 -7 145 -41c29 -24 45 -62 45 -105c0 -162 -169 -219 -315 -219v19c141 0 227 48 227 192c0 99 -50 138 -121 138h-33z" />
    <glyph glyph-name="four" unicode="4" horiz-adv-x="433" 
d="M6 44l451 375l-107 -301h81l-34 -94h-80l-65 -183l-22 2l63 181h-287v20zM412 355l-284 -237h199z" />
    <glyph glyph-name="three" unicode="3" horiz-adv-x="372" 
d="M109 -166c-63 0 -112 24 -112 93l21 -1c0 -55 48 -72 91 -72c90 0 136 70 136 165c0 62 -21 99 -53 99c-8 0 -28 -2 -28 -2l-6 20c83 28 135 49 135 146c0 53 -40 73 -69 72c-52 0 -96 -66 -97 -68l-17 9c2 4 52 94 177 94c62 0 97 -30 97 -83c0 -81 -92 -138 -163 -167
c27 -2 56 -9 77 -26c24 -19 37 -50 37 -88c0 -115 -117 -191 -226 -191z" />
    <glyph glyph-name="two" unicode="2" horiz-adv-x="400" 
d="M382 90l-34 -94h-319v20c54 36 102 64 155 96c101 65 112 97 112 158c0 46 -29 82 -74 82c-61 0 -111 -83 -112 -86l-16 10c6 11 61 113 193 113c71 0 108 -31 108 -93c0 -76 -72 -125 -206 -206h193z" />
    <glyph glyph-name="one" unicode="1" horiz-adv-x="290" 
d="M319 389l-147 -389h-118l118 339l-71 -15l-5 20z" />
    <glyph glyph-name="dollar" unicode="$" horiz-adv-x="707" 
d="M312 -194c143 0 222 64 222 157c0 185 -244 177 -285 354c-78 23 -108 77 -120 113c-29 89 5 208 75 260l11 -16c-63 -46 -94 -157 -68 -238c12 -36 39 -78 99 -98c-2 11 -2 22 -2 34c0 153 108 257 249 285l19 107h30l-17 -102c15 1 30 3 46 3c60 0 110 -18 144 -49
c30 -28 46 -67 46 -108c0 -74 -55 -151 -155 -151c-25 0 -47 5 -64 15c-16 -12 -65 -42 -121 -56c86 -80 240 -137 240 -276c0 -147 -122 -252 -314 -256l-14 -77h-30l14 78c-72 3 -132 23 -173 59c-39 33 -60 79 -60 130c0 85 64 173 172 173c43 0 78 -12 101 -34
c21 -19 32 -46 32 -76c0 -55 -39 -113 -96 -113c-31 0 -56 10 -73 28c-29 29 -28 70 -27 72l19 -1s-1 -35 22 -58c13 -14 33 -21 59 -21c46 0 77 48 77 93c0 24 -9 47 -26 62c-19 19 -50 29 -88 29c-96 0 -153 -78 -153 -154c0 -45 19 -86 54 -116c41 -36 78 -52 155 -52z
M528 383c-30 27 -46 69 -46 111c0 57 30 102 84 102c43 0 67 -25 67 -73c0 -47 -28 -99 -73 -139c13 -6 28 -10 46 -10c88 0 136 69 136 134c0 36 -14 69 -40 94c-31 28 -76 44 -131 44c-219 0 -280 -240 -167 -317c58 13 108 43 124 54zM565 578c-41 0 -63 -35 -63 -84
c0 -37 13 -76 41 -99c39 28 70 81 70 128c0 37 -16 55 -48 55z" />
    <glyph glyph-name="percent" unicode="%" horiz-adv-x="572" 
d="M152 150c88 0 142 83 142 138c0 40 -20 65 -52 65c-18 0 -34 -7 -45 -17c-18 -21 -18 -57 -18 -58h17s0 31 14 46c6 8 19 12 32 12c21 0 35 -19 35 -48c0 -57 -55 -111 -93 -111c-24 0 -44 13 -44 57c0 69 35 138 73 138v18c-48 0 -143 -55 -143 -153
c0 -50 35 -87 82 -87zM428 -8c88 0 142 83 142 138c0 40 -20 65 -52 65c-18 0 -34 -7 -45 -17c-18 -21 -18 -57 -18 -58h17s0 31 14 46c6 8 19 12 32 12c21 0 35 -19 35 -48c0 -57 -55 -111 -93 -111c-24 0 -44 13 -44 57c0 69 35 138 73 138v18c-48 0 -143 -55 -143 -153
c0 -50 35 -87 82 -87zM194 -32l233 466l26 -10l-233 -466z" />
    <glyph glyph-name="Thorn" unicode="&#xde;" horiz-adv-x="601" 
d="M595 394c0 112 -80 193 -268 196c-6 -44 -41 -292 -79 -487c165 24 347 93 347 291zM-28 -153v25c101 0 111 82 125 160c40 227 86 493 86 493c20 114 77 183 197 185v-26c-37 -5 -43 -32 -51 -75c231 -4 292 -115 292 -215c0 -219 -206 -291 -378 -314
c-25 -136 -141 -233 -271 -233z" />
    <glyph glyph-name="perthousand" unicode="&#x2030;" horiz-adv-x="827" 
d="M152 150c88 0 142 83 142 138c0 40 -20 65 -52 65c-18 0 -34 -7 -45 -17c-18 -21 -18 -57 -18 -58h17s0 31 14 46c6 8 19 12 32 12c21 0 35 -19 35 -48c0 -57 -55 -111 -93 -111c-24 0 -44 13 -44 57c0 69 35 138 73 138v18c-48 0 -143 -55 -143 -153
c0 -50 35 -87 82 -87zM428 -8c88 0 142 83 142 138c0 40 -20 65 -52 65c-18 0 -34 -7 -45 -17c-18 -21 -18 -57 -18 -58h17s0 31 14 46c6 8 19 12 32 12c21 0 35 -19 35 -48c0 -57 -55 -111 -93 -111c-24 0 -44 13 -44 57c0 69 35 138 73 138v18c-48 0 -143 -55 -143 -153
c0 -50 35 -87 82 -87zM194 -32l233 466l26 -10l-233 -466zM683 -8c88 0 142 83 142 138c0 40 -20 65 -52 65c-18 0 -34 -7 -45 -17c-18 -21 -18 -57 -18 -58h17s0 31 14 46c6 8 19 12 32 12c21 0 35 -19 35 -48c0 -57 -55 -111 -93 -111c-24 0 -44 13 -44 57
c0 69 35 138 73 138v18c-48 0 -143 -55 -143 -153c0 -50 35 -87 82 -87z" />
    <glyph glyph-name="OE" unicode="&#x152;" horiz-adv-x="1090" 
d="M1132 665h23c0 -110 -85 -215 -85 -309h-22c0 81 50 151 73 233c-17 -7 -54 -17 -131 -17c-91 0 -94 16 -157 19c-12 -45 -46 -175 -75 -335h320l-2 -18h-321c-16 -88 -30 -184 -39 -279c121 -3 170 53 322 61l-3 -20c-136 -6 -186 -61 -329 -61c-63 0 -95 24 -107 61
c-66 -62 -153 -103 -253 -103c-161 0 -257 103 -257 277c0 239 171 427 398 436l1 -20c-227 -7 -288 -271 -288 -454c0 -162 98 -214 172 -214c83 0 161 41 222 102v12c0 107 46 313 79 443c-28 31 -67 48 -116 48c-134 0 -203 -112 -203 -221c0 -138 111 -146 116 -146
l-1 -20c-1 0 -135 10 -135 166c0 119 76 240 223 240c50 0 91 -16 121 -45c14 56 25 93 25 93s49 15 135 15c51 0 74 -19 151 -19c89 0 128 16 137 20c3 18 6 36 6 55z" />
    <glyph glyph-name="brokenbar" unicode="&#xa6;" horiz-adv-x="189" 
d="M58 -123l56 318h30l-56 -318h-30zM219 616l-52 -294h-30l52 294h30z" />
    <glyph glyph-name="question" unicode="?" horiz-adv-x="463" 
d="M263 115l-24 12c30 63 70 98 111 132c46 37 91 81 114 155c3 13 4 26 4 38c0 75 -43 126 -137 126c-116 0 -188 -87 -206 -179h-29c22 112 111 207 239 207c106 0 162 -62 162 -146c0 -16 -2 -32 -6 -48c-20 -78 -72 -127 -123 -171c-39 -34 -77 -71 -105 -126zM180 42
c0 28 22 51 50 51s51 -23 51 -51s-23 -50 -51 -50s-50 22 -50 50z" />
    <glyph glyph-name="questiondown" unicode="&#xbf;" horiz-adv-x="461" 
d="M279 333l24 -12c-30 -63 -70 -98 -111 -132c-46 -37 -91 -81 -114 -155c-3 -13 -4 -26 -4 -38c0 -75 43 -126 137 -126c116 0 188 87 206 179h29c-22 -112 -111 -207 -239 -207c-106 0 -162 62 -162 146c0 16 2 32 6 48c20 78 72 127 123 171c39 34 77 71 105 126z
M362 406c0 -28 -22 -51 -50 -51s-51 23 -51 51s23 50 51 50s50 -22 50 -50z" />
    <glyph glyph-name="exclam" unicode="!" horiz-adv-x="204" 
d="M55 42c0 28 22 51 50 51s51 -23 51 -51s-23 -50 -51 -50s-50 22 -50 50zM111 125l87 489l29 -4l-89 -488z" />
    <glyph glyph-name="exclamdown" unicode="&#xa1;" horiz-adv-x="202" 
d="M227 406c0 -28 -22 -51 -50 -51s-51 23 -51 51s23 50 51 50s50 -22 50 -50zM171 323l-87 -489l-29 4l89 488z" />
    <glyph glyph-name="ordfeminine" unicode="&#xaa;" horiz-adv-x="377" 
d="M420 649l-48 -259c14 1 26 8 35 19l10 -8c-13 -16 -31 -25 -52 -25c-39 0 -63 19 -66 52c-15 -26 -38 -52 -76 -52c-59 0 -100 37 -100 106c0 107 58 167 138 167c37 0 57 -20 66 -48l8 42c53 0 85 6 85 6zM232 392c41 0 68 69 71 79l18 95c-3 34 -19 66 -46 66
c-48 0 -74 -109 -74 -185c0 -44 12 -55 31 -55z" />
    <glyph glyph-name="twosuperior" unicode="&#xb2;" horiz-adv-x="313" 
d="M318 380h-207l-4 12c37 24 74 46 110 68c70 44 77 66 77 108c0 32 -20 57 -51 57c-41 0 -76 -57 -76 -60l-11 7c4 8 41 78 132 78c49 0 74 -21 74 -64c0 -55 -55 -89 -157 -151l-66 -41h170l34 79l11 -4z" />
    <glyph glyph-name="threesuperior" unicode="&#xb3;" horiz-adv-x="292" 
d="M163 269c-44 0 -77 16 -77 64l14 -1c0 -38 33 -49 63 -49c68 0 138 50 138 116c0 46 -31 66 -72 66c-16 0 -29 -3 -29 -3l-4 14c57 19 93 34 93 100c0 37 -27 51 -47 50c-36 0 -66 -45 -67 -47l-12 6c2 3 36 65 122 65c42 0 66 -21 66 -57c0 -56 -63 -95 -111 -115
c18 -1 38 -6 52 -18c17 -13 26 -34 26 -60c0 -79 -81 -131 -155 -131z" />
    <glyph glyph-name="ordmasculine" unicode="&#xba;" horiz-adv-x="337" 
d="M123 475c0 83 30 174 161 174c72 0 108 -39 108 -99c0 -100 -53 -174 -161 -174c-72 0 -108 39 -108 99zM232 392c43 0 83 84 83 187c0 37 -8 57 -31 57c-39 0 -83 -70 -83 -189c0 -44 15 -55 31 -55z" />
    <glyph glyph-name="onequarter" unicode="&#xbc;" horiz-adv-x="581" 
d="M575 282l-325 -271v-17h199l-44 -127l22 -1l46 128h80v71h-55zM197 380l101 281l-165 -34l6 -19l47 10l-77 -238h88zM118 -34l355 705l19 -8l-354 -705zM346 65l184 155l-55 -155h-129z" />
    <glyph glyph-name="onehalf" unicode="&#xbd;" horiz-adv-x="563" 
d="M119 -34l353 705c8 -3 15 -4 22 -7l-355 -706zM198 380l101 281l-165 -34l6 -19l47 10l-77 -238h88zM299 -6h215l39 95l-17 7l-35 -82h-158l56 36c105 63 161 98 161 156c0 46 -27 68 -78 68c-95 0 -135 -75 -139 -83l19 -11c0 3 34 63 74 63c29 0 49 -25 49 -55
c0 -40 -13 -64 -78 -107l-25 -15l-88 -55z" />
    <glyph glyph-name="threequarters" unicode="&#xbe;" horiz-adv-x="675" 
d="M212 -34l354 705c7 -3 14 -4 21 -7l-354 -706zM670 282l-326 -271v-17h200l-44 -127l21 -1l46 128h80v71h-55zM441 65l184 155c-19 -55 -37 -100 -56 -155h-128zM162 267c77 0 161 54 161 136c0 28 -10 49 -27 63c-13 9 -28 16 -43 19c48 21 104 61 104 115
c0 38 -26 61 -71 61c-88 0 -126 -68 -128 -71l18 -9c1 2 32 49 67 49c19 1 44 -12 44 -48c0 -65 -36 -80 -95 -99l6 -21s17 4 32 4c39 0 70 -19 70 -64c0 -65 -69 -114 -138 -114c-29 0 -60 11 -60 49l-21 1c0 -53 35 -71 81 -71z" />
    <glyph glyph-name="uni00AD" unicode="&#xad;" horiz-adv-x="317" 
d="M293 184h-203l2 18h203z" />
    <glyph glyph-name="L" unicode="L" horiz-adv-x="650" 
d="M169 -72c-36 34 -71 61 -130 61c-57 0 -92 -22 -92 -59s42 -64 125 -64c20 0 41 3 62 8c10 9 23 25 35 54zM417 -183c142 0 186 170 187 173l24 -8c-34 -111 -112 -185 -214 -185c-122 0 -152 42 -201 88c-42 -25 -92 -38 -141 -38c-99 0 -149 37 -149 83
c0 43 34 78 114 78c67 0 105 -25 140 -58c7 22 14 49 20 82c34 194 67 387 67 387c33 209 154 247 267 247c101 0 198 -54 198 -212h-24c0 124 -69 182 -150 182c-78 0 -127 -52 -141 -148c0 -2 -27 -193 -71 -410c-15 -82 -57 -142 -112 -181c45 -41 73 -80 186 -80z" />
    <glyph glyph-name="dagger" unicode="&#x2020;" horiz-adv-x="425" 
d="M465 346h-180l-83 -469h-30l83 469h-173l4 25h173l44 245h30l-44 -245h180z" />
    <glyph glyph-name="daggerdbl" unicode="&#x2021;" horiz-adv-x="439" 
d="M445 194h-180l-56 -317h-30l56 317h-173l4 25h173l23 126h-173l4 25h173l44 246h30l-44 -246h180l-4 -25h-180l-23 -126h180z" />
    <glyph glyph-name="plusminus" unicode="&#xb1;" horiz-adv-x="486" 
d="M473 228h-180l-25 -133h-30l25 133h-173l4 25h173l24 136h30l-24 -136h180zM441 20h-383l4 25h383z" />
    <glyph glyph-name="plus" unicode="+" horiz-adv-x="434" 
d="M442 188h-180l-31 -170h-30l31 170h-173l4 25h173l32 176h30l-32 -176h180z" />
    <glyph glyph-name="section" unicode="&#xa7;" horiz-adv-x="462" 
d="M221 -67c70 0 99 50 99 146c0 20 -2 37 -4 52c-30 -16 -67 -25 -106 -25c-100 0 -141 57 -141 116c0 53 33 79 33 79l15 -11s-26 -29 -26 -70c0 -48 40 -88 96 -88c70 0 99 50 99 146c0 76 -30 104 -30 172c0 63 36 100 96 100c22 0 30 -3 30 -3v-28s-69 10 -69 -48
c0 -79 90 -104 90 -200c0 -21 -4 -41 -12 -59c23 -37 46 -74 46 -140c0 -94 -83 -165 -193 -165c-100 0 -141 57 -141 116c0 53 33 79 33 79l15 -11s-26 -29 -26 -70c0 -48 40 -88 96 -88z" />
    <glyph glyph-name="_0007" horiz-adv-x="0" 
 />
    <glyph glyph-name="less" unicode="&#x3c;" horiz-adv-x="282" 
d="M275 350h21c-14 -71 -135 -122 -206 -145c62 -25 161 -75 145 -143h-21c15 71 -140 128 -147 131l5 26c9 3 188 60 203 131z" />
    <glyph glyph-name="greater" unicode="&#x3e;" horiz-adv-x="282" 
d="M80 62h-21c14 71 135 122 206 145c-62 25 -161 75 -145 143h21c-15 -71 140 -128 147 -131l-5 -26c-9 -3 -188 -60 -203 -131z" />
    <glyph glyph-name="guilsinglleft" unicode="&#x2039;" horiz-adv-x="282" 
d="M275 350h21c-14 -71 -135 -122 -206 -145c62 -25 161 -75 145 -143h-21c15 71 -140 128 -147 131l5 26c9 3 188 60 203 131z" />
    <glyph glyph-name="guilsinglright" unicode="&#x203a;" horiz-adv-x="282" 
d="M80 62h-21c14 71 135 122 206 145c-62 25 -161 75 -145 143h21c-15 -71 140 -128 147 -131l-5 -26c-9 -3 -188 -60 -203 -131z" />
    <glyph glyph-name="guillemotleft" unicode="&#xab;" horiz-adv-x="430" 
d="M275 350h21c-14 -71 -135 -122 -206 -145c62 -25 161 -75 145 -143h-21c15 71 -140 128 -147 131l5 26c9 3 188 60 203 131zM423 350h21c-14 -71 -135 -122 -206 -145c62 -25 161 -75 145 -143h-21c15 71 -140 128 -147 131l5 26c9 3 188 60 203 131z" />
    <glyph glyph-name="guillemotright" unicode="&#xbb;" horiz-adv-x="430" 
d="M228 62h-21c14 71 135 122 206 145c-62 25 -161 75 -145 143h21c-15 -71 140 -128 147 -131l-5 -26c-9 -3 -188 -60 -203 -131zM80 62h-21c14 71 135 122 206 145c-62 25 -161 75 -145 143h21c-15 -71 140 -128 147 -131l-5 -26c-9 -3 -188 -60 -203 -131z" />
    <glyph glyph-name="trademark" unicode="&#x2122;" horiz-adv-x="886" 
d="M283 389l-5 -23c-1 0 -112 7 -112 116c0 66 46 137 148 137c113 0 146 -51 219 -51c82 0 83 76 83 79h23c0 -1 -1 -102 -106 -102c-22 0 -41 2 -57 7c-11 -16 -35 -67 -66 -189c-25 -89 -65 -144 -165 -144c-93 0 -134 74 -130 147h25s-6 -123 105 -123
c49 0 73 36 96 139c28 114 55 166 99 185c-1 1 -1 1 -2 1c-31 13 -74 28 -124 28c-93 0 -125 -61 -125 -114c0 -90 94 -93 94 -93zM365 218v21c69 2 111 33 183 169l95 177h19l20 -262v2c120 164 215 274 269 274v-22c-13 0 -27 -5 -40 -14c-58 -160 -75 -213 -75 -273
c0 -16 2 -28 7 -35c19 2 35 19 35 19l15 -17s-22 -25 -53 -25c-54 0 -77 33 -77 85c0 41 14 79 25 115c-20 -26 -44 -59 -154 -211l-18 3l-17 229l-30 -54c-74 -139 -118 -181 -204 -181z" />
    <glyph glyph-name="logicalnot" unicode="&#xac;" horiz-adv-x="646" 
d="M625 211l-47 -282h-27l44 255h-502l4 27h528z" />
    <glyph glyph-name="quotedbl" unicode="&#x22;" horiz-adv-x="289" 
d="M194 665h43c0 -105 -85 -215 -85 -309h-42c4 113 84 191 84 309zM324 665h43c0 -105 -85 -215 -85 -309h-42c4 113 84 191 84 309z" />
    <glyph glyph-name="quotesingle" unicode="'" horiz-adv-x="159" 
d="M194 665h43c0 -105 -85 -215 -85 -309h-42c4 113 84 191 84 309z" />
    <glyph glyph-name="parenleft" unicode="(" horiz-adv-x="396" 
d="M494 559v-21c-21 0 -41 -2 -60 -4c-105 -32 -246 -134 -246 -448c0 -125 53 -176 97 -198c16 -2 32 -3 50 -3v-20c-168 0 -265 101 -265 279c0 238 168 415 424 415z" />
    <glyph glyph-name="parenright" unicode=")" horiz-adv-x="391" 
d="M-28 -135v21c21 0 41 2 60 4c105 32 246 134 246 448c0 125 -53 176 -97 198c-16 2 -32 3 -50 3v20c168 0 265 -101 265 -279c0 -238 -168 -415 -424 -415z" />
    <glyph glyph-name="asterisk" unicode="*" horiz-adv-x="315" 
d="M320 563l28 -32l-74 -55l86 -28l-14 -41l-84 35l18 -87l-42 -9l-11 93l-68 -62l-29 32l75 54l-86 29l14 41l82 -35l-15 87l42 9l9 -93z" />
    <glyph glyph-name="numbersign" unicode="#" horiz-adv-x="585" 
d="M566 61h-160l-37 -204h-30l37 204h-143l-37 -204h-30l37 204h-163l4 25h164l33 187h-163l4 25h163l42 225h30l-42 -225h143l42 225h30l-42 -225h160l-4 -25h-160l-33 -187h159zM271 273l-33 -187h142l33 187h-142z" />
    <glyph glyph-name="ampersand" unicode="&#x26;" horiz-adv-x="711" 
d="M360 160h-1l8 17c46 -17 90 -30 166 -30c122 0 210 89 210 215h18c0 -134 -88 -227 -215 -233c-15 -38 -83 -184 -264 -184c-145 0 -227 67 -227 167c0 103 84 154 153 173c-22 27 -45 62 -45 124c0 100 73 200 235 200c119 0 180 -46 180 -111c0 -75 -44 -101 -50 -164
h-21c7 67 50 90 50 163c0 58 -70 94 -143 94c-90 0 -165 -58 -165 -205c0 -62 14 -80 14 -80c40 13 82 17 117 17c58 0 73 -19 73 -40c0 -31 -33 -55 -101 -55c-56 0 -96 15 -124 37c-24 -25 -63 -63 -63 -166c0 -80 77 -134 136 -134c143 0 206 122 223 164
c-75 1 -118 15 -164 31zM352 246c58 0 81 19 81 35c0 11 -9 24 -53 24c-43 0 -72 -5 -109 -16c0 0 19 -43 81 -43z" />
    <glyph glyph-name="sterling" unicode="&#xa3;" horiz-adv-x="773" 
d="M314 211h-139l2 18h140c19 109 33 190 33 190c33 209 154 247 267 247c101 0 198 -54 198 -212h-24c0 124 -69 182 -150 182c-78 0 -127 -52 -141 -148c0 -2 -16 -112 -43 -259h273l-2 -18h-274c-7 -42 -16 -87 -25 -133c-15 -82 -57 -142 -112 -181
c45 -41 73 -80 186 -80c142 0 186 170 187 173l24 -8c-34 -111 -112 -185 -214 -185c-122 0 -152 42 -201 88c-42 -25 -92 -38 -141 -38c-99 0 -149 37 -149 83c0 43 34 78 114 78c67 0 105 -25 140 -58c7 22 14 49 20 82zM255 -72c-36 34 -71 61 -130 61
c-57 0 -92 -22 -92 -59s42 -64 125 -64c20 0 41 3 62 8c10 9 23 25 35 54z" />
    <glyph glyph-name="copyright" unicode="&#xa9;" horiz-adv-x="682" 
d="M694 299c-38 -180 -186 -300 -365 -300c-153 0 -244 86 -244 223c0 23 2 48 9 75c38 180 186 299 364 299c151 0 244 -87 244 -223c0 -22 -2 -48 -8 -74zM451 571c-159 0 -292 -109 -328 -272c-5 -25 -7 -47 -7 -69c0 -128 84 -207 220 -207c158 0 291 117 330 274
c5 22 7 48 7 69c0 123 -79 205 -222 205zM571 432l-26 -15c-24 47 -66 64 -111 64c-98 0 -166 -92 -187 -181c-4 -17 -5 -34 -5 -51c0 -75 39 -134 115 -134c52 0 100 15 142 64l16 -16c-43 -49 -103 -73 -163 -73c-95 0 -141 71 -141 155c0 16 2 34 7 53
c23 107 103 206 222 206c57 0 104 -17 131 -72z" />
    <glyph glyph-name="registered" unicode="&#xae;" horiz-adv-x="682" 
d="M462 105h31c-16 53 -31 112 -47 164c70 12 114 66 124 116c14 61 -21 116 -104 116h-160c-28 -134 -56 -262 -84 -396h28l33 162h132zM329 477h132c65 0 91 -43 80 -94c-11 -49 -51 -94 -118 -94h-134zM694 299c-38 -180 -186 -300 -365 -300c-153 0 -244 86 -244 223
c0 23 2 48 9 75c38 180 186 299 364 299c151 0 244 -87 244 -223c0 -22 -2 -48 -8 -74zM451 571c-159 0 -292 -109 -328 -272c-5 -25 -7 -47 -7 -69c0 -128 84 -207 220 -207c158 0 291 117 330 274c5 22 7 48 7 69c0 123 -79 205 -222 205z" />
    <glyph glyph-name="at" unicode="@" horiz-adv-x="641" 
d="M497 -24l9 -21c-37 -23 -89 -40 -158 -40c-168 0 -265 101 -265 279c0 238 168 415 424 415c106 0 166 -42 166 -130c0 -103 -107 -204 -107 -311c0 -21 3 -39 28 -39c14 1 26 8 35 19l10 -8c-13 -16 -31 -25 -52 -25c-39 0 -76 16 -80 73c-20 -49 -47 -73 -99 -73
c-59 0 -100 37 -100 106c0 107 58 167 138 167c115 0 121 -68 107 -178c20 129 97 168 97 268c0 57 -31 110 -143 110c-234 0 -306 -242 -306 -428c0 -149 74 -225 167 -225c55 0 94 18 129 41zM426 139c34 0 58 48 62 71c24 121 6 155 -28 155c-48 0 -74 -60 -74 -160
c0 -51 21 -66 40 -66z" />
    <glyph glyph-name="eth" unicode="&#xf0;" horiz-adv-x="430" 
d="M395 445h-107l3 18h91c-28 33 -69 51 -119 51v19c63 0 111 -25 143 -70h88l-3 -18h-74c20 -37 31 -83 31 -139c0 -178 -108 -314 -255 -314c-89 0 -139 61 -139 145c0 166 159 260 239 260v-21c-67 0 -126 -120 -126 -243c0 -81 35 -105 80 -105c69 0 181 98 181 278
c0 57 -12 104 -33 139z" />
    <glyph glyph-name="multiply" unicode="&#xd7;" horiz-adv-x="351" 
d="M211 205l151 169l22 -17l-154 -170l90 -174l-25 -12l-88 170l-151 -169l-22 17l154 170l-90 174l25 12z" />
    <glyph glyph-name="a" unicode="a" horiz-adv-x="484" 
d="M491 389l-69 -378c20 2 37 12 50 28l15 -12c-19 -23 -45 -36 -75 -36c-58 0 -91 28 -96 77c-21 -37 -57 -77 -112 -77c-86 0 -145 54 -145 154c0 156 85 244 201 244c54 0 83 -29 97 -69c3 19 6 36 11 60c77 0 123 9 123 9zM217 14c57 0 96 90 104 112c4 19 11 61 26 144
c-4 48 -28 94 -66 94c-71 0 -109 -159 -109 -270c0 -64 18 -80 45 -80z" />
    </font>
</defs>
</svg>
