<?xml version="1.0" standalone="no"?>
<!DOCTYPE svg PUBLIC "-//W3C//DTD SVG 1.1//EN" "http://www.w3.org/Graphics/SVG/1.1/DTD/svg11.dtd" >
<svg xmlns="http://www.w3.org/2000/svg" xmlns:xlink="http://www.w3.org/1999/xlink" version="1.1">
<metadata>
Created by FontForge 20170924 at Sun Dec 18 05:39:38 2011
 By www-data
Copyright (c) 2011 TypeSETit, LLC (typesetit@att.net),with Reserved Font Name "Ruthie"
</metadata>
<defs>
<font id="Ruthie-Regular" horiz-adv-x="624" >
  <font-face 
    font-family="Ruthie"
    font-weight="400"
    font-stretch="normal"
    units-per-em="1000"
    panose-1="2 0 5 7 6 0 0 2 0 3"
    ascent="800"
    descent="-200"
    x-height="288"
    cap-height="701"
    bbox="-461 -450 1337 800"
    underline-thickness="20"
    underline-position="-133"
    unicode-range="U+0009-FB02"
  />
<missing-glyph horiz-adv-x="1000" 
 />
    <glyph glyph-name=".notdef" horiz-adv-x="1000" 
 />
    <glyph glyph-name=".null" horiz-adv-x="0" 
 />
    <glyph glyph-name="nonmarkingreturn" horiz-adv-x="333" 
 />
    <glyph glyph-name="HT" unicode="&#x9;" horiz-adv-x="196" 
 />
    <glyph glyph-name="CR" unicode="&#xd;" horiz-adv-x="196" 
 />
    <glyph glyph-name="space" unicode=" " horiz-adv-x="196" 
 />
    <glyph glyph-name="exclam" unicode="!" horiz-adv-x="219" 
d="M316 624q0 -7 -28.5 -54t-85.5 -171t-78 -209l-5 -30q-1 -7 -8 -7t-7 8q0 56 61.5 233t98.5 226q14 19 33 19t19 -15zM121 69q0 -5 -21 -49q-3 -10 -15 -22.5t-21 -12.5t-15 12q-7 11 -7 20q0 17 28.5 36t47.5 19q2 0 3 -1v-2z" />
    <glyph glyph-name="quotedbl" unicode="&#x22;" horiz-adv-x="198" 
d="M92 300h-1q-3 2 -3 68t-26 94q-2 2 -2 8.5t11.5 18.5t22.5 14h7q22 0 22 -21q-26 -182 -31 -182zM198 300h-1q-3 2 -3 68t-26 94q-2 2 -2 8.5t11.5 18.5t22.5 14h8q21 0 21 -21q-26 -182 -31 -182z" />
    <glyph glyph-name="numbersign" unicode="#" horiz-adv-x="449" 
d="M444 381q0 -5 -16 -5t-94 -2q-33 -89 -68 -169q43 -2 108 -10q6 -1 6 -3q0 -5 -18 -5t-104 -2q-19 -47 -56 -120q-7 -13 -24.5 -13t-17.5 7q6 11 27.5 55t34.5 70l-96 -4q-14 -33 -45 -94q-8 -12 -25 -12t-17 7q0 2 42 97l-45 -3q-6 0 -21.5 9t-15.5 15q0 2 95 6
q6 4 13 11q65 127 77 153l-86 -5q-6 0 -19 9q-15 8 -17 15q4 4 134 7q39 87 41.5 118.5t9.5 31.5q5 0 5 -16q0 -35 -36 -133h28q46 0 73 -1q26 65 34.5 89t11.5 51.5t9 27.5t6 -32t-37 -137q32 -1 97 -9q6 -1 6 -4zM186 206h47q43 92 75 168l-101 -4q-30 -77 -69 -164h48z
" />
    <glyph glyph-name="dollar" unicode="$" horiz-adv-x="280" 
d="M315 546q0 -31 -58 -31q-10 0 -10 2.5t10 2.5q37 0 37 29q0 19 -26 28q-39 -65 -73 -128q47 -30 59 -42q26 -26 26 -66q0 -60 -65 -95q-51 -27 -111 -27h-8q-17 -57 -24 -101l-4 -47q0 -3 -14.5 -3t-14.5 6q0 51 34 147q-101 14 -101 89q0 44 34.5 73.5t78.5 29.5
q24 0 25 -4q-1 -1 -16 -1q-42 0 -70.5 -22t-28.5 -59.5t22.5 -63.5t57.5 -34q33 95 88 206q-50 35 -50 75t48 62q35 16 73 16h12q59 101 88 101q4 0 4 -3l-66 -102q43 -12 43 -38zM235 339q0 47 -54 84q-55 -110 -83 -197h4q32 0 70 15q63 25 63 98zM233 582q-79 0 -79 -70
q0 -28 23 -49q23 45 65 119h-9z" />
    <glyph glyph-name="percent" unicode="%" horiz-adv-x="629" 
d="M327 737q166 26 217.5 26t102 -12t61.5 -37h6q19 0 19 -16q0 -6 -4 -10q-129 -109 -149 -127q-424 -370 -531 -600q-14 -29 -27 -79q-3 -9 -10.5 -9t-14 8t-6.5 18q0 32 55.5 125t174 231.5t297.5 307.5q64 60 151 133q12 10 29 15q-16 34 -128 34q-42 0 -215 -24
q24 -15 24 -54t-23 -93.5t-78.5 -125t-102.5 -70.5q-41 0 -41 53q0 77 70 205q34 58 48 58q21 0 21 -14q0 -3 -59 -110t-59 -149q0 -28 21 -28q18 0 45 24q46 43 80 115t34 130.5t-46 74.5h38zM622 233q0 -6 -16.5 -12.5t-25.5 -6.5q1 -7 1 -19q0 -85 -60 -169h32
q-11 -7 -19 -7t-10 1t-5 1q3 0 -35.5 -33.5t-66.5 -33.5q-39 0 -39 55.5t47 120.5q-20 46 -20 89t26.5 86t70.5 43q66 0 77 -104q43 0 43 -11zM509 329q-32 0 -59 -63q-18 -42 -18 -77t4 -48q61 82 127 102q-20 86 -54 86zM565 215q-23 -5 -69 -41.5t-58 -58.5
q22 -76 52 -83q23 21 48.5 85.5t26.5 97.5zM431 106q-32 -56 -32 -88.5t21 -32.5q28 0 66 41q-32 4 -55 80z" />
    <glyph glyph-name="ampersand" unicode="&#x26;" horiz-adv-x="714" 
d="M722 325q0 -52 -71 -134q-95 -108 -243 -155q-86 -278 -244 -278q-34 0 -60.5 16.5t-26.5 48.5q0 4 3.5 4t4.5 -4q7 -51 67 -51q115 0 206 247q-75 -19 -145.5 -19t-124.5 20q-73 27 -73 86.5t79 138.5q-42 39 -42 93q0 81 88 136q79 50 163 50q14 0 41.5 -3.5
t27.5 -10.5q-2 -3 -9 -3t-27 4.5t-29 4.5q-77 0 -151 -50t-74 -123q0 -45 32 -80q75 69 182 126q65 35 195 103q15 42 29 72.5t40 56.5t48 26q26 0 26 -32t-44 -70q-20 -16 -75 -49q-15 -37 -43 -167q85 58 167.5 58t82.5 -62zM521 509q25 15 59.5 49t34.5 48t-8 14
q-11 0 -32.5 -19.5t-53.5 -91.5zM684 296q0 55 -83 55q-67 0 -132 -34q-19 -101 -58 -266q132 40 211 130q62 71 62 115zM141 241q38 -23 85.5 -23t110.5 30q23 11 103 61q24 101 47 171q-86 -44 -145 -78q-118 -68 -201 -161zM215 198q-48 0 -90 24q-46 -58 -46 -103
q0 -55 61 -80q45 -18 103 -18t119 14q30 81 75 264q-127 -101 -222 -101z" />
    <glyph glyph-name="quotesingle" unicode="'" horiz-adv-x="198" 
d="M166 440l-6 29q0 9 6 19.5t16 10.5t23 -18q2 -8 2 -15q0 -45 -62 -125q-29 -38 -36 -38q-1 0 -1 1q0 -4 29 48.5t29 87.5z" />
    <glyph glyph-name="parenleft" unicode="(" horiz-adv-x="287" 
d="M152 -41l19 2q6 0 6 -6t-27 -11.5t-39 -5.5q-97 0 -97 149q0 43 10 91q50 232 261 367q129 83 266 83q5 0 5 -5t-5 -5q-107 0 -222 -78q-195 -132 -248 -332q-12 -45 -12 -106q0 -143 83 -143z" />
    <glyph glyph-name="parenright" unicode=")" horiz-adv-x="458" 
d="M458 432q0 -130 -98 -272t-218 -210q-74 -43 -147 -43q-23 0 -23 6q0 4 17 4q62 0 150 53q108 66 186.5 200.5t78.5 266.5t-106 168q-11 4 -55 11q-5 0 -5 4q0 9 39 9q87 0 134 -54.5t47 -142.5z" />
    <glyph glyph-name="asterisk" unicode="*" horiz-adv-x="599" 
d="M547 289q3 0 10 -9t9 -15l-1 -1q-61 -7 -136 -7h-93q96 -93 153 -142q2 -4 2 -18t-6 -14q-12 0 -157 148l7 -197q0 -4 -9 -11.5t-14 -9.5l-2 1q-6 48 -6 119.5v104.5q-98 -101 -144 -155q-2 -2 -16.5 -2t-14.5 6q0 12 161 171q-208 4 -225 10q-4 1 -4 5t7 4q57 0 212 3
q-146 152 -146 163q0 4 2.5 4t6.5 -2l161 -158q4 206 11 227q1 4 5 4t4 -7q0 -59 3 -218q149 145 161 145q4 0 4 -3.5t-2 -5.5l-46 -46l-98 -102q25 0 76 2t86.5 4t38.5 2z" />
    <glyph glyph-name="plus" unicode="+" horiz-adv-x="385" 
d="M200 235q167 -3 167 -15q0 -5 -11 -5q-76 0 -159 -4q-26 -200 -41 -200q-4 0 -4 6l19 193l-123 -7q-7 0 -19 8.5t-14 15.5q12 8 158 8q5 72 5 158q0 5 13.5 12.5t18.5 7.5l2 -1v-13q0 -67 -12 -164z" />
    <glyph glyph-name="comma" unicode="," horiz-adv-x="152" 
d="M79 16l-6 29q0 9 6 20t16 11t23 -19q2 -9 2 -15q0 -45 -62 -125q-29 -38 -36 -38q-1 0 -1 1q58 87 58 136z" />
    <glyph glyph-name="hyphen" unicode="-" horiz-adv-x="298" 
d="M108 167.5q-3 -0.5 -5 -0.5h-4q-3 0 -10 9t-9 14l2 2q51 6 109 6t94 -11q3 -1 3 -5t-6 -4q-54 0 -93.5 -3.5t-47.5 -4t-14 -1t-11 -1t-8 -1z" />
    <glyph glyph-name="period" unicode="." horiz-adv-x="152" 
d="M63 -15q-8 0 -14.5 11t-6.5 24.5t18 20.5q6 7 28 19t27 12t7 -2l-15 -18q-9 -14 -14 -34q-9 -33 -30 -33z" />
    <glyph glyph-name="slash" unicode="/" horiz-adv-x="446" 
d="M735 710q0 -1 -5 -6q-218 -175 -383 -343q-234 -237 -308 -398q-15 -34 -27 -79q-1 -1 -3.5 -1t-10 7.5t-7.5 15t13 39.5q51 124 241 338q132 149 298 304q51 48 126 109q28 19 47 19t19 -5z" />
    <glyph glyph-name="zero" unicode="0" horiz-adv-x="647" 
d="M615 330q0 -119 -72.5 -218t-187.5 -142q-61 -24 -120 -24q-83 0 -130 46.5t-47 127.5q0 43 12 85q-17 39 -17 85q0 73 58 134q110 116 293 116q75 0 136 -44t72 -118q3 -22 3 -48zM603 342q0 12 -2 34q-9 64 -69 103.5t-128 39.5q-96 0 -179 -44.5t-122 -124.5
q-19 -39 -19 -84q0 -10 2 -16q54 101 152 168q105 74 211 74q20 0 20 -6t-21 -6q-91 0 -199.5 -93t-149.5 -186q20 -40 80 -68.5t110 -28.5h11q11 0 11 -4q0 -10 -47.5 -10t-97 22.5t-77.5 61.5q-15 -42 -15 -56q0 -64 38 -97t104 -33t155.5 42.5t160.5 127.5t71 184z" />
    <glyph glyph-name="one" unicode="1" horiz-adv-x="456" 
d="M481 504q0 -14 -9 -24q-26 -26 -76.5 -86.5t-108 -170t-74.5 -202.5l-1 -2h31q72 0 95 -4q7 -1 7 -8t-8 -7t-15 1h-15q-33 0 -95 -8q1 -5 1 -14.5t-7 -9.5q-26 0 -34 17q-92 -14 -127 -14q-10 0 -10 21t6 21q40 0 129 4q6 63 59 159q0 1 10 17q140 224 143 231
q-32 -13 -87 -61t-63.5 -48t-8.5 5q0 7 7 13l194 174q22 19 37 19q20 0 20 -23z" />
    <glyph glyph-name="two" unicode="2" horiz-adv-x="679" 
d="M223 50q254 -68 318 -68q35 0 62 10q38 14 38 44t-36 57.5t-69 35.5q-5 2 -5 3q0 4 7 4q40 0 78 -34t38 -78t-52 -68q-41 -19 -104.5 -19t-152.5 36q-50 22 -151 64q-72 -31 -115.5 -31t-43.5 35q0 43 61 43q38 0 95 -19q70 35 149.5 87.5t102.5 70.5q135 105 135 199
q0 31 -24 47.5t-57 16.5q-72 0 -147 -43t-75 -109l4 -29q0 -5 -2 -5q-8 0 -13.5 19.5t-5.5 29.5q0 67 91 113q78 39 141 39t101 -24t38 -73q0 -95 -159 -212q-107 -77 -247 -142zM96 58q-41 0 -41 -23q0 -17 21 -17q27 0 78 30q-44 10 -58 10z" />
    <glyph glyph-name="three" unicode="3" horiz-adv-x="686" 
d="M662 424q0 -94 -183 -128q169 -31 169 -134q0 -110 -147 -171q-114 -48 -242 -48q-86 0 -149 24q-90 33 -90 103q0 42 37.5 66t82 24t44.5 -13q0 -6 -28.5 -6t-57.5 -13q-40 -16 -40 -52q0 -63 61 -94q50 -26 116 -26q115 0 222 47q136 60 136 158q0 65 -90 93
q-62 20 -143 20q-14 0 -14 14.5t19 20.5q40 5 82.5 12.5t105.5 36.5q82 37 82 80q0 30 -66 45q-43 10 -94 10t-98 -15q-65 -21 -65 -62q0 -17 -13 -17q-18 0 -18 29q0 43 80 69q60 19 117.5 19t112.5 -19q71 -26 71 -73z" />
    <glyph glyph-name="four" unicode="4" horiz-adv-x="686" 
d="M495 -26l-29 2q-46 0 -132 -15t-130 -15q-10 0 -10 21.5t6 21.5t112 2q8 59 41 144q-86 17 -211 54q-57 -16 -84 -16q-41 0 -41 28q0 25 56 25q33 0 86 -12q85 32 180 114q48 42 123 123t89.5 98t37 17t22.5 -10q-69 -159 -78 -173l-18 -15l-106 -199q78 -9 120.5 -9
t59.5 4q78 18 78 58q0 25 -27.5 47t-47 28.5t-42.5 9.5q-5 2 -5 3q0 4 10 4q45 0 85 -28.5t40 -75.5t-59 -76q-45 -22 -99.5 -22t-133.5 15q-39 -83 -48 -135q23 1 79.5 1t70 -2.5t13.5 -8.5q0 -8 -8 -8zM476 405q-160 -145 -292 -198q80 -18 185 -32q39 96 107 230z
M120 200q-33 14 -61 14t-28 -14q0 -9 28.5 -9t60.5 9z" />
    <glyph glyph-name="five" unicode="5" horiz-adv-x="795" 
d="M349 266q144 50 203.5 50t101.5 -21q54 -27 54 -78t-44 -106q-83 -101 -223.5 -149t-292.5 -48q-46 0 -88 14q-57 20 -57 59q0 60 141 99q110 30 196 30q20 0 20 -7q0 -5 -20 -5q-58 0 -179 -41t-121 -83q0 -24 44 -36q30 -8 64 -8q128 0 251 47t203 136q52 58 52 107
q0 67 -103 67q-86 0 -218 -45q-23 -8 -30 -8q-13 0 -13 10q0 7 22.5 39.5t40 69.5t25 53.5t13.5 27.5q13 18 34 18t21 -13q0 -7 -97 -179zM803 524q0 -54 -60 -79q-46 -20 -113 -20t-214 49q-83 27 -109 27t-26 -14q0 -8 11 -16t11 -11q0 -7 -8.5 -7t-20.5 12t-12 24
q0 34 54 34q38 0 118 -15l120 -22q81 -13 120.5 -13t72.5 12q43 16 43 43.5t-25 49.5t-42 28t-34.5 10t-17.5 6q0 4 9 4q42 0 82.5 -30t40.5 -72z" />
    <glyph glyph-name="six" unicode="6" horiz-adv-x="551" 
d="M548 507q0 -7 -17 -15q-51 -22 -108 -54q-132 -72 -227 -163q-128 -123 -128 -235q0 -23 7 -38q47 86 146 156.5t193.5 70.5t94.5 -78q0 -69 -84 -127q-64 -46 -137.5 -66t-122.5 -20t-82 12l-4 -32q-4 -22 -16 -22q-10 0 -10 23t6 43q-43 25 -43 78q0 130 195 285
q152 121 316 187q4 2 12.5 2t8.5 -7zM460 151q0 50 -67 50q-86 0 -175.5 -69.5t-124.5 -153.5q25 -22 71.5 -22t107 20t116.5 64q72 56 72 111z" />
    <glyph glyph-name="seven" unicode="7" horiz-adv-x="494" 
d="M110 -36l10 3q13 0 13 -11q0 -4 -15.5 -9t-20.5 -5q-39 0 -39 51q0 116 162 274q95 92 264 211q-34 -2 -62 -2l-242 8q-58 0 -80 -7q-74 -23 -74 -60q0 -25 27 -45t44.5 -25.5t37 -7.5t19.5 -5q0 -5 -10 -5q-48 0 -90 25.5t-42 75.5t66 81q51 24 104.5 24t143.5 -20.5
t138 -20.5t78 30l14 -17q-142 -91 -278 -230q-174 -179 -174 -293q0 -20 6 -20z" />
    <glyph glyph-name="eight" unicode="8" horiz-adv-x="468" 
d="M268 303q83 -88 83 -161t-54 -117t-115.5 -44t-98.5 28.5t-37 81.5q0 87 176 206q-39 55 -39 122t42.5 100.5t110.5 33.5q43 0 76 -12q-3 45 -43 69q-1 13 6 13q3 0 7 -3q47 -39 48 -88q12 -7 25 -18l19 -23q0 -2 -4 -6q-16 13 -42 23q-15 -72 -117 -167q-27 -22 -43 -38
zM300 121q0 69 -66 156q-56 -32 -104.5 -84.5t-48.5 -97t28.5 -67.5t73 -23t81.5 32q36 33 36 84zM410 513q-39 13 -85 13q-111 0 -111 -83q0 -59 40 -123q60 49 64 52q81 67 92 141z" />
    <glyph glyph-name="nine" unicode="9" horiz-adv-x="589" 
d="M588 477q0 -9 -17 -33.5t-26 -24.5q-3 0 -3 2.5t7 12.5t7 22q0 31 -62 46q-44 11 -104 11t-128.5 -28t-124.5 -100t-56 -144t64 -72q53 0 145 75q89 72 140 142q11 15 17 22q23 29 41 29t18 -15q0 -10 -91 -133t-139 -199q-81 -128 -81 -183q0 -27 12 -38l15 -14
q0 -2 -5 -2q-23 0 -35 21t-12 44q0 107 187 360q-134 -122 -211 -122q-46 0 -81.5 26t-35.5 71q0 67 79.5 143.5t159 106.5t174.5 30q45 0 87 -11q59 -15 59 -45z" />
    <glyph glyph-name="colon" unicode=":" horiz-adv-x="152" 
d="M63 -15q-8 0 -14.5 11t-6.5 24.5t18 20.5q6 7 28 19t27 12t7 -2l-15 -18q-9 -14 -14 -34q-9 -33 -30 -33zM175 229q5 0 5 -8t-11 -44t-30 -36q-6 0 -14 11q-7 11 -7 24.5t18 20.5q29 32 39 32z" />
    <glyph glyph-name="semicolon" unicode=";" horiz-adv-x="152" 
d="M175 229q5 0 5 -8t-11 -44t-30 -36q-6 0 -14 11q-7 11 -7 24.5t18 20.5q29 32 39 32zM76 -9l-6 29q0 8 7 19.5t16 11.5t22 -19q3 -8 3 -15q0 -44 -63 -125q-29 -38 -36 -38q-1 0 -1 1q58 87 58 136z" />
    <glyph glyph-name="less" unicode="&#x3c;" horiz-adv-x="318" 
d="M130 283q97 -122 97 -134.5t-8 -12.5q-2 0 -10 4q-23 31 -57 59l-64 51q-3 2 -3 6q0 12 45 76.5t73 98.5q9 11 17.5 11t8.5 -6q0 -15 -99 -153z" />
    <glyph glyph-name="equal" unicode="=" horiz-adv-x="348" 
d="M55 190q4 8 109.5 8t132.5 -11q3 -1 3 -3q0 -6 -6 -6l-219 -11q-3 0 -11 9q-7 9 -9 14zM55 87q5 9 111 9t131 -12q3 -2 3 -3q0 -5 -6 -5q-37 0 -110 -6t-109 -6q-3 0 -11 9q-7 9 -9 14z" />
    <glyph glyph-name="greater" unicode="&#x3e;" horiz-adv-x="318" 
d="M184 288q-98 125 -98 136t9 11q2 0 10 -4q23 -31 55 -57l66 -53q3 -1 3 -8.5t-50 -79t-64 -88t-22 -16.5t-8 6q0 15 99 153z" />
    <glyph glyph-name="question" unicode="?" horiz-adv-x="528" 
d="M511 583q0 -100 -117 -175l-74 -40q-211 -115 -211 -178q0 -14 9 -24l9 -11q0 -11 -12 -11q-1 0 -2 1q-22 18 -22 43q0 40 53 90t128 98q13 9 106 67q115 73 115 158q0 56 -45.5 85t-112 29t-129 -40.5t-88.5 -106.5q-10 -24 -10 -40q0 -32 37 -32q40 0 118 34q2 0 2 -4
t-2 -6q-20 -18 -62 -31t-73 -13q-57 0 -57 44q0 18 12 47q27 67 105 112.5t150 45.5t122.5 -38.5t50.5 -103.5zM63 -15q-8 0 -14.5 11t-6.5 24.5t18 20.5q6 7 28 19t27 12t7 -2l-15 -18q-9 -14 -14 -34q-9 -33 -30 -33z" />
    <glyph glyph-name="at" unicode="@" horiz-adv-x="795" 
d="M766 303q0 -48 -45 -102q-65 -77 -181.5 -125t-207 -48t-160 30t-95 88.5t-25.5 117.5q0 156 152 272q142 109 303 109q94 0 153.5 -51.5t59.5 -144.5q0 -9 -2 -29q48 -51 48 -117zM712 271q6 18 6 45.5t-18 62.5q-25 -78 -86 -165q-75 -106 -139 -106q-30 0 -52.5 25.5
t-27 48t-4.5 53t13 85.5q-83 -182 -168 -182q-53 0 -53 69q0 86 71 185t155 138q53 25 94 25q51 0 51 -43q0 -55 -74 -109q-37 -90 -37 -192q0 -83 39.5 -83t96.5 72q75 95 105 203q-26 32 -68 51l-2 2q0 8 23.5 8t55.5 -22q4 16 4 32t-3 30q-27 110 -162 110
q-148 0 -302 -116.5t-154 -258.5q0 -99 75 -151q65 -45 176 -45t224 59q125 65 161 169zM494 447q20 29 20 57t-26 28q-66 0 -171 -128t-105 -196q0 -29 29 -29q46 0 97 70q33 45 61 111q-18 -7 -28.5 -7t-10.5 5.5t18 11.5l40 23q3 25 28.5 59.5t45.5 34.5q9 0 9 -11.5
t-7 -28.5z" />
    <glyph glyph-name="A" unicode="A" 
d="M419 156l26 1h5q7 0 7 -3q0 -10 -18 -11q-144 -10 -170 -14q-120 -150 -233 -234q27 -13 89 -24q9 -1 9 -6t-10 -5q-40 0 -98 27q-98 -70 -170 -70q-46 0 -46 29q0 21 12 30q-3 -9 -3 -19q0 -27 38 -27q66 0 152 65q-10 5 -31 19q-68 -49 -108 -49q-7 0 -7 4q0 7 10 8
q50 17 93 48q-30 29 -30 60q0 57 91 103q60 31 141 47q139 183 213 376q4 9 34 108q1 7 8 7q1 -1 1 -2q0 -80 -90 -251q-66 -127 -143 -234l48 5q66 90 145.5 239t79.5 223q0 46 -41 52q-9 2 -9 7t11 5q36 0 57 -23q20 -25 20 -61q0 -81 -79 -227q-56 -101 -139 -211
q88 8 135 8zM712 -26q0 -16 -22 -45.5t-41 -40t-47 -10.5t-66 30.5t-56.5 71t-18.5 116t15 203t17 158t8 30.5q9 0 10 -21v-159q0 -264 43 -360q26 -59 60 -59q45 0 98 86zM222 122q-23 -5 -54 -14q-87 -112 -175 -182q9 -12 27 -23q92 73 202 219zM142 100
q-162 -64 -162 -136q0 -12 5 -25q76 61 157 161z" />
    <glyph glyph-name="B" unicode="B" horiz-adv-x="864" 
d="M445 625l-2 55q0 7 4 7q1 0 3 -5q6 -35 6 -66v-44q32 2 40 2q52 0 126 -16q56 53 118 53q34 0 58.5 -24.5t24.5 -60.5q0 -13 -5 -13q-2 0 -7 27q-6 42 -61 42q-40 0 -83 -36q58 -18 101 -51q52 -42 52 -94q0 -64 -74 -102q-56 -29 -129 -33q196 -91 196 -216
q0 -59 -49 -98.5t-109 -39.5q-93 0 -162 22l-150 62q-53 -64 -101 -84q-47 -23 -132 -23q-37 0 -71 25q-38 26 -38 66t41 61t94 21t122 -21q76 87 129 243q44 135 55 272q-180 -13 -277 -113q-38 -41 -38 -87q0 -76 84 -111q11 -6 28 -9.5t17 -6.5q0 -5 -6 -5l-3 1
q-58 4 -112 50t-54 103q0 43 35 78q104 107 327 116q2 36 2 53zM776 19q0 118 -159 194l-57 24q-2 2 -2 10q0 26 27 32h19q13 0 33 4q56 11 92 38q43 35 43 83t-33.5 81t-83.5 50q-60 -54 -110 -159q-30 -64 -85 -186.5t-106 -180.5q91 -34 157 -55.5t137 -21.5
q128 0 128 87zM611 546q-60 12 -102.5 12t-53.5 -1q-8 -139 -51 -275q-52 -158 -128 -247l38 -13q39 42 84 138.5t97 206.5q58 118 116 179zM121 -52q-19 0 -19 7q0 5 17 5q66 0 132 71q-63 22 -112 22t-85 -15.5t-36 -50.5t33 -56q29 -20 72.5 -20t100 29.5t82.5 68.5
l-38 17q-69 -78 -147 -78z" />
    <glyph glyph-name="C" unicode="C" horiz-adv-x="681" 
d="M430 642l-2 58q0 8 5 8q2 0 7 -17t5 -54t-1 -51q40 8 72 8q90 0 140 -47q56 -50 56 -135v-4q0 -17 -14 -17q-8 0 -18 6q-68 41 -125 71.5t-117 49.5q-16 -139 -54 -292q-46 -173 -97 -280q8 -1 26 -1q109 0 221 56.5t169 145.5l9 12q1 -1 1 -6t-3 -11q-58 -100 -192 -169
q-127 -63 -250 -65q-65 -116 -121 -116q-9 0 -9 6t6 7l19 4q46 16 94 99q-103 3 -163 57t-60 164.5t86 233t200 180.5q-27 3 -54.5 3t-76 -11.5t-87.5 -34.5q-58 -34 -58 -76q0 -5 1 -8v-8q0 -13 -9 -13q-12 0 -18 16q-8 18 -8 30q0 59 106 91q78 23 155 23q21 0 63 -5
q56 24 95 33q1 21 1 59zM89 150q0 -90 50 -141q50 -55 138 -62q55 112 94 270t54 305q-39 11 -86 19q-109 -52 -178 -161q-72 -111 -72 -230zM673 446q7 0 7 10t-6 24q-26 45 -82 67t-114 22q-12 0 -36 -2l-3 -34q116 -24 221 -82q10 -5 13 -5zM427 566q-42 -7 -72 -19
q69 -11 71 -11q1 10 1 30z" />
    <glyph glyph-name="D" unicode="D" horiz-adv-x="934" 
d="M445 625l-2 55q0 7 4 7q1 0 3 -5q6 -38 6 -70v-40h9q71 0 138 -14q71 92 145 92q29 0 58 -16q26 -16 33.5 -37t7.5 -28.5t-2 -7.5q-5 0 -9.5 17t-31 31t-49.5 14q-62 0 -115 -70q112 -18 193 -89q88 -79 88 -189q0 -71 -30 -136q-44 -93 -128 -143q-86 -50 -191.5 -50
t-228.5 50q-67 -85 -191 -85q-15 0 -44 2.5t-67.5 33.5t-38.5 68t36 56q28 16 76.5 16t148.5 -41q73 86 121 231.5t58 278.5q-193 -10 -290 -113q-36 -39 -36 -83q0 -76 81 -113q16 -8 47 -14q5 -2 5 -4q0 -5 -7 -5l-2 1q-59 5 -108.5 48t-49.5 93.5t35 86.5
q106 112 326 119q2 36 2 53zM864 265q0 99 -67 178t-165 97q-35 -55 -89 -176t-98.5 -211.5t-91.5 -143.5q110 -47 209 -47q132 0 217 85.5t85 217.5zM476 557h-21q-7 -133 -54 -280.5t-122 -237.5l34 -13q37 39 79 130q20 40 54 117.5t39 87.5q64 139 109 185
q-60 11 -118 11zM121 -52q-19 0 -19 7q0 5 17 5q69 0 137 76q-93 42 -155 42q-28 0 -55.5 -13.5t-27.5 -47t38 -59t81.5 -25.5t94.5 23t73 56l-34 17q-72 -81 -150 -81z" />
    <glyph glyph-name="E" unicode="E" horiz-adv-x="931" 
d="M445 625l-2 55q0 7 4 7q1 0 3 -5q6 -35 6 -65.5v-43.5q85 -12 168 -30q81 105 159.5 105t78.5 -61q0 -11 -4.5 -11t-4.5 9q0 24 -19 34q-16 10 -40 10q-64 0 -128 -93q175 -35 232 -35q123 0 123 53q0 9 -4 14q-3 8 -3 9.5t2 1.5q9 0 14 -16.5t5 -25.5q0 -69 -111 -69
q-63 0 -272 46q-34 -57 -124 -243q41 13 136 13t162 -23q5 -2 5 -4.5t-5 -2.5l-72 5q-85 0 -145 -12q-109 -19 -109 -67q0 -6 5 -19v-1q-11 0 -21 24q-58 -109 -115 -175q113 -34 217.5 -64t172 -30t104.5 17q51 22 51 68q0 34 -30 83l-29 48q0 1 2.5 1t9.5 -7
q62 -51 62 -118t-46.5 -104.5t-114.5 -37.5t-204.5 52.5t-206.5 78.5q-100 -109 -223 -109q-40 0 -83 23.5t-43 66.5t43 64t90.5 21t116.5 -21q75 85 124.5 232.5t59.5 281.5q-69 8 -111 8q-181 0 -181 -124q0 -82 94 -148q5 -2 5 -5t-3 -3t-7 2q-126 72 -126 172
q0 56 47 90q50 38 153 38q45 0 130 -10q2 34 2 50zM609 523q-67 15 -154 30q-7 -131 -54 -278.5t-125 -239.5l43 -13q46 46 117 188q10 20 37 75q80 163 136 238zM121 -52q-19 0 -19 7q0 5 17 5q65 0 130 70q-54 17 -99.5 17t-76.5 -14q-42 -19 -42 -55t32 -54
q28 -17 69 -17t96 32t85 71l-46 15q-70 -77 -146 -77z" />
    <glyph glyph-name="F" unicode="F" horiz-adv-x="722" 
d="M445 625l-2 55q0 7 4 7q1 0 3 -5q6 -33 6 -77t-5 -97q10 0 96 -18q89 149 196 149q64 0 64 -54q0 -10 -3.5 -10t-3.5 8q0 39 -52 39q-72 0 -152 -141q101 -19 154 -19q98 0 98 48q0 9 -3 13.5t-3 7t2 2.5q6 0 11 -14.5t5 -24.5q0 -61 -98 -61q-56 0 -179 27l-100 -205
q29 16 118.5 16t151.5 -19q5 -2 5 -4.5t-4 -2.5l-62 5q-73 0 -127 -11q-95 -17 -95 -58l5 -19q-8 0 -12 13q-8 12 -9 22q-68 -132 -124 -195q-94 -105 -195 -105q-42 0 -73 16q-41 19 -41 59t45 63q34 18 80 18q9 0 9 -3t-9 -3q-38 0 -66 -16q-36 -18 -36 -51.5t25.5 -49
t56.5 -15.5q86 0 156 78q51 58 99 152q39 81 77.5 168t77.5 157l-87 19q-12 -100 -48.5 -214.5t-93.5 -198.5q-86 -128 -186 -128q-19 0 -19 7q0 5 17 5q90 0 174 126q59 90 94 199t48 207q-129 27 -203 27q-161 0 -161 -111q0 -74 85 -133q4 -1 4 -4t-2.5 -3t-6.5 2
q-112 64 -112 153q0 63 61 93q47 22 121.5 22t215.5 -27q8 62 8 114z" />
    <glyph glyph-name="G" unicode="G" horiz-adv-x="681" 
d="M526 594l-2 50q0 8 5 8q9 0 11 -59q83 -7 127.5 -53t44.5 -128v-4q0 -17 -14 -17q-8 0 -37.5 18t-124.5 70q-11 -109 -37 -228q27 35 51 74q8 11 9 11q1 -1 1 -3q0 -21 -69 -115q-32 -138 -74 -247q-64 -166 -126 -215q-26 -20 -41.5 -20t-15.5 7q0 4 14 7q80 17 156 212
q44 116 71 235q-61 -83 -147 -150q-107 -83 -185 -83q-55 0 -83.5 43.5t-28.5 102.5q0 123 86.5 248.5t202.5 184.5q-27 3 -54.5 3t-76 -11.5t-87.5 -34.5q-58 -34 -58 -76q0 -5 1 -8v-8q0 -13 -9.5 -13t-17.5 17.5t-8 28.5q0 59 106 91q78 23 155 23q21 0 63 -5
q98 44 179 44h13zM72 143q0 -52 24 -92.5t76 -40.5q68 0 171 82q81 66 140 139q30 133 39 254q-92 43 -183 56q-111 -52 -189 -165.5t-78 -232.5zM332 -287q-33 -18 -79 -18t-100.5 37t-54.5 80q0 4 3 4t4 -6q41 -93 128 -93q41 0 79 20q83 45 144 215q40 135 82.5 283.5
t83.5 148.5q17 0 30 -11h-2q-14 -4 -35 -90q-54 -220 -93 -316q-74 -192 -190 -254zM680 457q0 11 -6 23q-38 63 -133 83l-3 -57q54 -18 122 -55q10 -5 13 -5q7 0 7 11zM478 569q-65 0 -123 -22q91 -12 169 -36q2 38 2 55q-22 3 -48 3z" />
    <glyph glyph-name="H" unicode="H" horiz-adv-x="705" 
d="M353 204q223 11 233 11t10 -3q0 -8 -21 -13q-133 0 -233 -18q-73 -135 -173 -242q18 -5 39.5 -9t21.5 -7q0 -5 -15 -5t-54 13q-143 -150 -258 -150q-50 0 -50 34q0 20 8 26v-10q0 -37 42 -37q103 0 226 148q-23 10 -35 18q-95 -119 -166 -119q-9 0 -9 5.5t5.5 7t27.5 5.5
q62 19 133 107q-49 36 -49 81t68 87q49 31 111 47q99 217 107 409q-15 6 -36 6q-72 0 -151 -60t-79 -124.5t86 -108.5q3 -1 3 -7t-7 -6h-4q-44 18 -79.5 52t-35.5 75q0 57 63 108q50 43 105.5 61t104.5 18q12 0 30 -2v34q0 8 6 8q4 0 5 -44q102 -21 102 -138q0 -98 -82 -258
zM664 -172q-113 0 -113 129q0 85 51 229l120 291l41 103q9 23 15.5 23t6.5 -9q0 -17 -51.5 -166t-76.5 -233q-42 -150 -42 -236q0 -117 71 -117q29 0 61 22q29 21 102 89l2 -1q0 -2 -3 -7q-33 -48 -83.5 -82.5t-100.5 -34.5zM383 484q0 77 -50 101q-2 -175 -105 -401
q39 10 65 13q90 185 90 287zM277 168q-56 -17 -68 -22q-49 -100 -105 -174q13 -13 33 -20q76 93 140 216zM76 25q0 -24 20 -46q49 65 99 161q-119 -54 -119 -115z" />
    <glyph glyph-name="I" unicode="I" horiz-adv-x="631" 
d="M214 176l-92 -3q-18 0 -24 1q1 -1 1 -6.5t-6 -18.5q-37 -74 -37 -137.5t32 -99.5q34 -41 91 -41q103 0 210 156q121 179 211 457q20 57 20 64.5t-1 7.5q-11 0 -82 -40q-25 -157 -96 -320q-85 -195 -193 -265q-47 -32 -84 -32q-8 0 -8 6t10 7.5t43 11.5q83 38 163 173
q107 181 148 409q-48 -29 -81 -60q-26 -27 -48.5 -68.5t-22.5 -63t15 -31.5q5 -3 5 -5t-11 -2t-25 15q-13 16 -13 33q0 50 69 116q52 47 115 85q14 84 14 168q0 6 5 8q5 -3 5 -52.5t-8 -113.5q73 41 109 41q17 0 17 -16q0 -30 -23 -114q-83 -285 -233 -457
q-110 -131 -233 -131q-73 0 -107 50t-34 124.5t23 118.5q3 5 3 8t-19 6.5t-19 10.5q0 10 17 18q14 8 25 8l20 -2l140 6q47 0 69 -6q39 -10 39 -46q0 -26 -32 -45q-4 0 -4 2q0 4 11 15q10 15 10 16q0 34 -104 34z" />
    <glyph glyph-name="J" unicode="J" horiz-adv-x="478" 
d="M191 86l32 3q4 0 4 -2q0 -10 -58.5 -10t-103.5 32q-54 37 -54 103q0 219 378 321q5 48 5 103q0 6 6 7q6 -1 6 -35.5t-2 -70.5l84 20q24 59 51.5 82t88.5 23q26 0 50 -11q28 -16 28 -39q0 -30 -47.5 -39.5t-112.5 -19.5q-78 -250 -90 -286q-118 -354 -345 -472
q-46 -25 -102.5 -25t-116 48t-59.5 107q0 7 4 7q1 0 3.5 -8t14.5 -36q39 -79 141 -79q60 0 119 30q122 63 194 189q45 81 98 257q26 90 75 256l-80 -20q-17 -171 -89 -351q-84 -210 -200 -292q-53 -36 -90 -36q-9 0 -9 6t8 8q119 16 223 210q115 213 143 451
q-341 -102 -341 -305q0 -59 41.5 -92.5t102.5 -33.5zM698 617q0 34 -54 34q-45 0 -89 -83q29 3 118 22q25 10 25 27z" />
    <glyph glyph-name="K" unicode="K" horiz-adv-x="788" 
d="M239 185q-9 36 -50 36q-71 0 -114 -71q-39 -62 -39 -130t30 -107q31 -45 94 -45q28 0 60 9q84 26 176 160q68 97 120 219q-35 39 -75 62l-8 7q5 5 13 5q24 0 76 -60q59 140 92 296q-8 1 -23 1q-90 0 -181 -27q-129 -38 -129 -100q0 -17 10 -31l10 -14q0 -2 -3 -2
q-12 0 -29 23q-19 23 -19 39q0 45 116.5 87t240.5 42q42 0 56 -7q3 -1 3 -13q0 -52 -38.5 -160.5t-69.5 -177.5q15 -16 25 -32q90 172 167 258q122 137 263 137q75 0 123.5 -53.5t48.5 -128.5q0 -21 -5 -21q-3 0 -3 17q0 69 -51.5 110t-124.5 41q-128 0 -247 -128
q-78 -87 -164 -241q113 -154 124 -169q83 -110 136 -146t87 -36q54 0 54 68.5t-41 124.5q-3 3 -3 5.5t4.5 2.5t8.5 -7q47 -54 47 -118q0 -46 -28 -77t-73 -31q-66 0 -138 63q-70 59 -113 138q-15 30 -42 85.5t-36 72.5l-43 -76q-80 -143 -124 -143q-15 0 -15 10q0 5 13 6
q47 6 104 103q7 11 59 110q-12 23 -21 38q-171 -352 -387 -352q-74 0 -118 47.5t-44 127t49.5 143.5t128.5 64q23 0 42 -13q21 -11 21 -34q0 -6 -3 -7z" />
    <glyph glyph-name="L" unicode="L" horiz-adv-x="555" 
d="M961 -76q0 -52 -64 -86q-53 -28 -114.5 -28t-135.5 31.5t-180 89.5t-145 75q-59 -68 -116.5 -104.5t-133.5 -36.5q-41 0 -82 29t-41 68q0 55 55 83q44 23 105 23t154 -29q31 42 65 106q-7 -1 -22 -1q-210 0 -210 149q0 79 84 124q4 3 7.5 3t3.5 -2.5t-1 -3.5
q-63 -23 -63 -95.5t70 -117.5q60 -39 139 -40q22 41 76 157t91 171q87 130 186 130q11 0 11 -3t-11 -3q-95 0 -181 -134q-28 -45 -84 -164.5t-74 -153.5q32 0 65 6q7 8 29 60q19 51 25 64q140 320 312 320q35 0 56 -24t21 -61q0 -149 -326 -316q-42 -22 -55.5 -27.5
t-18.5 -8.5q-8 -4 -31 -14q-8 -14 -38.5 -61.5t-54.5 -79.5l257 -100q158 -60 258.5 -60t100.5 57q0 37 -34 89q18 -11 30 -35q15 -25 15 -46zM847 540q0 22 -17.5 32t-41.5 10q-112 0 -278 -285q-49 -84 -74 -123q97 34 244 153q167 135 167 213zM85 -78q-14 0 -14 3.5
t14 3.5q93 0 171 102q-92 30 -143.5 30t-97.5 -21t-46 -61.5t39 -65.5q31 -22 79 -22t121 38t103 80q-14 9 -44 19q-82 -106 -182 -106zM408 153q-47 -6 -66 -7q-32 -58 -68 -110q10 -4 45 -14q14 14 89 131z" />
    <glyph glyph-name="M" unicode="M" horiz-adv-x="1150" 
d="M1320 519l9 50q0 67 -70 67q-109 0 -258 -182q-35 -231 -35 -324q0 -150 56 -150q46 0 116 111l22 35q4 7 7 7q1 -1 1 -4.5t-2 -5.5q-82 -155 -151 -155q-99 0 -99 141q0 98 60 314q-58 -74 -220 -333q-59 -95 -100.5 -134.5t-50.5 -39.5q-2 0 -2 6.5t8 8.5
q11 17 11 64.5t-20 153.5q-14 86 -14 163t19 163q27 118 81 118q2 0 2 -2.5t-5 -5.5q-47 -24 -47 -163q0 -103 27 -274q3 -18 3 -38q0 -103 -45 -173q47 30 161 222q40 69 101 163.5t105 149.5q15 60 18 60t3 -8t-4 -31q55 66 115 114q83 68 140 68q35 0 57 -26
q18 -24 18 -51.5t-5 -54t-12 -27.5v3zM595 522q0 -144 -89 -310t-208 -260q-110 -89 -221 -89q-37 0 -60 21t-23 60t32 83q3 3 5 3t2 -4q-4 -9 -9 -25q-11 -25 -11 -51t18.5 -49t50.5 -23q118 0 238 117q104 104 175.5 257t71.5 264q0 11 -1 17q-12 -6 -35 -11
q-15 -105 -65 -222q-46 -113 -121 -219t-157 -154q-48 -28 -82 -28q-10 0 -10 7.5t10 8t45 10.5q93 35 189 167q138 192 177 428q-50 -8 -144.5 -18t-144.5 -21q-118 -30 -118 -90q0 -46 44 -89q36 -38 88 -51q6 -1 6 -3q0 -4 -8 -4q-55 0 -100.5 46t-45.5 103.5t90 99.5
q72 33 185 50q51 9 153 23q3 28 3 96q0 8 7 8q6 0 6 -37t-2 -65q27 7 30 8q7 7 13 7q10 0 13 -13.5t3 -47.5z" />
    <glyph glyph-name="N" unicode="N" horiz-adv-x="908" 
d="M41 26q-20 -45 -20 -72.5t18.5 -51.5t49.5 -24q119 0 239 117q105 104 176 255t71 266q0 11 -1 17q-20 -9 -48 -13q-20 -100 -66.5 -211.5t-114 -218t-138.5 -154.5q-40 -25 -70 -25q-10 0 -10 5.5t11.5 7.5t36.5 10q83 37 169 172q124 196 169 412l-123 -15
q-103 -10 -159 -24q-113 -30 -113 -88q0 -43 44 -89q41 -39 88 -51q6 -1 6 -3q0 -4 -8 -4q-55 0 -101 46q-45 46 -45 104t88 98q71 33 154.5 46t177.5 26q8 62 8 142q0 7 6 7q5 0 5 -50.5t-7 -96.5q17 3 41 10q5 7 14 7t11 -15q3 -29 29 -173q37 -209 88 -322
q20 44 48.5 191.5t51.5 212.5q50 140 141 191q27 15 54 15q46 0 88 -53q42 -50 42 -95q0 -4 -3 -4t-6 8q-12 41 -38.5 68.5t-66.5 27.5q-21 0 -43 -11q-90 -41 -145 -178q-25 -63 -47.5 -157.5t-26.5 -112.5q-21 -80 -39 -122q41 -84 91 -84q28 0 59 25q33 26 30 26
q2 0 2 -4.5t-6 -8.5q-58 -58 -112.5 -58t-97.5 60q-11 -6 -27 -6t-16 12q0 3 12 5.5t19 6.5q-43 68 -64 201q-18 176 -21 214q-24 -136 -104.5 -271.5t-188 -222t-218.5 -86.5q-37 0 -60 20.5t-23 60.5t31 83q3 3 5.5 3t2.5 -4z" />
    <glyph glyph-name="O" unicode="O" horiz-adv-x="601" 
d="M600 338q0 -139 -119 -252q-116 -107 -260 -107q-21 0 -40 3q-81 -91 -142 -91q-10 0 -10 7q0 4 5 5.5t29 5.5q49 15 105 76q-111 29 -111 156q0 39 11 80q-20 37 -20 76q0 69 58 130q106 109 277 109q19 0 39 -3q10 73 10 154q0 7 6 7t6 -53t-10 -110q72 -13 120 -66
q46 -53 46 -127zM565 351q0 63 -36 108q-37 45 -98 58q-24 -129 -86.5 -268.5t-139.5 -237.5q130 1 243 106q117 106 117 234zM383 522q-90 0 -168 -42t-115 -120q-23 -46 -23 -96q0 -10 1 -15q33 85 117 154.5t169 69.5q12 0 12 -6.5t-13 -6.5q-69 0 -162 -91
q-82 -83 -113 -156q8 -15 28 -25t20 -12q0 -7 -9 -7q-21 0 -44 30q-13 -32 -13 -58q0 -123 122 -129q81 99 142 237.5t85 270.5q-12 2 -36 2z" />
    <glyph glyph-name="P" unicode="P" horiz-adv-x="904" 
d="M239 185q-9 36 -50 36q-71 0 -114 -71q-39 -62 -39 -130t30 -107q31 -45 94 -45q118 0 229 159q147 216 192 427q1 4 5 22t7 31q7 30 39 30q18 0 18 -15q0 -11 -7 -40q-27 -131 -94 -272h16q82 0 185 29q171 49 171 165q0 71 -66 125q-48 42 -131 66q-72 19 -151 19h-19
q-7 -105 -51 -238q-47 -135 -109 -241q-81 -144 -164 -203q-48 -34 -80 -34q-9 0 -9 6.5t8 7.5q31 5 45 12q92 45 188 210q71 125 112 253.5t47 225.5q-90 -4 -181.5 -33t-149.5 -89q-38 -38 -38 -82t26 -74q22 -29 60 -42q17 -6 30.5 -9.5t13.5 -6.5q0 -5 -8 -3h-1
q-61 9 -114 52t-53 101q0 42 35 77q59 60 166 90t216 35v64q0 8 6 8t6 -32v-39h45q72 0 150 -15q89 -20 145 -59q76 -53 76 -128.5t-73 -133.5q-56 -46 -145 -72.5t-191 -26.5h-20q-164 -338 -379 -338q-74 0 -118 47.5t-44 127t49.5 143.5t128.5 64q23 0 42 -13
q21 -11 21 -34q0 -6 -3 -7z" />
    <glyph glyph-name="Q" unicode="Q" horiz-adv-x="617" 
d="M715 -145q0 -40 -43.5 -62.5t-95.5 -22.5t-135 39q-11 5 -123 65t-170 75q-61 -58 -109 -58q-10 0 -10 6.5t9 7.5q52 9 95 47q-32 4 -59.5 4t-55.5 -14q-38 -16 -38 -46.5t25 -53t53 -22.5q8 0 8 -6q0 -3 -9 -3q-31 0 -61.5 21t-30.5 56t42 56q32 17 69 17t64 -4l9 9
q13 11 19 19q-111 29 -111 156q0 39 11 80q-20 37 -20 76q0 69 58 130q106 109 277 109q19 0 39 -3q10 73 10 154q0 7 6 7t6 -53t-10 -110q72 -13 120 -66q46 -53 46 -127q0 -139 -119 -252q-116 -107 -260 -107q-21 0 -40 3q-5 -6 -14.5 -15t-12.5 -13q58 -11 223 -79
t259 -68q72 0 72 42q0 27 -26 65q10 -5 21.5 -24t11.5 -35zM565 351q0 63 -36 108q-37 45 -98 58q-24 -129 -86.5 -268.5t-139.5 -237.5q130 1 243 106q117 106 117 234zM383 522q-90 0 -168 -42t-115 -120q-23 -46 -23 -96q0 -10 1 -15q33 85 117 154.5t169 69.5
q12 0 12 -6.5t-13 -6.5q-69 0 -162 -91q-82 -83 -113 -156q8 -15 28 -25t20 -12q0 -7 -9 -7q-21 0 -44 30q-13 -32 -13 -58q0 -123 122 -129q81 99 142 237.5t85 270.5q-12 2 -36 2z" />
    <glyph glyph-name="R" unicode="R" horiz-adv-x="923" 
d="M239 185q-9 36 -50 36q-71 0 -114 -71q-39 -62 -39 -130t30 -107q31 -45 94 -45q116 0 229 159q64 93 103 172q-25 5 -55 17q-49 -104 -117 -192q-96 -126 -170 -126q-9 0 -9 6.5t12 8t30 6.5q66 26 144 130q54 74 100 171q-67 32 -67 69q0 18 19 33.5t41.5 15.5
t49.5 -20q61 159 71 295q-90 -4 -183 -34t-148 -88q-38 -38 -38 -85q0 -80 84 -112q11 -6 40 -12q6 -2 6 -6t-8 -2h-1q-54 0 -110.5 47t-56.5 106q0 42 35 77q58 60 165.5 90t216.5 35v64q0 8 6 8t6 -31v-40h45q72 0 150 -15q89 -20 145 -59q76 -53 76 -128.5t-73 -133.5
q-108 -89 -316 -99q14 -19 40 -55q58 -79 89 -119q83 -113 136.5 -150t89.5 -37q54 0 54 68.5t-41 124.5q-3 3 -3 5.5t4.5 2.5t8.5 -7q47 -54 47 -118q0 -46 -28 -77t-73 -31q-66 0 -138 63q-86 74 -157 225l-52 105h-17q-164 -338 -379 -338q-74 0 -118 47.5t-44 127
t49.5 143.5t128.5 64q23 0 42 -13q21 -11 21 -34q0 -6 -3 -7zM750 239q171 52 171 169q0 67 -66 121q-48 42 -131 66q-72 19 -151 19h-19q-9 -135 -75 -302q25 -21 44 -43q38 92 64 209q4 22 6 29q7 30 39 30q18 0 18 -15q0 -7 -8 -42q-27 -124 -84 -253l7 -9q109 0 185 21z
M418 326q-28 0 -28 -30.5t47 -56.5q19 41 28 68q-29 19 -47 19zM518 255q-23 27 -44 44q-15 -37 -28 -64q26 -11 56 -15z" />
    <glyph glyph-name="S" unicode="S" horiz-adv-x="634" 
d="M680 530q0 -33 -42 -48q-30 -12 -70 -12t-84 11q-46 9 -77 31q-2 2 -2 4t2.5 2t3.5 -1q55 -36 155 -36q34 0 62 12.5t28 37.5q0 36 -52 54q-36 13 -81 13q-125 0 -171 -81q-14 -25 -14 -52q0 -61 68 -107q45 -30 125 -80q67 -55 67 -137q0 -111 -114 -178
q-95 -56 -203.5 -56t-172.5 38q-80 46 -80 133.5t64.5 143t149.5 55.5q47 0 47 -8q0 -2 -16 -2h-17q-81 0 -140 -48q-63 -49 -63 -131.5t57 -128t134 -45.5t164 36q150 60 150 187q0 78 -69 126q-22 16 -65 43t-61 39q-68 46 -68 112q0 44 33 80q-30 -3 -51 -29
q-20 -28 -20 -58q0 -69 65 -118q21 -16 120 -83q64 -53 64 -124t-70 -131.5t-143 -60.5q-5 0 -5 3q0 6 7 6q31 4 53 11q54 22 97 70t43 101q0 74 -63 121q-19 15 -58.5 41.5t-58.5 40.5q-64 47 -64 122q0 37 26 65.5t62 28.5h2q71 68 183 68t151 -49q12 -15 12 -32z" />
    <glyph glyph-name="T" unicode="T" horiz-adv-x="543" 
d="M169 -15l16 -3q77 0 173 217q65 146 100 288q-149 32 -226 32q-161 0 -161 -111q0 -74 85 -133q4 -1 4 -4t-2.5 -3t-6.5 2q-112 64 -112 153q0 63 61 93q47 22 122 22t241 -32q5 25 10 70q2 10 6 13q3 -1 3 -21.5t-8 -63.5l73 -14q89 149 196 149q64 0 64 -54
q0 -10 -3.5 -10t-3.5 8q0 39 -52 39q-72 0 -152 -141q101 -19 154 -19q98 0 98 48q0 9 -3 13.5t-3 7t2 2.5q6 0 11 -14.5t5 -24.5q0 -61 -98 -61q-56 0 -179 27q-41 -82 -105.5 -216t-121.5 -209q-104 -138 -221 -138q-42 0 -73 16q-41 19 -41 59t45 63q34 18 80 18
q9 0 9 -3t-9 -3q-38 0 -66 -16q-36 -18 -36 -51.5t25.5 -49t56.5 -15.5q86 0 156 78q51 58 99 152q39 81 77.5 168t77.5 157l-67 14q-47 -208 -141 -378q-78 -136 -143 -136q-21 0 -21 10q0 5 5 5z" />
    <glyph glyph-name="U" unicode="U" horiz-adv-x="811" 
d="M798 91q5 10 15 26t13 16t3 -2.5t-2 -6.5q-87 -156 -153 -156q-101 0 -101 147q0 85 36 229q-81 -133 -160 -228q-128 -161 -201 -161q-63 0 -63 87t58.5 234t123.5 258l-40 16q-83 -115 -146.5 -291.5t-63.5 -304.5q0 -9 -4.5 -9t-4.5 29q0 129 64 298.5t146 280.5
q-60 20 -114 20q-107 0 -177 -68q-19 -18 -19 -39q0 -38 64 -65q23 -11 23 -12.5t-4.5 -1.5t-20.5 6q-84 35 -84 85q0 23 23 46q72 73 209 73q62 0 122 -16q45 55 57 55q4 0 3 -3t-19.5 -20t-31.5 -34q78 -23 78 -40v-3q-26 -40 -46 -81q-144 -270 -144 -419q0 -62 31 -62
q58 0 185 172q118 159 176 275q4 5 24 93q6 16 25 16t19 -12q0 -20 -35.5 -170.5t-35.5 -224.5q0 -143 55 -143q47 0 117 111z" />
    <glyph glyph-name="V" unicode="V" horiz-adv-x="601" 
d="M457 336q0 -112 -52 -238q-20 -50 -109 -222q-3 -3 -6 -3q-8 0 -8 5.5t34 104t53 164.5q29 109 29 185q0 138 -66 196q12 -64 12 -145q0 -143 -37.5 -305t-102.5 -271q-3 -5 -5 -5t-2 5v3q135 273 135 568q0 97 -16 162q-33 21 -76 21q-94 0 -163.5 -80.5t-69.5 -175.5
q0 -54 24.5 -78t64 -24t80.5 28t71 69q3 4 5 4t2 -3t-2 -7q-24 -40 -78 -76.5t-91 -36.5t-60 16q-27 17 -35.5 42t-8.5 69t24 98q33 72 109 120.5t157 48.5q19 0 38 -3q-28 77 -82 87q-5 2 -5 5q0 10 14 10q58 0 88 -106q135 -38 135 -232zM1025 527q0 -11 -5.5 -40.5
t-11.5 -30.5q-1 1 -1 4t4.5 20.5t4.5 28.5q0 67 -69 67q-27 0 -60 -15q-150 -69 -319 -334q-21 -32 -121 -192q-114 -178 -153 -178q-3 0 -3 5t4 7q6 2 25 14q39 31 132 183q131 220 192 303q129 175 258 235q24 12 54 12t49.5 -25.5t19.5 -63.5z" />
    <glyph glyph-name="W" unicode="W" horiz-adv-x="891" 
d="M1294 573l9 50q0 67 -69 67q-57 0 -132 -58q-96 -79 -194 -244q-30 -52 -82.5 -148.5t-72.5 -131.5q-107 -192 -148 -192q-2 0 -2 6.5t8 8.5q11 17 11 58.5t-11 110.5q-15 80 -17 108q-52 -83 -143 -197q-121 -154 -157 -154q-3 0 -3 5t11 10q66 28 170 173
q67 92 120 185q-4 36 -4 100t15 132q21 95 71 124q14 9 25 9q44 0 44 -55q0 -80 -97 -247q5 -48 13.5 -105.5t8.5 -77.5q0 -103 -44 -173q38 27 102 147q37 69 120 230q76 141 152 241q93 118 191 164q24 12 47 12q38 0 56 -26q20 -26 20 -64q0 -11 -5.5 -40t-11.5 -30
q-1 1 -1 2zM457 336q0 -112 -52 -238q-20 -50 -109 -222q-3 -3 -6 -3q-8 0 -8 5.5t34 104t53 164.5q29 109 29 185q0 138 -66 196q12 -64 12 -145q0 -143 -37.5 -305t-102.5 -271q-3 -5 -5 -5t-2 10.5t40.5 136.5t59.5 201q35 134 35 229.5t-16 160.5q-33 21 -76 21
q-94 0 -163.5 -80.5t-69.5 -175.5q0 -54 24.5 -78t64 -24t80.5 28t71 69q3 4 5 4t2 -3t-2 -7q-24 -40 -78 -76.5t-91 -36.5t-60 16q-27 17 -35.5 42t-8.5 69t24 98q33 72 109 120.5t157 48.5q19 0 38 -3q-28 77 -82 87q-5 2 -5 5q0 10 14 10q58 0 88 -106q135 -38 135 -232z
M718 546q0 42 -21 42q-59 0 -59 -166q0 -38 5 -96q75 150 75 220z" />
    <glyph glyph-name="X" unicode="X" horiz-adv-x="638" 
d="M935 668q0 -4 -21 -4q-124 0 -544 -422q20 -227 117 -227q46 0 77 37q44 52 57 141q1 6 8 6q3 0 3 -7t-14.5 -59.5t-48.5 -92.5q-44 -53 -100 -53q-116 0 -144 211l-45 -45q30 -188 110 -188q12 0 21 4q20 9 20 4q0 -12 -17 -19q-21 -7 -31 -7q-83 0 -114 194
q-253 -256 -333 -256q-3 0 -3 4.5t4.5 6t43.5 18.5q57 30 189 155l95 92q-9 66 -9 140q0 139 30 274q-223 -40 -223 -179q0 -89 129 -89q7 0 14 1h13q4 0 4 -4q0 -9 -35 -9q-178 0 -178 103q0 146 279 188q18 82 39 130q3 8 5 8t2 -4v-2q-17 -59 -34 -130l64 9q28 22 34 22
t6 -1q-2 -5 -6 -18q145 17 152.5 17t7.5 -2q0 -7 -68 -15l-95 -11q-31 -105 -31 -242q0 -41 3 -86q429 416 545 416q22 0 22 -9zM270 300q0 -59 7 -127l45 44q-6 50 -6 104.5t9.5 150t25.5 112.5l-52 -7q-29 -136 -29 -277z" />
    <glyph glyph-name="Y" unicode="Y" horiz-adv-x="672" 
d="M736 477q0 -4 -4 -5.5t-24 -7.5q-55 -35 -92 -195l-59 -247q-42 -154 -95 -249q-69 -124 -169 -180q-46 -25 -107 -25t-117 44q-52 44 -75 111q-1 1 -1 5.5t2.5 4.5t7.5 -8q9 -27 20 -41q49 -76 151 -76q64 0 118 30q105 59 163 184q41 92 79 293q13 67 45 196
q-69 -118 -143 -210q-116 -146 -187 -146q-64 0 -64 87t58.5 234t123.5 258l-40 16q-83 -115 -146.5 -291.5t-63.5 -304.5q0 -9 -4.5 -9t-4.5 29q0 129 64 298.5t146 280.5q-60 20 -114 20q-106 0 -177 -68q-19 -18 -19 -39q0 -38 64 -65q23 -11 23 -12.5t-6 -1.5t-23 8
q-80 36 -80 83q0 23 23 46q72 73 209 73q62 0 122 -16q45 55 57 55q4 0 3 -3t-19.5 -20t-31.5 -34q78 -23 78 -40v-3q-26 -40 -46 -81q-144 -270 -144 -419q0 -62 31 -62q46 0 155 133q93 116 166 240q23 101 72 125q24 12 49.5 12t25.5 -7z" />
    <glyph glyph-name="Z" unicode="Z" horiz-adv-x="778" 
d="M296 209q0 -5 6 -15l-1 -1q-9 0 -19 12.5t-10 23.5q0 47 141 53q170 180 303 271l-144 22q-96 13 -145 13t-94 -15q-61 -21 -61 -62q0 -16 7 -26.5t8 -12.5q2 -4 3 -5q0 -6 -7 -7l-3 1q-22 30 -22 62t36 62t73 36.5t86 6.5t105.5 -12t190.5 -42q35 22 91.5 50t70.5 28
q2 0 2 -2q0 -8 -10 -12q-59 -16 -142 -66q43 -10 81 -13q51 25 91 25t40 -14q0 -27 -120 -27h-17q-121 -78 -304 -261q93 -3 152 -14q7 -1 7 -3.5t-6 -2.5l-86 4q-28 0 -86 -2q-161 -164 -208 -212q143 -55 208 -81q122 -46 207.5 -46t85.5 45q0 27 -29 70q13 -6 25.5 -27
t12.5 -37q0 -41 -49.5 -66t-93.5 -25q-72 0 -191 61q-62 31 -186 95q-52 -57 -90 -80q-49 -32 -114 -32q-35 0 -64 22q-36 24 -36 56q0 43 46 66q36 18 80 18t104 -13q10 10 162 173q-87 -16 -87 -42zM94 -23q-15 0 -21 8h5q49 0 135 85q-53 15 -93 15t-71 -14
q-41 -18 -41 -51.5t31 -52.5q25 -17 63 -17t97 30q59 32 83 65q-19 12 -53 21q-91 -89 -135 -89zM814 544q-24 1 -83 7q-111 -76 -294 -268q13 1 27 1l27 -1q164 173 323 261zM469 261l-59 -6q-32 -34 -173 -181q40 -12 55 -17q61 73 177 204zM937 568q0 4 -18.5 4
t-54.5 -14q8 -1 18 -1h10q45 0 45 11z" />
    <glyph glyph-name="bracketleft" unicode="[" horiz-adv-x="585" 
d="M472 718q101 0 101 -20q0 -5 -1 -14q-4 -1 -14 -1l-72 4q-44 0 -60 -10t-56 -57q-81 -96 -182 -284t-101 -276q0 -56 77 -56l75 5q29 0 29 -12q0 -14 -110 -14t-110 36q0 119 129 367q133 251 228 315q24 17 67 17z" />
    <glyph glyph-name="backslash" unicode="\" horiz-adv-x="551" 
d="M523 -84q0 -32 -26 -32v20q0 159 -180 428q-137 203 -307 377q2 6 20.5 6t41.5 -19t92 -106q123 -155 223 -323q136 -230 136 -351z" />
    <glyph glyph-name="bracketright" unicode="]" horiz-adv-x="556" 
d="M538 679q0 -145 -83.5 -344t-186.5 -308q-42 -44 -175 -44q-39 0 -61 2q23 20 39 23h45q97 0 143 55q78 93 159 282t81 298q0 21 -4 37q-13 9 -31 9t-43.5 -1.5t-37 -2t-18 -1t-9.5 -0.5q32 32 109 32q42 0 48 -2q25 -6 25 -35z" />
    <glyph glyph-name="asciicircum" unicode="^" horiz-adv-x="370" 
d="M186 412q-100 -84 -111 -84t-11 10.5t61 59.5q62 52 75 53l6 -2q38 -42 125 -108l5 -10l-4 -7q-23 2 -76.5 36.5t-69.5 51.5z" />
    <glyph glyph-name="underscore" unicode="_" horiz-adv-x="643" 
d="M630 273q0 -27 -16.5 -69.5t-35.5 -65.5q-165 -202 -378 -202q-82 0 -132 46.5t-50 127.5q0 10 2 28q-11 8 -19 23l20 -8q11 50 60.5 100t96.5 50q11 0 11 -3.5t-26 -20t-59.5 -56t-46.5 -76.5l2 -2q49 0 102 46.5t53 93.5q0 14 -8 26.5t-24.5 12.5t-44 -16.5t-30 -16.5
t-2.5 3q0 15 32.5 26.5t55 11.5t37.5 -13t15 -36q0 -36 -43.5 -73.5t-85.5 -58t-60 -20.5h-3q-8 -21 -8 -55q0 -61 44.5 -91t110 -30t151 38.5t164.5 115.5q95 93 95 181.5t-79 88.5q-88 0 -167 -79q-5 -5 -8.5 -5t-3.5 3t2 7q23 39 67.5 64.5t96 25.5t82 -33.5t30.5 -88.5z
" />
    <glyph glyph-name="grave" unicode="`" horiz-adv-x="263" 
d="M201 402q14 -11 14 -15.5t-2 -4.5q-10 0 -54 28q-63 40 -71 44q-31 17 -31 30q0 9 10.5 16.5t18.5 7.5q24 0 28 -16q8 -26 36 -51q4 -5 51 -39z" />
    <glyph glyph-name="a" unicode="a" horiz-adv-x="329" 
d="M342 134q3 0 3 -4.5t-4 -9.5q-90 -134 -139 -134q-27 0 -40.5 25.5t-13.5 57t10 72.5q-63 -140 -130 -140q-41 0 -41 53q0 85 82.5 177t164.5 92q39 0 39 -34q0 -42 -56 -84q-29 -72 -29 -138.5t25 -66.5q33 0 120 126q6 8 9 8zM227 239q16 22 16 44t-21 22
q-50 0 -131 -98.5t-81 -151.5q0 -23 22 -23q63 0 122 140q-18 -5 -24 -5t-6 3q0 5 14 10l31 18q2 17 21 44.5t36 27.5q6 0 6 -8t-5 -23z" />
    <glyph glyph-name="b" unicode="b" horiz-adv-x="311" 
d="M322 128l-29 2q-38 -62 -97.5 -107t-123.5 -45q-20 0 -33 4l-3 -21q-3 -16 -9.5 -16t-6.5 13.5t3 30.5q-23 14 -23 35q0 33 53 65q22 64 41 111q-21 -21 -45 -49q-5 -5 -8 -5t-3 4q0 16 67 77q119 295 198 444q11 17 35.5 17t24.5 -9q0 -1 -69 -135.5t-132 -269.5
q80 57 127 57t47 -61.5t-36 -127.5q28 -1 28 -10q0 -4 -6 -4zM263 143q15 42 15 97t-34.5 55t-93.5 -46q-50 -109 -64 -143q77 32 177 37zM68 -3q58 0 112.5 39.5t76.5 93.5q-98 -8 -185 -56l-28 -75q14 -2 24 -2zM40 52q-18 -17 -18 -27.5t6 -16.5q3 15 12 44z" />
    <glyph glyph-name="c" unicode="c" horiz-adv-x="282" 
d="M249 269q0 -18 -8 -42.5t-21 -24.5t-13 15q0 6 6 27q7 21 7 35q0 45 -36 45q-18 0 -45.5 -14.5t-30.5 -14.5t-3 3q0 14 34.5 25t55.5 11q54 0 54 -65zM66 -28q-69 0 -69 78t55 165.5t127 87.5q11 0 11 -3.5t-20 -15.5q-49 -30 -88.5 -93t-39.5 -115q0 -81 61 -81
q37 0 82 29q62 40 98 97q9 15 14 15l2 -2q0 -4 -9 -17q-36 -55 -101.5 -100t-122.5 -45z" />
    <glyph glyph-name="d" unicode="d" horiz-adv-x="371" 
d="M330 376q12 -3 12 -19.5t-25.5 -58.5t-39.5 -52q-19 -39 -33.5 -97.5t-14.5 -103.5t26 -45q31 0 73 54q14 16 54 81q4 6 7 6t3 -3l-2 -6q-77 -149 -144 -149q-58 0 -58 84q0 41 18 122q-38 -73 -67 -115q-54 -74 -100 -74t-46 62q0 95 101 202t198 118q73 179 125 280
q17 23 54 23q14 0 14 -7q-78 -147 -155 -302zM18 81q0 -44 27 -44q73 0 143 163q-20 -6 -27.5 -6t-7.5 4.5t13.5 9t33.5 18.5q9 24 14.5 41t9.5 17q7 0 7 -9t-9 -33l18 13l42 104q-76 -17 -170 -111t-94 -167z" />
    <glyph glyph-name="e" unicode="e" horiz-adv-x="295" 
d="M310 136q1 0 1 -3t-8 -17q-31 -50 -90 -92.5t-111 -42.5q-71 0 -71 92q0 31 7 66q-9 8 -16 22q1 -1 5 -2.5t7.5 -3t7.5 -2.5q10 49 61 101t99 52q11 0 11 -2.5t-14 -10.5q-37 -20 -69 -62q-34 -42 -49 -84l2 -2q48 0 100 46t52 94q0 14 -7.5 26.5t-24.5 12.5t-42.5 -15.5
t-28 -15.5t-2.5 1q0 12 32.5 25t53 13t35.5 -13t15 -36q0 -53 -65.5 -100t-123.5 -52q-8 -24 -8 -46q0 -83 60 -83q46 0 92 36.5t74 83.5q9 14 15 14z" />
    <glyph glyph-name="f" unicode="f" horiz-adv-x="257" 
d="M44 273l19 -1h20q45 0 107 15q114 210 252 329q41 35 66 35q32 0 32 -48.5t-28 -88.5q-17 -23 -24 -23t-7 4t19.5 39.5t19.5 58.5t-23 23q-36 0 -100 -72.5t-96 -125.5q-36 -56 -70 -120l152 50q4 0 4 -2q0 -6 -18 -14q-70 -29 -147 -52q-62 -123 -80 -225q0 -1 -9 -78
q-2 -17 -24 -17t-24 17q8 79 8 104q0 104 -34 138l-21 14q-11 7 -11 21q0 19 17 19zM180 269q-40 -10 -110 -21q33 -18 39 -143q26 79 71 164z" />
    <glyph glyph-name="g" unicode="g" horiz-adv-x="324" 
d="M347 -54q0 -7 -17.5 -7t-52.5 3.5t-60 3.5q34 -68 34 -118q0 -115 -150 -202q-130 -76 -257 -76q-185 0 -185 111q0 18 2 27q6 36 54 92q150 175 453 183l-33 83q-49 -42 -89 -42q-36 0 -36 39q0 73 82 162q-2 24 -2 34q0 61 23 105q29 56 84 56q8 0 22 -2
q23 -5 33.5 -33t10.5 -40.5t-1 -17.5q60 36 60 87q0 18 4 18q10 0 10 -35q0 -67 -76 -103q-6 -52 -38 -116.5t-69 -94.5q17 -29 55 -100q139 -3 139 -17zM203 -155q0 31 -28 100q-155 -7 -275 -58q-152 -65 -197 -184q-7 -17 -7 -34q0 -49 47 -76.5t100 -27.5q108 0 234 90
t126 190zM222 321q0 59 -28 59q-24 0 -46 -33q-42 -61 -42 -120q0 -8 1 -11q22 22 54 40l59 34q2 22 2 31zM217 261q-73 -34 -109 -67q7 -49 37 -114q26 24 49 83t23 98zM94 178q-56 -74 -56 -107t19 -33q37 0 71 27q-30 73 -34 113z" />
    <glyph glyph-name="h" unicode="h" horiz-adv-x="361" 
d="M267 301l-9 -76q0 -61 18 -123q26 -86 71 -86q8 0 20 5t14 5q8 0 8 -9t-20.5 -17t-31.5 -8q-51 0 -88.5 77t-37.5 140q0 12 1 17q-33 -48 -143 -152q-13 -44 -22 -88q-7 -27 -33 -27q-12 0 -10 8q-3 8 -14.5 25.5t-11.5 23.5t7 7q18 11 45 35q61 178 209 505q2 4 6 15
q7 19 20 42q11 23 53 23q15 0 15 -7l-60 -113q-140 -265 -193 -417q117 117 155 193q6 10 19 10t13 -8zM20 28l-21 -17q5 -7 10 -21q8 30 11 38z" />
    <glyph glyph-name="i" unicode="i" horiz-adv-x="174" 
d="M191 137q2 0 2 -2q0 -17 -55 -75q-44 -44 -67 -44q-51 0 -51 51q0 38 20 96l-18 -28q-13 -22 -18 -22q-2 0 -2 5.5t15 25.5t44 82q8 21 22 47q5 9 23.5 9t18.5 -10t-10 -30t-17 -23q-52 -104 -52 -153q0 -33 22 -33q36 0 79 52q18 21 22 25.5t8 9.5t7 8q5 5 7 9zM187 419
q5 0 5 -2.5t-23 -28.5l-15 -31q-9 -20 -23 -20q-20 0 -20 21q0 10 13.5 25.5t35.5 25.5t27 10z" />
    <glyph glyph-name="j" unicode="j" horiz-adv-x="198" 
d="M91 1q110 -3 110 -12t-18 -9q-24 6 -95 6q-27 -106 -115 -191.5t-199 -138.5q-90 -41 -149 -41q-86 0 -86 72q0 63 66 133q48 52 119 94q141 82 330 87q9 30 13 71.5t10 70.5q-29 -26 -32 -26q-1 0 -1 5.5t16 21.5l23 23l25 79q6 11 24.5 11t18.5 -9t-7 -32
q-7 -17 -16 -23q-7 -26 -18.5 -94.5t-18.5 -97.5zM-381 -197q-60 -61 -60 -110.5t77 -49.5q131 0 253.5 106.5t161.5 235.5q-79 -3 -171 -31q-167 -51 -261 -151zM167 392q36 17 40.5 17t4.5 -3t-22 -28l-15 -31q-9 -20 -23 -20q-20 0 -20 21q0 10 11 23.5t24 20.5z" />
    <glyph glyph-name="k" unicode="k" horiz-adv-x="291" 
d="M277 -25q20 0 35 14t17.5 14t2.5 -3t-2 -9q-24 -39 -67 -39t-97.5 47.5t-91.5 100.5l-38 -62q-24 -38 -46 -56q-8 -23 -31 -23q-11 0 -11 8q0 28 58 177l-19 -2q-6 0 -6 2q0 14 30 15q55 134 73 176q-46 -25 -66 -25q-4 0 -4 3q0 10 14 16q2 1 8 3q34 16 61 36l113 252
q11 23 47 23q19 0 19 -11q0 -4 -9 -27q-29 -79 -94 -183q-24 -30 -33 -49q-15 -29 -34.5 -68t-66.5 -142q20 19 27 19t13 -11q16 5 29 11q3 7 27.5 49.5t56.5 77.5q47 53 78 53t31 -67q0 -83 -182 -125q-6 -12 -21 -33q31 -55 75 -101q58 -61 104 -61zM252 301q0 28 -13 28
q-22 0 -86 -97l-25 -45q124 45 124 114zM67 111q-11 19 -21 41l-11 -1q-18 -45 -41 -149q36 42 73 109z" />
    <glyph glyph-name="l" unicode="l" horiz-adv-x="163" 
d="M264 506q-8 -4 -18 -15q-184 -343 -184 -441q0 -33 22 -33q28 0 78 44q8 7 11.5 10t2.5 3q4 0 4 -3t-4 -9q-44 -62 -90 -62q-50 0 -50 53t51 191q-25 -34 -35 -34q-3 0 -3 2t26.5 36.5t28.5 38.5q31 90 93 216t85 168q8 17 33.5 17t25.5 -7t-77 -175z" />
    <glyph glyph-name="m" unicode="m" horiz-adv-x="496" 
d="M56 185l-7 74q0 7 8 10l44 12q15 34 50 34q15 0 10 -12l24 11q2 0 2 -3q0 -9 -32 -23q-27 -62 -95 -243q58 67 91 111q30 55 74 117q12 18 41 18t29 -22q0 -9 -25.5 -72.5t-25.5 -67.5q51 45 94 113q4 7 7.5 7t3.5 -5q0 -13 -53 -86q-61 -81 -65.5 -87t-13 -6t-8.5 7
q0 10 27 116q8 32 8 64q-35 -53 -92 -119l-99 -113q-3 -27 -26 -27q-9 0 -9 8l2 5q-2 2 9 28.5t19 71t8 79.5zM518 31q0 -8 -23 -15.5t-33 -7.5q-55 0 -86 73q-25 56 -25 107.5t7 64.5t24.5 13t19.5 -5q-2 0 -5 -20.5t-3 -59.5t17 -87q24 -69 67 -69q9 0 20 4.5t15.5 4.5
t4.5 -3zM94 264l-27 -9q5 -28 5 -53q8 25 22 62z" />
    <glyph glyph-name="n" unicode="n" horiz-adv-x="288" 
d="M-8 -6l56 253q-4 14 -22 54q0 7 17 13q50 19 64.5 19t14.5 -9q-37 -92 -51 -128v-6q0 -31 -9 -31q-2 0 -3 3q-21 -63 -29 -92q46 75 94 131q75 87 124 87q23 0 23 -18q0 -7 -58 -220q58 43 90 92q5 6 7.5 6t2.5 -3t-3 -8q-44 -78 -107 -124q-5 -6 -12.5 -6t-7.5 9t12 68
t17.5 90t7.5 78q-41 -20 -101 -86t-79.5 -103t-25 -60.5t-14 -23.5t-8.5 13v2zM63 307q-5 -4 -19 -10l10 -23z" />
    <glyph glyph-name="o" unicode="o" horiz-adv-x="278" 
d="M255 196l3 19q0 16 -10.5 26.5t-24.5 10.5q-12 -122 -59 -187h31q-13 -8 -19.5 -8t-9 1t-5.5 1q1 -1 -5.5 -6.5t-37.5 -32.5t-58 -27q-39 0 -39 50q0 61 46 125q-16 39 -16 82.5t17 75.5q33 63 82 63q62 0 72 -106q50 -2 50 -52q0 -41 -13 -41q-4 0 -4 6zM151 367
q-32 0 -59 -63q-17 -38 -17 -73t3 -52q61 82 128 102q-20 86 -55 86zM207 253q-22 -3 -68.5 -40.5t-57.5 -59.5q21 -76 51 -83q24 22 49.5 87t25.5 96zM74 144q-33 -56 -33 -88.5t22 -32.5q27 0 65 42q-33 4 -54 79z" />
    <glyph glyph-name="p" unicode="p" horiz-adv-x="276" 
d="M194 184q44 -62 44 -103.5t-34.5 -62.5t-67 -21t-68.5 13.5t-36 32.5l1 3q-1 -1 2 -3q7 -4 33.5 -17t53 -13t49 16t22.5 41q0 65 -89 165q-113 -263 -144.5 -340.5t-46 -131t-14.5 -112.5q0 -89 58 -89q38 0 92 33q-10 -18 -38.5 -31.5t-47.5 -13.5q-48 0 -85.5 37.5
t-37.5 83.5t18.5 94t52.5 120t180 367q-55 79 -55 134t44 55q57 0 57 -69q0 -34 -20 -96q52 -57 77 -92zM106 285q17 40 17 92.5t-37 52.5q-17 0 -17 -36q0 -56 37 -109z" />
    <glyph glyph-name="q" unicode="q" horiz-adv-x="265" 
d="M295 289q0 -42 -56 -84q-75 -179 -105 -302q58 -94 58 -123.5t-19.5 -62t-43.5 -32.5t-32 14q-16 10 -16 60t26 149q-28 52 -32 98q-13 -5 -25 -5q-41 0 -41 53q0 76 86 174t159 98q41 0 41 -37zM266 281q0 22 -22 22q-54 0 -132 -96t-78 -152q0 -23 20 -23q9 0 21 5
q5 32 31 55q4 4 7.5 4t3.5 -4q-4 -5 -15.5 -18t-14.5 -30q49 32 89 128q-18 -5 -24 -5t-6 3q0 5 14 10l31 18q5 16 18 32t24.5 16t15.5 -7q17 23 17 42zM180 141q-45 -99 -93 -129q4 -36 28 -77q19 66 39.5 127.5t25.5 78.5zM156 -215q0 30 -29 86q-10 -50 -10 -86t10 -60
v-2h3q26 0 26 62z" />
    <glyph glyph-name="r" unicode="r" horiz-adv-x="279" 
d="M285 230q0 -29 -17.5 -54t-33.5 -25q-3 0 -3 4q6 15 14 32.5t8 40t-17 22.5q-23 0 -72.5 -55.5t-69.5 -90.5l-43 -115q-2 -2 -7.5 -2t-16 7t-10.5 12q2 4 5.5 13t6.5 14q39 83 53.5 134.5t14.5 101.5q-4 -16 -36 -71q-48 -83 -54 -83t-6 3q0 2 41.5 69t56.5 125
q6 26 20 26q16 0 16 -40q0 -72 -46 -177q54 67 75 90q57 61 89 61t32 -42z" />
    <glyph glyph-name="s" unicode="s" horiz-adv-x="254" 
d="M279 145q0 -4 -2 -7q-34 -57 -84 -67q-3 -35 -21.5 -59t-60 -24t-78.5 39.5t-37 86.5q0 31 16 31q10 0 20 -15q30 70 85 158q35 54 82 54q10 0 23.5 -7.5t13.5 -16.5q0 -7 -8.5 -7t-12.5 1h-8q-23 0 -39.5 -13.5t-16.5 -28t3 -23.5l24 -80q14 -50 14 -82q27 4 42.5 17
t35.5 43q3 4 6 4t3 -4zM151 72q1 5 1 21t-14.5 75t-14.5 74t1 19q-26 -27 -85 -144q42 -24 63 -33.5t49 -11.5zM97 21q39 0 53 39q-80 0 -122 33q2 -23 24 -47.5t45 -24.5z" />
    <glyph glyph-name="t" unicode="t" horiz-adv-x="260" 
d="M360 322q0 -17 -169 -65q-45 -87 -55 -111q-26 -62 -26 -119q0 -33 22 -33q27 0 71 38l45 39q3 0 3 -3t-3 -9q-16 -24 -54 -53.5t-60 -29.5q-50 0 -50 61q0 44 22 109q-10 28 -40 41q-9 4 -27 11t-29 12t-11 20.5t14 18.5h27q52 0 111 12l96 215q7 18 33.5 18t26.5 -10
q0 -3 -37.5 -85.5t-41.5 -86.5l-17 -16l-12 -24q24 7 146 50q10 2 12.5 2t2.5 -2zM144 244q-56 -13 -101 -20q52 -27 67 -64q10 28 34 84z" />
    <glyph glyph-name="u" unicode="u" horiz-adv-x="297" 
d="M319 57v-2q-35 -48 -77 -48t-42 74q0 30 5 85q-38 -72 -125 -140q-9 -7 -34 -26q-5 -4 -17.5 -4t-12.5 6q0 36 32.5 99t40.5 90.5t8 77.5q-4 -16 -36 -71q-48 -83 -54 -83t-6 4l30 51q48 84 62 141q6 26 24 26t18 -45.5t-26 -127.5l-42 -131q84 64 140 157q10 70 27 92
q6 7 22.5 7t16.5 -11q0 -30 -19 -55q-22 -75 -22 -146q0 -48 30 -48q15 0 30.5 13t20 17t3.5 4q3 0 3 -6z" />
    <glyph glyph-name="v" unicode="v" horiz-adv-x="267" 
d="M451 324q0 -16 -3.5 -16t-5.5 17t-9.5 27t-31.5 10q-67 0 -124.5 -53.5t-87.5 -114.5t-30 -91v-3q0 -12 -23 -64t-34 -52q-3 0 -4 -1h-4q-6 0 -14 8q-1 2 -1 11.5t17 67.5t17 149.5t-35 91.5q-19 0 -47 -25l-28 -26q-3 0 -3 2.5t2 8.5q12 22 45 44q33 24 55 24
q42 0 42 -81q0 -61 -22 -133q46 95 110 162q84 87 168 87q51 0 51 -50z" />
    <glyph glyph-name="w" unicode="w" horiz-adv-x="425" 
d="M389 184q4 -33 12.5 -42.5t8.5 -14t-3 -4.5q-9 0 -33 46q-14 -49 -36 -86q-32 -53 -66.5 -53t-52.5 22.5t-18 48t3 41.5q-37 -49 -77 -88q-61 -60 -92 -60q-29 0 -29 38q0 62 55 157q-5 -5 -25 -33.5t-22.5 -28.5t-2.5 3q0 12 45 66q46 54 63.5 67t31 13t13.5 -6
q0 -3 -4 -6q-29 -31 -79 -117.5t-50 -117.5q0 -12 8 -12q63 0 171 165q2 2 12 19.5t16 27t25.5 9.5t19.5 -15q-38 -59 -38 -125q0 -48 25 -48t60 54q27 45 37 77q-25 81 -25 90q0 17 15 17q17 0 29.5 -21.5t12.5 -41.5t-10 -41z" />
    <glyph glyph-name="x" unicode="x" horiz-adv-x="253" 
d="M312 -8q0 -2 -5 -7q-41 -33 -78 -33q-87 0 -117 191q-8 -6 -121 -121q-4 -4 -6.5 -4t-2.5 5t7 12l90 96q4 4 28 34q0 20 -13 78q-9 -23 -38 -50q-29 -29 -55 -41q-3 -2 -6.5 -2t-3.5 2q0 4 9 10q78 55 77 92v5q0 13 9 23.5t18 10.5t10 -1q16 -4 28 -98q15 12 53.5 57.5
t56.5 55.5q5 5 9 5q2 0 2 -4q0 -7 -50.5 -59.5t-67.5 -82.5q27 -194 104 -194q16 0 60 22q3 0 3 -2z" />
    <glyph glyph-name="y" unicode="y" horiz-adv-x="341" 
d="M384 396q0 -3 -9 -5.5t-19 -7.5q-45 -32 -78 -171q-50 -213 -52 -218q-39 -139 -84 -220q-62 -110 -150 -159q-41 -23 -92 -23t-112 46t-61 96q0 4 2.5 4t5.5 -6q42 -105 152 -105q56 0 104 27q93 52 145 163q33 75 61 214q24 129 41 191l17 62q-63 -49 -151 -281
q0 -2 -6 -2t-13.5 7.5t-7.5 14.5l17 42q19 56 19 164q0 82 -35 82q-19 0 -47 -25l-28 -26q-3 0 -3 2.5t2 8.5q14 22 46 45t54 23q42 0 42 -81q0 -66 -27 -146q83 153 141 183q15 54 34 76q25 31 74 31q18 0 18 -6z" />
    <glyph glyph-name="z" unicode="z" horiz-adv-x="279" 
d="M326 -59l2 9q0 14 -31.5 25t-52.5 11q-27 -106 -115 -191.5t-199 -138.5q-90 -41 -149 -41q-86 0 -86 72q0 64 65 133q50 53 120 94q141 82 330 87q14 48 14 86q0 73 -49 73q-18 0 -76 -28q-10 0 -10 9q0 4 5 9q25 22 60.5 70.5t35.5 67.5t-14 19q-49 0 -154 -172
q-3 -6 -7 -6t-4 4.5t3 8.5l40 68q69 117 124 117q45 0 45 -30q0 -46 -70 -122q28 17 47 17q58 0 58 -102q0 -47 -11 -89q30 -2 62 -13.5t32 -31t-12 -19.5q-3 0 -3 4zM-285 -307q0 -50 76 -50q130 0 253.5 106.5t162.5 235.5q-80 -3 -172.5 -31t-151 -63.5t-113.5 -93
t-55 -104.5z" />
    <glyph glyph-name="braceleft" unicode="{" horiz-adv-x="369" 
d="M169 199q0 -45 -19 -122t-19 -122q0 -78 79 -80q31 -1 34 -6q-2 -3 -12 -3q-64 0 -92 15q-42 23 -42 80q0 40 20 122t20 122q0 95 -117 96l5 8q85 9 117 37q44 38 60.5 151.5t39.5 152.5q46 76 174 76q4 0 6 -2l-8 -3q-83 0 -120 -43q-28 -31 -43 -104q-12 -55 -18 -89.5
t-7 -36.5q-17 -56 -61 -99.5t-100 -43.5q43 -6 73 -33.5t30 -72.5z" />
    <glyph glyph-name="bar" unicode="|" horiz-adv-x="250" 
d="M181 617v-16q-1 -7 -1 -15q0 -99 -34 -373.5t-59 -309.5q-14 -20 -28 -20q-1 0 -1 2t16 70q61 259 61 548q0 89 -6 135q-4 18 -8.5 36.5t-4.5 29.5t19 11q46 0 46 -98z" />
    <glyph glyph-name="braceright" unicode="}" horiz-adv-x="485" 
d="M284 718q5 3 7 4q60 0 87 -9q46 -16 46 -65t-31.5 -137.5t-31.5 -134.5q0 -69 110 -80l-7 -9q-126 -1 -171 -110l-63 -201q-53 -107 -199 -107q-4 0 -6 2q5 1 50.5 6t70.5 24q38 29 74.5 156.5t79.5 168.5q65 61 141 68q-45 3 -78 25.5t-33 66t29 130.5t29 132.5
t-32 56.5q-27 4 -70 11z" />
    <glyph glyph-name="asciitilde" unicode="~" horiz-adv-x="327" 
d="M303 457q-11 -15 -28.5 -28.5t-36.5 -13.5t-67 17.5t-70 17.5t-47 -28l-11 13q36 41 58 41t67 -18t68 -18t35 9l23 18z" />
    <glyph glyph-name="uni00A0" unicode="&#xa0;" horiz-adv-x="0" 
 />
    <glyph glyph-name="exclamdown" unicode="&#xa1;" horiz-adv-x="219" 
d="M159 196q0 -55 -61.5 -232t-97.5 -226q-13 -19 -32.5 -19t-19.5 15q0 6 6 16q51 82 110 212q66 148 80 235q1 7 8 7t7 -8zM178 360q13 12 21 12t15.5 -11t7.5 -24.5t-28.5 -32t-48.5 -18.5q-2 0 -3 1v2q0 5 8.5 21t12 27t15.5 23z" />
    <glyph glyph-name="cent" unicode="&#xa2;" horiz-adv-x="282" 
d="M334 689q4 0 4 -1.5t-2 -6.5q-64 -95 -103 -164q36 -17 36 -60q0 -15 -9.5 -40t-21.5 -25q-14 0 -14 14q18 37 18 62.5t-17 34.5q-88 -156 -129 -283q9 -4 24 -4q46 0 103 43q47 37 77 84q9 15 15 15q1 -1 1 -4.5t-8 -15.5q-32 -51 -98 -96.5t-122 -48.5
q-15 -56 -20 -122q0 -3 -14.5 -3t-14.5 6q0 43 25 121q-50 11 -50 77q0 81 57 167t125 86q6 0 13 -1q37 67 83 137q19 28 42 28zM199 504q-56 -10 -98 -78.5t-42 -119.5t18 -72q44 121 122 270z" />
    <glyph glyph-name="sterling" unicode="&#xa3;" horiz-adv-x="697" 
d="M596 408q21 42 21 90t-18 82q-21 44 -59 44q-56 0 -119 -93q-32 -46 -83.5 -147t-103.5 -196h64.5t111.5 -10q6 -2 6 -4q0 -5 -10 -5q-66 0 -188 -5q-72 -119 -148 -168q36 -6 104.5 -18t139.5 -23t168 -11q185 0 185 72q0 21 -20.5 50.5t-20.5 33t2 3.5q4 0 13 -10
q35 -32 35 -74t-52 -81.5t-98 -47.5q-27 -6 -57 -6q-81 0 -213 38l-209 60q-54 -28 -108 -28q-31 0 -31 13q0 7 22 7q128 0 245 188l-61 -3q-8 0 -19 7.5t-13 13.5q5 5 108 8q24 41 92.5 176t110.5 196q69 92 140 92q49 0 73.5 -41t24.5 -97t-22 -109q-1 -3 -7 -3t-6 6z" />
    <glyph glyph-name="currency" unicode="&#xa4;" horiz-adv-x="479" 
d="M354 365q29 -21 29 -60.5t-22 -70t-58 -47.5q48 -79 63 -96h-33q-4 13 -48 88q-29 -10 -64 -10t-58 11l-82 -90h-32l102 96q-35 22 -35 65q0 69 67 109l-53 81l29 9q4 -18 39 -82q39 17 78.5 17t65.5 -12q43 42 72 75l23 -9q-2 -2 -16 -14q-36 -31 -67 -60zM314 226.5
q31 28.5 31 63.5q0 70 -72 70q-52 0 -85 -26.5t-33 -61.5t20.5 -54.5t64 -19.5t74.5 28.5z" />
    <glyph glyph-name="yen" unicode="&#xa5;" horiz-adv-x="400" 
d="M187 215l-97 -5q-6 0 -19 7.5t-16 15.5l2 2q51 5 141 6q64 148 143 254q115 157 225 157q51 0 51 -44q0 -9 -5 -16q-4 46 -45 46q-105 0 -206 -152q-67 -100 -122 -245q169 -3 169 -15q0 -5 -11 -5q-80 0 -167 -4q-81 -222 -81 -342t61 -120q38 0 93 35
q-10 -18 -37.5 -32t-47.5 -14q-57 0 -90 54q-28 44 -28 107q0 102 87 310zM293 543v-4q0 -68 -57 -197q-4 -10 -11 -10q-4 0 -4 1.5t20 57t20 121.5v4q0 84 -50 84q-54 0 -149 -92q-6 -6 -12 -6t-6 5.5t11 19.5q33 42 85.5 79.5t91.5 37.5q61 0 61 -101z" />
    <glyph glyph-name="brokenbar" unicode="&#xa6;" horiz-adv-x="166" 
d="M89 439l-7 36q0 8 12 8q29 0 29 -64q0 -158 -11 -176q-3 -6 -12.5 -6t-9.5 6l4 105q0 64 -5 91zM105 193q0 -18 -18 -118t-24.5 -110.5t-15.5 -11.5l-2 1q30 124 34 172.5t7 66.5q1 4 10 4t9 -4z" />
    <glyph glyph-name="section" unicode="&#xa7;" horiz-adv-x="605" 
d="M610 504q0 -29 -28 -42t-51.5 -13t-23.5 4.5t18.5 4.5t35.5 14.5t17 36.5q0 32 -33 47q-23 11 -59 11q-58 0 -100.5 -33.5t-42.5 -90t55 -98.5l103 -75q56 -51 56 -127q0 -118 -118 -179q-30 -68 -103 -105t-153 -37t-133 38q-60 42 -60 118t48 130t121 54q38 0 38 -7
q0 -2 -24 -2q-67 0 -108 -41t-41 -109.5t45 -117.5t115 -49q51 0 108 27q116 54 116 172q0 68 -53 118q-76 55 -99 75q-54 44 -54 103q0 90 105 129q11 54 65 86t105.5 32t86.5 -16q46 -19 46 -58zM511 140q0 72 -56 118q-16 13 -50 38.5t-50 38.5q-50 42 -50 103v7
q-65 -35 -65 -106q0 -58 56 -99l103 -74q55 -51 55 -127q0 -21 -5 -46q62 51 62 147z" />
    <glyph glyph-name="dieresis" unicode="&#xa8;" horiz-adv-x="294" 
d="M267 465q0 -1 -15 -18q-8 -13 -14 -33q-10 -33 -30 -33q-6 0 -14 11q-7 11 -7 24.5t18 20.5q7 7 28.5 18.5t27 11.5t6.5 -1v-1zM133 465q0 -1 -15 -18q-8 -13 -14 -33q-10 -33 -30 -33q-6 0 -14 11q-7 11 -7 24.5t18 20.5q7 7 29 18.5t27 11.5t6 -1v-1z" />
    <glyph glyph-name="copyright" unicode="&#xa9;" horiz-adv-x="638" 
d="M581 364q0 -116 -122 -225.5t-242 -109.5q-71 0 -123.5 42.5t-52.5 113.5q0 117 125 227t244 110q71 0 121 -44t50 -114zM543 356q0 64 -40 105t-103 41q-113 0 -218 -103t-105 -215q0 -59 46.5 -96.5t107.5 -37.5q106 0 209 100t103 206zM471 410q0 -30 -18 -32l-5 4
l5 24q0 35 -36 35q-78 0 -165 -93q-87 -95 -87 -173q0 -48 48.5 -48t124.5 42t75 45q3 0 3 -3q0 -34 -80 -65t-118 -31t-60 15q-27 16 -27 49q0 92 98.5 181.5t192.5 89.5q49 0 49 -40z" />
    <glyph glyph-name="ordfeminine" unicode="&#xaa;" horiz-adv-x="264" 
d="M271 486q-54 -81 -85 -81t-31 49q0 18 6 45q-37 -85 -78 -85q-24 0 -24 32q0 51 49 106t99 55q24 0 24 -20q0 -25 -34 -50q-18 -42 -18 -82.5t15 -40.5q21 0 72 75q2 5 6 5l2 -2q0 -2 -3 -6zM203 557q9 13 9 26.5t-12 13.5q-31 0 -79 -59.5t-48 -90.5q0 -14 13 -14
q37 0 73 84q-10 -3 -14 -3t-4 2t27 16q2 10 13 27t18 17t7 -6t-3 -13z" />
    <glyph glyph-name="guillemotleft" unicode="&#xab;" horiz-adv-x="420" 
d="M130 283q97 -122 97 -134.5t-8 -12.5q-2 0 -10 4q-23 31 -57 59l-64 51q-3 2 -3 6q0 12 45 76.5t73 98.5q9 11 17.5 11t8.5 -6q0 -15 -99 -153zM270 283q98 -124 98 -135.5t-9 -11.5q-2 0 -10 4q-25 33 -46.5 50.5t-43 34.5t-28 22t-6.5 12t50 78.5t64 88t22 16.5t8 -6
q0 -15 -99 -153z" />
    <glyph glyph-name="logicalnot" unicode="&#xac;" horiz-adv-x="0" 
 />
    <glyph glyph-name="uni00AD" unicode="&#xad;" horiz-adv-x="298" 
d="M108 167.5q-3 -0.5 -5 -0.5h-4q-3 0 -10 9t-9 14l2 2q51 6 109 6t94 -11q3 -1 3 -5t-6 -4q-54 0 -93.5 -3.5t-47.5 -4t-14 -1t-11 -1t-8 -1z" />
    <glyph glyph-name="registered" unicode="&#xae;" horiz-adv-x="638" 
d="M581 364q0 -116 -122 -225.5t-242 -109.5q-71 0 -123.5 42.5t-52.5 113.5q0 117 125 227t244 110q71 0 121 -44t50 -114zM543 356q0 64 -40 105t-103 41q-110 0 -214 -98q90 35 169 35q48 0 84 -15q50 -21 50 -61q0 -50 -71 -79q-51 -21 -114 -23q13 -47 36 -85
q31 -51 68 -53q135 108 135 233zM464 370q0 57 -113 57q-33 0 -99 -19.5t-96 -35.5q-79 -94 -79 -188q0 -59 46.5 -96.5t116 -37.5t149.5 58q-37 9 -69 58.5t-46 97.5q-9 0 -12 3l11 4l7 5l9 -3q175 24 175 97zM150 76q-11 0 -11 40t75 149t122 156l22 -11q-4 -9 -56 -74
q-139 -175 -148 -249q-2 -11 -4 -11z" />
    <glyph glyph-name="macron" unicode="&#xaf;" horiz-adv-x="296" 
d="M49 443q8 8 94 8t110 -12q4 -1 4 -4.5t-18.5 -3.5t-78.5 -6t-90 -6q-4 0 -12 9t-9 15z" />
    <glyph glyph-name="degree" unicode="&#xb0;" horiz-adv-x="251" 
d="M218 448q0 -37 -26.5 -63.5t-63.5 -26.5t-63.5 26.5t-26.5 63t26 64.5q27 27 64.5 27t63.5 -27t26 -64zM128 395q22 0 37.5 16t15.5 37.5t-15 37.5q-16 16 -38 16t-37.5 -16t-15.5 -37t15 -38q16 -16 38 -16z" />
    <glyph glyph-name="plusminus" unicode="&#xb1;" horiz-adv-x="438" 
d="M235 290l-140 -5q-7 0 -11.5 7.5t-4.5 13.5l6 5q42 4 89 4h64q10 98 15 138q4 16 25 18l4 -5q-1 -40 -18 -151q80 -2 153 -7q5 -2 4.5 -4.5t-0.5 -5.5l-10 -6q-78 0 -151 -1q-12 -67 -30 -147q-3 -6 -7.5 -6t-4.5 12.5t17 139.5zM97 89q16 8 98.5 8t105.5 -12q3 -1 3 -3
q0 -5 -7 -5q-31 0 -92 -6t-90 -6q-5 0 -11.5 8.5t-6.5 15.5z" />
    <glyph glyph-name="twosuperior" unicode="&#xb2;" horiz-adv-x="422" 
d="M173 609l2 -17q0 -3 -1 -3q-11 0 -11 28q0 38 49 63t85 25t57.5 -14t21.5 -42q0 -56 -91 -122q-58 -42 -142 -82l108 -27q49 -12 75 -12q57 0 57 31q0 19 -19.5 33t-30.5 17.5t-13 5.5q0 2 4 2q22 0 44 -19t22 -42q0 -53 -84 -53q-44 0 -93 20l-87 37q-42 -18 -66.5 -18
t-24.5 20q0 25 35 25q18 0 54 -11q46 24 94.5 56.5t50.5 34.5q78 60 78 114q0 37 -43.5 37t-87 -24t-43.5 -63zM70 450q-24 0 -24 -13q0 -10 14 -10q4 0 43 17q-25 6 -33 6z" />
    <glyph glyph-name="threesuperior" unicode="&#xb3;" horiz-adv-x="422" 
d="M392 655q0 -57 -108 -76q100 -19 100 -80q0 -65 -87 -101q-66 -28 -129.5 -28t-102.5 14q-53 20 -53 61q0 25 23 39.5t48.5 14.5t25.5 -8q0 -4 -9 -4q-66 0 -66 -39q0 -36 33 -53.5t87 -17.5t117 28q80 36 80 94q0 67 -138 67q-8 0 -8 9t12 10l40 7q35 6 71 23
q48 23 48 48q0 18 -32.5 25.5t-62 7.5t-63 -10.5t-33.5 -35.5q0 -10 -8 -10q-11 0 -11 17q0 26 43 39t75.5 13t70 -13t37.5 -41z" />
    <glyph glyph-name="acute" unicode="&#xb4;" horiz-adv-x="152" 
d="M211 504q10 -7 10 -18q0 -15 -35 -31q-12 -6 -62 -38t-59 -32l-2 2q0 8 14 19q47 34 51 39q28 24 36 50q4 16 27 16q10 0 20 -7z" />
    <glyph glyph-name="mu" unicode="&#xb5;" horiz-adv-x="297" 
d="M319 57v-2q-35 -48 -77 -48t-42 74q0 30 5 85q-40 -78 -153 -161q-35 -84 -43 -111.5t-11 -35.5q-44 -124 -44 -210t58 -86q38 0 92 33q-10 -18 -38.5 -31.5t-47.5 -13.5q-48 0 -85.5 37.5t-37.5 87.5v3q0 64 59 191l62 134q39 83 60 144.5t21 122.5q-7 -21 -37 -72
q-48 -83 -53.5 -83t-5.5 4q2 4 5.5 9t6.5 11t9 17q54 90 71 155q6 26 24.5 26t18.5 -50t-26 -127q-12 -34 -43 -127q84 64 140 157q10 70 27 92q7 7 23 7t16 -11q0 -30 -19 -55q-22 -75 -22 -146q0 -48 30 -48q15 0 30.5 13t20 17t3.5 4q3 0 3 -6z" />
    <glyph glyph-name="paragraph" unicode="&#xb6;" horiz-adv-x="584" 
d="M727 673q0 -16 -19 -16q-58 0 -124 -98q-39 -58 -121.5 -230t-131.5 -241q-116 -164 -250 -164h-7q-70 -49 -147 -49q-33 0 -33 12q0 9 23 9q108 0 205 121q53 66 130 216q-62 5 -102 34q-45 35 -45 88.5t34 102.5q54 78 154.5 114t210.5 36q48 0 72 7q63 71 125 71
q26 0 26 -13zM546 575l-28 -1q-65 -46 -135 -176q-19 -35 -62 -119t-68 -129q-77 -142 -160 -211q85 7 162 98q49 58 104 167q21 40 53.5 111t42.5 93q51 108 91 167z" />
    <glyph glyph-name="periodcentered" unicode="&#xb7;" horiz-adv-x="152" 
d="M175 229q5 0 5 -8t-11 -44t-30 -36q-6 0 -14 11q-7 11 -7 24.5t18 20.5q29 32 39 32z" />
    <glyph glyph-name="cedilla" unicode="&#xb8;" horiz-adv-x="224" 
d="M173 -181q0 -47 -48.5 -73t-100.5 -26q-9 0 -9 11q0 5 9 8q48 8 72 11q35 11 35 58q0 13 -26 50.5t-26 56.5q0 35 19.5 61t50.5 26q11 0 12 -7q-22 -4 -34 -22t-12 -41q0 -11 29 -48.5t29 -64.5z" />
    <glyph glyph-name="onesuperior" unicode="&#xb9;" horiz-adv-x="321" 
d="M323 653q0 -10 -7 -17q-40 -45 -45 -50q-110 -133 -136 -271v-1h21q49 0 67 -3q4 0 4 -5.5t-5.5 -5.5t-10.5 1h-10q-27 0 -67 -6q1 -3 1 -9.5t-5 -6.5q-18 0 -24 12q-59 -10 -88 -10q-7 0 -7 14.5t4 14.5q19 0 90 3q6 59 49 123l100 162q-24 -11 -62 -43.5t-44 -32.5
t-6 3.5t8.5 12t109.5 97.5q40 35 49 35q14 0 14 -17z" />
    <glyph glyph-name="ordmasculine" unicode="&#xba;" horiz-adv-x="225" 
d="M212 521l2 11q0 22 -22 22q-8 -75 -35 -112h19q-8 -5 -12.5 -5t-5.5 1h-3q1 0 -1.5 -2t-7.5 -7q-31 -31 -53 -31t-22 34t28 72q-10 23 -10 49t10 45q20 38 49 38q37 0 43 -64q30 0 30 -31q0 -24 -7 -24q-2 0 -2 4zM149 623q-18 0 -32 -31.5t-14 -51.5t3 -30q39 51 76 61
q-12 52 -33 52zM183 555q-11 -1 -40.5 -24.5t-35.5 -35.5q13 -46 31 -50q14 14 29.5 51.5t15.5 58.5zM103 490q-20 -35 -20 -54t13 -19q18 0 40 25q-20 3 -33 48z" />
    <glyph glyph-name="guillemotright" unicode="&#xbb;" horiz-adv-x="420" 
d="M340 288q-98 125 -98 136t9 11q2 0 10 -4q23 -31 55 -57l66 -53q3 -1 3 -8.5t-50 -79t-64 -88t-22 -16.5t-8 6q0 15 99 153zM184 288q-98 125 -98 136t9 11q2 0 10 -4q23 -31 55 -57l66 -53q3 -1 3 -8.5t-50 -79t-64 -88t-22 -16.5t-8 6q0 15 99 153z" />
    <glyph glyph-name="onequarter" unicode="&#xbc;" horiz-adv-x="731" 
d="M556 225q30 0 58.5 -19.5t28.5 -53t-36.5 -51t-75.5 -17.5t-92 10q-28 -57 -34 -94q17 1 55 1t55 -3q5 -2 5 -6.5t-6 -4.5t-11 1h-10q-34 0 -92 -10t-91 -10q-7 0 -7 14.5t4 14.5t78 2q6 37 29 100q-79 19 -147 38q-39 -10 -63.5 -10t-24.5 19q0 17 40 17q20 0 60 -8
q89 31 231 187l43 47q11 12 26.5 12t15.5 -6q-51 -119 -56 -121l-11 -11l-75 -139q52 -7 83 -7t43 3q55 13 55 40q0 36 -58 55q-11 4 -19 5t-8 2q0 3 7 3zM735 710q0 -1 -5 -6q-218 -175 -383 -343q-234 -237 -308 -398q-15 -34 -27 -79q-1 -1 -3.5 -1t-10 7.5t-7.5 15
t13 39.5q51 124 241 338q132 149 298 304q51 48 126 109q28 19 47 19t19 -5zM18 324l90 2q5 57 48 124l101 161q-23 -9 -61 -42.5t-44.5 -33.5t-6.5 3.5t6 9.5q7 6 21.5 19.5t41 36.5t58 51t40.5 28q14 0 14 -17q0 -10 -6 -16q-22 -22 -46 -51q-110 -133 -136 -271v-1h21
q51 0 67 -3q5 -2 5 -6t-6 -4h-10q-5 1 -21 1t-56 -6v-8q0 -9 -5 -9q-19 0 -23 12q-60 -10 -89 -10q-7 0 -7 15t4 15zM500 288q-112 -100 -204 -138q56 -13 130 -23q30 75 74 161zM251 145q-21 10 -41.5 10t-20.5 -10q0 -6 20.5 -6t41.5 6z" />
    <glyph glyph-name="onehalf" unicode="&#xbd;" horiz-adv-x="665" 
d="M311 32q171 -48 222 -48q26 0 44 7q27 11 27 32t-25 39t-39 22t-14 5t5 3q29 0 55 -24t26 -55t-36 -47q-26 -13 -72.5 -13t-106.5 25q-20 9 -107 44q-51 -21 -81 -21t-30 24q0 30 43 30q27 0 66 -13q99 52 185.5 118.5t86.5 131.5q0 45 -53 45t-106.5 -30.5t-53.5 -75.5
l3 -21q0 -4 -1 -4q-5 0 -9.5 15.5t-4.5 19.5q0 46 59 76t102.5 30t71 -16.5t27.5 -51.5q0 -67 -111 -148q-74 -55 -173 -99zM735 710q0 -1 -5 -6q-218 -175 -383 -343q-234 -237 -308 -398q-15 -34 -27 -79q-1 -1 -3.5 -1t-10 7.5t-7.5 15t13 39.5q51 124 241 338
q132 149 298 304q51 48 126 109q28 19 47 19t19 -5zM302 670q14 0 14 -14t-6 -20q-40 -45 -45 -50q-111 -137 -137 -271v-1h21q51 0 67 -3q5 -2 5 -5q0 -6 -5.5 -6t-10.5 1h-11q-26 0 -66 -6v-7q0 -9 -4 -9q-20 0 -24 12q-60 -10 -89 -10q-7 0 -7 14.5t4 14.5q20 0 90 3
q5 54 42 112q0 1 7 11.5t23 36.5l77 125q-24 -11 -61.5 -43.5t-44 -32.5t-6.5 4t6 9t112 100q40 35 49 35zM222 37q-29 0 -29 -16q0 -11 15.5 -11t29.5 7q10 7 25 13q-29 7 -41 7z" />
    <glyph glyph-name="threequarters" unicode="&#xbe;" horiz-adv-x="750" 
d="M605 225q30 0 58.5 -19.5t28.5 -53t-36 -51t-75.5 -17.5t-92.5 10q-28 -57 -34 -94q17 1 55.5 1t54.5 -3q4 -1 4 -6t-5.5 -5t-10.5 1h-10q-33 0 -92 -10t-91 -10q-7 0 -7 14.5t4 14.5t78 2q6 37 29 100q-79 19 -147 38q-39 -10 -63.5 -10t-24.5 19q0 17 40 17q20 0 60 -8
q87 31 230 187l44 47q10 12 26 12t16 -6q-51 -119 -56 -121l-11 -11q-14 -28 -23.5 -44.5t-51.5 -94.5q52 -7 83 -7t43 3q55 13 55 40q0 36 -58 55q-11 4 -24 5l-3 2q0 3 7 3zM781 717q-218 -175 -383 -343q-232 -233 -307 -397q-14 -33 -21 -57t-8 -24q-4 0 -12 8t-8 14
t14 40q51 125 240 338q217 245 424 413q26 20 46 20t20 -3.5t-5 -8.5zM392 655q0 -57 -108 -76q100 -19 100 -80q0 -65 -87 -101q-66 -28 -129.5 -28t-102.5 14q-53 20 -53 61q0 25 23 39.5t48.5 14.5t25.5 -8q0 -4 -9 -4q-66 0 -66 -39q0 -36 33 -53.5t87 -17.5t117 28
q80 36 80 94q0 67 -138 67q-8 0 -8 9t12 10l40 7q35 6 71 23q48 23 48 48q0 18 -32.5 25.5t-62 7.5t-63 -10.5t-33.5 -35.5q0 -10 -8 -10q-11 0 -11 17q0 26 43 39t75.5 13t70 -13t37.5 -41zM549 288q-113 -100 -204 -138q58 -13 129 -23q27 66 75 161zM300 145
q-21 10 -41.5 10t-20.5 -10q0 -6 20.5 -6t41.5 6z" />
    <glyph glyph-name="questiondown" unicode="&#xbf;" horiz-adv-x="528" 
d="M453 -159q0 -15 -12 -46q-29 -69 -107.5 -114t-149.5 -45t-121 38.5t-50 104.5q0 101 117 174q8 5 74 41q211 114 211 178q0 14 -9 24l-9 11q0 10 11 10q2 0 3 -1q22 -18 22 -42q0 -41 -53 -91t-128 -98l-106 -66q-115 -73 -115 -158q0 -55 46.5 -85t112 -30t128 40.5
t88.5 106.5q10 24 10 40q0 32 -37 32t-95 -24l-23 -9q-2 0 -2 3.5t2 5.5q19 19 62.5 31.5t71.5 12.5q58 0 58 -44zM402 292l15 18q8 13 14 33q11 33 30 33q6 0 13.5 -11t7.5 -24t-18 -21q-7 -7 -28.5 -18.5t-26.5 -11.5t-7 2z" />
    <glyph glyph-name="Agrave" unicode="&#xc0;" 
d="M419 156l26 1h5q7 0 7 -3q0 -10 -18 -11q-144 -10 -170 -14q-120 -150 -233 -234q27 -13 89 -24q9 -1 9 -6t-10 -5q-40 0 -98 27q-98 -70 -170 -70q-46 0 -46 29q0 21 12 30q-3 -9 -3 -19q0 -27 38 -27q66 0 152 65q-10 5 -31 19q-68 -49 -108 -49q-7 0 -7 4q0 7 10 8
q50 17 93 48q-30 29 -30 60q0 57 91 103q60 31 141 47q139 183 213 376q4 9 34 108q1 7 8 7q1 -1 1 -2q0 -80 -90 -251q-66 -127 -143 -234l48 5q66 90 145.5 239t79.5 223q0 46 -41 52q-9 2 -9 7t11 5q36 0 57 -23q20 -25 20 -61q0 -81 -79 -227q-56 -101 -139 -211
q88 8 135 8zM712 -26q0 -16 -22 -45.5t-41 -40t-47 -10.5t-66 30.5t-56.5 71t-18.5 116t15 203t17 158t8 30.5q9 0 10 -21v-159q0 -264 43 -360q26 -59 60 -59q45 0 98 86zM222 122q-23 -5 -54 -14q-87 -112 -175 -182q9 -12 27 -23q92 73 202 219zM142 100
q-162 -64 -162 -136q0 -12 5 -25q76 61 157 161zM563 694q14 -11 14 -15.5t-2 -4.5q-10 0 -54 28q-58 37 -68 42q-34 19 -34 32q0 9 10.5 16.5t18.5 7.5q24 0 28 -16q8 -26 36 -51q4 -5 51 -39z" />
    <glyph glyph-name="Aacute" unicode="&#xc1;" 
d="M419 156l26 1h5q7 0 7 -3q0 -10 -18 -11q-144 -10 -170 -14q-120 -150 -233 -234q27 -13 89 -24q9 -1 9 -6t-10 -5q-40 0 -98 27q-98 -70 -170 -70q-46 0 -46 29q0 21 12 30q-3 -9 -3 -19q0 -27 38 -27q66 0 152 65q-10 5 -31 19q-68 -49 -108 -49q-7 0 -7 4q0 7 10 8
q50 17 93 48q-30 29 -30 60q0 57 91 103q60 31 141 47q139 183 213 376q4 9 34 108q1 7 8 7q1 -1 1 -2q0 -80 -90 -251q-66 -127 -143 -234l48 5q66 90 145.5 239t79.5 223q0 46 -41 52q-9 2 -9 7t11 5q36 0 57 -23q20 -25 20 -61q0 -81 -79 -227q-56 -101 -139 -211
q88 8 135 8zM712 -26q0 -16 -22 -45.5t-41 -40t-47 -10.5t-66 30.5t-56.5 71t-18.5 116t15 203t17 158t8 30.5q9 0 10 -21v-159q0 -264 43 -360q26 -59 60 -59q45 0 98 86zM222 122q-23 -5 -54 -14q-87 -112 -175 -182q9 -12 27 -23q92 73 202 219zM142 100
q-162 -64 -162 -136q0 -12 5 -25q76 61 157 161zM629 793q10 -7 10 -17q0 -14 -47 -38q-100 -64 -109 -64l-2 2q0 8 14 19q47 35 51 39q28 24 36 50q4 16 27 16q10 0 20 -7z" />
    <glyph glyph-name="Acircumflex" unicode="&#xc2;" 
d="M419 156l26 1h5q7 0 7 -3q0 -10 -18 -11q-144 -10 -170 -14q-120 -150 -233 -234q27 -13 89 -24q9 -1 9 -6t-10 -5q-40 0 -98 27q-98 -70 -170 -70q-46 0 -46 29q0 21 12 30q-3 -9 -3 -19q0 -27 38 -27q66 0 152 65q-10 5 -31 19q-68 -49 -108 -49q-7 0 -7 4q0 7 10 8
q50 17 93 48q-30 29 -30 60q0 57 91 103q60 31 141 47q139 183 213 376q4 9 34 108q1 7 8 7q1 -1 1 -2q0 -80 -90 -251q-66 -127 -143 -234l48 5q66 90 145.5 239t79.5 223q0 46 -41 52q-9 2 -9 7t11 5q36 0 57 -23q20 -25 20 -61q0 -81 -79 -227q-56 -101 -139 -211
q88 8 135 8zM712 -26q0 -16 -22 -45.5t-41 -40t-47 -10.5t-66 30.5t-56.5 71t-18.5 116t15 203t17 158t8 30.5q9 0 10 -21v-159q0 -264 43 -360q26 -59 60 -59q45 0 98 86zM616 673q-14 0 -45.5 23t-44 34t-21 20t-10.5 11q-121 -84 -134 -84q-7 0 -4 10q2 11 64 54
t74.5 49.5t19 6.5t13.5 -9q35 -45 95 -98q7 -5 7 -11t-14 -6zM222 122q-23 -5 -54 -14q-87 -112 -175 -182q9 -12 27 -23q92 73 202 219zM142 100q-162 -64 -162 -136q0 -12 5 -25q76 61 157 161z" />
    <glyph glyph-name="Atilde" unicode="&#xc3;" 
d="M419 156l26 1h5q7 0 7 -3q0 -10 -18 -11q-144 -10 -170 -14q-120 -150 -233 -234q27 -13 89 -24q9 -1 9 -6t-10 -5q-40 0 -98 27q-98 -70 -170 -70q-46 0 -46 29q0 21 12 30q-3 -9 -3 -19q0 -27 38 -27q66 0 152 65q-10 5 -31 19q-68 -49 -108 -49q-7 0 -7 4q0 7 10 8
q50 17 93 48q-30 29 -30 60q0 57 91 103q60 31 141 47q139 183 213 376q4 9 34 108q1 7 8 7q1 -1 1 -2q0 -80 -90 -251q-66 -127 -143 -234l48 5q66 90 145.5 239t79.5 223q0 46 -41 52q-9 2 -9 7t11 5q36 0 57 -23q20 -25 20 -61q0 -81 -79 -227q-56 -101 -139 -211
q88 8 135 8zM712 -26q0 -16 -22 -45.5t-41 -40t-47 -10.5t-66 30.5t-56.5 71t-18.5 116t15 203t17 158t8 30.5q9 0 10 -21v-159q0 -264 43 -360q26 -59 60 -59q45 0 98 86zM222 122q-23 -5 -54 -14q-87 -112 -175 -182q9 -12 27 -23q92 73 202 219zM615 785q0 -17 -20.5 -34
t-49 -17t-49.5 9t-39 17q-33 16 -43 16q-32 0 -50 -27q-4 -5 -7 -2.5t-3 6.5q0 21 18 34t47 13t51 -9t35.5 -15t19.5 -8q18 -8 31 -8q25 0 52 27q2 3 4.5 1.5t2.5 -3.5zM142 100q-162 -64 -162 -136q0 -12 5 -25q76 61 157 161z" />
    <glyph glyph-name="Adieresis" unicode="&#xc4;" 
d="M419 156l26 1h5q7 0 7 -3q0 -10 -18 -11q-144 -10 -170 -14q-120 -150 -233 -234q27 -13 89 -24q9 -1 9 -6t-10 -5q-40 0 -98 27q-98 -70 -170 -70q-46 0 -46 29q0 21 12 30q-3 -9 -3 -19q0 -27 38 -27q66 0 152 65q-10 5 -31 19q-68 -49 -108 -49q-7 0 -7 4q0 7 10 8
q50 17 93 48q-30 29 -30 60q0 57 91 103q60 31 141 47q139 183 213 376q4 9 34 108q1 7 8 7q1 -1 1 -2q0 -80 -90 -251q-66 -127 -143 -234l48 5q66 90 145.5 239t79.5 223q0 46 -41 52q-9 2 -9 7t11 5q36 0 57 -23q20 -25 20 -61q0 -81 -79 -227q-56 -101 -139 -211
q88 8 135 8zM712 -26q0 -16 -22 -45.5t-41 -40t-47 -10.5t-66 30.5t-56.5 71t-18.5 116t15 203t17 158t8 30.5q9 0 10 -21v-159q0 -264 43 -360q26 -59 60 -59q45 0 98 86zM222 122q-23 -5 -54 -14q-87 -112 -175 -182q9 -12 27 -23q92 73 202 219zM142 100
q-162 -64 -162 -136q0 -12 5 -25q76 61 157 161zM601 798q0 -1 -15 -18q-8 -13 -14 -33q-10 -33 -30 -33q-6 0 -14 11q-7 11 -7 24t18 21q7 7 29 18.5t27 11.5t6 -1v-1zM467 798q0 -1 -15 -18q-8 -13 -14 -33q-10 -33 -30 -33q-6 0 -14 11q-7 11 -7 24t18 21q7 7 29 18.5
t27 11.5t6 -1v-1z" />
    <glyph glyph-name="Aring" unicode="&#xc5;" 
d="M419 156l26 1h5q7 0 7 -3q0 -10 -18 -11q-144 -10 -170 -14q-120 -150 -233 -234q27 -13 89 -24q9 -1 9 -6t-10 -5q-40 0 -98 27q-98 -70 -170 -70q-46 0 -46 29q0 21 12 30q-3 -9 -3 -19q0 -27 38 -27q66 0 152 65q-10 5 -31 19q-68 -49 -108 -49q-7 0 -7 4q0 7 10 8
q50 17 93 48q-30 29 -30 60q0 57 91 103q60 31 141 47q139 183 213 376q4 9 34 108q1 7 8 7q1 -1 1 -2q0 -80 -90 -251q-66 -127 -143 -234l48 5q66 90 145.5 239t79.5 223q0 46 -41 52q-9 2 -9 7t15.5 5t29.5 -7q-6 9 -6 28t11 43t28 29q16 33 51 33q19 0 31 -16t12 -36
q0 -37 -28 -66t-64 -29q-11 0 -15 1q23 -23 23 -64q0 -81 -79 -227q-56 -101 -139 -211q88 8 135 8zM712 -26q0 -16 -22 -45.5t-41 -40t-47 -10.5t-66 30.5t-56.5 71t-18.5 116t15 203t17 158t8 30.5q9 0 10 -21v-159q0 -264 43 -360q26 -59 60 -59q45 0 98 86zM222 122
q-23 -5 -54 -14q-87 -112 -175 -182q9 -12 27 -23q92 73 202 219zM142 100q-162 -64 -162 -136q0 -12 5 -25q76 61 157 161zM505 668q23 0 40 25t17 54.5t-22 29.5q-12 0 -29 -13l11 -5q-2 -5 -17 -28t-15 -43t15 -20z" />
    <glyph glyph-name="AE" unicode="&#xc6;" horiz-adv-x="895" 
d="M615 586q0 -4 -9 -30q134 -3 260 -37l16 -6q10 24 12.5 42t4.5 24q1 6 7 6q3 0 3 -19.5t-8 -67.5q1 -1 1 -3t-2 -6q-12 -54 -26 -73t-36 -19q-7 0 -23 8q-14 8 -14 15q0 2 17 5q30 5 52 57q-16 0 -38 6q-103 31 -235 37q-13 -47 -25 -127q-18 -130 -27 -174l15 3
q163 27 227 27q2 0 2 -2q0 -10 -17 -18q-45 -20 -235 -47q-35 -156 -119 -208h6q98 -5 132 -5q150 0 219.5 27.5t69.5 69.5q0 19 -16.5 44.5t-16.5 28.5q0 7 7 7q19 0 31 -33q12 -27 12 -50q0 -78 -90 -114q-42 -17 -114.5 -17t-172.5 13l-103 13q-27 -9 -60 -9t-33 14
q0 2 1 3h-3q-9 0 -9 7q0 5 26 5t53 -1q71 23 108 118q10 23 23 81q-114 -13 -141 -13t-48 1q-148 -187 -263 -274q27 -13 89 -24q9 -1 9 -6t-10 -5q-40 0 -98 27q-98 -70 -170 -70q-46 0 -46 29q0 21 12 30q-3 -9 -3 -19q0 -27 38 -27q66 0 152 65q-10 5 -31 19
q-68 -49 -108 -49q-7 0 -7 4q0 7 10 8q50 17 93 48q-21 21 -21 53q0 52 49 104q43 42 94 64t114 34q122 162 182 333q-7 3 -7 8.5t13 9.5q13 41 25 88q1 7 8 7q3 -3 1 -5q-6 -41 -18 -85q26 8 54 12q8 32 8 53q0 49 -45 57q-9 2 -9 7t12 5t29 -6q54 -16 54 -81q0 -13 -3 -30
l56 3q7 18 16 31.5t23 13.5t14 -15zM549 526q-17 0 -49 -2q-18 -65 -66 -154t-117 -176q52 3 179 22q12 71 24 159.5t32 150.5h-3zM406 511h-7q-48 -156 -175 -328q24 5 49 6q63 89 113 185t66 145q-37 -8 -46 -8zM256 166q-34 -7 -54 -13q-125 -162 -209 -227q9 -12 27 -23
q98 78 236 263zM-18 -46q0 -8 3 -15q68 55 191 205q-106 -35 -161 -110q-33 -46 -33 -80z" />
    <glyph glyph-name="Ccedilla" unicode="&#xc7;" horiz-adv-x="681" 
d="M430 642l-2 58q0 8 5 8q2 0 7 -17t5 -54t-1 -51q40 8 72 8q90 0 140 -47q56 -50 56 -135v-4q0 -17 -14 -17q-8 0 -18 6q-68 41 -125 71.5t-117 49.5q-16 -139 -54 -292q-46 -173 -97 -280q8 -1 26 -1q109 0 221 56.5t169 145.5l9 12q1 -1 1 -6t-3 -11q-58 -100 -192 -169
q-119 -58 -231 -64q-40 -13 -40 -62q0 -11 29 -48.5t29 -64.5q0 -47 -48.5 -73t-100.5 -26q-9 0 -9 11q0 5 9 8q48 8 72 11q35 11 35 58q0 13 -25.5 49t-26.5 55q-33 -35 -64 -35q-9 0 -9 6t6 7l19 4q23 9 48 35q3 27 19 46q8 12 18 18q-95 4 -154.5 57.5t-59.5 164t86 233
t200 180.5q-27 3 -54.5 3t-76 -11.5t-87.5 -34.5q-58 -34 -58 -76q0 -5 1 -8v-8q0 -13 -9 -13q-12 0 -18 16q-8 18 -8 30q0 59 106 91q78 23 155 23q21 0 63 -5q56 24 95 33q1 21 1 59zM89 150q0 -90 50 -141q50 -55 138 -62q55 112 94 270t54 305q-39 11 -86 19
q-109 -52 -178 -161q-72 -111 -72 -230zM673 446q7 0 7 10t-6 24q-26 45 -82 67t-114 22q-12 0 -36 -2l-3 -34q116 -24 221 -82q10 -5 13 -5zM427 566q-42 -7 -72 -19q69 -11 71 -11q1 10 1 30z" />
    <glyph glyph-name="Egrave" unicode="&#xc8;" horiz-adv-x="931" 
d="M445 625l-2 55q0 7 4 7q1 0 3 -5q6 -35 6 -65.5v-43.5q85 -12 168 -30q81 105 159.5 105t78.5 -61q0 -11 -4.5 -11t-4.5 9q0 24 -19 34q-16 10 -40 10q-64 0 -128 -93q175 -35 232 -35q123 0 123 53q0 9 -4 14q-3 8 -3 9.5t2 1.5q9 0 14 -16.5t5 -25.5q0 -69 -111 -69
q-63 0 -272 46q-34 -57 -124 -243q41 13 136 13t162 -23q5 -2 5 -4.5t-5 -2.5l-72 5q-85 0 -145 -12q-109 -19 -109 -67q0 -6 5 -19v-1q-11 0 -21 24q-58 -109 -115 -175q113 -34 217.5 -64t172 -30t104.5 17q51 22 51 68q0 34 -30 83l-29 48q0 1 2.5 1t9.5 -7
q62 -51 62 -118t-46.5 -104.5t-114.5 -37.5t-204.5 52.5t-206.5 78.5q-100 -109 -223 -109q-40 0 -83 23.5t-43 66.5t43 64t90.5 21t116.5 -21q75 85 124.5 232.5t59.5 281.5q-69 8 -111 8q-181 0 -181 -124q0 -82 94 -148q5 -2 5 -5t-3 -3t-7 2q-126 72 -126 172
q0 56 47 90q50 38 153 38q45 0 130 -10q2 34 2 50zM609 523q-67 15 -154 30q-7 -131 -54 -278.5t-125 -239.5l43 -13q46 46 117 188q10 20 37 75q80 163 136 238zM121 -52q-19 0 -19 7q0 5 17 5q65 0 130 70q-54 17 -99.5 17t-76.5 -14q-42 -19 -42 -55t32 -54
q28 -17 69 -17t96 32t85 71l-46 15q-70 -77 -146 -77zM896 694q14 -11 14 -15.5t-2 -4.5q-10 0 -54 28q-58 37 -68 42q-34 19 -34 32q0 9 10.5 16.5t18.5 7.5q24 0 28 -16q7 -26 36 -51q5 -5 51 -39z" />
    <glyph glyph-name="Eacute" unicode="&#xc9;" horiz-adv-x="931" 
d="M445 625l-2 55q0 7 4 7q1 0 3 -5q6 -35 6 -65.5v-43.5q85 -12 168 -30q81 105 159.5 105t78.5 -61q0 -11 -4.5 -11t-4.5 9q0 24 -19 34q-16 10 -40 10q-64 0 -128 -93q175 -35 232 -35q123 0 123 53q0 9 -4 14q-3 8 -3 9.5t2 1.5q9 0 14 -16.5t5 -25.5q0 -69 -111 -69
q-63 0 -272 46q-34 -57 -124 -243q41 13 136 13t162 -23q5 -2 5 -4.5t-5 -2.5l-72 5q-85 0 -145 -12q-109 -19 -109 -67q0 -6 5 -19v-1q-11 0 -21 24q-58 -109 -115 -175q113 -34 217.5 -64t172 -30t104.5 17q51 22 51 68q0 34 -30 83l-29 48q0 1 2.5 1t9.5 -7
q62 -51 62 -118t-46.5 -104.5t-114.5 -37.5t-204.5 52.5t-206.5 78.5q-100 -109 -223 -109q-40 0 -83 23.5t-43 66.5t43 64t90.5 21t116.5 -21q75 85 124.5 232.5t59.5 281.5q-69 8 -111 8q-181 0 -181 -124q0 -82 94 -148q5 -2 5 -5t-3 -3t-7 2q-126 72 -126 172
q0 56 47 90q50 38 153 38q45 0 130 -10q2 34 2 50zM609 523q-67 15 -154 30q-7 -131 -54 -278.5t-125 -239.5l43 -13q46 46 117 188q10 20 37 75q80 163 136 238zM121 -52q-19 0 -19 7q0 5 17 5q65 0 130 70q-54 17 -99.5 17t-76.5 -14q-42 -19 -42 -55t32 -54
q28 -17 69 -17t96 32t85 71l-46 15q-70 -77 -146 -77zM869 793q10 -7 10 -17q0 -14 -47 -38q-100 -64 -109 -64l-2 2q0 8 14 19q47 35 51 39q28 24 36 50q4 16 27 16q10 0 20 -7z" />
    <glyph glyph-name="Ecircumflex" unicode="&#xca;" horiz-adv-x="931" 
d="M445 625l-2 55q0 7 4 7q1 0 3 -5q6 -35 6 -65.5v-43.5q85 -12 168 -30q81 105 159.5 105t78.5 -61q0 -11 -4.5 -11t-4.5 9q0 24 -19 34q-16 10 -40 10q-64 0 -128 -93q175 -35 232 -35q123 0 123 53q0 9 -4 14q-3 8 -3 9.5t2 1.5q9 0 14 -16.5t5 -25.5q0 -69 -111 -69
q-63 0 -272 46q-34 -57 -124 -243q41 13 136 13t162 -23q5 -2 5 -4.5t-5 -2.5l-72 5q-85 0 -145 -12q-109 -19 -109 -67q0 -6 5 -19v-1q-11 0 -21 24q-58 -109 -115 -175q113 -34 217.5 -64t172 -30t104.5 17q51 22 51 68q0 34 -30 83l-29 48q0 1 2.5 1t9.5 -7
q62 -51 62 -118t-46.5 -104.5t-114.5 -37.5t-204.5 52.5t-206.5 78.5q-100 -109 -223 -109q-40 0 -83 23.5t-43 66.5t43 64t90.5 21t116.5 -21q75 85 124.5 232.5t59.5 281.5q-69 8 -111 8q-181 0 -181 -124q0 -82 94 -148q5 -2 5 -5t-3 -3t-7 2q-126 72 -126 172
q0 56 47 90q50 38 153 38q45 0 130 -10q2 34 2 50zM609 523q-67 15 -154 30q-7 -131 -54 -278.5t-125 -239.5l43 -13q46 46 117 188q10 20 37 75q80 163 136 238zM121 -52q-19 0 -19 7q0 5 17 5q65 0 130 70q-54 17 -99.5 17t-76.5 -14q-42 -19 -42 -55t32 -54
q28 -17 69 -17t96 32t85 71l-46 15q-70 -77 -146 -77zM939 671q-14 0 -45.5 23t-44 34t-21 20t-10.5 11q-122 -84 -134 -84q-5 0 -5 3.5t1 6.5q2 11 64 54t74.5 49.5t19 6.5t13.5 -9q35 -45 95 -98q7 -5 7 -11t-14 -6z" />
    <glyph glyph-name="Edieresis" unicode="&#xcb;" horiz-adv-x="931" 
d="M445 625l-2 55q0 7 4 7q1 0 3 -5q6 -35 6 -65.5v-43.5q85 -12 168 -30q81 105 159.5 105t78.5 -61q0 -11 -4.5 -11t-4.5 9q0 24 -19 34q-16 10 -40 10q-64 0 -128 -93q175 -35 232 -35q123 0 123 53q0 9 -4 14q-3 8 -3 9.5t2 1.5q9 0 14 -16.5t5 -25.5q0 -69 -111 -69
q-63 0 -272 46q-34 -57 -124 -243q41 13 136 13t162 -23q5 -2 5 -4.5t-5 -2.5l-72 5q-85 0 -145 -12q-109 -19 -109 -67q0 -6 5 -19v-1q-11 0 -21 24q-58 -109 -115 -175q113 -34 217.5 -64t172 -30t104.5 17q51 22 51 68q0 34 -30 83l-29 48q0 1 2.5 1t9.5 -7
q62 -51 62 -118t-46.5 -104.5t-114.5 -37.5t-204.5 52.5t-206.5 78.5q-100 -109 -223 -109q-40 0 -83 23.5t-43 66.5t43 64t90.5 21t116.5 -21q75 85 124.5 232.5t59.5 281.5q-69 8 -111 8q-181 0 -181 -124q0 -82 94 -148q5 -2 5 -5t-3 -3t-7 2q-126 72 -126 172
q0 56 47 90q50 38 153 38q45 0 130 -10q2 34 2 50zM609 523q-67 15 -154 30q-7 -131 -54 -278.5t-125 -239.5l43 -13q46 46 117 188q10 20 37 75q80 163 136 238zM121 -52q-19 0 -19 7q0 5 17 5q65 0 130 70q-54 17 -99.5 17t-76.5 -14q-42 -19 -42 -55t32 -54
q28 -17 69 -17t96 32t85 71l-46 15q-70 -77 -146 -77zM913 798q0 -1 -15 -18q-8 -13 -14 -33q-10 -33 -30 -33q-6 0 -14 11q-7 11 -7 24t18 21q7 7 29 18.5t27 11.5t6 -1v-1zM779 798q0 -1 -15 -18q-8 -13 -14 -33q-10 -33 -30 -33q-6 0 -14 11q-7 11 -7 24t18 21
q7 7 29 18.5t27 11.5t6 -1v-1z" />
    <glyph glyph-name="Igrave" unicode="&#xcc;" horiz-adv-x="631" 
d="M214 176l-92 -3q-18 0 -24 1q1 -1 1 -6.5t-6 -18.5q-37 -74 -37 -137.5t32 -99.5q34 -41 91 -41q103 0 210 156q121 179 211 457q20 57 20 64.5t-1 7.5q-11 0 -82 -40q-25 -157 -96 -320q-85 -195 -193 -265q-47 -32 -84 -32q-8 0 -8 6t10 7.5t43 11.5q83 38 163 173
q107 181 148 409q-48 -29 -81 -60q-26 -27 -48.5 -68.5t-22.5 -63t15 -31.5q5 -3 5 -5t-11 -2t-25 15q-13 16 -13 33q0 50 69 116q52 47 115 85q14 84 14 168q0 6 5 8q5 -3 5 -52.5t-8 -113.5q73 41 109 41q17 0 17 -16q0 -30 -23 -114q-83 -285 -233 -457
q-110 -131 -233 -131q-73 0 -107 50t-34 124.5t23 118.5q3 5 3 8t-19 6.5t-19 10.5q0 10 17 18q14 8 25 8l20 -2l140 6q47 0 69 -6q39 -10 39 -46q0 -26 -32 -45q-4 0 -4 2q0 4 11 15q10 15 10 16q0 34 -104 34zM718 694q14 -11 14 -15.5t-2 -4.5q-10 0 -54 28
q-62 40 -71 44q-31 16 -31 30q0 9 10.5 16.5t18.5 7.5q24 0 28 -16q7 -26 36 -51q5 -5 51 -39z" />
    <glyph glyph-name="Iacute" unicode="&#xcd;" horiz-adv-x="631" 
d="M214 176l-92 -3q-18 0 -24 1q1 -1 1 -6.5t-6 -18.5q-37 -74 -37 -137.5t32 -99.5q34 -41 91 -41q103 0 210 156q121 179 211 457q20 57 20 64.5t-1 7.5q-11 0 -82 -40q-25 -157 -96 -320q-85 -195 -193 -265q-47 -32 -84 -32q-8 0 -8 6t10 7.5t43 11.5q83 38 163 173
q107 181 148 409q-48 -29 -81 -60q-26 -27 -48.5 -68.5t-22.5 -63t15 -31.5q5 -3 5 -5t-11 -2t-25 15q-13 16 -13 33q0 50 69 116q52 47 115 85q14 84 14 168q0 6 5 8q5 -3 5 -52.5t-8 -113.5q73 41 109 41q17 0 17 -16q0 -30 -23 -114q-83 -285 -233 -457
q-110 -131 -233 -131q-73 0 -107 50t-34 124.5t23 118.5q3 5 3 8t-19 6.5t-19 10.5q0 10 17 18q14 8 25 8l20 -2l140 6q47 0 69 -6q39 -10 39 -46q0 -26 -32 -45q-4 0 -4 2q0 4 11 15q10 15 10 16q0 34 -104 34zM721 793q10 -7 10 -17q0 -14 -47 -38q-100 -64 -109 -64l-2 2
q0 8 14 19q47 35 51 39q28 24 36 50q4 16 27 16q10 0 20 -7z" />
    <glyph glyph-name="Icircumflex" unicode="&#xce;" horiz-adv-x="631" 
d="M214 176l-92 -3q-18 0 -24 1q1 -1 1 -6.5t-6 -18.5q-37 -74 -37 -137.5t32 -99.5q34 -41 91 -41q103 0 210 156q121 179 211 457q20 57 20 64.5t-1 7.5q-11 0 -82 -40q-25 -157 -96 -320q-85 -195 -193 -265q-47 -32 -84 -32q-8 0 -8 6t10 7.5t43 11.5q83 38 163 173
q107 181 148 409q-48 -29 -81 -60q-26 -27 -48.5 -68.5t-22.5 -63t15 -31.5q5 -3 5 -5t-11 -2t-25 15q-13 16 -13 33q0 50 69 116q52 47 115 85q13 77 14 151h-3q-7 0 -6 7q3 11 14 18v-1q17 16 66 50q67 46 76.5 46t16.5 -9q35 -45 95 -98q7 -5 7 -11t-14 -6t-45.5 23
t-44 34t-21 20t-10.5 11q-92 -64 -122 -80l1 -35q0 -46 -8 -110q73 41 109 41q17 0 17 -16q0 -30 -23 -114q-83 -285 -233 -457q-110 -131 -233 -131q-73 0 -107 50t-34 124.5t23 118.5q3 5 3 8t-19 6.5t-19 10.5q0 10 17 18q14 8 25 8l20 -2l140 6q47 0 69 -6
q39 -10 39 -46q0 -26 -32 -45q-4 0 -4 2q0 4 11 15q10 15 10 16q0 34 -104 34z" />
    <glyph glyph-name="Idieresis" unicode="&#xcf;" horiz-adv-x="631" 
d="M214 176l-92 -3q-18 0 -24 1q1 -1 1 -6.5t-6 -18.5q-37 -74 -37 -137.5t32 -99.5q34 -41 91 -41q103 0 210 156q121 179 211 457q20 57 20 64.5t-1 7.5q-11 0 -82 -40q-25 -157 -96 -320q-85 -195 -193 -265q-47 -32 -84 -32q-8 0 -8 6t10 7.5t43 11.5q83 38 163 173
q107 181 148 409q-48 -29 -81 -60q-26 -27 -48.5 -68.5t-22.5 -63t15 -31.5q5 -3 5 -5t-11 -2t-25 15q-13 16 -13 33q0 50 69 116q52 47 115 85q14 84 14 168q0 6 5 8q5 -3 5 -52.5t-8 -113.5q73 41 109 41q17 0 17 -16q0 -30 -23 -114q-83 -285 -233 -457
q-110 -131 -233 -131q-73 0 -107 50t-34 124.5t23 118.5q3 5 3 8t-19 6.5t-19 10.5q0 10 17 18q14 8 25 8l20 -2l140 6q47 0 69 -6q39 -10 39 -46q0 -26 -32 -45q-4 0 -4 2q0 4 11 15q10 15 10 16q0 34 -104 34zM641 798q0 -1 -15 -18q-8 -13 -14 -33q-10 -33 -30 -33
q-6 0 -14 11q-7 11 -7 24t18 21q7 7 29 18.5t27 11.5t6 -1v-1zM775 798q0 -1 -15 -18q-8 -13 -14 -33q-10 -33 -30 -33q-6 0 -14 11q-7 11 -7 24t18 21q7 7 29 18.5t27 11.5t6 -1v-1z" />
    <glyph glyph-name="Eth" unicode="&#xd0;" horiz-adv-x="983" 
d="M468 658l-2 58q0 7 5 7q1 0 3 -5q6 -40 6 -73.5v-42.5h17q72 0 138 -15q73 97 152 97q33 0 62 -17q27 -17 35 -41t8 -29.5t-3 -5.5q-5 0 -8 13q-6 23 -33.5 37.5t-52.5 14.5q-65 0 -121 -74q119 -19 207.5 -97.5t88.5 -194.5q0 -74 -32 -144q-46 -98 -136 -150.5
t-201 -52.5t-240 53q-71 -90 -201 -90q-13 0 -46 3t-72.5 35t-39.5 71t34.5 58t84.5 19t156 -44q51 62 91 152q-142 -63 -149 -63q-12 0 -12 25q0 9 7 11q16 5 174 75q63 160 77 337q-202 -10 -305 -119q-38 -41 -38 -87q0 -81 87 -120q12 -5 48 -14q5 -2 5 -4q0 -5 -7 -5
l-2 1q-61 4 -114 50t-53 106q0 46 37 84q112 117 343 125q2 38 2 56zM910 279q0 104 -71 187.5t-174 101.5q-38 -58 -59 -104q-61 -140 -72 -164q94 25 147 25q8 0 8 -7t-6 -8q-77 -13 -166 -47q-79 -177 -145 -254q117 -49 220 -49q138 0 228 90q90 92 90 229zM127 -55
q-20 0 -20 8q0 5 18 5q73 0 144 80q-99 44 -163 44q-31 0 -59 -14t-28 -49t39.5 -62t86 -27t100 23t76.5 60l-36 18q-75 -86 -158 -86zM501 586h-22q-7 -163 -68 -328q23 10 55 21q63 140 71 155q48 98 88 141q-63 11 -124 11zM446 234l-53 -23q-43 -101 -99 -170l35 -14
q43 47 117 207z" />
    <glyph glyph-name="Ntilde" unicode="&#xd1;" horiz-adv-x="908" 
d="M41 26q-20 -45 -20 -72.5t18.5 -51.5t49.5 -24q119 0 239 117q105 104 176 255t71 266q0 11 -1 17q-20 -9 -48 -13q-20 -100 -66.5 -211.5t-114 -218t-138.5 -154.5q-40 -25 -70 -25q-10 0 -10 5.5t11.5 7.5t36.5 10q83 37 169 172q124 196 169 412l-123 -15
q-103 -10 -159 -24q-113 -30 -113 -88q0 -43 44 -89q41 -39 88 -51q6 -1 6 -3q0 -4 -8 -4q-55 0 -101 46q-45 46 -45 104t88 98q71 33 154.5 46t177.5 26q8 62 8 142q0 7 6 7q5 0 5 -50.5t-7 -96.5q17 3 41 10q5 7 14 7t11 -15q3 -29 29 -173q37 -209 88 -322
q20 44 48.5 191.5t51.5 212.5q50 140 141 191q27 15 54 15q46 0 88 -53q42 -50 42 -95q0 -4 -3 -4t-6 8q-12 41 -38.5 68.5t-66.5 27.5q-21 0 -43 -11q-90 -41 -145 -178q-25 -63 -47.5 -157.5t-26.5 -112.5q-21 -80 -39 -122q41 -84 91 -84q28 0 59 25q33 26 30 26
q2 0 2 -4.5t-6 -8.5q-58 -58 -112.5 -58t-97.5 60q-11 -6 -27 -6t-16 12q0 3 12 5.5t19 6.5q-43 68 -64 201q-18 176 -21 214q-24 -136 -104.5 -271.5t-188 -222t-218.5 -86.5q-37 0 -60 20.5t-23 60.5t31 83q3 3 5.5 3t2.5 -4zM889 758q0 -17 -20.5 -34t-49 -17t-49.5 9
t-39 18q-33 15 -43 15q-32 0 -50 -27q-4 -5 -7 -2.5t-3 6.5q0 21 18 34t47 13t51 -9t35.5 -15t19.5 -9q18 -7 31 -7q25 0 52 27q2 3 4.5 1.5t2.5 -3.5z" />
    <glyph glyph-name="Ograve" unicode="&#xd2;" horiz-adv-x="601" 
d="M600 338q0 -139 -119 -252q-116 -107 -260 -107q-21 0 -40 3q-81 -91 -142 -91q-10 0 -10 7q0 4 5 5.5t29 5.5q49 15 105 76q-111 29 -111 156q0 39 11 80q-20 37 -20 76q0 69 58 130q106 109 277 109q19 0 39 -3q10 73 10 154q0 7 6 7t6 -53t-10 -110q72 -13 120 -66
q46 -53 46 -127zM383 522q-90 0 -168 -42t-115 -120q-23 -46 -23 -96q0 -10 1 -15q33 85 117 154.5t169 69.5q12 0 12 -6.5t-13 -6.5q-69 0 -162 -91q-82 -83 -113 -156q8 -15 28 -25t20 -12q0 -7 -9 -7q-21 0 -44 30q-13 -32 -13 -58q0 -123 122 -129q81 99 142 237.5
t85 270.5q-12 2 -36 2zM565 351q0 63 -36 108q-37 45 -98 58q-24 -129 -86.5 -268.5t-139.5 -237.5q130 1 243 106q117 106 117 234zM561 693q14 -11 14 -15.5t-2 -4.5q-10 0 -54 28q-58 37 -69 43q-33 17 -33 31q0 9 10.5 16.5t18.5 7.5q24 0 28 -16q8 -25 36 -51
q4 -4 51 -39z" />
    <glyph glyph-name="Oacute" unicode="&#xd3;" horiz-adv-x="601" 
d="M600 338q0 -139 -119 -252q-116 -107 -260 -107q-21 0 -40 3q-81 -91 -142 -91q-10 0 -10 7q0 4 5 5.5t29 5.5q49 15 105 76q-111 29 -111 156q0 39 11 80q-20 37 -20 76q0 69 58 130q106 109 277 109q19 0 39 -3q10 73 10 154q0 7 6 7t6 -53t-10 -110q72 -13 120 -66
q46 -53 46 -127zM383 522q-90 0 -168 -42t-115 -120q-23 -46 -23 -96q0 -10 1 -15q33 85 117 154.5t169 69.5q12 0 12 -6.5t-13 -6.5q-69 0 -162 -91q-82 -83 -113 -156q8 -15 28 -25t20 -12q0 -7 -9 -7q-21 0 -44 30q-13 -32 -13 -58q0 -123 122 -129q81 99 142 237.5
t85 270.5q-12 2 -36 2zM565 351q0 63 -36 108q-37 45 -98 58q-24 -129 -86.5 -268.5t-139.5 -237.5q130 1 243 106q117 106 117 234zM620 793q10 -7 10 -17q0 -14 -47 -38q-100 -64 -109 -64l-2 2q0 8 14 19q46 35 51 39q28 24 36 50q4 16 27 16q10 0 20 -7z" />
    <glyph glyph-name="Ocircumflex" unicode="&#xd4;" horiz-adv-x="601" 
d="M600 338q0 -139 -119 -252q-116 -107 -260 -107q-21 0 -40 3q-81 -91 -142 -91q-10 0 -10 7q0 4 5 5.5t29 5.5q49 15 105 76q-111 29 -111 156q0 39 11 80q-20 37 -20 76q0 69 58 130q106 109 277 109q19 0 39 -3q10 73 10 154q0 7 6 7t6 -53t-10 -110q72 -13 120 -66
q46 -53 46 -127zM565 351q0 63 -36 108q-37 45 -98 58q-24 -129 -86.5 -268.5t-139.5 -237.5q130 1 243 106q117 106 117 234zM383 522q-90 0 -168 -42t-115 -120q-23 -46 -23 -96q0 -10 1 -15q33 85 117 154.5t169 69.5q12 0 12 -6.5t-13 -6.5q-69 0 -162 -91
q-82 -83 -113 -156q8 -15 28 -25t20 -12q0 -7 -9 -7q-21 0 -44 30q-13 -32 -13 -58q0 -123 122 -129q81 99 142 237.5t85 270.5q-12 2 -36 2zM590 670q-14 0 -45.5 23t-44 34t-21 20t-10.5 11q-121 -84 -134 -84q-5 0 -5 3.5t1 6.5q2 11 64 54t74.5 49.5t19 6.5t13.5 -9
q35 -45 95 -98q7 -5 7 -11t-14 -6z" />
    <glyph glyph-name="Otilde" unicode="&#xd5;" horiz-adv-x="601" 
d="M600 338q0 -139 -119 -252q-116 -107 -260 -107q-21 0 -40 3q-81 -91 -142 -91q-10 0 -10 7q0 4 5 5.5t29 5.5q49 15 105 76q-111 29 -111 156q0 39 11 80q-20 37 -20 76q0 69 58 130q106 109 277 109q19 0 39 -3q10 73 10 154q0 7 6 7t6 -53t-10 -110q72 -13 120 -66
q46 -53 46 -127zM565 351q0 63 -36 108q-37 45 -98 58q-24 -129 -86.5 -268.5t-139.5 -237.5q130 1 243 106q117 106 117 234zM383 522q-90 0 -168 -42t-115 -120q-23 -46 -23 -96q0 -10 1 -15q33 85 117 154.5t169 69.5q12 0 12 -6.5t-13 -6.5q-69 0 -162 -91
q-82 -83 -113 -156q8 -15 28 -25t20 -12q0 -7 -9 -7q-21 0 -44 30q-13 -32 -13 -58q0 -123 122 -129q81 99 142 237.5t85 270.5q-12 2 -36 2zM575 785q0 -17 -20.5 -34t-49 -17t-49.5 9t-39 17q-33 16 -43 16q-32 0 -50 -27q-4 -5 -7 -2.5t-3 6.5q0 21 18 34t47 13t51 -9
t35.5 -15t19.5 -8q18 -8 31 -8q25 0 52 27q2 3 4.5 1.5t2.5 -3.5z" />
    <glyph glyph-name="Odieresis" unicode="&#xd6;" horiz-adv-x="601" 
d="M600 338q0 -139 -119 -252q-116 -107 -260 -107q-21 0 -40 3q-81 -91 -142 -91q-10 0 -10 7q0 4 5 5.5t29 5.5q49 15 105 76q-111 29 -111 156q0 39 11 80q-20 37 -20 76q0 69 58 130q106 109 277 109q19 0 39 -3q10 73 10 154q0 7 6 7t6 -53t-10 -110q72 -13 120 -66
q46 -53 46 -127zM383 522q-90 0 -168 -42t-115 -120q-23 -46 -23 -96q0 -10 1 -15q33 85 117 154.5t169 69.5q12 0 12 -6.5t-13 -6.5q-69 0 -162 -91q-82 -83 -113 -156q8 -15 28 -25t20 -12q0 -7 -9 -7q-21 0 -44 30q-13 -32 -13 -58q0 -123 122 -129q81 99 142 237.5
t85 270.5q-12 2 -36 2zM565 351q0 63 -36 108q-37 45 -98 58q-24 -129 -86.5 -268.5t-139.5 -237.5q130 1 243 106q117 106 117 234zM437 798q0 -1 -15 -18q-8 -13 -14 -33q-10 -33 -30 -33q-6 0 -14 11q-7 11 -7 24t18 21q7 7 29 18.5t27 11.5t6 -1v-1zM571 798
q0 -1 -15 -18q-8 -13 -14 -33q-10 -33 -30 -33q-6 0 -14 11q-7 11 -7 24t18 21q7 7 29 18.5t27 11.5t6 -1v-1z" />
    <glyph glyph-name="multiply" unicode="&#xd7;" horiz-adv-x="278" 
d="M225 80l23 7l3 -3q0 -9 -15 -18t-26 -9q-23 0 -46.5 29.5t-31.5 55.5q-68 -96 -79 -96q-8 0 -8 7q0 18 82 103q-33 63 -33 80q0 9 11 9t14 -6q12 -22 25 -67q5 5 19 21q50 57 66 57l2 -2q-1 -8 -82 -89q8 -27 31.5 -53t44.5 -26z" />
    <glyph glyph-name="Oslash" unicode="&#xd8;" horiz-adv-x="634" 
d="M563 463q52 -43 52 -128t-80.5 -175t-193 -146t-202.5 -56q-31 0 -53 9q-80 -112 -101 -186q-6 -21 -6 -28q-1 -1 -5 -1t-11 6.5t-7 12.5q0 54 112 205q-42 27 -42 96q0 165 241 373q-76 -28 -169 -104q-8 -6 -12 -6h-1l-1 2q0 7 6 14q50 68 144.5 112t173 44t128.5 -26
l71 63q49 39 80 39q12 0 13 -4q-1 -2 -137 -116zM586 372q0 51 -37 79q-294 -255 -452 -469q17 -6 37 -6q84 0 192.5 62t184 154.5t75.5 179.5zM522 467q-36 16 -96 16t-122 -21q16 2 23 2q32 0 41 -14q-2 -3 -13 -8q-97 -36 -201.5 -157.5t-104.5 -218.5q0 -52 30 -75
q170 227 443 476z" />
    <glyph glyph-name="Ugrave" unicode="&#xd9;" horiz-adv-x="811" 
d="M798 91q5 10 15 26t13 16t3 -2.5t-2 -6.5q-87 -156 -153 -156q-101 0 -101 147q0 85 36 229q-81 -133 -160 -228q-128 -161 -201 -161q-63 0 -63 87t58.5 234t123.5 258l-40 16q-83 -115 -146.5 -291.5t-63.5 -304.5q0 -9 -4.5 -9t-4.5 29q0 129 64 298.5t146 280.5
q-60 20 -114 20q-107 0 -177 -68q-19 -18 -19 -39q0 -38 64 -65q23 -11 23 -12.5t-4.5 -1.5t-20.5 6q-84 35 -84 85q0 23 23 46q72 73 209 73q62 0 122 -16q45 55 57 55q4 0 3 -3t-19.5 -20t-31.5 -34q78 -23 78 -40v-3q-26 -40 -46 -81q-144 -270 -144 -419q0 -62 31 -62
q58 0 185 172q118 159 176 275q4 5 24 93q6 16 25 16t19 -12q0 -20 -35.5 -170.5t-35.5 -224.5q0 -143 55 -143q47 0 117 111zM628 678q14 -11 14 -15.5t-2 -4.5q-10 0 -54 28q-58 37 -69 43q-33 17 -33 31q0 9 10.5 16.5t18.5 7.5q24 0 28 -16q7 -26 36 -51q5 -5 51 -39z
" />
    <glyph glyph-name="Uacute" unicode="&#xda;" horiz-adv-x="811" 
d="M798 91q5 10 15 26t13 16t3 -2.5t-2 -6.5q-87 -156 -153 -156q-101 0 -101 147q0 85 36 229q-81 -133 -160 -228q-128 -161 -201 -161q-63 0 -63 87t58.5 234t123.5 258l-40 16q-83 -115 -146.5 -291.5t-63.5 -304.5q0 -9 -4.5 -9t-4.5 29q0 129 64 298.5t146 280.5
q-60 20 -114 20q-107 0 -177 -68q-19 -18 -19 -39q0 -38 64 -65q23 -11 23 -12.5t-4.5 -1.5t-20.5 6q-84 35 -84 85q0 23 23 46q72 73 209 73q62 0 122 -16q45 55 57 55q4 0 3 -3t-19.5 -20t-31.5 -34q78 -23 78 -40v-3q-26 -40 -46 -81q-144 -270 -144 -419q0 -62 31 -62
q58 0 185 172q118 159 176 275q4 5 24 93q6 16 25 16t19 -12q0 -20 -35.5 -170.5t-35.5 -224.5q0 -143 55 -143q47 0 117 111zM664 785q10 -7 10 -17q0 -14 -47 -38q-100 -64 -109 -64l-2 2q0 8 14 19q46 35 51 39q28 24 36 50q4 16 27 16q10 0 20 -7z" />
    <glyph glyph-name="Ucircumflex" unicode="&#xdb;" horiz-adv-x="811" 
d="M798 91q5 10 15 26t13 16t3 -2.5t-2 -6.5q-87 -156 -153 -156q-101 0 -101 147q0 85 36 229q-81 -133 -160 -228q-128 -161 -201 -161q-63 0 -63 87t58.5 234t123.5 258l-40 16q-83 -115 -146.5 -291.5t-63.5 -304.5q0 -9 -4.5 -9t-4.5 29q0 129 64 298.5t146 280.5
q-60 20 -114 20q-107 0 -177 -68q-19 -18 -19 -39q0 -38 64 -65q23 -11 23 -12.5t-4.5 -1.5t-20.5 6q-84 35 -84 85q0 23 23 46q72 73 209 73q62 0 122 -16q45 55 57 55q4 0 3 -3t-19.5 -20t-31.5 -34q78 -23 78 -40v-3q-26 -40 -46 -81q-144 -270 -144 -419q0 -62 31 -62
q58 0 185 172q118 159 176 275q4 5 24 93q6 16 25 16t19 -12q0 -20 -35.5 -170.5t-35.5 -224.5q0 -143 55 -143q47 0 117 111zM695 664q-14 0 -45.5 23t-44 34t-21 20t-10.5 11q-122 -84 -134 -84q-5 0 -5 3.5t1 6.5q2 11 64 54t74.5 49.5t19 6.5t13.5 -9q35 -45 95 -98
q7 -5 7 -11t-14 -6z" />
    <glyph glyph-name="Udieresis" unicode="&#xdc;" horiz-adv-x="811" 
d="M798 91q5 10 15 26t13 16t3 -2.5t-2 -6.5q-87 -156 -153 -156q-101 0 -101 147q0 85 36 229q-81 -133 -160 -228q-128 -161 -201 -161q-63 0 -63 87t58.5 234t123.5 258l-40 16q-83 -115 -146.5 -291.5t-63.5 -304.5q0 -9 -4.5 -9t-4.5 29q0 129 64 298.5t146 280.5
q-60 20 -114 20q-107 0 -177 -68q-19 -18 -19 -39q0 -38 64 -65q23 -11 23 -12.5t-4.5 -1.5t-20.5 6q-84 35 -84 85q0 23 23 46q72 73 209 73q62 0 122 -16q45 55 57 55q4 0 3 -3t-19.5 -20t-31.5 -34q78 -23 78 -40v-3q-26 -40 -46 -81q-144 -270 -144 -419q0 -62 31 -62
q58 0 185 172q118 159 176 275q4 5 24 93q6 16 25 16t19 -12q0 -20 -35.5 -170.5t-35.5 -224.5q0 -143 55 -143q47 0 117 111zM554 758q0 -1 -15 -18q-8 -13 -14 -33q-11 -33 -30 -33q-6 0 -14 11q-7 11 -7 24t18 21q7 7 28.5 18.5t27 11.5t6.5 -1v-1zM688 758q0 -1 -15 -18
q-8 -13 -14 -33q-11 -33 -30 -33q-6 0 -14 11q-7 11 -7 24t18 21q7 7 28.5 18.5t27 11.5t6.5 -1v-1z" />
    <glyph glyph-name="Yacute" unicode="&#xdd;" horiz-adv-x="707" 
d="M736 477q0 -4 -4 -5.5t-24 -7.5q-55 -35 -92 -195l-59 -247q-42 -154 -95 -249q-69 -124 -169 -180q-46 -25 -107 -25t-117 44q-52 44 -75 111q-1 1 -1 5.5t2.5 4.5t7.5 -8q9 -27 20 -41q49 -76 151 -76q64 0 118 30q105 59 163 184q41 92 79 293q13 67 45 196
q-69 -118 -143 -210q-116 -146 -187 -146q-64 0 -64 87t58.5 234t123.5 258l-40 16q-83 -115 -146.5 -291.5t-63.5 -304.5q0 -9 -4.5 -9t-4.5 29q0 129 64 298.5t146 280.5q-60 20 -114 20q-106 0 -177 -68q-19 -18 -19 -39q0 -38 64 -65q23 -11 23 -12.5t-6 -1.5t-23 8
q-80 36 -80 83q0 23 23 46q72 73 209 73q62 0 122 -16q45 55 57 55q4 0 3 -3t-19.5 -20t-31.5 -34q78 -23 78 -40v-3q-26 -40 -46 -81q-144 -270 -144 -419q0 -62 31 -62q46 0 155 133q93 116 166 240q23 101 72 125q24 12 49.5 12t25.5 -7zM717 706q0 -12 -33 -30
q-6 -3 -60 -37.5t-63 -34.5l-3 2q0 8 15 19q43 32 50 39q28 25 37 51q4 15 27 15q10 0 20 -7t10 -17z" />
    <glyph glyph-name="Thorn" unicode="&#xde;" horiz-adv-x="439" 
d="M433 313q0 -52 -53 -85q-44 -28 -109 -28t-114 40q-15 12 -15 21t2 9t6 -3q63 -45 115.5 -45t88 24t35.5 66q0 103 -128 246q-35 -89 -106.5 -253.5t-98.5 -236.5q-54 -152 -54 -244.5t58 -92.5q38 0 92 33q-12 -18 -39.5 -31.5t-46.5 -13.5q-49 0 -86 37t-37 88v3
q0 43 30 120q7 17 15 36.5t18 43.5t15 37q167 419 305 673q12 18 35.5 18t23.5 -9q0 -13 -13.5 -20.5t-24.5 -24.5q-27 -43 -73 -141q159 -172 159 -267z" />
    <glyph glyph-name="germandbls" unicode="&#xdf;" horiz-adv-x="636" 
d="M515 636q53 0 87.5 -37.5t34.5 -94.5t-42 -101.5t-104 -66.5q-33 -12 -76.5 -18t-43.5 -14t52.5 -24t81.5 -33q47 -30 47 -76q0 -58 -74 -115q-60 -46 -165 -74.5t-181 -28.5t-76 9q0 14 76.5 14t168.5 23.5t148 62.5q76 54 76 99q0 62 -125 98l-49 11q-35 9 -35 26
q0 22 51 29q34 5 92 19q61 21 105 66.5t44 102.5q0 40 -25.5 62.5t-64.5 22.5q-89 0 -165 -135q-22 -39 -61 -111.5t-52 -95.5q-86 -155 -160 -247q-98 -119 -173 -119q-18 0 -19 10q5 8 12 8q92 0 198 163q45 69 134 246q162 319 283 319z" />
    <glyph glyph-name="agrave" unicode="&#xe0;" horiz-adv-x="329" 
d="M342 134q3 0 3 -4.5t-4 -9.5q-90 -134 -139 -134q-27 0 -40.5 25.5t-13.5 57t10 72.5q-63 -140 -130 -140q-41 0 -41 53q0 85 82.5 177t164.5 92q39 0 39 -34q0 -42 -56 -84q-29 -72 -29 -138.5t25 -66.5q33 0 120 126q6 8 9 8zM227 239q16 22 16 44t-21 22
q-50 0 -131 -98.5t-81 -151.5q0 -23 22 -23q63 0 122 140q-18 -5 -24 -5t-6 3q0 5 14 10l31 18q2 17 21 44.5t36 27.5q6 0 6 -8t-5 -23zM276 350q0 -5 -7 -5t-70.5 37.5t-63.5 47.5q0 12 14.5 12t70.5 -41t56 -51z" />
    <glyph glyph-name="aacute" unicode="&#xe1;" horiz-adv-x="329" 
d="M342 134q3 0 3 -4.5t-4 -9.5q-90 -134 -139 -134q-27 0 -40.5 25.5t-13.5 57t10 72.5q-63 -140 -130 -140q-41 0 -41 53q0 85 82.5 177t164.5 92q39 0 39 -34q0 -42 -56 -84q-29 -72 -29 -138.5t25 -66.5q33 0 120 126q6 8 9 8zM227 239q16 22 16 44t-21 22
q-50 0 -131 -98.5t-81 -151.5q0 -23 22 -23q63 0 122 140q-18 -5 -24 -5t-6 3q0 5 14 10l31 18q2 17 21 44.5t36 27.5q6 0 6 -8t-5 -23zM354 436q0 -7 -58 -43t-66 -36t-8 5q0 10 52 47q52 39 66 39t14 -12z" />
    <glyph glyph-name="acircumflex" unicode="&#xe2;" horiz-adv-x="329" 
d="M342 134q3 0 3 -4.5t-4 -9.5q-90 -134 -139 -134q-27 0 -40.5 25.5t-13.5 57t10 72.5q-63 -140 -130 -140q-41 0 -41 53q0 85 82.5 177t164.5 92q39 0 39 -34q0 -42 -56 -84q-29 -72 -29 -138.5t25 -66.5q33 0 120 126q6 8 9 8zM227 239q16 22 16 44t-21 22
q-50 0 -131 -98.5t-81 -151.5q0 -23 22 -23q63 0 122 140q-18 -5 -24 -5t-6 3q0 5 14 10l31 18q2 17 21 44.5t36 27.5q6 0 6 -8t-5 -23zM341 342l-4 -6q-17 2 -60 28.5t-56 41.5q-76 -63 -92 -67l-6 8q6 13 51.5 51t57.5 39l5 -2q33 -36 99 -86z" />
    <glyph glyph-name="atilde" unicode="&#xe3;" horiz-adv-x="329" 
d="M342 134q3 0 3 -4.5t-4 -9.5q-90 -134 -139 -134q-27 0 -40.5 25.5t-13.5 57t10 72.5q-63 -140 -130 -140q-41 0 -41 53q0 85 82.5 177t164.5 92q39 0 39 -34q0 -42 -56 -84q-29 -72 -29 -138.5t25 -66.5q33 0 120 126q6 8 9 8zM227 239q16 22 16 44t-21 22
q-50 0 -131 -98.5t-81 -151.5q0 -23 22 -23q63 0 122 140q-18 -5 -24 -5t-6 3q0 5 14 10l31 18q2 17 21 44.5t36 27.5q6 0 6 -8t-5 -23zM316 365q-22 0 -63 17.5t-58 17.5t-34 -12t-18 -12l-3 5q0 9 21 24q22 15 34.5 15t52.5 -17t60 -17t35 10.5t17 10.5l2 -1
q0 -10 -18.5 -25.5t-27.5 -15.5z" />
    <glyph glyph-name="adieresis" unicode="&#xe4;" horiz-adv-x="329" 
d="M342 134q3 0 3 -4.5t-4 -9.5q-90 -134 -139 -134q-27 0 -40.5 25.5t-13.5 57t10 72.5q-63 -140 -130 -140q-41 0 -41 53q0 85 82.5 177t164.5 92q39 0 39 -34q0 -42 -56 -84q-29 -72 -29 -138.5t25 -66.5q33 0 120 126q6 8 9 8zM227 239q16 22 16 44t-21 22
q-50 0 -131 -98.5t-81 -151.5q0 -23 22 -23q63 0 122 140q-18 -5 -24 -5t-6 3q0 5 14 10l31 18q2 17 21 44.5t36 27.5q6 0 6 -8t-5 -23zM284 360q-7 0 -11.5 7.5t-4.5 16t22 24t34 15.5l2 -1v-1l-10 -12l-13 -30q-9 -19 -19 -19zM195 360q-6 0 -10.5 7.5t-4.5 16t21.5 24
t33.5 15.5l3 -2l-11 -12l-12 -30q-9 -19 -20 -19z" />
    <glyph glyph-name="aring" unicode="&#xe5;" horiz-adv-x="329" 
d="M342 134q3 0 3 -4.5t-4 -9.5q-90 -134 -139 -134q-27 0 -40.5 25.5t-13.5 57t10 72.5q-63 -140 -130 -140q-41 0 -41 53q0 85 82.5 177t164.5 92q39 0 39 -34q0 -42 -56 -84q-29 -72 -29 -138.5t25 -66.5q33 0 120 126q6 8 9 8zM227 239q16 22 16 44t-21 22
q-50 0 -131 -98.5t-81 -151.5q0 -23 22 -23q63 0 122 140q-18 -5 -24 -5t-6 3q0 5 14 10l31 18q2 17 21 44.5t36 27.5q6 0 6 -8t-5 -23zM328 443q0 -37 -28 -66t-64 -29q-41 0 -41 39q0 19 11.5 45t27.5 30q16 33 51 33q21 0 31 -16q12 -17 12 -36zM247 368q25 0 41.5 24.5
t16.5 54t-22 29.5q-13 0 -29 -13l10 -5q-1 -7 -16.5 -29t-15.5 -41.5t15 -19.5z" />
    <glyph glyph-name="ae" unicode="&#xe6;" horiz-adv-x="427" 
d="M442 136q1 0 1 -3t-8 -17q-33 -51 -91.5 -93t-109.5 -42q-72 0 -72 92q0 41 5 66q-63 -138 -129 -138q-41 0 -41 53q0 68 55 143.5t120 105.5q43 20 69 20t36 -13q32 22 61.5 22t44.5 -13t15 -36q0 -53 -65.5 -100t-123.5 -52q-8 -24 -8 -46q0 -83 60 -83q35 0 76 26.5
t67 58.5q4 5 17.5 27t20.5 22zM253 282q0 23 -21 23q-51 0 -131.5 -98.5t-80.5 -151.5q0 -23 22 -23q63 0 122 140q-18 -5 -24 -5t-6 3q0 5 14 10l30 18q6 14 26.5 43t32.5 29q6 0 5 -10l8 7q3 7 3 15zM367 285q0 14 -8 26.5t-26 12.5t-52 -22l2 -12q28 16 45 16t17 -2.5
t-14 -10.5q-37 -20 -69 -62q-34 -42 -49 -84l2 -2q48 0 100 46t52 94z" />
    <glyph glyph-name="ccedilla" unicode="&#xe7;" horiz-adv-x="282" 
d="M249 269q0 -18 -8 -42.5t-21 -24.5t-13 15q0 6 6 27q7 21 7 35q0 45 -36 45q-18 0 -45.5 -14.5t-30.5 -14.5t-3 3q0 14 34.5 25t55.5 11q54 0 54 -65zM66 -28q-17 0 -28 4q-4 -7 -4 -16.5t19 -31.5t19 -41q0 -30 -31 -46.5t-64 -16.5q-6 0 -6 7l6 5q13 3 46 7q22 7 22 37
q0 8 -16.5 31.5t-16.5 36.5q0 23 10 37q-25 19 -25 65q0 78 55 165.5t127 87.5q11 0 11 -3.5t-20 -15.5q-49 -30 -88.5 -93t-39.5 -115q0 -81 61 -81q37 0 82 29q62 40 98 97q9 15 14 15l2 -2q0 -4 -9 -17q-36 -55 -101.5 -100t-122.5 -45z" />
    <glyph glyph-name="egrave" unicode="&#xe8;" horiz-adv-x="295" 
d="M310 136q1 0 1 -3t-8 -17q-31 -50 -90 -92.5t-111 -42.5q-71 0 -71 92q0 31 7 66q-9 8 -16 22q1 -1 5 -2.5t7.5 -3t7.5 -2.5q10 49 61 101t99 52q11 0 11 -2.5t-14 -10.5q-37 -20 -69 -62q-34 -42 -49 -84l2 -2q48 0 100 46t52 94q0 14 -7.5 26.5t-24.5 12.5t-42.5 -15.5
t-28 -15.5t-2.5 1q0 12 32.5 25t53 13t35.5 -13t15 -36q0 -53 -65.5 -100t-123.5 -52q-8 -24 -8 -46q0 -83 60 -83q46 0 92 36.5t74 83.5q9 14 15 14zM255 373q0 -6 -6.5 -6t-70.5 38.5t-64 46.5q0 12 14.5 12t70.5 -41t56 -50z" />
    <glyph glyph-name="eacute" unicode="&#xe9;" horiz-adv-x="295" 
d="M310 136q1 0 1 -3t-8 -17q-31 -50 -90 -92.5t-111 -42.5q-71 0 -71 92q0 31 7 66q-9 8 -16 22q1 -1 5 -2.5t7.5 -3t7.5 -2.5q10 49 61 101t99 52q11 0 11 -2.5t-14 -10.5q-37 -20 -69 -62q-34 -42 -49 -84l2 -2q48 0 100 46t52 94q0 14 -7.5 26.5t-24.5 12.5t-42.5 -15.5
t-28 -15.5t-2.5 1q0 12 32.5 25t53 13t35.5 -13t15 -36q0 -53 -65.5 -100t-123.5 -52q-8 -24 -8 -46q0 -83 60 -83q46 0 92 36.5t74 83.5q9 14 15 14zM355 436q0 -7 -58.5 -43.5t-66.5 -36.5t-8 6q0 10 52.5 47.5t66.5 37.5t14 -11z" />
    <glyph glyph-name="ecircumflex" unicode="&#xea;" horiz-adv-x="295" 
d="M310 136q1 0 1 -3t-8 -17q-31 -50 -90 -92.5t-111 -42.5q-71 0 -71 92q0 31 7 66q-9 8 -16 22q1 -1 5 -2.5t7.5 -3t7.5 -2.5q10 49 61 101t99 52q11 0 11 -2.5t-14 -10.5q-37 -20 -69 -62q-34 -42 -49 -84l2 -2q48 0 100 46t52 94q0 14 -7.5 26.5t-24.5 12.5t-42.5 -15.5
t-28 -15.5t-2.5 1q0 12 32.5 25t53 13t35.5 -13t15 -36q0 -53 -65.5 -100t-123.5 -52q-8 -24 -8 -46q0 -83 60 -83q46 0 92 36.5t74 83.5q9 14 15 14zM334 352l-4 -6q-17 2 -59 27q-43 28 -57 43q-76 -63 -92 -67l-5 8q4 12 50 50.5t58 39.5l5 -2q34 -37 100 -86z" />
    <glyph glyph-name="edieresis" unicode="&#xeb;" horiz-adv-x="295" 
d="M310 136q1 0 1 -3t-8 -17q-31 -50 -90 -92.5t-111 -42.5q-71 0 -71 92q0 31 7 66q-9 8 -16 22q1 -1 5 -2.5t7.5 -3t7.5 -2.5q10 49 61 101t99 52q11 0 11 -2.5t-14 -10.5q-37 -20 -69 -62q-34 -42 -49 -84l2 -2q48 0 100 46t52 94q0 14 -7.5 26.5t-24.5 12.5t-42.5 -15.5
t-28 -15.5t-2.5 1q0 12 32.5 25t53 13t35.5 -13t15 -36q0 -53 -65.5 -100t-123.5 -52q-8 -24 -8 -46q0 -83 60 -83q46 0 92 36.5t74 83.5q9 14 15 14zM272 383q-6 0 -11 7.5t-5 16t22 24t34 15.5l3 -2l-11 -12l-12 -30q-9 -19 -20 -19zM183 383q-6 0 -10.5 7.5t-4.5 16
t22 24t33 15.5l3 -1v-1l-11 -12l-12 -30q-7 -19 -20 -19z" />
    <glyph glyph-name="igrave" unicode="&#xec;" horiz-adv-x="174" 
d="M191 137q2 0 2 -2q0 -17 -55 -75q-44 -44 -67 -44q-51 0 -51 51q0 38 20 96l-18 -28q-13 -22 -18 -22q-2 0 -2 5.5t15 25.5t44 82q8 21 22 47q5 9 23.5 9t18.5 -10t-10 -30t-17 -23q-52 -104 -52 -153q0 -33 22 -33q36 0 79 52q18 21 22 25.5t8 9.5t7 8q5 5 7 9zM161 338
q0 -5 -6.5 -5t-70.5 37.5t-64 47.5q0 12 14.5 12t70.5 -41t56 -51z" />
    <glyph glyph-name="iacute" unicode="&#xed;" horiz-adv-x="174" 
d="M191 137q2 0 2 -2q0 -17 -55 -75q-44 -44 -67 -44q-51 0 -51 51q0 38 20 96l-18 -28q-13 -22 -18 -22q-2 0 -2 5.5t15 25.5t44 82q8 21 22 47q5 9 23.5 9t18.5 -10t-10 -30t-17 -23q-52 -104 -52 -153q0 -33 22 -33q36 0 79 52q18 21 22 25.5t8 9.5t7 8q5 5 7 9zM242 411
q0 -7 -58 -43.5t-66 -36.5t-8 5q0 10 52 47q52 39 66 39t14 -11z" />
    <glyph glyph-name="icircumflex" unicode="&#xee;" horiz-adv-x="174" 
d="M267 316l-4 -6q-16 1 -58.5 27.5t-57.5 42.5q-76 -62 -91 -67l-6 8q4 12 50 50.5t58 39.5l5 -2q34 -37 100 -86zM123 254q13 0 13 -13.5t-56.5 -94t-56.5 -125.5q0 -15 9 -15q16 0 51 35q35 37 39 38q-4 -16 -40 -55.5t-50 -39.5t-22.5 14.5t-8.5 28.5q0 41 44.5 134
t77.5 93z" />
    <glyph glyph-name="idieresis" unicode="&#xef;" horiz-adv-x="174" 
d="M123 254q13 0 13 -13.5t-56.5 -94t-56.5 -125.5q0 -15 9 -15q16 0 51 35q35 37 39 38q-4 -16 -40 -55.5t-50 -39.5t-22.5 14.5t-8.5 28.5q0 41 44.5 134t77.5 93zM115 324q-6 0 -10.5 7.5t-4.5 16t21.5 24t33.5 15.5l3 -2l-11 -12l-12 -29q-9 -20 -20 -20zM204 324
q-7 0 -11.5 7.5t-4.5 16t22 24t34 15.5l2 -1v-1l-10 -12l-13 -29q-8 -20 -19 -20z" />
    <glyph glyph-name="eth" unicode="&#xf0;" horiz-adv-x="286" 
d="M186 243l1 -9v-2v-1q0 -6 -6 -6h-4q-1 1 -4 1q-19 0 -43 -44q-56 -104 -56 -149q0 -24 20 -24q32 0 68 72q61 119 61 284v15q-82 -50 -84 -50q-9 0 -9 13t10 20q24 17 82 44q-9 123 -59 123h-19q-8 2 -8 14q0 7 17.5 12t29.5 5q66 0 79 -136q48 19 56.5 19t8.5 -9
q0 -6 -6 -9q-38 -14 -57 -23v-23q0 -57 -18 -136.5t-58 -156.5q-56 -108 -115 -108q-44 0 -44 49q0 60 61 163q41 65 68 65q19 0 28 -13z" />
    <glyph glyph-name="ntilde" unicode="&#xf1;" horiz-adv-x="288" 
d="M-8 -6l56 253q-4 14 -22 54q0 7 17 13q50 19 64.5 19t14.5 -9q-37 -92 -51 -128v-6q0 -31 -9 -31q-2 0 -3 3q-21 -63 -29 -92q46 75 94 131q75 87 124 87q23 0 23 -18q0 -7 -58 -220q58 43 90 92q5 6 7.5 6t2.5 -3t-3 -8q-44 -78 -107 -124q-5 -6 -12.5 -6t-7.5 9t12 68
t17.5 90t7.5 78q-41 -20 -101 -86t-79.5 -103t-25 -60.5t-14 -23.5t-8.5 13v2zM309 401q-1 -9 -18.5 -25t-34 -16t-58 18t-58.5 18t-32.5 -12t-18.5 -12l-3 4q0 9 21.5 24.5t34 15.5t52.5 -17t60 -17t32.5 8.5t20.5 12.5zM63 307q-5 -4 -19 -10l10 -23z" />
    <glyph glyph-name="ograve" unicode="&#xf2;" horiz-adv-x="278" 
d="M255 196l3 19q0 16 -10.5 26.5t-24.5 10.5q-12 -122 -59 -187h31q-13 -8 -19.5 -8t-9 1t-5.5 1q1 -1 -5.5 -6.5t-37.5 -32.5t-58 -27q-39 0 -39 50q0 61 46 125q-16 39 -16 82.5t17 75.5q33 63 82 63q62 0 72 -106q50 -2 50 -52q0 -41 -13 -41q-4 0 -4 6zM151 367
q-32 0 -59 -63q-17 -38 -17 -73t3 -52q61 82 128 102q-20 86 -55 86zM207 253q-22 -3 -68.5 -40.5t-57.5 -59.5q21 -76 51 -83q24 22 49.5 87t25.5 96zM74 144q-33 -56 -33 -88.5t22 -32.5q27 0 65 42q-33 4 -54 79zM225 415q0 -5 -7 -5t-70.5 38t-63.5 46q0 12 14 12
t70.5 -40.5t56.5 -50.5z" />
    <glyph glyph-name="oacute" unicode="&#xf3;" horiz-adv-x="278" 
d="M255 196l3 19q0 16 -10.5 26.5t-24.5 10.5q-12 -122 -59 -187h31q-13 -8 -19.5 -8t-9 1t-5.5 1q1 -1 -5.5 -6.5t-37.5 -32.5t-58 -27q-39 0 -39 50q0 61 46 125q-16 39 -16 82.5t17 75.5q33 63 82 63q62 0 72 -106q50 -2 50 -52q0 -41 -13 -41q-4 0 -4 6zM151 367
q-32 0 -59 -63q-17 -38 -17 -73t3 -52q61 82 128 102q-20 86 -55 86zM207 253q-22 -3 -68.5 -40.5t-57.5 -59.5q21 -76 51 -83q24 22 49.5 87t25.5 96zM74 144q-33 -56 -33 -88.5t22 -32.5q27 0 65 42q-33 4 -54 79zM315 506q0 -7 -58 -43t-66 -36t-8 5q0 10 52 47
q52 39 66 39t14 -12z" />
    <glyph glyph-name="ocircumflex" unicode="&#xf4;" horiz-adv-x="278" 
d="M255 196l3 19q0 16 -10.5 26.5t-24.5 10.5q-12 -122 -59 -187h31q-13 -8 -19.5 -8t-9 1t-5.5 1q1 -1 -5.5 -6.5t-37.5 -32.5t-58 -27q-39 0 -39 50q0 61 46 125q-16 39 -16 82.5t17 75.5q33 63 82 63q62 0 72 -106q50 -2 50 -52q0 -41 -13 -41q-4 0 -4 6zM151 367
q-32 0 -59 -63q-17 -38 -17 -73t3 -52q61 82 128 102q-20 86 -55 86zM207 253q-22 -3 -68.5 -40.5t-57.5 -59.5q21 -76 51 -83q24 22 49.5 87t25.5 96zM296 400l-3 -6q-15 1 -60 29t-57 41q-76 -62 -91 -67l-6 8q4 12 49.5 50t58.5 41l5 -2q33 -36 100 -87zM74 144
q-33 -56 -33 -88.5t22 -32.5q27 0 65 42q-33 4 -54 79z" />
    <glyph glyph-name="otilde" unicode="&#xf5;" horiz-adv-x="278" 
d="M255 196l3 19q0 16 -10.5 26.5t-24.5 10.5q-12 -122 -59 -187h31q-13 -8 -19.5 -8t-9 1t-5.5 1q1 -1 -5.5 -6.5t-37.5 -32.5t-58 -27q-39 0 -39 50q0 61 46 125q-16 39 -16 82.5t17 75.5q33 63 82 63q62 0 72 -106q50 -2 50 -52q0 -41 -13 -41q-4 0 -4 6zM151 367
q-32 0 -59 -63q-17 -38 -17 -73t3 -52q61 82 128 102q-20 86 -55 86zM207 253q-22 -3 -68.5 -40.5t-57.5 -59.5q21 -76 51 -83q24 22 49.5 87t25.5 96zM312 477q0 -17 -20.5 -34t-49 -17t-49.5 9t-39 17q-33 16 -43 16q-32 0 -50 -27q-5 -5 -7.5 -2.5t-2.5 6.5q0 21 18 34
t46.5 13t51 -9t36 -15t19.5 -8q18 -8 31 -8q25 0 52 27q2 3 4.5 1.5t2.5 -3.5zM74 144q-33 -56 -33 -88.5t22 -32.5q27 0 65 42q-33 4 -54 79z" />
    <glyph glyph-name="odieresis" unicode="&#xf6;" horiz-adv-x="278" 
d="M255 196l3 19q0 16 -10.5 26.5t-24.5 10.5q-12 -122 -59 -187h31q-13 -8 -19.5 -8t-9 1t-5.5 1q1 -1 -5.5 -6.5t-37.5 -32.5t-58 -27q-39 0 -39 50q0 61 46 125q-16 39 -16 82.5t17 75.5q33 63 82 63q62 0 72 -106q50 -2 50 -52q0 -41 -13 -41q-4 0 -4 6zM151 367
q-32 0 -59 -63q-17 -38 -17 -73t3 -52q61 82 128 102q-20 86 -55 86zM207 253q-22 -3 -68.5 -40.5t-57.5 -59.5q21 -76 51 -83q24 22 49.5 87t25.5 96zM74 144q-33 -56 -33 -88.5t22 -32.5q27 0 65 42q-33 4 -54 79zM236 422q-7 0 -11.5 7.5t-4.5 16t22 24t34 15.5l2 -1v-1
q-4 -6 -10 -12l-13 -29q-9 -20 -19 -20zM147 422q-6 0 -10.5 7.5t-4.5 16t21.5 24t33.5 15.5l3 -2l-11 -12l-12 -29q-9 -20 -20 -20z" />
    <glyph glyph-name="divide" unicode="&#xf7;" horiz-adv-x="228" 
d="M150 192q0 -24 -25 -24t-25 24t25 24t25 -24zM54 133q16 6 51 6t74 -5.5t39 -12t-15 -7.5t-33 -2t-27.5 -2t-26.5 -4q-37 -5 -72 -5h-5q-20 0 -20 7q0 13 35 25zM142 53q0 -24 -25.5 -24t-25.5 24t25.5 24t25.5 -24z" />
    <glyph glyph-name="oslash" unicode="&#xf8;" horiz-adv-x="324" 
d="M302 238l5 32q0 50 -35 48q-13 -137 -88 -236q-61 -82 -112 -82q-14 0 -24 6l-48 -90h-27l58 109q-7 14 -7 37q0 74 57 153q-9 31 -9 68q0 86 53 154q35 44 70 44t55 -42l72 134l29 -1l-89 -167q7 -25 8 -49q54 0 54 -62q0 -16 -5 -40t-13 -24q-4 0 -4 8zM251 354
q-1 7 -5 21l-15 -27q10 4 20 6zM235 409q-19 51 -47.5 51t-53.5 -46q-43 -80 -43 -153q0 -20 4 -32q44 59 95 95zM76 37q58 0 116.5 108.5t60.5 174.5q-19 -2 -49 -23l-138 -258q6 -2 10 -2zM49 81q0 -5 2 -17l103 192q-17 -15 -59 -60q-46 -64 -46 -115z" />
    <glyph glyph-name="ugrave" unicode="&#xf9;" horiz-adv-x="297" 
d="M319 57v-2q-35 -48 -77 -48t-42 74q0 30 5 85q-38 -72 -125 -140q-9 -7 -34 -26q-5 -4 -17.5 -4t-12.5 6q0 36 32.5 99t40.5 90.5t8 77.5q-4 -16 -36 -71q-48 -83 -54 -83t-6 4l30 51q48 84 62 141q6 26 24 26t18 -45.5t-26 -127.5l-42 -131q84 64 140 157q10 70 27 92
q6 7 22.5 7t16.5 -11q0 -30 -19 -55q-22 -75 -22 -146q0 -48 30 -48q15 0 30.5 13t20 17t3.5 4q3 0 3 -6zM241 350q0 -5 -6.5 -5t-70 37.5t-63.5 48t14.5 10.5t70 -40.5t55.5 -50.5z" />
    <glyph glyph-name="uacute" unicode="&#xfa;" horiz-adv-x="297" 
d="M319 57v-2q-35 -48 -77 -48t-42 74q0 30 5 85q-38 -72 -125 -140q-9 -7 -34 -26q-5 -4 -17.5 -4t-12.5 6q0 36 32.5 99t40.5 90.5t8 77.5q-4 -16 -36 -71q-48 -83 -54 -83t-6 4l30 51q48 84 62 141q6 26 24 26t18 -45.5t-26 -127.5l-42 -131q84 64 140 157q10 70 27 92
q6 7 22.5 7t16.5 -11q0 -30 -19 -55q-22 -75 -22 -146q0 -48 30 -48q15 0 30.5 13t20 17t3.5 4q3 0 3 -6zM316 422q0 -7 -58 -43.5t-66 -36.5t-8 5q0 10 52 47q52 39 66 39t14 -11z" />
    <glyph glyph-name="ucircumflex" unicode="&#xfb;" horiz-adv-x="297" 
d="M319 57v-2q-35 -48 -77 -48t-42 74q0 30 5 85q-38 -72 -125 -140q-9 -7 -34 -26q-5 -4 -17.5 -4t-12.5 6q0 36 32.5 99t40.5 90.5t8 77.5q-4 -16 -36 -71q-48 -83 -54 -83t-6 4l30 51q48 84 62 141q6 26 24 26t18 -45.5t-26 -127.5l-42 -131q84 64 140 157q10 70 27 92
q6 7 22.5 7t16.5 -11q0 -30 -19 -55q-22 -75 -22 -146q0 -48 30 -48q15 0 30.5 13t20 17t3.5 4q3 0 3 -6zM325 368l-4 -6q-19 2 -59.5 28t-56.5 43q-78 -64 -92 -68l-5 8q3 12 49.5 51t58.5 40l5 -2q34 -37 100 -86z" />
    <glyph glyph-name="udieresis" unicode="&#xfc;" horiz-adv-x="297" 
d="M319 57v-2q-35 -48 -77 -48t-42 74q0 30 5 85q-38 -72 -125 -140q-9 -7 -34 -26q-5 -4 -17.5 -4t-12.5 6q0 36 32.5 99t40.5 90.5t8 77.5q-4 -16 -36 -71q-48 -83 -54 -83t-6 4l30 51q48 84 62 141q6 26 24 26t18 -45.5t-26 -127.5l-42 -131q84 64 140 157q10 70 27 92
q6 7 22.5 7t16.5 -11q0 -30 -19 -55q-22 -75 -22 -146q0 -48 30 -48q15 0 30.5 13t20 17t3.5 4q3 0 3 -6zM248 366q-6 0 -11 8t-5 16t22 23.5t34 15.5l2 -1l-10 -13l-12 -29q-9 -20 -20 -20zM159 366q-5 0 -10 8t-5 16t21.5 23.5t33.5 15.5l3 -1l-11 -13l-12 -29
q-9 -20 -20 -20z" />
    <glyph glyph-name="yacute" unicode="&#xfd;" horiz-adv-x="341" 
d="M384 396q0 -3 -9 -5.5t-19 -7.5q-45 -32 -78 -171q-50 -213 -52 -218q-38 -136 -85 -220q-62 -110 -149 -159q-41 -23 -92 -23t-112 46t-61 96q0 4 2.5 4t5.5 -6q42 -105 152 -105q56 0 104 27q93 52 145 163q33 75 61 214q24 129 41 191l17 62q-63 -49 -151 -281
q0 -2 -6 -2t-13.5 7.5t-7.5 14.5l17 42q19 56 19 164q0 82 -35 82q-19 0 -47 -25l-28 -26q-3 0 -3 2.5t2 8.5q14 22 46 45t54 23q42 0 42 -81q0 -66 -27 -146q83 153 141 183q15 54 34 76q25 31 74 31q18 0 18 -6zM331 561q10 -7 10 -17q0 -13 -33 -31q-6 -3 -59.5 -37
t-59.5 -34t-6 2q0 7 13.5 17.5t26 20t18.5 14.5q31 22 43 56q6 16 28 16q7 0 19 -7z" />
    <glyph glyph-name="thorn" unicode="&#xfe;" horiz-adv-x="233" 
d="M330 670q0 -3 -33.5 -66t-171.5 -337q113 -125 113 -190q0 -38 -34.5 -59t-67 -21t-68.5 13.5t-36 32.5l1 3q-1 -1 2 -3q7 -4 33.5 -17t53 -13t49 16t22.5 41q0 67 -89 165q-45 -105 -126 -291.5t-81 -301.5q0 -81 56 -81q37 0 89 30q-10 -17 -36.5 -29t-46.5 -12
q-48 0 -83 34t-35 81v2q0 41 35 123q21 46 53 123q205 481 322 711q14 28 22.5 41.5t32.5 13.5t24 -9z" />
    <glyph glyph-name="ydieresis" unicode="&#xff;" horiz-adv-x="341" 
d="M384 396q0 -3 -9 -5.5t-19 -7.5q-45 -32 -78 -171q-50 -213 -52 -218q-38 -136 -85 -220q-62 -110 -149 -159q-41 -23 -92 -23t-112 46t-61 96q0 4 2.5 4t5.5 -6q42 -105 152 -105q56 0 104 27q93 52 145 163q33 75 61 214q24 129 41 191l17 62q-63 -49 -151 -281
q0 -2 -6 -2t-13.5 7.5t-7.5 14.5l17 42q19 56 19 164q0 82 -35 82q-19 0 -47 -25l-28 -26q-3 0 -3 2.5t2 8.5q14 22 46 45t54 23q42 0 42 -81q0 -66 -27 -146q83 153 141 183q15 54 34 76q25 31 74 31q18 0 18 -6zM282 451q-5 0 -10 8t-5 16.5t21.5 24t33.5 15.5l3 -2
l-11 -12l-12 -30q-9 -20 -20 -20zM194 451q-6 0 -11 8t-5 16.5t22 24t33 15.5l3 -1v-1l-10 -12q-5 -10 -13 -30t-19 -20z" />
    <glyph glyph-name="hbar" unicode="&#x127;" horiz-adv-x="361" 
d="M14 -41q-12 0 -10 8q-3 8 -14.5 25.5t-11.5 23.5t7 7q18 11 45 35q50 146 145 363q-44 -2 -50.5 -2t-13.5 9t-9 15q6 6 86 8q54 118 57 128q7 18 20 41q11 23 53 23q15 0 15 -7l-98 -186q50 -1 71 -11q4 -1 4 -4.5t-14.5 -3.5t-72.5 -5q-99 -196 -143 -320
q117 117 155 193q6 10 19 10t13 -8l-9 -76q0 -61 18 -123q26 -86 71 -86q8 0 20 5t14 5q8 0 8 -9t-20.5 -17t-31.5 -8q-51 0 -88.5 77t-37.5 140q0 12 1 17q-33 -48 -143 -152q-13 -44 -22 -88q-7 -27 -33 -27zM20 28l-21 -17q5 -7 10 -21q8 30 11 38z" />
    <glyph glyph-name="Itilde" unicode="&#x128;" horiz-adv-x="631" 
d="M214 176l-92 -3q-18 0 -24 1q1 -1 1 -6.5t-6 -18.5q-37 -74 -37 -137.5t32 -99.5q34 -41 91 -41q103 0 210 156q121 179 211 457q20 57 20 64.5t-1 7.5q-11 0 -82 -40q-25 -157 -96 -320q-85 -195 -193 -265q-47 -32 -84 -32q-8 0 -8 6t10 7.5t43 11.5q83 38 163 173
q107 181 148 409q-48 -29 -81 -60q-26 -27 -48.5 -68.5t-22.5 -63t15 -31.5q5 -3 5 -5t-11 -2t-25 15q-13 16 -13 33q0 50 69 116q52 47 115 85q14 84 14 168q0 6 5 8q5 -3 5 -52.5t-8 -113.5q73 41 109 41q17 0 17 -16q0 -30 -23 -114q-83 -285 -233 -457
q-110 -131 -233 -131q-73 0 -107 50t-34 124.5t23 118.5q3 5 3 8t-19 6.5t-19 10.5q0 10 17 18q14 8 25 8l20 -2l140 6q47 0 69 -6q39 -10 39 -46q0 -26 -32 -45q-4 0 -4 2q0 4 11 15q10 15 10 16q0 34 -104 34zM785 760q0 -17 -20.5 -34t-49 -17t-49.5 9t-39 18
q-33 15 -43 15q-32 0 -50 -27q-4 -5 -7 -2.5t-3 6.5q0 21 18 34t47 13t51 -9t35.5 -15t19.5 -9q18 -7 31 -7q25 0 52 27q2 3 4.5 1.5t2.5 -3.5z" />
    <glyph glyph-name="itilde" unicode="&#x129;" horiz-adv-x="124" 
d="M123 254q13 0 13 -13.5t-56.5 -94t-56.5 -125.5q0 -15 9 -15q16 0 51 35q35 37 39 38q-4 -16 -40 -55.5t-50 -39.5t-22.5 14.5t-8.5 28.5q0 41 44.5 134t77.5 93zM295 415q0 -17 -20.5 -34t-49 -17t-49.5 9t-39 17q-33 16 -43 16q-32 0 -50 -27q-4 -5 -7 -2.5t-3 6.5
q0 21 18 34t47 13t51 -9t35.5 -15t19.5 -8q18 -8 31 -8q25 0 52 27q2 3 4.5 1.5t2.5 -3.5z" />
    <glyph glyph-name="dotlessi" unicode="&#x131;" horiz-adv-x="124" 
d="M123 254q13 0 13 -13.5t-56.5 -94t-56.5 -125.5q0 -15 9 -15q16 0 51 35q35 37 39 38q-4 -16 -40 -55.5t-50 -39.5t-22.5 14.5t-8.5 28.5q0 41 44.5 134t77.5 93z" />
    <glyph glyph-name="IJ" unicode="&#x132;" horiz-adv-x="1101" 
d="M775 86l32 3q4 0 4 -2q0 -10 -58.5 -10t-103.5 32q-54 38 -54 103q0 219 378 321q5 48 5 103q0 6 6 7q6 -1 6 -35.5t-2 -70.5l84 20q24 59 51.5 82t88.5 23q26 0 50 -11q28 -16 28 -39q0 -30 -47.5 -39.5t-112.5 -19.5q-78 -250 -90 -286q-118 -354 -345 -472
q-46 -25 -102.5 -25t-116 48t-59.5 107q0 7 4 7q1 0 3.5 -8t14.5 -36q39 -79 141 -79q60 0 119 30q122 63 194 189q45 81 98 257q26 90 75 256l-80 -20q-17 -171 -89 -351q-84 -210 -200 -292q-53 -36 -90 -36q-9 0 -9 6t8 8q119 16 223 210q115 213 143 451
q-341 -102 -341 -305q0 -59 41.5 -92.5t102.5 -33.5zM214 176l-92 -3q-18 0 -24 1q1 -1 1 -6.5t-6 -18.5q-37 -74 -37 -137.5t32 -99.5q34 -41 91 -41q103 0 210 156q121 179 211 457q20 57 20 64.5t-1 7.5q-11 0 -82 -40q-25 -157 -96 -320q-85 -195 -193 -265
q-47 -32 -84 -32q-8 0 -8 6t10 7.5t43 11.5q83 38 163 173q107 181 148 409q-48 -29 -81 -60q-26 -27 -48.5 -68.5t-22.5 -63t15 -31.5q5 -3 5 -5t-11 -2t-25 15q-13 16 -13 33q0 50 69 116q52 47 115 85q14 84 14 168q0 6 5 8q5 -3 5 -52.5t-8 -113.5q73 41 109 41
q17 0 17 -16q0 -30 -23 -114q-83 -285 -233 -457q-110 -131 -233 -131q-73 0 -107 50t-34 124.5t23 118.5q3 5 3 8t-19 6.5t-19 10.5q0 10 17 18q14 8 25 8l20 -2l140 6q47 0 69 -6q39 -10 39 -46q0 -26 -32 -45q-4 0 -4 2q0 4 11 15q10 15 10 16q0 34 -104 34zM1282 617
q0 34 -54 34q-45 0 -89 -83q29 3 118 22q25 10 25 27z" />
    <glyph glyph-name="ij" unicode="&#x133;" horiz-adv-x="372" 
d="M265 1q110 -3 110 -12t-18 -9q-24 6 -95 6q-27 -106 -115 -191.5t-199 -138.5q-90 -41 -149 -41q-86 0 -86 72q0 63 66 133q48 52 119 94q141 82 330 87q9 30 13 71.5t10 70.5q-29 -26 -32 -26q-1 0 -1 5.5t10 15.5q18 18 22 21.5t7 7.5l25 79q6 11 24.5 11t18.5 -9
t-7 -32q-7 -17 -16 -23q-7 -26 -18.5 -94.5t-18.5 -97.5zM-207 -197q-60 -61 -60 -110.5t77 -49.5q131 0 253.5 106.5t161.5 235.5q-79 -3 -171 -31q-167 -51 -261 -151zM191 137q2 0 2 -2q0 -17 -55 -75q-44 -44 -67 -44q-51 0 -51 51q0 38 20 96l-18 -28q-13 -22 -18 -22
q-2 0 -2 5.5t15 25.5t44 82q8 21 22 47q5 9 23.5 9t18.5 -10t-10 -30t-17 -23q-52 -104 -52 -153q0 -33 22 -33q36 0 79 52q18 21 22 25.5t8 9.5t7 8q5 5 7 9zM187 419q5 0 5 -2.5t-23 -28.5l-15 -31q-9 -20 -23 -20q-20 0 -20 21q0 10 13.5 25.5t35.5 25.5t27 10zM341 392
q36 17 40.5 17t4.5 -3t-22 -28l-15 -31q-9 -20 -23 -20q-20 0 -20 21q0 10 11 23.5t24 20.5z" />
    <glyph glyph-name="Jcircumflex" unicode="&#x134;" horiz-adv-x="478" 
d="M191 86l32 3q4 0 4 -2q0 -10 -58.5 -10t-103.5 32q-54 37 -54 103q0 219 378 321q5 48 5 103q0 6 6 7q6 -1 6 -35.5t-2 -70.5l84 20q24 59 51.5 82t88.5 23q26 0 50 -11q28 -16 28 -39q0 -30 -47.5 -39.5t-112.5 -19.5q-78 -250 -90 -286q-118 -354 -345 -472
q-46 -25 -102.5 -25t-116 48t-59.5 107q0 7 4 7q1 0 3.5 -8t14.5 -36q39 -79 141 -79q60 0 119 30q122 63 194 189q45 81 98 257q26 90 75 256l-80 -20q-17 -171 -89 -351q-84 -210 -200 -292q-53 -36 -90 -36q-9 0 -9 6t8 8q119 16 223 210q115 213 143 451
q-341 -102 -341 -305q0 -59 41.5 -92.5t102.5 -33.5zM771 669q-14 0 -45.5 23t-44 34t-21 20t-10.5 11q-122 -84 -134 -84q-5 0 -5 3.5t1 6.5q2 11 64 54t74.5 49.5t19 6.5t13.5 -9q35 -45 95 -98q7 -5 7 -11t-14 -6zM698 617q0 34 -54 34q-45 0 -89 -83q29 3 118 22
q25 10 25 27z" />
    <glyph glyph-name="jcircumflex" unicode="&#x135;" horiz-adv-x="198" 
d="M91 1q110 -3 110 -12t-18 -9q-24 6 -95 6q-27 -106 -115 -191.5t-199 -138.5q-90 -41 -149 -41q-86 0 -86 72q0 63 66 133q48 52 119 94q141 82 330 87q9 30 13 71.5t10 70.5q-29 -26 -32 -26q-1 0 -1 5.5t16 21.5l23 23l25 79q6 11 24.5 11t18.5 -9t-7 -32
q-7 -17 -16 -23q-7 -26 -18.5 -94.5t-18.5 -97.5zM-381 -197q-60 -61 -60 -110.5t77 -49.5q131 0 253.5 106.5t161.5 235.5q-79 -3 -171 -31q-167 -51 -261 -151zM26 365q-7 0 -7 10.5t61 59.5q62 52 74 53l6 -2q38 -42 125 -108l6 -10l-5 -7q-21 2 -75 36t-70 52
q-102 -84 -115 -84z" />
    <glyph glyph-name="kcommaaccent" unicode="&#x137;" horiz-adv-x="291" 
d="M277 -25q20 0 35 14t17.5 14t2.5 -3t-2 -9q-24 -39 -67 -39t-97.5 47.5t-91.5 100.5l-38 -62q-24 -38 -46 -56q-8 -23 -31 -23q-11 0 -11 8q0 28 58 177l-19 -2q-6 0 -6 2q0 14 30 15q55 134 73 176q-46 -25 -66 -25q-4 0 -4 3q0 10 14 16q2 1 8 3q34 16 61 36l113 252
q11 23 47 23q19 0 19 -11q0 -4 -9 -27q-29 -79 -94 -183q-24 -30 -33 -49q-15 -29 -34.5 -68t-66.5 -142q20 19 27 19t13 -11q16 5 29 11q3 7 27.5 49.5t56.5 77.5q47 53 78 53t31 -67q0 -83 -182 -125q-6 -12 -21 -33q31 -55 75 -101q58 -61 104 -61zM252 301q0 28 -13 28
q-22 0 -86 -97l-25 -45q124 45 124 114zM58 -110l-6 29q0 9 6 20t16 11t23 -19q2 -9 2 -15q0 -45 -62 -125q-29 -38 -36 -38q-1 0 -1 1q58 87 58 136zM67 111q-11 19 -21 41l-11 -1q-18 -45 -41 -149q36 42 73 109z" />
    <glyph glyph-name="kgreenlandic" unicode="&#x138;" horiz-adv-x="392" 
d="M581 -166h15.5t20 4t11 2t-4.5 -7q-34 -31 -73 -31q-66 0 -138 63q-70 59 -113 138q-15 30 -42 85.5t-36 72.5l-43 -76q-80 -143 -124 -143q-15 0 -15 10q0 5 13 6q47 6 104 103q7 11 59 110q-12 23 -21 38q-147 -303 -327 -345q-14 -2 -14 7q0 5 11 6q84 26 176 160
q68 97 120 219q-35 39 -75 62l-8 7q5 5 13 5q23 0 76 -60q46 109 73 278q4 25 34 33q9 3 20 3q13 0 17 -20q0 -54 -38.5 -161.5t-69.5 -176.5q15 -16 25 -32q6 12 20.5 39.5t19 36.5t15.5 29.5t15.5 28t12.5 22t13.5 22t12 17.5t13.5 18q75 95 169 95q57 0 91.5 -42
t34.5 -102q0 -16 -2.5 -16t-2.5 13q0 53 -37 87q-28 25 -98 25q-40 0 -74 -25.5t-79 -80.5q-29 -37 -117 -176q113 -154 124 -169q83 -110 136 -146t87 -36z" />
    <glyph glyph-name="Ldotaccent" unicode="&#x13f;" horiz-adv-x="631" 
d="M961 -76q0 -52 -64 -86q-53 -28 -114.5 -28t-135.5 31.5t-180 89.5t-145 75q-59 -68 -116.5 -104.5t-133.5 -36.5q-41 0 -82 29t-41 68q0 55 55 83q44 23 105 23t154 -29q31 42 65 106q-7 -1 -22 -1q-210 0 -210 149q0 79 84 124q4 3 7.5 3t3.5 -2.5t-1 -3.5
q-63 -23 -63 -95.5t70 -117.5q60 -39 139 -40q22 41 76 157t91 171q87 130 186 130q11 0 11 -3t-11 -3q-95 0 -181 -134q-28 -45 -84 -164.5t-74 -153.5q32 0 65 6q7 8 29 60q19 51 25 64q140 320 312 320q35 0 56 -24t21 -61q0 -149 -326 -316q-42 -22 -55.5 -27.5
t-18.5 -8.5q-8 -4 -31 -14q-8 -14 -38.5 -61.5t-54.5 -79.5l257 -100q158 -60 258.5 -60t100.5 57q0 37 -34 89q18 -11 30 -35q15 -25 15 -46zM847 540q0 22 -17.5 32t-41.5 10q-112 0 -278 -285q-49 -84 -74 -123q97 34 244 153q167 135 167 213zM85 -78q-14 0 -14 3.5
t14 3.5q93 0 171 102q-92 30 -143.5 30t-97.5 -21t-46 -61.5t39 -65.5q31 -22 79 -22t121 38t103 80q-14 9 -44 19q-82 -106 -182 -106zM408 153q-47 -6 -66 -7q-32 -58 -68 -110q10 -4 45 -14q14 14 89 131zM616 169q5 0 5 -8t-10.5 -44t-30.5 -36q-6 0 -14 11
q-7 11 -7 24.5t18 20.5q29 32 39 32z" />
    <glyph glyph-name="ldot" unicode="&#x140;" horiz-adv-x="247" 
d="M264 506q-8 -4 -18 -15q-184 -343 -184 -441q0 -33 22 -33q28 0 78 44q8 7 11.5 10t2.5 3q4 0 4 -3t-4 -9q-44 -62 -90 -62q-50 0 -50 53t51 191q-25 -34 -35 -34q-3 0 -3 2t26.5 36.5t28.5 38.5q31 90 93 216t85 168q8 17 33.5 17t25.5 -7t-77 -175zM258 229q5 0 5 -8
t-10.5 -44t-30.5 -36q-6 0 -14 11q-7 11 -7 24.5t18 20.5q29 32 39 32z" />
    <glyph glyph-name="Lslash" unicode="&#x141;" horiz-adv-x="734" 
d="M675 98q37 -34 37 -78t-54 -85t-93 -48.5t-62 -7.5q-85 0 -229 48q-199 67 -227 73l-53 -31q-30 -17 -60.5 -17t-30.5 13q0 8 23 8q75 0 277 298q-162 -73 -170 -73q-13 0 -13 25q0 8 4 9q54 23 217 93q147 228 173 264q71 97 147 97q52 0 80 -47q23 -37 23 -97.5
t-23 -115.5q-1 -3 -7.5 -3t-6.5 6l2 6q21 47 21 91.5t-21 87.5t-61 43q-57 0 -125.5 -99.5t-139.5 -209.5q70 23 129.5 30t61.5 7q8 0 8 -6.5t-6 -7.5q-73 -17 -105 -26t-119 -45q-117 -183 -145 -221.5t-55 -63.5l228 -46q136 -27 211.5 -27t122.5 13q68 20 68 62
q0 21 -21.5 52.5t-21.5 35t2 3.5q4 0 14 -10z" />
    <glyph glyph-name="lslash" unicode="&#x142;" horiz-adv-x="163" 
d="M440 419q0 -7 -7 -8q-25 -5 -77 -17q-50 -12 -198 -75q-96 -199 -96 -269q0 -33 22 -33q28 0 78 44q8 7 11.5 10t2.5 3q4 0 4 -3t-4 -9q-44 -62 -90 -62q-50 0 -50 53t51 191q-25 -34 -35 -34q-3 0 -3 2t26.5 36.5t28.5 38.5l3 9q-124 -57 -137 -57t-13 24q0 9 5 11
q13 4 164 69q90 207 156 328q8 17 33.5 17t25.5 -9q0 -5 -77 -173q-8 -4 -18 -15q-15 -28 -30 -58t-23 -44.5t-11 -21.5q92 36 160.5 47.5t89.5 11.5q8 0 8 -7z" />
    <glyph glyph-name="Nacute" unicode="&#x143;" horiz-adv-x="908" 
d="M41 26q-20 -45 -20 -72.5t18.5 -51.5t49.5 -24q119 0 239 117q105 104 176 255t71 266q0 11 -1 17q-20 -9 -48 -13q-20 -100 -66.5 -211.5t-114 -218t-138.5 -154.5q-40 -25 -70 -25q-10 0 -10 5.5t11.5 7.5t36.5 10q83 37 169 172q124 196 169 412l-123 -15
q-103 -10 -159 -24q-113 -30 -113 -88q0 -43 44 -89q41 -39 88 -51q6 -1 6 -3q0 -4 -8 -4q-55 0 -101 46q-45 46 -45 104t88 98q71 33 154.5 46t177.5 26q8 62 8 142q0 7 6 7q5 0 5 -50.5t-7 -96.5q17 3 41 10q5 7 14 7t11 -15q3 -29 29 -173q37 -209 88 -322
q20 44 48.5 191.5t51.5 212.5q50 140 141 191q27 15 54 15q46 0 88 -53q42 -50 42 -95q0 -4 -3 -4t-6 8q-12 41 -38.5 68.5t-66.5 27.5q-21 0 -43 -11q-90 -41 -145 -178q-25 -63 -47.5 -157.5t-26.5 -112.5q-21 -80 -39 -122q41 -84 91 -84q28 0 59 25q33 26 30 26
q2 0 2 -4.5t-6 -8.5q-58 -58 -112.5 -58t-97.5 60q-11 -6 -27 -6t-16 12q0 3 12 5.5t19 6.5q-43 68 -64 201q-18 176 -21 214q-24 -136 -104.5 -271.5t-188 -222t-218.5 -86.5q-37 0 -60 20.5t-23 60.5t31 83q3 3 5.5 3t2.5 -4zM846 786q10 -7 10 -18q0 -15 -34 -31
q-13 -6 -63 -38t-59 -32l-2 2q0 8 14 19q46 34 51 39q28 24 36 50q4 16 27 16q10 0 20 -7z" />
    <glyph glyph-name="nacute" unicode="&#x144;" horiz-adv-x="288" 
d="M-8 -6l56 253q-4 14 -22 54q0 7 17 13q50 19 64.5 19t14.5 -9q-37 -92 -51 -128v-6q0 -31 -9 -31q-2 0 -3 3q-21 -63 -29 -92q46 75 94 131q75 87 124 87q23 0 23 -18q0 -7 -58 -220q58 43 90 92q5 6 7.5 6t2.5 -3t-3 -8q-44 -78 -107 -124q-5 -6 -12.5 -6t-7.5 9t12 68
t17.5 90t7.5 78q-41 -20 -101 -86t-79.5 -103t-25 -60.5t-14 -23.5t-8.5 13v2zM298 504q10 -7 10 -18q0 -15 -34 -31q-13 -6 -63 -38t-59 -32l-2 2q0 8 14 19q46 34 51 39q28 24 36 50q4 16 27 16q10 0 20 -7zM63 307q-5 -4 -19 -10l10 -23z" />
    <glyph glyph-name="OE" unicode="&#x152;" horiz-adv-x="1006" 
d="M886 270l-72 2q-146 0 -196 -42q-45 -208 -113 -279q475 7 475 124q0 19 -16.5 45.5t-16.5 32.5t7 6q18 0 31.5 -32t13.5 -55q0 -82 -95 -120q-68 -27 -194 -27l-248 10q-3 0 -7 2q-14 -2 -14 8q0 5 35 5q39 31 67 192q-48 -82 -140 -139t-181 -57t-136 46.5t-47 127.5
q0 43 12 85q-17 39 -17 85q0 73 58 134q111 116 293 116q66 0 123.5 -35.5t76.5 -94.5q16 94 32 144q-143 0 -143 9q0 4 46 12t109 10q21 48 40 48q16 0 16 -16q0 -2 -11 -32q158 -5 275 -39q37 -10 37 -24.5t-24.5 -14.5t-48.5 7q-103 31 -248 39q-14 -56 -29.5 -159.5
t-15.5 -108.5q36 16 130.5 16t138.5 -14q6 -1 6 -7q0 -10 -9 -10zM580 372.5q1 7.5 1 15t-13 32.5q-24 46 -76 72.5t-107 26.5q-96 0 -175 -42q-87 -45 -126 -127q-19 -39 -19 -84q0 -10 2 -16q54 101 152 168q105 74 211 74q20 0 20 -6t-21 -6q-91 0 -199.5 -93
t-149.5 -186q20 -40 80 -68.5t110 -28.5h11q11 0 11 -4q0 -10 -47.5 -10t-97 22.5t-77.5 61.5q-15 -42 -15 -56q0 -64 37.5 -97t104.5 -33t143 36q131 62 199 170q5 8 19 36q2 3 8.5 49t9.5 66t4 27.5z" />
    <glyph glyph-name="oe" unicode="&#x153;" horiz-adv-x="433" 
d="M223 256q0 -4 -0.5 -12.5t-0.5 -12.5l19 21q53 54 99 54q11 0 11 -2.5t-14 -10.5q-36 -20 -69.5 -62t-48.5 -84l2 -2q48 0 100.5 46.5t52.5 93.5q0 14 -8 27q-9 12 -25.5 12t-42 -15.5t-27.5 -15.5t-2 1q0 13 32.5 25.5t52 12.5t35.5 -13t16 -36q0 -54 -66 -100.5
t-124 -51.5q-8 -24 -8 -46q0 -83 60 -83q46 0 93 37.5t74 82.5q9 14 14 14q2 0 2 -3t-9 -17q-32 -52 -90.5 -93.5t-110.5 -41.5q-69 0 -71 89q-47 -77 -109 -77q-39 0 -39 50q0 61 46 125q-16 39 -16 81.5t17 76.5q34 69 74 69t63 -53q18 -42 18 -86zM151 367q-32 0 -59 -63
q-17 -38 -17 -73t3 -52q61 82 128 102q-20 86 -55 86zM207 253q-22 -3 -68.5 -40.5t-57.5 -59.5q21 -76 51 -83q21 20 42 70q-9 9 -14 21l20 -8q3 17 14 38q13 41 13 62zM74 144q-33 -56 -33 -88.5t22 -32.5q27 0 65 42q-33 4 -54 79z" />
    <glyph glyph-name="Racute" unicode="&#x154;" horiz-adv-x="923" 
d="M239 185q-9 36 -50 36q-71 0 -114 -71q-39 -62 -39 -130t30 -107q31 -45 94 -45q116 0 229 159q64 93 103 172q-25 5 -55 17q-49 -104 -117 -192q-96 -126 -170 -126q-9 0 -9 6.5t12 8t30 6.5q66 26 144 130q54 74 100 171q-67 32 -67 69q0 18 19 33.5t41.5 15.5
t49.5 -20q61 159 71 295q-90 -4 -183 -34t-148 -88q-38 -38 -38 -85q0 -80 84 -112q11 -6 40 -12q6 -2 6 -6t-8 -2h-1q-54 0 -110.5 47t-56.5 106q0 42 35 77q58 60 165.5 90t216.5 35v64q0 8 6 8t6 -31v-40h45q72 0 150 -15q89 -20 145 -59q76 -53 76 -128.5t-73 -133.5
q-108 -89 -316 -99q14 -19 40 -55q58 -79 89 -119q83 -113 136.5 -150t89.5 -37q54 0 54 68.5t-41 124.5q-3 3 -3 5.5t4.5 2.5t8.5 -7q47 -54 47 -118q0 -46 -28 -77t-73 -31q-66 0 -138 63q-86 74 -157 225l-52 105h-17q-164 -338 -379 -338q-74 0 -118 47.5t-44 127
t49.5 143.5t128.5 64q23 0 42 -13q21 -11 21 -34q0 -6 -3 -7zM750 239q171 52 171 169q0 67 -66 121q-48 42 -131 66q-72 19 -151 19h-19q-9 -135 -75 -302q25 -21 44 -43q38 92 64 209q4 22 6 29q7 30 39 30q18 0 18 -15q0 -7 -8 -42q-27 -124 -84 -253l7 -9q109 0 185 21z
M778 792q10 -7 10 -18q0 -15 -34 -31q-13 -6 -63 -38t-59 -32l-2 2q0 8 14 19q46 34 51 39q28 24 36 50q4 16 27 16q10 0 20 -7zM418 326q-28 0 -28 -30.5t47 -56.5q19 41 28 68q-29 19 -47 19zM518 255q-23 27 -44 44q-15 -37 -28 -64q26 -11 56 -15z" />
    <glyph glyph-name="Rcommaaccent" unicode="&#x156;" horiz-adv-x="923" 
d="M239 185q-9 36 -50 36q-71 0 -114 -71q-39 -62 -39 -130t30 -107q31 -45 94 -45q116 0 229 159q64 93 103 172q-25 5 -55 17q-49 -104 -117 -192q-96 -126 -170 -126q-9 0 -9 6.5t12 8t30 6.5q66 26 144 130q54 74 100 171q-67 32 -67 69q0 18 19 33.5t41.5 15.5
t49.5 -20q61 159 71 295q-90 -4 -183 -34t-148 -88q-38 -38 -38 -85q0 -80 84 -112q11 -6 40 -12q6 -2 6 -6t-8 -2h-1q-54 0 -110.5 47t-56.5 106q0 42 35 77q58 60 165.5 90t216.5 35v64q0 8 6 8t6 -31v-40h45q72 0 150 -15q89 -20 145 -59q76 -53 76 -128.5t-73 -133.5
q-108 -89 -316 -99q14 -19 40 -55q58 -79 89 -119q83 -113 136.5 -150t89.5 -37q54 0 54 68.5t-41 124.5q-3 3 -3 5.5t4.5 2.5t8.5 -7q47 -54 47 -118q0 -46 -28 -77t-73 -31q-66 0 -138 63q-86 74 -157 225l-52 105h-17q-164 -338 -379 -338q-74 0 -118 47.5t-44 127
t49.5 143.5t128.5 64q23 0 42 -13q21 -11 21 -34q0 -6 -3 -7zM750 239q171 52 171 169q0 67 -66 121q-48 42 -131 66q-72 19 -151 19h-19q-9 -135 -75 -302q25 -21 44 -43q38 92 64 209q4 22 6 29q7 30 39 30q18 0 18 -15q0 -7 -8 -42q-27 -124 -84 -253l7 -9q109 0 185 21z
M475 -200l-6 29q0 9 6 20t16 11t23 -19q2 -9 2 -15q0 -45 -62 -125q-29 -38 -36 -38q-1 0 -1 1q58 87 58 136zM418 326q-28 0 -28 -30.5t47 -56.5q19 41 28 68q-29 19 -47 19zM518 255q-23 27 -44 44q-15 -37 -28 -64q26 -11 56 -15z" />
    <glyph glyph-name="rcommaaccent" unicode="&#x157;" horiz-adv-x="279" 
d="M285 230q0 -29 -17.5 -54t-33.5 -25q-3 0 -3 4q6 15 14 32.5t8 40t-17 22.5q-23 0 -72.5 -55.5t-69.5 -90.5l-43 -115q-2 -2 -7.5 -2t-16 7t-10.5 12q2 4 5.5 13t6.5 14q39 83 53.5 134.5t14.5 101.5q-4 -16 -36 -71q-48 -83 -54 -83t-6 3q0 2 41.5 69t56.5 125
q6 26 20 26q16 0 16 -40q0 -72 -46 -177q54 67 75 90q57 61 89 61t32 -42zM14 -133l-6 29q0 8 6 19.5t16 11.5t23 -19q2 -9 2 -15q0 -45 -62 -125q-29 -38 -36 -38q-1 0 -1 1q58 87 58 136z" />
    <glyph glyph-name="Rcaron" unicode="&#x158;" horiz-adv-x="923" 
d="M239 185q-9 36 -50 36q-71 0 -114 -71q-39 -62 -39 -130t30 -107q31 -45 94 -45q116 0 229 159q64 93 103 172q-25 5 -55 17q-49 -104 -117 -192q-96 -126 -170 -126q-9 0 -9 6.5t12 8t30 6.5q66 26 144 130q54 74 100 171q-67 32 -67 69q0 18 19 33.5t41.5 15.5
t49.5 -20q61 159 71 295q-90 -4 -183 -34t-148 -88q-38 -38 -38 -85q0 -80 84 -112q11 -6 40 -12q6 -2 6 -6t-8 -2h-1q-54 0 -110.5 47t-56.5 106q0 42 35 77q58 60 165.5 90t216.5 35v64q0 8 6 8t6 -31v-40h45q72 0 150 -15q89 -20 145 -59q76 -53 76 -128.5t-73 -133.5
q-108 -89 -316 -99q14 -19 40 -55q58 -79 89 -119q83 -113 136.5 -150t89.5 -37q54 0 54 68.5t-41 124.5q-3 3 -3 5.5t4.5 2.5t8.5 -7q47 -54 47 -118q0 -46 -28 -77t-73 -31q-66 0 -138 63q-86 74 -157 225l-52 105h-17q-164 -338 -379 -338q-74 0 -118 47.5t-44 127
t49.5 143.5t128.5 64q23 0 42 -13q21 -11 21 -34q0 -6 -3 -7zM750 239q171 52 171 169q0 67 -66 121q-48 42 -131 66q-72 19 -151 19h-19q-9 -135 -75 -302q25 -21 44 -43q38 92 64 209q4 22 6 29q7 30 39 30q18 0 18 -15q0 -7 -8 -42q-27 -124 -84 -253l7 -9q109 0 185 21z
M621 799q18 0 49.5 -23t44 -34t21 -20t10.5 -11q121 84 134 84q5 0 5 -3.5t-1 -6.5q-2 -11 -64 -54t-79 -52.5t-28 5.5q-35 45 -95 98q-11 8 -7 12.5t10 4.5zM418 326q-28 0 -28 -30.5t47 -56.5q19 41 28 68q-29 19 -47 19zM518 255q-23 27 -44 44q-15 -37 -28 -64
q26 -11 56 -15z" />
    <glyph glyph-name="rcaron" unicode="&#x159;" horiz-adv-x="279" 
d="M285 230q0 -29 -17.5 -54t-33.5 -25q-3 0 -3 4q6 15 14 32.5t8 40t-17 22.5q-23 0 -72.5 -55.5t-69.5 -90.5l-43 -115q-2 -2 -7.5 -2t-16 7t-10.5 12q2 4 5.5 13t6.5 14q39 83 53.5 134.5t14.5 101.5q-4 -16 -36 -71q-48 -83 -54 -83t-6 3q0 2 41.5 69t56.5 125
q6 26 20 26q16 0 16 -40q0 -72 -46 -177q54 67 75 90q57 61 89 61t32 -42zM93 505q14 0 45.5 -23t44 -34t21 -20t10.5 -11q121 84 134 84q5 0 5 -3.5t-1 -6.5q-2 -11 -64 -54t-74.5 -49.5t-19 -6.5t-13.5 9q-35 45 -95 98q-7 5 -7 11t14 6z" />
    <glyph glyph-name="Scaron" unicode="&#x160;" horiz-adv-x="667" 
d="M716 558q0 -34 -44 -51q-32 -12 -74.5 -12t-91 11t-78.5 33q-2 2 -2 4t3 2t4 -1q59 -38 163 -38q33 0 64 13t31 40q0 38 -55 57q-42 14 -85 14q-132 0 -180 -86q-15 -26 -15 -55q0 -65 71 -112q57 -39 132 -84q71 -59 71 -145q0 -116 -120 -187q-101 -59 -214.5 -59
t-181.5 40q-85 49 -85 140.5t68 150.5t158 59q49 0 49 -9q0 -2 -16.5 -2h-17.5q-85 0 -149.5 -51.5t-64.5 -137.5t59.5 -134t141 -48t173.5 37q157 63 157 197q0 82 -72 133q-24 17 -69 45t-64 41q-71 49 -71 118q0 47 34 84q-32 -3 -53 -30.5t-21 -60.5q0 -73 68 -125
q30 -24 71 -50.5t55 -36.5q68 -56 68 -130t-74 -138t-151 -64q-5 0 -5 3q0 6 8 6q36 5 55 12q58 22 103 73t45 107q0 77 -67 127q-20 15 -61.5 43t-61.5 43q-67 50 -67 129q0 39 27.5 69t65.5 30h2q74 71 192 71t159 -51q13 -16 13 -34zM383 788q0 9 6 9q11 0 98 -72
q16 17 61.5 45t63.5 30l4 -6l-4 -8q-74 -56 -108 -93l-5 -2q-11 1 -63.5 44.5t-52.5 52.5z" />
    <glyph glyph-name="scaron" unicode="&#x161;" horiz-adv-x="254" 
d="M279 145q0 -4 -2 -7q-34 -57 -84 -67q-3 -35 -21.5 -59t-60 -24t-78.5 39.5t-37 86.5q0 31 16 31q10 0 20 -15q30 70 85 158q35 54 82 54q10 0 23.5 -7.5t13.5 -16.5q0 -7 -8.5 -7t-12.5 1h-8q-23 0 -39.5 -13.5t-16.5 -28t3 -23.5l24 -80q14 -50 14 -82q27 4 42.5 17
t35.5 43q3 4 6 4t3 -4zM151 72q1 5 1 21t-14.5 75t-14.5 74t1 19q-26 -27 -85 -144q42 -24 63 -33.5t49 -11.5zM135 452q-53 44 -53 52.5t9 8.5t96 -72q16 17 61.5 46t63.5 29l4 -6l-5 -8q-75 -57 -107 -93l-5 -2q-11 1 -64 45zM97 21q39 0 53 39q-80 0 -122 33
q2 -23 24 -47.5t45 -24.5z" />
    <glyph glyph-name="Ydieresis" unicode="&#x178;" horiz-adv-x="672" 
d="M736 477q0 -4 -4 -5.5t-24 -7.5q-55 -35 -92 -195l-59 -247q-42 -154 -95 -249q-69 -124 -169 -180q-46 -25 -107 -25t-117 44q-52 44 -75 111q-1 1 -1 5.5t2.5 4.5t7.5 -8q9 -27 20 -41q49 -76 151 -76q64 0 118 30q105 59 163 184q41 92 79 293q13 67 45 196
q-69 -118 -143 -210q-116 -146 -187 -146q-64 0 -64 87t58.5 234t123.5 258l-40 16q-83 -115 -146.5 -291.5t-63.5 -304.5q0 -9 -4.5 -9t-4.5 29q0 129 64 298.5t146 280.5q-60 20 -114 20q-106 0 -177 -68q-19 -18 -19 -39q0 -38 64 -65q23 -11 23 -12.5t-6 -1.5t-23 8
q-80 36 -80 83q0 23 23 46q72 73 209 73q62 0 122 -16q45 55 57 55q4 0 3 -3t-19.5 -20t-31.5 -34q78 -23 78 -40v-3q-26 -40 -46 -81q-144 -270 -144 -419q0 -62 31 -62q46 0 155 133q93 116 166 240q23 101 72 125q24 12 49.5 12t25.5 -7zM536 582q-7 0 -11 7t-4 15.5
t21.5 23t31.5 14.5l2 -1v-1l-10 -11q-2 -4 -11 -25.5t-19 -21.5zM619 582q-5 0 -9.5 7.5t-4.5 15t20 22.5q21 15 32 15l3 -2l-10 -11l-12 -29q-8 -18 -19 -18z" />
    <glyph glyph-name="Zcaron" unicode="&#x17d;" horiz-adv-x="819" 
d="M312 220q0 -5 3 -10.5t2 -6.5q-10 0 -20.5 12.5t-10.5 25.5q0 50 149 56q181 191 319 285q-109 17 -178.5 27t-124.5 10t-100 -16q-65 -23 -65 -65q0 -16 7.5 -27.5t8.5 -13.5q2 -4 3 -5q0 -7 -7 -8l-3 1q-23 31 -23 66t38 66t77 37.5t91 6.5q71 0 310 -57q35 22 95 52
t76 30q2 0 2 -2q0 -8 -10 -12q-30 -10 -62 -23t-88 -47q39 -8 85 -14q56 27 97 27t41 -15q0 -28 -127 -28h-17q-124 -81 -320 -275q101 -3 160 -15q7 -1 7 -3.5t-6 -2.5l-90 4q-29 0 -91 -2q-56 -58 -219 -223q31 -12 104.5 -41t114.5 -44q130 -49 219 -49t89 47
q0 31 -30 74q14 -6 27 -28t13 -39q0 -43 -56 -72q-46 -24 -95 -24q-74 0 -201 64l-195 100q-53 -58 -100.5 -88t-114.5 -30q-34 0 -69.5 24t-35.5 58q0 46 48 70q37 19 85 19t109 -14l170 182q-91 -16 -91 -44zM99 -24q-16 0 -22 8h5q50 0 142 90q-60 16 -99 16t-78 -17.5
t-39 -52t31 -54t69.5 -19.5t100.5 32t88 68q-19 12 -56 22q-95 -93 -142 -93zM857 573q-25 1 -88 7q-120 -82 -309 -282q14 1 28 1l29 -1q175 184 340 275zM494 275q-42 -4 -62 -7q-50 -54 -183 -190q24 -7 58 -18q55 65 187 215zM699 800q14 0 45.5 -23t44 -34t21 -20
t10.5 -11q122 84 134 84q7 0 4 -10q-2 -11 -64 -54t-79 -52.5t-28 5.5q-35 45 -95 98q-7 5 -7 11t14 6zM986 598q0 4 -20 4t-56 -15q8 -1 18 -1h11q47 0 47 12z" />
    <glyph glyph-name="zcaron" unicode="&#x17e;" horiz-adv-x="279" 
d="M326 -59l2 9q0 14 -31.5 25t-52.5 11q-27 -106 -115 -191.5t-199 -138.5q-90 -41 -149 -41q-86 0 -86 72q0 64 65 133q50 53 120 94q141 82 330 87q14 48 14 86q0 73 -49 73q-18 0 -76 -28q-10 0 -10 9q0 4 5 9q25 22 60.5 70.5t35.5 67.5t-14 19q-49 0 -154 -172
q-3 -6 -7 -6t-4 4.5t3 8.5l40 68q69 117 124 117q45 0 45 -30q0 -46 -70 -122q28 17 47 17q58 0 58 -102q0 -47 -11 -89q30 -2 62 -13.5t32 -31t-12 -19.5q-3 0 -3 4zM-285 -307q0 -50 76 -50q130 0 253.5 106.5t162.5 235.5q-80 -3 -172.5 -31t-151 -63.5t-113.5 -93
t-55 -104.5zM228 399q-10 1 -63 45t-53 52.5t6 8.5q10 0 99 -72q16 17 62 45.5t63 29.5l4 -6l-5 -8q-75 -57 -107 -93z" />
    <glyph glyph-name="florin" unicode="&#x192;" horiz-adv-x="222" 
d="M389 649q35 0 60 -22.5t25 -64t-20 -41.5q-2 0 -2 13v17q0 83 -42 83q-62 0 -150 -190q-32 -67 -100 -246q86 -3 86 -15q0 -5 -6 -5q-36 0 -89 -3q-84 -229 -128 -310q-46 -87 -126 -87q-33 0 -56 23q-23 25 -23 61.5t16 36.5q2 0 5 -28t8 -43q13 -34 44 -34
q99 0 178 232q12 35 46 146l-56 -5q-12 0 -20 23l1 2q44 5 82 6q32 109 59 193t66 151q63 107 142 107z" />
    <glyph glyph-name="circumflex" unicode="&#x2c6;" horiz-adv-x="370" 
d="M314 361q-14 0 -45.5 23t-44 34t-21 20t-10.5 11q-121 -84 -134 -84q-5 0 -5 3.5t1 6.5q2 11 64 54t74.5 49.5t19 6.5t13.5 -9q35 -45 95 -98q7 -5 7 -11t-14 -6z" />
    <glyph glyph-name="caron" unicode="&#x2c7;" horiz-adv-x="279" 
d="M69 505q14 0 45.5 -23t44 -34t21 -20t10.5 -11q122 84 134 84q5 0 5 -3.5t-1 -6.5q-2 -11 -64 -54t-74.5 -49.5t-19 -6.5t-13.5 9q-35 45 -95 98q-7 5 -7 11t14 6z" />
    <glyph glyph-name="breve" unicode="&#x2d8;" horiz-adv-x="270" 
d="M90 487q6 0 6 -24q7 -28 44 -28q25 0 67.5 20t48.5 20l5 -4q-10 -15 -53.5 -35t-62.5 -20q-71 0 -71 40q0 31 16 31z" />
    <glyph glyph-name="dotaccent" unicode="&#x2d9;" horiz-adv-x="152" 
d="M147 506q5 0 5 -7.5t-10.5 -44t-30.5 -36.5q-8 0 -14.5 12t-6.5 20q0 18 18 24q29 32 39 32z" />
    <glyph glyph-name="ring" unicode="&#x2da;" horiz-adv-x="229" 
d="M219 503q0 -37 -28.5 -66t-63.5 -29q-41 0 -41 39q0 22 11 46t28 29q17 33 51 33q19 0 31 -16.5t12 -35.5zM138 427q23 0 40 25t17 54.5t-22 29.5q-12 0 -29 -13l11 -5q-2 -5 -17 -28t-15 -43t15 -20z" />
    <glyph glyph-name="ogonek" unicode="&#x2db;" horiz-adv-x="234" 
d="M201 -110q0 -14 -43.5 -28t-64.5 -14q-55 0 -55 42q0 27 20 71.5t43 46.5l3 -3q-34 -47 -34 -88t45 -41q15 0 44 11.5t31 11.5q11 0 11 -9z" />
    <glyph glyph-name="tilde" unicode="&#x2dc;" horiz-adv-x="327" 
d="M302 415q0 -17 -20.5 -34t-49 -17t-49.5 9t-39 17q-33 16 -43 16q-32 0 -50 -27q-5 -5 -7.5 -2.5t-2.5 6.5q0 21 18 34t46.5 13t51 -9t36 -15t19.5 -8q18 -8 31 -8q25 0 52 27q2 3 4.5 1.5t2.5 -3.5z" />
    <glyph glyph-name="hungarumlaut" unicode="&#x2dd;" horiz-adv-x="198" 
d="M167 348q-2 2 20.5 34.5t34 46.5t11.5 20t-1.5 13t2.5 13.5t24 17t36.5 10.5t16.5 -9t-26 -40t-47 -43.5t-34.5 -27t-17.5 -19t-8 -8.5q-8 -8 -10 -8h-1zM62 364h-1q-2 2 35 56l23 29q8 11 8 16.5t-1.5 12.5t2.5 13.5t24 17t36.5 10t16.5 -9t-26 -39.5t-47 -43.5
t-34.5 -27t-17.5 -19t-8 -8.5q-8 -8 -10 -8z" />
    <glyph glyph-name="pi" unicode="&#x3c0;" horiz-adv-x="401" 
d="M281 347q-39 -184 -39 -250.5t25 -66.5q13 0 41 26q23 23 59 112q5 12 7.5 12t2.5 -4q0 -24 -35.5 -87.5t-59.5 -73.5q-13 -5 -23 -5q-43 0 -43 85q0 148 29 259q-17 6 -87 26q-2 -83 -15.5 -174.5t-35.5 -150.5q-3 -6 -7 -6q-8 0 -8 8q0 47 17 160.5t17 166.5h-3
q-35 0 -55 -9q-21 -12 -36 -28t-17.5 -16t-2.5 9.5t10 22.5q54 69 113 69q33 0 88 -25t88 -25t55 21q14 12 19 16.5t4 4.5q3 0 3 -9.5t-10 -22.5q-38 -46 -89 -46q-6 0 -12 1z" />
    <glyph glyph-name="endash" unicode="&#x2013;" horiz-adv-x="445" 
d="M86 190q8 8 148 8t198 -11q6 -1 6 -4q0 -5 -11 -5q-99 0 -306 -11q-6 0 -19.5 8.5t-15.5 14.5z" />
    <glyph glyph-name="emdash" unicode="&#x2014;" horiz-adv-x="713" 
d="M86 190q8 8 233 8t392 -11q10 0 10 -4.5t-19 -4.5q-351 -2 -581 -11q-7 0 -19.5 7.5t-15.5 15.5z" />
    <glyph glyph-name="quoteleft" unicode="&#x2018;" horiz-adv-x="168" 
d="M154 337q2 0 2 -3t-13 -18t-42 -60q17 0 17 -22q0 -29 -33 -29q-8 0 -14.5 8t-6.5 18q0 19 36 62.5t54 43.5z" />
    <glyph glyph-name="quoteright" unicode="&#x2019;" horiz-adv-x="168" 
d="M142 337q20 0 20 -22.5t-36 -65.5t-54 -43q-2 0 -2 3.5t15 22t41 56.5q-18 0 -18 22q0 27 34 27z" />
    <glyph glyph-name="quotesinglbase" unicode="&#x201a;" horiz-adv-x="86" 
d="M87 71q0 -16 -7.5 -60.5t-11.5 -52.5q-1 -4 -6 -4q-3 0 -3 8q0 64 -5 109q21 3 26.5 3t6.5 -1v-2z" />
    <glyph glyph-name="quotedblleft" unicode="&#x201c;" horiz-adv-x="259" 
d="M232 526q2 0 2 -3.5t-10 -14t-46 -64.5q18 0 18 -22q0 -27 -34 -27q-20 0 -20 22.5t36 65.5t54 43zM154 526q2 0 2 -3.5t-10 -14t-46 -64.5q18 0 18 -22q0 -27 -34 -27q-20 0 -20 22.5t36 65.5t54 43z" />
    <glyph glyph-name="quotedblright" unicode="&#x201d;" horiz-adv-x="259" 
d="M240 496q0 -20 -36 -63.5t-55 -43.5q-1 0 -1 3t10 13.5t46 66.5l-2 -1q-16 0 -16 22q0 28 34 28q7 0 13.5 -8t6.5 -17zM162 496q0 -20 -36 -63.5t-54 -43.5l-2 2q0 2 10 13.5t46 67.5l-2 -1q-16 0 -16 17.5t10.5 25t20.5 7.5t16.5 -8t6.5 -17z" />
    <glyph glyph-name="quotedblbase" unicode="&#x201e;" horiz-adv-x="156" 
d="M156 71q0 -16 -7 -60.5t-12 -52.5q-1 -4 -6 -4q-3 0 -3 8q0 64 -5 109q21 3 26.5 3t6.5 -1v-2zM87 71q0 -16 -7.5 -60.5t-11.5 -52.5q-1 -4 -6 -4q-3 0 -3 8q0 64 -5 109q21 3 26.5 3t6.5 -1v-2z" />
    <glyph glyph-name="dagger" unicode="&#x2020;" horiz-adv-x="387" 
d="M380 413q0 -5 -11 -5q-77 0 -158 -4q-25 -288 -49 -390q-2 -3 -5 -3t-3 4q0 13 14 185t16 203q-48 -2 -123 -7q-7 0 -19 8.5t-14 14.5q6 6 157 9q4 69 4 180q0 5 13.5 12.5t18.5 8.5l2 -1v-19q0 -62 -10 -181q111 -2 162 -12q5 -2 5 -3z" />
    <glyph glyph-name="daggerdbl" unicode="&#x2021;" horiz-adv-x="381" 
d="M8 257q8 8 158 8q3 31 11 138q-50 -2 -122 -7q-6 0 -19 8q-12 8 -14 15q6 6 157 9q6 92 6 180q0 6 13.5 13.5t17.5 7.5l2 -1v-14q0 -51 -11 -186q111 -1 161 -12q6 -2 6 -3q0 -5 -12 -5q-75 0 -158 -4q-4 -45 -14 -139q169 -3 169 -15q0 -5 -11 -5q-77 0 -161 -4
q-24 -198 -35 -227q-2 -3 -5 -3t-3 11q0 7 20 218q-57 -2 -124 -7q-6 0 -18 8.5t-14 15.5z" />
    <glyph glyph-name="bullet" unicode="&#x2022;" horiz-adv-x="537" 
d="M487 236.5q0 -89.5 -63.5 -153t-153 -63.5t-153 63.5t-63.5 153t63.5 153t153 63.5t153 -63.5t63.5 -153z" />
    <glyph glyph-name="ellipsis" unicode="&#x2026;" horiz-adv-x="469" 
d="M121 70q-1 0 -14 -18l-17 -40q-12 -27 -27 -27q-6 0 -13.5 10.5t-7.5 22t29.5 33t46.5 21.5q2 0 3 -1v-1zM221 -15q-6 0 -13.5 10.5t-7.5 22t29 33t46 21.5q3 0 4 -1v-2q-1 1 -5 -3l-10 -14q-12 -32 -16 -40q-12 -27 -27 -27zM436 69q0 4 -14 -17l-17 -40
q-12 -27 -27 -27q-6 0 -13.5 10.5t-7.5 22t29.5 33t46.5 21.5q2 0 3 -1v-2zM122 69q0 1 -1 1q0 -1 1 -1z" />
    <glyph glyph-name="perthousand" unicode="&#x2030;" horiz-adv-x="884" 
d="M327 737q166 26 217.5 26t102 -12t61.5 -37h6q19 0 19 -16q0 -6 -4 -10q-129 -109 -149 -127q-424 -370 -531 -600q-14 -29 -27 -79q-3 -9 -10.5 -9t-14 8t-6.5 18q0 32 55.5 125t174 231.5t297.5 307.5q64 60 151 133q12 10 29 15q-16 34 -128 34q-42 0 -215 -24
q24 -15 24 -54t-23 -93.5t-78.5 -125t-102.5 -70.5q-41 0 -41 53q0 77 70 205q34 58 48 58q21 0 21 -14q0 -3 -59 -110t-59 -149q0 -28 21 -28q18 0 45 24q46 43 80 115t34 130.5t-46 74.5h38zM622 233q0 -6 -16.5 -12.5t-25.5 -6.5q1 -7 1 -19q0 -85 -60 -169h32
q-11 -7 -19 -7t-10 1t-5 1q3 0 -35.5 -33.5t-66.5 -33.5q-39 0 -39 55.5t47 120.5q-20 46 -20 89t26.5 86t70.5 43q66 0 77 -104q43 0 43 -11zM883 233q0 -7 -16 -13t-25 -6v-19q0 -85 -60 -169h32q-11 -7 -18.5 -7t-10 1t-5.5 1q1 -1 -5.5 -6.5t-37 -33t-59.5 -27.5
q-38 0 -38 56t46 120q-19 44 -19 89t26.5 87t69.5 42q66 0 77 -104q43 0 43 -11zM770 329q-32 0 -59 -63q-18 -42 -18 -77t4 -48q61 82 128 102q-20 86 -55 86zM509 329q-32 0 -59 -63q-18 -42 -18 -77t4 -48q61 82 127 102q-20 86 -54 86zM826 215q-22 -5 -69 -42t-57 -58
q21 -75 51 -83q24 21 49.5 86t25.5 97zM565 215q-23 -5 -69 -41.5t-58 -58.5q22 -76 52 -83q23 21 48.5 85.5t26.5 97.5zM693 106q-33 -55 -33 -88t22 -33q27 0 65 41q-33 4 -54 80zM431 106q-32 -56 -32 -88.5t21 -32.5q28 0 66 41q-32 4 -55 80z" />
    <glyph glyph-name="guilsinglleft" unicode="&#x2039;" horiz-adv-x="279" 
d="M130 283q97 -122 97 -134.5t-8 -12.5q-2 0 -10 4q-23 31 -57 59l-64 51q-3 2 -3 6q0 12 45 76.5t73 98.5q9 11 17.5 11t8.5 -6q0 -15 -99 -153z" />
    <glyph glyph-name="guilsinglright" unicode="&#x203a;" horiz-adv-x="264" 
d="M184 288q-98 125 -98 136t9 11q2 0 10 -4q23 -31 55 -57l66 -53q3 -1 3 -8.5t-50 -79t-64 -88t-22 -16.5t-8 6q0 15 99 153z" />
    <glyph glyph-name="fraction" unicode="&#x2044;" horiz-adv-x="296" 
d="M462 503q0 -1 -2 -5q-37 -35 -74 -73q-240 -243 -311 -391q-5 -11 -21 -53q-2 -5 -9 -5t-7 7.5t18 46.5q79 171 289 399q41 44 83 82q5 4 19.5 4t14.5 -12z" />
    <glyph glyph-name="Euro" unicode="&#x20ac;" horiz-adv-x="670" 
d="M625 415l1 12q0 17 -19 42q-40 52 -130.5 52t-167.5 -47.5t-124 -123.5h61q188 0 237 -11q5 -1 5 -3q0 -6 -11 -6q-79 0 -309 -10q-16 -30 -26 -73q23 1 80 1q190 0 235 -12q6 -1 6 -3q0 -5 -10 -5q-51 0 -317 -11q-2 -12 -2 -34q0 -82 57.5 -124t152 -42t180.5 45
t136 118q3 6 5 6t2 -4.5t-2 -10.5q-50 -81 -156 -133.5t-229 -52.5q-92 0 -146 41.5t-54 132.5q0 27 6 57h-26q-5 0 -19 9t-16 14l1 2q22 4 67 5q14 42 32 73h-32q-21 0 -44 23q9 6 95 7q4 6 14 18q65 82 153.5 128t190.5 46q77 0 121 -39.5t44 -106.5v-4q0 -13 -11 -13
q-13 0 -20 8q-11 12 -11 29z" />
    <glyph glyph-name="trademark" unicode="&#x2122;" horiz-adv-x="656" 
d="M622 624q12 0 12 -20.5t-3.5 -34t-5.5 -22.5q-4 -18 -5.5 -55.5t-12.5 -134.5q-11 -17 -35 -17q-11 0 -11 9q0 15 33 173q-105 -135 -153 -135q-51 0 -89 135q-11 -24 -28.5 -90t-29.5 -85t-26 -19t-14 5t38 101q39 96 45 115q1 17 5.5 50.5t23.5 33.5q7 0 11.5 -19
t10.5 -58.5t10 -61.5q16 -86 53 -86q30 0 99 108q70 108 72 108zM124 605l-72 -5q-21 0 -25 13q7 13 123 21.5t151.5 8.5t35.5 -8q0 -13 -71.5 -21t-78.5 -20q-18 -34 -39.5 -103.5t-29 -93.5t-26.5 -66q-6 -9 -22.5 -9t-16.5 12q0 18 87 220q12 29 12 42q0 9 -28 9z" />
    <glyph glyph-name="Omega" unicode="&#x2126;" horiz-adv-x="678" 
d="M216 -1l-159 1q-34 0 -34 9t5.5 17t22.5 9.5t77.5 1.5t75.5 1q-64 67 -64 187q0 95 44 182.5t121 142.5t161 55t122 -48t38 -128q0 -117 -59 -225.5t-146 -167.5l198 2q17 0 17 -9q0 -6 -7.5 -17t-20 -11.5t-202.5 -0.5q-39 0 -39 8q3 23 19 31q78 37 136.5 161t58.5 231
q0 150 -111 150q-47 0 -94 -27t-84 -71t-64 -101q-45 -93 -45 -179q0 -94 46 -157q15 -13 15 -18q0 -16 -6 -22.5t-22 -6.5z" />
    <glyph glyph-name="partialdiff" unicode="&#x2202;" horiz-adv-x="326" 
d="M186 243l1 -9v-2v-1q0 -6 -6 -6h-4q-1 1 -4 1q-19 0 -43 -44q-56 -104 -56 -149q0 -24 20 -24q32 0 68 72q27 53 45.5 129t18.5 161q-6 118 -36 147q-11 12 -27 12h-19q-8 2 -8 14q0 7 17.5 12t36 5t36 -19.5t24.5 -51.5q14 -56 14 -114q0 -142 -76 -289
q-56 -108 -115 -108q-44 0 -44 49q0 60 61 163q41 65 68 65q19 0 28 -13z" />
    <glyph glyph-name="Delta" unicode="&#x2206;" horiz-adv-x="452" 
d="M428 -2q-94 2 -216.5 2t-186.5 -2q58 105 140 238q141 230 150.5 247t16.5 28q14 24 21 24q4 0 4 -7q7 -114 27.5 -272t43.5 -258zM230 30l154 3q-6 65 -28.5 253.5t-26 188.5t-5.5 -5q-237 -382 -254 -433q0 -7 160 -7z" />
    <glyph glyph-name="product" unicode="&#x220f;" horiz-adv-x="468" 
d="M274 192q-34 -87 -34 -129.5t24 -42.5q3 1 12.5 1t9.5 -4.5t-7 -7.5t-16.5 -5.5t-12.5 -3.5q-40 0 -40 49q0 7 2 25q23 145 64 232q-12 4 -92 20q-15 -90 -50.5 -188t-71.5 -160q-7 -4 -10 -4l-8 2q48 99 65 159t39 191h-4q-44 0 -88 -28q-40 -26 -43 -26t-3 6
q3 14 16 20q73 70 148 70q18 0 84 -15.5t86 -15.5q43 0 106 43q3 0 3 -2.5t-1 -3.5q0 -27 -48 -48.5t-86 -21.5z" />
    <glyph glyph-name="summation" unicode="&#x2211;" horiz-adv-x="396" 
d="M370 0h-350l212 214l-180 218h318l-18 -22h-222l150 -184l-202 -196h266z" />
    <glyph glyph-name="minus" unicode="&#x2212;" horiz-adv-x="228" 
d="M54 133q16 6 51 6t74 -5.5t39 -12t-15 -7.5t-33 -2t-27.5 -2t-26.5 -4q-37 -5 -72 -5h-5q-20 0 -20 7q0 13 35 25z" />
    <glyph glyph-name="radical" unicode="&#x221a;" horiz-adv-x="390" 
d="M243 258q0 -99 -41 -184q-9 -18 -17 -21v1q0 20 13.5 82t13.5 93q0 83 -48 83q-52 0 -152 -102q-6 -6 -12 -6t-6 4.5t20.5 33t76.5 72t95 43.5q57 0 57 -99zM689 480q0 -9 -5 -16q-4 54 -44 54q-74 0 -193 -128q-87 -93 -138.5 -179.5t-50.5 -110.5q-36 -116 -57 -116
q-3 0 -4 -1h-4q-6 0 -14 8v3q0 31 49 120q70 129 174 248q141 162 236 162q51 0 51 -44z" />
    <glyph glyph-name="infinity" unicode="&#x221e;" horiz-adv-x="728" 
d="M704 389q0 -74 -84 -145.5t-159 -71.5q-88 0 -88 99q-22 -18 -68 -48.5t-63 -38.5q-56 -30 -111 -30q-110 0 -110 86.5t91 159.5q85 70 175 70q45 0 79 -21q44 -28 46 -106q139 139 216 139q34 0 55 -29.5t21 -63.5zM676 373q0 78 -73 78q-42 0 -130 -85l-61 -61
q2 -101 78 -101q43 0 95.5 33.5t76.5 74.5q14 23 14 61zM375 337q0 65 -36 87q-28 18 -74.5 18t-102 -35.5t-88 -88t-32.5 -90.5q0 -57 67 -57t137 39t128 95q1 13 1 32z" />
    <glyph glyph-name="integral" unicode="&#x222b;" horiz-adv-x="276" 
d="M308 474q-6 0 -6 7.5t5 18.5t5 18q0 38 -37 38q-61 0 -119 -160q-25 -71 -52.5 -157t-61.5 -172t-74 -157t-96.5 -115.5t-123.5 -44.5q-39 0 -65 18t-26 47t11 55l11 12q3 5 10 5l1 -1q-16 -24 -16 -53t25 -48.5t64.5 -19.5t71.5 26q64 53 116.5 147t81.5 182
q94 282 138 368.5t111 86.5q42 0 42 -48q0 -15 -7 -43q-3 -10 -9 -10z" />
    <glyph glyph-name="approxequal" unicode="&#x2248;" horiz-adv-x="348" 
d="M307 211q-11 -15 -28.5 -28.5t-36.5 -13.5t-67 17.5t-70 17.5t-47 -28l-10 13q35 41 57 41t67 -18t68 -18t35 9l23 18zM307 106q-11 -15 -28.5 -28.5t-36.5 -13.5t-67 17.5t-70 17.5t-47 -28l-10 13q35 41 57 41t67 -18t68 -18t35 9l23 18z" />
    <glyph glyph-name="notequal" unicode="&#x2260;" horiz-adv-x="348" 
d="M166 96q136 0 136 -17q0 -3 -6 -3q-85 0 -170 -8q-18 -26 -28 -38q-20 -26 -35 -26q-7 0 -7 5q2 4 41 56q-13 -1 -20 -1t-14.5 10t-7.5 14q3 3 65 6l64 81q-7 0 -47.5 -4t-61.5 -4q-5 0 -12.5 9.5t-7.5 14.5q8 8 64 8t82 -2q9 13 29 39t35 26q5 0 5 -4t-45 -63l43 -3
q34 -3 34 -10q0 -4 -6 -4q-63 0 -85 -1l-64 -81h19z" />
    <glyph glyph-name="lessequal" unicode="&#x2264;" horiz-adv-x="318" 
d="M184 288q-98 125 -98 136t9 11q2 0 10 -4q23 -31 55 -57l66 -53q3 -1 3 -8.5t-50 -79t-64 -88t-22 -16.5t-8 6q0 15 99 153zM41 85q16 8 98.5 8t106.5 -12q3 -1 3 -3q0 -5 -6 -5q-31 0 -91 -6t-90 -6q-4 0 -12 9t-9 15z" />
    <glyph glyph-name="greaterequal" unicode="&#x2265;" horiz-adv-x="318" 
d="M229 436q0 -15 -99 -153q97 -122 97 -131.5t-3 -13.5t-15 2q-23 31 -57 59l-64 51q-3 2 -3 6q0 12 45 76.5t73 98.5q9 11 17.5 11t8.5 -6zM58 85q16 8 98.5 8t106.5 -12q3 -1 3 -3q0 -5 -6 -5q-31 0 -91 -6t-90 -6q-5 0 -12 9t-9 15z" />
    <glyph glyph-name="lozenge" unicode="&#x25ca;" horiz-adv-x="408" 
d="M344 334q0 -26 -118 -248q-3 -5 -12 -23.5t-15.5 -30.5t-15.5 -12q-7 0 -9.5 8t-8 20.5t-18 45.5t-41.5 87l-56 108q-3 6 -3 14q0 37 146 303q8 14 14.5 14t12.5 -15q17 -47 51 -124q28 -50 71 -134q2 -6 2 -13zM296 296q-27 72 -91 271l-110 -225q30 -82 91 -271
q17 34 110 225z" />
    <glyph glyph-name="apple" unicode="&#xf8ff;" horiz-adv-x="419" 
d="M219 327l-1 11q0 54 51 87q16 7 21.5 7h7.5q1 -3 1 -13q0 -29 -21.5 -60.5t-56.5 -31.5h-2zM375 290q-47 -27 -47 -87t58 -83q-11 -35 -43 -73t-54 -38t-37.5 10t-34 10t-34.5 -9q-14 -11 -38 -11t-57 41q-51 63 -51 149q0 44 18 77q33 57 85 57q11 0 27 -6t27.5 -9.5
t21.5 -3.5q23 0 46 10t35 10q49 0 78 -44z" />
    <glyph glyph-name="fi" unicode="&#xfb01;" horiz-adv-x="414" 
d="M44 273l19 -1h20q45 0 107 15q114 210 252 329q41 35 66 35q32 0 32 -48.5t-28 -88.5q-17 -23 -24 -23t-7 4t19.5 39.5t19.5 58.5t-23 23q-36 0 -100 -72.5t-96 -125.5q-36 -56 -70 -120q3 0 152 50q4 0 4 -2q0 -6 -18 -14q-70 -29 -147 -52q-62 -123 -80 -225
q0 -1 -9 -78q-2 -17 -24 -17t-24 17q8 79 8 104q0 104 -34 138l-21 14q-11 7 -11 21q0 19 17 19zM431 137q2 0 2 -2q0 -17 -55 -75q-44 -44 -67 -44q-51 0 -51 51q0 38 20 96l-18 -28q-13 -22 -18 -22q-2 0 -2 5.5t15 25.5t44 82q8 21 22 47q6 9 24 9t18 -10t-9 -30t-18 -23
q-52 -104 -52 -153q0 -33 22 -33q36 0 79 52q18 21 22 25.5t8 9.5t7 8q5 5 7 9zM180 269q-40 -10 -110 -21q33 -18 39 -143q26 79 71 164zM462 463q3 -1 3 -3t-23 -28l-15 -31q-11 -20 -23 -20q-20 0 -20 21q0 10 14 25t21 19q31 17 43 17z" />
    <glyph glyph-name="fl" unicode="&#xfb02;" horiz-adv-x="463" 
d="M44 273l19 -1h20q45 0 107 15q10 19 39.5 78.5t46.5 92.5q50 98 106 152t93 54q28 0 28 -32q0 -17 -11 -49t-21.5 -32t-10.5 10q18 42 18 55.5t-10 13.5q-23 0 -72.5 -52t-84 -118t-80.5 -162q3 0 152 50q4 0 4 -2q0 -6 -18 -14q-70 -29 -147 -52q-62 -123 -80 -225
q0 -1 -9 -78q-2 -17 -25 -17t-23 18q0 25 4 44.5t4 58.5q0 107 -37 141l-19 12q-10 7 -10 20q0 19 17 19zM638 679q0 -3 -34.5 -79.5t-43.5 -93.5q-8 -6 -17 -15q-14 -28 -43 -83q-142 -274 -142 -358q0 -33 23.5 -33t57.5 28q6 5 10.5 8.5t8.5 7t7 6t5 4t3 3.5q3 0 3 -4
t-3 -8q-42 -62 -90 -62q-51 0 -51 53.5t52 190.5q-25 -34 -35 -34q-4 0 -4 2t26.5 36.5t28.5 38.5q92 220 178 384q11 17 35.5 17t24.5 -9zM180 269q-40 -10 -110 -21q33 -18 39 -143q26 79 71 164z" />
    </font>
</defs>
</svg>
