<?xml version="1.0" standalone="no"?>
<!DOCTYPE svg PUBLIC "-//W3C//DTD SVG 1.1//EN" "http://www.w3.org/Graphics/SVG/1.1/DTD/svg11.dtd" >
<svg xmlns="http://www.w3.org/2000/svg" xmlns:xlink="http://www.w3.org/1999/xlink" version="1.1">
<metadata>
Created by FontForge 20170924 at Sat Jan 25 22:19:24 2003
 By www-data
(c)House of Lime 2003
</metadata>
<defs>
<font id="Pentagon" horiz-adv-x="500" >
  <font-face 
    font-family="Pentagon"
    font-weight="400"
    font-stretch="normal"
    units-per-em="1000"
    panose-1="0 0 4 0 0 0 0 0 0 0"
    ascent="800"
    descent="-200"
    x-height="798"
    cap-height="800"
    bbox="-1 -162 632 801"
    underline-thickness="20"
    underline-position="-143"
    unicode-range="U+0020-007A"
  />
<missing-glyph 
d="M63 0v800h375v-800h-375zM125 63h250v675h-250v-675z" />
    <glyph glyph-name=".notdef" 
d="M63 0v800h375v-800h-375zM125 63h250v675h-250v-675z" />
    <glyph glyph-name=".null" horiz-adv-x="0" 
 />
    <glyph glyph-name="nonmarkingreturn" 
 />
    <glyph glyph-name="space" unicode=" " 
 />
    <glyph glyph-name="exclam" unicode="!" horiz-adv-x="213" 
d="M203 789l-3 -3l-85 -572q-2 -2 -1 -4l-6 14l-108 570l3 3l197 3l-2 -2q6 -6 5 -9zM175 22q-4 -11 -15.5 -14.5t-22.5 -5.5q-63 -5 -76 21q-10 44 -5 92q2 20 27 28q41 14 81 -4q15 -20 15 -54q0 -12 -2 -33t-2 -30zM181 765h-13q-5 3 -7 11.5t-3 10.5l-2 -6
q-12 -16 -22 -13q9 -3 9 -9q0 -3 -3 -9.5t-3 -9.5l3 4q21 5 27 -7l-3 10q0 6 6 10zM112 736l-28 3q-7 2 -9 13l-3 18l-17 -30h-28l21 -18q1 -7 -3.5 -17.5t-5.5 -15.5l23 16q7 0 15 -8.5t14 -9.5l-5 30q1 1 26 19zM151 627l-12 3q-7 1 -9 9l-4 16l-14 -21l-21 5l15 -19
l-6 -18l3 3q4 2 9 2q10 0 24 -13l-2 20q6 4 17 13zM145 54l-11 11q-2 8 2.5 16t8.5 16l-27 -8q-5 6 -15 20l-2 -28l-21 -11l23 -8q-1 -17 6 -22l13 18q23 -3 23 -4z" />
    <glyph glyph-name="ampersand" unicode="&#x26;" horiz-adv-x="346" 
d="M330 319q-7 -4 -22 -9t-22 -9q3 -62 0 -187q-3 -35 -31.5 -66.5t-64.5 -41.5q-21 -6 -44 -6q-62 0 -103 40q-30 30 -37 73l-6 280q6 23 32 34l-19 21l-10 263q7 32 35 56t61 30q17 2 33 2q83 0 116 -64l4 -16l8 -165q0 -9 -2 -25l-38 -3q-23 -1 -37 3q-1 17 -2 35.5
t-14 26.5q-7 -1 -21.5 0.5t-20.5 1.5q-26 0 -37 -15q-4 -61 5 -97q13 -12 39 -12q44 1 43 1q6 -33 5 -70q-12 -3 -48 -2q-31 0 -45 -8l-8 -14v-82q1 -47 9 -78q13 -11 36 -11q8 0 29 3q18 2 28 1q10 4 25 18q1 27 -5 50q-14 -3 -42 -7q-1 6 -3 72q57 17 169 51l3 -5z
M228 727q-3 1 -9.5 2t-8.5 7.5t-4 12.5v-5q-4 -9 -26 -9l10 -10q-2 -6 -4 -18l3 3q3 2 6 2q4 0 10 -5t9 -5l1 17q5 1 13 8zM235 606l-15 20l14 23q-3 1 -8.5 -2.5t-10.5 -3.5q-6 0 -25 17l2 -23q-1 0 -25 -14l17 -4q9 -1 8 -11q0 -13 3 -16q4 8 15 20zM132 747l-30 -5
q-6 5 -10.5 15.5t-7.5 14.5l-5 -31q-1 -1 -32 -11l27 -14l2 -31l18 17q3 3 7 3q5 0 13.5 -5t10.5 -4l-12 28zM79 611l-17 12l3 20l-22 -10l-6 8q-4 5 -9 4l8 -25l-17 -17l21 3q6 -2 7.5 -10.5t5.5 -10.5q3 2 3 9.5t1 10.5q1 0 22 6zM94 442l-13 2q-5 1 -6 7.5t-4 7.5l-8 -14
q-6 1 -16 -1l12 -13q0 -3 -2.5 -8t-2.5 -9l2 2q5 6 26 3q-2 3 -2 6q0 4 6.5 9.5t7.5 7.5zM275 182l-9 8q-4 5 -2 15q2 13 2 11l-8 -4q-14 -6 -27 6l4 -11q3 -7 -6 -12.5t-11 -9.5l16 -1q6 -2 7 -11.5t3 -11.5l2 4q13 20 22 20q4 0 7 -3zM248 74l-22 22q0 6 8.5 15t8.5 16
q0 -1 -34 -14l-23 21l3 -18q2 -5 2 -9q0 -7 -11 -13q-15 -7 -17 -9l26 -5q5 -4 7 -15.5t5 -15.5l14 27zM99 131l-14 17l14 23q-1 0 -22 -7l-21 18l-2 -26l-22 -9q4 -3 19 -6q5 -3 8 -30q4 5 17 22zM138 55l-11 -1q-6 1 -8.5 6.5t-5.5 10.5q2 -9 -6 -13t-16 -7l2 -2
q9 0 8 -10q-1 -14 0 -15l4 5q3 6 7 6q3 0 8.5 -3.5t7.5 -3.5q-3 3 -3 7q0 5 6 12t7 8z" />
    <glyph glyph-name="zero" unicode="0" horiz-adv-x="296" 
d="M282 670l-2 -573q-7 -28 -30.5 -53t-51 -35t-56.5 -10q-66 0 -106 44q-36 39 -36 101l2 546q7 35 32 63.5t59 38.5q24 7 49 7q67 0 110 -47l2 1q28 -45 28 -83zM221 710l-12 14q-2 4 0 11q3 7 3 11l-8 -8q-2 -1 -5 -1q-5 0 -11 5q-9 7 -11 8l3 -21q-8 -4 -17 -16h18
q4 -3 5.5 -11t3.5 -11l5 13q7 7 26 6zM232 616l-11 3q-7 6 -7 31l-14 -14q-5 0 -12 3t-11 3l9 -22q-4 -4 -11 -13h18q6 -7 14 -21q1 9 7 25zM124 713l-33 2q-4 10 -14 31l-10 -33h-31l25 -22l-7 -27l25 15l28 -17q-4 11 -8 33q8 7 25 18zM65 613q-8 -4 -11 -3q-13 9 -15 16
v-9q-8 -14 -23 -14h6q16 -9 12 -24l2 4q4 4 26 2l-3 3q-8 16 6 25zM204 393l-4 167q-7 14 -39 20q-5 -2 -41 -3q-26 0 -35 -17l-3 -294q3 -27 11 -39q13 -9 34 -10q23 1 45 2q26 4 31 27zM260 162q-5 6 -12 19l6 17l-5 -5q-11 -3 -29 13l1 -16q-6 -15 -20 -17l14 -1
q9 -1 9.5 -13.5t2.5 -13.5q4 7 13 19q8 0 20 -2zM214 102l-16 3q-15 -2 -16 13q-3 21 -4 23l-19 -25l-29 5l19 -22q-6 -10 -13 -31q10 4 28 11l22 -23q0 10 -2 31zM48 212q-1 5 -3 5v-7q1 0 3 2zM98 159q-7 8 -19 22l8 22l-20 -13l-22 16l3 -22q-7 -4 -20 -15l18 -2
q8 -3 9 -12q2 -13 4 -16l14 23q8 1 25 -3zM99 101q-2 -1 -6 -2q-7 -2 -12 2q-8 5 -10 6v-10q-2 -4 -7.5 -5t-10.5 -2q2 -2 3 -2q12 -5 14 -25l9 11q-6 -1 19 -3l-3 3q-4 4 -4 9q0 1 8 18z" />
    <glyph glyph-name="one" unicode="1" horiz-adv-x="219" 
d="M209 3l-5 -3h-198l-3 3v212q10 4 30.5 3.5t28.5 1.5l5 8l-3 349h-59l-5 8l3 146l72 69l73 -2l-2 -570q-6 -7 5 -10l58 -3v-212zM114 741l-5 4q-11 3 -11 11q0 4 3.5 12.5t3.5 11.5q-11 -12 -19 -11q-6 3 -19 11l3 -21q-6 -3 -18 -14q-1 0 21 -3q7 -19 6 -20q1 3 2 8
q3 9 13 10t20 1zM117 621l-25 20l9 33l-29 -17l-24 17l7 -32l-25 -21l32 -2l11 -28l13 28zM175 86h-16q-11 10 -14 20l-8 -20q-8 0 -22 -2l18 -15l-5 -22l17 14l20 -9l-6 18zM112 179q-11 -1 -31 -9q-8 9 -23 26l-2 -34l-28 -12l19 -7q11 -1 12 -14v-23l20 25q12 -4 32 -5
l-14 17q-2 4 -2 7q0 7 7 15q9 13 10 14zM97 30q-7 3 -19 12q3 6 3 20l-17 -9l-19 11l7 -19l-15 -17h18q6 -2 7 -10.5t3 -11.5q4 7 10 22z" />
    <glyph glyph-name="two" unicode="2" horiz-adv-x="309" 
d="M295 3l-19 -3h-266v221l194 297q6 14 3 61l-5 3l-100 -3q-20 -13 -21 -44q0 -27 1 -55h-79q-5 69 -1 215q17 73 70 91q31 14 68 14q66 0 106 -41q13 -13 18 -20q9 -11 12 -22q8 -29 9 -67q2 -26 0 -69q-1 -54 -1 -71q-10 -35 -30 -65l-144 -218l3 -5q6 2 14 2q7 0 23 -2
t23 -2q26 0 37 18q3 14 3 38q0 41 0 40l8 5l69 -2l3 -3zM176 743l-16 18l9 20l-22 -11l-15 11l1 -19l-19 -15h19q6 -3 7.5 -9.5t2.5 -12.5l9 17q7 2 24 1zM235 647q-6 2 -25 7q-7 5 -7 17q1 16 -1 19l-17 -25q1 0 -34 3l18 -21q1 -7 -14 -30q10 4 32 8l20 -24l1 33zM83 712
l-11 10q0 8 5 17l-5 -3q-15 -8 -25 11l2 -19l-17 -10q4 0 14 -1q8 -6 11 -19q2 10 26 14zM108 645q-9 1 -25 -2q-5 4 -8 13t-6 12l-3 -20q-3 -6 -12.5 -7t-17.5 -2l22 -16l-5 -27l19 16q8 -5 27 -11l-10 24zM291 164q-10 -11 -4 -25q-3 10 4 25zM262 177h-8
q-11 -3 -15.5 5.5t-8.5 16.5l-3 -11q-7 -11 -26 -13l15 -11q-1 -6 -1 -22l15 11q10 -5 21 -11l-5 16q-2 6 4 10.5t12 8.5zM271 49l-20 20q3 4 6 22l-20 -10l-21 15l5 -25l-22 -18h20q8 -2 9.5 -14t3.5 -14q4 9 14 25q8 -2 25 -1zM179 106l-5 2q-11 8 -11 20l-6 -7
q-8 -5 -21 3l2 -2q8 -11 -5 -30q2 1 7 4t9 1q3 -3 11 -14q1 4 2 11q6 8 17 12zM102 157l-16 17q-3 4 -3 9t5 14q9 13 9 14q-10 -3 -31 -12l-23 23v-34l-29 -13q12 -1 32 -9q2 -10 6 -31q5 10 19 28q4 0 14 -4t17 -2zM94 71q-8 1 -23 7q0 7 -3 19l-10 -14l-22 -2l11 -15
q-8 -16 -8 -17q5 5 18 4q7 -3 15 -15q0 7 2 20q13 13 20 13z" />
    <glyph glyph-name="three" unicode="3" horiz-adv-x="297" 
d="M282 118q-5 -37 -32.5 -69.5t-63.5 -42.5q-23 -6 -45 -6q-61 0 -98 41q-35 37 -40 87l1 192q14 4 37 3h38q3 -9 3 -23q0 -6 -1 -18.5t-1 -18.5q0 -31 25 -41q9 1 25 0q19 -2 25 -2q34 0 46 23l3 9l3 49q2 29 -4 47q-11 22 -41 22q-7 0 -21.5 -1.5t-20.5 -1.5q-9 0 -15 1
l-2 70l4 3l74 2q25 15 25 52q0 11 -2.5 34.5t-2.5 34.5q-11 21 -46 21q-8 0 -24.5 -1.5t-23.5 -0.5q-15 -5 -24 -20q-6 -36 -4 -75h-76q1 15 1 33t-2 56.5t-2 56.5q0 115 75 152q29 14 64 14q40 0 76 -21t52 -56q16 -39 15 -98l-3 -163q-9 -33 -47 -53q38 -17 50 -55v-236z
M212 750h-3q-25 -3 -29 16v-9q-3 -6 -28 -14l18 -13l-3 -21l19 15l18 -9l-6 15q6 18 14 20zM239 637l-22 17q3 6 6 24l-19 -15q-5 0 -12.5 5.5t-11.5 5.5l7 -23l-18 -20l23 2q5 -5 8 -13q4 -11 6 -14l3 19q2 9 14.5 9t15.5 3zM133 715l-31 17l1 33l-23 -24q-19 10 -28 11
l13 -28l-21 -23l30 4q7 -11 19 -27q0 1 3 24q2 10 17.5 10t19.5 3zM97 633l-15 3q-13 9 -13 20l-9 -19q-7 2 -23 2l17 -17l-10 -22l19 11q6 -4 19 -11q0 3 -2 9q-2 3 -2 6q0 5 9 10.5t10 7.5zM211 399q-2 2 -8 4.5t-9 20.5q-2 -9 -11 -9q-3 0 -10 2t-9 1l6 -11q3 -4 -2 -9
l-7 -8h17q11 -6 11 -12l1 12q9 8 21 9zM253 211q-13 -5 -28 -4q-11 3 -14 14q-4 -3 -3 -10q2 -7 1 -10q-3 -5 -12 -7.5t-11 -3.5q2 -6 10.5 -7.5t11.5 -3.5l3 -25l4 8q4 11 13 11q-6 0 23 -7l-14 24zM226 76l-11 11q3 18 4 17l-15 -8l-15 10l1 -3q6 -20 -10 -27l10 2
q6 -2 8.5 -8.5t4.5 -11.5l3 7q3 8 20 11zM111 199h-34l-12 28l-5 -20q0 -12 -12 -14t-24 -3l27 -19q-1 -7 -7 -31q9 8 27 20l29 -14l-12 28zM145 75v1q-6 5 -20 14q2 10 2 25l-19 -15q-7 5 -23 12l8 -23l-19 -21l28 -3l9 -21l5 20q2 8 11.5 9t17.5 2z" />
    <glyph glyph-name="four" unicode="4" horiz-adv-x="375" 
d="M357 301q-6 -3 -24.5 -2.5t-25.5 -6.5v-66q7 -5 24.5 -4.5t23.5 -4.5l-1 -214q-36 -3 -91 -3h-93l-3 11l1 207q7 4 31 3q19 0 27 10l-3 65l-220 5l-3 6l5 120l216 373h86v-416l3 -3h45zM287 727l-16 20l14 23l-25 -6l-15 14q-4 -3 -3.5 -11t-1.5 -11l-20 -9l23 -9
q-1 -5 1 -13.5t1 -13.5l17 20q7 -4 25 -4zM292 675l-10 2q-8 5 -11 22l-1 -5q-5 -9 -28 -9l12 -13q-4 -6 -3 -17l3 3q11 4 25 -9l-3 14q3 7 16 12zM210 664q-3 -1 -9 5q-7 15 -3 23l-16 -12l-15 6l3 -3q8 -9 -5 -26q3 1 6 1q5 0 19 -16l2 8q6 12 18 14zM221 385v242l-20 -31
l-111 -186l-12 -26zM292 331l-14 15l6 19l-19 -8q-3 4 -9 8t-8 8q3 -22 1 -25q-6 -3 -18 -11l18 -2q6 -2 7 -10q1 -11 3 -13l1 2q2 20 32 17zM337 133l-21 11q0 6 -1 20l-8 -10q-2 0 -28 2q12 -12 0 -36l5 3q3 2 6 2q5 0 10.5 -6.5t9.5 -12.5q0 7 3 19q5 4 24 8zM240 158
l-15 17q0 3 3.5 9.5t2.5 7.5l-16 -5q-5 7 -19 16l3 -20l-17 -11q7 -2 19 -7q-1 -6 3 -21q4 6 13 18zM334 36l-7 2q-9 7 -7 25l-7 -7q-2 -1 -21 2l6 -16l-11 -12q4 3 8 3q5 0 11.5 -8.5t8.5 -10.5v6q0 7 19 16zM278 91q-13 5 -29 4q-7 4 -8 15q-2 15 -4 18l-17 -28l-30 3
q7 -8 22 -23l-13 -30l30 13q11 -11 36 -29v5q-2 4 -7.5 3t-6.5 2l-3 30q1 0 30 17z" />
    <glyph glyph-name="five" unicode="5" horiz-adv-x="299" 
d="M285 335l-3 -201q-1 -39 -22.5 -74t-56.5 -49q-27 -11 -58 -11q-64 0 -105 42.5t-41 132.5q0 18 2 55t2 54q0 20 -1 35h75q-3 -81 42 -99q12 -5 26 -5q25 0 40 14q25 22 25 64q0 31 -14 73q-18 26 -57 26q-16 0 -41 -4q-4 -2 -14.5 -10t-17.5 -8q-4 0 -8 2q-20 12 -58 37
l3 391q54 -12 124 -12q68 0 156 12q1 -71 2 -213l-6 -5q-132 -10 -196 -1l-3 -5v-123l3 -3q40 15 79 15q60 0 92 -35.5t31 -94.5zM215 730l-1 2q-15 7 -7 29q-5 -4 -15 -9q-5 3 -14 7q2 -3 2 -7q0 -9 -15 -19h11q12 -7 13 -20q-1 10 8 14q6 4 18 3zM268 630l-23 14
q0 35 1 28l-19 -18l-23 11q4 -8 11 -24q-5 -6 -17 -18h25q1 -3 14 -24l3 22q3 6 11.5 7t16.5 2zM115 750l-34 -1l-14 28l-8 -31l-29 -7q8 -5 23 -15l-3 -31l22 18q6 0 16.5 -7t14.5 -8q-5 10 -11 33zM167 616q-9 4 -9 11q0 3 2 9.5t2 9.5l-4 -5q-10 -4 -24 11v-14
q-3 -7 -17 -14l12 -1q7 0 8 -8.5t3 -10.5q0 9 11 11zM80 620l-14 18q-1 6 3 13q7 12 8 12q-7 0 -24 -9q-7 7 -22 20l2 -27q-8 -3 -23 -10l26 -11q0 -6 3 -24q3 8 14 21q5 1 14 -1t13 -2zM81 414l-3 3q-10 2 -10 9q0 2 2.5 10t1.5 12l-14 -11q-2 -1 -4 -1q-3 0 -9 5t-9 6
q-1 -3 5 -10q2 -7 -4.5 -13.5l-12.5 -12.5l17 1q13 -10 12 -23q4 7 3 9q12 22 25 16zM249 168l-23 14l1 23l-13 -15q-6 -4 -16 0l-16 6l7 -8q5 -5 5 -11q0 -1 -15 -26q6 0 21 8q7 -2 11 -10q6 -11 9 -14q3 18 3 24q4 4 13.5 5.5t12.5 3.5zM210 69l-4 4q-6 13 4 25
q-2 1 -6 -3q-16 -8 -23 9l1 -9q-2 -8 -18 -17q3 0 9 -2q14 -7 11 -22q2 3 1 4q10 17 25 11zM117 151l-23 25q0 1 11 33l-30 -18l-25 19l6 -28q-2 -7 -12 -12q-13 -6 -16 -10l30 -3q5 -4 8 -15t4 -13l14 25zM140 79l-23 5q-3 8 -9 25l-11 -23q-9 1 -28 1l18 -20l-9 -25
q8 5 27 12l17 -17q-2 9 -2 28q7 5 20 14z" />
    <glyph glyph-name="six" unicode="6" horiz-adv-x="304" 
d="M286 123q-4 -39 -29.5 -72t-61.5 -45q-24 -7 -49 -7q-65 0 -104 42q-32 34 -39 95q-2 17 -1 111l1 431q5 38 29.5 70t59.5 44q27 9 54 9q79 0 119 -61q27 -42 27 -117q0 -22 -3 -66.5t-3 -64.5v-5l-74 -2l-5 7q1 56 1 48q-2 28 -21 39q-15 6 -34 6q-20 0 -55 -8
q-15 -13 -15 -37v-112l42 12q26 7 46 6q67 -1 98 -45q11 -14 17 -46v-232zM207 759l-12 2q-13 8 -14 15q2 -8 -8 -18q-2 -4 -10 -5q7 -3 8 -27l7 7q2 2 23 0l-3 3q-5 10 9 23zM244 630q-6 4 -21 16l4 23l-17 -14q-7 3 -22 11l7 -24l-19 -18h25l11 -22l3 19q4 5 14 7
q14 1 15 2zM143 720q-12 3 -34 11l-5 30l-18 -30l-30 5l20 -25l-11 -28l28 12l24 -23q0 4 -2.5 10.5t-2.5 12.5q0 9 10.5 14.5t20.5 10.5zM73 615l-9 7q-4 5 -3 12q2 6 3 12l-9 -8q-12 -5 -22 3q3 -4 3 -8l-11 -22q6 1 16 -1q6 -2 9 -13v5q4 11 23 13zM75 412q-3 -1 -8 1
t-8 1q-4 3 -5 10t-3 13l-10 -15q-3 -2 -6 -2q-2 0 -7.5 3t-8.5 2l12 -17l-11 -22l22 8l16 -16q0 3 -2 6.5t-2 5.5q0 6 10 13.5t11 8.5zM202 241q4 26 4 55q0 28 -4 54q-6 5 -20 14q-8 -1 -24 1q-20 1 -27 1q-35 0 -45 -24q-4 -69 1 -101q8 -13 27 -19q5 2 13 2q6 0 19 -1.5
t19 -1.5q27 0 37 20zM261 185l-18 13v20q-5 -11 -14 -11q-4 0 -11.5 2t-10.5 3q3 -6 9 -16l-11 -19q3 3 15 4q5 -8 15 -22q-1 5 2 15q3 7 12 9zM221 75q-15 9 -26 22q3 10 7 31l-28 -21q-8 6 -26 16q2 -10 9 -30l-25 -21l31 -2q5 -9 13 -28q2 7 6 20q1 12 16 12q20 -1 23 1z
M89 205h-24q-5 4 -7 14t-3 13l-5 -19q-7 -9 -30 -9q6 -7 19 -17q0 -4 -2.5 -11t-2.5 -11l21 12l20 -12l-5 25zM103 65q-8 5 -6 15q2 20 3 15l-8 -3q-3 -2 -5 -2q-4 0 -8 6.5t-6 7.5l-1 -18l-16 -10h5q20 -7 14 -21q8 13 28 10z" />
    <glyph glyph-name="seven" unicode="7" horiz-adv-x="297" 
d="M283 800l-2 -222l-34 -83l-66 -178q-51 -139 -89 -312l-4 -5l-71 2q12 62 43 185l54 171l80 222l-5 4l-103 -1l-5 -7l-3 -84h-72l-3 5l-3 289q0 10 7 12q4 1 16 0q10 -1 15 2h245zM256 770q-5 -4 -20 -5q-7 5 -14 18l-3 -14q-10 -11 -17 -11h3q7 -4 11 -25l5 6
q12 5 23 -2l-3 5q-4 4 -4 8t9 10.5t10 9.5zM155 745q-9 1 -25 3q-4 9 -11 27q-5 -13 -14 -24q-20 3 -22 2l16 -20q-4 -4 -8 -19l22 8l20 -17q-3 6 -5 18q1 9 11 14q15 8 16 8zM241 634q-4 2 -10 8t-9 8q3 9 6 26l-22 -12l-20 16l3 -25q-3 -3 -10 -8t-10 -8l25 -3
q4 -4 5.5 -13t3.5 -12q3 7 10 20zM114 630l-20 26q1 5 7.5 16t6.5 14q-10 -4 -30 -11l-22 23l-1 -32l-27 -13l24 -5q8 -4 7.5 -18t3.5 -19l15 23q4 2 9 2q4 0 13 -3t14 -3zM111 127l-8.5 2t-9.5 12t-2 18l-14 -17l-24 6l10 -10q6 -16 -7 -26l21 2l12 -17l2 20q2 4 10 5.5
t10 4.5zM88 28l-8 8q-2 4 -2 9q0 10 7 16l-2 -2q-5 -3 -12 -3q-11 0 -18 8l2 -9q-1 -6 -7 -9q-9 -5 -10 -7l11 -1q10 -4 9 -21l11 14q6 1 19 -3z" />
    <glyph glyph-name="eight" unicode="8" horiz-adv-x="303" 
d="M288 230l-2 -102q-6 -56 -37 -87q-40 -42 -101 -42q-28 0 -52 11q-53 24 -74 77q-15 40 -15 111q0 14 1 41.5t1 40.5q0 39 -4 64q0 32 41 59q-33 22 -41 45q-7 159 -3 240q17 81 82 103q27 9 55 9q75 0 114 -54q1 1 3 1q1 -8 9 -21t9 -19l8 -93v-163q-7 -28 -37 -43
q30 -14 38 -47q6 -21 3.5 -67t1.5 -64zM235 735q1 0 -18 3q-2 5 -5 14v-3q-4 -11 -26 -13l9 -9q6 -10 -1 -20q17 15 28 1v5q-2 12 13 22zM256 620l-21 17q4 8 5 25l-15 -12q-7 -2 -14 4q-12 11 -13 11l6 -26q-7 -5 -18 -17h6q4 1 7 1q9 0 12.5 -10t6.5 -19q3 6 5 15t12.5 10
t20.5 1zM146 730l-28 3q-6 4 -7.5 17t-5.5 17l-14 -26l-31 2l21 -24l-11 -28q9 4 28 13l23 -22q0 5 -2.5 12t-2.5 12q0 8 10 13.5t20 10.5zM87 602l-5 4q-6 4 -6 10q0 4 4.5 12.5t4.5 11.5l-12 -4q-4 -3 -7 -3q-4 0 -9.5 6.5t-6.5 6.5q1 -4 1 -8q0 -12 -23 -23l22 -9
q-1 -6 3 -23v5q8 15 24 15q5 0 10 -1zM201 464v90q-3 10 -5 14q-4 8 -12 10q1 0 -42 3q-26 2 -41 -4.5t-16 -24.5l-1 -31v-46q2 -26 24 -31q8 0 25.5 -1.5t24.5 -1.5q33 0 43 23zM223 405q-3 1 -11 1q-11 8 -14 27l-12 -17q-7 3 -19 0l11 -11q1 -6 -3.5 -14t-5.5 -11l22 8
q3 -3 7.5 -9t7.5 -8v25zM122 377q1 3 -2 4.5t-5 4.5t-2 7q0 -1 9 23l-20 -6l-15 13l3 -10q-1 -7 -23 -20q7 -3 20 -10q0 -7 3 -20l12 17q6 -2 20 -3zM203 349q-11 20 -48 17q-5 -2 -37 -3q-23 -1 -28 -19v-103q10 -23 40 -23q7 0 29 2q19 2 28 1q23 17 23 52q0 12 -3.5 38
t-3.5 38zM254 162q-11 3 -32 14l1 31l-23 -25q-4 0 -12 4t-15 2l13 -25l-16 -25q10 3 28 8l22 -28q-1 11 2 30q7 6 32 14zM98 168l-3 3q-9 4 -9 12q0 3 2.5 11t1.5 11l-8 -6q-12 -1 -23 12v-20l-20 -12l17 -2q7 -3 8 -26q4 7 13 20zM215 58l-9 5q-9 2 -8 11q1 21 2 17
l-17 -15l-19 8l8 -18l-15 -19l21 3l11 -18q0 3 2 11t9.5 10.5t14.5 4.5zM121 92q-8 0 -23 3q-4 8 -11 25l-13 -23l-24 1q6 -7 18 -20q0 -3 -5 -11t-3 -9l24 9l18 -15l-3 24z" />
    <glyph glyph-name="nine" unicode="9" horiz-adv-x="302" 
d="M288 177l-4 -68q-5 -39 -27 -59q-44 -50 -111 -50q-14 0 -28 2q-77 13 -104 89q-8 23 -8 57v161l8 4l68 -1q1 -26 1 -51q1 -31 21 -42q5 0 22 -2t27 -2q38 0 53 24q5 35 -2 138q-50 -22 -94 -22t-71 23q-30 21 -32 64q-1 38 -1 76q-7 56 -7 93q0 117 69 168q38 21 83 21
q35 0 63 -15q32 -21 46 -43q19 -30 23 -78q2 -15 2 -86v-220zM234 714q-4 7 -11 22l5 5t4 9l-18 -2l-13 17l-1 -14q-13 -14 -25 -14q6 -4 14 -5t8 -11l-1 -15l16 14zM237 637q-3 2 -8 4q-9 3 -9 10q0 3 1.5 10.5t1.5 10.5l-19 -14q-11 10 -17 8q7 -4 7 -9t-7.5 -13.5
t-8.5 -11.5l18 2q6 -5 10 -24l11 25q6 1 20 2zM139 734l-23 10q-1 8 -5 21l-14 -18l-24 4l15 -18q0 -5 -6 -14t-5 -13l23 10q6 -6 16 -19l2 23q3 5 11 8.5t10 5.5zM105 641q-18 4 -25 4q-7 4 -7 16q-1 16 -2 19l-18 -26l-28 4l10 -13q6 -5 6 -11q0 -5 -6 -14.5t-6 -13.5
l28 11q7 -8 22 -24l1 34zM198 562q-8 16 -45 19q-2 -1 -38 -3q-23 -2 -28 -20q-4 -81 3 -107q6 -9 23 -14q-1 0 43 -1q26 0 39 12q16 41 3 114zM110 401l-6 2q-9 9 -10 20l-6 -8q-5 -1 -11 2q-10 5 -11 5l8 -17l-11 -14h16q9 0 9 -5q2 6 11 9.5t11 5.5zM255 169
q-6 0 -16.5 3t-15.5 4l-8 32l-15 -29l-33 3l23 -25q-7 -12 -9 -28l26 12q7 -5 22 -15l-3 14q-1 4 -1 6q0 9 12 14q16 6 18 9zM223 67q-8 4 -8 27q-3 -1 -7.5 -6t-6.5 -5q-3 0 -5 1l-9 3l2 -1q3 -3 3 -7q0 -3 -12 -18h12q10 -6 14 -17q4 19 17 23zM91 188q-7 -2 -20 -5
q-4 6 -14 17l-1 -20l-22 -11l19 -9l1 -23l15 17l21 -2l-3 3q-7 5 -7 10q0 3 5.5 11t5.5 12zM138 63l-14 15q-2 5 2.5 13.5t4.5 11.5q-7 -3 -23 -8l-20 15l3 -24q-7 -4 -22 -14l21 -3q6 -3 7 -11.5t2 -16.5q3 2 5 12.5t12 10.5q3 0 9.5 -1.5t8.5 -1.5q3 0 4 2z" />
    <glyph glyph-name="question" unicode="?" horiz-adv-x="298" 
d="M284 624l-3 -332q-14 -37 -76 -39l-118 -3q-6 -21 -5 -46q-25 -6 -76 -2l-3 6v94q-1 55 6 91q19 45 87 45h26q17 -1 26 -1q19 0 32 2q14 6 22 19q4 23 2 58l-2 58q-12 21 -41 21q-6 0 -30 -2q-17 -2 -27 0q-19 -4 -21 -27q-3 -29 -7 -35h-73q0 14 -1.5 47t-1.5 51
q0 108 61 149q33 22 80 22q35 0 64 -13q22 -16 31 -22q17 -15 25 -29q24 -35 23 -112zM124 24q-5 -19 -29 -21q-19 -2 -39 -3q-16 -2 -42 8q-12 23 -12 58q0 19 6 63q14 18 43 18q11 0 31.5 -3.5t27.5 -3.5q7 -3 10 -12l4 -14v-90zM195 765q-4 3 -9 0q-7 -3 -9 -3l-11 19
l-5 -14q-2 -5 -9 -5q-10 -1 -11 -1q2 -2 3 -2q13 -12 13 -20q0 -3 -2 -6l10 9q4 1 10 -2.5t10 -3.5l-5 15zM268 621q-9 -1 -11.5 8t-5.5 17l-11 -14q-5 3 -18 4l8 -7q3 -11 -4 -20q4 2 7 2q2 0 20 -15l-2 13q7 8 17 12zM203 686l-23 -1l-12 20l-5 -14q-2 -8 -13 -8.5
t-12 -2.5l20 -16q-2 -4 -6 -23l22 14l21 -11l-9 22zM118 737l-16 2q-5 2 -7.5 9t-4.5 14l-5 -12q-7 -7 -28 -7l14 -13q1 -5 -3.5 -12t-3.5 -12l20 9l17 -12v6q-3 5 -3 8q0 6 9 12t11 8zM105 610l-21 23q7 12 9 28l-26 -14l-25 22l5 -33l-27 -15q10 -1 30 -5q5 -7 9 -32
l17 28zM253 416l-16 5l-3 20q-3 -8 -11 -13t-15 -2q7 -4 7 -10q0 -3 -2.5 -9.5t-1.5 -8.5q3 4 8 4q4 0 9.5 -4.5l5.5 -4.5v6q2 7 19 17zM239 329q-8 2 -25 5q-8 3 -8 18t-3 19l-17 -28l-29 3l17 -21l-13 -28l27 11q6 -7 21 -25v31q13 5 30 15zM124 384q-3 0 -8 4t-9 3
q-6 7 -2 24l-13 -14l-24 6q2 -3 5 -9.5t4 -9.5l-10 -18l20 3q3 -4 7 -9t7 -4l-2 10q3 7 11 9zM99 315q-8 0 -15 -6q-9 -1 -15 8l-10 15l-3 -26l-25 -9l14 -5q11 0 12 -11v-20l16 19q8 -4 23 -2q0 3 -4.5 7.5t-4.5 6.5q-1 5 5 12.5t7 10.5zM104 80l-9 1q-16 3 -19 33l-15 -22
q-9 1 -25 6q5 -11 15 -20q-1 -4 -5.5 -13.5t-3.5 -11.5l20 8l17 -17q2 7 2 23q7 5 23 13z" />
    <glyph glyph-name="A" unicode="A" horiz-adv-x="467" 
d="M445 3l-96 -2q-57 -2 -95 1v214q7 4 26.5 3.5t27.5 4.5q-5 32 -20 95l-6 5h-118l-8 -12l-20 -88l5 -5h48l4 -6l-2 -210q-35 -4 -93 -2q-71 2 -95 1l-3 6v208q1 0 53 2q7 5 8.5 15.5t2.5 20.5q21 76 21 95q0 40 -29 63q24 7 43 26q19 24 28 66l14 72q-5 5 -18 5t-17 1
l-3 213l7 5h228v-218q-5 -2 -18 0q-11 1 -16 -6q11 -48 23 -95q19 -53 63 -72q-20 -9 -28 -33q-2 -33 8 -77l18 -74q6 -7 16 -7q5 0 13 1.5t12 1.5q10 0 16 -8v-210zM319 723q-8 7 -26 19l6 30l-25 -19l-28 17l6 -16q6 -5 6 -10q0 -6 -11.5 -14t-13.5 -13l30 1
q5 -4 8.5 -15.5t5.5 -15.5q4 10 11 31zM188 728q-5 3 -14 11q-2 4 1 9q3 6 0 8l-4 -3q-17 -5 -24 5q2 -4 2 -8q0 -6 -4 -12.5t-6 -6.5h3q14 0 19 -19l2 5q6 13 25 11zM205 640l-19 2q-8 2 -8 15t-1 16l-17 -23l-24 3l17 -19q-1 -4 -6 -12t-5 -12l24 10l17 -19v25q8 4 22 14z
M263 409q-5 25 -19.5 74.5t-19.5 75.5q-16 -49 -36 -150h75zM343 360l-19 19q1 9 6 25q-7 -5 -22 -14l-22 14l5 -17q2 -7 -5 -13t-14 -11h18q8 0 11.5 -9t6.5 -17q2 8 10 23q3 3 11 1q9 -2 14 -1zM413 188l-19 -3l-14 17l-8 -20q-6 -2 -18 -5q4 0 10 -4.5t8 -4.5l-3 -24
l19 14q5 1 12 -3.5t8 -4.5l-7 18q-2 4 4.5 10.5t7.5 9.5zM153 377l-6 8q0 17 6 22q-4 2 -9 -1.5t-8 -3.5q-3 4 -9 11l-2 -12l-19 -11l10 -2q8 0 8 -8q0 -12 1 -14l13 14zM324 142q-2 0 -9 3t-10 21v-3q-5 -13 -26 -11l9 -8q1 -4 -2.5 -10.5t-3.5 -9.5q2 -1 6 3q12 3 24 -11
q-9 23 12 26zM424 61l-31 11l-5 30l-19 -27l-31 7q5 -5 17 -21q2 -3 2 -6q0 -5 -5 -14.5t-5 -13.5l27 11l23 -21q1 4 -2 11t-3 11q0 9 13 14q9 4 19 8zM158 139l-28 16l5 33l-25 -25l-29 14l15 -30l-22 -23l31 3q7 -9 17 -27l2 27q4 6 18 7t16 5zM169 45q-4 4 -11.5 4.5
t-7.5 9t-1 10.5q-5 -19 -28 -11l7 -9q4 -4 1 -12q-3 -7 -2 -7q3 2 7 2q8 0 19 -13v19zM74 61h-11q-17 6 -15 17l-1 -9q-2 -6 -10 -10q-4 -1 -9 -3l13 -7q-1 -7 -4 -21l11 11q5 3 12 -1.5t9 -4.5q-6 9 -5 20q3 4 10 8z" />
    <glyph glyph-name="B" unicode="B" horiz-adv-x="382" 
d="M358 116q-21 -80 -83 -105q-40 -11 -96 -11q-23 0 -69.5 2.5t-69.5 2.5q-21 0 -40 -2v213q7 3 29 3q19 -1 27 6q-1 17 0 45q2 36 2 45q0 38 -11 62q-13 18 -39 31q44 15 50 69q1 48 1 96q-7 10 -24 8q-21 -2 -27 0v219l197 -2q90 0 126 -78q9 -51 9 -125q-1 -64 -3 -128
q-8 -22 -14 -31q-9 -17 -23 -28q17 -10 44 -38q21 -36 21 -91q0 -22 -4.5 -66.5t-4.5 -66.5q0 -16 2 -30zM239 740l-30 -6l-15 27l-6 -27q-4 -4 -16.5 -4.5t-13.5 -4.5l25 -14l-3 -33q7 6 22 20l31 -12l-13 31q8 7 19 23zM294 645l-8.5 1t-9 8.5t-1.5 14.5l-13 -16l-17 5
l8 -10q5 -9 -1 -20l1 2q10 5 24 -10v14q5 4 17 11zM102 723q-6 6 -18 16l3 19l-9 -10q-2 0 -25 7l3 -21q-6 -3 -15 -14h22l10 -18q0 12 7 17q11 6 22 4zM124 592q-4 4 -8 13q-6 13 8 26l-21 -4q-4 6 -14 18l-2 -20q-2 -4 -10.5 -5.5t-9.5 -2.5l17 -11l3 -20l16 14zM256 548
q-10 29 -48 29q-31 0 -63 -1l-3 -3v-134q31 -1 92 3q24 12 24 44q0 7 -1.5 22.5t-1.5 23.5q0 9 1 16zM245 409l-1 -1q-3 -1 -6 -1q-11 0 -21 15v-10q-1 -6 -18 -14h4q14 -5 11 -25q8 17 30 5l-7 11q-7 13 8 20zM278 244q0 10 2 30.5t2 29.5q0 22 -9 37.5t-20 13.5l-5 4h-106
q-3 -26 -3 -68v-69q7 1 16 1q11 0 34 -2.5t34 -2.5q38 0 55 26zM120 411l-20 1q-1 7 -9 16q-1 -10 -13 -11q-19 -1 -20 -1l15 -16l-6 -22l19 11l19 -12q-3 4 -5 15q1 6 9.5 11t10.5 8zM239 119l-12 25l10 18l-23 -6l-19 21v-27l-20 -11l22 -11v-23q2 3 8.5 9.5t8.5 10.5
q9 -1 25 -6zM269 69q-6 -1 -16 1q-4 3 -11 14l-1 -7q-1 -5 -19 -11q14 -2 9 -28q3 3 10 7q10 6 20 -4l-3 4q-5 10 11 24zM119 141q-10 3 -28 14q-3 6 -1 16l2 17l-25 -24l-28 13l14 -32q-8 -6 -19 -21l30 4l19 -30l3 32q4 6 16.5 7t16.5 4zM145 56l-14 2q-5 2 -6 9.5t-1 9.5
l-10 -16l-17 2l3 -4q14 -13 2 -28q13 7 17 7q8 0 12 -8l-1 12q5 5 15 14z" />
    <glyph glyph-name="C" unicode="C" horiz-adv-x="344" 
d="M327 485q0 -3 -1 -9h-76l-2 58q-4 33 -26 47q-17 8 -37 8q-24 0 -41 -11q-24 -21 -24 -66q0 -30 10 -65q10 -26 36 -36q-24 -13 -39 -36q-11 -49 -4 -127q13 -32 41 -36q62 0 76 22q11 16 10 47v51h76l-2 -219q-5 -36 -32.5 -67.5t-61.5 -40.5q-21 -6 -43 -6
q-47 0 -80 24q-64 47 -64 160q0 19 1.5 57.5t1.5 57.5q0 40 -6 68q-12 33 -40 48q36 13 45 53l3 237q1 29 21 56t49 35q17 5 34 5q56 0 93 -47q5 14 3 42q14 4 39 3q30 -2 40 -1v-312zM313 713h-9q-9 3 -10 12t-3 18l-7 -11q-4 -6 -9 -6q-3 0 -10 3t-11 3l13 -16l-10 -21
l21 3q0 -1 13 -17v15q1 2 22 17zM240 645q-4 -2 -14 -2q-4 3 -6.5 10t-4.5 9v-5q-5 -13 -24 -11q4 -3 9 -10q4 -7 -3 -17l8 4q12 6 21 -8l-1 18q6 3 15 12zM166 679q-2 6 -11 14.5t-11 10.5q1 3 5.5 13t3.5 16q-6 -2 -18 -12q-9 -2 -16.5 6.5t-14.5 15.5l5 -33
q-9 -5 -27 -17l31 -8q0 -5 3 -14t3 -14q4 7 10 22q4 6 11 6q4 0 13 -3t13 -3zM109 408l-17 8l-2 21l-13 -15q-3 0 -10.5 2.5t-12.5 1.5l8 -14q1 -2 1 -4q0 -4 -5.5 -9.5t-6.5 -9.5l13 5q2 1 5 1q5 0 9.5 -6.5t8.5 -11.5l1 20zM312 171l-28 15q0 12 1 29l-21 -20
q-10 3 -28 11l14 -29l-22 -24q4 0 15 4q6 3 10 3q7 0 13 -11q6 -14 10 -16l5 27q4 5 16.5 7.5t14.5 3.5zM226 61l-11 12q5 6 5 22l-6 -5q-13 -3 -28 11l3 -19q-10 -9 -21 -12q4 -1 13 -2q14 -5 14 -26l14 20q7 -2 17 -1zM150 146l-23 9v25l-18 -22q-12 7 -24 5l16 -19
l-14 -23l23 6l17 -17q-1 4 1 11.5t1 11.5q9 5 21 13z" />
    <glyph glyph-name="D" unicode="D" horiz-adv-x="414" 
d="M394 404q-41 -23 -46 -67q-3 -22 -3 -53q0 -14 1 -43v-43q0 -74 -16 -115q-22 -55 -81 -75l-47 -8l-199 2l-3 4v212q4 1 31 1q21 -1 27 10q1 49 1 99q-2 60 -47 78q42 22 48 54q3 19 1 57q-2 39 0 58q-19 11 -55 6l2 219l227 -3q37 -7 69 -35t39 -64q8 -41 6 -112
q-3 -83 0 -112q9 -48 45 -70zM285 731l-28 -2l-11 22l-8 -26l-25 -3q2 -1 12 -8q10 -2 10 -9q0 -3 -2.5 -9t-2.5 -9t2 -4l15 15q5 1 12 -3.5t12 -4.5q0 1 -3 8q-2 3 -2 6q0 7 19 27zM307 596q-15 13 -9 24q-5 2 -6.5 -2.5t-3.5 -5.5q-5 -2 -11 2.5t-9 3.5l3 -4q5 -18 -6 -25
h15q4 -7 10 -13q-1 15 17 20zM117 722l-7 4q-18 -1 -18 15q-1 27 -1 28l-20 -21l-32 13l14 -32l-22 -21q11 0 32 3q5 -10 17 -28q6 11 5 25q3 7 16 8.5t16 5.5zM172 654h-6q-3 -1 -5 -1q-8 0 -12 17l-2 -5q0 -9 -23 -14l14 -11l-3 -19q3 4 11 10q9 -1 17 -3q-7 15 9 26z
M329 454q-22 -10 -28 8v-10q-3 -7 -19 -12l5 -2q16 -12 12 -21q3 6 11 8q8 3 14 -1l-3 5q-2 3 -2 6q0 4 4.5 10.5t5.5 8.5zM330 360q-4 1 -12 2q-4 2 -5.5 9t-4.5 9v-4q-2 -8 -10 -8.5t-16 -1.5l1 -1q10 -3 10 -11q0 -3 -2.5 -9t-2.5 -7l3 3q15 6 25 -6q1 5 -1 14
q1 4 7.5 5.5t7.5 5.5zM263 265q0 6 1 25q1 16 1 25q0 69 -41 89l25 20q19 26 19 67q0 26 -8 49q-11 31 -49 34q-33 1 -65 2q-2 -104 -2 -106q5 -44 46 -66q-11 -4 -30 -19q-21 -28 -21 -83q0 -12 1 -39t1 -41l42 -2q25 -2 41 2q30 9 39 43zM133 404q-17 10 -22 19l6 22
l-20 -18q-5 0 -12.5 6.5t-10.5 4.5l7 -21l-17 -18l22 2q2 -2 13 -25l11 25q5 0 23 3zM308 174q-4 7 -25 8q-3 10 -11 31l-15 -28q-11 0 -33 3l23 -25l-12 -28l25 12q6 1 14 -7q13 -11 14 -12q0 6 -3 14.5t-3 14.5q3 6 11 9.5t15 7.5zM210 50q-11 12 0 35q-8 -4 -11 -4
q-6 2 -11 8.5t-9 12.5l-2 -16q-1 -7 -10.5 -8.5t-9.5 -3.5l15 -8l2 -24l14 14q21 -6 22 -6zM117 168l-20 4q-5 3 -7 12q-2 14 -2 15l-7 -13q-2 -8 -12 -8q-4 0 -11 2t-8 2q5 -6 14 -17q1 -6 -4 -14t-5 -12l23 8l19 -16q1 4 -2 9.5t-1 9.5q3 7 10 11q13 6 13 7zM77 55h-5
q-8 4 -11 22l-5 -8q-4 -3 -11 -1l-12 3q2 -6 8 -18q-4 -4 -11 -12l19 3q1 -6 11 -13v7q-2 7 7 11t10 6z" />
    <glyph glyph-name="E" unicode="E" horiz-adv-x="368" 
d="M351 798l-5 -328l-73 2q-3 8 -1 58q1 35 -23 46h-101l-5 -3v-131l6 -5l102 -3q4 -46 -2 -68l-100 -2l-6 -6v-136q60 -11 101 -3q26 13 26 54v15q-1 11 -1 16q0 17 4 27h73v-328l-5 -3l-337 2l-3 207q-2 5 1.5 7t7.5 3h45l5 4q-1 16 0 44q2 36 2 46q0 68 -41 92
q39 18 42 75v93l-6 5l-50 2l-3 4v213l6 3zM260 708l-17 23l12 27q-9 -3 -28 -11l-22 23v-31q-9 -5 -28 -16l27 -4q6 -4 7.5 -17.5t3.5 -17.5q6 15 18 28q18 -6 27 -4zM332 603l-20 16q3 8 6 26l-19 -15q-6 -2 -13.5 5.5t-12.5 6.5q0 -6 7 -23l-20 -19h24q4 -3 6.5 -12
t3.5 -12l11 24zM210 622q-8 2 -10 11t1 14l-16 -3q-3 4 -11 9q5 -21 -12 -28l11 2q5 -2 7 -11t4 -11l1 6q2 5 25 11zM76 765q-3 1 -6 -1t-6 -2t-16 11v-12q-3 -4 -10 -5.5t-9 -4.5l17 -9v-17l11 14q4 2 9.5 -1t7.5 -1l-6 11q-2 4 3 9.5t5 7.5zM106 642l-26 11v23l-17 -20
q-8 1 -25 3q6 -7 16 -22l-13 -20q6 1 24 8q6 -7 17 -20l2 26zM321 206q-15 5 -9 28l-10 -4q-8 -6 -17 6l2 -16q-12 -9 -10 -14l8 2q4 -7 11 -21q1 3 2 8q6 14 23 11zM132 409l-23 -1l-14 20l-2 -19q-6 -6 -28 -11l22 -14q0 -8 -3 -25l20 18l23 -10l-11 24zM244 123l-3 4
q-8 5 -8 12q0 3 8 22q-2 -1 -6 -5q-17 -6 -30 11l2 -19q-8 -3 -23 -12l17 -3q8 -2 8 -11q-1 -13 1 -16l14 19zM304 56l-2 -1q-3 -2 -7 -2q-9 0 -19 14v-9q2 -9 -8 -11q-5 -2 -11 -3l13 -6q7 -12 4 -18q3 6 13 9t15 -1v2q-4 0 -4 1q-6 15 6 25zM120 158q-2 1 -2 4q-6 4 -6 8
q0 3 3.5 10t2.5 9l-2 -2q-3 -1 -7 -1q-10 0 -21 12l3 -15q-4 -6 -17 -10q22 -7 19 -23l3 3q4 15 24 5zM151 69l-30 18l2 29l-17 -16q-4 -1 -7 -1q-5 0 -15 6t-13 7q4 -10 14 -29l-23 -25q10 0 31 3q5 -6 16 -28q1 8 4 25q5 8 16 9z" />
    <glyph glyph-name="F" unicode="F" horiz-adv-x="361" 
d="M343 477q-13 -4 -36 -3q-28 2 -36 1l-4 8q-1 6 -1 14q0 7 1 21.5t1 21.5q0 30 -22 42l-105 -3l-5 -5l2 -133q57 -6 113 -5l2 -34q2 -21 0 -35l-8 -3l-105 -3q-2 -48 3 -141q10 -5 28 -5q33 0 31 0v-210l-7 -5l-189 2l-3 205q4 9 19 10h23q11 1 16 7q-1 15 1 40q1 32 1 42
q0 75 -49 96q46 20 46 89q0 13 -2 44q-2 28 -2 42q-8 6 -26 5q-21 0 -27 2l-3 214l36 2h304l3 -3v-320zM317 725l-5 4q-6 3 -6 7q0 2 3 8.5t2 10.5l-5 -5q-14 -6 -24 5l2 -8q-4 -9 -17 -19h11q11 -6 12 -17q0 2 2 7q9 8 25 7zM218 726l-22 11l-3 27l-19 -19q-8 3 -22 6
l8 -14q4 -4 4 -7q0 -4 -6.5 -11t-6.5 -11q4 -2 10 2t10 4q6 0 10.5 -7t8.5 -14l1 13q-2 11 8 14.5t19 5.5zM323 634l-23 3q-7 4 -10 15.5t-8 15.5l-14 -22l-30 4l19 -21q-2 -11 -11 -31l28 11l22 -21q2 5 -1.5 13t-2.5 12q3 9 14 13zM102 701l-5 7q2 3 2 6q0 8 -11.5 18
t-13.5 15l9 28l-28 -16l-21 19q0 -7 -3 -6l3 -16q2 -3 2 -6q0 -6 -12 -12.5t-15 -11.5q19 1 33 -4q2 -10 8 -29l10 22q3 8 13 6q14 -2 16 -1q6 -1 6.5 -9.5t6.5 -9.5zM124 604q-8 3 -8 9q0 3 4.5 10.5t3.5 10.5q-5 -4 -13 -3q-7 3 -15 14v-17q-5 -4 -16 -8q2 -2 3 -2
q7 -3 11 -11t2 -12l6 7q7 5 22 2zM129 416h-22q-3 2 -13 26l-8 -22q-4 -5 -13 -5l-15 1l20 -19q-4 -8 -3 -22l17 14q5 -4 21 -12v11q-3 3 -3 6q0 5 8.5 12t10.5 10zM182 165h-20l-11 17l-2 -9q2 -12 -10.5 -12t-13.5 -2l5 -5q11 -3 9 -13q-1 -14 1 -17l9 9q10 5 27 -3l-7 8
q-1 3 -1 6q0 5 6.5 11.5t7.5 9.5zM85 148l-11 11q-2 2 -2 5q0 2 3.5 8.5t2.5 11.5q-3 -1 -9 -5t-9 -4t-9 6t-9 7l3 -20q-7 -4 -18 -14h14q6 -2 8 -12.5t4 -11.5l13 18h19zM169 91l-31 -3q-5 9 -16 28l-4 -27q-5 -6 -18 -7t-15 -4l25 -17q2 -5 -2 -15q-3 -9 0 -15l22 21
l28 -13l-11 28q10 7 22 24z" />
    <glyph glyph-name="G" unicode="G" horiz-adv-x="397" 
d="M378 361l-53 -5l-4 -9l-3 -345q-16 -3 -38 -1l-38 2q1 17 -5 48q-38 -47 -92 -47q-11 0 -23 2q-63 14 -83 102q-3 38 -1 97q3 83 3 95q0 36 -4 64q-11 36 -37 48q39 20 45 49l3 194q7 55 8 61q8 34 28 54q31 30 70 30q56 0 94 -50q5 7 5 20v23l77 -2l-3 -314
q-15 -4 -39 -3l-39 3v58q-1 35 -27 44q-61 7 -84 -4q-19 -19 -19 -60q0 -9 1 -27t1 -27q6 -33 40 -52q-46 -23 -46 -102v-28q1 -20 1 -28q7 -24 36 -33h17q12 -1 19 -1q41 0 50 28q8 20 7 54q0 60 0 57l-5 5q-18 -1 -51 6l2 63l3 4l184 -4v-69zM296 700l-19 9q2 8 -3 20
l-14 -17l-17 7q0 -5 10 -14q0 -6 -5.5 -12.5t-5.5 -11.5l21 5q4 -6 14 -15l2 21zM308 604q-3 -1 -6 -1q-13 0 -18 17q2 -10 -9 -14q-6 -3 -13 -5l12 -12q-4 -12 -3 -16l13 11q-1 0 15 -8q-7 18 9 28zM177 695q-10 7 -24 25l11 28l-26 -16l-28 19l6 -31l-26 -17l29 -3
q5 -5 6.5 -16t3.5 -15l17 28zM211 626l-16 17l9 20q-4 -1 -12 -6q-3 -4 -7 -4q-5 0 -18 13l3 -19q-6 -6 -20 -15l16 -2q7 0 8.5 -9.5t3.5 -11.5v3q4 15 33 14zM104 602h-6q-3 -1 -5 -1q-5 0 -9 6t-7 11l-1 -9q-4 -12 -17 -13l12 -11q0 -5 -3 -15h5q2 3 8 9q4 2 10 -2t8 -4
l-3 3q-6 13 8 26zM115 403l-22 17l6 25l-15 -15q-7 -2 -16 6t-12 9l8 -27l-19 -17h22q5 -2 6.5 -11.5t5.5 -9.5l8 19zM294 115q-16 5 -23 4q-8 3 -8 16q0 17 -1 20l-19 -25q-27 5 -28 5l14 -17q2 -3 2 -6q0 -6 -7.5 -15t-6.5 -12q6 -1 14 4t12 5q7 -1 13 -11.5t12 -12.5
l-2 28q3 7 15 10.5t13 6.5zM203 187h-8q-5 3 -8 12t-4 10l-10 -12q-6 1 -15 1q7 -3 7 -9q0 -4 -2.5 -10t-1.5 -7q4 2 7 2q5 0 21 -15q-9 23 14 28zM126 166l-13 -2q-7 3 -10 11l-7 14q-1 -12 -9 -22l-22 -3l19 -14l-5 -20l14 11q6 1 13.5 -4.5t9.5 -6.5v3q-6 5 -6 11
q0 8 16 22zM173 68l-7 6q-3 7 6 28l-23 -6l-14 16v-24q-5 -10 -16 -10l19 -8l6 -20q3 6 11 17q9 -3 18 1z" />
    <glyph glyph-name="H" unicode="H" horiz-adv-x="430" 
d="M410 578q-1 -1 -62 -4l-3 -3q0 -46 1 -93q4 -54 42 -73q-16 -5 -30 -23t-15 -37q-2 -12 -2 -26q0 -11 2 -34t2 -34q0 -14 -2 -26q8 -5 27 -4t28 -5v-214q-64 -4 -187 3v212l3 5h27q16 -1 23 8v130l-6 3h-120l-4 -4v-132q8 -4 26 -3.5t25 -1.5l-2 -216h-183v216q9 3 24 3
h26l4 5q-1 15 0 42q3 35 3 45q0 69 -51 88q42 19 48 52q5 21 3 59q-2 43 -1 58q-9 5 -25 4q-19 -1 -26 1v219l4 2l182 -3v-218l-51 -3q-4 -25 -3 -66v-67q24 -8 69 -7l57 2l3 5v130q-7 3 -25.5 2.5t-26.5 6.5l3 213l7 3l181 -3l5 -5v-212zM387 728l-7 6q-3 6 0 13l5 12
l-15 -6q-5 4 -11 13l-2 -11q-4 -15 -15 -14l15 -7q2 -5 2 -17q17 15 19 15q4 0 9 -4zM318 719q-3 1 -9 -2t-11 -3q-9 0 -15 10t-11 20l-5 -25q-5 -6 -15.5 -7t-20.5 -2q5 -3 13 -8q15 -2 15 -14q0 -4 -3 -14.5t-3 -15.5q9 9 27 24l29 -16l-14 30zM362 618q-21 -7 -25 17
l-3 -11q-8 -13 -20 -11q0 -1 4 -1q14 -4 8 -27q4 10 15 8q19 -3 16 -3l-3 3q-7 17 8 25zM179 744l-24 9l-4 25l-14 -20q-10 1 -25 1q2 -3 8 -8t6 -10q0 -4 -6 -12t-5 -12l22 8l18 -17v23q8 5 24 13zM76 727q-8 5 -3 28l-2 -2q-11 -7 -24 9v-14q-1 -4 -7.5 -6.5t-8.5 -4.5
l2 -1q2 0 7 1q6 -2 7.5 -9t2.5 -14l1 5q3 7 12 9q9 1 13 -1zM157 624q-9 4 -25 16l2 34l-19 -23q-17 0 -30 10q1 -7 10 -27l-17 -24q8 2 26 5q7 -4 11 -14q7 -13 9 -16l3 28q8 9 30 11zM351 399l-11 3q-13 4 -9 34l-20 -18q-8 3 -24 11l6 -10q5 -4 5 -10q0 -2 -15 -24
q4 -1 9.5 2t9.5 3q7 0 11.5 -8t7.5 -16l4 16q-2 11 11 12t15 5zM384 172l-13 5q-9 4 -9 17l-9 -14l-19 3l8 -8q5 -13 -5 -23l5 3q17 6 24 -6q0 4 -1 11q2 5 7.5 7.5t11.5 4.5zM127 388l-18 17q2 9 7 25l-20 -12q-5 -1 -12 4q-11 9 -11 10q3 -6 3 -12q0 -17 -18 -29h21
q4 -3 5.5 -11.5t5.5 -11.5l2 6q10 18 35 14zM300 174q-9 -1 -25 1l-11 21l-9 -25l-22 -2l17 -17l-3 -23l14 11q3 2 6 2q-4 0 19 -9v8q-6 5 -6 9q0 6 9.5 14t10.5 10zM377 53q-1 7 -10 11t-11 7q2 11 3 30q-1 -1 -25 -17q-4 2 -26 17l9 -33q-9 -5 -24 -21l33 1l14 -28l9 30z
M165 146l-22 28q0 4 4.5 12t3.5 10l-27 -8q-6 9 -23 18l6 -29q-1 -1 -29 -17l28 -5q5 -5 9 -32h3q4 9 16 28zM154 59l-22 6q-6 13 -5 28l-15 -20l-24 3l13 -15l-11 -28l25 9l15 -20v23q11 10 24 14zM65 98l-3 3q-6 8 2 22h-3q-3 -2 -5 -2q-6 0 -17 14l-2 -14q-7 -8 -18 -9
l6 -2q6 -3 11.5 -10.5t2.5 -9.5q2 7 12 8h14z" />
    <glyph glyph-name="I" unicode="I" horiz-adv-x="222" 
d="M212 202l-3 -202l-203 3v218l57 2l3 6q-1 15 0 41q2 33 2 43q0 74 -51 93q46 14 50 91l-3 76l-3 3h-56l-5 6v218h209l1 -221q-22 1 -61 -6q1 -13 0 -36q-2 -28 -2 -37q0 -64 49 -89q-36 -24 -43.5 -49t-6.5 -67q0 -70 0 -69l5 -5h58zM144 715l-30 18l2 29l-22 -23
q-4 1 -14 6.5t-17 4.5l17 -27q-6 -8 -19 -25l30 3l17 -25l2 24q3 8 15 11zM176 657l-21 -6q-4 1 -7 7.5t-7 6.5l-1 -14q-7 -5 -21 -14l13 -3q6 -4 6 -12q0 -12 2 -15l4 8q6 7 30 8l-8 5q-1 2 -1 5q0 4 5.5 11.5t5.5 12.5zM74 646l-11 -4q-5 2 -10 9.5t-6 8.5q1 -7 -6 -17
q-8 -2 -16 -6q5 -3 16 -9q2 -4 -2.5 -8.5t-2.5 -6.5l9 -1v5q4 6 11 4l11 -3l-1 2q-3 6 8 26zM138 419l-25 -5l-17 19l-2 -25q-8 -2 -22 -8q7 -2 19 -9q0 -10 3 -25q4 2 9 9t8 9l24 -7q-5 7 -13 23zM182 177h-13q-12 4 -17 24l-8 -19h-22l11 -9q4 -7 -4 -27l20 9l17 -11
q-4 13 -1 16q4 13 17 17zM83 143l-17 3q-5 2 -7.5 9.5t-5.5 13.5l-3 -10q-10 -15 -19 -15q-4 0 -7 2q4 -4 10 -13q5 -15 -1 -22l11 5q3 4 7 4q3 0 9 -5t7 -4l-3 18zM165 28l-18 30l18 22q-15 -1 -30 -6l-21 25v-27q-4 -7 -15 -10q-17 -4 -18 -4l30 -14v-28q6 1 12.5 9.5
l6.5 8.5q7 3 18 0q13 -5 17 -6z" />
    <glyph glyph-name="J" unicode="J" horiz-adv-x="299" 
d="M285 798l-3 -217l-55 -2l-3 -5q1 -11 0 -33q-1 -25 -1 -35q0 -75 46 -97q-28 -12 -46 -56l-3 -92l-5 -186q-4 -22 -21 -42t-39 -27t-45 -7q-58 0 -93 37q-17 27 -17 62l2 237q13 4 36 2q28 -2 38 -1l4 -106q3 -7 20 -14q23 0 31 8q7 12 7 30q-1 35 -1 32q2 26 2 39
q0 57 -35 76l-14 8q15 9 38 31q13 23 13 62q0 88 -1 75q-6 3 -53 5l3 218zM204 725l-28 17q3 11 0 30l-22 -20q-23 11 -26 11l11 -25l-19 -22q2 1 6 -2q7 5 13 5q8 0 15 -12q10 -18 11 -19l2 25q4 8 18.5 9t18.5 3zM260 608l-17 13l1 22q-3 -3 -10 -9q-3 -2 -5 -2
q-4 0 -10.5 6t-9.5 6l6 -25q-6 -2 -13 -12h18q4 -2 6.5 -9.5t4.5 -9.5l4 14q3 5 12.5 5t12.5 1zM157 638q-2 1 -6 2q-16 11 -14 21q0 -10 -26 -12l4 -5q8 -11 0 -21q15 7 27 -10l-2 13q6 11 17 12zM210 391l-15 23q5 6 12 20l-23 -7q-4 2 -9 8.5t-8 9.5l-4 -28l-20 -8
q9 -2 24 -11l3 -21q2 4 8 12q3 8 9 8q4 0 12 -3.5t11 -2.5zM193 176h-3q-16 10 -16 23q0 4 2 8l-6 -9q-7 -2 -28 7q0 1 4 -15q1 -2 1 -4q0 -4 -6 -9q-9 -6 -10 -7h19q8 -2 15 -16l2 6q0 10 10 12zM80 202h-11q-11 3 -18 25l-9 -18q-18 0 -23 1l14 -14q1 -6 -3 -13t-5 -10
l12 6q13 6 25 -9l-3 12q1 7 21 20zM145 87q-11 3 -33 11l-3 30l-19 -28l-31 3q8 -8 22 -24l-16 -28l32 11q7 -7 21 -20l-3 30q4 5 15 7.5t15 7.5z" />
    <glyph glyph-name="K" unicode="K" horiz-adv-x="444" 
d="M423 578l-56 -3l-170 -164v-5l175 -186l50 -1v-217h-186l-3 5v210l-2 2q4 2 13 1h14q6 2 4 10l-121 123l-4 -4v-125q9 -6 26 -5q27 0 26 0l5 -8l-2 -208q-60 -5 -187 -1q-5 69 -2 215q6 2 28 2q17 -1 25 6q-1 15 0 43q2 34 2 44q0 79 -50 102q38 12 47 57q4 18 2 50
q-2 37 -1 51q-8 5 -24 5h-27l-3 4l-2 217l3 2h189l2 -219q-9 -5 -25 -5l-27 1l-5 -5l2 -105l3 -4q41 35 117 110q-4 4 -14 3.5t-14 1.5v222h192v-222zM386 755h-14q-7 4 -10 17l-4 -10q-15 -7 -22 -6q2 -1 7.5 -3.5t4.5 -10.5q-2 -14 -3 -11l5 3q10 5 23 -7l-3 10
q4 11 16 18zM291 759l-2 -1q-4 -3 -7 -3q-6 0 -18 17v-8q-4 -15 -19 -14h3q17 -8 10 -27q4 3 12 11q3 1 7 -3.5t7 -3.5q-2 27 -2 17q0 11 9 15zM387 633q-5 4 -25 17q-3 6 0 17q4 14 4 19l-29 -22q-8 7 -28 16q6 -10 13 -30l-24 -23h33l13 -29l6 24q3 10 16 10q18 -1 21 1z
M169 687q-17 8 -17 20q0 3 3 7q-4 -3 -11 -9l-21 3q3 -2 7 -10q5 -9 -7 -22l4 4q9 4 25 -13v5q-3 15 17 15zM105 753l-35 -5l-18 27l-2 -30q-4 -6 -16 -8.5t-14 -3.5q4 -5 13 -8t12 -6l2 -28q12 8 20 20q4 -1 14 -6.5t17 -4.5q-3 6 -11 19q-2 3 -2 7q0 6 9 15t11 12z
M130 623q-7 0 -18 2q-6 3 -14 20l-7 -15l-24 -3l16 -15q0 -3 -2.5 -9.5t-2.5 -10.5q4 2 9 8q8 0 27 -11l-5 20zM147 383l-22 25l16 30l-32 -13l-22 23v-32l-28 -16l12 -2q7 -2 12 1q10 -3 9.5 -19.5t2.5 -18.5l21 27q9 -4 31 -5zM394 110q-8 2 -10 13v12l-4 -4q-14 -5 -22 5
q4 -4 4 -9q0 -10 -15 -21h17l11 -17v8q0 6 19 13zM329 166v5q-7 2 -5 12q2 12 1 14q-4 -5 -9 -5t-13 6.5t-11 7.5l3 -10q2 -6 0 -10l-17 -14q6 0 17 -1q5 -4 6 -11.5t2 -14.5q4 4 7.5 12t18.5 9zM320 75l-12 -4q-4 -3 -7 -3q-5 0 -9.5 9t-7.5 11v-10q4 -10 -7 -14
q-14 -4 -15 -8q7 -2 19 -9q1 -7 -1 -19q2 1 11 13q5 2 14.5 -2t11.5 -4l-11 20zM169 172l-21 2q-4 2 -5 8l-2 12q-6 -8 -7 -16q-4 -3 -13.5 -3t-12.5 -1l15 -13l-3 -20l7 6q7 2 29 -11l-3 6q-5 17 16 30zM75 160q-8 5 -16 11q3 5 2 15l-3 -3q-9 -5 -24 5l2 -17l-9 -11l11 1
q4 -6 12 -19v8q7 12 25 10zM147 94q-6 1 -14 -3.5t-12 -4.5q-3 0 -5 2q-7 7 -19 22q-4 -5 -3 -14v-14q-3 -5 -14 -7.5t-13 -8.5q16 -5 27 -13q-1 -9 -2 -29l24 25q10 -3 29 -11q0 1 -15 26q0 7 8.5 17.5t8.5 12.5z" />
    <glyph glyph-name="L" unicode="L" horiz-adv-x="365" 
d="M348 358l-2 -342l-2 -16h-341l-3 11l2 204l4 4q18 -2 50 5q0 12 2 39.5t2 41.5q0 82 -52 108q41 18 48 69q1 46 2 93q-8 6 -27 6q-22 0 -28 1l-3 218h202v-216q-5 -5 -17 -5q-5 0 -13 1h-13q-22 0 -18 -23q2 -36 3 -71q4 -42 28 -62l18 -14q-41 -14 -44 -45
q-7 -18 -7 -43q0 -11 2 -35t2 -36q0 -16 -2 -29l5 -3q67 -5 108 6q14 12 14 29v114q18 6 76 3zM177 753l-27 1q-7 4 -9.5 14t-4.5 19l-15 -28l-15 3q-9 1 -15 -1q6 -6 19 -16q1 -3 1 -6q0 -6 -5 -15.5t-6 -12.5q5 -1 12 4.5t10 6.5t6 1q5 0 13 -10t14 -12l-5 21q-1 3 -1 6
q0 8 12.5 14.5t15.5 10.5zM177 621h-5q-10 4 -11 26l-11 -13q-3 -2 -7.5 1t-7.5 1q6 -3 6 -8q0 -3 -4 -10t-4 -11q2 1 7 2.5t7 2.5q4 -5 11 -16l3 13q4 13 16 12zM94 676l-27 -9l-17 19v-21q-8 -10 -27 -12l10 -3q12 0 14 -11.5t3 -21.5l16 20l25 -6l-13 17q-1 7 7 16t9 12z
M153 413l-4 2q-14 7 -13 22v-3q-2 -9 -13 -9q-6 0 -12 1l3 -5q6 -13 -8 -25q3 -1 7 3q12 7 25 -9q-2 3 -2 5q0 6 8 12q5 3 9 6zM324 224l-14 -2q-5 2 -8.5 9.5t-4.5 7.5v-4q0 -12 -22 -14q13 -5 11 -27q2 2 5 6q10 5 24 -4l-3 11q2 7 12 17zM88 426h-17l-10 14
q4 -12 -20 -20q9 -2 10 -10.5t2 -16.5l7 8q5 3 11 0l10 -5l-3 3q-6 16 10 27zM238 168l-25 -2q-3 9 -11 25l-9 -25l-24 -3q7 -5 21 -14q-2 -12 -5 -25q11 4 14 11q3 1 5 1t23 -14q-2 16 -8 27zM312 52q2 3 -1.5 5t-6.5 4q-9 3 -8 14l1 17l-18 -17q-9 7 -24 10l9 -21l-17 -20
l24 3q4 -8 14 -24q2 10 9 27q4 -1 9 1t9 1zM179 53l-15 10q2 5 2 17q-2 -8 -11 -8q-4 0 -10 2t-7 1l4 -14l-11 -12l13 1q1 0 12 -16v7q2 7 11 10zM108 144l-31 16l1 30l-22 -24l-28 6l8 -11q7 -5 7 -10q0 -6 -9 -15.5t-11 -13.5q8 2 24 5q8 2 15 -8q11 -17 12 -17v23
q2 10 13 13.5t21 5.5zM88 23l-11 15q-1 4 3 11.5t5 10.5q-2 0 -5.5 -3t-7.5 -3q-8 0 -20 17q1 -25 -19 -30l12 -3q6 -3 5.5 -12t1.5 -12q2 4 11 11z" />
    <glyph glyph-name="M" unicode="M" horiz-adv-x="607" 
d="M578 798l-3 -218q-15 -1 -31 -1.5t-24 -9.5q3 -75 5 -88q9 -47 44 -69q-44 -22 -49 -83v-104q8 -7 26.5 -6.5t25.5 -2.5l-2 -214h-182v214q6 3 24 2.5t25 4.5v322l-17 -58l-115 -481q-17 -10 -41 -4l-119 550h-4l-3 -146v-181q7 -5 25 -4.5t24 -4.5q1 -71 -1 -211h-183
l-3 3l2 209q7 4 28 3q18 0 26 7q0 13 1 37q1 29 1 40q0 84 -50 110q43 19 49 70q0 46 1 92l-5 5l-48 2l-2 217h172l109 -511l4 -5q7 12 14 39l107 471q0 2 3 2.5t4 1.5h162zM538 731l-29 20q1 7 7 32l-19 -18q-3 -1 -6 -1q-6 0 -15.5 6.5t-11.5 5.5l8 -26l-24 -25l32 1
q4 -10 15 -31q1 12 10 31q15 7 33 5zM548 659h-14q-7 7 -11 16v-6q-3 -6 -10 -7.5t-13 -2.5q13 -7 13 -19q0 -3 -2 -4q5 4 15 0l10 -3q-2 3 -2 6q0 6 14 20zM466 606l-11 17q-2 6 2.5 12.5t8.5 12.5l-25 -4l-15 20l-1 -25q-3 -4 -12.5 -5.5t-12.5 -5.5l11 -3q11 -1 12 -12
v-21q3 5 10 11q3 8 10 8q3 0 11.5 -3t11.5 -2zM539 411l-23 9q0 9 -4 25q-4 -5 -9 -15q-4 -5 -9 -5q-4 0 -11 3t-11 3l11 -12q5 -5 5 -9t-7 -12t-8 -12l22 9q7 -1 12 -9q6 -11 9 -13v24q10 9 23 14zM116 708q-8 7 -22 23q0 5 6 14t5 16l-21 -13q-3 -1 -6 -1q-6 0 -13.5 6.5
t-14.5 11.5l6 -34l-25 -17q11 -1 32 -6q1 -16 7 -27l16 28q11 0 30 -1zM170 667q-7 0 -20 -3q-1 1 -14 17v-15q-2 -6 -11 -7.5t-11 -5.5l11 -3q8 -4 5 -27q2 0 6 4q3 9 11 9q2 0 8.5 -1.5t10.5 -1.5l-8 14zM555 148l-14 13q2 7 3 20l-17 -8l-18 11l5 -20l-19 -14l19 -2
q6 -2 7.5 -11t3.5 -12q2 7 9 20q3 2 10.5 2t10.5 1zM75 609q-8 4 -7 14q2 20 2 14l-4 -3q-17 -5 -24 7q4 -4 4 -8t-7 -11t-8 -10h11q4 -1 5.5 -8.5t5.5 -9.5v3q5 16 22 12zM452 184l-18 5l-4 16v-3q-7 -14 -25 -13l7 -6l-1 -22q2 1 6 5q12 7 22 -5q-1 2 -2 12q4 5 15 11z
M506 75q-11 6 -26 8q-9 2 -8.5 15t-4.5 16l-17 -23l-30 6l16 -19q2 -3 2 -6q0 -4 -7 -13t-6 -15l17 8q3 1 6 1q7 0 15.5 -10t13.5 -12l1 33zM325 191l-19 17q0 4 4 12t3 10l-21 -10l-19 16l5 -25l-23 -16q9 0 26 -4q3 -8 7 -24l10 22q10 -1 27 2zM103 391l-8 14q-3 3 -3 7
q0 3 5.5 10t5.5 11q-11 -8 -19 -3q-11 10 -17 22l-3 -24q-4 -6 -12.5 -7t-15.5 -2l25 -13q-1 -9 2 -25l15 17q5 1 13 -3t12 -4zM164 159q-1 1 -12 4q-7 2 -13 -1q-9 4 -10 18q-2 18 -4 22l-16 -29q-17 -1 -31 5q8 -14 16 -19q2 -3 2 -7q0 -5 -6.5 -14t-6.5 -15q9 5 28 13
l23 -24v33zM166 42l-7 7q-4 7 7 24q-2 1 -10 -3q-1 -1 -3 -1q-4 0 -9.5 6l-5.5 6l-2 -11q-4 -6 -16 -12h5q7 -2 10 -12q1 -6 3 -12l7 10q14 5 21 -2zM56 159q-10 -3 -14 7l-6 15v-5q-2 -7 -12 -9h-13q3 -3 8 -9q2 -3 -2 -19l2 2q16 8 25 -7q-3 4 -3 7t15 18zM94 66
q-9 0 -27 3q-2 8 -9 23l-9 -22l-27 -1l20 -19q-3 -7 -9 -22l25 11l17 -14q1 4 -1.5 9t-2.5 10q0 7 7.5 12t15.5 10z" />
    <glyph glyph-name="N" unicode="N" horiz-adv-x="423" 
d="M403 579q-7 -3 -25.5 -3t-25.5 -5q0 -11 -1 -33t-1 -32q0 -76 47 -101q-48 -21 -48 -70l-3 -335h-88l-9 36l-101 501q0 1 -2 3l-3 -5l-3 -305q2 -10 19 -9q23 0 26 -1l-1 -218l-178 -2l-6 6l2 212q9 3 26 3q29 0 28 0l5 5q0 51 -1 102q-4 61 -48 83q12 3 26 17
q10 12 21 23q0 2 3 123l-3 3l-53 4l-3 12l3 207l164 -3l9 -34l86 -417l3 42v185q-5 5 -18 4.5t-16 1.5l-2 215l3 3h168v-218zM383 710l-14 17q-3 3 -3 7q0 6 6.5 15t7.5 14q-10 -3 -30 -10l-22 25v-29q-3 -7 -13 -10q-13 -3 -16 -6q10 -3 29 -11l5 -33l19 27q5 0 15 -3
t16 -3zM383 629h-11q-8 6 -13 17v-5q-1 -5 -9 -12q-4 -2 -8 -3l2 -2q7 -2 5 -26l4 4q3 7 7 7q3 0 9.5 -4t8.5 -3l-3 3q-4 7 8 24zM313 658l-17 2q-5 2 -7 10t-6 10l-9 -17h-19l14 -17l-8 -20l21 11l17 -14q0 6 -3 23q6 4 17 12zM125 719l-28 19l4 32l-18 -17q-3 -1 -7 -1
q-6 0 -16 5.5t-13 6.5q5 -10 12 -31q-7 -8 -23 -22l31 2q5 -10 16 -30l1 22q5 9 18 11q22 3 23 3zM171 649l-9 8l1 26l-7 -4q-14 -8 -24 7v-7q2 -4 2 -6q0 -5 -8.5 -10t-10.5 -8q5 1 13 -1q14 -7 14 -24l3 11q3 7 26 8zM355 388l-20 20l9 22l-25 -11q-4 3 -19 14l5 -25
q-6 -6 -20 -14q14 -4 20 -3q6 -4 7.5 -14t3.5 -13l9 22zM137 585h-5q-3 -1 -5 -1q-5 0 -8 6.5t-5 11.5l-4 -12q-7 -6 -18 -5l12 -12l-4 -17l17 9q2 0 5.5 -4t6.5 -2q1 1 -1 3.5t-2 5.5q0 7 11 17zM70 626h-11q-5 3 -8 20l-1 -6q-3 -8 -27 -13q5 -4 7 -3q7 -3 6 -12
q-1 -12 -2 -11l3 3q15 6 25 -6v20q3 1 6 2.5t2 5.5zM120 402l-19 15q2 9 5 27l-19 -13q-5 -1 -12.5 5.5t-10.5 7.5q0 -1 3 -14q2 -4 2 -7q0 -6 -9 -12t-10 -8l25 -3l9 -23l5 18q4 7 15 7h16zM317 135l-4 5q-10 5 -10 12q0 5 4.5 14t3.5 12l-20 -8q-6 6 -19 20l-3 -30l-20 -9
l27 -9l1 -25q3 3 8.5 10.5t8.5 11.5zM328 72q-3 1 -11 1q-11 6 -12 17q0 -9 -8.5 -9.5t-16.5 -1.5l10 -9q1 -4 -2 -9.5t-2 -7.5l2 1q18 8 25 -9v6q-2 4 -2 6q0 5 8.5 10zM160 191h-31l-15 30l-5 -26q-3 -8 -16 -9t-17 -4l24 -19q-3 -9 -7 -29q8 5 22 19q8 0 17 -6l16 -8
q-2 12 -8 21q-1 3 -1 5q0 7 10 15.5t11 10.5zM68 168l-6 2q-17 10 -12 21l-6 -6q-8 -4 -21 3q8 -17 -1 -28h3q4 3 7 3q4 0 8 -7.5t7 -9.5l1 11q1 7 7.5 8.5t12.5 2.5zM168 61l-14 11q-1 6 2 18l-13 -11q-8 1 -15 7q0 -4 1 -5q5 -10 -9 -23h15q3 -6 10 -14l1 10q2 5 22 7z
M98 73q-5 3 -23 6q-4 6 -8 28q-10 -16 -17 -23q-24 3 -23 3l17 -20l-8 -22l23 8l17 -17l-1 25q7 5 23 12z" />
    <glyph glyph-name="O" unicode="O" horiz-adv-x="407" 
d="M388 408q-34 -14 -40 -57q-1 -39 -3 -78q0 -12 2 -48q2 -31 2 -49q0 -111 -62 -153q-37 -25 -90 -25q-63 0 -106 33q-41 30 -47 95q-2 57 -4 115v92q-3 54 -40 75q40 25 40 91q0 10 -1 40q-1 25 -1 39q-1 27 -1 46q0 121 72 158q35 19 82 19q65 0 107 -34q11 -7 21 -22
q7 -13 15 -26q14 -32 13 -89q0 -92 0 -91q-5 -101 41 -131zM259 732q-3 0 -11 7q0 7 2 20l-6 -4q-4 -6 -10 -3q-9 3 -12 3q4 -4 4 -8q0 -2 -13 -17h14q5 -3 9 -18l2 7q1 7 8.5 10.5t12.5 2.5zM322 644l-20 16q2 8 5 26l-19 -16q-5 0 -12 4.5t-11 5.5q3 -7 7 -20l-16 -19
l19 -1q4 -3 13 -25l11 26q5 0 23 3zM169 730q-10 0 -29 3q-4 11 -11 31q-7 -19 -6 -21q-4 -8 -14 -8q-3 0 -14 1q-8 2 -12 0l23 -21l-11 -32l26 15q6 1 15.5 -8t13.5 -10q0 1 -7 30zM207 632l-12 -2q-11 6 -13 17q-4 -23 -19 -20q2 -1 6.5 -5t6.5 -5q0 -7 -1 -16q2 2 6 5
q11 5 23 -3l-8 15zM368 404l-18 9q0 5 -2 15l-7 -11q-14 -4 -20 2q3 -6 7 -19q-5 -4 -6 -10q3 -1 6 1t5 2q4 0 9.5 -5t7.5 -6v12q1 2 18 10zM115 601l-8 8q-7 17 2 26l-20 -9l-17 14l3 -23q-7 -2 -17 -13q8 0 22 -3q1 -1 2 -7.5t7 -4.5q0 11 11 12h15zM304 411l-11 -1
q-3 6 -11 20l-1 -8q-5 -5 -23 -9q9 -2 10 -25q20 6 28 -6l-3 17q1 2 6 5t5 7zM264 242q-1 14 0 38q2 29 2 39q0 66 -39 91q26 12 34 38q0 10 2.5 34t2.5 36q0 28 -10 47q-8 10 -23.5 12t-30.5 3q-8 -3 -27 -3h-6q-41 0 -46 -25q0 -9 -1 -29t-1 -29q0 -64 39 -84
q-38 -25 -38 -81q0 -14 2 -28q2 -6 1 -40q0 -25 13 -35q47 -8 63 -8q44 0 63 24zM134 410h-5q-12 4 -12 24v-1q-13 -17 -26 -11l1 -2q4 -3 4 -9l-5 -17h3q3 3 7 3q-3 0 16 -10q-2 3 -2 5q0 6 6.5 10t12.5 8zM69 394l-5 8q-5 13 5 21h-18q-4 4 -10 11v-11q-2 -12 -17 -12
l7 -1q7 -3 8.5 -13l1.5 -10l10 9q7 5 18 -2zM308 135l-23 23q5 10 11 31q-14 -11 -29 -16l-23 20l4 -30l-26 -20l30 -3q4 -5 5 -16.5t4 -14.5l17 28zM209 170l-5 2q-14 4 -11 25h-1v-2h1q-8 -14 -20 -14q-4 0 -7 2q1 -4 7 -10q1 -4 -3.5 -9.5t-5.5 -8.5q4 0 5 2q14 7 23 -8
q-2 3 -2 5q0 7 9.5 11.5zM241 75h-17q-4 7 -11 20l-4 -18q-4 -4 -12 -3.5t-11 -1.5l16 -12q-1 -22 -1 -21l11 9q2 1 4 1q4 0 10 -4.5t10 -4.5q-3 6 -7 18zM132 189l-25 -3l-13 21l-2 -18q-3 -8 -13 -9q-13 -1 -16 -3l14 -8q8 -2 8 -13l-2 -16l18 15q9 -2 25 -11q-3 9 -11 25
q1 1 17 20zM147 63q-20 12 -18 21q-5 -9 -28 -9q2 -2 5 -6q4 -9 -5 -23l3 3q16 7 26 -9q1 5 -1 12q1 6 8.5 7.5t9.5 3.5z" />
    <glyph glyph-name="P" unicode="P" horiz-adv-x="363" 
d="M346 675l-5 -224q-16 -60 -56 -75q-25 -9 -70 -8q-54 3 -71 0l-5 -10v-129q13 -7 25 -7h36l-1 -222h-174l-25 2v220q29 -1 30 -1q18 1 25 12q-1 13 0 37q1 28 1 38q0 82 -50 104q43 15 51 68l2 96l-4 5q-16 1 -50 1l-3 5l3 213l245 -2q63 -14 87 -70zM305 723l-9 -1
q-7 1 -16 17l-1 -10q-1 -5 -9 -8q-4 -1 -9 -3q8 -2 9 -10.5t1 -15.5l8 6q4 4 11 0q7 -3 9 -3q0 1 -2 3q-6 13 8 25zM211 747q-2 0 -7 1q-15 4 -15 21q-8 -20 -23 -15q10 -11 1 -28l16 7q2 -3 7 -6.5t7 -6.5v17q6 7 14 10zM321 600l-8 1q-13 9 -11 31l-16 -15q-3 0 -10.5 2.5
t-7.5 1.5l7 -17l-14 -19q6 3 18 5q8 -5 17 -20l3 19q2 5 11 7t11 4zM235 658q-12 0 -15.5 10t-6.5 19l-13 -15l-22 3q4 -5 13 -14q0 -5 -6 -12t-5 -12q7 2 20 6q2 -1 6.5 -6.5t8.5 -4.5q-4 18 20 26zM110 725q-11 3 -29 15l4 33l-24 -22l-30 13l13 -30l-22 -23q7 0 20 3
q4 2 7 2q7 0 13.5 -13t9.5 -14l3 19q2 11 16.5 12t18.5 5zM257 473l2 42q2 26 -2 42q-8 17 -19 18l-91 1l-1 -122q11 2 33 -1q26 -3 35 -3q31 0 43 23zM141 601l-25 13q1 9 -3 22l-14 -19l-24 4l13 -18l-11 -21l23 5q6 -7 16 -22l1 17q-3 12 10.5 15.5zM131 399l-25 16l4 25
l-11 -11q-4 -8 -9 -8q-4 0 -12 5t-12 5l11 -22l-14 -18h3q5 2 9 2q9 0 25 -25q2 10 6 28q17 -1 25 3zM119 179q-1 5 -6 4q-7 -3 -10 -1q-6 3 -7 13t-4 13l-11 -18h-25q5 -6 16 -15q0 1 -6 -23l20 9l17 -14q-2 7 -1 22q1 5 8.5 4.5t8.5 5.5zM180 53q-7 6 -22 16l6 33l-22 -17
q-7 0 -15 5l-14 10q4 -13 9 -29q-9 -7 -25 -22q10 -1 28 1q7 -4 10 -15t6 -13l12 28q13 -1 27 3zM64 111h-14q-11 9 -11 13q1 -10 -7 -14.5t-15 -4.5q16 -5 13 -27l12 8q8 5 14 -5q1 4 -3 10q-1 5 3 10z" />
    <glyph glyph-name="Q" unicode="Q" horiz-adv-x="347" 
d="M330 407q2 -7 -8 -9q-27 -27 -28 -67l-2 -190q-11 -90 -58 -129q-1 -6 3 -10t9 -7.5t17 -2.5h18q1 -51 -1 -151q-15 -3 -29 -3q-65 0 -101 53q-18 27 -29 108q-31 15 -53.5 49.5t-26.5 71.5q-4 42 -3 113q0 84 -1 113q-14 44 -37 58q32 26 36 47q6 32 6 82v36
q-1 23 -1 35q0 69 13 106q17 51 63 74q20 6 88 4q36 -9 61.5 -44t27.5 -115l4 -171q9 -34 32 -51zM229 702l-18 23l9 29l-24 -15l-21 23l4 -23q1 -4 1 -7q0 -7 -10.5 -12t-12.5 -9q3 -3 13 -3t14 -3l7 -30l12 29zM281 618l-20 8l-4 26l-13 -25q-8 1 -19 2l13 -17
q-1 -4 -4 -12.5t-3 -12.5l17 11l17 -15l-2 21q6 5 18 14zM114 714q-2 1 -7 2l-9 18l-2 -6q-5 -12 -19 -9l5 -5q5 -2 5 -6q0 -2 -2 -8.5t-2 -9.5l15 7q3 -5 11 -10q0 1 -1 3q-6 16 6 24zM190 635q-13 -4 -14 -3l-9 12v-6q-2 -11 -18 -15h3q6 -2 9.5 -10t1.5 -13l5 6
q7 4 19 -3l-3 6q-5 13 6 26zM285 407q-6 4 -14 3q-2 8 -8 22l-1 -8q-6 -10 -26 -9l11 -11q2 -9 -7 -24q4 0 8 4.5t7 4.5q4 0 9.5 -6t7.5 -6l-2 18q6 5 15 12zM109 590l-11 14q1 7 3 22q0 -1 -9 -8q-12 -4 -20 8q3 -5 3 -11q0 -7 -13 -23l14 -2q5 -2 5 -9q0 -10 2 -12
q4 3 3 8q5 18 23 13zM229 494q0 18 -0.5 36.5t-8.5 29.5q-22 13 -31 11q-82 0 -41 1q-23 -1 -35 -15q-8 -20 -8 -49q0 -30 8 -64q4 -17 28 -41q-29 -19 -35 -65q-1 -8 -2 -85q0 -16 10 -28q2 0 6.5 -3.5t6.5 -3.5q3 0 5 3q1 34 -11 88q12 17 40 39q17 -22 33 -81q2 -8 0 -21
q-3 -14 -1 -22q1 -5 9 -8q18 8 23 22q2 50 2 60q0 77 -40 106q37 22 42 90zM94 392l-7 2q-13 8 -13 27l-11 -17l-18 8l10 -22l-10 -16l19 4l9 -14q0 4 2.5 13t18.5 15zM268 149q-6 4 -5 15q2 14 3 12l-12 -7l-13 12l3 -17l-10 -10l13 -7q0 -1 1 -7.5t2 -5.5q3 7 9 12.5
t9 2.5zM196 146q-5 0 -20 8q1 10 -4 18l-9 -15q-5 1 -18 1l12 -18q-1 -1 -8 -17l17 6l14 -17l-3 19q5 8 19 15zM239 67l-28 1q-3 9 -8 28l-7 -23q-2 -8 -12 -9l-14 -2q0 -1 19 -20q-3 -10 -7 -30q1 0 22 18q7 -6 22 -15q1 3 -5 21q-3 10 7 17.5t11 13.5zM110 193l-21 -6
l-12 20l-1 -23q-3 -3 -10 -6t-10 -6q10 -3 9 -3q9 -1 11 -12v-19l13 17l20 -4l-11 18l6 12zM258 -82h-15q-3 7 -9 19l-7 -19l-18 -3q5 -4 16 -14q-3 -14 -3 -19l8 10l22 -10l-3 12q-2 8 0 12q16 11 9 12zM127 39l-4 5q-2 5 3 26l-1 -2q-12 -8 -21 11v-14q-2 -5 -8 -7l-6 -2
q6 -3 11 -11t3 -14l8 9q9 5 15 -1zM187 -53l-2 3q-4 4 -4 14t1 11q-10 -7 -23 8v-19q-4 -7 -9 -8l13 -6q0 -6 4 -15v3q2 8 10 9h10z" />
    <glyph glyph-name="R" unicode="R" horiz-adv-x="439" 
d="M418 216l-1 -214q-14 1 -39 -1q-31 -1 -41 -1q-75 0 -93 50l-3 19l-4 284q-13 19 -44 19q-7 0 -26.5 -2t-28.5 -1l-4 -7l2 -138q10 -6 28 -5q36 1 30 1l4 -9l-6 -209h-189l-3 3l2 214l50 1l6 8q-1 13 0 37q1 27 1 38q0 82 -48 108q36 15 45 47q4 22 4 58l-1 59
q-9 7 -27 6q-22 -2 -29 0v219l220 -2q39 -4 72 -27t45 -59l7 -34l-2 -195q-3 -28 -21.5 -52t-43.5 -31q42 -22 42 -89v-23q-1 -15 -1 -23q0 -19 2 -32q13 -15 42 -15q5 0 14 1h15q15 0 24 -3zM245 741l-26 -4q-6 8 -14 25l-2 -20q-3 -7 -15.5 -10t-14.5 -4l22 -12
q0 -11 -1 -27l4 5q5 11 13 11q5 0 13 -4t10 -4l-8 23zM323 609q-2 5 -7 5l-8 2q-9 1 -10 12q0 15 -1 17l-16 -17q-9 4 -25 5l11 -16q3 -6 -5 -13.5t-9 -11.5l25 5q4 -8 16 -19v19q2 8 14 9t15 3zM123 748h-23l-11 17q-1 -6 -5 -17q-2 -3 -10.5 -4t-10.5 -3q5 -4 15 -13
l-3 -20q2 2 11 8q6 6 25 -4l-6 18zM198 633h-12q-4 6 -14 19l-6 -19h-16q5 -2 11 -10q2 -3 1 -11q-2 -7 -1 -9q2 1 6 5.5t7 4.5q2 0 4 -1.5t7 -6t7 -2.5l-6 17zM261 466q-1 11 1 31q3 25 3 33q0 29 -17 43l-107 4l-2 -129l73 -4q39 1 49 22zM106 631l-25 16q3 39 3 33
l-25 -22l-26 12l11 -26l-21 -25l27 4q8 -3 12.5 -15t7.5 -16l7 30q4 4 15.5 5.5t13.5 3.5zM128 399l-22 12l2 23l-17 -17q-11 5 -25 8l11 -25l-14 -17l17 1q2 2 5 2q4 0 9.5 -9t8.5 -11l3 23zM347 147l-14 22q5 7 12 22l-23 -10l-17 19l-2 -20q-4 -5 -11 -7.5t-14 -5.5
l23 -9l5 -25l17 20zM411 52l-28 17q2 9 1 31l-25 -22l-26 13l12 -28l-19 -27q10 2 27 8q7 -3 12.5 -14.5t9.5 -15.5l5 30q5 4 14 5.5t17 2.5zM309 85h-12q-4 6 -11 18l-2 -7q1 -9 -9.5 -11t-12.5 -5q1 0 13 -8q-2 -7 -2 -17l5 5q9 4 25 -4l-3 4q-2 3 -2 6t5.5 9t5.5 10z
M112 144l-21 8q-11 2 -10 15q0 18 -1 21q-8 -14 -19 -24q-7 -1 -16 2q-16 4 -17 5l17 -22q1 -3 1 -5q0 -6 -8 -15t-10 -13q2 0 30 9l25 -25l1 34zM167 61q-8 -1 -14 7q-9 13 -9 14l-2 -8q-8 -11 -17 -8q6 -4 3 -30l5 5q13 7 25 -6q-1 2 -2 17q5 9 11 9zM77 42l-5 3
q-8 2 -8 9q0 2 2 8.5t1 9.5l-6 -6q-14 -6 -25 3l1 -2q7 -19 -7 -26q3 0 12 -2q7 -6 10 -14q10 19 25 17z" />
    <glyph glyph-name="S" unicode="S" horiz-adv-x="306" 
d="M291 786l-3 -298q-15 -4 -39 -2l-40 2q-3 8 -3 22v16q1 10 1 15q0 36 -29 40q2 0 -49 1q-30 1 -42 -16q-4 -11 -4 -21q0 -30 22 -49q39 -40 71 -40q11 0 22 4q-2 -8 -2 -17q0 -30 42 -68q45 -41 49 -68l-2 -186q0 -47 -32.5 -84t-78.5 -37q-29 0 -53 11q-22 18 -37 38
l-3 -4l-4 -40h-77v316l5 3l76 -3q3 -8 3 -21q0 -6 -1 -18t-1 -18q0 -29 20 -40q11 1 31 -1q25 -4 32 -4q27 0 38 23q5 11 5 25q0 21 -11 34q-58 64 -103 57l-7 -4q2 8 2 16q0 31 -39 72q-42 45 -47 70v171q0 35 21 66.5t53 45.5q19 5 37 5q62 0 87 -48q5 4 5 18t5 19l77 1z
M268 739l-5 2q-10 3 -12 23l-11 -14q-6 1 -17 3l8 -8q2 -5 -2 -11q-6 -9 -6 -10h3q4 4 9 4q9 0 17 -14v7q0 16 16 18zM271 612q-5 -1 -17 0q-6 5 -9 13.5t-5 16.5l-12 -25l-25 3l19 -19q-3 -8 -7 -24l22 12l20 -17q-1 8 -5 25zM146 711l-28 19l5 15q3 9 -1 14l-20 -17
q-6 0 -15.5 7t-12.5 6l8 -28l-25 -22h33q5 -4 7.5 -14.5t7.5 -14.5l2 20q3 10 18 13q10 1 21 2zM177 629l-4 3q-4 10 4 25q-3 -1 -5 -1q-6 0 -20 17l-2 -16q-2 -2 -9 -3.5t-9 -4.5h4q13 -5 11 -26l5 8q5 2 25 -2zM84 631q-3 0 -9.5 -3t-10.5 -2q-11 5 -19 23l-3 -21
q-3 -6 -12 -7q-12 -2 -14 -4l23 -14q0 1 -3 -22q5 0 15 13q4 1 12.5 -2t12.5 -1l-9 18q5 7 17 22zM173 406q-7 4 -21 13q1 4 -1 11.5t-1 11.5l-15 -17l-27 8q1 -1 11 -19q-2 -10 -14 -23q4 0 12 2t12 2q5 -7 17 -21l1 23q4 6 11.5 7t14.5 2zM266 151q-3 2 -9 6.5t-9 7.5
q6 12 4 26l-20 -16q-6 6 -20 8l3 -3q3 -4 3 -8q0 -5 -17 -26q8 0 21 2q2 -2 12 -25q2 8 9 23q10 2 23 5zM167 194l-17 -1l-11 13v-10q0 -6 -8 -8l-12 -2l11 -9q4 -4 3 -10v-10l11 12q4 2 10 -1.5t7 -2.5l-1 1q-7 16 7 28zM228 83h-14q-8 3 -13 15l-1 -11q-6 -8 -22 -11
l16 -9q0 -7 -3 -18l7 7q4 4 12 3q12 -3 10 -3l-2 2q-6 12 10 25zM82 174q-9 11 -14 23l13 20q-9 -2 -25 -6l-17 20v-23q-3 -5 -12.5 -6.5t-12.5 -5.5q11 -3 24 -12q-1 -9 2 -24l6 6q3 13 12 13q3 0 11.5 -3t12.5 -2zM129 110l-28 2q-6 6 -8 17q-4 17 -5 19l-17 -30l-28 3
q8 -8 21 -24q-9 -13 -13 -27l28 14q6 -6 25 -21q0 -1 -3 31z" />
    <glyph glyph-name="T" unicode="T" horiz-adv-x="364" 
d="M347 493q-25 -6 -79 -2q1 20 -2 61q-3 21 -20 30q-12 2 -33 -5q1 -45 2 -91q6 -50 39 -73q-44 -27 -44 -104q0 -9 2 -41q1 -25 0 -39q8 -6 21 -6q4 0 13 1t13 1q10 0 17 -4v-218l-6 -3h-196l-3 5v215l3 3h53l6 8q0 49 -1 98q-4 57 -41 82q44 23 44 103q0 11 -1 32.5
t-1 30.5q-4 5 -31 5q-23 -8 -25 -38v-51q-24 -6 -77 -2v306l5 3h342v-307zM317 748h-21q-3 7 -11 19l-6 -19l-23 -6l17 -13l-3 -23q1 1 19 16q6 -4 18 -10l-7 17q6 6 17 19zM218 751h-9q-12 7 -14 19l-2 -6q-3 -6 -10 -10t-10 -3q8 -2 8 -12q0 -15 -1 -14l8 4q10 7 19 -6v5
q-2 4 -2 7q0 4 5.5 9t7.5 7zM329 620l-29 15l1 32l-23 -25l-29 8q4 -8 15 -22q-6 -10 -16 -29l30 3l17 -23l1 25q4 9 18 12t15 4zM173 632l-13 13q0 4 3 11.5t3 10.5q-18 -8 -25 -5q-9 4 -9 11v-23l-19 -11l19 -4q4 -3 5.5 -12.5t3.5 -12.5q3 8 11 21q7 -1 21 1zM108 744
q-1 0 -31 -8q-7 8 -22 25l-2 -30q-4 -5 -12.5 -7.5t-16.5 -5.5q4 -2 13.5 -5.5t14.5 -6.5l3 -31q6 8 20 23q11 -3 32 -9l-18 29zM74 577q0 4 -4.5 8t-5.5 5q-1 4 2 9t3 7q-4 0 -7.5 -2t-5.5 -2q-3 0 -8 6t-7 7q5 -25 -17 -28l17 -3q5 -2 4.5 -9t1.5 -9l11 14q6 1 16 -3z
M209 402q-3 0 -22 11l-2 25l-19 -19l-23 8l12 -24l-15 -20l25 5l15 -21q0 6 2 22q3 6 13 7.5t14 5.5zM253 163q-3 3 -13 5.5t-9.5 17t-1.5 16.5l-19 -17l-23 11l9 -17q3 -7 -4 -15q-9 -11 -10 -13l24 4q4 -8 15 -25l2 13q-1 12 9.5 15t20.5 5zM138 177q-20 11 -17 24
q0 -8 -6 -10q-5 -1 -12 0q-3 1 -7 2q8 -21 -5 -30l19 5l9 -13q1 4 2 11q10 11 17 11zM256 47q-13 5 -11 27l-5 -3q-12 -3 -22 7q8 -22 -11 -29q4 1 7 1q7 0 17 -19l7 14zM185 36l-19 27q5 6 16 28l-22 -9q-3 -2 -5 -2q-7 0 -13 10q-9 12 -12 14v-32q-9 -5 -30 -12
q1 -1 19 -7q13 1 14 -11.5t2 -24.5l6 11q3 15 15 15q5 0 16 -4t13 -3z" />
    <glyph glyph-name="U" unicode="U" horiz-adv-x="426" 
d="M406 581h-30q-18 0 -26 -8q1 -47 2 -93q8 -51 48 -68q-33 -5 -50 -66q-3 -24 1 -128q2 -84 -13 -127q-22 -63 -87 -85q-21 -6 -42 -6q-51 0 -92.5 30.5t-48.5 89.5l-4 106q-1 14 0 42q2 34 2 44q0 77 -52 97q41 19 47 72q1 47 1 93l-6 5h-53l-3 213l6 6h179l5 -4v-212
q-7 -3 -23.5 -3t-23.5 -5q1 -46 2 -91q8 -52 48 -71q-40 -12 -50 -63q-3 -36 3 -106q4 -13 20 -22q21 -5 81 2q9 3 21 18q-1 14 1 42t2 41q0 64 -44 85q29 19 41 52l2 58q2 34 -2 57q-7 3 -23.5 3t-23.5 5v213l185 1v-217zM387 674v5q-7 5 -15 7.5t-8 10.5q0 4 3 14t3 14
l-26 -20l-27 14q3 -10 11 -28l-25 -25l32 2q13 -20 15 -31l11 34zM303 739l-18 10l-2 20l-1 -7q-5 -8 -17 -7l-18 3l13 -17l-14 -19l22 5q3 -6 14 -14v14q2 6 11.5 8.5t9.5 3.5zM300 615l-12 12q-5 13 1 17l-9 -7q-15 -5 -20 3q0 -4 1 -5q7 -13 -9 -25q6 -1 16 2
q3 -6 11 -16l3 14q6 6 18 5zM114 742l-14 -4q-6 -4 -11 -4q-8 0 -14.5 10t-12.5 18l-1 -26q-5 -9 -35 -14l30 -17q-2 -11 -2 -30q9 8 25 24q9 -6 28 -13l-14 30zM171 649h-6q-3 -1 -6 -1q-12 0 -14 16l-2 -7q-6 -10 -22 -10q5 -3 13 -14q-4 -3 -5 -12q7 1 11 6q8 0 20 -9
q0 4 -1.5 6t-1.5 6q0 9 14 19zM349 412q-9 3 -25 11l-2 27l-17 -20l-23 7l11 -23q-7 -6 -14 -20l12 4q4 3 8 3q5 0 11 -10t9 -11q0 6 2 18q3 7 12 10q15 4 16 4zM89 624q-3 2 -11 4t-8 9q0 2 3 10t2 13l-19 -19q-6 4 -17 5l5 -9q2 -3 2 -6q0 -4 -5.5 -10t-6.5 -8h20l11 -17
l2 17q3 5 11.5 7t10.5 4zM128 402q-5 5 -16 23l16 20l-30 -6q-8 12 -15 14q3 -12 1 -16q-8 -15 -25 -18q7 -4 17 -4q14 -8 8 -30l20 21zM297 174q-9 5 -9 15q0 -6 1 18l-9 -8q-3 -2 -6 -2q-4 0 -10.5 6t-9.5 7l4 -22l-18 -14h14q8 2 11 -7l4 -14l5 10q1 8 7 8q1 0 5 -1h5
q5 0 6 4zM314 103h-15q-7 2 -11 17q-5 -20 -19 -20q-3 0 -6 1l9 -6q4 -4 5 -19l5 3q10 5 23 -6l-3 19q4 4 12 11zM177 162l-20 12q-7 5 -6 17q3 20 3 19l-23 -23l-30 12q5 -9 13 -28l-19 -23q5 -2 12.5 2t10.5 4q2 0 5 -1q6 -5 11 -16.5t8 -15.5q0 6 3 18q-3 14 11 18
q11 2 21 5zM224 51q-2 3 -7 6.5t-7 6.5q-1 6 4.5 15.5t6.5 12.5l-23 -9l-21 17l2 -8q3 -5 3 -9q0 -7 -10 -13l-15 -9h17q7 -3 13 -30l12 19z" />
    <glyph glyph-name="V" unicode="V" horiz-adv-x="434" 
d="M413 583l-52 -4l-6 -7q-1 -5 -9 -46q-6 -30 -6 -48q0 -48 37 -67q-37 -11 -52 -37l-14 -36l-68 -334q-41 -8 -72 0l-67 339q-15 41 -62 63q36 22 36 66q0 21 -8 54q-11 43 -12 51q-9 7 -28 7q-24 -1 -30 1v215h185l2 -215q-7 -4 -23.5 -3.5t-23.5 -4.5v-14l66 -325l6 8
l61 326q2 9 -6 10q-14 -2 -39 3l-2 215h187v-217zM394 758l-23 3q-1 0 -11 25l-13 -25h-23q6 -7 18 -18q-3 -7 -7 -23l11 8q3 4 8 4t13.5 -6t9.5 -6q0 6 -3 23q6 6 20 15zM305 706l-19 11q-1 8 1 22l-17 -14q-2 0 -9.5 4t-10.5 3q4 -6 8 -22l-13 -12h6q6 4 9 4
q5 0 9.5 -10.5t8.5 -12.5v6q0 12 11 16q8 3 16 5zM394 652l-34 -3l-18 28l-7 -32l-30 -8l28 -16l-3 -33l23 22q9 -6 29 -14q-2 8 -13 30q5 4 12.5 13t12.5 13zM113 751l-25 3q-8 4 -9 15q-1 15 -4 18l-9 -15q-2 -13 -11 -13q-4 0 -11.5 2.5t-11.5 2.5q-3 0 -5 -2l20 -23
l-12 -32l17 13q4 2 7 2q8 0 18.5 -9.5t13.5 -11.5q-3 11 -6 33q4 6 14 9.5t14 7.5zM148 641q-7 8 -7 16q0 9 7 16q-3 0 -7 -2q-9 -6 -23 10l1 -13q-5 -4 -17 -11l16 -9q0 -8 3 -14l9 11q0 -1 18 -4zM330 409q-1 1 -5 2q-8 3 -9 13v18l-10 -9q-2 -1 -4 -1q-4 0 -11.5 3.5
t-9.5 3.5l6 -19l-17 -14h21q3 -8 11 -24q0 1 7 22q14 3 21 5zM77 630l-19 7l-6 18l-6 -10q-2 -9 -10 -8q-12 2 -14 1l14 -15q-4 -7 -8 -21l19 8l17 -13v4q-3 4 -3 9q0 11 16 20zM144 429l-3 -3q-3 -2 -7 -2q-10 0 -26 20l-3 -24l-20 -6q7 -3 20 -11q3 -10 5 -18q2 12 10 12
q3 0 9 -1.5t9 -1.5t5 1l-8 8q-3 6 2 15q4 5 7 11zM240 170q-3 -1 -8.5 1t-8.5 1q-7 7 -9 22l-11 -18h-22q7 -6 15 -20l-3 -14l17 8q1 0 7 -6.5t11 -6.5q-4 3 -4 9l1 10q7 12 15 14zM236 74h-10q-6 2 -7 10.5t-5 10.5v-5q-5 -11 -21 -11q-4 0 -6 2l1 -2q16 -8 7 -28l4 3
q13 4 26 -9l1 1l-2 10q-2 5 1.5 8t10.5 10z" />
    <glyph glyph-name="W" unicode="W" horiz-adv-x="664" 
d="M632 584q-15 -1 -45 -4q-5 -8 -8 -23q-4 -22 -5 -25q-11 -38 -11 -58q0 -23 11 -39q1 -1 32 -25q-52 -17 -72 -75q-1 -1 -22 -104l-47 -228l-4 -3l-64 2l-72 342l-8 -15l-70 -329h-65l-72 336q-19 36 -25 44q-19 25 -42 26q34 10 37 46q3 26 -6 63q-14 60 -14 61
q-10 3 -28 3q-21 0 -29 1q-3 43 -3 109v109l3 2l189 -2v-214q-19 0 -52 -10q10 -48 20 -95q18 -54 61 -69q-25 -17 -33 -38q-2 -33 7 -73q9 -33 19 -67l3 3l37 173l33 168q-8 5 -24 5l-26 -1l-3 5v213l171 2l3 -9v-207q-5 -2 -28 -2q-18 1 -25 -8l72 -339q2 -1 3 -1
q10 22 16 60q5 31 9 62q-1 26 -33 50q47 13 61 69q10 49 19 98q-5 9 -18 9q-4 0 -11.5 -1t-11.5 -1q-8 0 -14 4v214h185v-214zM620 778q-7 -1 -21 -8l-14 16v-11q-10 -13 -15 -13q0 -1 4 -1q8 -3 8 -25l14 12q6 -2 18 -8l-2 8q-7 4 -7 9q0 3 7.5 10.5t7.5 10.5zM556 718
q-9 9 -24 27q10 19 11 28l-23 -12q-8 0 -29 17l3 -30l-28 -17l27 -3q7 -6 12 -36l18 30zM612 664l-22 3l-6 22l-13 -22l-20 3l17 -17q-3 -8 -9 -22l22 11q5 -5 17 -13l-3 22q7 8 17 13zM524 640l-19 2q-3 6 -11 20l-3 -12q-7 -12 -25 -10l16 -16l-6 -20l20 13l17 -11
q0 3 -1 4q-9 19 12 30zM391 697h-3q-14 5 -13 31l-14 -13q-7 3 -20 8l7 -14q3 -7 -5.5 -13.5t-9.5 -9.5l22 3l12 -19v8q10 17 24 19zM328 767l-28 -5l-14 21l-2 -22q-3 -6 -14 -8.5t-12 -4.5l21 -12v-22l19 17q9 -3 25 -9l-12 22zM342 648q-8 4 -26 5q-8 3 -9.5 17.5
t-3.5 18.5l-19 -30l-30 3q5 -7 18 -19q2 -7 -3 -16q-5 -12 -5 -17l20 10q8 1 17 -8q14 -13 16 -14l-6 22q1 10 13 17q9 5 18 11zM540 394l-11 9q-1 5 9 27l-23 -6l-16 15l2 -15q-3 -12 -18 -19l11 -2q8 -1 9.5 -12t3.5 -13q4 6 13 17q11 -4 20 -1zM174 772q-5 0 -15 1
q-6 2 -7.5 9t-3.5 9l-2 -7q-2 -7 -9.5 -8.5t-13.5 -2.5q5 -5 14 -15q-6 -6 -5 -14l6 6q6 3 12 0l12 -5l-2 14q8 12 14 13zM104 736q-3 4 -8.5 5t-10.5 3q-10 2 -11 15q-2 20 -2 21q-5 -4 -10 -13.5t-10 -13.5q-6 0 -16.5 3t-16.5 3l19 -22q1 -2 1 -5q0 -4 -6.5 -12.5
t-3.5 -13.5l10 5q7 4 11 4q7 0 15 -10.5t14 -12.5l-3 30zM170 662q-4 0 -8.5 -2.5t-6.5 -2.5q-6 0 -12 9l-8 12l-2 -19q-1 -6 -8 -7q-10 -2 -12 -4l17 -11v-22q6 6 19 17q7 -6 17 -4l-3 3q-6 4 -6 9q0 4 6 11t7 11zM370 419l-28 17l2 31l-22 -21q-30 10 -30 11l11 -29
l-20 -22q6 -1 17 4q4 1 7 1q9 0 15 -13q8 -17 11 -20l3 30q4 7 14.5 8.5t19.5 2.5zM85 634h-22q-1 0 -11 19l-3 -14q-4 -5 -14 -6.5t-11 -1.5q10 -4 12 -13.5t3 -18.5l15 11q5 -4 18 -9q-4 21 -4 16q0 4 8 9.5t9 7.5zM455 152l-11 17q0 5 4.5 11.5t5.5 9.5l-21 -5l-14 19
l2 -19q-3 -5 -12.5 -8t-13.5 -6q8 -2 21 -8q0 -9 3 -20q4 5 14 16zM151 425h-24l-9 21q0 -1 -2 -16q-1 -10 -7.5 -10.5t-12.5 -6.5h5q7 -3 9 -13v-17l11 11q5 3 13 0q9 -4 10 -3l-4 9q-2 3 -2 6q0 4 6 10.5t7 8.5zM450 69q-16 15 -1 31q-2 1 -6.5 -1.5t-8.5 -2.5
q-10 0 -17 6q2 -3 2 -6q0 -6 -16 -19l16 -5l5 -17q0 3 2 7.5t24 6.5zM242 163l-17 13l4 23q-6 -3 -19 -11l-20 11q3 -5 5.5 -10t0.5 -10q-6 -9 -15 -16l17 -1q5 -3 9 -11l5 -10l3 10q0 9 9 10.5t18 1.5zM243 78h-4q-11 3 -14 24q-4 -18 -29 -8l5 -8q5 -10 -8 -25l19 5
l11 -11l2 8q4 8 18 15z" />
    <glyph glyph-name="X" unicode="X" horiz-adv-x="429" 
d="M409 3l-180 -3l-3 5v212q5 6 16 4q12 -2 17 0v8q-24 46 -52 83h-3q-17 -29 -53 -87q2 -3 25 -5q6 -1 9 -5l4 -210l-4 -3l-180 -2l-2 215q22 6 47 5q24 40 75 120q5 14 -10 37l-15 10q1 2 14 8t15 15q8 18 -3 36q-25 44 -82 129h-25q-15 -1 -19 8l2 212l14 3h165
q5 -42 5 -110q0 -110 -1 -110q-6 -3 -19.5 -3t-18.5 -1v-6q16 -33 57 -92q16 17 33 47q14 24 28 49q-6 5 -21.5 4.5t-20.5 8.5v212q34 3 88 3h90l3 -3l3 -215q0 -1 -29 -2q-17 -1 -24 -12q-10 -22 -36 -65t-36 -67q-2 -21 25 -37q4 0 5 -1l-18 -13q-11 -8 -13 -17l4 -26
q25 -40 75 -119l45 -3l4 -3v-214zM369 753q-10 -1 -29 -3l-17 28l-3 -19q1 -14 -12 -15.5t-26 -3.5l30 -20l-3 -14q-1 -9 1 -14q7 8 22 21q8 -5 30 -13l-11 30zM385 627q-29 11 -25 31l-9 -13q-6 -2 -13 -1l-14 3l10 -12q2 -3 2 -6q0 -4 -5.5 -10t-6.5 -8q7 2 22 5
q1 -1 14 -17q-1 5 2 15q10 13 23 13zM296 658l-11 -3q-3 -3 -7 -3t-9 7l-7 11q4 -30 -22 -31q13 3 17 -11q2 -9 5 -18l14 15l17 -3l-8 17zM165 730l-14 -2q-6 6 -12 19l-2 -5q-6 -19 -23 -17q2 -4 15 -11q1 -6 -1 -17l14 9q3 0 8.5 -2t8.5 -2l-6 15zM84 744l-3 3q-9 2 -9 8
q0 3 3.5 11t2.5 12q-3 -3 -9.5 -6.5t-9.5 -5.5l-20 14l3 -8q4 -5 4 -9t-18 -21q4 2 14 2q13 -10 16 -25l11 21q7 0 9 -1q3 0 6 5zM158 617q-8 2 -32 11v31l-21 -23l-30 11l17 -28q-8 -10 -19 -27l32 7q6 -10 17 -30l3 30q3 8 16 11t17 7zM257 398l-17 4q-14 0 -14 14
q-1 21 -3 24l-9 -21q-5 -6 -13 -6q-5 0 -15 3t-14 3l17 -21q1 -4 1 -7q0 -6 -7 -15.5t-8 -13.5l18 7q5 5 10 5t13 -9.5t13 -9.5q1 4 -1 25q5 6 29 18zM398 173h-7q-8 3 -12 25l-13 -13q-21 2 -17 4l5 -5q9 -11 -3 -25q4 3 8 3q10 0 21 -14q0 7 2 19q6 1 16 6zM318 161
q-2 4 -11 8.5t-12 8.5q1 9 4 26l-23 -17q-13 11 -22 11l9 -22l-18 -18h25l12 -26l5 22q4 7 14 7h17zM390 51l-14 18q-3 7 5.5 19t8.5 17l-30 -8l-18 25l-2 -25q-4 -8 -15 -11q-15 -4 -18 -6q11 -8 24 -10q7 -4 6 -18.5t1 -17.5l21 24q5 1 15.5 -4t15.5 -3zM296 51h-9
q-7 4 -10 13q-4 15 -4 16l-13 -16l-23 5q1 -1 11 -14q6 -12 -6 -24l4 3q4 2 7 2q6 0 26 -19l-1 24zM147 142l-22 22q5 10 12 31l-29 -13l-25 21l3 -33l-27 -17l27 -3q7 -4 9 -16q1 -15 3 -19l17 30zM167 55h-16q-4 2 -6 7.5t-3 10.5l-10 -15q-2 0 -17 -3l14 -14
q-8 -10 -3 -14q3 7 9 7q5 0 11.5 -4t7.5 -3q-2 4 -2 7q0 9 15 21zM73 92q-6 1 -17 -1q-5 3 -7.5 10t-4.5 13l-2 -8q-1 -8 -10 -14t-15 -5q12 -3 13 -14q-1 5 -2 -20l10 9q14 6 27 -7q0 6 -6 17q0 6 5 11z" />
    <glyph glyph-name="Y" unicode="Y" horiz-adv-x="433" 
d="M412 792l-3 -216l-48 -3l-34 -58q-19 -35 -19 -63q0 -12 3 -22.5t17 -20.5q-9 -3 -28 -7q-45 -20 -53 -76q-1 -51 -3 -102q9 -6 26 -4q22 2 27 1l3 -5l-3 -213q-2 0 -185 -3l-3 3v217q19 -2 54 6q0 12 1.5 38t1.5 38q0 69 -43 92l-36 14q8 1 23 23v31q-17 39 -57 116
q-9 3 -26 3h-27l3 216q37 4 95 3l95 -3l-3 -219q-6 -4 -18 -4q-15 0 -20 -1v-6q17 -37 53 -108h3q21 36 55 112q-8 4 -37 5v218q37 2 93 1q91 -3 93 -3zM359 769l-20 -10l-17 16l2 -20q-1 -1 -21 -13l18 -3q5 -3 5 -11q2 -11 2 -12l13 17l17 -3q1 4 -2 7l-6 5q-1 6 4 14.5
t5 12.5zM389 638q-11 3 -11 27l-6 -7q-7 -4 -24 7l4 -5q6 -16 -8 -28q4 4 8 4q5 0 18 -18q1 4 3.5 10t15.5 10zM279 744q-7 4 -8 26l-5 -3q-14 -5 -22 5l3 -9q-1 -9 -14 -21h16l8 -18q5 24 22 20zM328 668l-25 1q-10 1 -12 14q-4 17 -6 20l-16 -31q-21 4 -28 2l20 -22
l-9 -31q9 5 28 16l26 -21l-4 33q10 6 26 19zM121 739q-8 4 -26 8q-8 5 -6 18q2 14 0 19l-11 -15q-4 -13 -12 -13q-5 0 -15 5.5t-14 5.5q5 -13 16 -25q2 -6 -6 -15.5t-8 -15.5q5 2 14 5q6 5 10 5q6 0 14 -12.5t13 -14.5v28q4 6 16.5 10.5t14.5 6.5zM170 651q-6 0 -22 6
q-1 8 -6 20l-11 -19q-8 0 -21 2l10 -11q3 -3 3 -7q0 -3 -4 -9.5t-4 -9.5l20 7l17 -12q0 4 -2 6.5t-2 6.5q0 6 10 12t12 8zM297 403l-12 20q0 3 4.5 9t3.5 9l-18 -7l-15 19v-20q-9 -4 -19 -11q8 -4 11 -3q7 -3 8 -12v-16l17 18q3 0 9.5 -3.5t10.5 -2.5zM72 612l-13 20l9 15
q-6 1 -17 -1q-5 6 -15 19l1 -18q0 -6 -9.5 -9t-10.5 -4l17 -10q-2 -7 3 -22l2 5q4 11 13 11q2 0 20 -6zM179 411l-2 1q-7 6 -7 13q0 3 7 22l-18 -8l-17 16l3 -19l-24 -13q8 -2 22 -9l3 -20l11 18q4 2 10 0q6 -3 8 -3t4 2zM280 178h-17l-9 15v-4q-5 -12 -25 -15q14 -2 12 -26
q3 8 10 8q4 0 10.5 -3.5t7.5 -2.5q-2 3 -2 7q0 11 13 21zM205 165l-28 8q-5 5 -5 15l1 18l-25 -24q-24 7 -27 7q5 -6 18 -25l-18 -28q15 2 28 9q7 -2 13 -13t12 -14l3 35q11 2 28 12zM274 64l-13 14q2 8 7 23l-16 -7q-4 -2 -9.5 2.5t-10.5 7.5l3 -18q-2 -5 -9.5 -8t-7.5 -8
h12q7 -2 9.5 -13t3.5 -12l9 19h22zM187 47l-17 14l3 19l-11 -8q-3 -2 -5 -2q-4 0 -10 6t-8 7l4 -22q-6 -5 -19 -16l24 -1l9 -19l2 8q0 10 9.5 11.5t18.5 2.5z" />
    <glyph glyph-name="Z" unicode="Z" horiz-adv-x="300" 
d="M285 316l-3 -314l-276 -2l-3 3v204l75 152q2 5 2 10q0 19 -27 39q51 11 86 68q26 50 51 101l-3 3q-10 -1 -30 0q-23 2 -30 2q-38 0 -49 -29l-2 -73h-73l-3 3v312l9 3l161 2l111 -3q0 -3 3 -206l-66 -131q-4 -29 5 -39q5 -4 15 -13q-51 -13 -87 -75l-54 -108l4 -5l88 3
q20 13 19 45q0 48 1 53l73 2zM254 740q-8 6 -20 5q-3 4 -4 12t-4 11l-12 -18l-19 1l9 -12q3 -5 0 -11.5t-6 -12.5q22 14 36 -6v20q0 1 20 11zM264 603l-18 14q-2 7 3 16t5 12q-5 -3 -25 -12q-13 10 -20 15l5 -26l-19 -16h20q5 -3 7 -12t4 -11l3 8q6 13 35 12zM181 662
q-3 3 -6 8q-8 14 1 24l-1 -2q-18 -6 -27 6l3 -7q-2 -8 -18 -18h4q11 0 16 -20l9 13zM109 736l-34 9q-1 11 -6 31l-13 -28q-11 2 -34 2q6 -6 19 -17q1 -9 -5 -18q-7 -13 -8 -17l22 10q8 1 16.5 -7t16.5 -15l-3 33q1 1 29 17zM95 616l-23 14q2 13 1 25l-15 -17q-7 -3 -13 2
q-9 5 -12 5l11 -23l-16 -19q5 0 14 2q3 1 6 1q6 0 10 -9q6 -12 9 -14q-1 9 2 25q3 5 13 5t13 3zM178 402l-17 13q1 6 1 20q-4 -4 -12 -11q-14 -7 -24 1v-3q8 -4 8 -9q0 -4 -6.5 -12t-5.5 -11l20 3l14 -20v18q3 6 10 8t12 3zM257 184l-11 14l8 20q-3 1 -7.5 -2t-7.5 -3
q-5 0 -12 7.5t-9 8.5v-20q-2 -4 -10.5 -5.5t-10.5 -5.5q-1 0 12 -3q16 -10 14 -25l12 17q23 -3 22 -3zM175 153h-25q-3 2 -13 25l-9 -25l-25 -3l22 -18q-7 -11 -5 -23l11 9q4 4 8 4t11 -5.5t9 -5.5l-6 25zM260 45l-23 25q11 29 11 30l-20 -13q-4 -1 -7 -1t-26 18q0 1 6 -32
q-10 -6 -25 -19l27 -3q5 -4 6.5 -16.5t4.5 -14.5l15 29zM69 190h-8q-12 3 -17 16q-2 -10 -8 -17q-5 0 -14 -2q10 -2 11 -29l8 7q4 5 10 2q5 -2 10 -5q1 3 -1.5 6t-2.5 6q0 5 12 16zM91 28l-18 19q1 4 5.5 12t4.5 11l-24 -9q-6 6 -18 17l3 -27l-22 -13l19 -2q6 -2 7 -10
t2 -15q4 6 14 19z" />
    <glyph glyph-name="a" unicode="a" horiz-adv-x="467" 
d="M445 3l-96 -2q-57 -2 -95 1v214q7 4 26.5 3.5t27.5 4.5q-5 32 -20 95l-6 5h-118l-8 -12l-20 -88l5 -5h48l4 -6l-2 -210q-35 -4 -93 -2q-71 2 -95 1l-3 6v208q1 0 53 2q7 5 8.5 15.5t2.5 20.5q21 76 21 95q0 40 -29 63q24 7 43 26q19 24 28 66l14 72q-5 5 -18 5t-17 1
l-3 213l7 5h228v-218q-5 -2 -18 0q-11 1 -16 -6q11 -48 23 -95q19 -53 63 -72q-20 -9 -28 -33q-2 -33 8 -77l18 -74q6 -7 16 -7q5 0 13 1.5t12 1.5q10 0 16 -8v-210zM319 723q-8 7 -26 19l6 30l-25 -19l-28 17l6 -16q6 -5 6 -10q0 -6 -11.5 -14t-13.5 -13l30 1
q5 -4 8.5 -15.5t5.5 -15.5q4 10 11 31zM188 728q-5 3 -14 11q-2 4 1 9q3 6 0 8l-4 -3q-17 -5 -24 5q2 -4 2 -8q0 -6 -4 -12.5t-6 -6.5h3q14 0 19 -19l2 5q6 13 25 11zM205 640l-19 2q-8 2 -8 15t-1 16l-17 -23l-24 3l17 -19q-1 -4 -6 -12t-5 -12l24 10l17 -19v25q8 4 22 14z
M263 409q-5 25 -19.5 74.5t-19.5 75.5q-16 -49 -36 -150h75zM343 360l-19 19q1 9 6 25q-7 -5 -22 -14l-22 14l5 -17q2 -7 -5 -13t-14 -11h18q8 0 11.5 -9t6.5 -17q2 8 10 23q3 3 11 1q9 -2 14 -1zM413 188l-19 -3l-14 17l-8 -20q-6 -2 -18 -5q4 0 10 -4.5t8 -4.5l-3 -24
l19 14q5 1 12 -3.5t8 -4.5l-7 18q-2 4 4.5 10.5t7.5 9.5zM153 377l-6 8q0 17 6 22q-4 2 -9 -1.5t-8 -3.5q-3 4 -9 11l-2 -12l-19 -11l10 -2q8 0 8 -8q0 -12 1 -14l13 14zM324 142q-2 0 -9 3t-10 21v-3q-5 -13 -26 -11l9 -8q1 -4 -2.5 -10.5t-3.5 -9.5q2 -1 6 3q12 3 24 -11
q-9 23 12 26zM424 61l-31 11l-5 30l-19 -27l-31 7q5 -5 17 -21q2 -3 2 -6q0 -5 -5 -14.5t-5 -13.5l27 11l23 -21q1 4 -2 11t-3 11q0 9 13 14q9 4 19 8zM158 139l-28 16l5 33l-25 -25l-29 14l15 -30l-22 -23l31 3q7 -9 17 -27l2 27q4 6 18 7t16 5zM169 45q-4 4 -11.5 4.5
t-7.5 9t-1 10.5q-5 -19 -28 -11l7 -9q4 -4 1 -12q-3 -7 -2 -7q3 2 7 2q8 0 19 -13v19zM74 61h-11q-17 6 -15 17l-1 -9q-2 -6 -10 -10q-4 -1 -9 -3l13 -7q-1 -7 -4 -21l11 11q5 3 12 -1.5t9 -4.5q-6 9 -5 20q3 4 10 8z" />
    <glyph glyph-name="b" unicode="b" horiz-adv-x="382" 
d="M358 116q-21 -80 -83 -105q-40 -11 -96 -11q-23 0 -69.5 2.5t-69.5 2.5q-21 0 -40 -2v213q7 3 29 3q19 -1 27 6q-1 17 0 45q2 36 2 45q0 38 -11 62q-13 18 -39 31q44 15 50 69q1 48 1 96q-7 10 -24 8q-21 -2 -27 0v219l197 -2q90 0 126 -78q9 -51 9 -125q-1 -64 -3 -128
q-8 -22 -14 -31q-9 -17 -23 -28q17 -10 44 -38q21 -36 21 -91q0 -22 -4.5 -66.5t-4.5 -66.5q0 -16 2 -30zM239 740l-30 -6l-15 27l-6 -27q-4 -4 -16.5 -4.5t-13.5 -4.5l25 -14l-3 -33q7 6 22 20l31 -12l-13 31q8 7 19 23zM294 645l-8.5 1t-9 8.5t-1.5 14.5l-13 -16l-17 5
l8 -10q5 -9 -1 -20l1 2q10 5 24 -10v14q5 4 17 11zM102 723q-6 6 -18 16l3 19l-9 -10q-2 0 -25 7l3 -21q-6 -3 -15 -14h22l10 -18q0 12 7 17q11 6 22 4zM124 592q-4 4 -8 13q-6 13 8 26l-21 -4q-4 6 -14 18l-2 -20q-2 -4 -10.5 -5.5t-9.5 -2.5l17 -11l3 -20l16 14zM256 548
q-10 29 -48 29q-31 0 -63 -1l-3 -3v-134q31 -1 92 3q24 12 24 44q0 7 -1.5 22.5t-1.5 23.5q0 9 1 16zM245 409l-1 -1q-3 -1 -6 -1q-11 0 -21 15v-10q-1 -6 -18 -14h4q14 -5 11 -25q8 17 30 5l-7 11q-7 13 8 20zM278 244q0 10 2 30.5t2 29.5q0 22 -9 37.5t-20 13.5l-5 4h-106
q-3 -26 -3 -68v-69q7 1 16 1q11 0 34 -2.5t34 -2.5q38 0 55 26zM120 411l-20 1q-1 7 -9 16q-1 -10 -13 -11q-19 -1 -20 -1l15 -16l-6 -22l19 11l19 -12q-3 4 -5 15q1 6 9.5 11t10.5 8zM239 119l-12 25l10 18l-23 -6l-19 21v-27l-20 -11l22 -11v-23q2 3 8.5 9.5t8.5 10.5
q9 -1 25 -6zM269 69q-6 -1 -16 1q-4 3 -11 14l-1 -7q-1 -5 -19 -11q14 -2 9 -28q3 3 10 7q10 6 20 -4l-3 4q-5 10 11 24zM119 141q-10 3 -28 14q-3 6 -1 16l2 17l-25 -24l-28 13l14 -32q-8 -6 -19 -21l30 4l19 -30l3 32q4 6 16.5 7t16.5 4zM145 56l-14 2q-5 2 -6 9.5t-1 9.5
l-10 -16l-17 2l3 -4q14 -13 2 -28q13 7 17 7q8 0 12 -8l-1 12q5 5 15 14z" />
    <glyph glyph-name="c" unicode="c" horiz-adv-x="344" 
d="M327 485q0 -3 -1 -9h-76l-2 58q-4 33 -26 47q-17 8 -37 8q-24 0 -41 -11q-24 -21 -24 -66q0 -30 10 -65q10 -26 36 -36q-24 -13 -39 -36q-11 -49 -4 -127q13 -32 41 -36q62 0 76 22q11 16 10 47v51h76l-2 -219q-5 -36 -32.5 -67.5t-61.5 -40.5q-21 -6 -43 -6
q-47 0 -80 24q-64 47 -64 160q0 19 1.5 57.5t1.5 57.5q0 40 -6 68q-12 33 -40 48q36 13 45 53l3 237q1 29 21 56t49 35q17 5 34 5q56 0 93 -47q5 14 3 42q14 4 39 3q30 -2 40 -1v-312zM313 713h-9q-9 3 -10 12t-3 18l-7 -11q-4 -6 -9 -6q-3 0 -10 3t-11 3l13 -16l-10 -21
l21 3q0 -1 13 -17v15q1 2 22 17zM240 645q-4 -2 -14 -2q-4 3 -6.5 10t-4.5 9v-5q-5 -13 -24 -11q4 -3 9 -10q4 -7 -3 -17l8 4q12 6 21 -8l-1 18q6 3 15 12zM166 679q-2 6 -11 14.5t-11 10.5q1 3 5.5 13t3.5 16q-6 -2 -18 -12q-9 -2 -16.5 6.5t-14.5 15.5l5 -33
q-9 -5 -27 -17l31 -8q0 -5 3 -14t3 -14q4 7 10 22q4 6 11 6q4 0 13 -3t13 -3zM109 408l-17 8l-2 21l-13 -15q-3 0 -10.5 2.5t-12.5 1.5l8 -14q1 -2 1 -4q0 -4 -5.5 -9.5t-6.5 -9.5l13 5q2 1 5 1q5 0 9.5 -6.5t8.5 -11.5l1 20zM312 171l-28 15q0 12 1 29l-21 -20
q-10 3 -28 11l14 -29l-22 -24q4 0 15 4q6 3 10 3q7 0 13 -11q6 -14 10 -16l5 27q4 5 16.5 7.5t14.5 3.5zM226 61l-11 12q5 6 5 22l-6 -5q-13 -3 -28 11l3 -19q-10 -9 -21 -12q4 -1 13 -2q14 -5 14 -26l14 20q7 -2 17 -1zM150 146l-23 9v25l-18 -22q-12 7 -24 5l16 -19
l-14 -23l23 6l17 -17q-1 4 1 11.5t1 11.5q9 5 21 13z" />
    <glyph glyph-name="d" unicode="d" horiz-adv-x="414" 
d="M394 404q-41 -23 -46 -67q-3 -22 -3 -53q0 -14 1 -43v-43q0 -74 -16 -115q-22 -55 -81 -75l-47 -8l-199 2l-3 4v212q4 1 31 1q21 -1 27 10q1 49 1 99q-2 60 -47 78q42 22 48 54q3 19 1 57q-2 39 0 58q-19 11 -55 6l2 219l227 -3q37 -7 69 -35t39 -64q8 -41 6 -112
q-3 -83 0 -112q9 -48 45 -70zM285 731l-28 -2l-11 22l-8 -26l-25 -3q2 -1 12 -8q10 -2 10 -9q0 -3 -2.5 -9t-2.5 -9t2 -4l15 15q5 1 12 -3.5t12 -4.5q0 1 -3 8q-2 3 -2 6q0 7 19 27zM307 596q-15 13 -9 24q-5 2 -6.5 -2.5t-3.5 -5.5q-5 -2 -11 2.5t-9 3.5l3 -4q5 -18 -6 -25
h15q4 -7 10 -13q-1 15 17 20zM117 722l-7 4q-18 -1 -18 15q-1 27 -1 28l-20 -21l-32 13l14 -32l-22 -21q11 0 32 3q5 -10 17 -28q6 11 5 25q3 7 16 8.5t16 5.5zM172 654h-6q-3 -1 -5 -1q-8 0 -12 17l-2 -5q0 -9 -23 -14l14 -11l-3 -19q3 4 11 10q9 -1 17 -3q-7 15 9 26z
M329 454q-22 -10 -28 8v-10q-3 -7 -19 -12l5 -2q16 -12 12 -21q3 6 11 8q8 3 14 -1l-3 5q-2 3 -2 6q0 4 4.5 10.5t5.5 8.5zM330 360q-4 1 -12 2q-4 2 -5.5 9t-4.5 9v-4q-2 -8 -10 -8.5t-16 -1.5l1 -1q10 -3 10 -11q0 -3 -2.5 -9t-2.5 -7l3 3q15 6 25 -6q1 5 -1 14
q1 4 7.5 5.5t7.5 5.5zM263 265q0 6 1 25q1 16 1 25q0 69 -41 89l25 20q19 26 19 67q0 26 -8 49q-11 31 -49 34q-33 1 -65 2q-2 -104 -2 -106q5 -44 46 -66q-11 -4 -30 -19q-21 -28 -21 -83q0 -12 1 -39t1 -41l42 -2q25 -2 41 2q30 9 39 43zM133 404q-17 10 -22 19l6 22
l-20 -18q-5 0 -12.5 6.5t-10.5 4.5l7 -21l-17 -18l22 2q2 -2 13 -25l11 25q5 0 23 3zM308 174q-4 7 -25 8q-3 10 -11 31l-15 -28q-11 0 -33 3l23 -25l-12 -28l25 12q6 1 14 -7q13 -11 14 -12q0 6 -3 14.5t-3 14.5q3 6 11 9.5t15 7.5zM210 50q-11 12 0 35q-8 -4 -11 -4
q-6 2 -11 8.5t-9 12.5l-2 -16q-1 -7 -10.5 -8.5t-9.5 -3.5l15 -8l2 -24l14 14q21 -6 22 -6zM117 168l-20 4q-5 3 -7 12q-2 14 -2 15l-7 -13q-2 -8 -12 -8q-4 0 -11 2t-8 2q5 -6 14 -17q1 -6 -4 -14t-5 -12l23 8l19 -16q1 4 -2 9.5t-1 9.5q3 7 10 11q13 6 13 7zM77 55h-5
q-8 4 -11 22l-5 -8q-4 -3 -11 -1l-12 3q2 -6 8 -18q-4 -4 -11 -12l19 3q1 -6 11 -13v7q-2 7 7 11t10 6z" />
    <glyph glyph-name="e" unicode="e" horiz-adv-x="368" 
d="M351 798l-5 -328l-73 2q-3 8 -1 58q1 35 -23 46h-101l-5 -3v-131l6 -5l102 -3q4 -46 -2 -68l-100 -2l-6 -6v-136q60 -11 101 -3q26 13 26 54v15q-1 11 -1 16q0 17 4 27h73v-328l-5 -3l-337 2l-3 207q-2 5 1.5 7t7.5 3h45l5 4q-1 16 0 44q2 36 2 46q0 68 -41 92
q39 18 42 75v93l-6 5l-50 2l-3 4v213l6 3zM260 708l-17 23l12 27q-9 -3 -28 -11l-22 23v-31q-9 -5 -28 -16l27 -4q6 -4 7.5 -17.5t3.5 -17.5q6 15 18 28q18 -6 27 -4zM332 603l-20 16q3 8 6 26l-19 -15q-6 -2 -13.5 5.5t-12.5 6.5q0 -6 7 -23l-20 -19h24q4 -3 6.5 -12
t3.5 -12l11 24zM210 622q-8 2 -10 11t1 14l-16 -3q-3 4 -11 9q5 -21 -12 -28l11 2q5 -2 7 -11t4 -11l1 6q2 5 25 11zM76 765q-3 1 -6 -1t-6 -2t-16 11v-12q-3 -4 -10 -5.5t-9 -4.5l17 -9v-17l11 14q4 2 9.5 -1t7.5 -1l-6 11q-2 4 3 9.5t5 7.5zM106 642l-26 11v23l-17 -20
q-8 1 -25 3q6 -7 16 -22l-13 -20q6 1 24 8q6 -7 17 -20l2 26zM321 206q-15 5 -9 28l-10 -4q-8 -6 -17 6l2 -16q-12 -9 -10 -14l8 2q4 -7 11 -21q1 3 2 8q6 14 23 11zM132 409l-23 -1l-14 20l-2 -19q-6 -6 -28 -11l22 -14q0 -8 -3 -25l20 18l23 -10l-11 24zM244 123l-3 4
q-8 5 -8 12q0 3 8 22q-2 -1 -6 -5q-17 -6 -30 11l2 -19q-8 -3 -23 -12l17 -3q8 -2 8 -11q-1 -13 1 -16l14 19zM304 56l-2 -1q-3 -2 -7 -2q-9 0 -19 14v-9q2 -9 -8 -11q-5 -2 -11 -3l13 -6q7 -12 4 -18q3 6 13 9t15 -1v2q-4 0 -4 1q-6 15 6 25zM120 158q-2 1 -2 4q-6 4 -6 8
q0 3 3.5 10t2.5 9l-2 -2q-3 -1 -7 -1q-10 0 -21 12l3 -15q-4 -6 -17 -10q22 -7 19 -23l3 3q4 15 24 5zM151 69l-30 18l2 29l-17 -16q-4 -1 -7 -1q-5 0 -15 6t-13 7q4 -10 14 -29l-23 -25q10 0 31 3q5 -6 16 -28q1 8 4 25q5 8 16 9z" />
    <glyph glyph-name="f" unicode="f" horiz-adv-x="361" 
d="M343 477q-13 -4 -36 -3q-28 2 -36 1l-4 8q-1 6 -1 14q0 7 1 21.5t1 21.5q0 30 -22 42l-105 -3l-5 -5l2 -133q57 -6 113 -5l2 -34q2 -21 0 -35l-8 -3l-105 -3q-2 -48 3 -141q10 -5 28 -5q33 0 31 0v-210l-7 -5l-189 2l-3 205q4 9 19 10h23q11 1 16 7q-1 15 1 40q1 32 1 42
q0 75 -49 96q46 20 46 89q0 13 -2 44q-2 28 -2 42q-8 6 -26 5q-21 0 -27 2l-3 214l36 2h304l3 -3v-320zM317 725l-5 4q-6 3 -6 7q0 2 3 8.5t2 10.5l-5 -5q-14 -6 -24 5l2 -8q-4 -9 -17 -19h11q11 -6 12 -17q0 2 2 7q9 8 25 7zM218 726l-22 11l-3 27l-19 -19q-8 3 -22 6
l8 -14q4 -4 4 -7q0 -4 -6.5 -11t-6.5 -11q4 -2 10 2t10 4q6 0 10.5 -7t8.5 -14l1 13q-2 11 8 14.5t19 5.5zM323 634l-23 3q-7 4 -10 15.5t-8 15.5l-14 -22l-30 4l19 -21q-2 -11 -11 -31l28 11l22 -21q2 5 -1.5 13t-2.5 12q3 9 14 13zM102 701l-5 7q2 3 2 6q0 8 -11.5 18
t-13.5 15l9 28l-28 -16l-21 19q0 -7 -3 -6l3 -16q2 -3 2 -6q0 -6 -12 -12.5t-15 -11.5q19 1 33 -4q2 -10 8 -29l10 22q3 8 13 6q14 -2 16 -1q6 -1 6.5 -9.5t6.5 -9.5zM124 604q-8 3 -8 9q0 3 4.5 10.5t3.5 10.5q-5 -4 -13 -3q-7 3 -15 14v-17q-5 -4 -16 -8q2 -2 3 -2
q7 -3 11 -11t2 -12l6 7q7 5 22 2zM129 416h-22q-3 2 -13 26l-8 -22q-4 -5 -13 -5l-15 1l20 -19q-4 -8 -3 -22l17 14q5 -4 21 -12v11q-3 3 -3 6q0 5 8.5 12t10.5 10zM182 165h-20l-11 17l-2 -9q2 -12 -10.5 -12t-13.5 -2l5 -5q11 -3 9 -13q-1 -14 1 -17l9 9q10 5 27 -3l-7 8
q-1 3 -1 6q0 5 6.5 11.5t7.5 9.5zM85 148l-11 11q-2 2 -2 5q0 2 3.5 8.5t2.5 11.5q-3 -1 -9 -5t-9 -4t-9 6t-9 7l3 -20q-7 -4 -18 -14h14q6 -2 8 -12.5t4 -11.5l13 18h19zM169 91l-31 -3q-5 9 -16 28l-4 -27q-5 -6 -18 -7t-15 -4l25 -17q2 -5 -2 -15q-3 -9 0 -15l22 21
l28 -13l-11 28q10 7 22 24z" />
    <glyph glyph-name="g" unicode="g" horiz-adv-x="397" 
d="M378 361l-53 -5l-4 -9l-3 -345q-16 -3 -38 -1l-38 2q1 17 -5 48q-38 -47 -92 -47q-11 0 -23 2q-63 14 -83 102q-3 38 -1 97q3 83 3 95q0 36 -4 64q-11 36 -37 48q39 20 45 49l3 194q7 55 8 61q8 34 28 54q31 30 70 30q56 0 94 -50q5 7 5 20v23l77 -2l-3 -314
q-15 -4 -39 -3l-39 3v58q-1 35 -27 44q-61 7 -84 -4q-19 -19 -19 -60q0 -9 1 -27t1 -27q6 -33 40 -52q-46 -23 -46 -102v-28q1 -20 1 -28q7 -24 36 -33h17q12 -1 19 -1q41 0 50 28q8 20 7 54q0 60 0 57l-5 5q-18 -1 -51 6l2 63l3 4l184 -4v-69zM296 700l-19 9q2 8 -3 20
l-14 -17l-17 7q0 -5 10 -14q0 -6 -5.5 -12.5t-5.5 -11.5l21 5q4 -6 14 -15l2 21zM308 604q-3 -1 -6 -1q-13 0 -18 17q2 -10 -9 -14q-6 -3 -13 -5l12 -12q-4 -12 -3 -16l13 11q-1 0 15 -8q-7 18 9 28zM177 695q-10 7 -24 25l11 28l-26 -16l-28 19l6 -31l-26 -17l29 -3
q5 -5 6.5 -16t3.5 -15l17 28zM211 626l-16 17l9 20q-4 -1 -12 -6q-3 -4 -7 -4q-5 0 -18 13l3 -19q-6 -6 -20 -15l16 -2q7 0 8.5 -9.5t3.5 -11.5v3q4 15 33 14zM104 602h-6q-3 -1 -5 -1q-5 0 -9 6t-7 11l-1 -9q-4 -12 -17 -13l12 -11q0 -5 -3 -15h5q2 3 8 9q4 2 10 -2t8 -4
l-3 3q-6 13 8 26zM115 403l-22 17l6 25l-15 -15q-7 -2 -16 6t-12 9l8 -27l-19 -17h22q5 -2 6.5 -11.5t5.5 -9.5l8 19zM294 115q-16 5 -23 4q-8 3 -8 16q0 17 -1 20l-19 -25q-27 5 -28 5l14 -17q2 -3 2 -6q0 -6 -7.5 -15t-6.5 -12q6 -1 14 4t12 5q7 -1 13 -11.5t12 -12.5
l-2 28q3 7 15 10.5t13 6.5zM203 187h-8q-5 3 -8 12t-4 10l-10 -12q-6 1 -15 1q7 -3 7 -9q0 -4 -2.5 -10t-1.5 -7q4 2 7 2q5 0 21 -15q-9 23 14 28zM126 166l-13 -2q-7 3 -10 11l-7 14q-1 -12 -9 -22l-22 -3l19 -14l-5 -20l14 11q6 1 13.5 -4.5t9.5 -6.5v3q-6 5 -6 11
q0 8 16 22zM173 68l-7 6q-3 7 6 28l-23 -6l-14 16v-24q-5 -10 -16 -10l19 -8l6 -20q3 6 11 17q9 -3 18 1z" />
    <glyph glyph-name="h" unicode="h" horiz-adv-x="430" 
d="M410 578q-1 -1 -62 -4l-3 -3q0 -46 1 -93q4 -54 42 -73q-16 -5 -30 -23t-15 -37q-2 -12 -2 -26q0 -11 2 -34t2 -34q0 -14 -2 -26q8 -5 27 -4t28 -5v-214q-64 -4 -187 3v212l3 5h27q16 -1 23 8v130l-6 3h-120l-4 -4v-132q8 -4 26 -3.5t25 -1.5l-2 -216h-183v216q9 3 24 3
h26l4 5q-1 15 0 42q3 35 3 45q0 69 -51 88q42 19 48 52q5 21 3 59q-2 43 -1 58q-9 5 -25 4q-19 -1 -26 1v219l4 2l182 -3v-218l-51 -3q-4 -25 -3 -66v-67q24 -8 69 -7l57 2l3 5v130q-7 3 -25.5 2.5t-26.5 6.5l3 213l7 3l181 -3l5 -5v-212zM387 728l-7 6q-3 6 0 13l5 12
l-15 -6q-5 4 -11 13l-2 -11q-4 -15 -15 -14l15 -7q2 -5 2 -17q17 15 19 15q4 0 9 -4zM318 719q-3 1 -9 -2t-11 -3q-9 0 -15 10t-11 20l-5 -25q-5 -6 -15.5 -7t-20.5 -2q5 -3 13 -8q15 -2 15 -14q0 -4 -3 -14.5t-3 -15.5q9 9 27 24l29 -16l-14 30zM362 618q-21 -7 -25 17
l-3 -11q-8 -13 -20 -11q0 -1 4 -1q14 -4 8 -27q4 10 15 8q19 -3 16 -3l-3 3q-7 17 8 25zM179 744l-24 9l-4 25l-14 -20q-10 1 -25 1q2 -3 8 -8t6 -10q0 -4 -6 -12t-5 -12l22 8l18 -17v23q8 5 24 13zM76 727q-8 5 -3 28l-2 -2q-11 -7 -24 9v-14q-1 -4 -7.5 -6.5t-8.5 -4.5
l2 -1q2 0 7 1q6 -2 7.5 -9t2.5 -14l1 5q3 7 12 9q9 1 13 -1zM157 624q-9 4 -25 16l2 34l-19 -23q-17 0 -30 10q1 -7 10 -27l-17 -24q8 2 26 5q7 -4 11 -14q7 -13 9 -16l3 28q8 9 30 11zM351 399l-11 3q-13 4 -9 34l-20 -18q-8 3 -24 11l6 -10q5 -4 5 -10q0 -2 -15 -24
q4 -1 9.5 2t9.5 3q7 0 11.5 -8t7.5 -16l4 16q-2 11 11 12t15 5zM384 172l-13 5q-9 4 -9 17l-9 -14l-19 3l8 -8q5 -13 -5 -23l5 3q17 6 24 -6q0 4 -1 11q2 5 7.5 7.5t11.5 4.5zM127 388l-18 17q2 9 7 25l-20 -12q-5 -1 -12 4q-11 9 -11 10q3 -6 3 -12q0 -17 -18 -29h21
q4 -3 5.5 -11.5t5.5 -11.5l2 6q10 18 35 14zM300 174q-9 -1 -25 1l-11 21l-9 -25l-22 -2l17 -17l-3 -23l14 11q3 2 6 2q-4 0 19 -9v8q-6 5 -6 9q0 6 9.5 14t10.5 10zM377 53q-1 7 -10 11t-11 7q2 11 3 30q-1 -1 -25 -17q-4 2 -26 17l9 -33q-9 -5 -24 -21l33 1l14 -28l9 30z
M165 146l-22 28q0 4 4.5 12t3.5 10l-27 -8q-6 9 -23 18l6 -29q-1 -1 -29 -17l28 -5q5 -5 9 -32h3q4 9 16 28zM154 59l-22 6q-6 13 -5 28l-15 -20l-24 3l13 -15l-11 -28l25 9l15 -20v23q11 10 24 14zM65 98l-3 3q-6 8 2 22h-3q-3 -2 -5 -2q-6 0 -17 14l-2 -14q-7 -8 -18 -9
l6 -2q6 -3 11.5 -10.5t2.5 -9.5q2 7 12 8h14z" />
    <glyph glyph-name="i" unicode="i" horiz-adv-x="222" 
d="M212 202l-3 -202l-203 3v218l57 2l3 6q-1 15 0 41q2 33 2 43q0 74 -51 93q46 14 50 91l-3 76l-3 3h-56l-5 6v218h209l1 -221q-22 1 -61 -6q1 -13 0 -36q-2 -28 -2 -37q0 -64 49 -89q-36 -24 -43.5 -49t-6.5 -67q0 -70 0 -69l5 -5h58zM144 715l-30 18l2 29l-22 -23
q-4 1 -14 6.5t-17 4.5l17 -27q-6 -8 -19 -25l30 3l17 -25l2 24q3 8 15 11zM176 657l-21 -6q-4 1 -7 7.5t-7 6.5l-1 -14q-7 -5 -21 -14l13 -3q6 -4 6 -12q0 -12 2 -15l4 8q6 7 30 8l-8 5q-1 2 -1 5q0 4 5.5 11.5t5.5 12.5zM74 646l-11 -4q-5 2 -10 9.5t-6 8.5q1 -7 -6 -17
q-8 -2 -16 -6q5 -3 16 -9q2 -4 -2.5 -8.5t-2.5 -6.5l9 -1v5q4 6 11 4l11 -3l-1 2q-3 6 8 26zM138 419l-25 -5l-17 19l-2 -25q-8 -2 -22 -8q7 -2 19 -9q0 -10 3 -25q4 2 9 9t8 9l24 -7q-5 7 -13 23zM182 177h-13q-12 4 -17 24l-8 -19h-22l11 -9q4 -7 -4 -27l20 9l17 -11
q-4 13 -1 16q4 13 17 17zM83 143l-17 3q-5 2 -7.5 9.5t-5.5 13.5l-3 -10q-10 -15 -19 -15q-4 0 -7 2q4 -4 10 -13q5 -15 -1 -22l11 5q3 4 7 4q3 0 9 -5t7 -4l-3 18zM165 28l-18 30l18 22q-15 -1 -30 -6l-21 25v-27q-4 -7 -15 -10q-17 -4 -18 -4l30 -14v-28q6 1 12.5 9.5
l6.5 8.5q7 3 18 0q13 -5 17 -6z" />
    <glyph glyph-name="j" unicode="j" horiz-adv-x="299" 
d="M285 798l-3 -217l-55 -2l-3 -5q1 -11 0 -33q-1 -25 -1 -35q0 -75 46 -97q-28 -12 -46 -56l-3 -92l-5 -186q-4 -22 -21 -42t-39 -27t-45 -7q-58 0 -93 37q-17 27 -17 62l2 237q13 4 36 2q28 -2 38 -1l4 -106q3 -7 20 -14q23 0 31 8q7 12 7 30q-1 35 -1 32q2 26 2 39
q0 57 -35 76l-14 8q15 9 38 31q13 23 13 62q0 88 -1 75q-6 3 -53 5l3 218zM204 725l-28 17q3 11 0 30l-22 -20q-23 11 -26 11l11 -25l-19 -22q2 1 6 -2q7 5 13 5q8 0 15 -12q10 -18 11 -19l2 25q4 8 18.5 9t18.5 3zM260 608l-17 13l1 22q-3 -3 -10 -9q-3 -2 -5 -2
q-4 0 -10.5 6t-9.5 6l6 -25q-6 -2 -13 -12h18q4 -2 6.5 -9.5t4.5 -9.5l4 14q3 5 12.5 5t12.5 1zM157 638q-2 1 -6 2q-16 11 -14 21q0 -10 -26 -12l4 -5q8 -11 0 -21q15 7 27 -10l-2 13q6 11 17 12zM210 391l-15 23q5 6 12 20l-23 -7q-4 2 -9 8.5t-8 9.5l-4 -28l-20 -8
q9 -2 24 -11l3 -21q2 4 8 12q3 8 9 8q4 0 12 -3.5t11 -2.5zM193 176h-3q-16 10 -16 23q0 4 2 8l-6 -9q-7 -2 -28 7q0 1 4 -15q1 -2 1 -4q0 -4 -6 -9q-9 -6 -10 -7h19q8 -2 15 -16l2 6q0 10 10 12zM80 202h-11q-11 3 -18 25l-9 -18q-18 0 -23 1l14 -14q1 -6 -3 -13t-5 -10
l12 6q13 6 25 -9l-3 12q1 7 21 20zM145 87q-11 3 -33 11l-3 30l-19 -28l-31 3q8 -8 22 -24l-16 -28l32 11q7 -7 21 -20l-3 30q4 5 15 7.5t15 7.5z" />
    <glyph glyph-name="k" unicode="k" horiz-adv-x="444" 
d="M423 578l-56 -3l-170 -164v-5l175 -186l50 -1v-217h-186l-3 5v210l-2 2q4 2 13 1h14q6 2 4 10l-121 123l-4 -4v-125q9 -6 26 -5q27 0 26 0l5 -8l-2 -208q-60 -5 -187 -1q-5 69 -2 215q6 2 28 2q17 -1 25 6q-1 15 0 43q2 34 2 44q0 79 -50 102q38 12 47 57q4 18 2 50
q-2 37 -1 51q-8 5 -24 5h-27l-3 4l-2 217l3 2h189l2 -219q-9 -5 -25 -5l-27 1l-5 -5l2 -105l3 -4q41 35 117 110q-4 4 -14 3.5t-14 1.5v222h192v-222zM386 755h-14q-7 4 -10 17l-4 -10q-15 -7 -22 -6q2 -1 7.5 -3.5t4.5 -10.5q-2 -14 -3 -11l5 3q10 5 23 -7l-3 10
q4 11 16 18zM291 759l-2 -1q-4 -3 -7 -3q-6 0 -18 17v-8q-4 -15 -19 -14h3q17 -8 10 -27q4 3 12 11q3 1 7 -3.5t7 -3.5q-2 27 -2 17q0 11 9 15zM387 633q-5 4 -25 17q-3 6 0 17q4 14 4 19l-29 -22q-8 7 -28 16q6 -10 13 -30l-24 -23h33l13 -29l6 24q3 10 16 10q18 -1 21 1z
M169 687q-17 8 -17 20q0 3 3 7q-4 -3 -11 -9l-21 3q3 -2 7 -10q5 -9 -7 -22l4 4q9 4 25 -13v5q-3 15 17 15zM105 753l-35 -5l-18 27l-2 -30q-4 -6 -16 -8.5t-14 -3.5q4 -5 13 -8t12 -6l2 -28q12 8 20 20q4 -1 14 -6.5t17 -4.5q-3 6 -11 19q-2 3 -2 7q0 6 9 15t11 12z
M130 623q-7 0 -18 2q-6 3 -14 20l-7 -15l-24 -3l16 -15q0 -3 -2.5 -9.5t-2.5 -10.5q4 2 9 8q8 0 27 -11l-5 20zM147 383l-22 25l16 30l-32 -13l-22 23v-32l-28 -16l12 -2q7 -2 12 1q10 -3 9.5 -19.5t2.5 -18.5l21 27q9 -4 31 -5zM394 110q-8 2 -10 13v12l-4 -4q-14 -5 -22 5
q4 -4 4 -9q0 -10 -15 -21h17l11 -17v8q0 6 19 13zM329 166v5q-7 2 -5 12q2 12 1 14q-4 -5 -9 -5t-13 6.5t-11 7.5l3 -10q2 -6 0 -10l-17 -14q6 0 17 -1q5 -4 6 -11.5t2 -14.5q4 4 7.5 12t18.5 9zM320 75l-12 -4q-4 -3 -7 -3q-5 0 -9.5 9t-7.5 11v-10q4 -10 -7 -14
q-14 -4 -15 -8q7 -2 19 -9q1 -7 -1 -19q2 1 11 13q5 2 14.5 -2t11.5 -4l-11 20zM169 172l-21 2q-4 2 -5 8l-2 12q-6 -8 -7 -16q-4 -3 -13.5 -3t-12.5 -1l15 -13l-3 -20l7 6q7 2 29 -11l-3 6q-5 17 16 30zM75 160q-8 5 -16 11q3 5 2 15l-3 -3q-9 -5 -24 5l2 -17l-9 -11l11 1
q4 -6 12 -19v8q7 12 25 10zM147 94q-6 1 -14 -3.5t-12 -4.5q-3 0 -5 2q-7 7 -19 22q-4 -5 -3 -14v-14q-3 -5 -14 -7.5t-13 -8.5q16 -5 27 -13q-1 -9 -2 -29l24 25q10 -3 29 -11q0 1 -15 26q0 7 8.5 17.5t8.5 12.5z" />
    <glyph glyph-name="l" unicode="l" horiz-adv-x="365" 
d="M348 358l-2 -342l-2 -16h-341l-3 11l2 204l4 4q18 -2 50 5q0 12 2 39.5t2 41.5q0 82 -52 108q41 18 48 69q1 46 2 93q-8 6 -27 6q-22 0 -28 1l-3 218h202v-216q-5 -5 -17 -5q-5 0 -13 1h-13q-22 0 -18 -23q2 -36 3 -71q4 -42 28 -62l18 -14q-41 -14 -44 -45
q-7 -18 -7 -43q0 -11 2 -35t2 -36q0 -16 -2 -29l5 -3q67 -5 108 6q14 12 14 29v114q18 6 76 3zM177 753l-27 1q-7 4 -9.5 14t-4.5 19l-15 -28l-15 3q-9 1 -15 -1q6 -6 19 -16q1 -3 1 -6q0 -6 -5 -15.5t-6 -12.5q5 -1 12 4.5t10 6.5t6 1q5 0 13 -10t14 -12l-5 21q-1 3 -1 6
q0 8 12.5 14.5t15.5 10.5zM177 621h-5q-10 4 -11 26l-11 -13q-3 -2 -7.5 1t-7.5 1q6 -3 6 -8q0 -3 -4 -10t-4 -11q2 1 7 2.5t7 2.5q4 -5 11 -16l3 13q4 13 16 12zM94 676l-27 -9l-17 19v-21q-8 -10 -27 -12l10 -3q12 0 14 -11.5t3 -21.5l16 20l25 -6l-13 17q-1 7 7 16t9 12z
M153 413l-4 2q-14 7 -13 22v-3q-2 -9 -13 -9q-6 0 -12 1l3 -5q6 -13 -8 -25q3 -1 7 3q12 7 25 -9q-2 3 -2 5q0 6 8 12q5 3 9 6zM324 224l-14 -2q-5 2 -8.5 9.5t-4.5 7.5v-4q0 -12 -22 -14q13 -5 11 -27q2 2 5 6q10 5 24 -4l-3 11q2 7 12 17zM88 426h-17l-10 14
q4 -12 -20 -20q9 -2 10 -10.5t2 -16.5l7 8q5 3 11 0l10 -5l-3 3q-6 16 10 27zM238 168l-25 -2q-3 9 -11 25l-9 -25l-24 -3q7 -5 21 -14q-2 -12 -5 -25q11 4 14 11q3 1 5 1t23 -14q-2 16 -8 27zM312 52q2 3 -1.5 5t-6.5 4q-9 3 -8 14l1 17l-18 -17q-9 7 -24 10l9 -21l-17 -20
l24 3q4 -8 14 -24q2 10 9 27q4 -1 9 1t9 1zM179 53l-15 10q2 5 2 17q-2 -8 -11 -8q-4 0 -10 2t-7 1l4 -14l-11 -12l13 1q1 0 12 -16v7q2 7 11 10zM108 144l-31 16l1 30l-22 -24l-28 6l8 -11q7 -5 7 -10q0 -6 -9 -15.5t-11 -13.5q8 2 24 5q8 2 15 -8q11 -17 12 -17v23
q2 10 13 13.5t21 5.5zM88 23l-11 15q-1 4 3 11.5t5 10.5q-2 0 -5.5 -3t-7.5 -3q-8 0 -20 17q1 -25 -19 -30l12 -3q6 -3 5.5 -12t1.5 -12q2 4 11 11z" />
    <glyph glyph-name="m" unicode="m" horiz-adv-x="607" 
d="M578 798l-3 -218q-15 -1 -31 -1.5t-24 -9.5q3 -75 5 -88q9 -47 44 -69q-44 -22 -49 -83v-104q8 -7 26.5 -6.5t25.5 -2.5l-2 -214h-182v214q6 3 24 2.5t25 4.5v322l-17 -58l-115 -481q-17 -10 -41 -4l-119 550h-4l-3 -146v-181q7 -5 25 -4.5t24 -4.5q1 -71 -1 -211h-183
l-3 3l2 209q7 4 28 3q18 0 26 7q0 13 1 37q1 29 1 40q0 84 -50 110q43 19 49 70q0 46 1 92l-5 5l-48 2l-2 217h172l109 -511l4 -5q7 12 14 39l107 471q0 2 3 2.5t4 1.5h162zM538 731l-29 20q1 7 7 32l-19 -18q-3 -1 -6 -1q-6 0 -15.5 6.5t-11.5 5.5l8 -26l-24 -25l32 1
q4 -10 15 -31q1 12 10 31q15 7 33 5zM548 659h-14q-7 7 -11 16v-6q-3 -6 -10 -7.5t-13 -2.5q13 -7 13 -19q0 -3 -2 -4q5 4 15 0l10 -3q-2 3 -2 6q0 6 14 20zM466 606l-11 17q-2 6 2.5 12.5t8.5 12.5l-25 -4l-15 20l-1 -25q-3 -4 -12.5 -5.5t-12.5 -5.5l11 -3q11 -1 12 -12
v-21q3 5 10 11q3 8 10 8q3 0 11.5 -3t11.5 -2zM539 411l-23 9q0 9 -4 25q-4 -5 -9 -15q-4 -5 -9 -5q-4 0 -11 3t-11 3l11 -12q5 -5 5 -9t-7 -12t-8 -12l22 9q7 -1 12 -9q6 -11 9 -13v24q10 9 23 14zM116 708q-8 7 -22 23q0 5 6 14t5 16l-21 -13q-3 -1 -6 -1q-6 0 -13.5 6.5
t-14.5 11.5l6 -34l-25 -17q11 -1 32 -6q1 -16 7 -27l16 28q11 0 30 -1zM170 667q-7 0 -20 -3q-1 1 -14 17v-15q-2 -6 -11 -7.5t-11 -5.5l11 -3q8 -4 5 -27q2 0 6 4q3 9 11 9q2 0 8.5 -1.5t10.5 -1.5l-8 14zM555 148l-14 13q2 7 3 20l-17 -8l-18 11l5 -20l-19 -14l19 -2
q6 -2 7.5 -11t3.5 -12q2 7 9 20q3 2 10.5 2t10.5 1zM75 609q-8 4 -7 14q2 20 2 14l-4 -3q-17 -5 -24 7q4 -4 4 -8t-7 -11t-8 -10h11q4 -1 5.5 -8.5t5.5 -9.5v3q5 16 22 12zM452 184l-18 5l-4 16v-3q-7 -14 -25 -13l7 -6l-1 -22q2 1 6 5q12 7 22 -5q-1 2 -2 12q4 5 15 11z
M506 75q-11 6 -26 8q-9 2 -8.5 15t-4.5 16l-17 -23l-30 6l16 -19q2 -3 2 -6q0 -4 -7 -13t-6 -15l17 8q3 1 6 1q7 0 15.5 -10t13.5 -12l1 33zM325 191l-19 17q0 4 4 12t3 10l-21 -10l-19 16l5 -25l-23 -16q9 0 26 -4q3 -8 7 -24l10 22q10 -1 27 2zM103 391l-8 14q-3 3 -3 7
q0 3 5.5 10t5.5 11q-11 -8 -19 -3q-11 10 -17 22l-3 -24q-4 -6 -12.5 -7t-15.5 -2l25 -13q-1 -9 2 -25l15 17q5 1 13 -3t12 -4zM164 159q-1 1 -12 4q-7 2 -13 -1q-9 4 -10 18q-2 18 -4 22l-16 -29q-17 -1 -31 5q8 -14 16 -19q2 -3 2 -7q0 -5 -6.5 -14t-6.5 -15q9 5 28 13
l23 -24v33zM166 42l-7 7q-4 7 7 24q-2 1 -10 -3q-1 -1 -3 -1q-4 0 -9.5 6l-5.5 6l-2 -11q-4 -6 -16 -12h5q7 -2 10 -12q1 -6 3 -12l7 10q14 5 21 -2zM56 159q-10 -3 -14 7l-6 15v-5q-2 -7 -12 -9h-13q3 -3 8 -9q2 -3 -2 -19l2 2q16 8 25 -7q-3 4 -3 7t15 18zM94 66
q-9 0 -27 3q-2 8 -9 23l-9 -22l-27 -1l20 -19q-3 -7 -9 -22l25 11l17 -14q1 4 -1.5 9t-2.5 10q0 7 7.5 12t15.5 10z" />
    <glyph glyph-name="n" unicode="n" horiz-adv-x="423" 
d="M403 579q-7 -3 -25.5 -3t-25.5 -5q0 -11 -1 -33t-1 -32q0 -76 47 -101q-48 -21 -48 -70l-3 -335h-88l-9 36l-101 501q0 1 -2 3l-3 -5l-3 -305q2 -10 19 -9q23 0 26 -1l-1 -218l-178 -2l-6 6l2 212q9 3 26 3q29 0 28 0l5 5q0 51 -1 102q-4 61 -48 83q12 3 26 17
q10 12 21 23q0 2 3 123l-3 3l-53 4l-3 12l3 207l164 -3l9 -34l86 -417l3 42v185q-5 5 -18 4.5t-16 1.5l-2 215l3 3h168v-218zM383 710l-14 17q-3 3 -3 7q0 6 6.5 15t7.5 14q-10 -3 -30 -10l-22 25v-29q-3 -7 -13 -10q-13 -3 -16 -6q10 -3 29 -11l5 -33l19 27q5 0 15 -3
t16 -3zM383 629h-11q-8 6 -13 17v-5q-1 -5 -9 -12q-4 -2 -8 -3l2 -2q7 -2 5 -26l4 4q3 7 7 7q3 0 9.5 -4t8.5 -3l-3 3q-4 7 8 24zM313 658l-17 2q-5 2 -7 10t-6 10l-9 -17h-19l14 -17l-8 -20l21 11l17 -14q0 6 -3 23q6 4 17 12zM125 719l-28 19l4 32l-18 -17q-3 -1 -7 -1
q-6 0 -16 5.5t-13 6.5q5 -10 12 -31q-7 -8 -23 -22l31 2q5 -10 16 -30l1 22q5 9 18 11q22 3 23 3zM171 649l-9 8l1 26l-7 -4q-14 -8 -24 7v-7q2 -4 2 -6q0 -5 -8.5 -10t-10.5 -8q5 1 13 -1q14 -7 14 -24l3 11q3 7 26 8zM355 388l-20 20l9 22l-25 -11q-4 3 -19 14l5 -25
q-6 -6 -20 -14q14 -4 20 -3q6 -4 7.5 -14t3.5 -13l9 22zM137 585h-5q-3 -1 -5 -1q-5 0 -8 6.5t-5 11.5l-4 -12q-7 -6 -18 -5l12 -12l-4 -17l17 9q2 0 5.5 -4t6.5 -2q1 1 -1 3.5t-2 5.5q0 7 11 17zM70 626h-11q-5 3 -8 20l-1 -6q-3 -8 -27 -13q5 -4 7 -3q7 -3 6 -12
q-1 -12 -2 -11l3 3q15 6 25 -6v20q3 1 6 2.5t2 5.5zM120 402l-19 15q2 9 5 27l-19 -13q-5 -1 -12.5 5.5t-10.5 7.5q0 -1 3 -14q2 -4 2 -7q0 -6 -9 -12t-10 -8l25 -3l9 -23l5 18q4 7 15 7h16zM317 135l-4 5q-10 5 -10 12q0 5 4.5 14t3.5 12l-20 -8q-6 6 -19 20l-3 -30l-20 -9
l27 -9l1 -25q3 3 8.5 10.5t8.5 11.5zM328 72q-3 1 -11 1q-11 6 -12 17q0 -9 -8.5 -9.5t-16.5 -1.5l10 -9q1 -4 -2 -9.5t-2 -7.5l2 1q18 8 25 -9v6q-2 4 -2 6q0 5 8.5 10zM160 191h-31l-15 30l-5 -26q-3 -8 -16 -9t-17 -4l24 -19q-3 -9 -7 -29q8 5 22 19q8 0 17 -6l16 -8
q-2 12 -8 21q-1 3 -1 5q0 7 10 15.5t11 10.5zM68 168l-6 2q-17 10 -12 21l-6 -6q-8 -4 -21 3q8 -17 -1 -28h3q4 3 7 3q4 0 8 -7.5t7 -9.5l1 11q1 7 7.5 8.5t12.5 2.5zM168 61l-14 11q-1 6 2 18l-13 -11q-8 1 -15 7q0 -4 1 -5q5 -10 -9 -23h15q3 -6 10 -14l1 10q2 5 22 7z
M98 73q-5 3 -23 6q-4 6 -8 28q-10 -16 -17 -23q-24 3 -23 3l17 -20l-8 -22l23 8l17 -17l-1 25q7 5 23 12z" />
    <glyph glyph-name="o" unicode="o" horiz-adv-x="407" 
d="M388 408q-34 -14 -40 -57q-1 -39 -3 -78q0 -12 2 -48q2 -31 2 -49q0 -111 -62 -153q-37 -25 -90 -25q-63 0 -106 33q-41 30 -47 95q-2 57 -4 115v92q-3 54 -40 75q40 25 40 91q0 10 -1 40q-1 25 -1 39q-1 27 -1 46q0 121 72 158q35 19 82 19q65 0 107 -34q11 -7 21 -22
q7 -13 15 -26q14 -32 13 -89q0 -92 0 -91q-5 -101 41 -131zM259 732q-3 0 -11 7q0 7 2 20l-6 -4q-4 -6 -10 -3q-9 3 -12 3q4 -4 4 -8q0 -2 -13 -17h14q5 -3 9 -18l2 7q1 7 8.5 10.5t12.5 2.5zM322 644l-20 16q2 8 5 26l-19 -16q-5 0 -12 4.5t-11 5.5q3 -7 7 -20l-16 -19
l19 -1q4 -3 13 -25l11 26q5 0 23 3zM169 730q-10 0 -29 3q-4 11 -11 31q-7 -19 -6 -21q-4 -8 -14 -8q-3 0 -14 1q-8 2 -12 0l23 -21l-11 -32l26 15q6 1 15.5 -8t13.5 -10q0 1 -7 30zM207 632l-12 -2q-11 6 -13 17q-4 -23 -19 -20q2 -1 6.5 -5t6.5 -5q0 -7 -1 -16q2 2 6 5
q11 5 23 -3l-8 15zM368 404l-18 9q0 5 -2 15l-7 -11q-14 -4 -20 2q3 -6 7 -19q-5 -4 -6 -10q3 -1 6 1t5 2q4 0 9.5 -5t7.5 -6v12q1 2 18 10zM115 601l-8 8q-7 17 2 26l-20 -9l-17 14l3 -23q-7 -2 -17 -13q8 0 22 -3q1 -1 2 -7.5t7 -4.5q0 11 11 12h15zM304 411l-11 -1
q-3 6 -11 20l-1 -8q-5 -5 -23 -9q9 -2 10 -25q20 6 28 -6l-3 17q1 2 6 5t5 7zM264 242q-1 14 0 38q2 29 2 39q0 66 -39 91q26 12 34 38q0 10 2.5 34t2.5 36q0 28 -10 47q-8 10 -23.5 12t-30.5 3q-8 -3 -27 -3h-6q-41 0 -46 -25q0 -9 -1 -29t-1 -29q0 -64 39 -84
q-38 -25 -38 -81q0 -14 2 -28q2 -6 1 -40q0 -25 13 -35q47 -8 63 -8q44 0 63 24zM134 410h-5q-12 4 -12 24v-1q-13 -17 -26 -11l1 -2q4 -3 4 -9l-5 -17h3q3 3 7 3q-3 0 16 -10q-2 3 -2 5q0 6 6.5 10t12.5 8zM69 394l-5 8q-5 13 5 21h-18q-4 4 -10 11v-11q-2 -12 -17 -12
l7 -1q7 -3 8.5 -13l1.5 -10l10 9q7 5 18 -2zM308 135l-23 23q5 10 11 31q-14 -11 -29 -16l-23 20l4 -30l-26 -20l30 -3q4 -5 5 -16.5t4 -14.5l17 28zM209 170l-5 2q-14 4 -11 25h-1v-2h1q-8 -14 -20 -14q-4 0 -7 2q1 -4 7 -10q1 -4 -3.5 -9.5t-5.5 -8.5q4 0 5 2q14 7 23 -8
q-2 3 -2 5q0 7 9.5 11.5zM241 75h-17q-4 7 -11 20l-4 -18q-4 -4 -12 -3.5t-11 -1.5l16 -12q-1 -22 -1 -21l11 9q2 1 4 1q4 0 10 -4.5t10 -4.5q-3 6 -7 18zM132 189l-25 -3l-13 21l-2 -18q-3 -8 -13 -9q-13 -1 -16 -3l14 -8q8 -2 8 -13l-2 -16l18 15q9 -2 25 -11q-3 9 -11 25
q1 1 17 20zM147 63q-20 12 -18 21q-5 -9 -28 -9q2 -2 5 -6q4 -9 -5 -23l3 3q16 7 26 -9q1 5 -1 12q1 6 8.5 7.5t9.5 3.5z" />
    <glyph glyph-name="p" unicode="p" horiz-adv-x="363" 
d="M346 675l-5 -224q-16 -60 -56 -75q-25 -9 -70 -8q-54 3 -71 0l-5 -10v-129q13 -7 25 -7h36l-1 -222h-174l-25 2v220q29 -1 30 -1q18 1 25 12q-1 13 0 37q1 28 1 38q0 82 -50 104q43 15 51 68l2 96l-4 5q-16 1 -50 1l-3 5l3 213l245 -2q63 -14 87 -70zM305 723l-9 -1
q-7 1 -16 17l-1 -10q-1 -5 -9 -8q-4 -1 -9 -3q8 -2 9 -10.5t1 -15.5l8 6q4 4 11 0q7 -3 9 -3q0 1 -2 3q-6 13 8 25zM211 747q-2 0 -7 1q-15 4 -15 21q-8 -20 -23 -15q10 -11 1 -28l16 7q2 -3 7 -6.5t7 -6.5v17q6 7 14 10zM321 600l-8 1q-13 9 -11 31l-16 -15q-3 0 -10.5 2.5
t-7.5 1.5l7 -17l-14 -19q6 3 18 5q8 -5 17 -20l3 19q2 5 11 7t11 4zM235 658q-12 0 -15.5 10t-6.5 19l-13 -15l-22 3q4 -5 13 -14q0 -5 -6 -12t-5 -12q7 2 20 6q2 -1 6.5 -6.5t8.5 -4.5q-4 18 20 26zM110 725q-11 3 -29 15l4 33l-24 -22l-30 13l13 -30l-22 -23q7 0 20 3
q4 2 7 2q7 0 13.5 -13t9.5 -14l3 19q2 11 16.5 12t18.5 5zM257 473l2 42q2 26 -2 42q-8 17 -19 18l-91 1l-1 -122q11 2 33 -1q26 -3 35 -3q31 0 43 23zM141 601l-25 13q1 9 -3 22l-14 -19l-24 4l13 -18l-11 -21l23 5q6 -7 16 -22l1 17q-3 12 10.5 15.5zM131 399l-25 16l4 25
l-11 -11q-4 -8 -9 -8q-4 0 -12 5t-12 5l11 -22l-14 -18h3q5 2 9 2q9 0 25 -25q2 10 6 28q17 -1 25 3zM119 179q-1 5 -6 4q-7 -3 -10 -1q-6 3 -7 13t-4 13l-11 -18h-25q5 -6 16 -15q0 1 -6 -23l20 9l17 -14q-2 7 -1 22q1 5 8.5 4.5t8.5 5.5zM180 53q-7 6 -22 16l6 33l-22 -17
q-7 0 -15 5l-14 10q4 -13 9 -29q-9 -7 -25 -22q10 -1 28 1q7 -4 10 -15t6 -13l12 28q13 -1 27 3zM64 111h-14q-11 9 -11 13q1 -10 -7 -14.5t-15 -4.5q16 -5 13 -27l12 8q8 5 14 -5q1 4 -3 10q-1 5 3 10z" />
    <glyph glyph-name="q" unicode="q" horiz-adv-x="347" 
d="M330 407q2 -7 -8 -9q-27 -27 -28 -67l-2 -190q-11 -90 -58 -129q-1 -6 3 -10t9 -7.5t17 -2.5h18q1 -51 -1 -151q-15 -3 -29 -3q-65 0 -101 53q-18 27 -29 108q-31 15 -53.5 49.5t-26.5 71.5q-4 42 -3 113q0 84 -1 113q-14 44 -37 58q32 26 36 47q6 32 6 82v36
q-1 23 -1 35q0 69 13 106q17 51 63 74q20 6 88 4q36 -9 61.5 -44t27.5 -115l4 -171q9 -34 32 -51zM229 702l-18 23l9 29l-24 -15l-21 23l4 -23q1 -4 1 -7q0 -7 -10.5 -12t-12.5 -9q3 -3 13 -3t14 -3l7 -30l12 29zM281 618l-20 8l-4 26l-13 -25q-8 1 -19 2l13 -17
q-1 -4 -4 -12.5t-3 -12.5l17 11l17 -15l-2 21q6 5 18 14zM114 714q-2 1 -7 2l-9 18l-2 -6q-5 -12 -19 -9l5 -5q5 -2 5 -6q0 -2 -2 -8.5t-2 -9.5l15 7q3 -5 11 -10q0 1 -1 3q-6 16 6 24zM190 635q-13 -4 -14 -3l-9 12v-6q-2 -11 -18 -15h3q6 -2 9.5 -10t1.5 -13l5 6
q7 4 19 -3l-3 6q-5 13 6 26zM285 407q-6 4 -14 3q-2 8 -8 22l-1 -8q-6 -10 -26 -9l11 -11q2 -9 -7 -24q4 0 8 4.5t7 4.5q4 0 9.5 -6t7.5 -6l-2 18q6 5 15 12zM109 590l-11 14q1 7 3 22q0 -1 -9 -8q-12 -4 -20 8q3 -5 3 -11q0 -7 -13 -23l14 -2q5 -2 5 -9q0 -10 2 -12
q4 3 3 8q5 18 23 13zM229 494q0 18 -0.5 36.5t-8.5 29.5q-22 13 -31 11q-82 0 -41 1q-23 -1 -35 -15q-8 -20 -8 -49q0 -30 8 -64q4 -17 28 -41q-29 -19 -35 -65q-1 -8 -2 -85q0 -16 10 -28q2 0 6.5 -3.5t6.5 -3.5q3 0 5 3q1 34 -11 88q12 17 40 39q17 -22 33 -81q2 -8 0 -21
q-3 -14 -1 -22q1 -5 9 -8q18 8 23 22q2 50 2 60q0 77 -40 106q37 22 42 90zM94 392l-7 2q-13 8 -13 27l-11 -17l-18 8l10 -22l-10 -16l19 4l9 -14q0 4 2.5 13t18.5 15zM268 149q-6 4 -5 15q2 14 3 12l-12 -7l-13 12l3 -17l-10 -10l13 -7q0 -1 1 -7.5t2 -5.5q3 7 9 12.5
t9 2.5zM196 146q-5 0 -20 8q1 10 -4 18l-9 -15q-5 1 -18 1l12 -18q-1 -1 -8 -17l17 6l14 -17l-3 19q5 8 19 15zM239 67l-28 1q-3 9 -8 28l-7 -23q-2 -8 -12 -9l-14 -2q0 -1 19 -20q-3 -10 -7 -30q1 0 22 18q7 -6 22 -15q1 3 -5 21q-3 10 7 17.5t11 13.5zM110 193l-21 -6
l-12 20l-1 -23q-3 -3 -10 -6t-10 -6q10 -3 9 -3q9 -1 11 -12v-19l13 17l20 -4l-11 18l6 12zM258 -82h-15q-3 7 -9 19l-7 -19l-18 -3q5 -4 16 -14q-3 -14 -3 -19l8 10l22 -10l-3 12q-2 8 0 12q16 11 9 12zM127 39l-4 5q-2 5 3 26l-1 -2q-12 -8 -21 11v-14q-2 -5 -8 -7l-6 -2
q6 -3 11 -11t3 -14l8 9q9 5 15 -1zM187 -53l-2 3q-4 4 -4 14t1 11q-10 -7 -23 8v-19q-4 -7 -9 -8l13 -6q0 -6 4 -15v3q2 8 10 9h10z" />
    <glyph glyph-name="r" unicode="r" horiz-adv-x="439" 
d="M418 216l-1 -214q-14 1 -39 -1q-31 -1 -41 -1q-75 0 -93 50l-3 19l-4 284q-13 19 -44 19q-7 0 -26.5 -2t-28.5 -1l-4 -7l2 -138q10 -6 28 -5q36 1 30 1l4 -9l-6 -209h-189l-3 3l2 214l50 1l6 8q-1 13 0 37q1 27 1 38q0 82 -48 108q36 15 45 47q4 22 4 58l-1 59
q-9 7 -27 6q-22 -2 -29 0v219l220 -2q39 -4 72 -27t45 -59l7 -34l-2 -195q-3 -28 -21.5 -52t-43.5 -31q42 -22 42 -89v-23q-1 -15 -1 -23q0 -19 2 -32q13 -15 42 -15q5 0 14 1h15q15 0 24 -3zM245 741l-26 -4q-6 8 -14 25l-2 -20q-3 -7 -15.5 -10t-14.5 -4l22 -12
q0 -11 -1 -27l4 5q5 11 13 11q5 0 13 -4t10 -4l-8 23zM323 609q-2 5 -7 5l-8 2q-9 1 -10 12q0 15 -1 17l-16 -17q-9 4 -25 5l11 -16q3 -6 -5 -13.5t-9 -11.5l25 5q4 -8 16 -19v19q2 8 14 9t15 3zM123 748h-23l-11 17q-1 -6 -5 -17q-2 -3 -10.5 -4t-10.5 -3q5 -4 15 -13
l-3 -20q2 2 11 8q6 6 25 -4l-6 18zM198 633h-12q-4 6 -14 19l-6 -19h-16q5 -2 11 -10q2 -3 1 -11q-2 -7 -1 -9q2 1 6 5.5t7 4.5q2 0 4 -1.5t7 -6t7 -2.5l-6 17zM261 466q-1 11 1 31q3 25 3 33q0 29 -17 43l-107 4l-2 -129l73 -4q39 1 49 22zM106 631l-25 16q3 39 3 33
l-25 -22l-26 12l11 -26l-21 -25l27 4q8 -3 12.5 -15t7.5 -16l7 30q4 4 15.5 5.5t13.5 3.5zM128 399l-22 12l2 23l-17 -17q-11 5 -25 8l11 -25l-14 -17l17 1q2 2 5 2q4 0 9.5 -9t8.5 -11l3 23zM347 147l-14 22q5 7 12 22l-23 -10l-17 19l-2 -20q-4 -5 -11 -7.5t-14 -5.5
l23 -9l5 -25l17 20zM411 52l-28 17q2 9 1 31l-25 -22l-26 13l12 -28l-19 -27q10 2 27 8q7 -3 12.5 -14.5t9.5 -15.5l5 30q5 4 14 5.5t17 2.5zM309 85h-12q-4 6 -11 18l-2 -7q1 -9 -9.5 -11t-12.5 -5q1 0 13 -8q-2 -7 -2 -17l5 5q9 4 25 -4l-3 4q-2 3 -2 6t5.5 9t5.5 10z
M112 144l-21 8q-11 2 -10 15q0 18 -1 21q-8 -14 -19 -24q-7 -1 -16 2q-16 4 -17 5l17 -22q1 -3 1 -5q0 -6 -8 -15t-10 -13q2 0 30 9l25 -25l1 34zM167 61q-8 -1 -14 7q-9 13 -9 14l-2 -8q-8 -11 -17 -8q6 -4 3 -30l5 5q13 7 25 -6q-1 2 -2 17q5 9 11 9zM77 42l-5 3
q-8 2 -8 9q0 2 2 8.5t1 9.5l-6 -6q-14 -6 -25 3l1 -2q7 -19 -7 -26q3 0 12 -2q7 -6 10 -14q10 19 25 17z" />
    <glyph glyph-name="s" unicode="s" horiz-adv-x="306" 
d="M291 786l-3 -298q-15 -4 -39 -2l-40 2q-3 8 -3 22v16q1 10 1 15q0 36 -29 40q2 0 -49 1q-30 1 -42 -16q-4 -11 -4 -21q0 -30 22 -49q39 -40 71 -40q11 0 22 4q-2 -8 -2 -17q0 -30 42 -68q45 -41 49 -68l-2 -186q0 -47 -32.5 -84t-78.5 -37q-29 0 -53 11q-22 18 -37 38
l-3 -4l-4 -40h-77v316l5 3l76 -3q3 -8 3 -21q0 -6 -1 -18t-1 -18q0 -29 20 -40q11 1 31 -1q25 -4 32 -4q27 0 38 23q5 11 5 25q0 21 -11 34q-58 64 -103 57l-7 -4q2 8 2 16q0 31 -39 72q-42 45 -47 70v171q0 35 21 66.5t53 45.5q19 5 37 5q62 0 87 -48q5 4 5 18t5 19l77 1z
M268 739l-5 2q-10 3 -12 23l-11 -14q-6 1 -17 3l8 -8q2 -5 -2 -11q-6 -9 -6 -10h3q4 4 9 4q9 0 17 -14v7q0 16 16 18zM271 612q-5 -1 -17 0q-6 5 -9 13.5t-5 16.5l-12 -25l-25 3l19 -19q-3 -8 -7 -24l22 12l20 -17q-1 8 -5 25zM146 711l-28 19l5 15q3 9 -1 14l-20 -17
q-6 0 -15.5 7t-12.5 6l8 -28l-25 -22h33q5 -4 7.5 -14.5t7.5 -14.5l2 20q3 10 18 13q10 1 21 2zM177 629l-4 3q-4 10 4 25q-3 -1 -5 -1q-6 0 -20 17l-2 -16q-2 -2 -9 -3.5t-9 -4.5h4q13 -5 11 -26l5 8q5 2 25 -2zM84 631q-3 0 -9.5 -3t-10.5 -2q-11 5 -19 23l-3 -21
q-3 -6 -12 -7q-12 -2 -14 -4l23 -14q0 1 -3 -22q5 0 15 13q4 1 12.5 -2t12.5 -1l-9 18q5 7 17 22zM173 406q-7 4 -21 13q1 4 -1 11.5t-1 11.5l-15 -17l-27 8q1 -1 11 -19q-2 -10 -14 -23q4 0 12 2t12 2q5 -7 17 -21l1 23q4 6 11.5 7t14.5 2zM266 151q-3 2 -9 6.5t-9 7.5
q6 12 4 26l-20 -16q-6 6 -20 8l3 -3q3 -4 3 -8q0 -5 -17 -26q8 0 21 2q2 -2 12 -25q2 8 9 23q10 2 23 5zM167 194l-17 -1l-11 13v-10q0 -6 -8 -8l-12 -2l11 -9q4 -4 3 -10v-10l11 12q4 2 10 -1.5t7 -2.5l-1 1q-7 16 7 28zM228 83h-14q-8 3 -13 15l-1 -11q-6 -8 -22 -11
l16 -9q0 -7 -3 -18l7 7q4 4 12 3q12 -3 10 -3l-2 2q-6 12 10 25zM82 174q-9 11 -14 23l13 20q-9 -2 -25 -6l-17 20v-23q-3 -5 -12.5 -6.5t-12.5 -5.5q11 -3 24 -12q-1 -9 2 -24l6 6q3 13 12 13q3 0 11.5 -3t12.5 -2zM129 110l-28 2q-6 6 -8 17q-4 17 -5 19l-17 -30l-28 3
q8 -8 21 -24q-9 -13 -13 -27l28 14q6 -6 25 -21q0 -1 -3 31z" />
    <glyph glyph-name="t" unicode="t" horiz-adv-x="364" 
d="M347 493q-25 -6 -79 -2q1 20 -2 61q-3 21 -20 30q-12 2 -33 -5q1 -45 2 -91q6 -50 39 -73q-44 -27 -44 -104q0 -9 2 -41q1 -25 0 -39q8 -6 21 -6q4 0 13 1t13 1q10 0 17 -4v-218l-6 -3h-196l-3 5v215l3 3h53l6 8q0 49 -1 98q-4 57 -41 82q44 23 44 103q0 11 -1 32.5
t-1 30.5q-4 5 -31 5q-23 -8 -25 -38v-51q-24 -6 -77 -2v306l5 3h342v-307zM317 748h-21q-3 7 -11 19l-6 -19l-23 -6l17 -13l-3 -23q1 1 19 16q6 -4 18 -10l-7 17q6 6 17 19zM218 751h-9q-12 7 -14 19l-2 -6q-3 -6 -10 -10t-10 -3q8 -2 8 -12q0 -15 -1 -14l8 4q10 7 19 -6v5
q-2 4 -2 7q0 4 5.5 9t7.5 7zM329 620l-29 15l1 32l-23 -25l-29 8q4 -8 15 -22q-6 -10 -16 -29l30 3l17 -23l1 25q4 9 18 12t15 4zM173 632l-13 13q0 4 3 11.5t3 10.5q-18 -8 -25 -5q-9 4 -9 11v-23l-19 -11l19 -4q4 -3 5.5 -12.5t3.5 -12.5q3 8 11 21q7 -1 21 1zM108 744
q-1 0 -31 -8q-7 8 -22 25l-2 -30q-4 -5 -12.5 -7.5t-16.5 -5.5q4 -2 13.5 -5.5t14.5 -6.5l3 -31q6 8 20 23q11 -3 32 -9l-18 29zM74 577q0 4 -4.5 8t-5.5 5q-1 4 2 9t3 7q-4 0 -7.5 -2t-5.5 -2q-3 0 -8 6t-7 7q5 -25 -17 -28l17 -3q5 -2 4.5 -9t1.5 -9l11 14q6 1 16 -3z
M209 402q-3 0 -22 11l-2 25l-19 -19l-23 8l12 -24l-15 -20l25 5l15 -21q0 6 2 22q3 6 13 7.5t14 5.5zM253 163q-3 3 -13 5.5t-9.5 17t-1.5 16.5l-19 -17l-23 11l9 -17q3 -7 -4 -15q-9 -11 -10 -13l24 4q4 -8 15 -25l2 13q-1 12 9.5 15t20.5 5zM138 177q-20 11 -17 24
q0 -8 -6 -10q-5 -1 -12 0q-3 1 -7 2q8 -21 -5 -30l19 5l9 -13q1 4 2 11q10 11 17 11zM256 47q-13 5 -11 27l-5 -3q-12 -3 -22 7q8 -22 -11 -29q4 1 7 1q7 0 17 -19l7 14zM185 36l-19 27q5 6 16 28l-22 -9q-3 -2 -5 -2q-7 0 -13 10q-9 12 -12 14v-32q-9 -5 -30 -12
q1 -1 19 -7q13 1 14 -11.5t2 -24.5l6 11q3 15 15 15q5 0 16 -4t13 -3z" />
    <glyph glyph-name="u" unicode="u" horiz-adv-x="426" 
d="M406 581h-30q-18 0 -26 -8q1 -47 2 -93q8 -51 48 -68q-33 -5 -50 -66q-3 -24 1 -128q2 -84 -13 -127q-22 -63 -87 -85q-20 -6 -42 -6q-51 0 -92.5 30.5t-48.5 89.5l-4 106q-1 14 0 42q2 34 2 44q0 77 -52 97q41 19 47 72q1 47 1 93l-6 5h-53l-3 213l6 6h179l5 -4v-212
q-7 -3 -23.5 -3t-23.5 -5q1 -46 2 -91q8 -52 48 -71q-40 -12 -50 -63q-3 -36 3 -106q4 -13 20 -22q21 -5 81 2q9 3 21 18q-1 14 1 42t2 41q0 64 -44 85q29 19 41 52l2 58q2 34 -2 57q-7 3 -23.5 3t-23.5 5v213l185 1v-217zM387 674v5q-7 5 -15 7.5t-8 10.5q0 4 3 14t3 14
l-26 -20l-27 14q3 -10 11 -28l-25 -25l32 2q13 -20 15 -31l11 34zM303 739l-18 10l-2 20l-1 -7q-5 -8 -17 -7l-18 3l13 -17l-14 -19l22 5q3 -6 14 -14v14q2 6 11.5 8.5t9.5 3.5zM300 615l-12 12q-5 13 1 17l-9 -7q-15 -5 -20 3q0 -4 1 -5q7 -13 -9 -25q6 -1 16 2
q3 -6 11 -16l3 14q6 6 18 5zM114 742l-14 -4q-6 -4 -11 -4q-8 0 -14.5 10t-12.5 18l-1 -26q-5 -9 -35 -14l30 -17q-2 -11 -2 -30q9 8 25 24q9 -6 28 -13l-14 30zM171 649h-6q-3 -1 -6 -1q-12 0 -14 16l-2 -7q-6 -10 -22 -10q5 -3 13 -14q-4 -3 -5 -12q7 1 11 6q8 0 20 -9
q0 4 -1.5 6t-1.5 6q0 9 14 19zM349 412q-9 3 -25 11l-2 27l-17 -20l-23 7l11 -23q-7 -6 -14 -20l12 4q4 3 8 3q5 0 11 -10t9 -11q0 6 2 18q3 7 12 10q15 4 16 4zM89 624q-3 2 -11 4t-8 9q0 2 3 10t2 13l-19 -19q-6 4 -17 5l5 -9q2 -3 2 -6q0 -4 -5.5 -10t-6.5 -8h20l11 -17
l2 17q3 5 11.5 7t10.5 4zM128 402q-5 5 -16 23l16 20l-30 -6q-8 12 -15 14q3 -12 1 -16q-8 -15 -25 -18q7 -4 17 -4q14 -8 8 -30l20 21zM297 174q-9 5 -9 15q0 -6 1 18l-9 -8q-3 -2 -6 -2q-4 0 -10.5 6t-9.5 7l4 -22l-18 -14h14q8 2 11 -7l4 -14l5 10q1 8 7 8q1 0 5 -1h5
q5 0 6 4zM314 103h-15q-7 2 -11 17q-5 -20 -19 -20q-3 0 -6 1l9 -6q4 -4 5 -19l5 3q10 5 23 -6l-3 19q4 4 12 11zM177 162l-20 12q-7 5 -6 17q3 20 3 19l-23 -23l-30 12q5 -9 13 -28l-19 -23q5 -2 12.5 2t10.5 4q2 0 5 -1q6 -5 11 -16.5t8 -15.5q0 6 3 18q-3 14 11 18
q11 2 21 5zM224 51q-2 3 -7 6.5t-7 6.5q-1 6 4.5 15.5t6.5 12.5l-23 -9l-21 17l2 -8q3 -5 3 -9q0 -7 -10 -13l-15 -9h17q7 -3 13 -30l12 19z" />
    <glyph glyph-name="v" unicode="v" horiz-adv-x="434" 
d="M413 583l-52 -4l-6 -7q-1 -5 -9 -46q-6 -30 -6 -48q0 -48 37 -67q-37 -11 -52 -37l-14 -36l-68 -334q-41 -8 -72 0l-67 339q-15 41 -62 63q36 22 36 66q0 21 -8 54q-11 43 -12 51q-9 7 -28 7q-24 -1 -30 1v215h185l2 -215q-7 -4 -23.5 -3.5t-23.5 -4.5v-14l66 -325l6 8
l61 326q2 9 -6 10q-14 -2 -39 3l-2 215h187v-217zM394 758l-23 3q-1 0 -11 25l-13 -25h-23q6 -7 18 -18q-3 -7 -7 -23l11 8q3 4 8 4t13.5 -6t9.5 -6q0 6 -3 23q6 6 20 15zM305 706l-19 11q-1 8 1 22l-17 -14q-2 0 -9.5 4t-10.5 3q4 -6 8 -22l-13 -12h6q6 4 9 4
q5 0 9.5 -10.5t8.5 -12.5v6q0 12 11 16q8 3 16 5zM394 652l-34 -3l-18 28l-7 -32l-30 -8l28 -16l-3 -33l23 22q9 -6 29 -14q-2 8 -13 30q5 4 12.5 13t12.5 13zM113 751l-25 3q-8 4 -9 15q-1 15 -4 18l-9 -15q-2 -13 -11 -13q-4 0 -11.5 2.5t-11.5 2.5q-3 0 -5 -2l20 -23
l-12 -32l17 13q4 2 7 2q8 0 18.5 -9.5t13.5 -11.5q-3 11 -6 33q4 6 14 9.5t14 7.5zM148 641q-7 8 -7 16q0 9 7 16q-3 0 -7 -2q-9 -6 -23 10l1 -13q-5 -4 -17 -11l16 -9q0 -8 3 -14l9 11q0 -1 18 -4zM330 409q-1 1 -5 2q-8 3 -9 13v18l-10 -9q-2 -1 -4 -1q-4 0 -11.5 3.5
t-9.5 3.5l6 -19l-17 -14h21q3 -8 11 -24q0 1 7 22q14 3 21 5zM77 630l-19 7l-6 18l-6 -10q-2 -9 -10 -8q-12 2 -14 1l14 -15q-4 -7 -8 -21l19 8l17 -13v4q-3 4 -3 9q0 11 16 20zM144 429l-3 -3q-3 -2 -7 -2q-10 0 -26 20l-3 -24l-20 -6q7 -3 20 -11q3 -10 5 -18q2 12 10 12
q3 0 9 -1.5t9 -1.5t5 1l-8 8q-3 6 2 15q4 5 7 11zM240 170q-3 -1 -8.5 1t-8.5 1q-7 7 -9 22l-11 -18h-22q7 -6 15 -20l-3 -14l17 8q1 0 7 -6.5t11 -6.5q-4 3 -4 9l1 10q7 12 15 14zM236 74h-10q-6 2 -7 10.5t-5 10.5v-5q-5 -11 -21 -11q-4 0 -6 2l1 -2q16 -8 7 -28l4 3
q13 4 26 -9l1 1l-2 10q-2 5 1.5 8t10.5 10z" />
    <glyph glyph-name="w" unicode="w" horiz-adv-x="664" 
d="M632 584q-15 -1 -45 -4q-5 -8 -8 -23q-4 -22 -5 -25q-11 -38 -11 -58q0 -23 11 -39q1 -1 32 -25q-52 -17 -72 -75q-1 -1 -22 -104l-47 -228l-4 -3l-64 2l-72 342l-8 -15l-70 -329h-65l-72 336q-19 36 -25 44q-19 25 -42 26q34 10 37 46q3 26 -6 63q-14 60 -14 61
q-10 3 -28 3q-21 0 -29 1q-3 43 -3 109v109l3 2l189 -2v-214q-19 0 -52 -10q10 -48 20 -95q18 -54 61 -69q-25 -17 -33 -38q-2 -33 7 -73q9 -33 19 -67l3 3l37 173l33 168q-8 5 -24 5l-26 -1l-3 5v213l171 2l3 -9v-207q-5 -2 -28 -2q-18 1 -25 -8l72 -339q2 -1 3 -1
q10 22 16 60q5 31 9 62q-1 26 -33 50q47 13 61 69q10 49 19 98q-5 9 -18 9q-4 0 -11.5 -1t-11.5 -1q-8 0 -14 4v214h185v-214zM620 778q-7 -1 -21 -8l-14 16v-11q-10 -13 -15 -13q0 -1 4 -1q8 -3 8 -25l14 12q6 -2 18 -8l-2 8q-7 4 -7 9q0 3 7.5 10.5t7.5 10.5zM556 718
q-9 9 -24 27q10 19 11 28l-23 -12q-8 0 -29 17l3 -30l-28 -17l27 -3q7 -6 12 -36l18 30zM612 664l-22 3l-6 22l-13 -22l-20 3l17 -17q-3 -8 -9 -22l22 11q5 -5 17 -13l-3 22q7 8 17 13zM524 640l-19 2q-3 6 -11 20l-3 -12q-7 -12 -25 -10l16 -16l-6 -20l20 13l17 -11
q0 3 -1 4q-9 19 12 30zM391 697h-3q-14 5 -13 31l-14 -13q-7 3 -20 8l7 -14q3 -7 -5.5 -13.5t-9.5 -9.5l22 3l12 -19v8q10 17 24 19zM328 767l-28 -5l-14 21l-2 -22q-3 -6 -14 -8.5t-12 -4.5l21 -12v-22l19 17q9 -3 25 -9l-12 22zM342 648q-8 4 -26 5q-8 3 -9.5 17.5
t-3.5 18.5l-19 -30l-30 3q5 -7 18 -19q2 -7 -3 -16q-5 -12 -5 -17l20 10q8 1 17 -8q14 -13 16 -14l-6 22q1 10 13 17q9 5 18 11zM540 394l-11 9q-1 5 9 27l-23 -6l-16 15l2 -15q-3 -12 -18 -19l11 -2q8 -1 9.5 -12t3.5 -13q4 6 13 17q11 -4 20 -1zM174 772q-5 0 -15 1
q-6 2 -7.5 9t-3.5 9l-2 -7q-2 -7 -9.5 -8.5t-13.5 -2.5q5 -5 14 -15q-6 -6 -5 -14l6 6q6 3 12 0l12 -5l-2 14q8 12 14 13zM104 736q-3 4 -8.5 5t-10.5 3q-10 2 -11 15q-2 20 -2 21q-5 -4 -10 -13.5t-10 -13.5q-6 0 -16.5 3t-16.5 3l19 -22q1 -2 1 -5q0 -4 -6.5 -12.5
t-3.5 -13.5l10 5q7 4 11 4q7 0 15 -10.5t14 -12.5l-3 30zM170 662q-4 0 -8.5 -2.5t-6.5 -2.5q-6 0 -12 9l-8 12l-2 -19q-1 -6 -8 -7q-10 -2 -12 -4l17 -11v-22q6 6 19 17q7 -6 17 -4l-3 3q-6 4 -6 9q0 4 6 11t7 11zM370 419l-28 17l2 31l-22 -21q-30 10 -30 11l11 -29
l-20 -22q6 -1 17 4q4 1 7 1q9 0 15 -13q8 -17 11 -20l3 30q4 7 14.5 8.5t19.5 2.5zM85 634h-22q-1 0 -11 19l-3 -14q-4 -5 -14 -6.5t-11 -1.5q10 -4 12 -13.5t3 -18.5l15 11q5 -4 18 -9q-4 21 -4 16q0 4 8 9.5t9 7.5zM455 152l-11 17q0 5 4.5 11.5t5.5 9.5l-21 -5l-14 19
l2 -19q-3 -5 -12.5 -8t-13.5 -6q8 -2 21 -8q0 -9 3 -20q4 5 14 16zM151 425h-24l-9 21q0 -1 -2 -16q-1 -10 -7.5 -10.5t-12.5 -6.5h5q7 -3 9 -13v-17l11 11q5 3 13 0q9 -4 10 -3l-4 9q-2 3 -2 6q0 4 6 10.5t7 8.5zM450 69q-16 15 -1 31q-2 1 -6.5 -1.5t-8.5 -2.5
q-10 0 -17 6q2 -3 2 -6q0 -6 -16 -19l16 -5l5 -17q0 3 2 7.5t24 6.5zM242 163l-17 13l4 23q-6 -3 -19 -11l-20 11q3 -5 5.5 -10t0.5 -10q-6 -9 -15 -16l17 -1q5 -3 9 -11l5 -10l3 10q0 9 9 10.5t18 1.5zM243 78h-4q-11 3 -14 24q-4 -18 -29 -8l5 -8q5 -10 -8 -25l19 5
l11 -11l2 8q4 8 18 15z" />
    <glyph glyph-name="x" unicode="x" horiz-adv-x="429" 
d="M409 3l-180 -3l-3 5v212q5 6 16 4q12 -2 17 0v8q-24 46 -52 83h-3q-17 -29 -53 -87q2 -3 25 -5q6 -1 9 -5l4 -210l-4 -3l-180 -2l-2 215q22 6 47 5q24 40 75 120q5 14 -10 37l-15 10q1 2 14 8t15 15q8 18 -3 36q-25 44 -82 129h-25q-15 -1 -19 8l2 212l14 3h165
q5 -42 5 -110q0 -110 -1 -110q-6 -3 -19.5 -3t-18.5 -1v-6q16 -33 57 -92q16 17 33 47q14 24 28 49q-6 5 -21.5 4.5t-20.5 8.5v212q34 3 88 3h90l3 -3l3 -215q0 -1 -29 -2q-17 -1 -24 -12q-10 -22 -36 -65t-36 -67q-2 -21 25 -37q4 0 5 -1l-18 -13q-11 -8 -13 -17l4 -26
q25 -40 75 -119l45 -3l4 -3v-214zM369 753q-10 -1 -29 -3l-17 28l-3 -19q1 -14 -12 -15.5t-26 -3.5l30 -20l-3 -14q-1 -9 1 -14q7 8 22 21q8 -5 30 -13l-11 30zM385 627q-29 11 -25 31l-9 -13q-6 -2 -13 -1l-14 3l10 -12q2 -3 2 -6q0 -4 -5.5 -10t-6.5 -8q7 2 22 5
q1 -1 14 -17q-1 5 2 15q10 13 23 13zM296 658l-11 -3q-3 -3 -7 -3t-9 7l-7 11q4 -30 -22 -31q13 3 17 -11q2 -9 5 -18l14 15l17 -3l-8 17zM165 730l-14 -2q-6 6 -12 19l-2 -5q-6 -19 -23 -17q2 -4 15 -11q1 -6 -1 -17l14 9q3 0 8.5 -2t8.5 -2l-6 15zM84 744l-3 3q-9 2 -9 8
q0 3 3.5 11t2.5 12q-3 -3 -9.5 -6.5t-9.5 -5.5l-20 14l3 -8q4 -5 4 -9t-18 -21q4 2 14 2q13 -10 16 -25l11 21q7 0 9 -1q3 0 6 5zM158 617q-8 2 -32 11v31l-21 -23l-30 11l17 -28q-8 -10 -19 -27l32 7q6 -10 17 -30l3 30q3 8 16 11t17 7zM257 398l-17 4q-14 0 -14 14
q-1 21 -3 24l-9 -21q-5 -6 -13 -6q-5 0 -15 3t-14 3l17 -21q1 -4 1 -7q0 -6 -7 -15.5t-8 -13.5l18 7q5 5 10 5t13 -9.5t13 -9.5q1 4 -1 25q5 6 29 18zM398 173h-7q-8 3 -12 25l-13 -13q-21 2 -17 4l5 -5q9 -11 -3 -25q4 3 8 3q10 0 21 -14q0 7 2 19q6 1 16 6zM318 161
q-2 4 -11 8.5t-12 8.5q1 9 4 26l-23 -17q-13 11 -22 11l9 -22l-18 -18h25l12 -26l5 22q4 7 14 7h17zM390 51l-14 18q-3 7 5.5 19t8.5 17l-30 -8l-18 25l-2 -25q-4 -8 -15 -11q-15 -4 -18 -6q11 -8 24 -10q7 -4 6 -18.5t1 -17.5l21 24q5 1 15.5 -4t15.5 -3zM296 51h-9
q-7 4 -10 13q-4 15 -4 16l-13 -16l-23 5q1 -1 11 -14q6 -12 -6 -24l4 3q4 2 7 2q6 0 26 -19l-1 24zM147 142l-22 22q5 10 12 31l-29 -13l-25 21l3 -33l-27 -17l27 -3q7 -4 9 -16q1 -15 3 -19l17 30zM167 55h-16q-4 2 -6 7.5t-3 10.5l-10 -15q-2 0 -17 -3l14 -14
q-8 -10 -3 -14q3 7 9 7q5 0 11.5 -4t7.5 -3q-2 4 -2 7q0 9 15 21zM73 92q-6 1 -17 -1q-5 3 -7.5 10t-4.5 13l-2 -8q-1 -8 -10 -14t-15 -5q12 -3 13 -14q-1 5 -2 -20l10 9q14 6 27 -7q0 6 -6 17q0 6 5 11z" />
    <glyph glyph-name="y" unicode="y" horiz-adv-x="433" 
d="M412 792l-3 -216l-48 -3l-34 -58q-19 -35 -19 -63q0 -12 3 -22.5t17 -20.5q-9 -3 -28 -7q-45 -20 -53 -76q-1 -51 -3 -102q9 -6 26 -4q22 2 27 1l3 -5l-3 -213q-2 0 -185 -3l-3 3v217q19 -2 54 6q0 12 1.5 38t1.5 38q0 69 -43 92l-36 14q8 1 23 23v31q-17 39 -57 116
q-9 3 -26 3h-27l3 216q37 4 95 3l95 -3l-3 -219q-6 -4 -18 -4q-15 0 -20 -1v-6q17 -37 53 -108h3q21 36 55 112q-8 4 -37 5v218q37 2 93 1q91 -3 93 -3zM359 769l-20 -10l-17 16l2 -20q-1 -1 -21 -13l18 -3q5 -3 5 -11q2 -11 2 -12l13 17l17 -3q1 4 -2 7l-6 5q-1 6 4 14.5
t5 12.5zM389 638q-11 3 -11 27l-6 -7q-7 -4 -24 7l4 -5q6 -16 -8 -28q4 4 8 4q5 0 18 -18q1 4 3.5 10t15.5 10zM279 744q-7 4 -8 26l-5 -3q-14 -5 -22 5l3 -9q-1 -9 -14 -21h16l8 -18q5 24 22 20zM328 668l-25 1q-10 1 -12 14q-4 17 -6 20l-16 -31q-21 4 -28 2l20 -22
l-9 -31q9 5 28 16l26 -21l-4 33q10 6 26 19zM121 739q-8 4 -26 8q-8 5 -6 18q2 14 0 19l-11 -15q-4 -13 -12 -13q-5 0 -15 5.5t-14 5.5q5 -13 16 -25q2 -6 -6 -15.5t-8 -15.5q5 2 14 5q6 5 10 5q6 0 14 -12.5t13 -14.5v28q4 6 16.5 10.5t14.5 6.5zM170 651q-6 0 -22 6
q-1 8 -6 20l-11 -19q-8 0 -21 2l10 -11q3 -3 3 -7q0 -3 -4 -9.5t-4 -9.5l20 7l17 -12q0 4 -2 6.5t-2 6.5q0 6 10 12t12 8zM297 403l-12 20q0 3 4.5 9t3.5 9l-18 -7l-15 19v-20q-9 -4 -19 -11q8 -4 11 -3q7 -3 8 -12v-16l17 18q3 0 9.5 -3.5t10.5 -2.5zM72 612l-13 20l9 15
q-6 1 -17 -1q-5 6 -15 19l1 -18q0 -6 -9.5 -9t-10.5 -4l17 -10q-2 -7 3 -22l2 5q4 11 13 11q2 0 20 -6zM179 411l-2 1q-7 6 -7 13q0 3 7 22l-18 -8l-17 16l3 -19l-24 -13q8 -2 22 -9l3 -20l11 18q4 2 10 0q6 -3 8 -3t4 2zM280 178h-17l-9 15v-4q-5 -12 -25 -15q14 -2 12 -26
q3 8 10 8q4 0 10.5 -3.5t7.5 -2.5q-2 3 -2 7q0 11 13 21zM205 165l-28 8q-5 5 -5 15l1 18l-25 -24q-24 7 -27 7q5 -6 18 -25l-18 -28q15 2 28 9q7 -2 13 -13t12 -14l3 35q11 2 28 12zM274 64l-13 14q2 8 7 23l-16 -7q-4 -2 -9.5 2.5t-10.5 7.5l3 -18q-2 -5 -9.5 -8t-7.5 -8
h12q7 -2 9.5 -13t3.5 -12l9 19h22zM187 47l-17 14l3 19l-11 -8q-3 -2 -5 -2q-4 0 -10 6t-8 7l4 -22q-6 -5 -19 -16l24 -1l9 -19l2 8q0 10 9.5 11.5t18.5 2.5z" />
    <glyph glyph-name="z" unicode="z" horiz-adv-x="300" 
d="M285 316l-3 -314l-276 -2l-3 3v204l75 152q2 5 2 10q0 19 -27 39q51 11 86 68q26 50 51 101l-3 3q-10 -1 -30 0q-23 2 -30 2q-38 0 -49 -29l-2 -73h-73l-3 3v312l9 3l161 2l111 -3q0 -3 3 -206l-66 -131q-4 -29 5 -39q5 -4 15 -13q-51 -13 -87 -75l-54 -108l4 -5l88 3
q20 13 19 45q0 48 1 53l73 2zM254 740q-8 6 -20 5q-3 4 -4 12t-4 11l-12 -18l-19 1l9 -12q3 -5 0 -11.5t-6 -12.5q22 14 36 -6v20q0 1 20 11zM264 603l-18 14q-2 7 3 16t5 12q-5 -3 -25 -12q-13 10 -20 15l5 -26l-19 -16h20q5 -3 7 -12t4 -11l3 8q6 13 35 12zM181 662
q-3 3 -6 8q-8 14 1 24l-1 -2q-18 -6 -27 6l3 -7q-2 -8 -18 -18h4q11 0 16 -20l9 13zM109 736l-34 9q-1 11 -6 31l-13 -28q-11 2 -34 2q6 -6 19 -17q1 -9 -5 -18q-7 -13 -8 -17l22 10q8 1 16.5 -7t16.5 -15l-3 33q1 1 29 17zM95 616l-23 14q2 13 1 25l-15 -17q-7 -3 -13 2
q-9 5 -12 5l11 -23l-16 -19q5 0 14 2q3 1 6 1q6 0 10 -9q6 -12 9 -14q-1 9 2 25q3 5 13 5t13 3zM178 402l-17 13q1 6 1 20q-4 -4 -12 -11q-14 -7 -24 1v-3q8 -4 8 -9q0 -4 -6.5 -12t-5.5 -11l20 3l14 -20v18q3 6 10 8t12 3zM257 184l-11 14l8 20q-3 1 -7.5 -2t-7.5 -3
q-5 0 -12 7.5t-9 8.5v-20q-2 -4 -10.5 -5.5t-10.5 -5.5q-1 0 12 -3q16 -10 14 -25l12 17q23 -3 22 -3zM175 153h-25q-3 2 -13 25l-9 -25l-25 -3l22 -18q-7 -11 -5 -23l11 9q4 4 8 4t11 -5.5t9 -5.5l-6 25zM260 45l-23 25q11 29 11 30l-20 -13q-4 -1 -7 -1t-26 18q0 1 6 -32
q-10 -6 -25 -19l27 -3q5 -4 6.5 -16.5t4.5 -14.5l15 29zM69 190h-8q-12 3 -17 16q-2 -10 -8 -17q-5 0 -14 -2q10 -2 11 -29l8 7q4 5 10 2q5 -2 10 -5q1 3 -1.5 6t-2.5 6q0 5 12 16zM91 28l-18 19q1 4 5.5 12t4.5 11l-24 -9q-6 6 -18 17l3 -27l-22 -13l19 -2q6 -2 7 -10
t2 -15q4 6 14 19z" />
  </font>
</defs>
</svg>
