<?xml version="1.0" standalone="no"?>
<!DOCTYPE svg PUBLIC "-//W3C//DTD SVG 1.1//EN" "http://www.w3.org/Graphics/SVG/1.1/DTD/svg11.dtd" >
<svg>
<metadata>
Created by FontForge 20120731 at Wed Oct 16 15:59:30 2019
 By www-data
Copyright (c) 2015 by MA^ns Grebck. All rights reserved.
</metadata>
<defs>
<font id="MerryChristmasStar" horiz-adv-x="299" >
  <font-face 
    font-family="Merry Christmas Star"
    font-weight="400"
    font-stretch="normal"
    units-per-em="1000"
    panose-1="0 0 0 0 0 0 0 0 0 0"
    ascent="750"
    descent="-250"
    x-height="518"
    cap-height="682"
    bbox="-224 -367 1177 912"
    underline-thickness="50"
    underline-position="-50"
    unicode-range="U+000D-FB02"
  />
<missing-glyph horiz-adv-x="256" 
 />
    <glyph glyph-name=".notdef" horiz-adv-x="256" 
 />
    <glyph glyph-name="NULL" horiz-adv-x="0" 
 />
    <glyph glyph-name="NULL" horiz-adv-x="0" 
 />
    <glyph glyph-name="nonmarkingreturn" unicode="&#xd;" horiz-adv-x="256" 
 />
    <glyph glyph-name="space" unicode=" " horiz-adv-x="256" 
 />
    <glyph glyph-name="A_alt" horiz-adv-x="877" 
d="M594 488q24 30 52.5 65t61.5 65.5t71 51t80 22.5l8 -33q-39 -21 -68.5 -62t-52.5 -89.5t-40.5 -98t-31.5 -87.5q-12 -31 -30.5 -75.5t-34.5 -94.5q18 2 37 11t42 26q5 -6 9 -14.5t8 -15.5q-24 -14 -50.5 -25t-54.5 -13q-13 -48 -15.5 -92t14.5 -76q7 -13 32 -21
q5 -19 -1 -27.5t-17.5 -9.5t-25.5 4t-26 13q-17 11 -26.5 28t-14.5 33q-12 41 -11.5 83.5t9.5 86.5q-20 13 -38 34q-27 -40 -60.5 -84t-71 -82.5t-78 -67t-81 -38t-79.5 5t-73 61.5q-17 26 -22.5 57t-2.5 61q8 64 46 114q12 15 25 27q-5 25 -8 49t-0.5 47.5t12.5 46t32 43.5
q23 22 50.5 32.5t56.5 11.5t58 -7.5t54 -25.5q32 -22 57.5 -60.5t50.5 -80.5q35 52 71.5 102t76.5 99zM269 176q-38 29 -81 20q-22 -4 -41.5 -16t-35.5 -28.5t-28 -36.5t-18 -41q-7 -22 -6.5 -44t11.5 -40t30 -28.5t39 -12.5q31 -4 60 10t55.5 39.5t50 59.5t44.5 68.5
t39.5 67t33.5 55.5l9 14q-15 25 -33.5 49t-40.5 41.5t-48.5 27.5t-59.5 9q-28 -1 -54 -12.5t-45.5 -30.5t-30.5 -43.5t-9 -51.5q14 8 29 14.5t32 9.5q19 3 38 0t35 -12t27.5 -24t15.5 -34zM614 384q16 32 35.5 66.5t41.5 68.5t47 66t53 58q-31 -14 -58 -40t-50.5 -58.5
t-44.5 -69.5t-38.5 -73.5t-33.5 -70.5t-29 -59t-37 -63q7 -8 13.5 -15.5t14.5 -13.5q15 55 38.5 107t47.5 97z" />
    <glyph glyph-name="a" unicode="a" horiz-adv-x="294" 
d="M317 353l-101 -217l-2 -4q-17 -35 -21 -52.5t9 -17.5q20 0 43 32.5t49 88.5l23 -24q-36 -77 -74 -119.5t-84 -42.5q-5 0 -15 2q1 -29 2 -46.5t3.5 -28.5t5 -16.5t6.5 -8.5q3 -4 8 -6.5t15.5 -5t29.5 -3.5t50 -2q-30 0 -49 -1.5t-30 -3.5t-16.5 -5t-9.5 -7q-3 -4 -6 -10
t-4.5 -18.5t-3 -33.5t-1.5 -55q0 34 -1.5 55.5t-3.5 34t-5 18.5t-6 9q-4 4 -10 7t-17 5t-29.5 3.5t-48.5 1.5q30 1 48.5 2t29.5 3.5t16.5 5t9.5 6.5q4 3 6.5 8.5t4.5 16.5t3.5 28.5t1.5 46.5q-33 6 -36 44q-30 -29 -60.5 -41.5t-56.5 3.5q-26 17 -24 66t33 111
q29 59 59 97.5t58 59.5t53 26t43 -3q14 -7 19 -19l5 10h81zM167 194q11 25 20.5 47t14 39.5t4 29t-9.5 16.5q-8 5 -21.5 -4.5t-29 -27.5t-31.5 -43t-28 -51q-11 -23 -19 -45.5t-12 -41.5t-3.5 -32t8.5 -16q7 -4 20 6t28 28.5t31 43.5t28 51zM154 520q4 -5 14 -7.5t44 -2.5
q-33 -1 -43.5 -3.5t-15.5 -6.5q-2 -3 -4 -7.5t-3 -14.5t-1.5 -28t-0.5 -47q0 29 -0.5 47t-2 28t-3 14.5t-4.5 7.5q-5 4 -15 6.5t-44 3.5q32 0 43 2.5t16 7.5q4 4 6.5 14.5t3.5 43.5q1 -33 3 -43.5t7 -14.5z" />
    <glyph glyph-name="exclam" unicode="!" horiz-adv-x="238" 
d="M373 551l-240 -370h-45l175 370h110zM126 57q-6 -23 -27 -40t-45 -17q-23 0 -35.5 17t-5.5 40q6 23 27 39.5t45 16.5q23 0 35 -16.5t6 -39.5z" />
    <glyph glyph-name="B" unicode="B" horiz-adv-x="760" 
d="M389 479q16 -3 24.5 -10.5t12 -16.5t2.5 -18.5t-3 -16.5q-4 -12 -14.5 -24.5t-27.5 -20.5t-37.5 -10t-43.5 4q-26 6 -47 27q-17 15 -26 38q-16 38 -10 73.5t27.5 66t54 55.5t69.5 42.5t74.5 27t69.5 8.5q45 0 85.5 -14t69 -41t41.5 -66t3 -89q-8 -42 -29.5 -78t-52.5 -64
q32 -27 54.5 -61.5t26.5 -69.5q3 -36 -5 -71t-24.5 -66.5t-40 -59t-51.5 -48.5q-40 -30 -92 -50t-108.5 -28.5t-113 -4t-106 24.5t-88.5 56.5t-59 91.5q-16 44 -13 88.5t25 79.5q9 13 22.5 26.5t29.5 23t33.5 13t34.5 -2.5q2 -2 4 -2q14 -7 23.5 -19.5t10.5 -27.5
q0 -14 -2 -19.5t-7 -7t-12 -0.5t-16 2q-11 2 -28 -5t-32 -27q-14 -19 -22 -49.5t-2 -65.5q6 -34 29 -66.5t65 -48.5q54 -21 117 -18.5t122 24t109 59.5t79 87q13 24 20 51.5t5.5 55.5t-11.5 53t-29 43q-8 -5 -16 -8.5t-16 -6.5q-11 -5 -24 -9.5t-27 -8.5l-14 -47
q-11 -30 -26 -73.5t-38 -84t-54.5 -70t-73.5 -30.5q-11 0 -20 4t-10 15q0 6 2 11.5t7.5 13t14 19.5t21.5 31q30 46 53.5 97.5t51.5 120.5q-7 3 -12 12t-5 16q-1 12 4 23.5t13.5 22t19 18.5t19.5 13q12 32 27 63.5t33.5 58.5t40.5 47.5t49 30.5q-33 32 -81.5 43t-97.5 1
t-90.5 -39.5t-58.5 -78.5q-10 -29 3.5 -53t41.5 -28q25 -3 45 9t28 33zM589 380q8 8 13.5 15.5t8.5 12.5q9 15 15.5 34.5t8.5 40.5t-0.5 41.5t-11.5 37.5q-35 -21 -57 -64.5t-38 -94.5q29 -6 61 -23zM166 403q4 -5 14 -7.5t44 -2.5q-33 -1 -43.5 -3.5t-15.5 -6.5
q-4 -5 -6 -15.5t-3 -43.5q-1 33 -3.5 43.5t-6.5 15.5q-5 4 -15 6.5t-44 3.5q32 0 43 2.5t16 7.5q4 4 6.5 14.5t3.5 43.5q1 -33 3 -43.5t7 -14.5zM477 -182q2 -2 7.5 -4t25.5 -3q-18 0 -24.5 -2t-9.5 -5q-2 -2 -4 -8.5t-2 -24.5q-1 18 -3 24.5t-4 8.5q-3 3 -9.5 5t-25.5 2
q20 1 26 3t9 4q2 3 4 9t3 26q0 -19 2 -25.5t5 -9.5zM512 343q-2 -8 -4 -14.5t-4 -14.5q16 8 36 23q-12 4 -28 6z" />
    <glyph glyph-name="C" unicode="C" horiz-adv-x="497" 
d="M278 399q27 -13 63.5 -11.5t74.5 14t72.5 34t58.5 50t32 61.5t-7 67q-8 17 -24.5 25t-36.5 9.5t-40 -2t-33 -8.5q-48 -19 -89 -53.5t-75 -77.5t-60.5 -91t-47.5 -93q-15 -34 -34.5 -83.5t-29 -101t-2.5 -98.5t43 -76q28 -23 65.5 -21t65.5 25q25 21 40.5 47t23.5 52
q12 41 6.5 83.5t-34.5 74.5q34 17 64.5 3t41.5 -53q13 -44 2.5 -84.5t-35.5 -74t-61.5 -59.5t-77 -40t-81 -14.5t-73.5 15t-54.5 49.5t-24.5 90q-3 64 14.5 127.5t48.5 122.5t70 114t79 103q20 25 51 52.5t66.5 51t73.5 40.5t74 20.5t67 -9.5t52 -49t20 -72.5t-17.5 -71
t-45 -65.5t-63 -55.5t-72 -40.5t-70.5 -20q-28 -4 -48.5 2t-32 19t-12 32t11.5 41zM355 -196q3 -4 8 -6.5t15.5 -5t29.5 -3.5t50 -2q-30 0 -49 -1.5t-30 -3.5t-16.5 -5t-9.5 -7q-3 -4 -6 -10t-4.5 -18.5t-3 -33.5t-1.5 -55q0 34 -1.5 55.5t-3.5 34t-5 18.5t-6 9q-4 4 -10 7
t-17 5t-29.5 3.5t-48.5 1.5q30 1 48.5 2t29.5 3.5t16.5 5t9.5 6.5q3 4 6 9.5t5 16.5t3.5 29.5t2.5 48.5q0 -30 1.5 -48.5t3.5 -29.5t5 -16.5t7 -9.5zM116 563q4 -5 14 -7.5t44 -2.5q-33 -1 -43.5 -3.5t-15.5 -6.5q-4 -5 -6 -15.5t-3 -43.5q-1 33 -3.5 43.5t-6.5 15.5
q-5 4 -15 6.5t-44 3.5q32 0 43 2.5t16 7.5q4 4 6.5 14.5t3.5 43.5q1 -33 3 -43.5t7 -14.5zM53 -154q2 -2 7.5 -4t25.5 -3q-18 0 -24.5 -2t-9.5 -5q-2 -2 -4 -8.5t-2 -24.5q-1 18 -3 24.5t-4 8.5q-3 3 -9.5 5t-24.5 2q19 1 25 3t9 4q2 3 4 9t3 26q0 -19 2 -25.5t5 -9.5z" />
    <glyph glyph-name="D" unicode="D" horiz-adv-x="788" 
d="M383 479q21 0 31.5 -10t11 -25.5t-8 -32.5t-25.5 -30q-27 -21 -67 -19q-24 1 -45 11t-36 26.5t-22.5 37.5t-5.5 44q7 63 46 109.5t94 74.5t117.5 35.5t115.5 -8.5q52 -15 91 -45.5t64.5 -71t36.5 -89.5t8 -101q-6 -100 -51 -192.5t-117 -161.5q-31 -30 -72.5 -56
t-89 -45.5t-98.5 -29.5t-100 -7.5t-94 20t-80 52.5q-30 32 -48 69.5t-25 76.5t1 77t33 66q11 13 29.5 25.5t38.5 17.5q26 6 46 -5q23 -13 24.5 -36t-11.5 -43l-10 4t-10 3q-10 2 -24.5 -2t-28.5 -18t-24 -38t-12 -53t9 -61.5t37 -57.5t64 -37t81 -13q85 -2 158.5 29t131 85
t95.5 125.5t52 152.5q12 69 1 132t-54 111q-22 -19 -40 -54.5t-35 -81.5t-33.5 -98.5t-34.5 -104.5t-38.5 -100t-45.5 -84t-55.5 -57t-68.5 -20q-17 0 -27 8t-8 20q2 13 14 25t33 41q30 42 54 86.5t46 91.5q18 38 38 90t45 103.5t56.5 95.5t72.5 65q-29 27 -68.5 37.5
t-80.5 8.5t-80 -15.5t-66 -35.5q-27 -23 -43 -53.5t-14 -56.5q3 -27 23 -39t39 -11q23 1 37 13.5t22 29.5zM126 403q4 -5 14 -7.5t44 -2.5q-33 -1 -43.5 -3.5t-15.5 -6.5q-4 -5 -6 -15.5t-3 -43.5q-1 33 -3.5 43.5t-6.5 15.5q-5 4 -15 6.5t-44 3.5q32 0 43 2.5t16 7.5
q4 4 6.5 14.5t3.5 43.5q1 -33 3 -43.5t7 -14.5zM552 -150q2 -2 7.5 -4t25.5 -3q-18 0 -24.5 -2t-9.5 -5q-2 -3 -4 -10t-2 -30q-1 23 -2.5 30t-4.5 10t-9.5 5t-25.5 2q20 1 26 3t9 4q2 3 4 9t3 26q0 -19 2 -25.5t5 -9.5zM180 658q2 -3 8 -5t25 -2q-18 -1 -24.5 -3t-9.5 -4
q-2 -3 -4 -10.5t-2 -30.5q-1 23 -2.5 30.5t-4.5 10.5q-3 2 -9 4t-26 3q19 0 25.5 2t9.5 5q2 2 4 8.5t3 24.5q0 -18 2 -24.5t5 -8.5z" />
    <glyph glyph-name="E" unicode="E" horiz-adv-x="563" 
d="M409 427q20 -2 45 5t48.5 20.5t44 32.5t32 40.5t11 46t-17.5 48.5q-21 29 -48 31t-56 -14t-56.5 -44.5t-49 -60.5t-34 -63.5t-11.5 -51.5q1 -14 8 -26.5t21 -15.5q22 2 39.5 -1t15.5 -23q-1 -6 -6.5 -12t-20.5 -4q-37 5 -76 -7.5t-74 -37.5t-64.5 -60t-48 -74.5
t-23 -80.5t9.5 -78q13 -33 41.5 -45.5t61.5 -11.5t66 12.5t55 26.5q43 30 69.5 76t22.5 96q-2 16 -14 32t-25 23q11 16 26 22.5t29.5 5t27.5 -9.5t21 -22q22 -39 17.5 -80t-27 -79.5t-60 -70.5t-82.5 -52q-34 -15 -70 -22t-71.5 -3.5t-69 18.5t-61.5 45q-31 32 -40 72.5
t-2.5 82t25.5 81t45 69.5q41 48 92.5 74.5t110.5 33.5q-16 11 -27.5 29t-15.5 41t0.5 50.5t20.5 56.5q13 24 37 48t54 43.5t64 32.5t67 15.5t63.5 -8.5t52.5 -39q29 -36 31.5 -82t-14.5 -88t-51.5 -73.5t-79.5 -37.5q-44 -6 -65 13.5t-14 54.5zM344 -187q3 -4 8 -6.5
t15.5 -5t29.5 -3.5t50 -2q-30 0 -49 -1.5t-30 -3.5t-16.5 -5t-9.5 -7q-3 -3 -6 -9t-4.5 -17t-3 -29.5t-1.5 -48.5q-1 30 -2.5 49t-3.5 30t-4.5 16.5t-5.5 8.5q-4 4 -10 7t-17 5t-29.5 3.5t-48.5 1.5q30 1 48.5 2t29.5 3.5t16.5 5t9.5 6.5q3 3 6 8.5t5 16.5t3.5 29t2.5 47
q0 -29 1.5 -47t3.5 -29t5 -16.5t7 -8.5zM146 443q4 -5 14 -7.5t44 -2.5q-33 -1 -43.5 -3.5t-15.5 -6.5q-4 -5 -6 -16.5t-3 -49.5q0 19 -1 30.5t-2 19t-3 11t-4 5.5q-5 4 -15 6.5t-44 3.5q32 0 43 2.5t16 7.5q4 4 6.5 14.5t3.5 43.5q1 -33 3 -43.5t7 -14.5zM36 -154
q2 -2 7.5 -4t25.5 -3q-18 0 -24.5 -2t-9.5 -5q-2 -2 -4 -8.5t-2 -24.5q-1 18 -3 24.5t-4 8.5q-3 3 -9.5 5t-23.5 2q18 1 24 3t9 4q2 3 4 9t3 26q0 -19 2 -25.5t5 -9.5z" />
    <glyph glyph-name="F" unicode="F" horiz-adv-x="587" 
d="M23 -41q-18 32 -20.5 69t7 73.5t29.5 69t48.5 55t63 32.5t73.5 1q11 -3 25.5 -12.5t20.5 -25.5q7 21 21 32.5t32.5 15.5t40 2.5t42.5 -5.5l23 46q15 28 32.5 65t39 72t46.5 63t54 37q-35 15 -69 32.5t-68.5 31t-71 20t-76.5 -1.5q-22 -5 -40 -17t-30.5 -29t-19 -37.5
t-5.5 -42.5q1 -20 9.5 -34.5t21.5 -23.5t29 -12t33 2q22 5 38 22t18 40q18 1 30 -6.5t17 -19.5t2.5 -27.5t-11.5 -31.5q-11 -17 -31 -30t-46 -16q-26 -4 -53 5.5t-48 30.5q-19 19 -30 42.5t-14 48.5t1 50.5t16 48.5q20 39 50 64t66 36t76.5 9.5t81.5 -15.5q16 -5 42 -17.5
t57.5 -27.5t67 -29.5t69.5 -24t65.5 -12t56 6.5t39.5 32.5t16 66.5l29 1q1 -50 -19 -84.5t-53.5 -54.5t-76 -25.5t-85.5 2.5q-8 2 -15.5 3.5t-15.5 3.5q-22 -4 -43 -31.5t-41 -68t-40 -88t-39 -92.5q43 -9 80 -12t57 15l18 -30q-46 -27 -90 -28.5t-88 3.5l-16 -32
q-34 -64 -75.5 -123.5t-104.5 -100.5q-22 -14 -50.5 -24.5t-58.5 -14.5t-59.5 0.5t-51.5 22.5q-17 13 -29 34zM275 156q-17 22 -42.5 30.5t-52.5 4t-52.5 -21t-43.5 -43.5q-14 -21 -25.5 -45t-13.5 -53q-2 -28 10.5 -53.5t39.5 -32.5q42 -11 81.5 10t75 60t66 89t55.5 98
q-26 -3 -50 -12.5t-48 -30.5zM62 -166q2 -2 5 -4t9 -3t16.5 -2t27.5 -1q-33 -1 -44 -3.5t-15 -6.5t-6 -14.5t-3 -43.5q-1 33 -3.5 43.5t-6.5 14.5q-2 2 -5.5 4t-9.5 3t-16.5 2t-26.5 1q16 0 26.5 1t16.5 2t9.5 3t5.5 4q4 5 6.5 15.5t3.5 43.5q1 -33 3 -44t7 -15zM390 -161
q2 -2 7.5 -4t25.5 -3q-18 0 -24.5 -2t-9.5 -5q-2 -2 -3 -5t-1.5 -10t-1 -19.5t-0.5 -33.5q0 21 -0.5 33.5t-1 19.5t-2 10t-3.5 5q-3 3 -9.5 5t-25.5 2q20 1 26 3t9 4q2 3 4 9t3 26q0 -19 2 -25.5t5 -9.5zM92 426q2 -3 8 -5t25 -2q-18 -1 -24.5 -3t-9.5 -4q-2 -2 -3 -5
t-1.5 -10t-1 -19.5t-0.5 -33.5q0 21 -0.5 33.5t-1 19.5t-2 10t-3.5 5q-3 2 -9 4t-26 3q19 0 25.5 2t9.5 5q2 2 4 8.5t3 24.5q0 -18 2 -24.5t5 -8.5z" />
    <glyph glyph-name="G" unicode="G" horiz-adv-x="531" 
d="M308 399q27 -16 62.5 -14.5t72 15.5t70 37.5t57 52.5t32.5 61t-3 62q-11 27 -38.5 34t-62 -1t-71 -28.5t-64.5 -47.5q-28 -26 -52.5 -57.5t-45 -64t-36 -64t-25.5 -58.5q-10 -26 -18.5 -55t-13.5 -58q18 4 36.5 3.5t35.5 -7.5q24 -10 33.5 -28.5t10.5 -37.5q1 -20 -7 -22
t-23.5 2.5t-37.5 9.5t-48 0q3 -23 14 -47q6 -13 16 -26.5t23 -23t28 -13t32 4.5q28 12 49 33.5t38 47.5t33 54t33.5 54t40 47.5t52.5 33.5l14 -31q-32 -21 -54 -51t-39 -64.5t-31.5 -72t-30.5 -73t-36.5 -68t-49.5 -57.5q-21 -19 -50 -29t-60 -12t-61.5 4.5t-55.5 20.5
q-26 15 -42.5 42.5t-21.5 56.5q-8 53 9.5 106t55.5 91q1 53 17.5 105.5t38.5 95.5q38 76 93 143.5t124 116.5q25 17 62.5 35.5t76.5 27t75.5 2t59.5 -38.5q25 -34 25.5 -72.5t-15.5 -76.5t-45.5 -73t-64.5 -62t-72.5 -43t-69.5 -16q-35 0 -54.5 10t-27 24.5t-5 31t11.5 28.5
zM56 -35q1 -22 10.5 -41t28.5 -30t43 -13t47 4q53 13 87.5 48.5t60.5 82.5q-6 -7 -12.5 -12.5t-14.5 -10.5q-24 -18 -52 -21.5t-55 5t-50.5 25.5t-38.5 40q-12 16 -18 35q-18 -24 -28 -53.5t-8 -58.5zM146 573q4 -5 14 -7.5t44 -2.5q-33 -1 -43.5 -3.5t-15.5 -6.5
q-4 -5 -6 -15.5t-3 -43.5q-1 33 -3.5 43.5t-6.5 15.5q-5 4 -15 6.5t-44 3.5q32 0 43 2.5t16 7.5q4 4 6.5 14.5t3.5 43.5q1 -33 3 -43.5t7 -14.5zM407 -171q2 -2 7.5 -4t25.5 -3q-18 0 -24.5 -2t-9.5 -5q-2 -2 -3 -5t-1.5 -10t-1 -19.5t-0.5 -33.5q0 21 -0.5 33.5t-1 19.5
t-2 10t-3.5 5q-3 3 -9.5 5t-25.5 2q20 1 26 3t9 4q2 3 4 9t3 26q0 -19 2 -25.5t5 -9.5zM58 -221q2 -2 7.5 -4t25.5 -3q-18 0 -24.5 -2t-9.5 -5q-2 -3 -4 -10t-2 -30q-1 23 -2.5 30t-4.5 10t-9.5 5t-25.5 2q20 1 26 3t9 4q2 3 4 9t3 26q0 -19 2 -25.5t5 -9.5z" />
    <glyph glyph-name="H" unicode="H" horiz-adv-x="771" 
d="M541 564q-25 40 -70 59q-27 11 -54.5 11.5t-52.5 -9t-46 -27t-34 -42.5q-9 -17 -14.5 -40.5t-4 -46t11.5 -41t31 -27.5q21 -8 41 -2t33 22q8 11 11.5 25.5t1.5 28.5q24 8 39.5 -3t17.5 -37q2 -18 -5 -33.5t-19 -28t-27.5 -21t-30.5 -12.5q-20 -5 -42 -1t-40 16
q-22 14 -34.5 35t-18 46t-4.5 50.5t6 48.5q10 42 35 74.5t59.5 53t75.5 27.5t83 -2q31 -6 59 -21t51 -35l118 59l16 -30q-18 -4 -31 -16.5t-26.5 -36t-28 -57t-35.5 -79.5q-25 -55 -49.5 -109.5t-50.5 -108.5l79 -21q5 12 10 23l10 22q27 58 66.5 124.5t89 125.5
t109.5 103.5t128 58.5l12 -32q-50 -23 -92.5 -63t-78.5 -89t-65.5 -101.5t-53.5 -98.5q-8 -14 -20.5 -38.5t-26.5 -55.5q35 -5 63.5 -4.5t48.5 14.5q5 -5 8.5 -14t7.5 -16q-35 -17 -71.5 -20.5t-74.5 -1.5q-15 -38 -26.5 -77t-12 -72t12.5 -57t46 -31q0 -16 -15 -24
t-34.5 -4.5t-40 19.5t-31.5 47q-17 49 -12 103.5t23 106.5q-23 4 -44.5 7.5t-43.5 5.5q-5 -9 -9.5 -18t-9.5 -18q-17 -32 -36 -63t-41.5 -59.5t-48.5 -53.5t-58 -44q-26 -15 -61.5 -26.5t-71.5 -12t-67.5 13t-49.5 47.5q-17 32 -18.5 69.5t9 74.5t32 70.5t50.5 56.5
t63.5 33.5t71.5 2.5q17 -4 33.5 -18.5t18.5 -31.5q7 21 20.5 33.5t31 18t39 6t44.5 -2.5q24 45 45.5 89.5t43 86.5t44.5 81t50 72zM289 159q-10 13 -26 19t-34 7.5t-35.5 -1t-29.5 -6.5q-39 -12 -71 -51q-14 -18 -23.5 -46t-10.5 -56t9 -51.5t35 -31.5q42 -14 82.5 6
t76.5 59t67.5 90t56.5 98q-26 -4 -50 -12t-47 -24zM489 -197q3 -4 8 -6.5t15.5 -5t29.5 -3.5t50 -2q-30 0 -49 -1.5t-30 -3.5t-16.5 -5t-9.5 -7q-3 -4 -6 -10t-4.5 -18.5t-3 -33.5t-1.5 -55q0 34 -1.5 55.5t-3.5 34t-5 18.5t-6 9q-4 4 -10 7t-17 5t-29.5 3.5t-48.5 1.5
q30 1 48.5 2t29.5 3.5t16.5 5t9.5 6.5q3 4 6 9.5t5 16.5t3.5 29.5t2.5 48.5q0 -30 1.5 -48.5t3.5 -29.5t5 -16.5t7 -9.5zM116 403q4 -5 14 -7.5t44 -2.5q-33 -1 -43.5 -3.5t-15.5 -6.5q-4 -5 -6 -16.5t-3 -49.5q0 19 -1 30.5t-2 19t-3 11t-4 5.5q-5 4 -15 6.5t-44 3.5
q32 0 43 2.5t16 7.5q4 4 6.5 14.5t3.5 43.5q1 -33 3 -43.5t7 -14.5zM84 -179q2 -2 7.5 -4t25.5 -3q-18 0 -24.5 -2t-9.5 -5q-2 -3 -4 -10t-2 -30q-1 23 -2.5 30t-4.5 10t-9.5 5t-25.5 2q20 1 26 3t9 4q2 3 4 9t3 26q0 -19 2 -25.5t5 -9.5z" />
    <glyph glyph-name="R" unicode="R" horiz-adv-x="730" 
d="M361 479q24 0 34.5 -12t10 -28t-11 -33t-26.5 -27q-30 -19 -61.5 -19t-57.5 15t-42 42.5t-13 64.5q4 55 40 100.5t89 75.5t113.5 42t114.5 1.5t92 -46t45 -101.5q4 -38 -4.5 -72.5t-24.5 -63.5q-11 -19 -41.5 -49t-68.5 -56q19 -34 37 -78.5t36.5 -91t39.5 -91.5
t47 -78.5t57.5 -52.5t72.5 -14q10 -17 5.5 -30.5t-16 -23.5t-28 -15.5t-30.5 -6.5q-45 -4 -85 21t-63 63q-27 44 -41.5 90t-23.5 94t-17 96.5t-21 98.5q-14 -7 -27 -12.5t-26 -9.5q-15 -40 -31 -83t-35.5 -84.5t-45 -79t-58.5 -66.5q-41 -36 -92.5 -51t-105.5 -3
q-17 4 -33.5 14t-27.5 25q-20 27 -24.5 59.5t1.5 66t20.5 65t34.5 54.5q16 19 38 35.5t46.5 26.5t51 12.5t50.5 -5.5q21 -8 36 -24t18 -38q3 -25 -1.5 -28.5t-17.5 1t-35.5 11t-55.5 3.5q-24 -3 -45.5 -13.5t-39.5 -27t-31.5 -37.5t-21.5 -43q-9 -23 -9 -50.5t14 -47.5
t41.5 -23.5t52.5 5.5q42 16 75.5 57t60 91.5t47.5 101.5t38 88q0 1 0.5 1.5t0.5 1.5q-5 5 -8 11q-5 8 -5 17t2 15q6 17 20.5 28t32.5 19q14 28 29 54.5t33 52.5q10 14 22.5 28.5t26 27t27 22t25.5 14.5q-5 5 -10.5 10t-10.5 10q-21 17 -53.5 27.5t-68 12t-72 -6.5t-65.5 -26
t-48 -46.5t-20 -69.5q-1 -18 8.5 -29.5t23.5 -17t30.5 -4.5t30.5 8q21 12 29 35zM601 464q5 21 5.5 44t-6.5 44q-17 -10 -31.5 -30t-27.5 -44.5t-23.5 -52.5t-19.5 -54q15 -9 27 -24q29 21 48.5 51.5t27.5 65.5zM457 -137q3 -4 8 -6.5t15.5 -5t29.5 -3.5t50 -2
q-30 0 -49 -1.5t-30 -3.5t-16.5 -5t-9.5 -7q-3 -3 -6 -9t-4.5 -17t-3 -29.5t-1.5 -48.5q-1 30 -2.5 49t-3.5 30t-4.5 16.5t-5.5 8.5q-4 4 -10 7t-17 5t-29.5 3.5t-48.5 1.5q30 1 48.5 2t29.5 3.5t16.5 5t9.5 6.5q3 4 6 9.5t5 16.5t3.5 29.5t2.5 48.5q0 -30 1.5 -48.5
t3.5 -29.5t5 -16.5t7 -9.5zM91 370q4 -5 14 -7.5t44 -2.5q-33 -1 -43.5 -3.5t-15.5 -6.5q-2 -3 -4 -7.5t-3 -14.5t-1.5 -28t-0.5 -47q0 29 -0.5 47t-2 28t-3 14.5t-4.5 7.5q-5 4 -15 6.5t-44 3.5q32 0 43 2.5t16 7.5q4 4 6.5 14.5t3.5 43.5q1 -33 3 -43.5t7 -14.5zM213 715
q2 -3 8 -5t25 -2q-18 -1 -24.5 -3t-9.5 -4q-2 -3 -4 -10.5t-2 -30.5q-1 23 -2.5 30.5t-4.5 10.5q-3 2 -9 4t-26 3q19 0 25.5 2t9.5 5q2 2 4 8.5t3 24.5q0 -18 2 -24.5t5 -8.5zM488 340l-8 -24l21 11z" />
    <glyph glyph-name="Q" unicode="Q" horiz-adv-x="733" 
d="M174 464q22 -3 30 -14.5t7.5 -26.5t-7 -29t-14.5 -21q-16 -15 -41.5 -20t-51.5 3q-41 13 -61.5 40.5t-24.5 62.5t7 72.5t32.5 69.5t51.5 54.5t64 27.5q41 6 74 -1t61 -22.5t51.5 -37.5t46.5 -46q21 22 44 44t47.5 41t50.5 34t52 23q45 13 77.5 2.5t53.5 -35t32 -59.5
t12 -71q3 -69 -21 -148t-65 -156.5t-95.5 -147.5t-113.5 -120q17 -20 35.5 -38.5t39.5 -32.5t44 -22.5t49 -9.5q6 -15 3 -27.5t-11.5 -21.5t-21.5 -15t-27 -9q-30 -6 -59 3.5t-53.5 28t-43.5 43t-29 48.5q-66 -39 -126 -39t-102 55q-29 37 -35.5 83t2.5 96t30 100.5t47 97.5
t54 88t51 70l32 41q-21 21 -43 39.5t-44.5 33t-45.5 23.5t-48 9q-23 1 -42.5 -7.5t-34.5 -22.5t-25.5 -32.5t-16.5 -37.5q-6 -17 -4 -34t9.5 -31t21 -24t30.5 -13q20 -4 39 6t26 33zM451 9q28 28 53.5 62t46.5 69t38 69t29 62q12 27 27.5 63.5t26.5 76.5l-9 -6
q-41 -26 -77.5 -27.5t-70 13t-65.5 41t-63 56.5q-21 -33 -38 -64t-29 -55q-8 -16 -20 -39.5t-24.5 -52t-25 -60t-21.5 -63.5q36 6 66.5 -4.5t56.5 -32t50.5 -50t48.5 -58.5zM657 638q-27 28 -60.5 24t-66.5 -23.5t-60.5 -46.5t-42.5 -46q34 -37 71.5 -68.5t87.5 -43.5
q33 -7 59 4q27 11 37.5 37.5t10 57.5t-10.5 60t-25 45zM220 117q-11 -48 -7 -88.5t31 -66.5q30 -27 70 -24q35 3 70 22q-14 30 -31 63.5t-37 58.5t-44 36.5t-52 -1.5zM66 243q4 -5 14 -7.5t44 -2.5q-33 -1 -43.5 -3.5t-15.5 -6.5q-4 -5 -6 -15.5t-3 -43.5q-1 33 -3.5 43.5
t-6.5 15.5q-2 2 -5.5 3.5t-9.5 3t-16.5 2.5t-26.5 1q32 0 42.5 2.5t15.5 7.5q4 4 6.5 14.5t3.5 43.5q1 -33 3 -43.5t7 -14.5zM335 -201q2 -2 7.5 -4t25.5 -3q-18 0 -24.5 -2t-9.5 -5q-2 -3 -4 -10t-2 -30q-1 23 -2.5 30t-4.5 10t-9.5 5t-25.5 2q20 1 26 3t9 4q2 3 4 9t3 26
q0 -19 2 -25.5t5 -9.5zM445 746q2 -3 8 -5t25 -2q-18 -1 -24.5 -3t-9.5 -4q-2 -3 -4 -10.5t-2 -30.5q-1 23 -2.5 30.5t-4.5 10.5q-3 2 -9 4t-26 3q19 0 25.5 2t9.5 5q2 2 4 8.5t3 24.5q0 -18 2 -24.5t5 -8.5z" />
    <glyph glyph-name="P" unicode="P" horiz-adv-x="713" 
d="M340 471q23 -4 31 -18t6 -30.5t-12.5 -32.5t-24.5 -23q-22 -12 -47 -13t-47.5 7t-40.5 25t-26 40q-15 43 -7.5 80.5t31.5 68t60 54t77 39t83.5 22.5t79.5 5q39 -2 76.5 -14.5t69 -34.5t55.5 -53t37 -70q20 -58 17.5 -109t-22.5 -93.5t-54 -76.5t-77.5 -58t-93 -38
t-100.5 -17q-20 -48 -45.5 -91t-60.5 -77q-24 -22 -58 -39.5t-70.5 -23.5t-71.5 2t-60 37q-22 25 -29.5 58t-3.5 66.5t17 66t32 57.5q15 21 37 37.5t47.5 27t52 12.5t50.5 -7q20 -7 35 -23t18 -38q2 -17 -2 -23t-12.5 -5t-19 5t-21.5 7q-33 7 -63.5 0.5t-55.5 -23.5
t-43 -42.5t-26 -55.5q-7 -25 -5.5 -53t20.5 -45q24 -22 54 -22.5t64.5 26.5t72.5 84t79 149q27 62 50 123t55 121q26 48 54.5 87t72.5 63q-27 18 -62.5 28t-73.5 12t-75.5 -5t-68.5 -24t-51.5 -44.5t-24.5 -66.5q-2 -19 5.5 -33t20.5 -22t29.5 -9t32.5 6q12 5 20 15t13 22z
M467 290q-11 -31 -21 -63t-22 -64q35 1 69 10t64 26t54 42.5t39 60.5q15 34 19.5 71t-1.5 72t-23 67.5t-44 59.5q-19 -8 -34.5 -27.5t-28.5 -46t-24 -57t-20 -59.5t-15.5 -53.5t-11.5 -38.5zM503 -61q3 -4 8 -6.5t15.5 -5t29.5 -3.5t50 -2q-30 0 -49 -1.5t-30 -3.5t-16.5 -5
t-9.5 -7q-3 -4 -6 -10t-4.5 -18.5t-3 -33.5t-1.5 -55q0 34 -1.5 55.5t-3.5 34t-5 18.5t-6 9q-4 4 -10 7t-17 5t-29.5 3.5t-48.5 1.5q30 1 48.5 2t29.5 3.5t16.5 5t9.5 6.5q3 4 6 9.5t5 16.5t3.5 29.5t2.5 48.5q0 -30 1.5 -48.5t3.5 -29.5t5 -16.5t7 -9.5zM102 380
q4 -5 14 -7.5t44 -2.5q-33 -1 -43.5 -3.5t-15.5 -6.5q-4 -5 -6 -16.5t-3 -49.5q0 19 -1 30.5t-2 19t-3 11t-4 5.5q-5 4 -15 6.5t-44 3.5q32 0 43 2.5t16 7.5q4 4 6.5 14.5t3.5 43.5q1 -33 3 -43.5t7 -14.5zM75 -204q2 -2 7.5 -4t25.5 -3q-18 0 -24.5 -2t-9.5 -5
q-2 -3 -4 -10t-2 -30q-1 23 -2.5 30t-4.5 10t-9.5 5t-25.5 2q20 1 26 3t9 4q2 3 4 9t3 26q0 -19 2 -25.5t5 -9.5z" />
    <glyph glyph-name="O" unicode="O" horiz-adv-x="727" 
d="M174 464q21 -4 30 -15t9 -25t-6.5 -28t-16.5 -23q-17 -14 -42.5 -19.5t-51.5 2.5q-41 13 -61 40.5t-24 62.5t7 72.5t32 69.5t51 54.5t64 27.5q41 6 74.5 -1t61.5 -22.5t51.5 -37.5t46.5 -46q21 22 44.5 44.5t48.5 42t51.5 34t52.5 22.5q44 13 76.5 2t53.5 -37t31.5 -62
t11.5 -71q1 -59 -16.5 -126t-49 -133.5t-74.5 -130t-91 -116t-99.5 -90.5t-100 -54t-92 -6.5t-75.5 51.5q-29 37 -35.5 83t2.5 96t30 100.5t47 97.5t54 88t51 70l32 41q-21 21 -43 39.5t-44.5 33t-45.5 23.5t-48 9q-43 2 -76 -28q-14 -13 -25 -30.5t-17 -37t-5 -39t12 -35.5
q14 -23 41 -30t50 6q7 4 14.5 13.5t8.5 17.5zM320 369q-11 -21 -27 -53t-31.5 -70.5t-29 -79.5t-18 -79.5t1.5 -71t28 -53.5q30 -27 70 -24q36 3 69 21t62.5 45.5t55.5 62t47.5 70.5t39 71t30.5 63q12 27 27.5 63.5t26.5 76.5l-9 -6q-41 -26 -77.5 -27.5t-70 13t-65.5 41
t-63 56.5q-21 -33 -38 -64t-29 -55zM657 638q-27 30 -60.5 28t-66.5 -21t-61 -48t-42 -51q34 -37 71.5 -68.5t87.5 -43.5q45 -11 71 10t33.5 55t-1 73t-32.5 66zM49 196q4 -5 14 -7.5t44 -2.5q-33 -1 -43.5 -3.5t-15.5 -6.5q-4 -5 -6 -15.5t-3 -43.5q-1 33 -3.5 43.5
t-6.5 15.5q-2 2 -5.5 3.5t-9.5 3t-16.5 2.5t-26.5 1q32 0 42.5 2.5t15.5 7.5q4 4 6.5 14.5t3.5 43.5q1 -33 3 -43.5t7 -14.5zM473 -176q2 -2 7.5 -4t25.5 -3q-18 0 -24.5 -2t-9.5 -5q-2 -2 -3 -5t-1.5 -10t-1 -19.5t-0.5 -33.5q0 21 -0.5 33.5t-1 19.5t-2 10t-3.5 5
q-3 3 -9.5 5t-25.5 2q20 1 26 3t9 4q2 3 4 9t3 26q0 -19 2 -25.5t5 -9.5zM417 756q2 -3 8 -5t25 -2q-18 -1 -24.5 -3t-9.5 -4q-2 -2 -3 -5t-1.5 -10t-1 -19.5t-0.5 -33.5q0 21 -0.5 33.5t-1 19.5t-2 10t-3.5 5q-3 2 -9 4t-26 3q19 0 25.5 2t9.5 5q2 2 4 8.5t3 24.5
q0 -18 2 -24.5t5 -8.5z" />
    <glyph glyph-name="N" unicode="N" horiz-adv-x="836" 
d="M1153 658q-48 -15 -90.5 -46t-79.5 -69.5t-69 -81t-59 -82.5q-17 -24 -40.5 -60t-47 -77.5t-44.5 -86.5t-32 -86.5t-8.5 -77t24.5 -59.5q0 -8 -3.5 -16.5t-5.5 -16.5q-31 13 -51 38.5t-33 58t-19 69.5t-8 73.5t-0.5 70.5t3.5 59q8 83 27.5 167.5t57.5 160.5
q-18 -26 -34.5 -57t-30 -62t-24 -58.5t-18.5 -45.5q-22 -49 -41.5 -100.5t-42 -101.5t-49 -97.5t-62.5 -88.5q-39 -44 -87.5 -66t-96 -24t-89 15t-65 51t-24 84t32.5 114q13 25 34 46.5t47 36t54.5 20t57.5 -1.5q23 -5 40.5 -22.5t21.5 -41.5q4 -29 -8 -29t-36 12
q-20 10 -46.5 9t-48.5 -11q-23 -10 -41.5 -26.5t-32.5 -36.5t-22.5 -43t-9.5 -45q-2 -28 10 -52t39 -34q37 -13 71.5 -6.5t66.5 26.5t60.5 49.5t53 62.5t44.5 65t35 57q31 54 58.5 108t54.5 108.5t55.5 108t62.5 106.5l-106 -57q-13 20 -29.5 33t-38.5 22q-27 12 -55 11.5
t-53.5 -10.5t-46 -28t-32.5 -41q-9 -17 -14.5 -40t-4 -45.5t11.5 -41t31 -27.5q21 -8 41 -2t33 22q8 11 11.5 25.5t1.5 28.5q24 8 40 -3t18 -37q1 -18 -5.5 -33.5t-18.5 -28t-27.5 -21t-30.5 -12.5q-20 -5 -42 -1t-41 16q-22 13 -34.5 34.5t-18 46t-4.5 50.5t6 49
q10 42 35 74.5t60 52.5t76 27.5t82 -1.5q31 -6 60.5 -21.5t52.5 -35.5l115 60l22 -23q-31 -71 -48 -143t-26.5 -145t-14 -148t-8.5 -152q26 94 65 183t86 170q12 21 30 51t41 62t50 63t56 54t60 34t62 4q20 -5 29.5 -18t10.5 -25zM554 -159q3 -4 8 -6.5t15.5 -5t29.5 -3.5
t50 -2q-30 0 -49 -1.5t-30 -3.5t-16.5 -5t-9.5 -7q-3 -3 -6 -9t-4.5 -17t-3 -29.5t-1.5 -48.5q-1 30 -2.5 49t-3.5 30t-4.5 16.5t-5.5 8.5q-4 4 -10 7t-17 5t-29.5 3.5t-48.5 1.5q30 1 48.5 2t29.5 3.5t16.5 5t9.5 6.5q3 4 6 9.5t5 16.5t3.5 29.5t2.5 48.5q0 -30 1.5 -48.5
t3.5 -29.5t5 -16.5t7 -9.5zM176 383q4 -5 14 -7.5t44 -2.5q-33 -1 -43.5 -3.5t-15.5 -6.5q-2 -3 -4 -7.5t-3 -14.5t-1.5 -28t-0.5 -47q0 29 -0.5 47t-2 28t-3 14.5t-4.5 7.5q-5 4 -15 6.5t-44 3.5q32 0 43 2.5t16 7.5q4 4 6.5 14.5t3.5 43.5q1 -33 3 -43.5t7 -14.5zM871 713
q2 -3 8 -5t25 -2q-18 -1 -24.5 -3t-9.5 -4q-2 -3 -4 -10.5t-2 -30.5q-1 23 -2.5 30.5t-4.5 10.5q-3 2 -9 4t-26 3q19 0 25.5 2t9.5 5q2 2 4 8.5t3 24.5q0 -18 2 -24.5t5 -8.5z" />
    <glyph glyph-name="J" unicode="J" horiz-adv-x="581" 
d="M525 551q-25 48 -67 70.5t-102 7.5q-24 -6 -44.5 -22.5t-34.5 -39.5t-20.5 -49t-3.5 -51t17 -46t41 -34q22 -10 41.5 -6.5t34 15t22.5 28.5t8 34q31 2 44.5 -12.5t11.5 -40.5q-3 -35 -31.5 -59t-66.5 -27q-22 -2 -44 3.5t-41 18.5q-32 22 -49.5 58.5t-20.5 77t8 80
t35 67.5q33 38 77 54.5t89.5 14t87 -21.5t68.5 -53l159 73l14 -31q-22 -7 -43.5 -32.5t-40.5 -56.5t-33 -60.5t-20 -42.5q-36 -74 -67 -150t-67 -151q-17 -35 -43 -76.5t-58.5 -80t-71 -69t-80 -43.5t-85 -3.5t-86.5 50.5q-28 27 -40.5 63t-12 75t12.5 76.5t32 67.5
q20 29 47.5 50t56.5 32t56.5 12t48.5 -5q23 -7 40.5 -23t23.5 -39q7 -24 -3 -28t-32 7q-18 9 -46 11.5t-66 -7.5q-20 -5 -40 -18.5t-37 -33.5q-20 -23 -32.5 -51.5t-15.5 -58.5t4.5 -57.5t28.5 -48.5q21 -22 55 -27.5t64 5.5q35 12 65 39t55.5 63.5t47.5 78.5t40.5 84t35 81
t31.5 69q34 67 73 131t84 113zM101 505q4 -5 14 -7.5t44 -2.5q-33 -1 -43.5 -3.5t-15.5 -6.5q-4 -5 -6 -16.5t-3 -49.5q0 19 -1 30.5t-2 19t-3 11t-4 5.5q-5 4 -15 6.5t-44 3.5q32 0 43 2.5t16 7.5q4 4 6.5 14.5t3.5 43.5q1 -33 3 -43.5t7 -14.5zM441 -108q2 -2 7.5 -4
t25.5 -3q-18 0 -24.5 -2t-9.5 -5q-2 -2 -3 -5t-1.5 -10t-1 -19.5t-0.5 -33.5q0 21 -0.5 33.5t-1 19.5t-2 10t-3.5 5q-3 3 -9.5 5t-25.5 2q20 1 26 3t9 4q2 3 4 9t3 26q0 -19 2 -25.5t5 -9.5zM101 -186q2 -2 7.5 -4t25.5 -3q-18 0 -24.5 -2t-9.5 -5q-2 -3 -4 -10t-2 -30
q-1 23 -2.5 30t-4.5 10t-9.5 5t-25.5 2q20 1 26 3t9 4q2 3 4 9t3 26q0 -19 2 -25.5t5 -9.5z" />
    <glyph glyph-name="K" unicode="K" horiz-adv-x="781" 
d="M541 563q-26 41 -71 60q-20 8 -45 10.5t-52 -5.5t-51 -26.5t-38 -46.5q-13 -23 -18 -57t7 -61q10 -24 32.5 -35t45.5 -3q24 9 35.5 29.5t8.5 46.5q23 8 39 -3t18 -37q2 -18 -5 -33.5t-19 -28t-27.5 -21t-30.5 -12.5q-20 -5 -42 -1t-41 16q-22 13 -34.5 34.5t-18 46
t-4.5 50.5t6 49q10 42 35 74.5t60 53t76 27.5t83 -2q30 -6 57 -20t50 -34l120 57l17 -30q-24 -8 -42 -31t-32.5 -51.5t-26 -58t-20.5 -48.5q-19 -39 -36 -77.5t-35 -77.5q8 0 18 -2.5t17 -7.5q27 19 51.5 45.5t46.5 54t42 55t38 48.5q48 57 86 98.5t76 63.5q49 29 96.5 21.5
t76.5 -45.5q16 -21 13 -29t-19 -11t-42.5 -6t-56.5 -13q-50 -17 -91 -52t-78 -71q-49 -46 -99 -96.5t-109 -87.5q20 -23 34 -56t25 -68t20.5 -67.5t20.5 -55.5q13 -29 30 -54t38.5 -42.5t48.5 -26t62 -5.5q13 -32 -5.5 -52t-53.5 -27q-23 -5 -43.5 -1t-39.5 13.5t-35 23.5
t-29 30q-32 40 -47 87t-24 96q-3 17 -5 41.5t-5.5 50.5t-9.5 51t-17 42q-32 -16 -68 -25l-41 -79q-17 -32 -36 -63.5t-41.5 -60t-48.5 -53t-58 -43.5q-26 -15 -60.5 -26.5t-70 -12.5t-67 12.5t-51.5 48.5q-18 32 -20.5 69.5t8 74t32 69.5t50.5 55.5t65 32t74 -0.5
q23 -6 40 -23.5t21 -40.5q5 -26 -7 -27t-37 10q-41 18 -86.5 2t-77.5 -55q-16 -19 -27 -44t-13 -53t10.5 -53.5t39.5 -32.5q39 -10 75.5 5.5t69.5 47.5t62.5 75t54.5 86.5t45 83t33 64.5q17 32 35 70t38.5 77.5t43 78t49.5 71.5zM124 403q4 -5 14 -7.5t44 -2.5
q-33 -1 -43.5 -3.5t-15.5 -6.5q-4 -5 -6 -15.5t-3 -43.5q-1 33 -3.5 43.5t-6.5 15.5q-5 4 -15 6.5t-44 3.5q32 0 43 2.5t16 7.5q4 4 6.5 14.5t3.5 43.5q1 -33 3 -43.5t7 -14.5zM475 -64q2 -2 7.5 -4t25.5 -3q-18 0 -24.5 -2t-9.5 -5q-2 -2 -3 -5t-1.5 -10t-1 -19.5
t-0.5 -33.5q0 21 -0.5 33.5t-1 19.5t-2 10t-3.5 5q-3 3 -9.5 5t-25.5 2q20 1 26 3t9 4q2 3 4 9t3 26q0 -19 2 -25.5t5 -9.5zM97 -201q2 -2 7.5 -4t25.5 -3q-18 0 -24.5 -2t-9.5 -5q-2 -3 -4 -10t-2 -30q-1 23 -2.5 30t-4.5 10t-9.5 5t-25.5 2q20 1 26 3t9 4q2 3 4 9t3 26
q0 -19 2 -25.5t5 -9.5zM550 287l-21 2l-6 -15z" />
    <glyph glyph-name="L" unicode="L" horiz-adv-x="678" 
d="M10 19q35 9 70.5 7.5t71.5 -9.5q27 11 49.5 30.5t41.5 44t35.5 52.5t31.5 56q-40 17 -69.5 47.5t-41.5 78.5q-8 34 1 42t21 -12q19 -30 51.5 -52t71.5 -36l11 21q24 47 50 102.5t56.5 108.5t68 99t85.5 75q22 13 47 17.5t48 -0.5t43 -20.5t32 -41.5q16 -36 15 -77
t-15.5 -82t-39 -80.5t-54.5 -74t-63 -61.5t-64 -43q-36 -18 -78.5 -26.5t-86.5 -5.5q-16 -28 -35.5 -56t-42.5 -52t-49.5 -43t-56.5 -28q46 -15 93.5 -33t96 -33t97.5 -22.5t100 0.5q8 -14 8 -28.5t-6 -28t-17 -24t-25 -16.5q-45 -17 -96 -3.5t-111 49.5q-33 19 -73.5 46.5
t-85 50t-91 33.5t-91.5 -2zM465 254q53 5 102 31.5t88.5 66t66.5 89t36 101.5q4 19 3 38t-9 35q-9 16 -22.5 25t-29.5 11t-32.5 -2t-29.5 -13q-38 -25 -66 -70.5t-51 -99.5t-42.5 -110.5t-40.5 -102.5h13.5t13.5 1zM177 -203q3 -4 8 -6.5t15.5 -5t29.5 -3.5t50 -2
q-30 0 -49 -1.5t-30 -3.5t-16.5 -5t-9.5 -7q-3 -4 -6 -10t-4.5 -18.5t-3 -33.5t-1.5 -55q0 34 -1.5 55.5t-3.5 34t-5 18.5t-6 9q-4 4 -10 7t-17 5t-29.5 3.5t-48.5 1.5q30 1 48.5 2t29.5 3.5t16.5 5t9.5 6.5q3 4 6 9.5t5 16.5t3.5 29.5t2.5 48.5q0 -30 1.5 -48.5t3.5 -29.5
t5 -16.5t7 -9.5zM296 473q4 -5 14 -7.5t44 -2.5q-33 -1 -43.5 -3.5t-15.5 -6.5q-4 -5 -6 -16.5t-3 -49.5q0 19 -1 30.5t-2 19t-3 11t-4 5.5q-5 4 -15 6.5t-44 3.5q32 0 43 2.5t16 7.5q4 4 6.5 14.5t3.5 43.5q1 -33 3 -43.5t7 -14.5zM515 -285q2 -2 7.5 -4t25.5 -3
q-18 0 -24.5 -2t-9.5 -5q-2 -2 -4 -8.5t-2 -24.5q-1 18 -3 24.5t-4 8.5q-3 3 -9.5 5t-25.5 2q20 1 26 3t9 4q2 3 4 9t3 26q0 -19 2 -25.5t5 -9.5z" />
    <glyph glyph-name="M" unicode="M" horiz-adv-x="883" 
d="M726 661q-42 -46 -68 -106t-43.5 -127.5t-28.5 -137.5t-21 -136q51 82 111.5 163t131 152t151.5 128.5t173 92.5l12 -32q-78 -34 -140.5 -93t-109 -131t-76 -149t-41 -146.5t-4 -124.5t35.5 -81q1 -8 -4.5 -17.5t-15 -15.5t-22.5 -8t-28 5q-37 17 -51.5 51t-13 79.5
t16.5 99.5t39 110t53.5 111t59.5 103q-32 -29 -70.5 -72.5t-78.5 -97t-78.5 -113t-70.5 -119.5l-33 8q-7 42 -10 101t1 125q-23 -51 -46 -110.5t-52.5 -115.5t-68.5 -101.5t-93 -68.5q-45 -19 -83 -16t-67.5 21.5t-49 49t-27.5 67.5t-2.5 76.5t25.5 76.5q13 24 34.5 45.5
t47 36t54.5 19.5t57 -3q26 -8 39.5 -26.5t16.5 -36t-3.5 -27t-19.5 1.5q-18 15 -42.5 17.5t-49.5 -4.5t-48 -23t-38 -37t-24.5 -48t-10.5 -53.5t9 -49t34 -33.5q42 -20 83.5 -9t81 43.5t76.5 82t69.5 105.5t60 114t48.5 109q10 58 29 114.5t46 98.5l-55 -36q-26 41 -71 60
q-27 12 -55 11t-53 -10.5t-45.5 -27.5t-32.5 -41q-9 -17 -14.5 -40t-4.5 -45.5t11 -41t31 -27.5q21 -8 41 -2t33 22q8 11 11.5 25.5t1.5 28.5q24 8 40 -3t18 -37q2 -32 -15 -54t-42.5 -32.5t-55 -9.5t-52.5 16q-22 13 -34.5 34.5t-18 46t-4.5 50.5t6 49q10 42 35 74.5
t60 52.5t76 27.5t82 -1.5q31 -6 58 -20t50 -34l119 57zM116 393q4 -5 14 -7.5t44 -2.5q-33 -1 -43.5 -3.5t-15.5 -6.5q-4 -5 -6 -15.5t-3 -43.5q-1 33 -3.5 43.5t-6.5 15.5q-5 4 -15 6.5t-44 3.5q32 0 43 2.5t16 7.5q4 4 6.5 14.5t3.5 43.5q1 -33 3 -43.5t7 -14.5zM843 716
q2 -3 8 -5t25 -2q-18 -1 -24.5 -3t-9.5 -4q-2 -3 -4 -10.5t-2 -30.5q-1 23 -2.5 30.5t-4.5 10.5q-3 2 -9 4t-26 3q19 0 25.5 2t9.5 5q2 2 4 8.5t3 24.5q0 -18 2 -24.5t5 -8.5zM515 -114q2 -2 7.5 -4t25.5 -3q-18 0 -24.5 -2t-9.5 -5q-2 -2 -4 -8.5t-2 -24.5q-1 18 -3 24.5
t-4 8.5q-3 3 -9.5 5t-25.5 2q20 1 26 3t9 4q2 3 4 9t3 26q0 -19 2 -25.5t5 -9.5z" />
    <glyph glyph-name="T" unicode="T" horiz-adv-x="575" 
d="M378 489q18 1 30 -6.5t17 -19.5t2.5 -27.5t-11.5 -31.5q-11 -17 -31 -30t-46 -16q-26 -4 -53 5.5t-48 30.5q-19 19 -30 42.5t-14 48.5t1 50.5t16 48.5q20 39 50 64t66 36t76.5 9.5t81.5 -15.5q20 -7 54 -24t76 -35q22 28 47.5 48.5t57.5 24.5l9 -33q-19 -1 -36 -18
t-31 -41q42 -17 83.5 -27t75 -5t54.5 29t23 76l29 1q1 -50 -19 -84.5t-53.5 -54.5t-76 -25.5t-85.5 2.5q-34 6 -66 19q-7 -17 -12 -30t-9 -21q-37 -79 -71 -158.5t-75 -156.5q-34 -64 -75.5 -123.5t-104.5 -100.5q-26 -16 -61 -28t-70.5 -13t-67 12t-50.5 47q-18 32 -20 69
t8.5 73.5t31.5 69t50 55.5t64 33t74 1q26 -6 41 -24.5t17 -38.5q3 -27 -8 -28t-30 10q-19 10 -41.5 12t-45.5 -4.5t-44 -21.5t-36 -39q-14 -21 -25.5 -45t-13.5 -53q-2 -28 10.5 -53.5t39.5 -32.5q38 -10 74 6.5t69 49t62 76.5t53.5 88.5t43.5 84.5t32 65l64 124t70 120
q-30 15 -59.5 29.5t-59.5 24.5t-62 14t-66 -3q-22 -5 -40 -17t-30.5 -29t-19 -37.5t-5.5 -42.5q1 -20 9.5 -34.5t21.5 -23.5t29 -12t33 2q22 5 38 22t18 40zM461 -169q3 -4 8 -6.5t15.5 -5t29.5 -3.5t50 -2q-30 0 -49 -1.5t-30 -3.5t-16.5 -5t-9.5 -7q-3 -3 -6 -9t-4.5 -17
t-3 -29.5t-1.5 -48.5q-1 30 -2.5 49t-3.5 30t-4.5 16.5t-5.5 8.5q-4 4 -10 7t-17 5t-29.5 3.5t-48.5 1.5q30 1 48.5 2t29.5 3.5t16.5 5t9.5 6.5q3 4 6 9.5t5 16.5t3.5 29.5t2.5 48.5q0 -30 1.5 -48.5t3.5 -29.5t5 -16.5t7 -9.5zM116 413q4 -5 14 -7.5t44 -2.5
q-33 -1 -43.5 -3.5t-15.5 -6.5q-4 -5 -6 -15.5t-3 -43.5q-1 33 -3.5 43.5t-6.5 15.5q-5 4 -15 6.5t-44 3.5q32 0 43 2.5t16 7.5q4 4 6.5 14.5t3.5 43.5q1 -33 3 -43.5t7 -14.5zM95 -174q2 -2 7.5 -4t25.5 -3q-18 0 -24.5 -2t-9.5 -5q-2 -3 -4 -10t-2 -30q-1 23 -2.5 30
t-4.5 10t-9.5 5t-25.5 2q20 1 26 3t9 4q2 3 4 9t3 26q0 -19 2 -25.5t5 -9.5z" />
    <glyph glyph-name="U" unicode="U" horiz-adv-x="653" 
d="M672 658q-49 -13 -92.5 -45t-81.5 -72.5t-71 -85t-61 -83.5t-62 -86.5t-64 -100t-50.5 -107t-21.5 -106.5q-1 -22 14 -33t37 -5q24 7 49.5 29t51.5 54t52 71t50 79.5t45 80t39 71.5q30 55 68.5 115.5t85.5 113t102 91t117 51.5l12 -32q-50 -23 -92.5 -63.5t-78.5 -89.5
t-65.5 -101.5t-53.5 -98.5q-9 -17 -25.5 -49t-33.5 -70.5t-30.5 -79.5t-16 -76.5t9.5 -61t47 -32.5q-2 -17 -16.5 -29.5t-34.5 -16.5t-41.5 1.5t-36.5 23.5q-21 25 -18.5 65t16 82t31 79.5t25.5 59.5q-29 -51 -60 -103t-65.5 -95.5t-71 -73t-75.5 -35.5q-11 -2 -28.5 -1
t-33.5 11q-36 22 -45 61t0 85.5t31 97t48.5 96.5t51.5 83t40 58q19 26 45 58t55.5 63.5t61 61t62.5 51.5l-170 -56q-13 20 -30 35t-39 24q-20 8 -45 11t-52 -5q-26 -7 -53.5 -25.5t-41.5 -45.5q-10 -19 -14.5 -41.5t-2 -43.5t13 -39t30.5 -27q20 -8 40.5 -3.5t34.5 19.5
q8 11 12 24.5t1 27.5q23 8 41 -2.5t17 -36.5q-1 -33 -19 -54t-43.5 -30t-54 -6.5t-50.5 16.5q-27 17 -41 41.5t-17 53t3.5 58.5t20 57.5t32.5 50.5t41 37q35 22 73 29t75.5 1.5t73 -23t64.5 -43.5l271 69zM94 -215q2 -2 5 -4t9 -3t16.5 -2t27.5 -1q-33 -1 -44 -3.5t-15 -6.5
q-2 -2 -3.5 -5.5t-2.5 -10.5t-2 -19t-1 -31q0 19 -1 31t-2 19t-3 10.5t-4 5.5t-5.5 4t-9.5 3t-16.5 2t-27.5 1q16 0 26.5 1t17 2t10 3t5.5 4q4 5 6.5 15.5t3.5 43.5q1 -33 3 -44t7 -15zM416 -177q2 -2 7.5 -4t25.5 -3q-18 0 -24.5 -2t-9.5 -5q-2 -2 -4 -8.5t-2 -24.5
q-1 18 -3 24.5t-4 8.5q-3 3 -9.5 5t-25.5 2q20 1 26 3t9 4q2 3 4 9t3 26q0 -19 2 -25.5t5 -9.5zM67 252q2 -3 8 -5t25 -2q-18 -1 -24.5 -3t-9.5 -4q-2 -3 -4 -10.5t-2 -30.5q-1 23 -2.5 30.5t-4.5 10.5q-3 2 -9 4t-26 3q19 0 25.5 2t9.5 5q2 2 4 8.5t3 24.5q0 -18 2 -24.5
t5 -8.5z" />
    <glyph glyph-name="V" unicode="V" horiz-adv-x="663" 
d="M1009 657q-11 3 -28 -1t-23 -6q-48 -19 -93.5 -59.5t-89.5 -94t-87.5 -116t-87.5 -125.5q-34 -49 -65.5 -100t-62.5 -97.5t-60.5 -85t-58.5 -61t-57.5 -25.5t-56.5 20q-32 27 -44 64t-10.5 80t14.5 89t31 91q22 54 48 101.5t46 79.5q29 47 69.5 101t90.5 98l-161 -47
q-13 20 -30 35t-39 24q-27 11 -54.5 11t-53 -9t-46 -26t-32.5 -40q-14 -25 -19 -56t6 -60q10 -23 32.5 -34.5t45.5 -4.5q25 7 36 27.5t8 43.5q24 8 41 -2.5t17 -36.5q0 -32 -18 -53t-43.5 -30t-54 -7t-50.5 16q-40 27 -51.5 69t-2.5 86t34 83t59 60q35 22 73 29t75.5 1.5
t72.5 -23t64 -43.5l271 69l8 -33q-31 -4 -61 -23t-57.5 -45.5t-51.5 -58t-43 -62t-33 -55.5t-22 -39q-10 -18 -28 -52.5t-37.5 -76.5t-37.5 -88.5t-29 -90t-11.5 -79t15.5 -56.5q12 -16 31.5 -6.5t44 37t53 71t59.5 96.5t64 112.5t66 119.5q13 25 35 63t50.5 80.5t61.5 83.5
t69 72t74 46t75 5q21 -6 42 -21q12 -9 16.5 -16t4 -11.5t-4.5 -6.5t-8 -1zM505 -151q3 -4 8 -6.5t15.5 -5t29.5 -3.5t50 -2q-30 0 -49 -1.5t-30 -3.5t-16.5 -5t-9.5 -7q-3 -3 -6 -9t-4.5 -17t-3 -29.5t-1.5 -48.5q-1 30 -2.5 49t-3.5 30t-4.5 16.5t-5.5 8.5q-4 4 -10 7
t-17 5t-29.5 3.5t-48.5 1.5q30 1 48.5 2t29.5 3.5t16.5 5t9.5 6.5q3 4 6 9.5t5 16.5t3.5 29.5t2.5 48.5q0 -30 1.5 -48.5t3.5 -29.5t5 -16.5t7 -9.5zM137 240q4 -5 14 -7.5t44 -2.5q-33 -1 -43.5 -3.5t-15.5 -6.5q-4 -5 -6 -15.5t-3 -43.5q-1 33 -3.5 43.5t-6.5 15.5
q-5 4 -15 6.5t-44 3.5q32 0 43 2.5t16 7.5q4 4 6.5 14.5t3.5 43.5q1 -33 3 -43.5t7 -14.5zM100 -193q2 -2 7.5 -4t25.5 -3q-18 0 -24.5 -2t-9.5 -5q-2 -2 -4 -8.5t-2 -24.5q-1 18 -3 24.5t-4 8.5q-3 3 -9.5 5t-25.5 2q20 1 26 3t9 4q2 3 4 9t3 26q0 -19 2 -25.5t5 -9.5z" />
    <glyph glyph-name="W" unicode="W" horiz-adv-x="823" 
d="M672 659q-49 -14 -92.5 -47.5t-81.5 -76t-70 -88.5t-58 -86q-25 -37 -52 -83t-52 -92.5t-45 -91t-31.5 -79.5t-11.5 -56t17 -22q23 -1 47.5 13.5t48 35.5t45.5 44.5t39 40.5q4 30 13 60t20.5 58.5t25 56t25.5 51.5q7 14 25 46t42.5 71t53.5 78t59 68t58.5 41.5t51.5 -2.5
q17 -11 9 -43.5t-31.5 -76t-57.5 -93.5t-68 -96t-63.5 -82.5t-44.5 -54.5q-13 -23 -23.5 -52.5t-17.5 -58t-9 -53.5t2 -40t14.5 -16t29.5 18q45 46 84.5 103.5t76.5 120.5t72.5 126.5t70.5 121.5q15 24 38.5 61t52.5 76t63 74t70 57t73.5 24.5t73.5 -23.5q13 -9 13 -15
t-6.5 -10t-17 -7t-18.5 -6q-29 -11 -58.5 -33t-57.5 -49q-64 -64 -119.5 -136t-109.5 -145q-55 -75 -107.5 -152t-110.5 -149q-11 -14 -26.5 -34t-34 -36.5t-39.5 -25.5t-43 -1q-16 6 -26.5 19.5t-17 30.5t-9.5 34.5t-4 31.5q-28 -29 -56 -54.5t-55 -42t-53 -21.5t-50 9
q-36 20 -43.5 60t3 90t35 104.5t52 104.5t54 89.5t41.5 60.5q35 48 81 102t100 99l-158 -47q-13 20 -30 35t-39 24q-20 8 -45 11t-52 -5q-26 -7 -50.5 -25t-38.5 -45q-14 -25 -19.5 -56.5t5.5 -59.5q5 -13 14.5 -22t20.5 -14q20 -8 41 -4t33 20q9 11 12 25t2 27
q23 8 39 -2.5t18 -36.5q1 -18 -6 -34t-19.5 -28t-28.5 -19.5t-32 -10.5q-20 -3 -41 2t-39 16q-40 27 -51.5 69t-2.5 86t34.5 83t58.5 60q35 22 73 29t75.5 1.5t72.5 -23t65 -43.5l271 69zM725 573q-11 6 -32 -20t-47.5 -72t-55.5 -106t-56 -122q32 42 63 85t60 88
q10 16 24 39.5t26 46.5t18 40.5t0 20.5zM126 -191q2 -2 5 -4t9 -3t16.5 -2t27.5 -1q-33 -1 -44 -3.5t-15 -6.5q-2 -3 -4 -7.5t-3 -14.5t-1.5 -28t-0.5 -47q0 29 -0.5 47t-2 28t-3 14.5t-4.5 7.5q-2 2 -5.5 4t-9.5 3t-16.5 2t-27.5 1q16 0 26.5 1t17 2t10 3t5.5 4
q4 5 6.5 15.5t3.5 43.5q1 -33 3 -44t7 -15zM600 -151q2 -2 7.5 -4t25.5 -3q-18 0 -24.5 -2t-9.5 -5q-2 -3 -4 -10t-2 -30q-1 23 -2.5 30t-4.5 10t-9.5 5t-25.5 2q20 1 26 3t9 4q2 3 4 9t3 26q0 -19 2 -25.5t5 -9.5zM54 228q2 -3 8 -5t25 -2q-18 -1 -24.5 -3t-9.5 -4
q-2 -3 -4 -9.5t-2 -25.5q-1 20 -3 26t-4 9q-3 2 -9 4t-25 3q18 0 24.5 2t9.5 5q2 2 4 8.5t3 24.5q0 -18 2 -24.5t5 -8.5z" />
    <glyph glyph-name="X" unicode="X" horiz-adv-x="764" 
d="M534 563q-13 20 -31 36t-39 24q-27 10 -55 10t-53 -9t-45.5 -26.5t-33.5 -42.5q-9 -18 -14.5 -40.5t-4 -45t11 -41t30.5 -28.5q20 -8 41.5 -2t32.5 23q8 11 11.5 25t2.5 28q23 8 39 -2.5t18 -36.5q1 -31 -16.5 -53t-43.5 -32.5t-55 -10t-50 14.5q-22 13 -34.5 34.5
t-18 46.5t-4.5 51t6 49q10 42 35 74.5t60 52.5t76 27.5t82 -1.5q31 -6 58 -20t50 -34l120 57l18 -31q-24 -27 -40.5 -62t-27.5 -74t-16.5 -81t-8.5 -82q31 45 63 92t67.5 90t75.5 80t88 63q20 11 40.5 12t34.5 -6q17 -9 23 -26.5t-4 -31.5q-20 7 -44.5 -3t-48.5 -27.5
t-44.5 -37t-32.5 -31.5q-59 -56 -112 -116.5t-109 -125.5q0 -5 -0.5 -9.5t-0.5 -9.5q20 -9 44.5 -16t49 -9.5t47.5 0.5t40 15l17 -30q-18 -14 -43 -18.5t-52 -3.5t-54.5 5.5t-49.5 8.5q0 -40 3 -87.5t16.5 -90.5t39.5 -75t72 -41q-2 -23 -15.5 -33t-32 -10.5t-38.5 8
t-35 23.5q-27 28 -44.5 60.5t-28.5 67t-16.5 70t-8.5 68.5q-41 -48 -85.5 -95.5t-93.5 -87t-102.5 -67.5t-110.5 -35q-49 -5 -86 17t-48 71q-9 42 -1.5 80.5t23.5 70.5q34 68 95 99q25 13 53.5 19t54.5 2.5t46.5 -19t29.5 -45.5q6 -21 -1.5 -21.5t-27.5 4t-51.5 6.5
t-71.5 -14q-20 -8 -39 -25.5t-34 -40.5t-25 -52t-6 -58q5 -34 29.5 -49t56.5 -12q56 5 110.5 36.5t105 76t95.5 95.5t81 95v5q-46 6 -88 -3.5t-76 -51.5q-12 6 -18 13.5t-8 15.5t-2 14.5v10.5q3 29 21 48t45 27t60 5t66 -18q2 38 9 81.5t18.5 86.5t28 82.5t37.5 69.5z
M479 -87q3 -4 8 -6.5t15.5 -5t29.5 -3.5t50 -2q-30 0 -49 -1.5t-30 -3.5t-16.5 -5t-9.5 -7q-3 -3 -6 -9t-4.5 -17t-3 -29.5t-1.5 -48.5q-1 30 -2.5 49t-3.5 30t-4.5 16.5t-5.5 8.5q-4 4 -10 7t-17 5t-29.5 3.5t-48.5 1.5q30 1 48.5 2t29.5 3.5t16.5 5t9.5 6.5q3 4 6 9.5
t5 16.5t3.5 29.5t2.5 48.5q0 -30 1.5 -48.5t3.5 -29.5t5 -16.5t7 -9.5zM116 393q4 -5 14 -7.5t44 -2.5q-33 -1 -43.5 -3.5t-15.5 -6.5q-4 -5 -6 -15.5t-3 -43.5q-1 33 -3.5 43.5t-6.5 15.5q-5 4 -15 6.5t-44 3.5q32 0 43 2.5t16 7.5q4 4 6.5 14.5t3.5 43.5q1 -33 3 -43.5
t7 -14.5zM125 -214q2 -2 7.5 -4t25.5 -3q-18 0 -24.5 -2t-9.5 -5q-2 -2 -4 -8.5t-2 -24.5q-1 18 -3 24.5t-4 8.5q-3 3 -9.5 5t-25.5 2q20 1 26 3t9 4q2 3 4 9t3 26q0 -19 2 -25.5t5 -9.5z" />
    <glyph glyph-name="Y" unicode="Y" horiz-adv-x="600" 
d="M322 563q-13 20 -31 35.5t-40 24.5q-27 10 -54.5 10t-52.5 -9.5t-45.5 -27t-33.5 -41.5t-18 -57.5t6 -60.5q8 -17 21.5 -27t29 -12.5t31 3t27.5 20.5q8 11 11.5 25t1.5 28q24 8 40 -2.5t18 -36.5q1 -18 -5.5 -34t-18.5 -28.5t-27 -21t-31 -11.5q-44 -7 -74 8.5
t-46.5 44.5t-20 67t6.5 75q11 42 36.5 74.5t60 53t75 27.5t81.5 -2q32 -7 60.5 -22t53.5 -36l161 61l17 -31q-24 -18 -53 -39.5t-58 -47t-55 -54t-44 -58.5t-25.5 -61.5t0.5 -62.5q11 -40 33.5 -51.5t48.5 -5.5t51 23t41 35q16 50 35 106t44 105.5t57.5 87.5t74.5 53
q21 7 41 7.5t34.5 -6.5t22 -21.5t4.5 -36.5q-32 0 -58.5 -17t-49 -44t-41 -61t-34 -68.5t-28.5 -66.5t-23 -55q-25 -54 -53 -113.5t-63 -114.5t-80 -100.5t-104 -70.5q-26 -11 -55.5 -17.5t-58.5 -6t-56.5 9t-49.5 26.5q-23 21 -35 48t-14 55.5t4.5 57.5t20.5 53
q15 27 37.5 47.5t50.5 33.5t58.5 16.5t60.5 -5.5q23 -7 40 -25t19 -41q3 -22 -4.5 -23.5t-24.5 3.5t-45.5 10.5t-67.5 -2.5q-19 -4 -38 -17.5t-33 -33.5q-12 -16 -19 -36t-8.5 -40.5t5 -40t21.5 -33.5q24 -23 55 -27t63.5 3t63 23t51.5 34q27 24 49 53t39.5 61.5t31.5 66.5
t27 67l16 44q-24 -17 -55.5 -33.5t-64 -22.5t-61 3.5t-46.5 42.5q-26 48 -17 95.5t40 91t76 82.5t90 71zM90 -186q2 -2 5 -4t9 -3t16.5 -2t27.5 -1q-33 -1 -44 -3.5t-15 -6.5q-2 -2 -3.5 -5.5t-2.5 -10.5t-2 -19t-1 -31q0 19 -1 31t-2 19t-3 10.5t-4 5.5t-5.5 4t-9.5 3
t-16.5 2t-27.5 1q16 0 26.5 1t17 2t10 3t5.5 4q4 5 6.5 15.5t3.5 43.5q1 -33 3 -44t7 -15zM419 -127q2 -2 7.5 -4t25.5 -3q-18 0 -24.5 -2t-9.5 -5q-2 -2 -4 -8.5t-2 -24.5q-1 18 -3 24.5t-4 8.5q-3 3 -9.5 5t-25.5 2q20 1 26 3t9 4q2 3 4 9t3 26q0 -19 2 -25.5t5 -9.5z
M31 269q2 -3 8 -5t25 -2q-18 -1 -24.5 -3t-9.5 -4q-2 -3 -4 -9.5t-2 -25.5q-1 20 -3 26t-4 9q-3 2 -9 4t-24 3q17 0 23.5 2t9.5 5q2 2 4 8.5t3 24.5q0 -18 2 -24.5t5 -8.5z" />
    <glyph glyph-name="Z" unicode="Z" horiz-adv-x="584" 
d="M10 19q19 3 37 4.5t36 0.5q38 8 74 29.5t68 47.5q54 44 99 96.5t89 106.5q21 26 46 59.5t54 69t60.5 70t66.5 61.5q-12 4 -22 8t-18 8q-32 14 -64.5 30t-65.5 25t-67 7.5t-69 -22.5q-15 -9 -28 -24t-20.5 -32.5t-9 -36.5t5.5 -37q6 -15 17 -25t25 -14.5t29 -3.5t29 6
q7 3 15.5 9t15.5 13.5t11 17t2 18.5q17 2 27.5 -4.5t16 -18t5.5 -25.5t-5 -27q-6 -17 -22.5 -30.5t-38.5 -20.5q-27 -8 -52 -3.5t-46 17.5t-37 33t-24 44q-13 38 -9 72t20.5 62t42.5 50t57.5 35.5t65.5 18t66 -1.5q30 -6 54.5 -18t49 -27.5t50 -32t57.5 -30.5q15 7 36.5 14
t43.5 10.5t41 1t28 -14.5q11 -15 9 -31t-17.5 -27.5t-45 -16.5t-73.5 2q-23 -21 -43 -45.5t-37 -45.5q-47 -57 -91 -115t-92 -114q-26 -30 -56.5 -62.5t-64 -62t-71 -53.5t-77.5 -39q50 -14 99.5 -33.5t100 -35.5t102 -24t106.5 0q10 -14 10.5 -29t-6 -28t-18 -24t-25.5 -17
q-23 -10 -51 -10t-55.5 6t-54 16.5t-46.5 21.5q-33 18 -64.5 39.5t-63.5 41t-65.5 35.5t-70.5 24q-23 5 -40.5 4t-36.5 -7zM192 328q3 -5 8 -8t15.5 -5t29.5 -3t50 -1q-30 -1 -49 -2.5t-30 -3.5t-16.5 -5t-9.5 -6q-3 -4 -6 -10t-4.5 -19t-3 -34t-1.5 -55q0 34 -1.5 55.5
t-3.5 34t-5 18.5t-6 10q-4 3 -10 6t-17 5t-29.5 3.5t-48.5 2.5q30 0 48.5 1t29.5 3t16.5 5t9.5 8q3 3 6 8.5t5 16.5t3.5 30t2.5 49q0 -30 1.5 -49t3.5 -30t5 -16.5t7 -8.5zM134 -213q2 -2 5 -4t9 -3t16.5 -2t27.5 -1q-33 -1 -44 -3.5t-15 -6.5t-6 -14.5t-3 -43.5
q-1 33 -3.5 43.5t-6.5 14.5q-2 2 -5.5 4t-9.5 3t-16.5 2t-27.5 1q16 0 26.5 1t17 2t10 3t5.5 4q4 5 6.5 15.5t3.5 43.5q1 -33 3 -44t7 -15zM779 579q16 -2 31.5 1t14.5 11q-1 4 -6.5 4t-13 -3t-15 -7t-11.5 -6z" />
    <glyph glyph-name="Thorn" unicode="&#xde;" horiz-adv-x="740" 
d="M349 365q21 -7 29 -20t5.5 -28t-13.5 -29t-27 -23q-21 -11 -45 -10t-44.5 11t-36 27.5t-19.5 38.5q-9 42 0 76t30.5 60t51.5 44.5t63.5 30.5t67 18t61.5 7q56 2 106 -13q14 21 30 43t33.5 40.5t36 32t37.5 19.5l19 -29q-15 -5 -28.5 -18.5t-25.5 -32t-22.5 -40
t-19.5 -41.5q29 -17 52 -42.5t37 -60.5t14.5 -72.5t-8.5 -71.5q-11 -42 -33 -75.5t-52 -57.5t-66.5 -38t-75.5 -18q-37 -4 -78 2q-31 -51 -69.5 -94t-92.5 -71q-24 -13 -54.5 -22t-61.5 -9.5t-59.5 8.5t-49.5 33q-18 21 -25 47t-6 53.5t9.5 54t21.5 47.5q14 24 36 43.5
t48.5 32t55 16t56.5 -3.5q23 -6 39.5 -23.5t19.5 -40.5q3 -24 -4 -26t-24 3.5t-44 11.5t-65 -3q-24 -6 -44 -20.5t-34.5 -34t-22.5 -42.5t-7 -45q1 -34 20.5 -49t47 -17t56 7.5t47.5 25.5q45 38 82 88.5t73 113.5t74.5 140t86.5 168q-31 14 -65.5 20.5t-69 4t-66 -13.5
t-56.5 -32q-17 -15 -28 -34.5t-13 -38.5q-1 -17 5.5 -29.5t18 -21t25.5 -11t27 2.5q11 5 19.5 13t13.5 18zM446 126q23 -3 45 -3t48 11q29 12 53 34.5t40 50.5t23 60t2 63q-10 62 -57 104q-34 -75 -68.5 -153t-85.5 -167zM523 -61q3 -4 8 -6.5t15.5 -5t29.5 -3.5t50 -2
q-30 0 -49 -1.5t-30 -3.5t-16.5 -5t-9.5 -7q-3 -4 -6 -10t-4.5 -18.5t-3 -33.5t-1.5 -55q0 34 -1.5 55.5t-3.5 34t-5 18.5t-6 9q-4 4 -10 7t-17 5t-29.5 3.5t-48.5 1.5q30 1 48.5 2t29.5 3.5t16.5 5t9.5 6.5q3 4 6 9.5t5 16.5t3.5 29.5t2.5 48.5q0 -30 1.5 -48.5t3.5 -29.5
t5 -16.5t7 -9.5zM122 380q4 -5 14 -7.5t44 -2.5q-33 -1 -43.5 -3.5t-15.5 -6.5q-2 -3 -4 -7.5t-3 -14.5t-1.5 -28t-0.5 -47q0 29 -0.5 47t-2 28t-3 14.5t-4.5 7.5q-5 4 -15 6.5t-44 3.5q32 0 43 2.5t16 7.5q4 4 6.5 14.5t3.5 43.5q1 -33 3 -43.5t7 -14.5zM95 -204
q2 -2 7.5 -4t25.5 -3q-18 0 -24.5 -2t-9.5 -5q-2 -2 -4 -8.5t-2 -24.5q-1 18 -3 24.5t-4 8.5q-3 3 -9.5 5t-25.5 2q20 1 26 3t9 4q2 3 4 9t3 26q0 -19 2 -25.5t5 -9.5z" />
    <glyph glyph-name="b" unicode="b" horiz-adv-x="283" 
d="M375 315l13 -27q-12 -8 -29.5 -16t-36 -15t-38 -12.5t-35.5 -9.5q-13 -50 -39.5 -95.5t-59.5 -79t-67 -49.5t-62 -7q-18 5 -28.5 28.5t-8 65.5t20.5 103t58 142q45 90 88.5 160.5t83 116t72.5 64t56 4.5q35 -21 2.5 -107t-138.5 -222q13 -2 20 -10.5t10.5 -21t3 -27
t-2.5 -28.5q16 4 34 10t33.5 12t28.5 11.5t21 9.5zM64 56q8 -3 22 6t30.5 31t34 57.5t31.5 85.5q-11 7 -16 18t-6 24q-39 -45 -84 -93q-9 -22 -16 -43.5t-9 -39t1 -30t12 -16.5zM334 610q-4 3 -22.5 -16t-46.5 -57t-63 -94.5t-71 -128.5l-22 -45q47 57 90.5 115.5t76 107
t49 81t9.5 37.5zM154 -60q2 -2 5 -4t9 -3t16.5 -2t27.5 -1q-33 -1 -44 -3.5t-15 -6.5q-2 -2 -3.5 -5.5t-2.5 -10.5t-2 -19t-1 -31q0 19 -1 31t-2 19t-3 10.5t-4 5.5t-5.5 4t-9.5 3t-16.5 2t-27.5 1q16 0 26.5 1t17 2t10 3t5.5 4q4 5 6.5 15.5t3.5 43.5q1 -33 3 -44t7 -15z
M104 570q2 -3 8 -5t25 -2q-18 -1 -24.5 -3t-9.5 -4q-2 -3 -4 -9.5t-2 -25.5q-1 20 -3 26t-4 9q-3 2 -9 4t-26 3q19 0 25.5 2t9.5 5q2 2 4 8.5t3 24.5q0 -18 2 -24.5t5 -8.5z" />
    <glyph glyph-name="ring" unicode="&#x2da;" horiz-adv-x="172" 
d="M106 547q30 0 45.5 -21t7.5 -51q-8 -31 -35 -52.5t-57 -21.5q-31 0 -46.5 21.5t-7.5 52.5q4 15 13.5 28t22 23t27.5 15.5t30 5.5zM124 475q4 15 -4 26t-24 11q-15 0 -29 -11t-18 -26q-5 -16 3.5 -27t23.5 -11q16 0 29.5 11t18.5 27z" />
    <glyph glyph-name="cedilla" unicode="&#xb8;" horiz-adv-x="238" 
d="M147 26h47l-52 -62q18 7 36.5 6t31.5 -9.5t17 -25t-7 -38.5q-7 -14 -20 -27t-30 -23t-38 -16t-45 -5q-18 1 -32.5 6.5t-24 14t-14.5 18.5t-5 19l33 15q5 -20 21.5 -28.5t32.5 -3.5q17 4 28 17t15 25.5t-1 22t-20 6.5l-38 -16l-15 21z" />
    <glyph glyph-name="ogonek" unicode="&#x2db;" horiz-adv-x="279" 
d="M269 26q-30 -20 -63.5 -36t-60 -31t-41 -30t-6.5 -31q6 -12 18.5 -15t26.5 0.5t25.5 11t16.5 16.5l26 -26q-7 -14 -23 -26t-36.5 -20t-43 -11t-42 0.5t-34.5 15t-20 32.5t3.5 37.5t26.5 30t43 25t52.5 23.5t56 26t53.5 32z" />
    <glyph glyph-name="circumflex" unicode="&#x2c6;" horiz-adv-x="191" 
d="M181 536v-107h-37v50l-116 -50l-18 27l135 93z" />
    <glyph glyph-name="caron" unicode="&#x2c7;" horiz-adv-x="191" 
d="M10 441v108h37l-1 -50l118 50l17 -28l-135 -92z" />
    <glyph glyph-name="dieresis" unicode="&#xa8;" horiz-adv-x="232" 
d="M111 461q-5 -21 -23.5 -35.5t-39.5 -14.5q-20 0 -30.5 14.5t-5.5 35.5q5 20 23.5 35t39.5 15q20 0 30.5 -15t5.5 -35zM220 461q-5 -21 -24 -35.5t-39 -14.5q-21 0 -31.5 14.5t-4.5 35.5q5 20 23.5 35t39.5 15q20 0 30.5 -15t5.5 -35z" />
    <glyph glyph-name="acute" unicode="&#xb4;" horiz-adv-x="226" 
d="M191 556l25 -71l-188 -76l-18 28z" />
    <glyph glyph-name="tilde" unicode="&#x2dc;" horiz-adv-x="267" 
d="M28 429l-18 27q10 14 20.5 29t22.5 27.5t26 20.5t30 8q13 0 22 -6.5t15.5 -14.5t13.5 -15t17 -7t24.5 9.5t37.5 33.5l18 -27q-14 -15 -26.5 -29.5t-25 -26t-26 -18.5t-29.5 -7t-27.5 13.5t-24 22.5t-29 3.5t-41.5 -43.5z" />
    <glyph glyph-name="grave" unicode="`" horiz-adv-x="208" 
d="M10 505l52 55l136 -128l-22 -24z" />
    <glyph glyph-name="z" unicode="z" horiz-adv-x="262" 
d="M285 159q-23 -54 -64.5 -96.5t-83.5 -65.5q-3 -10 -7 -21t-9 -22q-20 -49 -46 -85.5t-54.5 -57t-57 -24.5t-54.5 13q-20 14 -25.5 34.5t6.5 45.5q9 19 24.5 34t36.5 28t46 25t52 24q12 25 18 50t4.5 46t-10.5 35.5t-25 18.5l14 25q28 0 56 16t48.5 37.5t29.5 43t-2 32.5
q-6 6 -22 6.5t-38 -13t-49.5 -46.5t-55.5 -94l-23 24q32 67 65 108.5t65 62.5q37 25 68 25.5t49 -15.5q23 -20 21 -50t-21.5 -60t-53 -56.5t-73.5 -39.5l-30 -4q31 -7 47.5 -34t14.5 -66q31 20 61 54.5t55 85.5zM141 519q3 -5 8 -8t15.5 -5t29.5 -3t50 -1q-30 -1 -49 -2.5
t-30 -3.5t-16.5 -5t-9.5 -6q-3 -4 -6 -10t-4.5 -17t-3 -29.5t-1.5 -48.5q-1 30 -2.5 48.5t-3.5 30t-4.5 17t-5.5 9.5q-4 3 -10 6t-17 5t-29.5 3.5t-48.5 2.5q30 0 48.5 1t29.5 3t16.5 5t9.5 8q3 3 6 8.5t5 16.5t3.5 30t2.5 49q0 -30 1.5 -49t3.5 -30t5 -16.5t7 -8.5z
M-71 -163q8 -4 20 3t25.5 21.5t27 35.5t25.5 45q-39 -20 -66.5 -39.5t-35.5 -40.5q-7 -19 4 -25zM184 -150q2 -2 5 -4t9 -3t16.5 -2t27.5 -1q-33 -1 -44 -3.5t-15 -6.5t-6 -14.5t-3 -43.5q-1 33 -3.5 43.5t-6.5 14.5q-2 2 -5.5 4t-9.5 3t-16.5 2t-27.5 1q16 0 26.5 1t17 2
t10 3t5.5 4q4 5 6.5 15.5t3.5 43.5q1 -33 3 -44t7 -15z" />
    <glyph glyph-name="y" unicode="y" horiz-adv-x="307" 
d="M244 353h80q-22 -49 -47 -100q-21 -44 -46.5 -97t-49.5 -104q38 24 71 55t55 76l23 -24q-22 -51 -69.5 -89t-103.5 -68l-2 -5q-25 -53 -55 -96.5t-61.5 -71.5t-62 -37t-55.5 8q-20 14 -25.5 34.5t6.5 45.5q9 20 26.5 36t40.5 30t50 26.5t56 25.5q13 24 25.5 48.5
t23.5 47.5q-32 -42 -63.5 -69.5t-54.5 -27.5q-21 0 -34 10t-16 32t6 55t33 80q23 47 42 80.5t33 55.5q16 26 27 43h81q-19 -30 -37 -61q-16 -26 -33 -57.5t-30 -60.5q-53 -112 -30 -112q6 0 21 16.5t34 42.5t40 59t40.5 65t35.5 61t25 47zM-64 -138q-5 -19 5 -25
q10 -5 22.5 2t26 22t28 37t29.5 48q-42 -21 -72.5 -41t-38.5 -43zM144 440q-5 4 -15 6.5t-44 3.5q32 0 43 2.5t16 7.5q4 4 6.5 14.5t3.5 43.5q1 -33 3 -43.5t7 -14.5q4 -5 14 -7.5t44 -2.5q-33 -1 -43.5 -3.5t-15.5 -6.5q-5 -5 -7 -19.5t-2 -57.5q-1 44 -3.5 58t-6.5 19z
M193 -164q2 -2 7.5 -4t25.5 -3q-18 0 -24.5 -2t-9.5 -5q-2 -2 -3 -5t-1.5 -10t-1 -19.5t-0.5 -33.5q0 21 -0.5 33.5t-1 19.5t-2 10t-3.5 5q-3 3 -9.5 5t-25.5 2q20 1 26 3t9 4q2 3 4 9t3 26q0 -19 2 -25.5t5 -9.5z" />
    <glyph glyph-name="x" unicode="x" horiz-adv-x="277" 
d="M255 391q21 -2 27 -25.5t-8 -58.5q-12 -28 -27.5 -50t-33.5 -41t-37.5 -34.5t-39.5 -29.5q-2 -47 4.5 -74.5t24.5 -27.5q10 0 24 10.5t29 28.5t30.5 42t28.5 52l23 -24q-36 -77 -72 -119.5t-88 -42.5q-20 0 -36 8q-20 11 -30.5 34.5t-13.5 55.5q-14 -13 -26.5 -27
t-21.5 -31q13 4 22 0.5t14 -11t6.5 -18.5t-0.5 -21q-4 -20 -18 -35.5t-34 -14.5q-10 0 -19.5 6t-15.5 17t-6.5 26.5t6.5 35.5q13 34 37.5 61.5t54.5 52.5q0 26 2 55.5t6 61.5l-50 -105l-23 24l87 181h76q-6 -42 -11 -82t-8 -75q30 23 54 46.5t38 51.5q-21 -2 -29.5 15
t-2.5 37q6 19 21.5 33t35.5 12zM161 509q3 -5 8 -8t15.5 -5t29.5 -3t50 -1q-30 -1 -49 -2.5t-30 -3.5t-16.5 -5t-9.5 -6q-3 -4 -6 -10t-4.5 -17t-3 -29.5t-1.5 -47.5q-1 30 -2.5 48.5t-3.5 29.5t-4.5 16.5t-5.5 9.5q-4 3 -10 6t-17 5t-29.5 3.5t-48.5 2.5q30 0 48.5 1
t29.5 3t16.5 5t9.5 8q3 3 6 8.5t5 16.5t3.5 30t2.5 49q0 -30 1.5 -49t3.5 -30t5 -16.5t7 -8.5zM114 -90q2 -2 5 -4t9 -3t16.5 -2t27.5 -1q-33 -1 -44 -3.5t-15 -6.5t-6 -14.5t-3 -43.5q-1 33 -3.5 43.5t-6.5 14.5q-2 2 -5.5 4t-9.5 3t-16.5 2t-27.5 1q16 0 26.5 1t17 2t10 3
t5.5 4q4 5 6.5 15.5t3.5 43.5q1 -33 3 -44t7 -15z" />
    <glyph glyph-name="w" unicode="w" horiz-adv-x="418" 
d="M310 353l-92 -221q-15 -35 -15.5 -55.5t15.5 -20.5q12 0 28 20t33 48.5t32 60.5t24 56q-12 12 -13.5 32.5t5.5 39.5t20.5 33t32.5 14q17 0 25.5 -8.5t11.5 -21.5t0.5 -29.5t-6.5 -31.5q29 9 58.5 22.5t42.5 23.5l13 -27q-26 -16 -61.5 -32t-66.5 -23q-19 -43 -45 -85
t-55 -75.5t-59 -54.5t-58 -21q-33 0 -50 22.5t-9 65.5q-18 -23 -36.5 -42t-35.5 -30q-24 -16 -43 -16q-20 0 -33 10t-16 32t5.5 55t32.5 80t42.5 80.5t32.5 55.5q16 26 28 43h81q-19 -30 -37 -61q-16 -26 -33 -57.5t-31 -60.5q-27 -57 -32.5 -80t7.5 -23q6 0 20.5 16t33 41
t39 56.5t40 63t35 59.5t24.5 46h65zM286 -121q3 -4 8 -6.5t15.5 -5t29.5 -3.5t50 -2q-30 0 -49 -1.5t-30 -3.5t-16.5 -5t-9.5 -7q-3 -3 -6 -9t-4.5 -17t-3 -29.5t-1.5 -48.5q-1 30 -2.5 49t-3.5 30t-4.5 16.5t-5.5 8.5q-4 4 -10 7t-17 5t-29.5 3.5t-48.5 1.5q30 1 48.5 2
t29.5 3.5t16.5 5t9.5 6.5q3 4 6 9.5t5 16.5t3.5 29.5t2.5 48.5q0 -30 1.5 -48.5t3.5 -29.5t5 -16.5t7 -9.5zM59 -77q2 -2 5 -4t9 -3t16.5 -2t27.5 -1q-33 -1 -44 -3.5t-15 -6.5t-6 -14.5t-3 -43.5q-1 33 -3.5 43.5t-6.5 14.5q-2 2 -5.5 4t-9.5 3t-16.5 2t-26.5 1
q16 0 26.5 1t16.5 2t9.5 3t5.5 4q4 5 6.5 15.5t3.5 43.5q1 -33 3 -44t7 -15zM214 530q4 -5 14 -7.5t44 -2.5q-33 -1 -43.5 -3.5t-15.5 -6.5q-2 -3 -4 -7.5t-3 -14.5t-1.5 -28t-0.5 -47q0 29 -0.5 47t-2 28t-3 14.5t-4.5 7.5q-5 4 -15 6.5t-44 3.5q32 0 43 2.5t16 7.5
q4 4 6.5 14.5t3.5 43.5q1 -33 3 -43.5t7 -14.5z" />
    <glyph glyph-name="v" unicode="v" horiz-adv-x="272" 
d="M-22 132q2 3 4 9l90 212h51q0 29 -1.5 47t-3 29.5t-4.5 17t-6 8.5q-4 3 -10 6t-17 5t-29.5 3.5t-48.5 2.5q30 0 48.5 1t29.5 3t16.5 5t9.5 8q3 3 6 8.5t5 16.5t3.5 30t2.5 49q0 -30 1.5 -49t3.5 -30t5 -16.5t7 -8.5q3 -5 8 -8t15.5 -5t29.5 -3t50 -1q-30 -1 -49 -2.5
t-30 -3.5t-16.5 -5t-9.5 -6q-3 -4 -5.5 -9.5t-4.5 -16.5t-3 -29.5t-2 -46.5h29l-92 -221q-14 -35 -15 -55.5t16 -20.5q11 0 29 20t37 48.5t36 60.5t27 56q-12 12 -13.5 32.5t5.5 39.5t21 33t33 14q17 0 25.5 -8.5t11 -21.5t0 -29.5t-6.5 -31.5q29 8 58 22t42 24l13 -27
q-26 -16 -61.5 -32t-65.5 -24q-19 -43 -47 -85t-59.5 -75.5t-63.5 -54t-60 -20.5q-42 0 -57 35t12 100zM154 -48q2 -2 5 -4t9 -3t16.5 -2t27.5 -1q-33 -1 -44 -3.5t-15 -6.5q-2 -2 -3.5 -5.5t-2.5 -10.5t-2 -19t-1 -31q0 19 -1 31t-2 19t-3 10.5t-4 5.5t-5.5 4t-9.5 3
t-16.5 2t-27.5 1q16 0 26.5 1t17 2t10 3t5.5 4q4 5 6.5 15.5t3.5 43.5q1 -33 3 -44t7 -15z" />
    <glyph glyph-name="n" unicode="n" horiz-adv-x="279" 
d="M279 183l23 -24q-36 -77 -74 -119.5t-84 -42.5q-9 0 -19 2q-17 4 -25 18.5t-4 40.5t22 65.5t55 94.5q22 32 31.5 53.5t-1.5 21.5q-9 0 -29.5 -19.5t-46 -52t-53.5 -75.5t-52 -89l-27 -57h-83l168 353h81l-43 -90q38 44 72 67t61 23q13 0 22.5 -7t13.5 -19.5t1.5 -29.5
t-13.5 -36q-36 -64 -58 -103.5t-32.5 -61.5t-11 -29.5t5.5 -7.5q20 0 47 34t53 90zM108 465q-4 3 -10 6t-17 5t-29.5 3.5t-48.5 2.5q30 0 48.5 1t29.5 3t16.5 5t9.5 8q3 3 6 8.5t5 16.5t3.5 30t2.5 49q0 -30 1.5 -49t3.5 -30t5 -16.5t7 -8.5q3 -5 8 -8t15.5 -5t29.5 -3
t50 -1q-30 -1 -49 -2.5t-30 -3.5t-16.5 -5t-9.5 -6q-3 -4 -6 -10t-4.5 -16.5t-3 -28t-1.5 -45.5q-1 28 -2.5 46t-3.5 28.5t-4.5 16t-5.5 9.5zM135 -97q2 -2 5 -4t9 -3t16.5 -2t27.5 -1q-33 -1 -44 -3.5t-15 -6.5t-6 -14.5t-3 -43.5q-1 33 -3.5 43.5t-6.5 14.5q-2 2 -5.5 4
t-9.5 3t-16.5 2t-27.5 1q16 0 26.5 1t17 2t10 3t5.5 4q4 5 6.5 15.5t3.5 43.5q1 -33 3 -44t7 -15z" />
    <glyph glyph-name="s" unicode="s" horiz-adv-x="234" 
d="M234 183l23 -24q-21 -47 -59.5 -82t-83.5 -55q1 -29 2 -47.5t3.5 -30t5 -17t6.5 -8.5q3 -4 8 -6.5t15.5 -5t29.5 -3.5t50 -2q-30 0 -49 -1.5t-30 -3.5t-16.5 -5t-9.5 -7q-3 -3 -6 -9t-4.5 -17t-3 -29.5t-1.5 -48.5q-1 30 -2.5 49t-3.5 30t-4.5 16.5t-5.5 8.5q-4 4 -10 7
t-17 5t-29.5 3.5t-48.5 1.5q30 1 48.5 2t29.5 3.5t16.5 5t9.5 6.5q4 3 6.5 8.5t4.5 17t3.5 29.5t1.5 47q-41 -18 -82 -21t-74 12l14 32q29 -5 55 15.5t42.5 53t20.5 68.5t-11 62q-2 4 -4 7.5t-4 7.5l-53 -110l-23 24l63 132q-2 30 10 59t38 55q20 19 38 20.5t25.5 -10t1 -33
t-33.5 -48.5q-29 -28 -33.5 -41.5t3.5 -25t23.5 -25.5t27.5 -42q12 -27 6.5 -56t-20.5 -53.5t-36.5 -41.5t-41.5 -20q21 3 45.5 15.5t48 32t43.5 44t32 49.5zM124 540q4 -5 14 -7.5t44 -2.5q-33 -1 -43.5 -3.5t-15.5 -6.5q-4 -5 -6 -16.5t-3 -49.5q0 19 -1 30.5t-2 19t-3 11
t-4 5.5q-5 4 -15 6.5t-44 3.5q32 0 43 2.5t16 7.5q4 4 6.5 14.5t3.5 43.5q1 -33 3 -43.5t7 -14.5z" />
    <glyph glyph-name="f" unicode="f" horiz-adv-x="198" 
d="M43 249q0 -13 8 -26l96 201q19 40 42.5 72t46.5 51.5t44.5 26t37.5 -3.5q26 -17 18.5 -62.5t-50.5 -104.5q-35 -47 -73.5 -84.5t-71.5 -60.5l-23 -52q26 3 60 17.5t74 46.5l13 -27q-44 -39 -88.5 -62t-82.5 -31l-50 -116t-45 -106q-24 -55 -45 -106l-98 -13q25 53 52 111
q23 50 52 110.5t58 123.5q-7 3 -11 9q-8 9 -7.5 22.5t6.5 26.5t16 23.5t21 13.5zM253 422q32 46 41 74.5t1 33.5q-14 7 -42 -37t-65 -126q-3 -7 -7 -15.5t-9 -19.5q43 39 81 90zM114 -70q2 -2 5 -4t9 -3t16.5 -2t27.5 -1q-33 -1 -44 -3.5t-15 -6.5q-2 -3 -4 -7.5t-3 -14.5
t-1.5 -28t-0.5 -47q0 29 -0.5 47t-2 28t-3 14.5t-4.5 7.5q-2 2 -5.5 4t-9.5 3t-16.5 2t-27.5 1q16 0 26.5 1t17 2t10 3t5.5 4q4 5 6.5 15.5t3.5 43.5q1 -33 3 -44t7 -15zM83 514q2 -3 8 -5t25 -2q-18 -1 -24.5 -3t-9.5 -4q-2 -3 -4 -9.5t-2 -25.5q-1 20 -3 26t-4 9
q-3 2 -9 4t-26 3q19 0 25.5 2t9.5 5q2 2 4 8.5t3 24.5q0 -18 2 -24.5t5 -8.5z" />
    <glyph glyph-name="c" unicode="c" horiz-adv-x="264" 
d="M264 183l23 -24q-30 -46 -65.5 -83t-71.5 -59t-71 -26.5t-65 14.5q-16 10 -25.5 28t-11.5 42.5t4 53t21 59.5q33 66 70 105t72 57q28 14 52 17t41 -5q11 -5 18 -17t9 -27.5t0 -33t-9 -35.5q-8 -17 -17 -28.5t-18 -18t-17.5 -9t-13.5 -2.5q-18 0 -27.5 13t-4.5 31
q5 19 21 31.5t35 12.5q4 0 12 -2q9 14 6.5 29t-10.5 20q-12 8 -29.5 0t-36.5 -26t-37.5 -43t-30.5 -51q-11 -23 -17.5 -45.5t-7.5 -41.5t4 -33.5t18 -20.5q16 -8 38.5 -2t46.5 22.5t48.5 42t46.5 55.5zM154 460q4 -5 14 -7.5t44 -2.5q-33 -1 -43.5 -3.5t-15.5 -6.5
q-4 -5 -6 -16t-3 -46q-1 35 -3 46t-7 16q-5 4 -15 6.5t-44 3.5q32 0 43 2.5t16 7.5q4 4 6.5 14.5t3.5 43.5q1 -33 3 -43.5t7 -14.5zM153 -161q2 -2 7.5 -4t25.5 -3q-18 0 -24.5 -2t-9.5 -5q-2 -2 -3 -5t-1.5 -10t-1 -19.5t-0.5 -33.5q0 21 -0.5 33.5t-1 19.5t-2 10t-3.5 5
q-3 3 -9.5 5t-25.5 2q20 1 26 3t9 4q2 3 4 9t3 26q0 -19 2 -25.5t5 -9.5z" />
    <glyph glyph-name="d" unicode="d" horiz-adv-x="335" 
d="M-1 182q30 59 60 97.5t58 59.5t52.5 26t43.5 -3q14 -7 19 -19q45 90 85.5 160.5t75.5 116t64.5 64t52.5 4.5q21 -13 15.5 -54t-38 -103t-91 -142.5t-143.5 -172.5q-17 -41 -26.5 -69t-12.5 -46t-1 -27.5t7 -11.5q6 -4 20 4t31 24.5t34 40.5t30 52l23 -24
q-45 -95 -94 -131t-87 -24q-17 5 -28 22t-9 52q-18 -23 -37.5 -41t-39 -28.5t-38.5 -12t-35 8.5q-26 17 -24 66t33 111zM197 326q-9 5 -22.5 -4.5t-29 -27.5t-31.5 -43t-28 -51q-11 -23 -19 -45.5t-12 -41.5t-3 -32t8 -16q7 -4 20 6t28 28t30.5 43t27.5 51q14 40 36 86
q5 18 4 30t-9 17zM481 610q-5 3 -20 -15.5t-38 -56t-53.5 -93t-66.5 -126.5q40 52 75 102t59.5 90.5t37 67t6.5 31.5zM211 569q3 -5 8 -8t15.5 -5t29.5 -3t50 -1q-30 -1 -49 -2.5t-30 -3.5t-16.5 -5t-9.5 -6q-3 -4 -6 -10t-4.5 -17t-3 -29.5t-1.5 -48.5q-1 30 -2.5 48.5
t-3.5 30t-4.5 17t-5.5 9.5q-4 3 -10 6t-17 5t-29.5 3.5t-48.5 2.5q30 0 48.5 1t29.5 3t16.5 5t9.5 8q3 3 6 8.5t5 16.5t3.5 30t2.5 49q0 -30 1.5 -49t3.5 -30t5 -16.5t7 -8.5zM154 -80q2 -2 5 -4t9 -3t16.5 -2t27.5 -1q-33 -1 -44 -3.5t-15 -6.5q-2 -2 -3.5 -5.5t-2.5 -10.5
t-2 -19t-1 -31q0 19 -1 31t-2 19t-3 10.5t-4 5.5t-5.5 4t-9.5 3t-16.5 2t-27.5 1q16 0 26.5 1t17 2t10 3t5.5 4q4 5 6.5 15.5t3.5 43.5q1 -33 3 -44t7 -15z" />
    <glyph glyph-name="u" unicode="u" 
d="M322 353l-103 -221q-17 -35 -21 -52.5t9 -17.5q20 0 43 32.5t49 88.5l23 -24q-35 -77 -73.5 -119.5t-83.5 -42.5q-12 0 -21 3q-47 14 -24 90q-31 -41 -61 -67t-53 -26q-21 0 -34 10t-16 32t6 55t33 80q23 47 42 80.5t33 55.5q16 26 27 43h81q-19 -30 -37 -61
q-16 -26 -33 -57.5t-31 -60.5q-52 -112 -29 -112q8 0 30.5 27t50 66t55.5 83t47 78l20 37h71zM161 -151q3 -4 8 -6.5t15.5 -5t29.5 -3.5t50 -2q-30 0 -49 -1.5t-30 -3.5t-16.5 -5t-9.5 -7q-3 -3 -6 -9t-4.5 -17t-3 -29.5t-1.5 -48.5q-1 30 -2.5 49t-3.5 30t-4.5 16.5
t-5.5 8.5q-4 4 -10 7t-17 5t-29.5 3.5t-48.5 1.5q30 1 48.5 2t29.5 3.5t16.5 5t9.5 6.5q3 4 6 9.5t5 16.5t3.5 29.5t2.5 48.5q0 -30 1.5 -48.5t3.5 -29.5t5 -16.5t7 -9.5zM174 510q4 -5 14 -7.5t44 -2.5q-33 -1 -43.5 -3.5t-15.5 -6.5q-2 -3 -4 -7.5t-3 -14.5t-1.5 -28
t-0.5 -47q0 29 -0.5 47t-2 28t-3 14.5t-4.5 7.5q-5 4 -15 6.5t-44 3.5q32 0 43 2.5t16 7.5q4 4 6.5 14.5t3.5 43.5q1 -33 3 -43.5t7 -14.5z" />
    <glyph glyph-name="o" unicode="o" horiz-adv-x="292" 
d="M345 270l13 -27q-27 -17 -54.5 -26t-53.5 -11q-2 -8 -5.5 -15t-6.5 -15q-18 -38 -44.5 -75t-57.5 -63t-63.5 -36.5t-63.5 3.5q-32 15 -38.5 61t24.5 108q29 59 61 99.5t63.5 63.5t60 29t51.5 -4q10 -5 19 -15.5t9 -23.5q-15 12 -35.5 13.5t-43.5 -13t-48 -46t-50 -85.5
q-22 -46 -22.5 -79.5t20.5 -44.5q10 -6 25.5 2t32.5 25.5t33.5 42t28.5 50.5l9 22q-21 9 -29 28t-5.5 37.5t15 33t34.5 14.5q27 0 36.5 -24t0.5 -59q23 3 47 11t37 19zM164 500q4 -5 14 -7.5t44 -2.5q-33 -1 -43.5 -3.5t-15.5 -6.5q-2 -3 -4 -7.5t-3 -14.5t-1.5 -28
t-0.5 -47q0 29 -0.5 47t-2 28t-3 14.5t-4.5 7.5q-5 4 -15 6.5t-44 3.5q32 0 43 2.5t16 7.5q4 4 6.5 14.5t3.5 43.5q1 -33 3 -43.5t7 -14.5zM145 -113q2 -2 7.5 -4t25.5 -3q-18 0 -24.5 -2t-9.5 -5q-2 -2 -3 -5t-1.5 -10t-1 -19.5t-0.5 -33.5q0 21 -0.5 33.5t-1 19.5t-2 10
t-3.5 5q-3 3 -9.5 5t-25.5 2q20 1 26 3t9 4q2 3 4 9t3 26q0 -19 2 -25.5t5 -9.5z" />
    <glyph glyph-name="g" unicode="g" 
d="M235 353h82q-23 -49 -48 -100q-21 -44 -46.5 -97t-49.5 -104q38 24 71 55t55 76l24 -24q-22 -51 -70 -89t-104 -68l-2 -5q-25 -53 -55 -96.5t-61 -71.5t-61.5 -37t-56.5 8q-20 14 -25.5 34.5t6.5 45.5q10 21 28 37t42 30.5t52 27t58 26.5l15 26q-26 -21 -52 -28.5
t-48 6.5q-26 17 -23.5 66t33.5 111q29 59 59 97.5t58 59.5t52.5 26t43.5 -3q11 -6 19 -18zM166 194q12 25 21 47t14 39.5t4.5 29t-9.5 16.5q-8 5 -21.5 -4.5t-29 -27.5t-31.5 -43t-28 -51q-11 -23 -19 -45.5t-12.5 -41.5t-3.5 -32t8 -16q7 -4 20.5 6t28.5 28.5t30.5 43.5
t27.5 51zM-71 -138q-6 -17 4 -25q9 -7 22 0t27.5 23t30.5 39.5t32 49.5q-44 -22 -76 -43t-40 -44zM154 540q4 -5 14 -7.5t44 -2.5q-33 -1 -43.5 -3.5t-15.5 -6.5q-2 -3 -4 -7.5t-3 -14.5t-1.5 -28t-0.5 -47q0 29 -0.5 47t-2 28t-3 14.5t-4.5 7.5q-5 4 -15 6.5t-44 3.5
q32 0 43 2.5t16 7.5q4 4 6.5 14.5t3.5 43.5q1 -33 3 -43.5t7 -14.5zM173 -139q2 -2 7.5 -4t25.5 -3q-18 0 -24.5 -2t-9.5 -5q-2 -2 -3 -5t-1.5 -10t-1 -19.5t-0.5 -33.5q0 21 -0.5 33.5t-1 19.5t-2 10t-3.5 5q-3 3 -9.5 5t-25.5 2q20 1 26 3t9 4q2 3 4 9t3 26q0 -19 2 -25.5
t5 -9.5z" />
    <glyph glyph-name="q" unicode="q" horiz-adv-x="294" 
d="M317 353l-173 -363q16 15 34.5 31.5t37.5 39t38.5 52t39.5 70.5l23 -24q-18 -38 -37 -67t-39 -51.5t-39.5 -41t-37.5 -35.5l-10 -9h32l-15 -35h-6q1 -44 5 -59.5t11 -21.5q3 -4 8 -6.5t15.5 -5t29.5 -3.5t50 -2q-30 0 -49 -1.5t-30 -3.5t-16.5 -5t-9.5 -7q-3 -3 -6 -9
t-4.5 -17t-3 -29.5t-1.5 -48.5q-1 30 -2.5 49t-3.5 30t-4.5 16.5t-5.5 8.5q-4 4 -10 7t-17 5t-29.5 3.5t-48.5 1.5q30 1 48.5 2t29.5 3.5t16.5 5t9.5 6.5q7 6 10.5 21.5t5.5 59.5h-42q-11 -12 -19.5 -25t-15.5 -29l-5 -10h-82l29 64h-78l16 35h85l62 93q-32 -32 -64 -46
t-59 3q-26 17 -23.5 66t32.5 111q30 59 60 97.5t58 59.5t52.5 26t43.5 -3q11 -6 19 -18l4 9h81zM167 194q12 25 21 47t14 39.5t4 29t-9 16.5q-9 5 -22.5 -4.5t-29 -27.5t-31.5 -43t-28 -51q-11 -23 -19 -45.5t-12 -41.5t-3 -32t8 -16q7 -4 20.5 6t28.5 28.5t30.5 43.5
t27.5 51zM134 550q4 -5 14 -7.5t44 -2.5q-33 -1 -43.5 -3.5t-15.5 -6.5q-2 -3 -4 -7.5t-3 -14.5t-1.5 -28t-0.5 -47q0 29 -0.5 47t-2 28t-3 14.5t-4.5 7.5q-5 4 -15 6.5t-44 3.5q32 0 43 2.5t16 7.5q4 4 6.5 14.5t3.5 43.5q1 -33 3 -43.5t7 -14.5z" />
    <glyph glyph-name="j" unicode="j" horiz-adv-x="143" 
d="M79 353h81q-25 -51 -51 -105q-23 -46 -49.5 -101t-49.5 -107q39 25 73.5 58.5t59.5 84.5l23 -24q-12 -29 -31.5 -53t-43 -45t-50 -38.5t-53.5 -32.5q-24 -53 -46 -94t-43.5 -67t-44.5 -35.5t-48 1.5q-22 9 -28 34.5t6 50.5q17 35 49.5 58t74.5 45q12 27 27 60.5t34 74.5
q18 39 37.5 80.5t35.5 76.5q18 40 37 78zM200 420q-6 -20 -24.5 -34.5t-39.5 -14.5q-20 0 -30.5 14.5t-5.5 34.5t24 35t39 15q21 0 31.5 -15t5.5 -35zM-179 -133q-3 -8 -2.5 -15t6.5 -9q14 -4 26 15.5t35 72.5q-25 -16 -42 -31.5t-23 -32.5zM63 -155q2 -2 5 -4t9 -3t16.5 -2
t27.5 -1q-33 -1 -44 -3.5t-15 -6.5q-2 -3 -4 -7.5t-3 -14.5t-1.5 -28t-0.5 -47q0 29 -0.5 47t-2 28t-3 14.5t-4.5 7.5q-2 2 -5.5 4t-9.5 3t-16.5 2t-26.5 1q16 0 26.5 1t16.5 2t9.5 3t5.5 4q4 5 6.5 15.5t3.5 43.5q1 -33 3 -44t7 -15zM84 580q2 -3 8 -5t25 -2
q-18 -1 -24.5 -3t-9.5 -4q-2 -2 -3 -5t-1.5 -10t-1 -19.5t-0.5 -33.5q0 21 -0.5 33.5t-1 19.5t-2 10t-3.5 5q-3 2 -9 4t-26 3q19 0 25.5 2t9.5 5q2 2 4 8.5t3 24.5q0 -18 2 -24.5t5 -8.5z" />
    <glyph glyph-name="r" unicode="r" horiz-adv-x="190" 
d="M190 183l23 -24q-35 -73 -70.5 -115t-77.5 -46q-3 -1 -9 -1q-42 0 -50.5 35t21.5 100q10 22 18 38t15 28.5t13.5 24t14.5 25.5q6 11 5.5 21.5t-9.5 18.5l-66 -140l-24 24l68 142q-8 17 -8.5 37t11.5 40q13 22 31 25.5t30 -5.5t13 -26.5t-19 -37.5q-8 -8 -9 -14t2.5 -10
t9.5 -7t11 -5q21 -10 29 -28.5t-1 -36.5l-52 -114q-17 -35 -21 -52.5t9 -17.5q20 0 43 32.5t49 88.5zM75 -87q2 -2 5 -4t9 -3t16.5 -2t27.5 -1q-33 -1 -44 -3.5t-15 -6.5t-6 -14.5t-3 -43.5q-1 33 -3.5 43.5t-6.5 14.5q-2 2 -5.5 4t-9.5 3t-16.5 2t-26.5 1q16 0 26.5 1
t16.5 2t9.5 3t5.5 4q4 5 6.5 15.5t3.5 43.5q1 -33 3 -44t7 -15zM134 500q2 -3 8 -5t25 -2q-18 -1 -24.5 -3t-9.5 -4q-2 -3 -4 -10.5t-2 -30.5q-1 23 -2.5 30.5t-4.5 10.5q-3 2 -9 4t-26 3q19 0 25.5 2t9.5 5q2 2 4 8.5t3 24.5q0 -18 2 -24.5t5 -8.5z" />
    <glyph glyph-name="i" unicode="i" horiz-adv-x="139" 
d="M162 353l-103 -221q-17 -35 -21.5 -52.5t9.5 -17.5q20 0 43 32.5t49 88.5l23 -24q-36 -77 -74 -119.5t-83 -42.5q-42 0 -51 35t22 100l104 221h82zM201 420q-5 -20 -23.5 -34.5t-39.5 -14.5q-20 0 -31 14.5t-5 34.5q5 20 23.5 35t39.5 15q20 0 30.5 -15t5.5 -35zM84 560
q4 -5 14 -7.5t44 -2.5q-33 -1 -43.5 -3.5t-15.5 -6.5q-4 -5 -6 -16.5t-3 -49.5q0 19 -1 30.5t-2 19t-3 11t-4 5.5q-5 4 -15 6.5t-44 3.5q32 0 43 2.5t16 7.5q4 4 6.5 14.5t3.5 43.5q1 -33 3 -43.5t7 -14.5zM61 -131q2 -2 7.5 -4t25.5 -3q-18 0 -24.5 -2t-9.5 -5
q-2 -3 -4 -10t-2 -30q-1 23 -2.5 30t-4.5 10t-9.5 5t-25.5 2q20 1 26 3t9 4q2 3 4 9t3 26q0 -19 2 -25.5t5 -9.5z" />
    <glyph glyph-name="l" unicode="l" horiz-adv-x="190" 
d="M64 343q45 90 89 160.5t83 116t72 64t56 4.5q22 -14 16.5 -55.5t-40.5 -106.5t-100.5 -152t-163.5 -190q-10 -32 -13 -54t-2 -36.5t5 -22t8 -9.5q7 -4 21 4t30.5 24.5t34 40.5t30.5 52l23 -24q-46 -95 -94.5 -131t-86.5 -24q-18 5 -32.5 24.5t-15 59.5t17 102t62.5 153z
M335 610q-4 3 -22.5 -16t-46.5 -57t-63 -94.5t-71 -128.5l-22 -45q47 57 90.5 115.5t76 107t49 81t9.5 37.5zM108 -126q2 -2 5 -4t9 -3t16.5 -2t27.5 -1q-33 -1 -44 -3.5t-15 -6.5q-2 -3 -4 -7.5t-3 -14.5t-1.5 -28t-0.5 -47q0 29 -0.5 47t-2 28t-3 14.5t-4.5 7.5
q-2 2 -5.5 4t-9.5 3t-16.5 2t-27.5 1q16 0 26.5 1t17 2t10 3t5.5 4q4 5 6.5 15.5t3.5 43.5q1 -33 3 -44t7 -15zM105 577q2 -3 8 -5t25 -2q-18 -1 -24.5 -3t-9.5 -4q-2 -3 -4 -9.5t-2 -25.5q-1 20 -3 26t-4 9q-3 2 -9 4t-26 3q19 0 25.5 2t9.5 5q2 2 4 8.5t3 24.5
q0 -18 2 -24.5t5 -8.5z" />
    <glyph glyph-name="t" unicode="t" horiz-adv-x="192" 
d="M63 62q10 0 26.5 8.5t35 24t36.5 38t31 50.5l23 -24q-18 -38 -42 -68t-50.5 -51t-53 -32t-49.5 -11q-20 0 -35.5 9t-22.5 26t-4.5 42.5t17.5 57.5l88 187h-44l16 34h44l79 168l92 23l-89 -191h70l-14 -34h-72l-87 -187q-17 -35 -13 -52.5t18 -17.5zM121 619q3 -5 8 -8
t15.5 -5t29.5 -3t50 -1q-30 -1 -49 -2.5t-30 -3.5t-16.5 -5t-9.5 -6q-3 -4 -6 -10t-4.5 -17t-3 -29.5t-1.5 -48.5q-1 30 -2.5 48.5t-3.5 30t-4.5 17t-5.5 9.5q-4 3 -10 6t-17 5t-29.5 3.5t-48.5 2.5q30 0 48.5 1t29.5 3t16.5 5t9.5 8q3 3 6 8.5t5 16.5t3.5 30t2.5 49
q0 -30 1.5 -49t3.5 -30t5 -16.5t7 -8.5zM102 -82q2 -2 5 -4t9 -3t16.5 -2t27.5 -1q-33 -1 -44 -3.5t-15 -6.5q-2 -3 -4 -7.5t-3 -14.5t-1.5 -28t-0.5 -47q0 29 -0.5 47t-2 28t-3 14.5t-4.5 7.5q-2 2 -5.5 4t-9.5 3t-16.5 2t-27.5 1q16 0 26.5 1t17 2t10 3t5.5 4
q4 5 6.5 15.5t3.5 43.5q1 -33 3 -44t7 -15z" />
    <glyph glyph-name="m" unicode="m" horiz-adv-x="396" 
d="M396 183l23 -24q-29 -63 -60 -103.5t-66 -53.5q-17 -5 -31 -5q-23 0 -36.5 11t-13 37t19 68.5t59.5 104.5q22 32 31 53.5t-2 21.5q-6 0 -17 -8.5t-24.5 -22.5t-27.5 -33t-26 -41t-27.5 -53.5t-29.5 -61.5q-16 -35 -32 -73h-82q23 48 43 90q9 18 17.5 36.5t17 36t15.5 32
t12 23.5q37 72 16 72q-10 0 -28 -22t-40.5 -59t-48 -84.5t-50.5 -98.5v1l-13 -27h-82l167 353h82l-24 -50q26 27 50 38.5t51 11.5h5q16 -2 24.5 -15.5t6.5 -33.5q54 49 94 49q13 0 22.5 -7t13.5 -19.5t1.5 -29.5t-13.5 -36q-36 -64 -58 -103.5t-32.5 -61.5t-11 -29.5
t5.5 -7.5q20 0 46.5 34t52.5 90zM261 509q3 -5 8 -8t15.5 -5t29.5 -3t50 -1q-30 -1 -49 -2.5t-30 -3.5t-16.5 -5t-9.5 -6q-3 -4 -6 -10t-4.5 -19t-3 -34t-1.5 -55q0 34 -1.5 55.5t-3.5 34t-5 18.5t-6 10q-4 3 -10 6t-17 5t-29.5 3.5t-48.5 2.5q30 0 48.5 1t29.5 3t16.5 5
t9.5 8q3 3 6 8.5t5 16.5t3.5 30t2.5 49q0 -30 1.5 -49t3.5 -30t5 -16.5t7 -8.5zM115 -131q3 -4 8 -6.5t15.5 -5t29.5 -3.5t50 -2q-30 0 -49 -1.5t-30 -3.5t-16.5 -5t-9.5 -7q-3 -3 -6 -9t-4.5 -17t-3 -29.5t-1.5 -48.5q-1 30 -2.5 49t-3.5 30t-4.5 16.5t-5.5 8.5q-4 4 -10 7
t-17 5t-29.5 3.5t-48.5 1.5q30 1 48.5 2t29.5 3.5t16.5 5t9.5 6.5q3 4 6 9.5t5 16.5t3.5 29.5t2.5 48.5q0 -30 1.5 -48.5t3.5 -29.5t5 -16.5t7 -9.5zM303 -67q2 -2 5 -4t9 -3t16.5 -2t27.5 -1q-33 -1 -44 -3.5t-15 -6.5q-2 -2 -3.5 -5.5t-2.5 -10.5t-2 -19t-1 -31
q0 19 -1 31t-2 19t-3 10.5t-4 5.5t-5.5 4t-9.5 3t-16.5 2t-27.5 1q16 0 26.5 1t17 2t10 3t5.5 4q4 5 6.5 15.5t3.5 43.5q1 -33 3 -44t7 -15zM114 572q2 -3 8 -5t25 -2q-18 -1 -24.5 -3t-9.5 -4q-2 -3 -4 -9.5t-2 -25.5q-1 20 -3 26t-4 9q-3 2 -9 4t-26 3q19 0 25.5 2t9.5 5
q2 2 4 8.5t3 24.5q0 -18 2 -24.5t5 -8.5z" />
    <glyph glyph-name="k" unicode="k" 
d="M375 688q35 -23 -1 -114.5t-153 -237.5q31 17 54 17q29 0 39.5 -15t6.5 -37.5t-21 -49t-41.5 -49.5t-55 -38.5t-62.5 -16.5q0 -14 4.5 -28.5t12 -26.5t17 -19.5t20.5 -7.5q20 0 49 31t55 87l23 -24q-35 -77 -76 -119.5t-93 -42.5q-5 0 -9.5 1t-9.5 3q1 -26 2 -42.5
t3.5 -26t5 -15t6.5 -8.5q3 -4 8 -6.5t15.5 -5t29.5 -3.5t50 -2q-30 0 -49 -1.5t-30 -3.5t-16.5 -5t-9.5 -7q-3 -4 -6 -10t-4.5 -18.5t-3 -33.5t-1.5 -55q0 34 -1.5 55.5t-3.5 34t-5 18.5t-6 9q-4 4 -10 7t-17 5t-29.5 3.5t-48.5 1.5q30 1 48.5 2t29.5 3.5t16.5 5t9.5 6.5
q3 3 6 8.5t5 15t3.5 26t1.5 42.5q-14 6 -25 19.5t-19 32t-12.5 41t-3.5 46.5q-17 -25 -32 -51t-28 -52l-18 -37h-82q46 98 83 175q15 33 30 64.5t27 56.5t19.5 40.5t7.5 16.5q29 58 58 107t56 90q57 82 103.5 119.5t77.5 18.5zM346 610q-4 3 -22 -15t-44.5 -54t-60 -89.5
t-69.5 -121.5l-26 -58q46 57 89.5 115t75 106t48 80t9.5 37zM223 300q-8 0 -21.5 -9.5t-30.5 -26.5t-36.5 -40.5t-39.5 -51.5q19 1 38.5 11.5t36.5 24.5t30.5 30t21.5 30t9 23t-8 9zM104 560q4 -5 14 -7.5t44 -2.5q-33 -1 -43.5 -3.5t-15.5 -6.5q-4 -5 -6 -16.5t-3 -49.5
q0 19 -1 30.5t-2 19t-3 11t-4 5.5q-5 4 -15 6.5t-44 3.5q32 0 43 2.5t16 7.5q4 4 6.5 14.5t3.5 43.5q1 -33 3 -43.5t7 -14.5z" />
    <glyph glyph-name="e" unicode="e" horiz-adv-x="274" 
d="M274 183l23 -24q-27 -47 -63 -83.5t-75 -58.5t-77 -26.5t-68 14.5q-16 10 -25.5 28t-11.5 42.5t4 53t21 59.5q29 59 62.5 97t65.5 58t60 24t46 -5q15 -8 23.5 -23.5t9.5 -35.5t-5.5 -43.5t-22.5 -46.5q-22 -32 -48.5 -51.5t-51.5 -26t-44.5 -1t-28.5 23.5
q-9 -33 -6.5 -58.5t22.5 -34.5q16 -8 42 -2.5t53 22t52.5 42t42.5 56.5zM187 244q26 28 34 52.5t0 29.5q-12 8 -30 0t-37 -26t-37 -43t-30 -51q-5 -14 3 -17.5t23 2t34.5 19t39.5 34.5zM161 -131q3 -4 8 -6.5t15.5 -5t29.5 -3.5t50 -2q-30 0 -49 -1.5t-30 -3.5t-16.5 -5
t-9.5 -7q-3 -4 -6 -10t-4.5 -18.5t-3 -33.5t-1.5 -55q0 34 -1.5 55.5t-3.5 34t-5 18.5t-6 9q-4 4 -10 7t-17 5t-29.5 3.5t-48.5 1.5q30 1 48.5 2t29.5 3.5t16.5 5t9.5 6.5q3 4 6 9.5t5 16.5t3.5 29.5t2.5 48.5q0 -30 1.5 -48.5t3.5 -29.5t5 -16.5t7 -9.5zM154 560
q4 -5 14 -7.5t44 -2.5q-33 -1 -43.5 -3.5t-15.5 -6.5q-2 -3 -4 -7.5t-3 -14.5t-1.5 -28t-0.5 -47q0 29 -0.5 47t-2 28t-3 14.5t-4.5 7.5q-5 4 -15 6.5t-44 3.5q32 0 43 2.5t16 7.5q4 4 6.5 14.5t3.5 43.5q1 -33 3 -43.5t7 -14.5z" />
    <glyph glyph-name="h" unicode="h" horiz-adv-x="280" 
d="M375 688q35 -22 1 -110t-144 -228q10 3 20 3q13 0 22.5 -7t13.5 -19.5t1.5 -29.5t-13.5 -36q-36 -64 -57.5 -103.5t-32 -61.5t-11.5 -29.5t6 -7.5q20 0 46.5 34t52.5 90l23 -24q-36 -77 -74 -119.5t-83 -42.5q-23 0 -37 11t-13 37t19 68.5t59 104.5q22 32 31.5 53.5
t-1.5 21.5q-10 0 -31 -20.5t-47.5 -54.5t-55 -78.5t-53.5 -92.5l-22 -47h-82q46 98 83 175q15 33 30 64.5t27 56.5t19.5 40.5t7.5 16.5q45 88 88 156.5t81.5 112.5t70.5 62t55 4zM346 610q-4 3 -22 -15t-44.5 -54t-60 -89.5t-68.5 -121.5l-27 -58q47 57 90 115t74.5 106
t48 80t9.5 37zM154 -147q2 -2 5 -4t9 -3t16.5 -2t27.5 -1q-33 -1 -44 -3.5t-15 -6.5q-2 -3 -4 -7.5t-3 -14.5t-1.5 -28t-0.5 -47q0 29 -0.5 47t-2 28t-3 14.5t-4.5 7.5q-2 2 -5.5 4t-9.5 3t-16.5 2t-27.5 1q16 0 26.5 1t17 2t10 3t5.5 4q4 5 6.5 15.5t3.5 43.5q1 -33 3 -44
t7 -15zM196 664q4 -5 14 -7.5t44 -2.5q-33 -1 -43.5 -3.5t-15.5 -6.5q-4 -5 -6 -16.5t-3 -49.5q0 19 -1 30.5t-2 19t-3 11t-4 5.5q-5 4 -15 6.5t-44 3.5q32 0 43 2.5t16 7.5q4 4 6.5 14.5t3.5 43.5q1 -33 3 -43.5t7 -14.5z" />
    <glyph glyph-name="p" unicode="p" horiz-adv-x="292" 
d="M251 359q13 -8 18.5 -26t4 -42.5t-10 -54t-24.5 -59.5q-23 -44 -53.5 -79t-60.5 -54q54 15 99 51.5t68 87.5l23 -24q-18 -38 -46.5 -69t-63 -53t-71.5 -33t-71 -8q-10 -1 -18 1t-16 5t-13 10q-3 4 -5 7l25 32l4 -4l3.5 -3.5t3.5 -2.5q8 -5 21 5.5t28 29.5t30 44.5
t27 51.5q11 23 21 47.5t16.5 45t7.5 35t-6 18.5q-7 3 -21.5 -9.5t-32 -35t-34.5 -50t-29 -54.5l-3 -4l-146 -309h-82l236 497h81l-7 -14q26 20 51 26.5t46 -6.5zM98 -150q2 -2 5 -4t9 -3t16.5 -2t27.5 -1q-33 -1 -44 -3.5t-15 -6.5q-2 -2 -3.5 -5.5t-2.5 -10.5t-2 -19
t-1 -31q0 19 -1 31t-2 19t-3 10.5t-4 5.5t-5.5 4t-9.5 3t-16.5 2t-27.5 1q16 0 26.5 1t17 2t10 3t5.5 4q4 5 6.5 15.5t3.5 43.5q1 -33 3 -44t7 -15zM164 490q2 -3 8 -5t25 -2q-18 -1 -24.5 -3t-9.5 -4q-2 -2 -3 -5t-1.5 -10t-1 -19.5t-0.5 -33.5q0 21 -0.5 33.5t-1 19.5
t-2 10t-3.5 5q-3 2 -9 4t-26 3q19 0 25.5 2t9.5 5q2 2 4 8.5t3 24.5q0 -18 2 -24.5t5 -8.5z" />
    <glyph glyph-name="parenleft" unicode="(" horiz-adv-x="311" 
d="M533 626q-57 -34 -115 -84t-110 -111t-95 -129.5t-69 -140.5t-32 -144t15 -139q-8 -8 -19.5 -9t-24.5 6t-25.5 21.5t-20.5 37.5q-23 63 -11 135.5t47.5 146.5t88.5 144.5t114 130t124.5 103t117.5 63.5z" />
    <glyph glyph-name="braceleft" unicode="{" horiz-adv-x="293" 
d="M496 630q-27 -20 -49.5 -53.5t-44 -73.5t-44 -82t-47.5 -78t-54.5 -63t-65.5 -36q7 -12 9 -25q4 -31 -7 -61t-29.5 -59.5t-40.5 -58t-39.5 -57.5t-26 -58t0.5 -58q-17 -9 -32.5 -5.5t-24.5 17.5t-10.5 38t8.5 58q7 23 21 49t31 51.5t34 49.5t31 43.5t21.5 33.5t4.5 20
l-34 8v56q41 9 70.5 31.5t52 53t41.5 66t38 70t41 65.5t52 52q13 9 27 15.5t26.5 8t23 -2t16.5 -15.5z" />
    <glyph glyph-name="bracketleft" unicode="[" horiz-adv-x="316" 
d="M-40 -144l395 793h125l-13 -34h-48l-360 -725h44l-13 -34h-130z" />
    <glyph glyph-name="zero" unicode="0" horiz-adv-x="646" 
d="M138 251q-9 -1 -19 2.5t-15.5 9.5t-4 13t16.5 12q15 -9 42 -7.5t54.5 7t52 12.5t35.5 9q20 6 37 16.5t20 15.5q27 -3 43 6.5t25.5 25t15 34.5t11.5 34l-7 -4q-6 -4 -12.5 -2t-12.5 5q-7 4 -13 10q6 0 14 1q7 1 16 1.5t20 0.5v1l11 19q-21 -4 -59 -3t-77 7t-71.5 16.5
t-42.5 25.5q-11 17 -9.5 24t8.5 7t17 -7t17 -19q14 -24 21.5 -23t3.5 21q-3 10 -1 16t5.5 6t7.5 -7t6 -22q3 -8 10 -12t16 -6.5t19 -3.5t18 -2t24.5 -3t33 -2.5t28.5 0.5t11 6q-1 4 -11.5 7.5t-26.5 8t-35 10.5t-35 15t-28 22t-14 32q5 0 10 -5.5t10 -11.5t9.5 -11t9.5 -4
t6.5 5.5t1.5 9.5t1 9t4 3q4 -1 4.5 -7t2 -14.5t7 -16.5t18.5 -13q26 -11 30.5 -7.5t2.5 20.5q0 9 3.5 12t8 0.5t7.5 -12t0 -26.5q3 -3 8.5 -4.5t10.5 -3.5q6 -2 13 -2q10 15 17 31q6 14 10.5 29t2.5 29t0.5 18.5t6 1.5t7.5 -11.5t4 -21.5q1 -12 -4.5 -24.5t-12 -23.5
t-11.5 -19t-2 -11t11.5 1.5t17.5 13t16.5 18t7.5 15.5q-1 5 5 10.5t12 8.5t8 1.5t-5 -10.5q-8 -10 -8.5 -13t3 -2.5t9 4t11.5 6.5t-1.5 -5t-21 -21t-31 -27t-31.5 -24q8 -1 15 -4.5t18 -6.5q6 -1 16.5 -2.5t21 -4t18.5 -6.5t10 -8q4 -9 -2 -13t-11 -10q-2 -2 -9 -3.5
t-15.5 -3t-16 -3.5t-10.5 -6q-6 -7 -19 -11q-6 -2 -12 -3q22 -37 30 -64t7 -46.5t-9 -32.5t-17 -22q12 -9 24 -18.5t22 -17.5t16.5 -14t6.5 -8q1 -4 -6.5 -20.5t-18.5 -36.5t-23.5 -40t-20.5 -30q-6 2 -7.5 7t-0.5 11t3 13t2 12q1 9 7 11q3 1 5 0q10 17 17 32q6 13 10 24
t2 15q-4 3 -25 11.5t-45 13.5q-2 -18 -2.5 -38.5t4.5 -29.5q4 -7 0.5 -20t-7 -28.5t-4 -31.5t9.5 -30q-15 -2 -25 2t-14.5 10t-4 13t5.5 10q6 3 10 13t6 22t2 23t-3 16t-7.5 24t-10.5 39q-39 -10 -62 -17.5t-45 0.5l-29 7l-22 -9q-8 -10 -16 -22.5t-9 -17.5q0 -5 18 -12
t35.5 -18.5t26 -29.5t-8.5 -43q-17 6 -21.5 12t10.5 30q-47 10 -64 24t-20 32q0 13 4 25l-91 -39q3 -26 5 -49q2 -20 1.5 -39t-5.5 -29l-36 22q0 1 2 4l4.5 4.5t7.5 6.5q3 10 2.5 26t-2.5 31l-6 36q11 7 21 16q8 8 15.5 19t9.5 25q-7 3 -12.5 11t-9 18t-4 20t2.5 16z" />
    <glyph glyph-name="one" unicode="1" horiz-adv-x="628" 
d="M324 30v-16l59 -38h-186l64 40v20q-25 -14 -59.5 -20t-68.5 -2t-63 19t-44 45q35 -6 58.5 6t40.5 37zM183 393q11 14 20.5 34t21 41.5t27.5 43.5t40 41q36 -28 54.5 -62t33 -63t31.5 -47t49 -12q-8 -18 -25.5 -28t-37.5 -13q8 -15 14.5 -28.5t14.5 -24.5zM448 249
q24 -21 61 -15q-11 -23 -33.5 -35.5t-49.5 -16.5q5 -10 11.5 -23.5t11.5 -22.5l-292 134q10 13 16 26t15 32q-21 3 -38 13t-26 28q27 -4 45 9zM478 100q15 -14 34.5 -20.5t45.5 -1.5q-17 -36 -56 -51t-81 -14l-284 126q6 10 11.5 21t10.5 22q-27 4 -50 16.5t-34 35.5
q24 -4 40.5 2.5t29.5 20.5zM239 119q16 0 27 11t11 27t-11 27.5t-27 11.5q-17 0 -28 -11.5t-11 -27.5t11 -27t28 -11zM275 253q12 0 20.5 8.5t8.5 20.5t-8.5 20t-20.5 8t-20.5 -8t-8.5 -20t8.5 -20.5t20.5 -8.5zM339 331q10 0 16.5 6.5t6.5 16.5q0 9 -6.5 16t-16.5 7
q-9 0 -15.5 -7t-6.5 -16q0 -10 6.5 -16.5t15.5 -6.5zM265 404q8 0 13.5 5t5.5 13q0 19 -19 19q-8 0 -13 -5.5t-5 -13.5t5 -13t13 -5zM322 77q8 0 13.5 5t5.5 13q0 19 -19 19q-8 0 -13 -5.5t-5 -13.5t5 -13t13 -5zM374 190q8 0 13.5 5t5.5 13q0 19 -19 19q-8 0 -13 -5.5
t-5 -13.5t5 -13t13 -5z" />
    <glyph glyph-name="two" unicode="2" horiz-adv-x="635" 
d="M574 361q8 -27 5 -43.5t-13 -26t-25 -14.5t-30.5 -9t-28.5 -9t-19 -15q-9 -15 -11.5 -31t0.5 -34t9 -38t13 -43q6 -20 16.5 -44t15.5 -47.5t0.5 -45t-27.5 -37.5q-26 -18 -43 -14t-29 19.5t-20 38.5t-15.5 44.5t-15.5 36.5t-19 15q-12 0 -20 -15t-15 -36.5t-15 -44.5
t-20 -38.5t-29.5 -19t-42.5 13.5q-24 16 -28.5 37.5t0.5 45t15.5 47.5t16.5 44q15 46 22.5 81t-11.5 65q-6 10 -19 15t-28.5 9t-30 9t-25 14.5t-13.5 26t6 43.5q7 23 21 30t31.5 4.5t36.5 -10.5t36 -16t29.5 -12t17.5 2q-20 15 -32.5 38t-12.5 51q0 22 8.5 42t23.5 35t35 24
t43 9q22 0 42 -9t35 -24t23.5 -35t8.5 -42q0 -28 -12.5 -51t-32.5 -38q5 -6 18 -2t30 12t35.5 16t36 10.5t32 -4.5t21.5 -30zM366 197q5 -17 14 -21t14 -4h1q11 0 21.5 8t14.5 20q4 9 -5 11q-3 2 -6 0t-4 -5q-3 -7 -9.5 -12t-11.5 -5q-9 0 -12 13q-6 20 -15 24t-14 4
q-18 0 -26 -26q-2 -7 -7.5 -9t-8.5 -2q-17 0 -22 11q-3 11 -8.5 14t-8.5 4q-20 3 -41 -27q-5 -7 2 -11q7 -5 12 2q8 11 14.5 15t9.5 4q2 0 4 -6q4 -11 14.5 -17t23.5 -6q12 1 21 7t12 17q3 13 10 13t11 -16zM285 437q-7 -2 -7 -10q4 -17 21.5 -30.5t37.5 -15.5h5q33 0 47 37
q4 7 -5 11q-8 2 -11 -5q-11 -27 -35 -26q-15 2 -28 12t-15 20q-2 9 -10 7zM277 -22q2 13 -3.5 21t-12.5 12q-8 4 -16 3t-13 -7q-4 -3 -10 -5t-11 0q-8 3 -11 14q-1 4 -4 5.5t-6 1.5q-9 -3 -7 -11q5 -21 23 -26q11 -3 21 0t16 9q4 3 10 1q9 -4 7 -16q0 -8 8 -10h1q8 0 8 8z
M453 11q-2 -2 -8 2q-16 10 -29 6q-11 -4 -16.5 -15.5t-8.5 -22.5q-2 -8 6 -10q0 -1 2 -1q6 0 8 6q5 15 8.5 20t6.5 7q3 1 13 -4q11 -8 23 -5q12 4 18.5 14t7.5 12q4 7 -4 11q-7 4 -11 -4q-2 -3 -6 -8.5t-10 -7.5zM177 360q9 0 9 8q0 9 -9 9q-12 0 -16 -9q-6 -9 -6 -22.5
t5 -22.5q2 -4 1 -10t-4 -9q-2 -2 -6 -2q-9 4 -11 -6q-2 -8 6 -10q2 -1 7 -1q9 0 17 8q6 7 7.5 18t-2.5 19q-3 7 -3 15.5t3 12.5q1 2 2 2zM508 374q-13 -17 -5 -37q6 -17 24 -20l1 -1q1 -2 -1 -7.5t-6 -10.5q-6 -6 2 -12q2 -1 5 -1q4 0 7 3q2 4 7.5 14.5t1.5 20.5
q-1 2 -4 5.5t-11 5.5q-7 1 -11 9q-4 11 3 20q5 6 -1 12q-6 5 -12 -1zM379 491q-10 -5 -7 -18q2 -5 6 -9.5t9 -4.5h1q2 0 5.5 2.5t4.5 10.5q1 3 -1.5 6t-5.5 3q1 2 -1 6q-4 8 -11 4zM293 481q-6 -5 -1 -12q5 -5 10 -5t8 3q5 3 6 9t-4 12q-3 7 -11 3q-4 -3 -4 -8q-2 0 -4 -2z
" />
    <glyph glyph-name="three" unicode="3" horiz-adv-x="635" 
d="M338 301q39 0 73.5 -15t60 -40.5t40.5 -60.5t15 -74t-15 -73.5t-40.5 -60t-60 -40.5t-73.5 -15t-74 15t-60.5 40.5t-40.5 60t-15 73.5q0 42 19 82q-16 19 -16 44q0 24 14 43q-1 0 -14.5 16t-22.5 45q-4 13 -6 30.5t1 38t12.5 44t27.5 49.5q28 39 65 55q33 11 65 2
q26 -8 43 -26t17 -37q1 -14 -6.5 -23t-21.5 -14q-25 -9 -49.5 -23.5t-44 -35t-31.5 -46t-12 -56.5q17 10 36 10q31 0 49 -20q31 12 65 12zM515 115q0 36 -14 68.5t-38 56.5t-56 38t-69 14t-69.5 -14t-56.5 -38t-38 -56.5t-14 -68.5q0 -37 14 -69.5t38 -56.5t56.5 -38
t69.5 -14t69 14t56 38t38 56.5t14 69.5zM267 533q-18 0 -41 -10t-46 -41q-56 -73 -35 -139q2 -7 5 -12.5t5 -10.5q11 52 52 93q32 30 65 46.5t53 21.5q8 2 9 5.5t1 5.5q0 9 -12.5 21t-31.5 17q-11 3 -24 3zM381 257q-26 0 -43.5 -17t-17.5 -43q0 -25 17.5 -42.5t43.5 -17.5
q25 0 42.5 17.5t17.5 42.5q0 26 -17.5 43t-42.5 17zM504 115q0 -40 -16.5 -73t-44.5 -56q21 19 34 49q-24 -16 -53.5 -9t-60.5 24.5t-60.5 39.5t-53.5 36.5t-39.5 16t-18.5 -22.5q-5 -38 2 -68.5t24 -51.5q-22 22 -34 51.5t-12 63.5t13 64.5t36 53t53 35.5t65 13
q34 0 64.5 -13t53 -35.5t35.5 -53t13 -64.5z" />
    <glyph glyph-name="four" unicode="4" horiz-adv-x="642" 
d="M246 -28h-138v380h138v-380zM507 -28h-137v380h137v-380zM353 -34h-91v393h91v-393zM414 528l67 -42q4 -20 -10 -39.5t-33 -35.5q-22 -18 -51 -36h-72q31 32 55 61q20 25 34.5 50.5t9.5 41.5zM186 505q-6 -16 9 -38.5t35 -42.5q24 -24 57 -49h-74q-30 10 -52 24
q-19 11 -33.5 27.5t-10.5 36.5zM307 386q3 29 12 55.5t22 46.5t28.5 31t32.5 9q2 -15 -12 -39t-33 -47q-22 -27 -50 -56zM294 386q-29 22 -51 44q-19 19 -33 39.5t-11 35.5q16 2 32.5 -5.5t29.5 -23t22 -38.5t11 -52z" />
    <glyph glyph-name="five" unicode="5" horiz-adv-x="726" 
d="M539 334q16 -13 32 -46.5t27.5 -75t17 -84.5t0.5 -75q-4 -21 -30.5 -35.5t-67 -22.5t-88.5 -10.5t-94.5 -1t-85.5 7t-61 13.5q-33 13 -55 44t-35.5 66t-18.5 66.5t-3 43.5q1 11 18 25t44 29t62.5 29.5t74.5 26.5q-16 -13 -31 -24.5t-26 -22t-16 -19t1 -14.5
q7 -8 21.5 2.5t29.5 26.5q18 18 38 44q27 -11 52 -22q21 -11 41.5 -24t31.5 -29q-5 16 -17.5 30.5t-27 26t-30 20.5t-26.5 14q18 2 50 5t65.5 3.5t63.5 -3t43 -14.5zM272 393q-40 34 -52 47.5t10 24.5q35 18 47 17t11 -15q7 5 15.5 9t17.5 6t16.5 2t11.5 -2q-9 -3 -17 -16.5
t-14 -28.5q-7 -18 -13 -40h-15l-4 8t-3.5 9t-3.5 11zM255 377q6 -5 19 1t26.5 10t22.5 1t8 -25q0 -5 -12 -10.5t-27 -9t-28.5 -3t-17.5 8.5q-8 16 -6.5 26.5t15.5 0.5zM487 300q5 25 -28.5 35t-85.5 0q28 -3 51 -7q20 -4 38 -10.5t25 -17.5zM246 393l-72 31l31 10z" />
    <glyph glyph-name="six" unicode="6" horiz-adv-x="659" 
d="M566 101q-2 -8 -6 -15t-8 -15l44 -31l-2 -8l-51 27q-5 -11 -13 -20.5t-16 -18.5l-7 12q7 7 13.5 16t12.5 17l-70 38q-1 -2 -2.5 -4t-2.5 -4h1l-2 -61l-11 -4l-14 39q-11 -8 -22.5 -14.5t-24.5 -11.5l27 -33l-4 -5l-60 29h-6l-8 -79q8 0 15 0.5t14 1.5l6 -13
q-8 -1 -17.5 -1.5t-17.5 -0.5l-6 -62h-4l-5 62h-9t-11 1l8 12h12l-5 79h-9l-58 -29l-3 5l26 33q-23 8 -46 25l-11 -38l-13 4l-2 59q-2 2 -3 4t-3 4l-69 -37q15 -25 39 -47l-6 -12q-6 7 -11 11q-11 11 -18.5 20.5t-15.5 20.5l-46 -25l-4 8l41 29q-5 12 -10.5 23.5t-10.5 23.5
l15 -1q7 -20 18 -37l64 45q-2 4 -4 10l-58 28l7 11l39 -5q-1 8 -1.5 16.5t-0.5 16.5q0 19 4 35l-39 -5l-6 10l55 29q1 3 2.5 5t2.5 5l-63 47q-15 -26 -24 -54l-15 1q6 16 12.5 31t15.5 30l-44 32l4 7l49 -27q10 18 26 32l6 -12q-5 -6 -11 -12.5t-11 -14.5l71 -37l2 4t3 4
l3 58l11 4l12 -37q11 7 21 12.5t22 10.5l-25 29l3 6l57 -27q2 0 4.5 0.5t5.5 0.5l5 79q-9 0 -18.5 -1t-19.5 -3l-6 13q11 2 22 3t22 1l5 62h4l6 -62q22 0 40 -3l-5 -14q-8 2 -17 3t-17 1l7 -79q2 0 4 -0.5t4 -0.5l58 27l4 -6l-25 -29q23 -9 42 -25l14 39l11 -4l3 -59
q-1 1 -3 1l8 -9l69 37q-5 7 -10 13.5t-9 11.5l5 13q8 -8 14 -15.5t11 -16.5l52 29l2 -7l-46 -34q19 -32 28 -69h-12q-5 17 -11 32t-14 29l-65 -46l3 -8l60 -30l-7 -10l-40 5q1 -8 2 -16.5t1 -18.5q0 -8 -1 -16.5t-2 -16.5l42 5l7 -11l-59 -30l-1 2l-4 -8l64 -46q3 5 6 11
t5 11h14zM419 169l14 -9l49 5q2 8 3 17.5t1 17.5q0 10 -1.5 18.5t-3.5 18.5l-50 5l-13 -8q4 -8 5 -16t1 -18q0 -8 -1 -15.5t-4 -15.5zM173 165l52 -5l10 7q-6 16 -6 33q0 20 7 35l-10 7l-53 -5q-3 -20 -3 -37q0 -16 3 -35zM378 50q31 11 50 29l-16 47l-14 8q-20 -23 -50 -29
l-1 -15zM228 76q11 -8 23 -14.5t24 -11.5l33 40l-1 15q-31 7 -51 28l-10 -7zM426 323q-20 17 -46 26l-33 -41l1 -12q29 -6 49 -27l13 6zM274 349q-22 -9 -44 -23l18 -51l11 -6q19 21 48 27l1 12zM211 308q-9 -9 -16 -20.5t-12 -23.5l6 -5q9 -5 20.5 -3t16.5 12q6 9 3.5 20
t-11.5 17q-3 3 -7 3zM303 357q-1 -3 -1 -8q0 -11 8 -19t19 -8t18.5 8t7.5 19v7q-15 3 -28 3q-6 0 -12.5 -0.5t-11.5 -1.5zM440 305q-10 -6 -12.5 -17t4.5 -20q5 -10 16 -12t20 3q2 1 2.5 2t1.5 2q-9 23 -29 45zM210 99q18 12 8 34q-6 8 -15.5 9.5t-18.5 -3.5h-3
q6 -12 12 -22t15 -19q1 0 2 1zM352 44q0 25 -25 25q-10 0 -17 -7t-7 -18q7 -1 12.5 -2t11.5 -1t12.5 1t12.5 2zM448 99q8 9 14 19t11 21q-8 5 -18 3.5t-15 -9.5q-5 -10 -3 -19.5t10 -14.5h1zM251 179l29 23l-29 21q-3 -12 -3 -23t3 -21zM377 202l27 -21q2 5 2 9.5v9.5
q0 6 -1 11t-2 11zM353 158l-4 -34q19 7 31 19zM302 155l-28 -13q7 -6 14.5 -10.5t15.5 -7.5zM349 275l3 -28l26 13q-14 11 -29 15zM302 248l2 27q-7 -2 -14 -5.5t-13 -7.5z" />
    <glyph glyph-name="seven" unicode="7" horiz-adv-x="580" 
d="M502 21l-65 60q-25 -23 -57 -36.5t-67 -13.5q-1 -20 -1 -43.5v-51.5q0 28 -1 51.5t-2 43.5q-35 0 -66.5 13.5t-55.5 36.5l-64 -60l59 64q-23 25 -37 56t-14 67q-12 0 -25 0.5t-27 1.5q14 0 27 0.5t25 0.5q0 37 14 69t37 55l-59 65l64 -59q24 23 55.5 35.5t66.5 14.5l3 71
v-38t1 -33q35 -2 67 -14.5t57 -35.5l65 59l-60 -65q23 -24 36 -56t14 -68q11 -1 22.5 -1h24.5q-14 -1 -25 -1.5t-22 -0.5q-1 -36 -14.5 -67t-36.5 -56zM139 211q34 1 57 3.5t38.5 5.5t25 6.5t15.5 8.5l-87 95q-23 -23 -36 -53.5t-13 -65.5zM437 330l-88 -95q6 -5 14.5 -9
t23.5 -7t38.5 -5t58.5 -3q-1 35 -13 65.5t-34 53.5zM484 208q-34 -1 -57 -3t-38.5 -4.5t-25 -6.5t-16.5 -8l88 -95q47 47 49 117zM187 91l88 94q-6 5 -15.5 8.5t-25 6.5t-38.5 5t-57 3q0 -34 12.5 -64t35.5 -53zM431 86l-97 88q-3 -6 -6.5 -15t-6 -24.5t-4.5 -38.5t-3 -57
q34 0 64 12.5t53 34.5zM309 39q-1 34 -3 57t-4.5 38t-6 24t-7.5 15l-96 -88q24 -22 54 -34t63 -12zM193 335l94 -87q4 6 8 15t6.5 24.5t4.5 38.5t3 57q-34 -1 -63.5 -14t-52.5 -34zM314 383q1 -33 3 -56t5 -38.5t6.5 -25t8.5 -15.5l93 87q-23 21 -52.5 34t-63.5 14z" />
    <glyph glyph-name="eight" unicode="8" horiz-adv-x="664" 
d="M309 577l33 -261l274 37l-253 -101l136 -261l-190 222l-191 -222l137 261l-254 101l274 -37z" />
    <glyph glyph-name="nine" unicode="9" horiz-adv-x="610" 
d="M542 352q3 -39 -14.5 -82t-49 -88t-73 -90.5t-86.5 -90.5q-45 45 -86.5 90.5t-73 90.5t-49 88t-14.5 82q3 41 24 67.5t49.5 38.5t59 9.5t52.5 -19.5q20 -15 38 -50q18 35 38 50q22 17 52.5 19.5t59 -9.5t49.5 -38.5t24 -67.5z" />
    <glyph glyph-name="germandbls" unicode="&#xdf;" horiz-adv-x="324" 
d="M150 329l-195 -413h-82q57 121 103 217q19 41 37.5 80t33 70t24 50t9.5 20q51 100 92.5 158.5t75 85.5t61 29t50.5 -9q31 -15 41.5 -43t0.5 -64t-42 -77t-87 -83q24 -18 26 -66t-29 -107q-23 -45 -54 -81t-62 -54q56 15 101.5 52t69.5 89l23 -24q-18 -38 -46.5 -68
t-62.5 -51.5t-70.5 -32.5t-70.5 -11q-15 0 -31 5t-24 18l24 32l4 -4q5 -5 7 -6q9 -5 22 5.5t28 29.5t30 44.5t27 51.5q9 21 17 42.5t13 40.5t6 34t-2 23q-12 -8 -24.5 -14.5t-26.5 -14.5l-17 24q48 42 87 86t64.5 82.5t35.5 66t-2 35.5q-26 17 -69.5 -46.5t-115.5 -201.5z
M154 -147q2 -2 5 -4t9 -3t16.5 -2t27.5 -1q-33 -1 -44 -3.5t-15 -6.5q-2 -2 -3.5 -5.5t-2.5 -10.5t-2 -19t-1 -31q0 19 -1 31t-2 19t-3 10.5t-4 5.5t-5.5 4t-9.5 3t-16.5 2t-27.5 1q16 0 26.5 1t17 2t10 3t5.5 4q4 5 6.5 15.5t3.5 43.5q1 -33 3 -44t7 -15zM196 664
q4 -5 14 -7.5t44 -2.5q-33 -1 -43.5 -3.5t-15.5 -6.5q-4 -5 -6 -15.5t-3 -43.5q-1 33 -3.5 43.5t-6.5 15.5q-5 4 -15 6.5t-44 3.5q32 0 43 2.5t16 7.5q4 4 6.5 14.5t3.5 43.5q1 -33 3 -43.5t7 -14.5z" />
    <glyph glyph-name="thorn" unicode="&#xfe;" horiz-adv-x="293" 
d="M252 359q13 -8 18.5 -26t4 -42.5t-10 -54t-24.5 -59.5q-23 -45 -54.5 -80.5t-60.5 -53.5q54 15 99 51.5t69 88.5l23 -24q-21 -43 -57.5 -78.5t-79.5 -57t-87 -24.5t-80 20l25 32l4 -4l3.5 -3.5t3.5 -2.5q8 -5 21 5.5t28 29.5t30 44.5t27 51.5q11 23 21 47.5t16.5 45
t7.5 35t-6 18.5q-7 3 -21.5 -9.5t-32 -35t-35 -51t-30.5 -56.5l-146 -310h-83l327 690h81l-98 -207q26 20 51 26.5t46 -6.5zM154 -147q2 -2 5 -4t9 -3t16.5 -2t27.5 -1q-33 -1 -44 -3.5t-15 -6.5q-2 -2 -3.5 -5.5t-2.5 -10.5t-2 -19t-1 -31q0 19 -1 31t-2 19t-3 10.5t-4 5.5
t-5.5 4t-9.5 3t-16.5 2t-27.5 1q16 0 26.5 1t17 2t10 3t5.5 4q4 5 6.5 15.5t3.5 43.5q1 -33 3 -44t7 -15zM142 622q4 -5 14 -7.5t44 -2.5q-33 -1 -43.5 -3.5t-15.5 -6.5q-4 -5 -6 -15.5t-3 -43.5q-1 33 -3.5 43.5t-6.5 15.5q-5 4 -15 6.5t-44 3.5q32 0 43 2.5t16 7.5
q4 4 6.5 14.5t3.5 43.5q1 -33 3 -43.5t7 -14.5z" />
    <glyph glyph-name="eth" unicode="&#xf0;" horiz-adv-x="302" 
d="M196 541h94q2 -10 4 -22.5t3 -27.5l54 27l13 -32l-66 -33q1 -45 -6.5 -100t-27.5 -112q23 0 49.5 9t40.5 20l13 -28q-27 -17 -58.5 -25.5t-57.5 -10.5q-7 -18 -13 -31q-18 -38 -44.5 -74.5t-57.5 -62.5t-63.5 -36.5t-63.5 3.5q-32 15 -38.5 61t24.5 108q29 58 61 98.5
t63 63.5t59.5 29.5t51.5 -3.5q0 14 -1.5 27.5t-3.5 27.5l-45 -23l-16 31l55 27q-5 26 -11 48t-12 41zM224 323q2 0 3 -0.5t3 -0.5v14q-30 5 -69 -27t-79 -117q-22 -46 -22.5 -79.5t20.5 -44.5q10 -6 26 2t33 25.5t33 41.5t28 51l9 22q-21 9 -29 28t-5.5 37.5t15 33
t34.5 14.5zM154 -147q2 -2 5 -4t9 -3t16.5 -2t27.5 -1q-33 -1 -44 -3.5t-15 -6.5q-2 -2 -3.5 -5.5t-2.5 -10.5t-2 -19t-1 -31q0 19 -1 31t-2 19t-3 10.5t-4 5.5t-5.5 4t-9.5 3t-16.5 2t-27.5 1q16 0 26.5 1t17 2t10 3t5.5 4q4 5 6.5 15.5t3.5 43.5q1 -33 3 -44t7 -15z
M196 664q4 -5 14 -7.5t44 -2.5q-33 -1 -43.5 -3.5t-15.5 -6.5q-4 -5 -6 -16.5t-3 -49.5q0 19 -1 30.5t-2 19t-3 11t-4 5.5q-5 4 -15 6.5t-44 3.5q32 0 43 2.5t16 7.5q4 4 6.5 14.5t3.5 43.5q1 -33 3 -43.5t7 -14.5z" />
    <glyph glyph-name="copyright" unicode="&#xa9;" horiz-adv-x="621" 
d="M365 111l23 -23q-17 -28 -41 -50t-51.5 -34.5t-55 -13t-49.5 14.5q-20 13 -29.5 38t-10 56t7.5 64.5t23 63.5q31 61 68 99t73 57.5t67 23t50 -5.5q11 -5 18 -16.5t9.5 -27t0 -33.5t-9.5 -35q-8 -17 -17 -28.5t-18 -18t-17 -9t-13 -2.5q-19 0 -28.5 13t-4.5 31t21.5 31
t34.5 13q4 0 6.5 -0.5t5.5 -1.5q9 14 6.5 29t-10.5 20q-12 8 -32 1.5t-43 -23.5t-44.5 -42.5t-36.5 -55.5q-16 -33 -25.5 -63t-11 -54.5t5.5 -41.5t24 -23q23 -8 52 5t52 42zM410 534q59 0 102.5 -26.5t68.5 -73t29 -108.5t-17 -133t-61.5 -132.5t-92.5 -108t-111.5 -73
t-117.5 -26.5q-59 0 -102.5 26.5t-68 73t-28.5 108t17 132.5t61 133t92 108.5t111 73t118 26.5zM560 193q18 62 14.5 117t-25.5 96t-60.5 64.5t-89.5 23.5q-52 0 -104.5 -23.5t-98 -64.5t-81.5 -96t-54 -117t-14.5 -117t25 -95.5t60 -64t90.5 -23.5t104.5 23.5t98 64
t81.5 95.5t54 117z" />
    <glyph glyph-name="registered" unicode="&#xae;" horiz-adv-x="621" 
d="M411 534q58 0 101.5 -26.5t68.5 -73t29 -108.5t-17 -133q-16 -53 -42 -100t-61 -88q10 -4 26 -2q11 -22 -3.5 -36t-35.5 -17q-8 -1 -17 0t-18 5q-53 -48 -112.5 -75t-119.5 -27q-59 0 -102.5 26.5t-68 73t-28.5 108t17 132.5t61 133t92 108.5t111.5 73t118.5 26.5z
M560 193q18 62 14.5 117t-25.5 96t-60.5 64.5t-89.5 23.5q-52 0 -104.5 -23.5t-98 -64.5t-81.5 -96t-54 -117t-14.5 -117t25 -95.5t60 -64t90.5 -23.5q49 0 98 21t94 59q-20 19 -31 46t-16 54q-2 10 -2.5 25.5t-1.5 33t-2.5 35.5t-6.5 33q-11 -3 -21 -4.5t-20 -2.5
q-14 -47 -31.5 -91t-53.5 -75q-12 -11 -30.5 -19.5t-39 -11.5t-39.5 2t-31 21q-12 17 -13.5 36.5t1.5 36.5q6 33 28 60q10 14 23.5 22.5t27.5 13.5q14 4 27 5t24 -3q10 -4 16 -10t8 -12q2 -3 2 -5t1 -4q0 -2 1 -4q-3 -11 -8 -13.5t-11.5 -1t-14.5 4t-18 1.5q-28 -4 -49 -19
t-31 -44q-5 -13 -5 -27t8 -25q13 -19 28 -17.5t30.5 14.5t30 33.5t27 42t21 39t11.5 24.5l16 34q-5 2 -9 4.5t-7 6.5q-4 4 -5 10.5t2 10.5q5 12 18 17.5t27 7.5q17 34 38.5 62.5t53.5 43.5l11 -17q-23 -17 -37.5 -40.5t-25.5 -50.5q19 -3 32 -19q18 10 32.5 21t20.5 19
q19 27 16 53q-1 23 -26 39q-23 16 -57 22t-68.5 0.5t-63 -22t-41.5 -44.5q-6 -13 -3 -23t11 -14q8 -5 17 -4t15 4q15 6 21 20l18 -10q6 -7 4 -16q0 -8 -5.5 -18.5t-19.5 -17.5t-32.5 -6.5t-36.5 14.5q-10 6 -16 17.5t-6 22.5q-2 31 14 55.5t42 42t59 28t66.5 14t63 -1
t49.5 -16.5q21 -14 34 -37t13 -48q0 -26 -11 -47t-27 -35q-11 -11 -28.5 -21.5t-38.5 -18.5q10 -21 18.5 -48t17.5 -53t19.5 -49t25.5 -38q32 36 57 80t39 92zM267 226q-1 -1 0 -2q3 -5 9 -6l10 22q-6 -1 -11 -3.5t-8 -10.5zM340 224l-7 6l-7 2q-4 -10 -5 -15q5 2 9.5 3.5
t9.5 3.5z" />
    <glyph glyph-name="dollar" unicode="$" horiz-adv-x="340" 
d="M44 -35l22 42l-1 1q-19 7 -31.5 21t-18 31.5t-5 36.5t8.5 36q14 34 34 46t31 12q18 0 27.5 -13t4.5 -31t-21 -31t-35 -13q-4 0 -12 2q-5 -7 -4 -16t5.5 -17t11 -14.5t12.5 -9.5q16 -7 33.5 -7.5t32.5 6t25.5 21t14.5 38.5q4 25 -7 48.5t-23.5 48t-20.5 52.5t1 61
q7 25 21.5 42.5t32.5 28.5t38.5 16t39.5 4l20 38h39l-24 -45q15 -6 26 -18.5t17 -28t6 -33.5t-7 -34q-8 -17 -17 -28.5t-18 -18t-17.5 -9t-13.5 -2.5q-18 0 -27.5 13t-4.5 31t21 31t35 13q4 0 12 -2q4 7 4 16t-4 17.5t-10 15t-13 9.5q-13 5 -27.5 3.5t-27 -9t-22 -21
t-13.5 -31.5q-6 -26 4 -47t22.5 -43t21.5 -49t2 -64t-23 -59.5t-36 -35t-42.5 -15.5t-42.5 -1l-19 -37z" />
    <glyph glyph-name="cent" unicode="&#xa2;" horiz-adv-x="338" 
d="M73 -42l20 39q-10 3 -16 8q-20 13 -29.5 38t-10 56t7.5 64.5t23 63.5q24 49 53 83t58.5 55.5t57.5 31t51 10.5l20 38h40l-24 -44h2q22 -10 27 -43.5t-9 -68.5q-8 -17 -17 -28.5t-18 -18t-17.5 -9t-13.5 -2.5q-18 0 -27.5 13t-4.5 31t21 31t35 13q4 0 12 -2q9 14 6.5 29
t-10.5 20q-12 8 -32 1.5t-43 -23.5t-45 -42.5t-37 -55.5q-16 -33 -25.5 -63t-11 -54.5t6 -41.5t24.5 -23q23 -8 52 5t52 42l22 -23q-25 -42 -65 -69t-79 -28l-17 -35z" />
    <glyph glyph-name="Euro" unicode="&#x20ac;" horiz-adv-x="334" 
d="M244 111l22 -23q-17 -28 -41 -50t-51 -34.5t-54.5 -13t-49.5 14.5q-29 20 -37 62t3 90h-26v35h36q2 6 4.5 12.5t5.5 12.5h-21v34h39q30 53 65.5 86.5t69 50t62.5 19t47 -5.5q11 -5 18 -16.5t9.5 -27t0 -33.5t-9.5 -35t-16 -28.5t-18 -18t-17.5 -9t-13.5 -2.5
q-18 0 -27.5 13t-4.5 31t21 31t34 13q6 0 12 -2q10 14 7 29t-11 20q-12 7 -31.5 1t-41.5 -22t-44 -40.5t-37 -53.5h48v-34h-63l-10 -25h48v-35h-58q-8 -35 -2 -60t29 -33t52 5t52 42z" />
    <glyph glyph-name="yen" unicode="&#xa5;" horiz-adv-x="361" 
d="M339 410h80l-193 -284h20v-35h-44l-16 -24h25v-35h-49l-21 -32h-91l22 32h-22v35h47l17 24h-30v35h54l49 69q-24 -22 -46 -36t-41 -14q-34 0 -40.5 24.5t4 63t32.5 86t46 94.5h83q-14 -29 -33 -66.5t-35.5 -71t-25.5 -57t-3 -23.5q10 0 37.5 24t60.5 58t64 71t49 62z" />
    <glyph glyph-name="sterling" unicode="&#xa3;" horiz-adv-x="384" 
d="M296 56q13 -35 0.5 -50.5t-40 -20t-64 -0.5t-72 8.5t-64 6.5t-39.5 -6h-1l-8 -4l-18 23q32 18 56 51.5t44 75.5h-24v35h40l10 24h-16v35h29q24 64 56.5 101t66.5 54.5t64 19t49 -7.5q22 -10 27.5 -43.5t-9.5 -68.5q-8 -17 -17 -28.5t-18 -18t-17.5 -9t-13.5 -2.5
q-18 0 -27.5 13t-4.5 31t21.5 31t34.5 13q4 0 12 -2q9 14 6.5 29t-10.5 20q-12 8 -30 2t-37.5 -22.5t-37.5 -42t-29 -57.5q-2 -4 -4 -12h50v-35h-64l-10 -24h40v-35h-58q-16 -29 -37 -55t-50 -49q27 -1 54 -4.5t52 -2.5t46.5 10.5t36.5 35.5z" />
    <glyph glyph-name="bar" unicode="|" horiz-adv-x="253" 
d="M339 588l-334 -672h-45l335 672h44z" />
    <glyph glyph-name="section" unicode="&#xa7;" horiz-adv-x="393" 
d="M372 471q16 -5 28.5 -17.5t18.5 -28.5t6 -34.5t-7 -35.5q-8 -17 -17 -28.5t-18 -18t-17 -9t-13 -2.5q-19 0 -28.5 12.5t-4.5 31.5q5 18 21.5 31t34.5 13q4 0 6.5 -0.5t5.5 -1.5q4 7 4 16t-3.5 17.5t-10 15t-13.5 9.5q-13 5 -27 3.5t-26.5 -9t-22.5 -21t-14 -31.5
q-6 -26 4 -47t23 -43t22 -49t2 -64q-9 -46 -31 -70t-49 -34q2 -12 2.5 -25.5t-2.5 -28.5q-9 -45 -31 -69.5t-49 -34.5t-54 -8t-46 10q-19 7 -31.5 21t-18.5 31t-5.5 36t8.5 36q15 34 35 46.5t31 12.5q18 0 27.5 -13t4.5 -32q-5 -18 -21 -31t-35 -13q-7 0 -11 3q-5 -7 -4 -16
t5 -17.5t10 -15t12 -9.5q17 -6 34.5 -7t32.5 6t25.5 21.5t14.5 38.5q4 25 -7 48t-23.5 48t-20.5 52.5t1 60.5q9 35 31.5 55.5t49.5 28.5q-5 17 -6.5 35t4.5 38q9 31 28 51t42.5 30t48 11t44.5 -5zM196 226q-3 -15 -1 -28t7.5 -25.5t13 -25t14.5 -25.5q23 16 30 53
q4 26 -7.5 50t-25.5 50q-11 -8 -19.5 -20t-11.5 -29z" />
    <glyph glyph-name="F_alt" horiz-adv-x="566" 
d="M186 126q-14 10 -18.5 33t8.5 44q20 32 63 37t96 -3q18 22 41.5 50.5t47 59.5t44 64.5t33.5 66t15 63t-12 56.5q-19 34 -62 41t-93.5 -3.5t-98.5 -33.5t-78 -50q-27 -24 -47.5 -56t-26 -61.5t8 -50.5t53.5 -22q32 -1 62.5 11t55 33.5t41 50t21.5 60.5q19 2 31.5 -4
t19.5 -16.5t8.5 -24t-1.5 -26.5q-8 -37 -33.5 -65.5t-60 -47.5t-73.5 -27.5t-74 -5.5q-28 3 -50 15.5t-36 32t-18.5 44t1.5 51.5q9 39 32.5 74t57 64t73.5 50.5t83 35t86 17.5t81 -2q58 -10 83.5 -46t28.5 -83t-10.5 -97t-33.5 -88q-21 -39 -46 -76t-52 -72q50 -9 91 -11.5
t61 14.5l18 -30q-24 -14 -49.5 -20.5t-52 -8t-54 0.5t-54.5 4l-30 -37q-17 -21 -40 -45.5t-43.5 -51.5t-35 -55.5t-15.5 -57.5q-19 -3 -28 4.5t-12 20.5t-2 28t4 27q10 45 34 86.5t53 80.5q-26 -4 -50 -13.5t-46 -28.5z" />
    <glyph glyph-name="I_alt" horiz-adv-x="745" 
d="M356 498q8 -18 10 -42q2 -34 -12.5 -67t-40.5 -61.5t-60 -50.5t-70.5 -32t-72 -6.5t-64.5 24.5q-10 7 -18 17.5t-12 22.5q-14 39 3 80.5t47.5 80.5t67.5 72t63 53q40 30 88 55t99.5 40t105 18t103.5 -10q20 -5 41 -16t39 -31q19 -21 28 -45.5t11 -47.5
q5 -62 -10.5 -122.5t-45.5 -117.5q46 -19 79 -56q-1 -21 -12 -26t-27 -3t-34 8t-32 8q-4 0 -7.5 0.5t-6.5 0.5q-29 -44 -63 -83.5t-68 -72.5q-20 -20 -49.5 -47t-64.5 -55t-74.5 -54t-78.5 -42t-77 -19.5t-70 13.5q-10 4 -18 13t-12 20q-10 33 0.5 69t33.5 70.5t55 67.5
t66 61.5t67 50.5t58 35q54 28 120.5 46.5t132.5 13.5q30 53 49.5 108.5t19.5 110.5q0 16 -4 31t-13 26q-26 34 -69 43.5t-91 5t-93.5 -19t-76.5 -29.5q-35 -16 -67.5 -39t-61 -51t-51.5 -60t-39 -67q-11 -23 -12 -45.5t15 -31.5q24 -16 50.5 -12.5t51.5 19t48.5 40t42 51.5
t32 53t18.5 44zM417 223q-115 -35 -210 -107q-16 -13 -41.5 -34.5t-48 -47.5t-36.5 -53.5t-6 -52.5q3 -10 12 -14q28 -14 61 -7.5t67 25.5t67.5 47.5t63 58.5t53 57.5t38.5 45.5q19 23 39.5 48.5t40.5 53.5q-26 -3 -50.5 -8t-49.5 -12z" />
    <glyph glyph-name="J_alt" horiz-adv-x="748" 
d="M337 483q13 31 31.5 66.5t44 65.5t58 50t71.5 20q31 -1 51.5 -18t31.5 -42.5t15 -54.5t4 -53q-3 -73 -29 -144q35 -7 66 -23t57 -44q0 -22 -12.5 -27t-30 -2.5t-37 9t-33.5 7.5q-11 1 -23 1.5t-23 -0.5q-13 -23 -27 -45.5t-29 -44.5q-10 -14 -33 -41.5t-54 -61t-69 -69.5
t-77.5 -68.5t-79.5 -57.5t-76 -35.5t-65.5 -4.5t-48.5 37q-6 9 -8 19t-2 19q1 51 29 103.5t70.5 99.5t92.5 87.5t95 67.5q1 26 5 52.5t10 51t12.5 45t12.5 35.5zM363 160q-21 8 -34 23.5t-21 35.5q-43 -23 -89 -53t-84 -66t-63 -77t-27 -84q0 -20 18 -27q23 -7 48 -0.5
t49 19.5q70 38 128.5 97t107.5 128q-18 -3 -33 4zM526 377q17 36 34.5 81t24 85.5t-2 69t-44.5 32.5q-22 2 -43 -8.5t-37 -26.5q-24 -23 -41.5 -51t-29.5 -59t-17.5 -64t-4.5 -65q0 -15 3 -36q36 16 76 27.5t82 14.5zM387 255q7 -20 15.5 -36t19.5 -26q30 45 53 89
q-44 -10 -88 -27z" />
    <glyph glyph-name="N_alt" horiz-adv-x="1051" 
d="M541 562q-24 41 -70 60q-20 8 -45.5 10.5t-52.5 -5.5t-51 -26.5t-38 -45.5q-13 -25 -17.5 -58.5t6.5 -60.5q11 -26 35 -36q22 -9 44 -2q18 7 30 22q8 11 11.5 25.5t1.5 28.5q24 8 39.5 -3t18.5 -37q1 -18 -5.5 -33.5t-18.5 -28t-27.5 -21t-30.5 -12.5q-21 -5 -42.5 -1
t-40.5 16q-22 13 -35 34.5t-18 46t-4 50.5t6 49q10 42 35 74.5t59.5 53t75.5 27.5t83 -2q31 -6 58 -20t50 -34l105 50l12 6v-1l3 2l22 -23q-23 -44 -40 -95.5t-29 -106.5t-19 -111.5t-10 -109.5q8 19 16 37.5t16 36.5q25 53 60 113t79.5 113.5t98.5 93t117 51.5l12 -32
q-47 -21 -85.5 -58.5t-70.5 -82.5t-58 -93.5t-47 -92.5q-9 -18 -24.5 -49.5t-32.5 -70t-32 -80.5t-22.5 -80t-4.5 -69.5t23 -49.5q0 -25 -9.5 -28t-28.5 5q-17 7 -27 23.5t-15 36t-6.5 39.5t-1.5 35q0 17 1 35t4 36q-2 53 1 114t11.5 124t22 126.5t34.5 120.5
q-20 -34 -35.5 -71t-24.5 -56q-37 -79 -71.5 -158t-76.5 -156q-17 -32 -36 -63.5t-41.5 -60t-48.5 -53t-58 -43.5q-26 -15 -62 -26.5t-72 -12t-67 13t-49 47.5q-18 32 -20 69t8.5 74t31.5 69.5t50.5 55.5t65 32.5t73.5 -0.5q21 -5 33.5 -16.5t18.5 -22.5q7 -11 10 -25
q-4 -19 -19.5 -21.5t-36 0.5t-43 6t-39.5 -3q-39 -13 -71 -52q-15 -19 -26 -44t-14 -53q-2 -28 10.5 -53.5t40.5 -33.5q38 -11 74.5 5t70 48t63 75t54.5 87t44.5 83.5t33.5 64.5q17 32 35 70t38 77t42.5 77.5t48.5 71.5l-51 -25z" />
    <glyph glyph-name="O_alt" horiz-adv-x="705" 
d="M638 670q41 -31 51 -83q10 -50 3 -102t-25 -103.5t-42 -99.5t-48 -90q-24 -41 -54 -87.5t-66 -89t-78 -77t-89 -50.5q-52 -18 -86 -9.5t-54.5 34t-28.5 64t-8 80t6.5 81.5t16.5 68q13 40 33.5 87.5t47.5 97t60 97.5t71 88q-18 24 -41 43.5t-52 27.5q-30 8 -62 -2
q-30 -10 -54 -33t-38 -53.5t-13 -62.5q0 -33 18 -60q17 -26 47 -42q-7 -26 -29 -35t-46 -1q-46 16 -60 55t-3 84.5t43 89.5t76 69t97 23.5t107 -46.5q10 -8 17 -17.5t13 -19.5q40 38 84 63t92 31q25 4 49 -1.5t45 -18.5zM538 423q-62 -10 -104 18.5t-64 78.5
q-32 -47 -56 -95.5t-41 -86.5q-14 -32 -34 -79t-33.5 -98t-15 -99.5t21.5 -82.5q2 -2 0 -0.5t-1 0.5q28 -23 64 -22q49 2 91.5 29.5t78.5 67t65 84.5t49 83q16 28 32 61t29.5 68t23.5 71t13 72q-20 -27 -52 -45.5t-67 -24.5zM617 637q-32 21 -68 16q-46 -5 -85.5 -33.5
t-72.5 -70.5q10 -21 21.5 -40.5t32.5 -33.5q29 -20 67 -19t71 18.5t53 47.5t13 67q-10 31 -32 48z" />
    <glyph glyph-name="T_alt" horiz-adv-x="737" 
d="M361 491q13 -10 16 -25t3 -23q-1 -26 -16.5 -55t-41.5 -56t-59.5 -49.5t-69 -33.5t-70.5 -9t-64 23q-10 7 -18 17.5t-12 22.5q-14 39 3 80.5t47.5 80.5t67.5 72t63 53q40 30 88 55t99.5 40t105 18t103.5 -10q20 -5 41 -16t39 -31q19 -21 28 -45.5t11 -47.5
q6 -65 -12 -129.5t-51 -124.5t-76.5 -113.5t-87.5 -96.5q-20 -20 -49 -46t-64 -53t-73.5 -51.5t-78 -40.5t-77.5 -21t-72 8q-33 12 -50 37.5t-21.5 56.5t2.5 65.5t22.5 65t37 55t45.5 35.5q36 16 64 13t43 -14t14 -24t-22 -17q-36 -6 -64.5 -24t-48.5 -41.5t-32 -51
t-13 -52.5t8 -45t31 -29q28 -14 61 -7.5t67 25.5t67.5 47.5t63 58.5t53 57.5t38.5 45.5q33 40 69.5 88.5t67 101t50 108.5t19.5 111q0 16 -4 31t-13 26q-26 34 -69 43.5t-91 5t-93.5 -19t-76.5 -29.5q-35 -16 -67.5 -39t-61 -51t-51.5 -60t-39 -67q-11 -23 -12 -45.5
t15 -31.5q32 -19 66 -8.5t64.5 36.5t56.5 61.5t41 67.5q13 25 18.5 29t21.5 -8z" />
    <glyph glyph-name="b_alt" horiz-adv-x="447" 
d="M27 130q2 6 4 9l160 381l92 23l-173 -413q-15 -35 -15.5 -55.5t15.5 -20.5q15 0 33.5 16.5t36 43t31.5 58t21 61.5q-18 10 -22 31t2 42t20.5 37t34.5 16q15 0 24.5 -8t14.5 -20.5t6 -28t-1 -30.5q32 9 65 21t47 21l14 -28q-12 -8 -28.5 -15.5t-34.5 -14t-36.5 -12.5
t-34.5 -10q-13 -49 -40.5 -92.5t-60.5 -76t-67.5 -51.5t-62.5 -19q-42 0 -57 35.5t12 99.5z" />
    <glyph glyph-name="d_alt" horiz-adv-x="467" 
d="M457 538l-191 -408q-17 -35 -21 -52.5t9 -17.5q20 0 43 33t49 88l23 -24q-35 -77 -73.5 -119.5t-83.5 -42.5q-26 0 -39.5 14t-12.5 40q-32 -32 -65.5 -47t-60.5 2q-26 16 -23.5 65t33.5 111q29 59 59 98t58 60t52.5 26t43.5 -4q15 -7 22 -25l96 203h82zM211 193
q12 25 21 47t14 39t4 29t-9 17q-9 5 -22.5 -4.5t-29 -27.5t-31 -43t-27.5 -51q-11 -23 -19 -46t-12 -41.5t-3.5 -31.5t8.5 -17q7 -3 20 7t28 28.5t30.5 43.5t27.5 51z" />
    <glyph glyph-name="h_alt" horiz-adv-x="409" 
d="M399 157q-36 -77 -74 -119.5t-83 -42.5q-23 0 -37 11.5t-13 37.5t19 68.5t60 104.5q21 32 30.5 53.5t-1.5 21.5q-9 0 -30 -20.5t-47.5 -54.5t-55 -78.5t-53.5 -92.5l-3 -6l-19 -41h-82l255 539h81l-130 -276q37 44 71 67t61 23q13 0 22.5 -7t14 -19.5t2 -29.5t-13.5 -36
q-36 -64 -58 -103.5t-32.5 -61.5t-11 -29.5t5.5 -7.5q20 0 46.5 34t52.5 89z" />
    <glyph glyph-name="k_alt" horiz-adv-x="430" 
d="M346 538l-140 -296q48 54 92 82.5t74 28.5q29 0 39.5 -15t6.5 -37.5t-21 -49t-41.5 -49.5t-55 -38.5t-62.5 -16.5q0 -14 4.5 -28.5t12 -26.5t17 -19.5t20.5 -7.5q20 0 49 31t55 87l23 -24q-35 -77 -76 -119.5t-93 -42.5q-17 0 -32 12t-26 31.5t-17 45.5t-5 54
q-30 -45 -56 -94l-22 -47h-82l255 539h81zM320 300q-8 0 -21.5 -9.5t-30.5 -26.5t-36.5 -40.5t-39.5 -51.5q19 1 38.5 11.5t36.5 24.5t30.5 30t21.5 30t9 23t-8 9z" />
    <glyph glyph-name="l_alt" horiz-adv-x="317" 
d="M307 538l-191 -408q-17 -35 -21 -52.5t10 -17.5q20 0 43 33t49 88l23 -24q-36 -77 -74 -119.5t-84 -42.5q-42 0 -50.5 35.5t22.5 99.5l192 408h81z" />
    <glyph glyph-name="o_alt" horiz-adv-x="409" 
d="M386 268l13 -27q-27 -17 -54.5 -26t-53.5 -11q-2 -8 -5.5 -15t-6.5 -15q-18 -38 -44.5 -75t-57.5 -62.5t-63.5 -36t-63.5 3.5q-16 7 -26 22.5t-12.5 37.5t3.5 49.5t21 58.5q29 59 61 100t63.5 64t60 28.5t51.5 -4.5q10 -5 19 -15.5t9 -23.5q-15 13 -35.5 14t-43.5 -13
t-48 -46t-50 -85q-22 -47 -22.5 -80t20.5 -45q10 -6 25.5 2.5t32.5 26t33.5 42t28.5 50.5l9 21q-21 9 -29 28t-5.5 37.5t15 33t34.5 14.5q26 0 36 -23.5t1 -58.5q23 3 47 10.5t37 18.5zM259 287q-6 0 -9.5 -6t-3.5 -14t4.5 -16t13.5 -12q7 21 5 34.5t-10 13.5z" />
    <glyph glyph-name="v_alt" horiz-adv-x="410" 
d="M27 130q2 6 4 9l89 213h82l-92 -222q-15 -35 -16 -55.5t16 -20.5q12 0 30.5 15.5t37.5 39.5t37.5 52t30.5 52q-19 14 -26.5 38.5t-4.5 48.5t17.5 41.5t38.5 17.5q21 0 31.5 -11.5t13.5 -29t-0.5 -39t-10.5 -40.5q23 4 45.5 11t36.5 18l13 -27q-28 -17 -56 -26t-54 -11
q-21 -42 -48 -80t-55.5 -66.5t-58.5 -45.5t-57 -17q-42 0 -56.5 35.5t12.5 99.5zM265 321q-7 0 -11.5 -8.5t-5 -20.5t2.5 -24.5t10 -21.5q17 35 16 55t-12 20z" />
    <glyph glyph-name="z_alt" horiz-adv-x="457" 
d="M388 293l-136 -160q32 -32 23 -97q45 26 84.5 60t64.5 85l23 -24q-11 -26 -30 -49t-43 -42.5t-52 -37t-56 -32.5q-3 -11 -7 -21.5t-9 -22.5q-21 -49 -47 -85t-54 -56.5t-56.5 -24.5t-54.5 13q-20 13 -25.5 33.5t6.5 46.5q9 19 24.5 34t36.5 28t46 25t52 24q10 25 15.5 50
t4 46t-10.5 35.5t-28 19.5l104 121q-20 -11 -39.5 -19.5t-37.5 -12.5l-40 -83l-23 24l28 57q-22 5 -29 26t-2.5 44.5t19.5 42t37 18.5q18 0 27.5 -8t12.5 -21t0 -29t-10 -32q16 6 34.5 15t36.5 19.5t34.5 23t29.5 25.5zM54 -140q-7 -19 4 -24q8 -4 20 3t25.5 21.5t27 35.5
t25.5 45q-39 -20 -66.5 -40t-35.5 -41z" />
    <glyph glyph-name="t_alt" horiz-adv-x="392" 
d="M89 341q8 18 17 34.5t17 33.5h-45l16 35h49q59 101 111 148.5t90 24.5q25 -15 16.5 -59.5t-50.5 -113.5h72l-14 -35h-80q-32 -48 -78 -104t-106 -120q-10 -32 -13.5 -55t-3 -37.5t4 -22.5t8.5 -10q6 -4 20 4.5t31 25t34 40.5t30 51l23 -24q-45 -95 -94 -131t-87 -24
q-18 6 -32 25.5t-14.5 58.5t17 101.5t61.5 153.5zM315 539q-6 5 -29.5 -19.5t-55.5 -75.5h39q26 38 39 64t7 31zM245 409h-37q-26 -42 -51 -96l-21 -46q30 36 57.5 72.5t51.5 69.5z" />
    <glyph glyph-name="question" unicode="?" horiz-adv-x="363" 
d="M125 57q-6 -23 -27 -40t-45 -17q-23 0 -35 17t-6 40t27 39.5t45 16.5q23 0 35.5 -16.5t5.5 -39.5zM228 360q-7 -14 -25 -19.5t-34 -0.5q-21 7 -32 25.5t-2 48.5q5 18 21.5 39t40 40.5t51.5 33.5t56.5 19.5t56 -1.5t49.5 -31q16 -18 21.5 -37t3.5 -38t-10.5 -37t-20.5 -32
q-18 -21 -43.5 -37t-54 -30t-58 -27.5t-53.5 -28t-41.5 -32t-21.5 -40.5h-35q0 27 23 55t55.5 55.5t69 55t64 54t39.5 51.5t-3 48q-6 9 -17.5 13.5t-25.5 2.5q-29 -3 -51.5 -21t-34.5 -41.5t-10 -48t22 -39.5z" />
    <glyph glyph-name="quotedbl" unicode="&#x22;" horiz-adv-x="160" 
d="M60 347l55 161h80l-104 -173zM149 347l55 161h80l-105 -173z" />
    <glyph glyph-name="quotesingle" unicode="'" horiz-adv-x="107" 
d="M60 347l54 161h100l-124 -173z" />
    <glyph glyph-name="quoteright" unicode="&#x2019;" horiz-adv-x="163" 
d="M231 442q-8 -29 -34 -45l-88 -64l-19 20l40 42q-20 16 -12 47q6 24 27 40.5t45 16.5q23 0 35 -16.5t6 -40.5z" />
    <glyph glyph-name="numbersign" unicode="#" horiz-adv-x="204" 
d="M111 200q2 -3 8 -5t25 -2q-18 -1 -24.5 -3t-9.5 -4q-2 -2 -3 -5t-1.5 -10t-1 -19.5t-0.5 -33.5q0 21 -0.5 33.5t-1 19.5t-2 10t-3.5 5q-3 2 -9 4t-26 3q19 0 25.5 2t9.5 5q2 2 4 8.5t3 24.5q0 -18 2 -24.5t5 -8.5z" />
    <glyph glyph-name="hyphen" unicode="-" horiz-adv-x="298" 
d="M221 166h-161v34h161v-34z" />
    <glyph glyph-name="underscore" unicode="_" horiz-adv-x="273" 
d="M188 -35h-213v35h213v-35z" />
    <glyph glyph-name="plus" unicode="+" horiz-adv-x="228" 
d="M126 193q4 -5 14 -7.5t44 -2.5q-33 -1 -43.5 -3.5t-15.5 -6.5q-4 -5 -6 -16.5t-3 -49.5q0 19 -1 30.5t-2 19t-3 11t-4 5.5q-5 4 -15 6.5t-44 3.5q32 0 43 2.5t16 7.5q4 4 6.5 14.5t3.5 43.5q1 -33 3 -43.5t7 -14.5z" />
    <glyph glyph-name="minus" unicode="&#x2212;" horiz-adv-x="384" 
d="M319 189h-253v34h253v-34z" />
    <glyph glyph-name="comma" unicode="," horiz-adv-x="219" 
d="M122 57q-5 -16 -17.5 -30.5t-29.5 -28t-36.5 -26.5t-38.5 -25l-19 20l40 43q-20 16 -12 47q7 23 28 39.5t44 16.5t36 -16.5t5 -39.5z" />
    <glyph glyph-name="period" unicode="." horiz-adv-x="218" 
d="M125 57q-6 -23 -27 -40t-44 -17q-24 0 -36 17t-6 40q7 23 28 39.5t44 16.5t35.5 -16.5t5.5 -39.5z" />
    <glyph glyph-name="semicolon" unicode=";" horiz-adv-x="257" 
d="M126 57q-5 -16 -17.5 -30.5t-29.5 -28t-36.5 -26.5t-38.5 -25l-19 20l40 43q-20 16 -12 47q7 23 28 39.5t44 16.5t36 -16.5t5 -39.5zM245 296q-7 -23 -28 -40t-44 -17t-35.5 17t-5.5 40q6 23 27 39.5t44 16.5q24 0 36 -16.5t6 -39.5z" />
    <glyph glyph-name="colon" unicode=":" horiz-adv-x="256" 
d="M244 296q-7 -23 -28 -40t-44 -17t-35.5 17t-5.5 40q6 23 27 39.5t44 16.5q24 0 36 -16.5t6 -39.5zM125 57q-6 -23 -27 -40t-44 -17q-24 0 -36 17t-6 40q7 23 28 39.5t44 16.5t35.5 -16.5t5.5 -39.5z" />
    <glyph glyph-name="ampersand" unicode="&#x26;" horiz-adv-x="714" 
d="M462 353q13 9 23.5 26.5t5.5 34.5q-7 20 -27 24t-37 -3q-19 -8 -37.5 -26.5t-25.5 -41.5q16 -5 28.5 -14.5t20 -20t8 -21.5t-6.5 -20q-17 -19 -37 -11t-31 26q-6 10 -7 20q-34 8 -71 2t-69 -26q-37 -22 -64 -60t-34.5 -79t9.5 -79t69 -59q42 -17 87.5 -9t83.5 35
q15 10 31.5 25t31.5 33t25 38.5t12 40.5q-17 -4 -32.5 -6t-32.5 -1q-6 1 -14 3t-16 11q-9 10 -5 23q3 18 18.5 29t36.5 16t43.5 3t40.5 -11q33 22 76 47.5t88.5 42.5t91.5 18.5t86 -24.5q15 -10 26.5 -29t9.5 -50q-1 -19 -5.5 -24t-11 -2.5t-14.5 9t-16 10.5
q-28 14 -57.5 16.5t-63.5 -0.5q-47 -4 -90 -22t-87 -35q12 -47 -1.5 -83.5t-42.5 -63.5t-70 -45.5t-85 -28.5t-87 -12t-75 3q-29 5 -59.5 19.5t-53.5 41.5q-27 31 -34 67t1 72t28.5 69.5t48.5 58.5q23 21 53 36.5t63 24t67 9.5t65 -6q6 24 21.5 45.5t36 37t45 25t48.5 9.5
q23 0 46 -14t34 -39q10 -24 6.5 -46t-11.5 -35q-9 -14 -24 -23t-30.5 -10.5t-29.5 5.5t-20 24zM380 214q8 -5 22.5 -1.5t32.5 12.5q-13 8 -29.5 3.5t-25.5 -14.5z" />
    <glyph glyph-name="slash" unicode="/" horiz-adv-x="258" 
d="M398 532l-452 -624h-51l452 624h51z" />
    <glyph glyph-name="less" unicode="&#x3c;" horiz-adv-x="315" 
d="M305 280l-172 -131l42 -74l-25 -20l-90 104l9 37l217 110z" />
    <glyph glyph-name="asterisk" unicode="*" horiz-adv-x="311" 
d="M171 200q3 -5 8 -8t15.5 -5t29.5 -3t50 -1q-30 -1 -49 -2.5t-30 -3.5t-16.5 -5t-9.5 -6q-3 -4 -6 -10t-4.5 -17t-3 -29.5t-1.5 -48.5q-1 30 -2.5 48.5t-3.5 30t-4.5 17t-5.5 9.5q-4 3 -10 6t-17 5t-29.5 3.5t-48.5 2.5q30 0 48.5 1t29.5 3t16.5 5t9.5 8q3 3 6 8.5t5 16.5
t3.5 30t2.5 49q0 -30 1.5 -49t3.5 -30t5 -16.5t7 -8.5z" />
    <glyph glyph-name="equal" unicode="=" horiz-adv-x="411" 
d="M362 230h-253v34h253v-34zM322 147h-253v35h253v-35z" />
    <glyph glyph-name="percent" unicode="%" horiz-adv-x="350" 
d="M211 422q33 0 47 -23t1 -56q-6 -16 -18 -30.5t-27 -25t-32 -17t-33 -6.5q-32 0 -46.5 23.5t-1.5 55.5q6 16 18 30.5t27 25.5t32 17t33 6zM220 343q7 17 0 28.5t-24 11.5t-33.5 -11.5t-22.5 -28.5q-7 -17 0 -28.5t24 -11.5t33.5 11.5t22.5 28.5zM219 158q33 0 47 -23
t1 -56q-6 -17 -18 -31t-27 -25t-32 -17t-33 -6q-32 0 -46.5 23t-0.5 56q6 16 18 30.5t27 25.5t31.5 17t32.5 6zM229 79q6 17 -1 28.5t-24 11.5t-33 -11.5t-23 -28.5t0.5 -28.5t24.5 -11.5t33 11.5t23 28.5zM416 417l-430 -417h-51l430 417h51z" />
    <glyph glyph-name="asciitilde" unicode="~" horiz-adv-x="321" 
d="M63 126l-18 27q10 14 21 29t23 27.5t26 20.5t30 8q20 0 30 -13.5t20.5 -22.5t27.5 -4t51 41l18 -28q-14 -15 -26.5 -29.5t-24.5 -26t-25.5 -18.5t-29.5 -7q-11 0 -19.5 7t-16.5 15t-16 14.5t-18 6t-23 -10.5t-30 -36z" />
    <glyph glyph-name="greater" unicode="&#x3e;" horiz-adv-x="314" 
d="M10 81l172 131l-42 74l25 20l90 -104l-9 -37l-217 -110z" />
    <glyph glyph-name="hungarumlaut" unicode="&#x2dd;" horiz-adv-x="317" 
d="M161 586l35 -51l-168 -126l-18 28zM272 586l35 -51l-168 -126l-18 28z" />
    <glyph glyph-name="dotaccent" unicode="&#x2d9;" horiz-adv-x="123" 
d="M111 461q-5 -21 -23.5 -35.5t-39.5 -14.5q-20 0 -30.5 14.5t-5.5 35.5q5 20 23.5 35t39.5 15q20 0 30.5 -15t5.5 -35z" />
    <glyph glyph-name="breve" unicode="&#x2d8;" horiz-adv-x="201" 
d="M191 534q0 -2 -0.5 -4.5t-1.5 -6.5q-11 -31 -42.5 -52.5t-68.5 -21.5t-56 21.5t-8 52.5l3 10h43l-4 -10q-5 -16 5 -27t28 -11q19 0 35.5 11t21.5 27q1 5 1 12z" />
    <glyph glyph-name="florin" unicode="&#x192;" horiz-adv-x="503" 
d="M197 249q0 -13 8 -26l96 201q19 40 42.5 72t46.5 51.5t44.5 26t37.5 -3.5q26 -17 18.5 -62.5t-50.5 -104.5q-35 -47 -73.5 -84.5t-71.5 -60.5l-23 -52q26 3 58.5 17.5t72.5 46.5l13 -27q-44 -38 -87.5 -61.5t-80.5 -31.5q-25 -58 -50 -115.5t-45 -105.5q-24 -55 -45 -107
l-98 -13q25 53 52 111q23 50 52 110.5t58 123.5q-7 3 -11 9q-8 9 -7.5 22.5t6.5 26.5t16 23.5t21 13.5zM407 422q32 46 41 74.5t1 33.5q-14 7 -42 -37t-65 -126q-3 -7 -7 -15.5t-9 -19.5q43 39 81 90z" />
    <glyph glyph-name="quoteleft" unicode="&#x2018;" horiz-adv-x="163" 
d="M92 390q6 28 34 44l88 65l19 -20l-41 -43q9 -8 13 -20t0 -26q-6 -24 -27 -40.5t-45 -16.5q-23 0 -35 16.5t-6 40.5z" />
    <glyph glyph-name="quotedblleft" unicode="&#x201c;" horiz-adv-x="263" 
d="M82 390q6 28 34 44l88 65l19 -20l-41 -43q10 -8 13 -20q9 10 21 18l88 65l19 -20l-41 -43q9 -8 13 -20t0 -26q-6 -24 -27 -40.5t-45 -16.5q-17 0 -27.5 8t-14.5 22q-11 -14 -26 -22t-32 -8q-23 0 -35 16.5t-6 40.5z" />
    <glyph glyph-name="quotedblright" unicode="&#x201d;" horiz-adv-x="263" 
d="M321 442q-8 -29 -34 -45l-88 -64l-19 20l40 42q-10 8 -13 20q-7 -10 -20 -18l-88 -64l-19 20l40 42q-20 16 -12 47q6 24 27 40.5t45 16.5q16 0 27 -8t14 -22q11 14 26.5 22t32.5 8q23 0 35 -16.5t6 -40.5z" />
    <glyph glyph-name="quotesinglbase" unicode="&#x201a;" horiz-adv-x="218" 
d="M123 42q-8 -29 -34 -44l-88 -65l-19 20l40 43q-20 15 -12 46q6 24 27 40.5t45 16.5q23 0 35 -16.5t6 -40.5z" />
    <glyph glyph-name="quotedblbase" unicode="&#x201e;" horiz-adv-x="322" 
d="M228 42q-8 -29 -34 -44l-88 -65l-19 20l40 43q-10 7 -13 19q-8 -11 -20 -17l-88 -65l-19 20l40 43q-20 15 -12 46q6 24 27 40.5t45 16.5q16 0 27 -8t14 -22q11 14 26.5 22t32.5 8q23 0 35 -16.5t6 -40.5z" />
    <glyph glyph-name="ellipsis" unicode="&#x2026;" horiz-adv-x="480" 
d="M125 57q-6 -23 -27 -40t-44 -17q-24 0 -36 17t-6 40q7 23 28 39.5t44 16.5t35.5 -16.5t5.5 -39.5zM258 57q-6 -23 -27 -40t-44 -17q-24 0 -36 17t-6 40q7 23 28 39.5t44 16.5t35.5 -16.5t5.5 -39.5zM391 57q-6 -23 -27 -40t-44 -17q-24 0 -36 17t-6 40q7 23 28 39.5
t44 16.5t35.5 -16.5t5.5 -39.5z" />
    <glyph glyph-name="daggerdbl" unicode="&#x2021;" horiz-adv-x="464" 
d="M454 440h-109l-181 -364h99v-35h-116l-62 -125h-45l62 125h-92v35h110l181 364h-100v34h117l57 114h44l-57 -114h92v-34z" />
    <glyph glyph-name="perthousand" unicode="&#x2030;" horiz-adv-x="431" 
d="M330 259q33 0 47 -23t1 -56q-12 -31 -40.5 -53t-60.5 -26q0 -9 -5 -22q-6 -17 -18 -31t-27 -25t-32 -17t-33 -6q-32 0 -46.5 23t-0.5 56q12 31 40.5 53t59.5 25q2 11 6 23q6 16 18 30.5t27 25.5t31.5 17t32.5 6zM421 417l-430 -417h-51l430 417h51zM216 422q33 0 47 -23
t1 -56q-6 -16 -18 -30.5t-27 -25t-32 -17t-33 -6.5q-32 0 -46.5 23.5t-1.5 55.5q6 16 18 30.5t27 25.5t32 17t33 6zM234 79q6 17 -1 28.5t-24 11.5t-33 -11.5t-23 -28.5t0.5 -28.5t24.5 -11.5t33 11.5t23 28.5zM340 180q6 17 -1 28.5t-24 11.5t-33 -11.5t-23 -28.5
t0.5 -28.5t24.5 -11.5t33 11.5t23 28.5zM225 343q7 17 0 28.5t-24 11.5t-33.5 -11.5t-22.5 -28.5q-7 -17 0 -28.5t24 -11.5t33.5 11.5t22.5 28.5z" />
    <glyph glyph-name="backslash" unicode="\" horiz-adv-x="267" 
d="M141 532l28 -624h-51l-28 624h51z" />
    <glyph glyph-name="asciicircum" unicode="^" horiz-adv-x="348" 
d="M331 466v-167h-37v104l-186 -114l-18 27l205 163z" />
    <glyph glyph-name="divide" unicode="&#xf7;" horiz-adv-x="369" 
d="M297 296q-7 -23 -28 -40t-44 -17t-35.5 17t-5.5 40q6 23 27 39.5t44 16.5q24 0 36 -16.5t6 -39.5zM178 57q-6 -23 -27 -40t-44 -17q-24 0 -36 17t-6 40q7 23 28 39.5t44 16.5t35.5 -16.5t5.5 -39.5zM309 159h-253v34h253v-34z" />
    <glyph glyph-name="multiply" unicode="&#xd7;" horiz-adv-x="324" 
d="M154 332l25 -85l86 85h49l-124 -123l39 -130h-39l-30 100l-101 -100h-49l139 138l-34 115h39z" />
    <glyph glyph-name="currency" unicode="&#xa4;" horiz-adv-x="354" 
d="M203 304q14 0 26 -4t22 -11l44 43h49l-72 -71q10 -22 2 -54q-5 -20 -16.5 -36.5t-26.5 -30.5l18 -61h-39l-12 40q-25 -11 -48 -11q-28 0 -48 14l-43 -43h-49l70 70q-11 25 -2 58q11 39 44 66l-17 59h39l11 -38q25 10 48 10zM244 207q7 27 -7.5 47t-43.5 20q-26 0 -51 -20
t-32 -47q-8 -28 7 -47.5t42 -19.5q28 0 52.5 19.5t32.5 47.5z" />
    <glyph glyph-name="degree" unicode="&#xb0;" horiz-adv-x="172" 
d="M106 407q30 0 45.5 -21t7.5 -51q-8 -31 -35 -52.5t-57 -21.5q-31 0 -46.5 21.5t-7.5 52.5q4 15 13.5 28t22 23t27.5 15.5t30 5.5zM124 335q4 15 -4 26t-24 11q-15 0 -29 -11t-18 -26q-5 -16 3.5 -27t23.5 -11q16 0 29.5 11t18.5 27z" />
    <glyph glyph-name="brokenbar" unicode="&#xa6;" horiz-adv-x="399" 
d="M212 229l-157 -313h-45l157 313h45zM204 304l141 284h44l-140 -284h-45z" />
    <glyph glyph-name="logicalnot" unicode="&#xac;" horiz-adv-x="349" 
d="M313 223l-66 -144h-39l50 110h-219v34h274z" />
    <glyph glyph-name="exclamdown" unicode="&#xa1;" 
d="M10 0l240 370h45l-175 -370h-110zM257 494q6 23 27 40t45 17q23 0 35.5 -17t5.5 -40q-6 -23 -27 -39.5t-45 -16.5q-23 0 -35 16.5t-6 39.5z" />
    <glyph glyph-name="plusminus" unicode="&#xb1;" horiz-adv-x="346" 
d="M336 189h-115l-50 -110h-39l50 110h-99v34h114l50 109h39l-50 -109h100v-34zM263 0h-253v34h253v-34z" />
    <glyph glyph-name="endash" unicode="&#x2013;" horiz-adv-x="463" 
d="M411 166h-361v34h361v-34z" />
    <glyph glyph-name="emdash" unicode="&#x2014;" horiz-adv-x="785" 
d="M721 166h-661v34h661v-34z" />
    <glyph glyph-name="periodcentered" unicode="&#xb7;" horiz-adv-x="138" 
d="M125 257q-6 -23 -27 -40t-44 -17q-24 0 -36 17t-6 40q7 23 28 39.5t44 16.5t35.5 -16.5t5.5 -39.5z" />
    <glyph glyph-name="bullet" unicode="&#x2022;" horiz-adv-x="339" 
d="M302 295q-5 -19 -17 -36.5t-28 -30.5t-35.5 -20.5t-38.5 -7.5q-20 0 -35 7.5t-24.5 20.5t-12 30.5t2.5 36.5q6 19 18 36t28 30t35 20t38 7q39 0 59.5 -27t9.5 -66z" />
    <glyph glyph-name="macron" unicode="&#xaf;" horiz-adv-x="253" 
d="M243 473h-233v35h233v-35z" />
    <glyph glyph-name="trademark" unicode="&#x2122;" horiz-adv-x="921" 
d="M787 655q-24 -26 -39 -59.5t-25 -71t-15.5 -77t-11.5 -76.5q24 38 60.5 86t79.5 92.5t89.5 78.5t88.5 43q2 -2 3 -5.5t4 -12.5q-30 -24 -61 -59t-58 -75.5t-47.5 -82.5t-29.5 -79.5t-4 -67.5t28 -45q-24 -35 -55 -44.5t-55 0t-34 37t7 66.5q3 6 12.5 22t22.5 37t28 45
t28.5 45t24 38t15.5 24q-45 -53 -84 -103.5t-66 -100.5l-27 5q-4 23 -5.5 56.5t0.5 71.5q-13 -28 -26 -60.5t-30 -63t-39 -56t-52 -38.5q-27 -11 -50 -8.5t-40.5 14.5t-27.5 31t-12 42l-6 -13q-18 -33 -50.5 -55.5t-68.5 -28.5t-70.5 6t-56.5 47q-21 33 -17.5 72.5t23 71.5
t50.5 50t63 10q26 -7 39.5 -32t-5.5 -66q-14 13 -30 17.5t-32.5 2t-31 -11t-24.5 -20.5q-8 -10 -12 -22t-2 -22.5t10.5 -19.5t25.5 -13q32 -9 59 10.5t48 50.5t37.5 65.5t27.5 55.5q17 32 35.5 68.5t38.5 68.5q-17 8 -33.5 17.5t-34 16.5t-35 8.5t-35.5 -6.5
q-24 -11 -31.5 -30t-1.5 -34.5t22.5 -21t40.5 11.5q12 1 18 -3.5t8 -9.5q3 -8 2.5 -17t-6.5 -18q-5 -9 -17 -16t-26 -9q-32 -5 -57 20q-22 21 -25 51t10 56q15 33 39 51t54 21t64 -9t69 -40q12 17 27 27.5t33 9.5l5 -18q-10 -1 -19 -9t-17 -21l21 -7q17 25 42 38.5t53 15.5
t55 -6t49 -25l68 32zM489 438q33 -2 50.5 -23.5t12.5 -47.5q-33 10 -60 1t-44 -26.5t-20.5 -38.5t10.5 -34q29 -27 61 -6t66 72.5t69 125.5t71 155l-27 -16l-47 36q-11 -34 -40.5 -52t-66.5 -16q-3 -30 8 -43t25.5 -13t27 10.5t11.5 27.5q14 5 22 -1.5t10 -20.5
q2 -20 -13.5 -34.5t-32.5 -19.5q-21 -4 -40 3.5t-31.5 22t-17 34.5t3.5 41l-21 6q-17 -38 -31.5 -86.5t-27.5 -93.5q13 17 30 28t42 9zM598 637q-12 0 -28 -6t-27 -22q24 -3 37 6.5t18 21.5z" />
    <glyph glyph-name="mu" unicode="&#xb5;" horiz-adv-x="454" 
d="M411 353l-103 -221q-17 -35 -21 -52.5t9 -17.5q20 0 43 32.5t49 88.5l23 -24q-35 -77 -73.5 -119.5t-83.5 -42.5q-35 0 -47 24t2 69q-31 -41 -61 -67t-53 -26q-24 0 -38 13t-13 42l-74 -235h-75q47 90 85 161t67 125.5t51 94t37 67.5q36 65 51 88h81q-19 -30 -37 -61
q-16 -26 -33 -57.5t-31 -60.5q-52 -112 -29 -112q8 0 30.5 27t50 66t55.5 83t47 78l20 37h71z" />
    <glyph glyph-name="paragraph" unicode="&#xb6;" horiz-adv-x="325" 
d="M458 554h-56l-317 -638h-45l318 638h-56l-317 -638h-45l246 493q-21 12 -29.5 35t-0.5 51q6 19 18 36t28 30t35 20t38 7h183v-34z" />
    <glyph glyph-name="at" unicode="@" horiz-adv-x="631" 
d="M508 353l-101 -217l-1 -1q0 -1 -0.5 -1.5t-0.5 -1.5q-17 -35 -9.5 -57.5t26.5 -24.5q23 -4 46 13.5t41.5 48t32.5 70.5t19.5 82.5t1.5 84t-20 73.5t-46.5 52t-77.5 20q-52 0 -104.5 -23.5t-98 -64.5t-81.5 -96t-54 -117t-14.5 -117t25.5 -95.5t60.5 -64t89.5 -23.5
q38 0 75.5 12.5t73.5 35.5l18 -28q-43 -29 -88.5 -44.5t-90.5 -15.5q-59 0 -102.5 26.5t-68 73t-28.5 108t17 132.5t61 133t92 108.5t111 73t118 26.5q51 0 85.5 -23t55 -61t26.5 -86t0.5 -98.5t-22.5 -98.5t-43.5 -86t-62 -61t-77.5 -23q-12 0 -24.5 4.5t-23 12.5
t-17.5 20.5t-8 28.5q-17 -19 -35.5 -34t-36.5 -23t-34.5 -9t-31.5 8q-26 16 -24 65t33 111q30 59 60 98t58 60t52.5 26t42.5 -4q13 -7 19 -18l5 10h81zM358 194q12 25 21 47t13.5 39.5t4 29t-9.5 16.5q-8 5 -21.5 -4.5t-29 -27.5t-31.5 -43t-28 -51q-11 -23 -19 -46
t-12 -41.5t-3 -31.5t8 -17q7 -3 20 7t28 28.5t31 43.5t28 51z" />
    <glyph glyph-name="fraction" unicode="&#x2044;" horiz-adv-x="258" 
d="M398 532l-452 -624h-51l452 624h51z" />
    <glyph glyph-name="parenright" unicode=")" horiz-adv-x="311" 
d="M-143 -102q57 34 115 84t110 111t95 129.5t69 140.5t32 144t-15 139q7 8 19 8.5t25 -6t25.5 -21t20.5 -37.5q22 -63 10.5 -135.5t-47 -146.5t-88.5 -144.5t-114 -130t-124.5 -103t-117.5 -63.5z" />
    <glyph glyph-name="bracketright" unicode="]" horiz-adv-x="316" 
d="M-72 -144l13 34h48l360 725h-44l13 34h130l-395 -793h-125z" />
    <glyph glyph-name="braceright" unicode="}" horiz-adv-x="293" 
d="M-110 -121q26 20 49 53.5t44.5 73.5t44 82t47.5 78t54.5 63t65.5 36q-7 12 -9 25q-4 31 7 61t29.5 59.5t40.5 58t39.5 57.5t25.5 57.5t0 58.5q17 9 32.5 5.5t24.5 -17.5t10.5 -38t-8.5 -58q-7 -24 -21 -49.5t-31 -51t-34 -49.5t-31 -43.5t-21.5 -33.5t-4.5 -20l34 -8v-56
q-41 -9 -70.5 -31.5t-52 -53t-41.5 -66t-38 -70t-41 -65.5t-52 -52q-13 -9 -27 -15.5t-26.5 -8t-23 2t-16.5 15.5z" />
    <glyph glyph-name="dagger" unicode="&#x2020;" horiz-adv-x="464" 
d="M454 440h-109l-260 -524h-45l261 524h-100v34h117l57 114h44l-57 -114h92v-34z" />
    <glyph glyph-name="guillemotleft" unicode="&#xab;" horiz-adv-x="471" 
d="M305 280l-172 -131l42 -74l-25 -20l-90 104l9 37l217 110zM455 280l-172 -131l42 -74l-25 -20l-90 104l9 37l217 110z" />
    <glyph glyph-name="guillemotright" unicode="&#xbb;" horiz-adv-x="480" 
d="M10 81l172 131l-42 74l25 20l90 -104l-9 -37l-217 -110zM160 81l172 131l-42 74l25 20l90 -104l-9 -37l-217 -110z" />
    <glyph glyph-name="guilsinglleft" unicode="&#x2039;" horiz-adv-x="315" 
d="M305 280l-172 -131l42 -74l-25 -20l-90 104l9 37l217 110z" />
    <glyph glyph-name="guilsinglright" unicode="&#x203a;" horiz-adv-x="314" 
d="M10 81l172 131l-42 74l25 20l90 -104l-9 -37l-217 -110z" />
    <glyph glyph-name="questiondown" unicode="&#xbf;" horiz-adv-x="456" 
d="M348 492q6 23 27 40t45 17q23 0 35 -17t6 -40t-27 -39.5t-45 -16.5q-23 0 -35.5 16.5t-5.5 39.5zM245 189q7 14 25 19.5t34 0.5q21 -7 32 -25.5t2 -48.5q-6 -18 -22 -39t-39.5 -40.5t-51.5 -33.5t-56.5 -19.5t-56 1.5t-49.5 31q-16 18 -21.5 37t-3.5 38t10.5 37t20.5 32
q17 21 43 37t54.5 30t58 27.5t53.5 28t41 32t22 40.5h35q0 -27 -23 -55t-55.5 -55.5t-69 -55t-64 -54t-39.5 -51.5t3 -48q6 -9 17.5 -13.5t25.5 -2.5q29 3 51.5 21t34.5 41.5t10 48t-22 39.5z" />
    <glyph glyph-name="dotlessi" unicode="&#x131;" horiz-adv-x="139" 
d="M162 353l-103 -221q-17 -35 -21.5 -52.5t9.5 -17.5q20 0 43 32.5t49 88.5l23 -24q-36 -77 -74 -119.5t-83 -42.5q-42 0 -51 35t22 100l104 221h82z" />
    <glyph glyph-name="fi" unicode="&#xfb01;" horiz-adv-x="304" 
d="M141 132q2 6 4 8l71 152q-32 -24 -63 -39t-57 -21q-27 -63 -57.5 -134t-56.5 -133q-31 -72 -61 -143l-98 -13q34 71 69 146q15 31 31.5 66.5t34 72.5t34.5 73.5t33 70.5q-6 4 -8 7q-8 9 -9 22t3 26t12.5 23.5t20.5 15.5q0 -14 14 -26q22 48 37 79.5t19 38.5
q19 40 42.5 72t47 52t45 26.5t36.5 -4.5q21 -15 16.5 -38.5t-26 -53t-56.5 -64.5t-76 -73l-21 -49q23 2 53.5 15.5t69.5 45.5h82l-103 -221q-17 -35 -21.5 -52.5t9.5 -17.5q20 0 43 32.5t49 88.5l23 -24q-36 -77 -74 -119.5t-83 -42.5q-42 0 -51 35t22 100zM374 433
q-5 -20 -23.5 -34.5t-39.5 -14.5q-20 0 -31 14.5t-5 34.5q5 20 23.5 35t39.5 15q20 0 30.5 -15t5.5 -35zM265 536q-10 9 -34.5 -26t-54.5 -98q22 22 40.5 42t31 36.5t17.5 28.5t0 17z" />
    <glyph glyph-name="fl" unicode="&#xfb02;" horiz-adv-x="388" 
d="M262 343q45 90 89 160.5t83 116t72 64t56 4.5q22 -14 16 -52t-37.5 -92.5t-88 -121t-135.5 -135.5q-29 -60 -42 -102t-15 -68.5t2.5 -39t9.5 -15.5q7 -4 21 4t30.5 24.5t34 40.5t30.5 52l23 -24q-46 -95 -94.5 -131t-86.5 -24q-14 4 -26.5 17t-18 37t-2 61t21.5 90
q-29 -20 -56.5 -33.5t-52.5 -20.5q-25 -59 -50.5 -118t-45.5 -107q-24 -56 -46 -108l-98 -13q25 53 52 111q23 50 52.5 110.5t58.5 123.5q-8 3 -12 9q-8 9 -7.5 22.5t6.5 26.5t16 23.5t21 13.5q0 -13 8 -26l96 201q19 40 44.5 78t51 65.5t49 40t39.5 2.5q26 -17 13.5 -62.5
t-55.5 -104.5q-32 -45 -69.5 -89t-70.5 -76l-30 -69q22 5 48.5 18t57.5 36q8 18 17 38t20 42zM533 610q-4 3 -20.5 -13.5t-41 -49.5t-56 -81.5t-64.5 -111.5q37 38 72.5 81t62 80.5t40 63.5t7.5 31zM257 454q32 46 45.5 78.5t5.5 37.5q-7 3 -19.5 -13t-29 -44.5t-35 -66.5
t-36.5 -79l-3 -6q19 23 37 46.5t35 46.5z" />
    <glyph glyph-name="Lslash" unicode="&#x141;" horiz-adv-x="678" 
d="M10 19q35 9 70.5 7.5t71.5 -9.5q27 11 49.5 30.5t41.5 44t35.5 52.5t31.5 56q-40 17 -69.5 47.5t-41.5 78.5q-8 34 1 42t21 -12q19 -30 51.5 -52t71.5 -36l11 21q7 13 13.5 27t13.5 28l-79 -24l26 51l78 24q19 40 41 80.5t47 77.5t54.5 68.5t65.5 52.5q22 13 47 17.5
t48 -0.5t43 -20.5t32 -41.5q16 -36 15 -77t-15.5 -82t-39 -80.5t-54.5 -74t-63 -61.5t-64 -43q-36 -18 -78.5 -26.5t-86.5 -5.5q-16 -28 -35.5 -56t-42.5 -52t-49.5 -43t-56.5 -28q46 -15 93.5 -33t96 -33t97.5 -22.5t100 0.5q8 -14 8 -28.5t-6 -28t-17 -24t-25 -16.5
q-45 -17 -96 -3.5t-111 49.5q-33 19 -73.5 46.5t-85 50t-91 33.5t-91.5 -2zM564 400l-78 -24q-12 -33 -23.5 -64t-24.5 -59h13.5t13.5 1q53 5 102 31.5t88.5 66t66.5 89t36 101.5q4 19 3 38t-9 35q-9 16 -22.5 25t-29.5 11t-32.5 -2t-29.5 -13q-23 -15 -41.5 -37.5
t-34.5 -50.5t-30 -59t-27 -64l85 26zM177 -203q3 -4 8 -6.5t15.5 -5t29.5 -3.5t50 -2q-30 0 -49 -1.5t-30 -3.5t-16.5 -5t-9.5 -7q-3 -4 -6 -10t-4.5 -18.5t-3 -33.5t-1.5 -55q0 34 -1.5 55.5t-3.5 34t-5 18.5t-6 9q-4 4 -10 7t-17 5t-29.5 3.5t-48.5 1.5q30 1 48.5 2
t29.5 3.5t16.5 5t9.5 6.5q3 4 6 9.5t5 16.5t3.5 29.5t2.5 48.5q0 -30 1.5 -48.5t3.5 -29.5t5 -16.5t7 -9.5zM296 473q4 -5 14 -7.5t44 -2.5q-33 -1 -43.5 -3.5t-15.5 -6.5q-4 -5 -6 -16.5t-3 -49.5q0 19 -1 30.5t-2 19t-3 11t-4 5.5q-5 4 -15 6.5t-44 3.5q32 0 43 2.5
t16 7.5q4 4 6.5 14.5t3.5 43.5q1 -33 3 -43.5t7 -14.5zM515 -285q2 -2 7.5 -4t25.5 -3q-18 0 -24.5 -2t-9.5 -5q-2 -3 -4 -10t-2 -30q-1 23 -2.5 30t-4.5 10t-9.5 5t-25.5 2q20 1 26 3t9 4q2 3 4 9t3 26q0 -19 2 -25.5t5 -9.5z" />
    <glyph glyph-name="lslash" unicode="&#x142;" horiz-adv-x="190" 
d="M64 343q14 29 29 56.5t29 52.5l-109 -32l26 51l115 34q65 104 120 153.5t90 29.5q19 -11 18 -42.5t-22 -79.5l50 15l-26 -51l-50 -15q-36 -65 -99.5 -148t-158.5 -183q-10 -32 -13 -54t-2 -36.5t5 -22t8 -9.5q7 -4 21 4t30.5 24.5t34 40.5t30.5 52l23 -24
q-46 -95 -94.5 -131t-86.5 -24q-18 5 -32.5 24.5t-15 59.5t17 102t62.5 153zM282 499l-53 -15q-23 -35 -47 -77t-50 -93l-22 -45q50 60 95 120t77 110zM335 610q-5 3 -23 -15.5t-45 -56.5l47 14q14 24 20 39.5t1 18.5zM108 -126q2 -2 5 -4t9 -3t16.5 -2t27.5 -1
q-33 -1 -44 -3.5t-15 -6.5q-2 -2 -3.5 -5.5t-2.5 -10.5t-2 -19t-1 -31q0 19 -1 31t-2 19t-3 10.5t-4 5.5t-5.5 4t-9.5 3t-16.5 2t-27.5 1q16 0 26.5 1t17 2t10 3t5.5 4q4 5 6.5 15.5t3.5 43.5q1 -33 3 -44t7 -15zM105 577q2 -3 8 -5t25 -2q-18 -1 -24.5 -3t-9.5 -4
q-2 -3 -4 -10.5t-2 -30.5q-1 23 -2.5 30.5t-4.5 10.5q-3 2 -9 4t-26 3q19 0 25.5 2t9.5 5q2 2 4 8.5t3 24.5q0 -18 2 -24.5t5 -8.5z" />
    <glyph glyph-name="zcaron" unicode="&#x17e;" horiz-adv-x="262" 
d="M285 159q-23 -54 -64.5 -96.5t-83.5 -65.5q-3 -10 -7 -21t-9 -22q-20 -49 -46 -85.5t-54.5 -57t-57 -24.5t-54.5 13q-20 14 -25.5 34.5t6.5 45.5q9 19 24.5 34t36.5 28t46 25t52 24q12 25 18 50t4.5 46t-10.5 35.5t-25 18.5l14 25q28 0 56 16t48.5 37.5t29.5 43t-2 32.5
q-6 6 -22 6.5t-38 -13t-49.5 -46.5t-55.5 -94l-23 24q34 73 70.5 116t70.5 62.5t61.5 18.5t44.5 -16q23 -20 21 -50t-21.5 -60t-53 -56.5t-73.5 -39.5l-30 -4q31 -7 47.5 -34t14.5 -66q31 20 61 54.5t55 85.5zM189 441v58q-25 -2 -35 -5.5t-15 -8.5q-3 -4 -6 -10t-4.5 -17
t-3 -29.5t-1.5 -48.5q-1 30 -2.5 48.5t-3.5 30t-4.5 17t-5.5 9.5q-4 3 -10 6t-17 5t-29.5 3.5t-48.5 2.5q30 0 48.5 1t29.5 3t16.5 5t9.5 8q3 3 6 8.5t5 16.5t3.5 30t2.5 49q0 -30 1.5 -49t3.5 -30t5 -16.5t7 -8.5q5 -6 13.5 -9.5t34.5 -5.5v45h37l-1 -47h7l111 47l17 -28
l-135 -92zM-71 -163q8 -4 20 3t25.5 21.5t27 35.5t25.5 45q-39 -20 -66.5 -39.5t-35.5 -40.5q-7 -19 4 -25zM184 -150q2 -2 5 -4t9 -3t16.5 -2t27.5 -1q-33 -1 -44 -3.5t-15 -6.5q-2 -2 -3.5 -5.5t-2.5 -10.5t-2 -19t-1 -31q0 19 -1 31t-2 19t-3 10.5t-4 5.5t-5.5 4t-9.5 3
t-16.5 2t-27.5 1q16 0 26.5 1t17 2t10 3t5.5 4q4 5 6.5 15.5t3.5 43.5q1 -33 3 -44t7 -15zM225 501v-2l5 2h-5z" />
    <glyph glyph-name="Scaron" unicode="&#x160;" horiz-adv-x="563" 
d="M442 470q21 -6 40.5 -3t37 12.5t30.5 25.5t20 36q11 32 3 59.5t-40 41.5q-18 8 -37.5 6t-37.5 -11t-34 -24t-26 -32q-30 -48 -23 -93t34 -90q28 -47 47.5 -96.5t25 -99.5t-6 -100.5t-47.5 -98.5q-23 -31 -52.5 -52.5t-63.5 -34t-70.5 -15.5t-73.5 5q-67 13 -105.5 59
t-48.5 104.5t7.5 119t62.5 103.5q28 26 60.5 41t61.5 14q29 0 49.5 -9.5t31.5 -20.5q32 -32 27.5 -48t-34.5 -5q-31 11 -68 0t-72 -40q-20 -17 -37.5 -41t-28.5 -55t-11 -66.5t19 -65.5q26 -41 68 -52.5t86 -2t82.5 36t57.5 61.5q21 37 25.5 77t-2 79.5t-23.5 77.5t-40 71
q-21 33 -27.5 73.5t-0.5 80.5t23.5 76.5t45.5 62.5t66 38.5t84 4.5q29 -5 52 -20t38 -37t20.5 -49.5t-0.5 -57.5q-8 -41 -31 -70.5t-52 -43.5q-23 -11 -51.5 -10.5t-48.5 15.5q-11 9 -16.5 25.5t4.5 37.5zM528 741v108h37l-1 -50l118 50l17 -28l-135 -92zM411 -149
q2 -2 5 -4t9 -3t16.5 -2t27.5 -1q-33 -1 -44 -3.5t-15 -6.5q-2 -2 -3.5 -5.5t-2.5 -10.5t-2 -19t-1 -31q0 19 -1 31t-2 19t-3 10.5t-4 5.5t-5.5 4t-9.5 3t-16.5 2t-27.5 1q16 0 26.5 1t17 2t10 3t5.5 4q4 5 6.5 15.5t3.5 43.5q1 -33 3 -44t7 -15zM166 473q4 -5 14 -7.5
t44 -2.5q-33 -1 -43.5 -3.5t-15.5 -6.5q-4 -5 -6 -16.5t-3 -49.5q0 19 -1 30.5t-2 19t-3 11t-4 5.5q-5 4 -15 6.5t-44 3.5q32 0 43 2.5t16 7.5q4 4 6.5 14.5t3.5 43.5q1 -33 3 -43.5t7 -14.5zM77 -194q2 -2 7.5 -4t25.5 -3q-18 0 -24.5 -2t-9.5 -5q-2 -2 -4 -8.5t-2 -24.5
q-1 18 -3 24.5t-4 8.5q-3 3 -9.5 5t-25.5 2q20 1 26 3t9 4q2 3 4 9t3 26q0 -19 2 -25.5t5 -9.5z" />
    <glyph glyph-name="OE" unicode="&#x152;" horiz-adv-x="1015" 
d="M855 427q20 -2 45 5t48.5 20.5t44 32.5t32 40.5t11 46t-17.5 48.5q-21 29 -48 31t-56 -14t-56.5 -44.5t-49 -60.5t-34 -63.5t-11.5 -51.5q1 -14 8 -26.5t21 -15.5q22 2 39.5 -1t15.5 -23q-1 -6 -6.5 -12t-20.5 -4q-37 5 -76 -7.5t-74 -37.5t-64.5 -60t-48 -74.5
t-23 -80.5t9.5 -78q13 -33 41.5 -45.5t61.5 -11.5t66 12.5t55 26.5q43 30 69.5 76t22.5 96q-2 16 -14 32t-25 23q11 16 26 22.5t29.5 5t27.5 -9.5t21 -22q25 -45 16 -93t-41.5 -90.5t-82 -75t-105 -44.5t-111.5 0.5t-100 58.5q-7 8 -12.5 15t-10.5 15q-42 -37 -85 -61.5
t-83.5 -32t-76 4t-62.5 47.5q-29 37 -35.5 83t2.5 96t30 100.5t47 97.5t54 88t51 70l32 41q-21 21 -43 39.5t-44.5 33t-45.5 23.5t-48 9q-43 2 -76 -28q-14 -13 -25 -30.5t-17 -37t-5 -39t12 -35.5q14 -23 41 -30t50 6q7 4 14.5 13.5t8.5 17.5q21 -4 30 -15t9 -25t-6.5 -28
t-16.5 -23q-17 -14 -42.5 -19.5t-51.5 2.5q-41 13 -61 40.5t-24 62.5t7 72.5t32 69.5t51 54.5t64 27.5q41 6 74.5 -1t61.5 -22.5t51.5 -37.5t46.5 -46q21 22 44.5 44.5t48.5 42t51.5 34t52.5 22.5q35 10 62.5 5t48 -21.5t34 -41t20.5 -52.5q30 27 68.5 47.5t78.5 28t76.5 -2
t63.5 -42.5q29 -36 31.5 -82t-14.5 -88t-51.5 -73.5t-79.5 -37.5q-44 -6 -65 13.5t-14 54.5zM387 488q-21 -33 -38 -64t-29 -55q-11 -21 -27 -53t-31.5 -70.5t-29 -79.5t-18 -79.5t1.5 -71t28 -53.5q30 -27 70 -24q42 3 79.5 26t69.5 58q-9 30 -7.5 62.5t11.5 64.5t26 61.5
t36 52.5q41 48 92.5 74.5t110.5 33.5q-27 17 -39 52q-52 -37 -96.5 -41t-82 11t-69 42t-58.5 53zM657 638q-27 30 -60.5 28t-66.5 -21t-61 -48t-42 -51q34 -37 71.5 -68.5t87.5 -43.5q45 -11 71 10t33.5 55t-1 73t-32.5 66zM476 -214q2 -2 5 -4t9 -3t16.5 -2t27.5 -1
q-33 -1 -44 -3.5t-15 -6.5q-2 -2 -3.5 -5.5t-2.5 -10.5t-2 -19t-1 -31q0 19 -1 31t-2 19t-3 10.5t-4 5.5t-5.5 4t-9.5 3t-16.5 2t-27.5 1q16 0 26.5 1t17 2t10 3t5.5 4q4 5 6.5 15.5t3.5 43.5q1 -33 3 -44t7 -15zM62 227q4 -5 14 -7.5t44 -2.5q-33 -1 -43.5 -3.5t-15.5 -6.5
q-4 -5 -6 -16.5t-3 -49.5q0 19 -1 30.5t-2 19t-3 11t-4 5.5t-5.5 3.5t-9.5 3t-16.5 2.5t-26.5 1q32 0 42.5 2.5t15.5 7.5q4 4 6.5 14.5t3.5 43.5q1 -33 3 -43.5t7 -14.5z" />
    <glyph glyph-name="scaron" unicode="&#x161;" horiz-adv-x="234" 
d="M136 347q-29 -28 -33.5 -41.5t3.5 -25t23.5 -25.5t27.5 -42q9 -19 8.5 -39.5t-7.5 -39.5t-18.5 -36t-25.5 -30v-9q35 20 69 53.5t51 70.5l23 -24q-21 -47 -59.5 -82t-83.5 -55q1 -29 2 -47.5t3.5 -30t5 -17t6.5 -8.5q3 -4 8 -6.5t15.5 -5t29.5 -3.5t50 -2q-30 0 -49 -1.5
t-30 -3.5t-16.5 -5t-9.5 -7q-3 -4 -6 -10t-4.5 -18.5t-3 -33.5t-1.5 -55q0 34 -1.5 55.5t-3.5 34t-5 18.5t-6 9q-4 4 -10 7t-17 5t-29.5 3.5t-48.5 1.5q30 1 48.5 2t29.5 3.5t16.5 5t9.5 6.5q4 3 6.5 8.5t4.5 17t3.5 29.5t1.5 47q-41 -18 -82 -21t-74 12l14 32
q29 -5 55 15.5t42.5 53t20.5 68.5t-11 62q-2 4 -4 7.5t-4 7.5l-53 -110l-23 24l63 132q-2 30 10 59t38 55q3 3 9 7q19 15 34.5 14t21.5 -13t-1 -33t-33 -46zM141 470v57q-14 -3 -18 -7q-4 -5 -6 -16.5t-3 -48.5q0 18 -1 30t-2 19t-3 10.5t-4 5.5q-5 4 -15 6.5t-44 3.5
q32 0 43 2.5t16 7.5q4 4 6.5 14.5t3.5 43.5q1 -33 3 -43.5t7 -14.5q2 -3 5.5 -5t11.5 -3v46h37l-1 -48v-2l4 2l114 48l17 -28l-135 -92zM114 68q-12 -11 -24.5 -17.5t-23.5 -8.5q22 3 48 17v9z" />
    <glyph glyph-name="oe" unicode="&#x153;" horiz-adv-x="473" 
d="M473 183l23 -24q-27 -47 -63 -83.5t-75 -58.5t-77 -26.5t-68 14.5q-33 20 -38 73q-12 -14 -24.5 -26.5t-26.5 -22.5q-29 -21 -58.5 -28.5t-56.5 4.5q-32 15 -38.5 61t24.5 108q29 59 61 99.5t63.5 63.5t60 29t51.5 -4q10 -5 19 -15.5t9 -23.5q-15 12 -35.5 13.5
t-43.5 -13t-48 -46t-50 -85.5q-22 -46 -22.5 -79.5t20.5 -44.5q10 -6 27 3t36 29t37 48.5t30 61.5q-18 25 -16.5 50t14 40t30.5 16t33 -22q24 26 47.5 42t45 24t40 8t31.5 -6q15 -8 23.5 -23.5t9.5 -35.5t-5.5 -43.5t-22.5 -46.5q-21 -30 -44 -46t-45.5 -20.5t-43.5 -0.5
t-39 14q-10 -33 -7.5 -59t22.5 -36q16 -8 42 -2.5t53 22t52.5 42t42.5 56.5zM386 244q26 28 34 52.5t0 29.5q-12 8 -30 0t-37 -26t-37 -43t-30 -51l-6 -14q21 -4 49 8.5t57 43.5zM141 -131q3 -4 8 -6.5t15.5 -5t29.5 -3.5t50 -2q-30 0 -49 -1.5t-30 -3.5t-16.5 -5t-9.5 -7
q-3 -3 -6 -9t-4.5 -17t-3 -29.5t-1.5 -48.5q-1 30 -2.5 49t-3.5 30t-4.5 16.5t-5.5 8.5q-4 4 -10 7t-17 5t-29.5 3.5t-48.5 1.5q30 1 48.5 2t29.5 3.5t16.5 5t9.5 6.5q3 4 6 9.5t5 16.5t3.5 29.5t2.5 48.5q0 -30 1.5 -48.5t3.5 -29.5t5 -16.5t7 -9.5zM417 -187q2 -2 5 -4
t9 -3t16.5 -2t27.5 -1q-33 -1 -44 -3.5t-15 -6.5t-6 -14.5t-3 -43.5q-1 33 -3.5 43.5t-6.5 14.5q-2 2 -5.5 4t-9.5 3t-16.5 2t-27.5 1q16 0 26.5 1t17 2t10 3t5.5 4q4 5 6.5 15.5t3.5 43.5q1 -33 3 -44t7 -15zM248 560q4 -5 14 -7.5t44 -2.5q-33 -1 -43.5 -3.5t-15.5 -6.5
q-4 -5 -6 -15.5t-3 -43.5q-1 33 -3.5 43.5t-6.5 15.5q-5 4 -15 6.5t-44 3.5q32 0 43 2.5t16 7.5q4 4 6.5 14.5t3.5 43.5q1 -33 3 -43.5t7 -14.5z" />
    <glyph glyph-name="Agrave" unicode="&#xc0;" horiz-adv-x="739" 
d="M580 564q-25 40 -70 59q-27 11 -55 10.5t-53.5 -10t-46 -27t-32.5 -40.5q-9 -17 -14.5 -40.5t-4 -46t11.5 -41t31 -27.5t41.5 -2.5t32.5 22.5q8 11 11 25.5t2 28.5q24 8 41 -3t17 -37q0 -31 -17 -53t-42.5 -33t-54 -10t-51.5 16q-22 14 -34.5 35t-18 46t-4.5 50.5t6 48.5
q10 42 35 74.5t59.5 53t75.5 27.5t83 -2q34 -8 62 -23t54 -38q25 10 55.5 20.5t60 19.5t55.5 16t43 10l7 -33q-38 -21 -67.5 -62t-52.5 -89.5t-40.5 -98t-32.5 -87.5l-18 -45t-21 -54q38 -11 70.5 -13.5t53.5 11.5l16 -30q-38 -18 -77 -19t-79 7q-11 -30 -19 -61.5t-12 -61
t-1.5 -56t13.5 -47.5q7 -13 32 -21q3 -14 -3.5 -22.5t-17.5 -10.5t-24.5 1t-24.5 12q-30 22 -41.5 59t-11.5 78t8 81.5t17 69.5l-33 9q-25 -40 -58.5 -87t-73 -90t-82.5 -77t-86.5 -47t-85 0.5t-77.5 63.5q-18 26 -23.5 57t-1.5 61q6 63 45 114q20 25 48 45t66 27
q26 5 51 -2.5t42 -25.5q10 26 28 39t42 16.5t52.5 -1.5t59.5 -14q35 51 71.5 101t75.5 99q22 27 51.5 62.5t58.5 64.5zM268 177q-18 14 -38 20t-43 1q-22 -4 -41.5 -16t-35.5 -29t-28 -37t-18 -41q-7 -22 -6 -44t12 -40t30 -28.5t39 -12.5q29 -4 55.5 8.5t51.5 35t47.5 52
t42.5 61.5t38 63.5t33 56.5q-17 1 -36.5 0t-38.5 -6.5t-36 -16t-28 -27.5zM659 805l52 55l136 -128l-22 -24zM613 385q32 62 74 130.5t96 121.5q-46 -27 -83 -74t-68 -101t-56 -107.5t-47 -94.5q10 -3 22 -8q14 36 30 69.5t32 63.5zM401 -159q3 -4 8 -6.5t15.5 -5t29.5 -3.5
t50 -2q-30 0 -49 -1.5t-30 -3.5t-16.5 -5t-9.5 -7q-3 -3 -6 -9t-4.5 -17t-3 -29.5t-1.5 -48.5q-1 30 -2.5 49t-3.5 30t-4.5 16.5t-5.5 8.5q-4 4 -10 7t-17 5t-29.5 3.5t-48.5 1.5q30 1 48.5 2t29.5 3.5t16.5 5t9.5 6.5q3 4 6 9.5t5 16.5t3.5 29.5t2.5 48.5q0 -30 1.5 -48.5
t3.5 -29.5t5 -16.5t7 -9.5zM136 473q4 -5 14 -7.5t44 -2.5q-33 -1 -43.5 -3.5t-15.5 -6.5q-4 -5 -6 -16.5t-3 -49.5q0 19 -1 30.5t-2 19t-3 11t-4 5.5q-5 4 -15 6.5t-44 3.5q32 0 43 2.5t16 7.5q4 4 6.5 14.5t3.5 43.5q1 -33 3 -43.5t7 -14.5z" />
    <glyph glyph-name="Aacute" unicode="&#xc1;" horiz-adv-x="739" 
d="M580 564q-25 40 -70 59q-27 11 -55 10.5t-53.5 -10t-46 -27t-32.5 -40.5q-9 -17 -14.5 -40.5t-4 -46t11.5 -41t31 -27.5t41.5 -2.5t32.5 22.5q8 11 11 25.5t2 28.5q24 8 41 -3t17 -37q0 -31 -17 -53t-42.5 -33t-54 -10t-51.5 16q-22 14 -34.5 35t-18 46t-4.5 50.5t6 48.5
q10 42 35 74.5t59.5 53t75.5 27.5t83 -2q34 -8 62 -23t54 -38q25 10 55.5 20.5t60 19.5t55.5 16t43 10l7 -33q-38 -21 -67.5 -62t-52.5 -89.5t-40.5 -98t-32.5 -87.5l-18 -45t-21 -54q38 -11 70.5 -13.5t53.5 11.5l16 -30q-38 -18 -77 -19t-79 7q-11 -30 -19 -61.5t-12 -61
t-1.5 -56t13.5 -47.5q7 -13 32 -21q3 -14 -3.5 -22.5t-17.5 -10.5t-24.5 1t-24.5 12q-30 22 -41.5 59t-11.5 78t8 81.5t17 69.5l-33 9q-25 -40 -58.5 -87t-73 -90t-82.5 -77t-86.5 -47t-85 0.5t-77.5 63.5q-18 26 -23.5 57t-1.5 61q6 63 45 114q20 25 48 45t66 27
q26 5 51 -2.5t42 -25.5q10 26 28 39t42 16.5t52.5 -1.5t59.5 -14q35 51 71.5 101t75.5 99q22 27 51.5 62.5t58.5 64.5zM268 177q-18 14 -38 20t-43 1q-22 -4 -41.5 -16t-35.5 -29t-28 -37t-18 -41q-7 -22 -6 -44t12 -40t30 -28.5t39 -12.5q29 -4 55.5 8.5t51.5 35t47.5 52
t42.5 61.5t38 63.5t33 56.5q-17 1 -36.5 0t-38.5 -6.5t-36 -16t-28 -27.5zM898 856l25 -71l-188 -76l-18 28zM613 385q32 62 74 130.5t96 121.5q-46 -27 -83 -74t-68 -101t-56 -107.5t-47 -94.5q10 -3 22 -8q14 36 30 69.5t32 63.5zM401 -159q3 -4 8 -6.5t15.5 -5t29.5 -3.5
t50 -2q-30 0 -49 -1.5t-30 -3.5t-16.5 -5t-9.5 -7q-3 -3 -6 -9t-4.5 -17t-3 -29.5t-1.5 -48.5q-1 30 -2.5 49t-3.5 30t-4.5 16.5t-5.5 8.5q-4 4 -10 7t-17 5t-29.5 3.5t-48.5 1.5q30 1 48.5 2t29.5 3.5t16.5 5t9.5 6.5q3 4 6 9.5t5 16.5t3.5 29.5t2.5 48.5q0 -30 1.5 -48.5
t3.5 -29.5t5 -16.5t7 -9.5zM136 473q4 -5 14 -7.5t44 -2.5q-33 -1 -43.5 -3.5t-15.5 -6.5q-4 -5 -6 -16.5t-3 -49.5q0 19 -1 30.5t-2 19t-3 11t-4 5.5q-5 4 -15 6.5t-44 3.5q32 0 43 2.5t16 7.5q4 4 6.5 14.5t3.5 43.5q1 -33 3 -43.5t7 -14.5z" />
    <glyph glyph-name="Acircumflex" unicode="&#xc2;" horiz-adv-x="739" 
d="M580 564q-25 40 -70 59q-27 11 -55 10.5t-53.5 -10t-46 -27t-32.5 -40.5q-9 -17 -14.5 -40.5t-4 -46t11.5 -41t31 -27.5t41.5 -2.5t32.5 22.5q8 11 11 25.5t2 28.5q24 8 41 -3t17 -37q0 -31 -17 -53t-42.5 -33t-54 -10t-51.5 16q-22 14 -34.5 35t-18 46t-4.5 50.5t6 48.5
q10 42 35 74.5t59.5 53t75.5 27.5t83 -2q34 -8 62 -23t54 -38q25 10 55.5 20.5t60 19.5t55.5 16t43 10l7 -33q-38 -21 -67.5 -62t-52.5 -89.5t-40.5 -98t-32.5 -87.5l-18 -45t-21 -54q38 -11 70.5 -13.5t53.5 11.5l16 -30q-38 -18 -77 -19t-79 7q-11 -30 -19 -61.5t-12 -61
t-1.5 -56t13.5 -47.5q7 -13 32 -21q3 -14 -3.5 -22.5t-17.5 -10.5t-24.5 1t-24.5 12q-30 22 -41.5 59t-11.5 78t8 81.5t17 69.5l-33 9q-25 -40 -58.5 -87t-73 -90t-82.5 -77t-86.5 -47t-85 0.5t-77.5 63.5q-18 26 -23.5 57t-1.5 61q6 63 45 114q20 25 48 45t66 27
q26 5 51 -2.5t42 -25.5q10 26 28 39t42 16.5t52.5 -1.5t59.5 -14q35 51 71.5 101t75.5 99q22 27 51.5 62.5t58.5 64.5zM268 177q-18 14 -38 20t-43 1q-22 -4 -41.5 -16t-35.5 -29t-28 -37t-18 -41q-7 -22 -6 -44t12 -40t30 -28.5t39 -12.5q29 -4 55.5 8.5t51.5 35t47.5 52
t42.5 61.5t38 63.5t33 56.5q-17 1 -36.5 0t-38.5 -6.5t-36 -16t-28 -27.5zM888 836v-107h-37v50l-116 -50l-18 27l135 93zM613 385q32 62 74 130.5t96 121.5q-46 -27 -83 -74t-68 -101t-56 -107.5t-47 -94.5q10 -3 22 -8q14 36 30 69.5t32 63.5zM401 -159q3 -4 8 -6.5
t15.5 -5t29.5 -3.5t50 -2q-30 0 -49 -1.5t-30 -3.5t-16.5 -5t-9.5 -7q-3 -4 -6 -10t-4.5 -18.5t-3 -33.5t-1.5 -55q0 34 -1.5 55.5t-3.5 34t-5 18.5t-6 9q-4 4 -10 7t-17 5t-29.5 3.5t-48.5 1.5q30 1 48.5 2t29.5 3.5t16.5 5t9.5 6.5q3 4 6 9.5t5 16.5t3.5 29.5t2.5 48.5
q0 -30 1.5 -48.5t3.5 -29.5t5 -16.5t7 -9.5zM136 473q4 -5 14 -7.5t44 -2.5q-33 -1 -43.5 -3.5t-15.5 -6.5q-2 -3 -4 -7.5t-3 -14.5t-1.5 -28t-0.5 -47q0 29 -0.5 47t-2 28t-3 14.5t-4.5 7.5q-5 4 -15 6.5t-44 3.5q32 0 43 2.5t16 7.5q4 4 6.5 14.5t3.5 43.5q1 -33 3 -43.5
t7 -14.5z" />
    <glyph glyph-name="Atilde" unicode="&#xc3;" horiz-adv-x="739" 
d="M580 564q-25 40 -70 59q-27 11 -55 10.5t-53.5 -10t-46 -27t-32.5 -40.5q-9 -17 -14.5 -40.5t-4 -46t11.5 -41t31 -27.5t41.5 -2.5t32.5 22.5q8 11 11 25.5t2 28.5q24 8 41 -3t17 -37q0 -31 -17 -53t-42.5 -33t-54 -10t-51.5 16q-22 14 -34.5 35t-18 46t-4.5 50.5t6 48.5
q10 42 35 74.5t59.5 53t75.5 27.5t83 -2q34 -8 62 -23t54 -38q25 10 55.5 20.5t60 19.5t55.5 16t43 10l7 -33q-38 -21 -67.5 -62t-52.5 -89.5t-40.5 -98t-32.5 -87.5l-18 -45t-21 -54q38 -11 70.5 -13.5t53.5 11.5l16 -30q-38 -18 -77 -19t-79 7q-11 -30 -19 -61.5t-12 -61
t-1.5 -56t13.5 -47.5q7 -13 32 -21q3 -14 -3.5 -22.5t-17.5 -10.5t-24.5 1t-24.5 12q-30 22 -41.5 59t-11.5 78t8 81.5t17 69.5l-33 9q-25 -40 -58.5 -87t-73 -90t-82.5 -77t-86.5 -47t-85 0.5t-77.5 63.5q-18 26 -23.5 57t-1.5 61q6 63 45 114q20 25 48 45t66 27
q26 5 51 -2.5t42 -25.5q10 26 28 39t42 16.5t52.5 -1.5t59.5 -14q35 51 71.5 101t75.5 99q22 27 51.5 62.5t58.5 64.5zM268 177q-18 14 -38 20t-43 1q-22 -4 -41.5 -16t-35.5 -29t-28 -37t-18 -41q-7 -22 -6 -44t12 -40t30 -28.5t39 -12.5q29 -4 55.5 8.5t51.5 35t47.5 52
t42.5 61.5t38 63.5t33 56.5q-17 1 -36.5 0t-38.5 -6.5t-36 -16t-28 -27.5zM722 729l-18 27q10 14 20.5 29t22.5 27.5t26 20.5t30 8q13 0 22 -6.5t15.5 -14.5t13.5 -15t17 -7t24.5 9.5t37.5 33.5l18 -27q-14 -15 -26.5 -29.5t-25 -26t-26 -18.5t-29.5 -7t-27.5 13.5t-24 22.5
t-29 3.5t-41.5 -43.5zM613 385q32 62 74 130.5t96 121.5q-46 -27 -83 -74t-68 -101t-56 -107.5t-47 -94.5q10 -3 22 -8q14 36 30 69.5t32 63.5zM401 -159q3 -4 8 -6.5t15.5 -5t29.5 -3.5t50 -2q-30 0 -49 -1.5t-30 -3.5t-16.5 -5t-9.5 -7q-3 -4 -6 -10t-4.5 -18.5t-3 -33.5
t-1.5 -55q0 34 -1.5 55.5t-3.5 34t-5 18.5t-6 9q-4 4 -10 7t-17 5t-29.5 3.5t-48.5 1.5q30 1 48.5 2t29.5 3.5t16.5 5t9.5 6.5q3 4 6 9.5t5 16.5t3.5 29.5t2.5 48.5q0 -30 1.5 -48.5t3.5 -29.5t5 -16.5t7 -9.5zM136 473q4 -5 14 -7.5t44 -2.5q-33 -1 -43.5 -3.5t-15.5 -6.5
q-4 -5 -6 -16.5t-3 -49.5q0 19 -1 30.5t-2 19t-3 11t-4 5.5q-5 4 -15 6.5t-44 3.5q32 0 43 2.5t16 7.5q4 4 6.5 14.5t3.5 43.5q1 -33 3 -43.5t7 -14.5z" />
    <glyph glyph-name="Adieresis" unicode="&#xc4;" horiz-adv-x="739" 
d="M580 564q-25 40 -70 59q-27 11 -55 10.5t-53.5 -10t-46 -27t-32.5 -40.5q-9 -17 -14.5 -40.5t-4 -46t11.5 -41t31 -27.5t41.5 -2.5t32.5 22.5q8 11 11 25.5t2 28.5q24 8 41 -3t17 -37q0 -31 -17 -53t-42.5 -33t-54 -10t-51.5 16q-22 14 -34.5 35t-18 46t-4.5 50.5t6 48.5
q10 42 35 74.5t59.5 53t75.5 27.5t83 -2q34 -8 62 -23t54 -38q25 10 55.5 20.5t60 19.5t55.5 16t43 10l7 -33q-38 -21 -67.5 -62t-52.5 -89.5t-40.5 -98t-32.5 -87.5l-18 -45t-21 -54q38 -11 70.5 -13.5t53.5 11.5l16 -30q-38 -18 -77 -19t-79 7q-11 -30 -19 -61.5t-12 -61
t-1.5 -56t13.5 -47.5q7 -13 32 -21q3 -14 -3.5 -22.5t-17.5 -10.5t-24.5 1t-24.5 12q-30 22 -41.5 59t-11.5 78t8 81.5t17 69.5l-33 9q-25 -40 -58.5 -87t-73 -90t-82.5 -77t-86.5 -47t-85 0.5t-77.5 63.5q-18 26 -23.5 57t-1.5 61q6 63 45 114q20 25 48 45t66 27
q26 5 51 -2.5t42 -25.5q10 26 28 39t42 16.5t52.5 -1.5t59.5 -14q35 51 71.5 101t75.5 99q22 27 51.5 62.5t58.5 64.5zM268 177q-18 14 -38 20t-43 1q-22 -4 -41.5 -16t-35.5 -29t-28 -37t-18 -41q-7 -22 -6 -44t12 -40t30 -28.5t39 -12.5q29 -4 55.5 8.5t51.5 35t47.5 52
t42.5 61.5t38 63.5t33 56.5q-17 1 -36.5 0t-38.5 -6.5t-36 -16t-28 -27.5zM909 761q-5 -21 -24 -35.5t-39 -14.5q-21 0 -31.5 14.5t-4.5 35.5q5 20 23.5 35t39.5 15q20 0 30.5 -15t5.5 -35zM800 761q-5 -21 -23.5 -35.5t-39.5 -14.5q-20 0 -30.5 14.5t-5.5 35.5
q5 20 23.5 35t39.5 15q20 0 30.5 -15t5.5 -35zM613 385q32 62 74 130.5t96 121.5q-46 -27 -83 -74t-68 -101t-56 -107.5t-47 -94.5q10 -3 22 -8q14 36 30 69.5t32 63.5zM401 -159q3 -4 8 -6.5t15.5 -5t29.5 -3.5t50 -2q-30 0 -49 -1.5t-30 -3.5t-16.5 -5t-9.5 -7
q-3 -3 -6 -9t-4.5 -17t-3 -29.5t-1.5 -48.5q-1 30 -2.5 49t-3.5 30t-4.5 16.5t-5.5 8.5q-4 4 -10 7t-17 5t-29.5 3.5t-48.5 1.5q30 1 48.5 2t29.5 3.5t16.5 5t9.5 6.5q3 4 6 9.5t5 16.5t3.5 29.5t2.5 48.5q0 -30 1.5 -48.5t3.5 -29.5t5 -16.5t7 -9.5zM136 473q4 -5 14 -7.5
t44 -2.5q-33 -1 -43.5 -3.5t-15.5 -6.5q-4 -5 -6 -15.5t-3 -43.5q-1 33 -3.5 43.5t-6.5 15.5q-5 4 -15 6.5t-44 3.5q32 0 43 2.5t16 7.5q4 4 6.5 14.5t3.5 43.5q1 -33 3 -43.5t7 -14.5z" />
    <glyph glyph-name="Aring" unicode="&#xc5;" horiz-adv-x="739" 
d="M580 564q-25 40 -70 59q-27 11 -55 10.5t-53.5 -10t-46 -27t-32.5 -40.5q-9 -17 -14.5 -40.5t-4 -46t11.5 -41t31 -27.5t41.5 -2.5t32.5 22.5q8 11 11 25.5t2 28.5q24 8 41 -3t17 -37q0 -31 -17 -53t-42.5 -33t-54 -10t-51.5 16q-22 14 -34.5 35t-18 46t-4.5 50.5t6 48.5
q10 42 35 74.5t59.5 53t75.5 27.5t83 -2q34 -8 62 -23t54 -38q25 10 55.5 20.5t60 19.5t55.5 16t43 10l7 -33q-38 -21 -67.5 -62t-52.5 -89.5t-40.5 -98t-32.5 -87.5l-18 -45t-21 -54q38 -11 70.5 -13.5t53.5 11.5l16 -30q-38 -18 -77 -19t-79 7q-11 -30 -19 -61.5t-12 -61
t-1.5 -56t13.5 -47.5q7 -13 32 -21q3 -14 -3.5 -22.5t-17.5 -10.5t-24.5 1t-24.5 12q-30 22 -41.5 59t-11.5 78t8 81.5t17 69.5l-33 9q-25 -40 -58.5 -87t-73 -90t-82.5 -77t-86.5 -47t-85 0.5t-77.5 63.5q-18 26 -23.5 57t-1.5 61q6 63 45 114q20 25 48 45t66 27
q26 5 51 -2.5t42 -25.5q10 26 28 39t42 16.5t52.5 -1.5t59.5 -14q35 51 71.5 101t75.5 99q22 27 51.5 62.5t58.5 64.5zM268 177q-18 14 -38 20t-43 1q-22 -4 -41.5 -16t-35.5 -29t-28 -37t-18 -41q-7 -22 -6 -44t12 -40t30 -28.5t39 -12.5q29 -4 55.5 8.5t51.5 35t47.5 52
t42.5 61.5t38 63.5t33 56.5q-17 1 -36.5 0t-38.5 -6.5t-36 -16t-28 -27.5zM837 847q30 0 45.5 -21t7.5 -51q-8 -31 -35 -52.5t-57 -21.5q-31 0 -46.5 21.5t-7.5 52.5q4 15 13.5 28t22 23t27.5 15.5t30 5.5zM613 385q32 62 74 130.5t96 121.5q-46 -27 -83 -74t-68 -101
t-56 -107.5t-47 -94.5q10 -3 22 -8q14 36 30 69.5t32 63.5zM855 775q4 15 -4 26t-24 11q-15 0 -29 -11t-18 -26q-5 -16 3.5 -27t23.5 -11q16 0 29.5 11t18.5 27zM401 -159q3 -4 8 -6.5t15.5 -5t29.5 -3.5t50 -2q-30 0 -49 -1.5t-30 -3.5t-16.5 -5t-9.5 -7q-3 -3 -6 -9
t-4.5 -17t-3 -29.5t-1.5 -48.5q-1 30 -2.5 49t-3.5 30t-4.5 16.5t-5.5 8.5q-4 4 -10 7t-17 5t-29.5 3.5t-48.5 1.5q30 1 48.5 2t29.5 3.5t16.5 5t9.5 6.5q3 4 6 9.5t5 16.5t3.5 29.5t2.5 48.5q0 -30 1.5 -48.5t3.5 -29.5t5 -16.5t7 -9.5zM136 473q4 -5 14 -7.5t44 -2.5
q-33 -1 -43.5 -3.5t-15.5 -6.5q-4 -5 -6 -15.5t-3 -43.5q-1 33 -3.5 43.5t-6.5 15.5q-5 4 -15 6.5t-44 3.5q32 0 43 2.5t16 7.5q4 4 6.5 14.5t3.5 43.5q1 -33 3 -43.5t7 -14.5z" />
    <glyph glyph-name="AE" unicode="&#xc6;" horiz-adv-x="1059" 
d="M901 427q20 -2 45 5t48.5 20.5t44 32.5t32 40.5t11 46t-17.5 48.5q-21 29 -48 31t-56 -14t-56.5 -44.5t-49 -60.5t-34 -63.5t-11.5 -51.5q1 -14 8 -26.5t21 -15.5q22 2 39.5 -1t15.5 -23q-1 -6 -6.5 -12t-20.5 -4q-37 5 -76 -7.5t-74 -37.5t-64.5 -60t-48 -74.5
t-23 -80.5t9.5 -78q13 -33 41.5 -45.5t61.5 -11.5t66 12.5t55 26.5q43 30 69.5 76t22.5 96q-2 16 -14 32t-25 23q11 16 26 22.5t29.5 5t27.5 -9.5t21 -22q25 -45 16 -93t-41.5 -90.5t-82 -75t-105 -44.5t-111.5 0.5t-100 58.5q-24 24 -34.5 54t-11 62t8 64.5t23.5 61.5
l-33 10q-25 -40 -58.5 -87t-73 -90t-82.5 -77t-86.5 -47t-85 0.5t-77.5 63.5q-18 26 -23.5 57t-1.5 61q6 63 45 114q20 25 48 45t66 27q26 5 51 -2.5t42 -25.5q10 26 28 39t42 16.5t52.5 -1.5t59.5 -14q53 75 92 128t74 90.5t71 63t84 43.5l-187 -50q-25 40 -70 59
q-27 11 -55 10.5t-53.5 -10t-46 -27t-32.5 -40.5q-9 -17 -14.5 -40.5t-4 -46t11.5 -41t31 -27.5t41.5 -2.5t32.5 22.5q8 11 11 25.5t2 28.5q24 8 41 -3t17 -37q0 -31 -17 -53t-42.5 -33t-54 -10t-51.5 16q-22 14 -34.5 35t-18 46t-4.5 50.5t6 48.5q10 42 35 74.5t59.5 53
t75.5 27.5t83 -2q34 -8 62 -23t54 -38l214 24q24 15 55 26.5t63 13t63 -10t54 -40.5q29 -36 31.5 -82t-14.5 -88t-51.5 -73.5t-79.5 -37.5q-44 -6 -65 13.5t-14 54.5zM268 177q-18 14 -38 20t-43 1q-22 -4 -41.5 -16t-35.5 -29t-28 -37t-18 -41q-7 -22 -6 -44t12 -40
t30 -28.5t39 -12.5q29 -4 55.5 8.5t51.5 35t47.5 52t42.5 61.5t38 63.5t33 56.5q-17 1 -36.5 0t-38.5 -6.5t-36 -16t-28 -27.5zM529 260q-1 -2 2.5 -3t9 -2.5t11.5 -3t11 -3.5q50 59 103 87.5t112 35.5q-16 11 -27.5 29t-15.5 41t0.5 50.5t20.5 56.5q15 26 45 55
q-9 -2 -17 -3.5t-19.5 -11t-29 -29.5t-45 -57.5t-67 -96t-94.5 -145.5zM401 -159q3 -4 8 -6.5t15.5 -5t29.5 -3.5t50 -2q-30 0 -49 -1.5t-30 -3.5t-16.5 -5t-9.5 -7q-3 -3 -6 -9t-4.5 -17t-3 -29.5t-1.5 -48.5q-1 30 -2.5 49t-3.5 30t-4.5 16.5t-5.5 8.5q-4 4 -10 7t-17 5
t-29.5 3.5t-48.5 1.5q30 1 48.5 2t29.5 3.5t16.5 5t9.5 6.5q3 4 6 9.5t5 16.5t3.5 29.5t2.5 48.5q0 -30 1.5 -48.5t3.5 -29.5t5 -16.5t7 -9.5zM935 -151q2 -2 5 -4t9 -3t16.5 -2t27.5 -1q-33 -1 -44 -3.5t-15 -6.5q-2 -2 -3.5 -5.5t-2.5 -10.5t-2 -19t-1 -31q0 19 -1 31
t-2 19t-3 10.5t-4 5.5t-5.5 4t-9.5 3t-16.5 2t-27.5 1q16 0 26.5 1t17 2t10 3t5.5 4q4 5 6.5 15.5t3.5 43.5q1 -33 3 -44t7 -15zM136 473q4 -5 14 -7.5t44 -2.5q-33 -1 -43.5 -3.5t-15.5 -6.5q-2 -3 -4 -7.5t-3 -14.5t-1.5 -28t-0.5 -47q0 29 -0.5 47t-2 28t-3 14.5
t-4.5 7.5q-5 4 -15 6.5t-44 3.5q32 0 43 2.5t16 7.5q4 4 6.5 14.5t3.5 43.5q1 -33 3 -43.5t7 -14.5z" />
    <glyph glyph-name="Ccedilla" unicode="&#xc7;" horiz-adv-x="497" 
d="M278 399q27 -13 63.5 -11.5t74.5 14t72.5 34t58.5 50t32 61.5t-7 67q-8 17 -24.5 25t-36.5 9.5t-40 -2t-33 -8.5q-48 -19 -89 -53.5t-75 -77.5t-60.5 -91t-47.5 -93q-15 -34 -34.5 -83.5t-29 -101t-2.5 -98.5t43 -76q28 -23 65.5 -21t65.5 25q25 21 40.5 47t23.5 52
q12 41 6.5 83.5t-34.5 74.5q34 17 64.5 3t41.5 -53q14 -50 -1 -95.5t-48 -81.5t-78 -60.5t-91 -31.5l-36 -43q18 7 36.5 6t31.5 -9.5t17 -25t-7 -38.5l-5 -8q24 0 39 1.5t24.5 3.5t14.5 4.5t8 6.5t6 9.5t5 16.5t3.5 29.5t2.5 48.5q0 -30 1.5 -48.5t3.5 -29.5t5 -16.5t7 -9.5
q3 -4 8 -6.5t15.5 -5t29.5 -3.5t50 -2q-30 0 -49 -1.5t-30 -3.5t-16.5 -5t-9.5 -7q-3 -4 -6 -10t-4.5 -18.5t-3 -33.5t-1.5 -55q0 34 -1.5 55.5t-3.5 34t-5 18.5t-6 9t-8 6t-15 5t-25.5 3.5t-39.5 2.5q-8 -13 -21 -24.5t-29.5 -20t-36 -13.5t-40.5 -4q-18 1 -32.5 6.5
t-24 14t-14.5 18.5t-5 19l15 7l18 8q5 -20 21.5 -28.5t32.5 -3.5q17 4 28 17t15 25.5t-1 22t-20 6.5l-38 -16l-13 18l-2 3l59 61q-27 2 -50.5 12t-41.5 28.5t-29.5 46.5t-13.5 67q-3 64 14.5 127.5t48.5 122.5t70 114t79 103q20 25 51 52.5t66.5 51t73.5 40.5t74 20.5
t67 -9.5t52 -49t20 -72.5t-17.5 -71t-45 -65.5t-63 -55.5t-72 -40.5t-70.5 -20q-28 -4 -48.5 2t-32 19t-12 32t11.5 41zM116 563q4 -5 14 -7.5t44 -2.5q-33 -1 -43.5 -3.5t-15.5 -6.5q-4 -5 -6 -16.5t-3 -49.5q0 19 -1 30.5t-2 19t-3 11t-4 5.5q-5 4 -15 6.5t-44 3.5
q32 0 43 2.5t16 7.5q4 4 6.5 14.5t3.5 43.5q1 -33 3 -43.5t7 -14.5zM52 -168q-2 -2 -4 -8.5t-2 -24.5q-1 18 -3 24.5t-4 8.5q-3 3 -9.5 5t-24.5 2q19 1 25 3t9 4q2 3 4 9t3 26q0 -19 2 -25.5t5 -9.5q2 -2 7.5 -4t22.5 -3q-17 -1 -23 -2.5t-8 -4.5z" />
    <glyph glyph-name="ccedilla" unicode="&#xe7;" horiz-adv-x="264" 
d="M264 183l23 -24q-44 -67 -96 -112.5t-103 -54.5l-40 -48q18 7 36.5 6t31.5 -9.5t17 -25t-7 -38.5q-15 -26 -42 -45q-18 -12 -41.5 -19.5t-49.5 -6.5q-18 1 -32.5 6.5t-24 14t-14.5 18.5t-5 19l33 15q5 -20 21.5 -28.5t32.5 -3.5q17 4 28 17t15 25.5t-1 22t-20 6.5
l-38 -16l-15 21l68 71q-14 3 -27 11q-16 10 -25.5 28t-11.5 42.5t4 53t21 59.5q30 59 63 96.5t65 57.5t60 24t47 -4q11 -5 18 -17t9 -27.5t0 -33t-9 -35.5q-8 -17 -17 -28.5t-18 -18t-17.5 -9t-13.5 -2.5q-18 0 -27.5 13t-4.5 31q5 19 21 31.5t35 12.5q4 0 12 -2
q9 14 6.5 29t-10.5 20q-12 8 -29.5 0t-36.5 -26t-37.5 -43t-30.5 -51q-11 -23 -17.5 -45.5t-7.5 -41.5t4 -33.5t18 -20.5q16 -8 38.5 -2t46.5 22.5t48.5 42t46.5 55.5zM154 460q4 -5 14 -7.5t44 -2.5q-33 -1 -43.5 -3.5t-15.5 -6.5q-4 -5 -6 -15.5t-3 -43.5q-1 33 -3.5 43.5
t-6.5 15.5q-5 4 -15 6.5t-44 3.5q32 0 43 2.5t16 7.5q4 4 6.5 14.5t3.5 43.5q1 -33 3 -43.5t7 -14.5zM153 -161q2 -2 7.5 -4t25.5 -3q-18 0 -24.5 -2t-9.5 -5q-2 -2 -3 -5t-1.5 -10t-1 -19.5t-0.5 -33.5q0 21 -0.5 33.5t-1 19.5t-2 10t-3.5 5q-3 3 -9.5 5t-25.5 2q20 1 26 3
t9 4q2 3 4 9t3 26q0 -19 2 -25.5t5 -9.5z" />
    <glyph glyph-name="Egrave" unicode="&#xc8;" horiz-adv-x="563" 
d="M409 427q20 -2 45 5t48.5 20.5t44 32.5t32 40.5t11 46t-17.5 48.5q-21 29 -48 31t-56 -14t-56.5 -44.5t-49 -60.5t-34 -63.5t-11.5 -51.5q1 -14 8 -26.5t21 -15.5q22 2 39.5 -1t15.5 -23q-1 -6 -6.5 -12t-20.5 -4q-37 5 -76 -7.5t-74 -37.5t-64.5 -60t-48 -74.5
t-23 -80.5t9.5 -78q13 -33 41.5 -45.5t61.5 -11.5t66 12.5t55 26.5q43 30 69.5 76t22.5 96q-2 16 -14 32t-25 23q11 16 26 22.5t29.5 5t27.5 -9.5t21 -22q22 -39 17.5 -80t-27 -79.5t-60 -70.5t-82.5 -52v-6v6q-34 -15 -70 -22t-71.5 -3.5t-69 18.5t-61.5 45
q-31 32 -40 72.5t-2.5 82t25.5 81t45 69.5q41 48 92.5 74.5t110.5 33.5q-16 11 -27.5 29t-15.5 41t0.5 50.5t20.5 56.5q13 24 37 48t54 43.5t64 32.5t67 15.5t63.5 -8.5t52.5 -39q29 -36 31.5 -82t-14.5 -88t-51.5 -73.5t-79.5 -37.5q-44 -6 -65 13.5t-14 54.5zM434 805
l52 55l136 -128l-22 -24zM344 -187q3 -4 8 -6.5t15.5 -5t29.5 -3.5t50 -2q-30 0 -49 -1.5t-30 -3.5t-16.5 -5t-9.5 -7q-3 -3 -6 -9t-4.5 -17t-3 -29.5t-1.5 -48.5q-1 30 -2.5 49t-3.5 30t-4.5 16.5t-5.5 8.5q-4 4 -10 7t-17 5t-29.5 3.5t-48.5 1.5q30 1 48.5 2t29.5 3.5
t16.5 5t9.5 6.5q3 3 6 8.5t5 16.5t3.5 29t2.5 47q0 -29 1.5 -47t3.5 -29t5 -16.5t7 -8.5zM146 443q4 -5 14 -7.5t44 -2.5q-33 -1 -43.5 -3.5t-15.5 -6.5q-4 -5 -6 -15.5t-3 -43.5q-1 33 -3.5 43.5t-6.5 15.5q-5 4 -15 6.5t-44 3.5q32 0 43 2.5t16 7.5q4 4 6.5 14.5t3.5 43.5
q1 -33 3 -43.5t7 -14.5zM36 -154q2 -2 7.5 -4t25.5 -3q-18 0 -24.5 -2t-9.5 -5q-2 -2 -3 -5t-1.5 -10t-1 -19.5t-0.5 -33.5q0 21 -0.5 33.5t-1 19.5t-2 10t-3.5 5q-3 3 -9.5 5t-23.5 2q18 1 24 3t9 4q2 3 4 9t3 26q0 -19 2 -25.5t5 -9.5z" />
    <glyph glyph-name="Eacute" unicode="&#xc9;" horiz-adv-x="563" 
d="M409 427q20 -2 45 5t48.5 20.5t44 32.5t32 40.5t11 46t-17.5 48.5q-21 29 -48 31t-56 -14t-56.5 -44.5t-49 -60.5t-34 -63.5t-11.5 -51.5q1 -14 8 -26.5t21 -15.5q22 2 39.5 -1t15.5 -23q-1 -6 -6.5 -12t-20.5 -4q-37 5 -76 -7.5t-74 -37.5t-64.5 -60t-48 -74.5
t-23 -80.5t9.5 -78q13 -33 41.5 -45.5t61.5 -11.5t66 12.5t55 26.5q43 30 69.5 76t22.5 96q-2 16 -14 32t-25 23q11 16 26 22.5t29.5 5t27.5 -9.5t21 -22q22 -39 17.5 -80t-27 -79.5t-60 -70.5t-82.5 -52v-6v6q-34 -15 -70 -22t-71.5 -3.5t-69 18.5t-61.5 45
q-31 32 -40 72.5t-2.5 82t25.5 81t45 69.5q41 48 92.5 74.5t110.5 33.5q-16 11 -27.5 29t-15.5 41t0.5 50.5t20.5 56.5q13 24 37 48t54 43.5t64 32.5t67 15.5t63.5 -8.5t52.5 -39q29 -36 31.5 -82t-14.5 -88t-51.5 -73.5t-79.5 -37.5q-44 -6 -65 13.5t-14 54.5zM660 856
l25 -71l-188 -76l-18 28zM344 -187q3 -4 8 -6.5t15.5 -5t29.5 -3.5t50 -2q-30 0 -49 -1.5t-30 -3.5t-16.5 -5t-9.5 -7q-3 -3 -6 -9t-4.5 -17t-3 -29.5t-1.5 -48.5q-1 30 -2.5 49t-3.5 30t-4.5 16.5t-5.5 8.5q-4 4 -10 7t-17 5t-29.5 3.5t-48.5 1.5q30 1 48.5 2t29.5 3.5
t16.5 5t9.5 6.5q3 3 6 8.5t5 16.5t3.5 29t2.5 47q0 -29 1.5 -47t3.5 -29t5 -16.5t7 -8.5zM146 443q4 -5 14 -7.5t44 -2.5q-33 -1 -43.5 -3.5t-15.5 -6.5q-4 -5 -6 -15.5t-3 -43.5q-1 33 -3.5 43.5t-6.5 15.5q-5 4 -15 6.5t-44 3.5q32 0 43 2.5t16 7.5q4 4 6.5 14.5t3.5 43.5
q1 -33 3 -43.5t7 -14.5zM36 -154q2 -2 7.5 -4t25.5 -3q-18 0 -24.5 -2t-9.5 -5q-2 -2 -3 -5t-1.5 -10t-1 -19.5t-0.5 -33.5q0 21 -0.5 33.5t-1 19.5t-2 10t-3.5 5q-3 3 -9.5 5t-23.5 2q18 1 24 3t9 4q2 3 4 9t3 26q0 -19 2 -25.5t5 -9.5z" />
    <glyph glyph-name="Ecircumflex" unicode="&#xca;" horiz-adv-x="563" 
d="M409 427q20 -2 45 5t48.5 20.5t44 32.5t32 40.5t11 46t-17.5 48.5q-21 29 -48 31t-56 -14t-56.5 -44.5t-49 -60.5t-34 -63.5t-11.5 -51.5q1 -14 8 -26.5t21 -15.5q22 2 39.5 -1t15.5 -23q-1 -6 -6.5 -12t-20.5 -4q-37 5 -76 -7.5t-74 -37.5t-64.5 -60t-48 -74.5
t-23 -80.5t9.5 -78q13 -33 41.5 -45.5t61.5 -11.5t66 12.5t55 26.5q43 30 69.5 76t22.5 96q-2 16 -14 32t-25 23q11 16 26 22.5t29.5 5t27.5 -9.5t21 -22q22 -39 17.5 -80t-27 -79.5t-60 -70.5t-82.5 -52q-34 -15 -70 -22t-71.5 -3.5t-69 18.5t-61.5 45q-31 32 -40 72.5
t-2.5 82t25.5 81t45 69.5q41 48 92.5 74.5t110.5 33.5q-16 11 -27.5 29t-15.5 41t0.5 50.5t20.5 56.5q13 24 37 48t54 43.5t64 32.5t67 15.5t63.5 -8.5t52.5 -39q29 -36 31.5 -82t-14.5 -88t-51.5 -73.5t-79.5 -37.5q-44 -6 -65 13.5t-14 54.5zM634 836v-107h-37v50
l-116 -50l-18 27l135 93zM344 -187q3 -4 8 -6.5t15.5 -5t29.5 -3.5t50 -2q-30 0 -49 -1.5t-30 -3.5t-16.5 -5t-9.5 -7q-3 -3 -6 -9t-4.5 -17t-3 -29.5t-1.5 -48.5q-1 30 -2.5 49t-3.5 30t-4.5 16.5t-5.5 8.5q-4 4 -10 7t-17 5t-29.5 3.5t-48.5 1.5q30 1 48.5 2t29.5 3.5
t16.5 5t9.5 6.5q3 3 6 8.5t5 16.5t3.5 29t2.5 47q0 -29 1.5 -47t3.5 -29t5 -16.5t7 -8.5zM146 443q4 -5 14 -7.5t44 -2.5q-33 -1 -43.5 -3.5t-15.5 -6.5q-4 -5 -6 -16.5t-3 -49.5q0 19 -1 30.5t-2 19t-3 11t-4 5.5q-5 4 -15 6.5t-44 3.5q32 0 43 2.5t16 7.5q4 4 6.5 14.5
t3.5 43.5q1 -33 3 -43.5t7 -14.5zM36 -154q2 -2 7.5 -4t25.5 -3q-18 0 -24.5 -2t-9.5 -5q-2 -3 -4 -10t-2 -30q-1 23 -2.5 30t-4.5 10t-9.5 5t-23.5 2q18 1 24 3t9 4q2 3 4 9t3 26q0 -19 2 -25.5t5 -9.5z" />
    <glyph glyph-name="Edieresis" unicode="&#xcb;" horiz-adv-x="563" 
d="M409 427q20 -2 45 5t48.5 20.5t44 32.5t32 40.5t11 46t-17.5 48.5q-21 29 -48 31t-56 -14t-56.5 -44.5t-49 -60.5t-34 -63.5t-11.5 -51.5q1 -14 8 -26.5t21 -15.5q22 2 39.5 -1t15.5 -23q-1 -6 -6.5 -12t-20.5 -4q-37 5 -76 -7.5t-74 -37.5t-64.5 -60t-48 -74.5
t-23 -80.5t9.5 -78q13 -33 41.5 -45.5t61.5 -11.5t66 12.5t55 26.5q43 30 69.5 76t22.5 96q-2 16 -14 32t-25 23q11 16 26 22.5t29.5 5t27.5 -9.5t21 -22q22 -39 17.5 -80t-27 -79.5t-60 -70.5t-82.5 -52q-34 -15 -70 -22t-71.5 -3.5t-69 18.5t-61.5 45q-31 32 -40 72.5
t-2.5 82t25.5 81t45 69.5q41 48 92.5 74.5t110.5 33.5q-16 11 -27.5 29t-15.5 41t0.5 50.5t20.5 56.5q13 24 37 48t54 43.5t64 32.5t67 15.5t63.5 -8.5t52.5 -39q29 -36 31.5 -82t-14.5 -88t-51.5 -73.5t-79.5 -37.5q-44 -6 -65 13.5t-14 54.5zM655 761q-5 -21 -24 -35.5
t-39 -14.5q-21 0 -31.5 14.5t-4.5 35.5q5 20 23.5 35t39.5 15q20 0 30.5 -15t5.5 -35zM546 761q-5 -21 -23.5 -35.5t-39.5 -14.5q-20 0 -30.5 14.5t-5.5 35.5q5 20 23.5 35t39.5 15q20 0 30.5 -15t5.5 -35zM344 -187q3 -4 8 -6.5t15.5 -5t29.5 -3.5t50 -2q-30 0 -49 -1.5
t-30 -3.5t-16.5 -5t-9.5 -7q-3 -3 -6 -9t-4.5 -17t-3 -29.5t-1.5 -48.5q-1 30 -2.5 49t-3.5 30t-4.5 16.5t-5.5 8.5q-4 4 -10 7t-17 5t-29.5 3.5t-48.5 1.5q30 1 48.5 2t29.5 3.5t16.5 5t9.5 6.5q3 3 6 8.5t5 16.5t3.5 29t2.5 47q0 -29 1.5 -47t3.5 -29t5 -16.5t7 -8.5z
M146 443q4 -5 14 -7.5t44 -2.5q-33 -1 -43.5 -3.5t-15.5 -6.5q-4 -5 -6 -15.5t-3 -43.5q-1 33 -3.5 43.5t-6.5 15.5q-5 4 -15 6.5t-44 3.5q32 0 43 2.5t16 7.5q4 4 6.5 14.5t3.5 43.5q1 -33 3 -43.5t7 -14.5zM36 -154q2 -2 7.5 -4t25.5 -3q-18 0 -24.5 -2t-9.5 -5
q-2 -3 -4 -10t-2 -30q-1 23 -2.5 30t-4.5 10t-9.5 5t-23.5 2q18 1 24 3t9 4q2 3 4 9t3 26q0 -19 2 -25.5t5 -9.5z" />
    <glyph glyph-name="Igrave" unicode="&#xcc;" horiz-adv-x="505" 
d="M300 515q20 0 32.5 -6.5t19 -16.5t8 -22.5t-1.5 -24.5q-3 -17 -14 -34t-25.5 -32.5t-31 -28t-29.5 -19.5q-28 -17 -62.5 -26.5t-78.5 -5.5q-28 2 -50 14t-36 31.5t-19 44t1 52.5q13 60 58 108.5t105 81.5t126.5 47t123.5 4q58 -10 85.5 -44t32 -79.5t-9.5 -96.5t-39 -95
q-36 -64 -79.5 -122t-88.5 -114q-18 -21 -40.5 -45.5t-43.5 -51.5t-35.5 -55.5t-15.5 -57.5q-29 -9 -39.5 14.5t0.5 65.5q8 31 22.5 60.5t32.5 57.5t38 54.5t39 51.5q16 21 40 48.5t49.5 59t48 65t37 68t17 68t-12.5 63.5q-1 1 -1 0q-16 26 -48 36q-35 11 -73.5 8t-77 -15.5
t-73 -32t-59.5 -42.5q-28 -24 -47.5 -54t-24.5 -62q-5 -33 12 -52.5t48 -21.5q32 -1 62.5 11.5t55 33.5t41 49.5t21.5 59.5zM367 805l52 55l136 -128l-22 -24zM86 163q4 -5 14 -7.5t44 -2.5q-33 -1 -43.5 -3.5t-15.5 -6.5q-4 -5 -6 -15.5t-3 -43.5q-1 33 -3.5 43.5
t-6.5 15.5q-5 4 -15 6.5t-44 3.5q32 0 43 2.5t16 7.5q4 4 6.5 14.5t3.5 43.5q1 -33 3 -43.5t7 -14.5zM320 -157q2 -2 7.5 -4t25.5 -3q-18 0 -24.5 -2t-9.5 -5q-2 -3 -4 -10t-2 -30q-1 23 -2.5 30t-4.5 10t-9.5 5t-25.5 2q20 1 26 3t9 4q2 3 4 9t3 26q0 -19 2 -25.5t5 -9.5z
" />
    <glyph glyph-name="Iacute" unicode="&#xcd;" horiz-adv-x="505" 
d="M300 515q20 0 32.5 -6.5t19 -16.5t8 -22.5t-1.5 -24.5q-3 -17 -14 -34t-25.5 -32.5t-31 -28t-29.5 -19.5q-28 -17 -62.5 -26.5t-78.5 -5.5q-28 2 -50 14t-36 31.5t-19 44t1 52.5q13 60 58 108.5t105 81.5t126.5 47t123.5 4q58 -10 85.5 -44t32 -79.5t-9.5 -96.5t-39 -95
q-36 -64 -79.5 -122t-88.5 -114q-18 -21 -40.5 -45.5t-43.5 -51.5t-35.5 -55.5t-15.5 -57.5q-29 -9 -39.5 14.5t0.5 65.5q8 31 22.5 60.5t32.5 57.5t38 54.5t39 51.5q16 21 40 48.5t49.5 59t48 65t37 68t17 68t-12.5 63.5q-1 1 -1 0q-16 26 -48 36q-35 11 -73.5 8t-77 -15.5
t-73 -32t-59.5 -42.5q-28 -24 -47.5 -54t-24.5 -62q-5 -33 12 -52.5t48 -21.5q32 -1 62.5 11.5t55 33.5t41 49.5t21.5 59.5zM565 856l25 -71l-188 -76l-18 28zM86 163q4 -5 14 -7.5t44 -2.5q-33 -1 -43.5 -3.5t-15.5 -6.5q-4 -5 -6 -15.5t-3 -43.5q-1 33 -3.5 43.5
t-6.5 15.5q-5 4 -15 6.5t-44 3.5q32 0 43 2.5t16 7.5q4 4 6.5 14.5t3.5 43.5q1 -33 3 -43.5t7 -14.5zM320 -157q2 -2 7.5 -4t25.5 -3q-18 0 -24.5 -2t-9.5 -5q-2 -3 -4 -10t-2 -30q-1 23 -2.5 30t-4.5 10t-9.5 5t-25.5 2q20 1 26 3t9 4q2 3 4 9t3 26q0 -19 2 -25.5t5 -9.5z
" />
    <glyph glyph-name="Icircumflex" unicode="&#xce;" horiz-adv-x="505" 
d="M300 515q20 0 32.5 -6.5t19 -16.5t8 -22.5t-1.5 -24.5q-3 -17 -14 -34t-25.5 -32.5t-31 -28t-29.5 -19.5q-28 -17 -62.5 -26.5t-78.5 -5.5q-28 2 -50 14t-36 31.5t-19 44t1 52.5q13 60 58 108.5t105 81.5t126.5 47t123.5 4q58 -10 85.5 -44t32 -79.5t-9.5 -96.5t-39 -95
q-36 -64 -79.5 -122t-88.5 -114q-18 -21 -40.5 -45.5t-43.5 -51.5t-35.5 -55.5t-15.5 -57.5q-29 -9 -39.5 14.5t0.5 65.5q8 31 22.5 60.5t32.5 57.5t38 54.5t39 51.5q16 21 40 48.5t49.5 59t48 65t37 68t17 68t-12.5 63.5q-1 1 -1 0q-16 26 -48 36q-35 11 -73.5 8t-77 -15.5
t-73 -32t-59.5 -42.5q-28 -24 -47.5 -54t-24.5 -62q-5 -33 12 -52.5t48 -21.5q32 -1 62.5 11.5t55 33.5t41 49.5t21.5 59.5zM538 836v-107h-37v50l-116 -50l-18 27l135 93zM86 163q4 -5 14 -7.5t44 -2.5q-33 -1 -43.5 -3.5t-15.5 -6.5q-4 -5 -6 -16.5t-3 -49.5q0 19 -1 30.5
t-2 19t-3 11t-4 5.5q-5 4 -15 6.5t-44 3.5q32 0 43 2.5t16 7.5q4 4 6.5 14.5t3.5 43.5q1 -33 3 -43.5t7 -14.5zM320 -157q2 -2 7.5 -4t25.5 -3q-18 0 -24.5 -2t-9.5 -5q-2 -3 -4 -10t-2 -30q-1 23 -2.5 30t-4.5 10t-9.5 5t-25.5 2q20 1 26 3t9 4q2 3 4 9t3 26q0 -19 2 -25.5
t5 -9.5z" />
    <glyph glyph-name="Idieresis" unicode="&#xcf;" horiz-adv-x="505" 
d="M300 515q20 0 32.5 -6.5t19 -16.5t8 -22.5t-1.5 -24.5q-3 -17 -14 -34t-25.5 -32.5t-31 -28t-29.5 -19.5q-28 -17 -62.5 -26.5t-78.5 -5.5q-28 2 -50 14t-36 31.5t-19 44t1 52.5q13 60 58 108.5t105 81.5t126.5 47t123.5 4q58 -10 85.5 -44t32 -79.5t-9.5 -96.5t-39 -95
q-36 -64 -79.5 -122t-88.5 -114q-18 -21 -40.5 -45.5t-43.5 -51.5t-35.5 -55.5t-15.5 -57.5q-29 -9 -39.5 14.5t0.5 65.5q8 31 22.5 60.5t32.5 57.5t38 54.5t39 51.5q16 21 40 48.5t49.5 59t48 65t37 68t17 68t-12.5 63.5q-1 1 -1 0q-16 26 -48 36q-35 11 -73.5 8t-77 -15.5
t-73 -32t-59.5 -42.5q-28 -24 -47.5 -54t-24.5 -62q-5 -33 12 -52.5t48 -21.5q32 -1 62.5 11.5t55 33.5t41 49.5t21.5 59.5zM569 761q-5 -21 -24 -35.5t-39 -14.5q-21 0 -31.5 14.5t-4.5 35.5q5 20 23.5 35t39.5 15q20 0 30.5 -15t5.5 -35zM460 761q-5 -21 -23.5 -35.5
t-39.5 -14.5q-20 0 -30.5 14.5t-5.5 35.5q5 20 23.5 35t39.5 15q20 0 30.5 -15t5.5 -35zM86 163q4 -5 14 -7.5t44 -2.5q-33 -1 -43.5 -3.5t-15.5 -6.5q-2 -3 -4 -7.5t-3 -14.5t-1.5 -28t-0.5 -47q0 29 -0.5 47t-2 28t-3 14.5t-4.5 7.5q-5 4 -15 6.5t-44 3.5q32 0 43 2.5
t16 7.5q4 4 6.5 14.5t3.5 43.5q1 -33 3 -43.5t7 -14.5zM320 -157q2 -2 7.5 -4t25.5 -3q-18 0 -24.5 -2t-9.5 -5q-2 -3 -4 -10t-2 -30q-1 23 -2.5 30t-4.5 10t-9.5 5t-25.5 2q20 1 26 3t9 4q2 3 4 9t3 26q0 -19 2 -25.5t5 -9.5z" />
    <glyph glyph-name="Eth" unicode="&#xd0;" horiz-adv-x="788" 
d="M574 236h-76q-18 -52 -38.5 -100t-45.5 -84t-55.5 -57t-68.5 -20q-17 0 -27 8t-8 20q2 13 14 25t33 41q28 39 51 81t44 86h-54v34h69q17 39 36.5 88.5t43.5 96.5t54 86.5t68 59.5q-29 27 -68.5 37.5t-80.5 8.5t-80 -15.5t-66 -35.5q-27 -23 -43 -53.5t-14 -56.5
q3 -27 23 -39t39 -11q23 1 37 13.5t22 29.5q21 0 31.5 -10t11 -25.5t-8 -32.5t-25.5 -30q-27 -21 -67 -19q-24 1 -45 11t-36 26.5t-22.5 37.5t-5.5 44q7 63 46 109.5t94 74.5t117.5 35.5t115.5 -8.5q52 -15 91 -45.5t64.5 -71t36.5 -89.5t8 -101q-6 -100 -51 -192.5
t-117 -161.5q-31 -30 -72.5 -56t-89 -45.5t-98.5 -29.5t-100 -7.5t-94 20t-80 52.5q-30 32 -48 69.5t-25 76.5t1 77t33 66q11 13 29.5 25.5t38.5 17.5q26 6 46 -5q23 -13 24.5 -36t-11.5 -43l-10 4t-10 3q-10 2 -24.5 -2t-28.5 -18t-24 -38t-12 -53t9 -61.5t37 -57.5t64 -37
t81 -13q85 -2 158.5 29t131 85t95.5 125.5t52 152.5q12 69 1 132t-54 111q-20 -17 -37 -49t-33 -73t-31 -88t-31 -95h65v-34zM126 403q4 -5 14 -7.5t44 -2.5q-33 -1 -43.5 -3.5t-15.5 -6.5q-4 -5 -6 -16.5t-3 -49.5q0 19 -1 30.5t-2 19t-3 11t-4 5.5q-5 4 -15 6.5t-44 3.5
q32 0 43 2.5t16 7.5q4 4 6.5 14.5t3.5 43.5q1 -33 3 -43.5t7 -14.5zM180 658q2 -3 8 -5t25 -2q-18 -1 -24.5 -3t-9.5 -4q-2 -3 -4 -9.5t-2 -25.5q-1 20 -3 26t-4 9q-3 2 -9 4t-26 3q19 0 25.5 2t9.5 5q2 2 4 8.5t3 24.5q0 -18 2 -24.5t5 -8.5zM552 -150q2 -2 7.5 -4t25.5 -3
q-18 0 -24.5 -2t-9.5 -5q-2 -2 -4 -8.5t-2 -24.5q-1 18 -3 24.5t-4 8.5q-3 3 -9.5 5t-25.5 2q20 1 26 3t9 4q2 3 4 9t3 26q0 -19 2 -25.5t5 -9.5z" />
    <glyph glyph-name="Ntilde" unicode="&#xd1;" horiz-adv-x="836" 
d="M1153 658q-48 -15 -90.5 -46t-79.5 -69.5t-69 -81t-59 -82.5q-17 -24 -40.5 -60t-47 -77.5t-44.5 -86.5t-32 -86.5t-8.5 -77t24.5 -59.5q0 -8 -3.5 -16.5t-5.5 -16.5q-31 13 -51 38.5t-33 58t-19 69.5t-8 73.5t-0.5 70.5t3.5 59q8 83 27.5 167.5t57.5 160.5
q-18 -26 -34.5 -57t-30 -62t-24 -58.5t-18.5 -45.5q-22 -49 -41.5 -100.5t-42 -101.5t-49 -97.5t-62.5 -88.5q-39 -44 -87.5 -66t-96 -24t-89 15t-65 51t-24 84t32.5 114q13 25 34 46.5t47 36t54.5 20t57.5 -1.5q23 -5 40.5 -22.5t21.5 -41.5q4 -29 -8 -29t-36 12
q-20 10 -46.5 9t-48.5 -11q-23 -10 -41.5 -26.5t-32.5 -36.5t-22.5 -43t-9.5 -45q-2 -28 10 -52t39 -34q37 -13 71.5 -6.5t66.5 26.5t60.5 49.5t53 62.5t44.5 65t35 57q31 54 58.5 108t54.5 108.5t55.5 108t62.5 106.5l-106 -57q-13 20 -29.5 33t-38.5 22q-27 12 -55 11.5
t-53.5 -10.5t-46 -28t-32.5 -41q-9 -17 -14.5 -40t-4 -45.5t11.5 -41t31 -27.5q21 -8 41 -2t33 22q8 11 11.5 25.5t1.5 28.5q24 8 40 -3t18 -37q1 -18 -5.5 -33.5t-18.5 -28t-27.5 -21t-30.5 -12.5q-20 -5 -42 -1t-41 16q-22 13 -34.5 34.5t-18 46t-4.5 50.5t6 49
q10 42 35 74.5t60 52.5t76 27.5t82 -1.5q31 -6 60.5 -21.5t52.5 -35.5l115 60l22 -23q-31 -71 -48 -143t-26.5 -145t-14 -148t-8.5 -152q26 94 65 183t86 170q12 21 30 51t41 62t50 63t56 54t60 34t62 4q20 -5 29.5 -18t10.5 -25zM776 729l-18 27q10 14 20.5 29t22.5 27.5
t26 20.5t30 8q13 0 22 -6.5t15.5 -14.5t13.5 -15t17 -7t24.5 9.5t37.5 33.5l18 -27q-14 -15 -26.5 -29.5t-25 -26t-26 -18.5t-29.5 -7q-11 0 -18.5 6t-15.5 14t-16.5 15t-18.5 7t-23 -10t-30 -36zM554 -159q3 -4 8 -6.5t15.5 -5t29.5 -3.5t50 -2q-30 0 -49 -1.5t-30 -3.5
t-16.5 -5t-9.5 -7q-3 -4 -6 -10t-4.5 -18.5t-3 -33.5t-1.5 -55q0 34 -1.5 55.5t-3.5 34t-5 18.5t-6 9q-4 4 -10 7t-17 5t-29.5 3.5t-48.5 1.5q30 1 48.5 2t29.5 3.5t16.5 5t9.5 6.5q3 4 6 9.5t5 16.5t3.5 29.5t2.5 48.5q0 -30 1.5 -48.5t3.5 -29.5t5 -16.5t7 -9.5zM176 383
q4 -5 14 -7.5t44 -2.5q-33 -1 -43.5 -3.5t-15.5 -6.5q-4 -5 -6 -16.5t-3 -49.5q0 19 -1 30.5t-2 19t-3 11t-4 5.5q-5 4 -15 6.5t-44 3.5q32 0 43 2.5t16 7.5q4 4 6.5 14.5t3.5 43.5q1 -33 3 -43.5t7 -14.5zM871 713q2 -3 8 -5t25 -2q-18 -1 -24.5 -3t-9.5 -4q-2 -3 -4 -10.5
t-2 -30.5q-1 23 -2.5 30.5t-4.5 10.5q-3 2 -9 4t-26 3q19 0 25.5 2t9.5 5q2 2 4 8.5t3 24.5q0 -18 2 -24.5t5 -8.5z" />
    <glyph glyph-name="Ograve" unicode="&#xd2;" horiz-adv-x="727" 
d="M174 464q21 -4 30 -15t9 -25t-6.5 -28t-16.5 -23q-17 -14 -42.5 -19.5t-51.5 2.5q-41 13 -61 40.5t-24 62.5t7 72.5t32 69.5t51 54.5t64 27.5q41 6 74.5 -1t61.5 -22.5t51.5 -37.5t46.5 -46q21 22 44.5 44.5t48.5 42t51.5 34t52.5 22.5q44 13 76.5 2t53.5 -37t31.5 -62
t11.5 -71q1 -59 -16.5 -126t-49 -133.5t-74.5 -130t-91 -116t-99.5 -90.5t-100 -54t-92 -6.5t-75.5 51.5q-29 37 -35.5 83t2.5 96t30 100.5t47 97.5t54 88t51 70l32 41q-21 21 -43 39.5t-44.5 33t-45.5 23.5t-48 9q-43 2 -76 -28q-14 -13 -25 -30.5t-17 -37t-5 -39t12 -35.5
q14 -23 41 -30t50 6q7 4 14.5 13.5t8.5 17.5zM320 369q-11 -21 -27 -53t-31.5 -70.5t-29 -79.5t-18 -79.5t1.5 -71t28 -53.5q30 -27 70 -24q36 3 69 21t62.5 45.5t55.5 62t47.5 70.5t39 71t30.5 63q12 27 27.5 63.5t26.5 76.5l-9 -6q-41 -26 -77.5 -27.5t-70 13t-65.5 41
t-63 56.5q-21 -33 -38 -64t-29 -55zM657 638q-27 30 -60.5 28t-66.5 -21t-61 -48t-42 -51q34 -37 71.5 -68.5t87.5 -43.5q45 -11 71 10t33.5 55t-1 73t-32.5 66zM555 844l52 55l136 -128l-22 -24zM49 196q4 -5 14 -7.5t44 -2.5q-33 -1 -43.5 -3.5t-15.5 -6.5q-4 -5 -6 -16.5
t-3 -49.5q0 19 -1 30.5t-2 19t-3 11t-4 5.5t-5.5 3.5t-9.5 3t-16.5 2.5t-26.5 1q32 0 42.5 2.5t15.5 7.5q4 4 6.5 14.5t3.5 43.5q1 -33 3 -43.5t7 -14.5zM473 -176q2 -2 7.5 -4t25.5 -3q-18 0 -24.5 -2t-9.5 -5q-2 -2 -3 -5t-1.5 -10t-1 -19.5t-0.5 -33.5q0 21 -0.5 33.5
t-1 19.5t-2 10t-3.5 5q-3 3 -9.5 5t-25.5 2q20 1 26 3t9 4q2 3 4 9t3 26q0 -19 2 -25.5t5 -9.5zM417 756q2 -3 8 -5t25 -2q-18 -1 -24.5 -3t-9.5 -4q-2 -2 -3 -5t-1.5 -10t-1 -19.5t-0.5 -33.5q0 21 -0.5 33.5t-1 19.5t-2 10t-3.5 5q-3 2 -9 4t-26 3q19 0 25.5 2t9.5 5
q2 2 4 8.5t3 24.5q0 -18 2 -24.5t5 -8.5z" />
    <glyph glyph-name="Oacute" unicode="&#xd3;" horiz-adv-x="727" 
d="M174 464q21 -4 30 -15t9 -25t-6.5 -28t-16.5 -23q-17 -14 -42.5 -19.5t-51.5 2.5q-41 13 -61 40.5t-24 62.5t7 72.5t32 69.5t51 54.5t64 27.5q41 6 74.5 -1t61.5 -22.5t51.5 -37.5t46.5 -46q21 22 44.5 44.5t48.5 42t51.5 34t52.5 22.5q44 13 76.5 2t53.5 -37t31.5 -62
t11.5 -71q1 -59 -16.5 -126t-49 -133.5t-74.5 -130t-91 -116t-99.5 -90.5t-100 -54t-92 -6.5t-75.5 51.5q-29 37 -35.5 83t2.5 96t30 100.5t47 97.5t54 88t51 70l32 41q-21 21 -43 39.5t-44.5 33t-45.5 23.5t-48 9q-43 2 -76 -28q-14 -13 -25 -30.5t-17 -37t-5 -39t12 -35.5
q14 -23 41 -30t50 6q7 4 14.5 13.5t8.5 17.5zM320 369q-11 -21 -27 -53t-31.5 -70.5t-29 -79.5t-18 -79.5t1.5 -71t28 -53.5q30 -27 70 -24q36 3 69 21t62.5 45.5t55.5 62t47.5 70.5t39 71t30.5 63q12 27 27.5 63.5t26.5 76.5l-9 -6q-41 -26 -77.5 -27.5t-70 13t-65.5 41
t-63 56.5q-21 -33 -38 -64t-29 -55zM657 638q-27 30 -60.5 28t-66.5 -21t-61 -48t-42 -51q34 -37 71.5 -68.5t87.5 -43.5q45 -11 71 10t33.5 55t-1 73t-32.5 66zM767 901l25 -71l-188 -76l-18 28zM49 196q4 -5 14 -7.5t44 -2.5q-33 -1 -43.5 -3.5t-15.5 -6.5q-4 -5 -6 -16.5
t-3 -49.5q0 19 -1 30.5t-2 19t-3 11t-4 5.5t-5.5 3.5t-9.5 3t-16.5 2.5t-26.5 1q32 0 42.5 2.5t15.5 7.5q4 4 6.5 14.5t3.5 43.5q1 -33 3 -43.5t7 -14.5zM473 -176q2 -2 7.5 -4t25.5 -3q-18 0 -24.5 -2t-9.5 -5q-2 -2 -3 -5t-1.5 -10t-1 -19.5t-0.5 -33.5q0 21 -0.5 33.5
t-1 19.5t-2 10t-3.5 5q-3 3 -9.5 5t-25.5 2q20 1 26 3t9 4q2 3 4 9t3 26q0 -19 2 -25.5t5 -9.5zM417 756q2 -3 8 -5t25 -2q-18 -1 -24.5 -3t-9.5 -4q-2 -2 -3 -5t-1.5 -10t-1 -19.5t-0.5 -33.5q0 21 -0.5 33.5t-1 19.5t-2 10t-3.5 5q-3 2 -9 4t-26 3q19 0 25.5 2t9.5 5
q2 2 4 8.5t3 24.5q0 -18 2 -24.5t5 -8.5z" />
    <glyph glyph-name="Ocircumflex" unicode="&#xd4;" horiz-adv-x="727" 
d="M174 464q21 -4 30 -15t9 -25t-6.5 -28t-16.5 -23q-17 -14 -42.5 -19.5t-51.5 2.5q-41 13 -61 40.5t-24 62.5t7 72.5t32 69.5t51 54.5t64 27.5q41 6 74.5 -1t61.5 -22.5t51.5 -37.5t46.5 -46q21 22 44.5 44.5t48.5 42t51.5 34t52.5 22.5q44 13 76.5 2t53.5 -37t31.5 -62
t11.5 -71q1 -59 -16.5 -126t-49 -133.5t-74.5 -130t-91 -116t-99.5 -90.5t-100 -54t-92 -6.5t-75.5 51.5q-29 37 -35.5 83t2.5 96t30 100.5t47 97.5t54 88t51 70l32 41q-21 21 -43 39.5t-44.5 33t-45.5 23.5t-48 9q-43 2 -76 -28q-14 -13 -25 -30.5t-17 -37t-5 -39t12 -35.5
q14 -23 41 -30t50 6q7 4 14.5 13.5t8.5 17.5zM320 369q-11 -21 -27 -53t-31.5 -70.5t-29 -79.5t-18 -79.5t1.5 -71t28 -53.5q30 -27 70 -24q36 3 69 21t62.5 45.5t55.5 62t47.5 70.5t39 71t30.5 63q12 27 27.5 63.5t26.5 76.5l-9 -6q-41 -26 -77.5 -27.5t-70 13t-65.5 41
t-63 56.5q-21 -33 -38 -64t-29 -55zM657 638q-27 30 -60.5 28t-66.5 -21t-61 -48t-42 -51q34 -37 71.5 -68.5t87.5 -43.5q45 -11 71 10t33.5 55t-1 73t-32.5 66zM734 856v-107h-37v50l-116 -50l-18 27l135 93zM49 196q4 -5 14 -7.5t44 -2.5q-33 -1 -43.5 -3.5t-15.5 -6.5
q-2 -3 -4 -7.5t-3 -14.5t-1.5 -28t-0.5 -47q0 29 -0.5 47t-2 28t-3 14.5t-4.5 7.5q-2 2 -5.5 3.5t-9.5 3t-16.5 2.5t-26.5 1q32 0 42.5 2.5t15.5 7.5q4 4 6.5 14.5t3.5 43.5q1 -33 3 -43.5t7 -14.5zM417 756q2 -3 8 -5t25 -2q-18 -1 -24.5 -3t-9.5 -4q-2 -3 -4 -9.5
t-2 -25.5q-1 20 -3 26t-4 9q-3 2 -9 4t-26 3q19 0 25.5 2t9.5 5q2 2 4 8.5t3 24.5q0 -18 2 -24.5t5 -8.5zM473 -176q2 -2 7.5 -4t25.5 -3q-18 0 -24.5 -2t-9.5 -5q-2 -2 -4 -8.5t-2 -24.5q-1 18 -3 24.5t-4 8.5q-3 3 -9.5 5t-25.5 2q20 1 26 3t9 4q2 3 4 9t3 26
q0 -19 2 -25.5t5 -9.5z" />
    <glyph glyph-name="Otilde" unicode="&#xd5;" horiz-adv-x="727" 
d="M174 464q21 -4 30 -15t9 -25t-6.5 -28t-16.5 -23q-17 -14 -42.5 -19.5t-51.5 2.5q-41 13 -61 40.5t-24 62.5t7 72.5t32 69.5t51 54.5t64 27.5q41 6 74.5 -1t61.5 -22.5t51.5 -37.5t46.5 -46q21 22 44.5 44.5t48.5 42t51.5 34t52.5 22.5q44 13 76.5 2t53.5 -37t31.5 -62
t11.5 -71q1 -59 -16.5 -126t-49 -133.5t-74.5 -130t-91 -116t-99.5 -90.5t-100 -54t-92 -6.5t-75.5 51.5q-29 37 -35.5 83t2.5 96t30 100.5t47 97.5t54 88t51 70l32 41q-21 21 -43 39.5t-44.5 33t-45.5 23.5t-48 9q-43 2 -76 -28q-14 -13 -25 -30.5t-17 -37t-5 -39t12 -35.5
q14 -23 41 -30t50 6q7 4 14.5 13.5t8.5 17.5zM320 369q-11 -21 -27 -53t-31.5 -70.5t-29 -79.5t-18 -79.5t1.5 -71t28 -53.5q30 -27 70 -24q36 3 69 21t62.5 45.5t55.5 62t47.5 70.5t39 71t30.5 63q12 27 27.5 63.5t26.5 76.5l-9 -6q-41 -26 -77.5 -27.5t-70 13t-65.5 41
t-63 56.5q-21 -33 -38 -64t-29 -55zM657 638q-27 30 -60.5 28t-66.5 -21t-61 -48t-42 -51q34 -37 71.5 -68.5t87.5 -43.5q45 -11 71 10t33.5 55t-1 73t-32.5 66zM589 751l-18 27q10 14 20.5 29t22.5 27.5t26 20.5t30 8q13 0 22 -6.5t15.5 -14.5t13.5 -15t17 -7t24.5 9.5
t37.5 33.5l18 -27q-14 -15 -26.5 -29.5t-25 -26t-26 -18.5t-29.5 -7t-27.5 13.5t-24 22.5t-29 3.5t-41.5 -43.5zM49 196q4 -5 14 -7.5t44 -2.5q-33 -1 -43.5 -3.5t-15.5 -6.5q-4 -5 -6 -16.5t-3 -49.5q0 19 -1 30.5t-2 19t-3 11t-4 5.5t-5.5 3.5t-9.5 3t-16.5 2.5t-26.5 1
q32 0 42.5 2.5t15.5 7.5q4 4 6.5 14.5t3.5 43.5q1 -33 3 -43.5t7 -14.5zM417 756q2 -3 8 -5t25 -2q-18 -1 -24.5 -3t-9.5 -4q-2 -2 -3 -5t-1.5 -10t-1 -19.5t-0.5 -33.5q0 21 -0.5 33.5t-1 19.5t-2 10t-3.5 5q-3 2 -9 4t-26 3q19 0 25.5 2t9.5 5q2 2 4 8.5t3 24.5
q0 -18 2 -24.5t5 -8.5zM473 -176q2 -2 7.5 -4t25.5 -3q-18 0 -24.5 -2t-9.5 -5q-2 -2 -4 -8.5t-2 -24.5q-1 18 -3 24.5t-4 8.5q-3 3 -9.5 5t-25.5 2q20 1 26 3t9 4q2 3 4 9t3 26q0 -19 2 -25.5t5 -9.5z" />
    <glyph glyph-name="Odieresis" unicode="&#xd6;" horiz-adv-x="727" 
d="M174 464q21 -4 30 -15t9 -25t-6.5 -28t-16.5 -23q-17 -14 -42.5 -19.5t-51.5 2.5q-41 13 -61 40.5t-24 62.5t7 72.5t32 69.5t51 54.5t64 27.5q41 6 74.5 -1t61.5 -22.5t51.5 -37.5t46.5 -46q21 22 44.5 44.5t48.5 42t51.5 34t52.5 22.5q44 13 76.5 2t53.5 -37t31.5 -62
t11.5 -71q1 -59 -16.5 -126t-49 -133.5t-74.5 -130t-91 -116t-99.5 -90.5t-100 -54t-92 -6.5t-75.5 51.5q-29 37 -35.5 83t2.5 96t30 100.5t47 97.5t54 88t51 70l32 41q-21 21 -43 39.5t-44.5 33t-45.5 23.5t-48 9q-43 2 -76 -28q-14 -13 -25 -30.5t-17 -37t-5 -39t12 -35.5
q14 -23 41 -30t50 6q7 4 14.5 13.5t8.5 17.5zM320 369q-11 -21 -27 -53t-31.5 -70.5t-29 -79.5t-18 -79.5t1.5 -71t28 -53.5q30 -27 70 -24q36 3 69 21t62.5 45.5t55.5 62t47.5 70.5t39 71t30.5 63q12 27 27.5 63.5t26.5 76.5l-9 -6q-41 -26 -77.5 -27.5t-70 13t-65.5 41
t-63 56.5q-21 -33 -38 -64t-29 -55zM657 638q-27 30 -60.5 28t-66.5 -21t-61 -48t-42 -51q34 -37 71.5 -68.5t87.5 -43.5q45 -11 71 10t33.5 55t-1 73t-32.5 66zM779 802q-5 -21 -24 -35.5t-39 -14.5q-21 0 -31.5 14.5t-4.5 35.5q5 20 23.5 35t39.5 15q20 0 30.5 -15
t5.5 -35zM670 802q-5 -21 -23.5 -35.5t-39.5 -14.5q-20 0 -30.5 14.5t-5.5 35.5q5 20 23.5 35t39.5 15q20 0 30.5 -15t5.5 -35zM49 196q4 -5 14 -7.5t44 -2.5q-33 -1 -43.5 -3.5t-15.5 -6.5q-2 -3 -4 -7.5t-3 -14.5t-1.5 -28t-0.5 -47q0 29 -0.5 47t-2 28t-3 14.5t-4.5 7.5
q-2 2 -5.5 3.5t-9.5 3t-16.5 2.5t-26.5 1q32 0 42.5 2.5t15.5 7.5q4 4 6.5 14.5t3.5 43.5q1 -33 3 -43.5t7 -14.5zM473 -176q2 -2 7.5 -4t25.5 -3q-18 0 -24.5 -2t-9.5 -5q-2 -2 -3 -5t-1.5 -10t-1 -19.5t-0.5 -33.5q0 21 -0.5 33.5t-1 19.5t-2 10t-3.5 5q-3 3 -9.5 5
t-25.5 2q20 1 26 3t9 4q2 3 4 9t3 26q0 -19 2 -25.5t5 -9.5zM417 756q2 -3 8 -5t25 -2q-18 -1 -24.5 -3t-9.5 -4q-2 -2 -3 -5t-1.5 -10t-1 -19.5t-0.5 -33.5q0 21 -0.5 33.5t-1 19.5t-2 10t-3.5 5q-3 2 -9 4t-26 3q19 0 25.5 2t9.5 5q2 2 4 8.5t3 24.5q0 -18 2 -24.5t5 -8.5
z" />
    <glyph glyph-name="Oslash" unicode="&#xd8;" horiz-adv-x="727" 
d="M174 464q21 -4 30 -15t9 -25t-6.5 -28t-16.5 -23q-17 -14 -42.5 -19.5t-51.5 2.5q-41 13 -61 40.5t-24 62.5t7 72.5t32 69.5t51 54.5t64 27.5q41 6 74.5 -1t61.5 -22.5t51.5 -37.5t46.5 -46q21 22 44.5 44.5t48.5 42t51.5 34t52.5 22.5q51 15 85.5 -1.5t54.5 -49.5l33 40
h51l-65 -79q7 -19 10 -38.5t4 -39.5q1 -58 -16 -123t-47 -130.5t-71.5 -127.5t-88 -114.5t-96.5 -91.5t-98 -57.5t-91.5 -13.5t-77.5 40l-20 -25h-51l46 57q-22 38 -25 83t8 93t32 96.5t46.5 93t52 83.5t48.5 67l32 41q-21 21 -43 39.5t-44.5 33t-45.5 23.5t-48 9
q-43 2 -76 -28q-14 -13 -25 -30.5t-17 -37t-5 -39t12 -35.5q14 -23 41 -30t50 6q7 4 14.5 13.5t8.5 17.5zM244 -38q30 -27 70 -24q36 3 69 21t62.5 45.5t55.5 62t47.5 70.5t39 71t30.5 63q12 27 27.5 63.5t26.5 76.5l-9 -6q-31 -20 -59 -25t-54 0l-324 -394q7 -14 18 -24z
M320 369q-13 -24 -33 -65t-38 -88.5t-29.5 -96t-6.5 -88.5l297 362q-32 15 -63 40.5t-60 54.5q-21 -33 -38 -64t-29 -55zM657 638q-27 30 -60.5 28t-66.5 -21t-61 -48t-42 -51q28 -31 57.5 -58t67.5 -43l128 155q-9 21 -23 38zM693 553l-99 -121q29 -5 49 4t32 27t16.5 41.5
t1.5 48.5zM49 196q4 -5 14 -7.5t44 -2.5q-33 -1 -43.5 -3.5t-15.5 -6.5q-2 -3 -4 -7.5t-3 -14.5t-1.5 -28t-0.5 -47q0 29 -0.5 47t-2 28t-3 14.5t-4.5 7.5q-2 2 -5.5 3.5t-9.5 3t-16.5 2.5t-26.5 1q32 0 42.5 2.5t15.5 7.5q4 4 6.5 14.5t3.5 43.5q1 -33 3 -43.5t7 -14.5z
M473 -176q2 -2 7.5 -4t25.5 -3q-18 0 -24.5 -2t-9.5 -5q-2 -3 -4 -10t-2 -30q-1 23 -2.5 30t-4.5 10t-9.5 5t-25.5 2q20 1 26 3t9 4q2 3 4 9t3 26q0 -19 2 -25.5t5 -9.5zM417 756q2 -3 8 -5t25 -2q-18 -1 -24.5 -3t-9.5 -4q-2 -3 -4 -10.5t-2 -30.5q-1 23 -2.5 30.5
t-4.5 10.5q-3 2 -9 4t-26 3q19 0 25.5 2t9.5 5q2 2 4 8.5t3 24.5q0 -18 2 -24.5t5 -8.5z" />
    <glyph glyph-name="agrave" unicode="&#xe0;" horiz-adv-x="294" 
d="M317 353l-101 -217l-2 -4q-17 -35 -21 -52.5t9 -17.5q20 0 43 32.5t49 88.5l23 -24q-36 -77 -74 -119.5t-84 -42.5q-5 0 -15 2q1 -29 2 -46.5t3.5 -28.5t5 -16.5t6.5 -8.5q3 -4 8 -6.5t15.5 -5t29.5 -3.5t50 -2q-30 0 -49 -1.5t-30 -3.5t-16.5 -5t-9.5 -7q-3 -3 -6 -9
t-4.5 -17t-3 -29.5t-1.5 -48.5q-1 30 -2.5 49t-3.5 30t-4.5 16.5t-5.5 8.5q-4 4 -10 7t-17 5t-29.5 3.5t-48.5 1.5q30 1 48.5 2t29.5 3.5t16.5 5t9.5 6.5q4 3 6.5 8.5t4.5 16.5t3.5 28.5t1.5 46.5q-33 6 -36 44q-30 -29 -60.5 -41.5t-56.5 3.5q-26 17 -24 66t33 111
q29 59 59 97.5t58 59.5t53 26t43 -3q14 -7 19 -19l5 10h81zM167 194q11 25 20.5 47t14 39.5t4 29t-9.5 16.5q-8 5 -21.5 -4.5t-29 -27.5t-31.5 -43t-28 -51q-11 -23 -19 -45.5t-12 -41.5t-3.5 -32t8.5 -16q7 -4 20 6t28 28.5t31 43.5t28 51zM187 560l53 -50l83 -78l-22 -24
l-151 88q-2 -5 -4 -17t-2 -38q-1 33 -3.5 43.5t-6.5 15.5q-5 4 -15 6.5t-44 3.5q32 0 43 2.5t16 7.5q4 4 6.5 14.5t3.5 43.5q0 -28 2 -39.5t5 -16.5z" />
    <glyph glyph-name="aacute" unicode="&#xe1;" horiz-adv-x="294" 
d="M317 353l-101 -217l-2 -4q-17 -35 -21 -52.5t9 -17.5q20 0 43 32.5t49 88.5l23 -24q-36 -77 -74 -119.5t-84 -42.5q-5 0 -15 2q1 -29 2 -46.5t3.5 -28.5t5 -16.5t6.5 -8.5q3 -4 8 -6.5t15.5 -5t29.5 -3.5t50 -2q-30 0 -49 -1.5t-30 -3.5t-16.5 -5t-9.5 -7q-3 -4 -6 -10
t-4.5 -18.5t-3 -33.5t-1.5 -55q0 34 -1.5 55.5t-3.5 34t-5 18.5t-6 9q-4 4 -10 7t-17 5t-29.5 3.5t-48.5 1.5q30 1 48.5 2t29.5 3.5t16.5 5t9.5 6.5q4 3 6.5 8.5t4.5 16.5t3.5 28.5t1.5 46.5q-33 6 -36 44q-30 -29 -60.5 -41.5t-56.5 3.5q-26 17 -24 66t33 111
q29 59 59 97.5t58 59.5t53 26t43 -3q14 -7 19 -19l5 10h81zM167 194q11 25 20.5 47t14 39.5t4 29t-9.5 16.5q-8 5 -21.5 -4.5t-29 -27.5t-31.5 -43t-28 -51q-11 -23 -19 -45.5t-12 -41.5t-3.5 -32t8.5 -16q7 -4 20 6t28 28.5t31 43.5t28 51zM337 556l25 -71l-188 -76l-18 28
zM154 520q4 -5 14 -7.5t44 -2.5q-33 -1 -43.5 -3.5t-15.5 -6.5q-4 -5 -6 -16.5t-3 -49.5q0 19 -1 30.5t-2 19t-3 11t-4 5.5q-5 4 -15 6.5t-44 3.5q32 0 43 2.5t16 7.5q4 4 6.5 14.5t3.5 43.5q1 -33 3 -43.5t7 -14.5z" />
    <glyph glyph-name="acircumflex" unicode="&#xe2;" horiz-adv-x="294" 
d="M317 353l-101 -217l-2 -4q-17 -35 -21 -52.5t9 -17.5q20 0 43 32.5t49 88.5l23 -24q-36 -77 -74 -119.5t-84 -42.5q-5 0 -15 2q1 -29 2 -46.5t3.5 -28.5t5 -16.5t6.5 -8.5q3 -4 8 -6.5t15.5 -5t29.5 -3.5t50 -2q-30 0 -49 -1.5t-30 -3.5t-16.5 -5t-9.5 -7q-3 -3 -6 -9
t-4.5 -17t-3 -29.5t-1.5 -48.5q-1 30 -2.5 49t-3.5 30t-4.5 16.5t-5.5 8.5q-4 4 -10 7t-17 5t-29.5 3.5t-48.5 1.5q30 1 48.5 2t29.5 3.5t16.5 5t9.5 6.5q4 3 6.5 8.5t4.5 16.5t3.5 28.5t1.5 46.5q-33 6 -36 44q-30 -29 -60.5 -41.5t-56.5 3.5q-26 17 -24 66t33 111
q29 59 59 97.5t58 59.5t53 26t43 -3q14 -7 19 -19l5 10h81zM167 194q11 25 20.5 47t14 39.5t4 29t-9.5 16.5q-8 5 -21.5 -4.5t-29 -27.5t-31.5 -43t-28 -51q-11 -23 -19 -45.5t-12 -41.5t-3.5 -32t8.5 -16q7 -4 20 6t28 28.5t31 43.5t28 51zM321 536v-107h-37v50l-116 -50
l-18 27l78 54l57 39zM154 520q4 -5 14 -7.5t44 -2.5q-33 -1 -43.5 -3.5t-15.5 -6.5q-4 -5 -6 -16.5t-3 -49.5q0 19 -1 30.5t-2 19t-3 11t-4 5.5q-5 4 -15 6.5t-44 3.5q32 0 43 2.5t16 7.5q4 4 6.5 14.5t3.5 43.5q1 -33 3 -43.5t7 -14.5z" />
    <glyph glyph-name="atilde" unicode="&#xe3;" horiz-adv-x="294" 
d="M317 353l-101 -217l-2 -4q-17 -35 -21 -52.5t9 -17.5q20 0 43 32.5t49 88.5l23 -24q-36 -77 -74 -119.5t-84 -42.5q-5 0 -15 2q1 -29 2 -46.5t3.5 -28.5t5 -16.5t6.5 -8.5q3 -4 8 -6.5t15.5 -5t29.5 -3.5t50 -2q-30 0 -49 -1.5t-30 -3.5t-16.5 -5t-9.5 -7q-3 -4 -6 -10
t-4.5 -18.5t-3 -33.5t-1.5 -55q0 34 -1.5 55.5t-3.5 34t-5 18.5t-6 9q-4 4 -10 7t-17 5t-29.5 3.5t-48.5 1.5q30 1 48.5 2t29.5 3.5t16.5 5t9.5 6.5q4 3 6.5 8.5t4.5 16.5t3.5 28.5t1.5 46.5q-33 6 -36 44q-30 -29 -60.5 -41.5t-56.5 3.5q-26 17 -24 66t33 111
q29 59 59 97.5t58 59.5t53 26t43 -3q14 -7 19 -19l5 10h81zM167 194q11 25 20.5 47t14 39.5t4 29t-9.5 16.5q-8 5 -21.5 -4.5t-29 -27.5t-31.5 -43t-28 -51q-11 -23 -19 -45.5t-12 -41.5t-3.5 -32t8.5 -16q7 -4 20 6t28 28.5t31 43.5t28 51zM138 429l-18 27l20 29
q-1 7 -2.5 10t-3.5 5q-5 4 -15 6.5t-44 3.5q32 0 43 2.5t16 7.5q4 4 6.5 14.5t3.5 43.5q1 -33 3 -43.5t7 -14.5q3 -5 10 -6q12 12 25.5 19.5t29.5 7.5q13 0 22 -6.5t15.5 -14.5t13.5 -15t17 -7t24.5 9.5t37.5 33.5l18 -27q-14 -15 -26.5 -29.5t-25 -26t-26 -18.5t-29.5 -7
t-27 13t-23 22t-27 5.5t-39 -36.5z" />
    <glyph glyph-name="adieresis" unicode="&#xe4;" horiz-adv-x="294" 
d="M317 353l-101 -217l-2 -4q-17 -35 -21 -52.5t9 -17.5q20 0 43 32.5t49 88.5l23 -24q-36 -77 -74 -119.5t-84 -42.5q-5 0 -15 2q1 -29 2 -46.5t3.5 -28.5t5 -16.5t6.5 -8.5q3 -4 8 -6.5t15.5 -5t29.5 -3.5t50 -2q-30 0 -49 -1.5t-30 -3.5t-16.5 -5t-9.5 -7q-3 -3 -6 -9
t-4.5 -17t-3 -29.5t-1.5 -48.5q-1 30 -2.5 49t-3.5 30t-4.5 16.5t-5.5 8.5q-4 4 -10 7t-17 5t-29.5 3.5t-48.5 1.5q30 1 48.5 2t29.5 3.5t16.5 5t9.5 6.5q4 3 6.5 8.5t4.5 16.5t3.5 28.5t1.5 46.5q-33 6 -36 44q-30 -29 -60.5 -41.5t-56.5 3.5q-26 17 -24 66t33 111
q29 59 59 97.5t58 59.5t53 26t43 -3q14 -7 19 -19l5 10h81zM167 194q11 25 20.5 47t14 39.5t4 29t-9.5 16.5q-8 5 -21.5 -4.5t-29 -27.5t-31.5 -43t-28 -51q-11 -23 -19 -45.5t-12 -41.5t-3.5 -32t8.5 -16q7 -4 20 6t28 28.5t31 43.5t28 51zM225 461q-5 -21 -23.5 -35.5
t-39.5 -14.5q-20 0 -30.5 14.5t-5.5 35.5q3 13 14 26q-2 5 -3 8t-3 5q-5 4 -15 6.5t-44 3.5q32 0 43 2.5t16 7.5q4 4 6.5 14.5t3.5 43.5q1 -33 3 -43.5t7 -14.5q3 -4 8.5 -6t21.5 -3h5q5 0 8 -1h17q-4 -1 -7.5 -1h-6.5q15 -4 22.5 -17.5t2.5 -30.5zM334 461
q-5 -21 -24 -35.5t-39 -14.5q-21 0 -31.5 14.5t-4.5 35.5q5 20 23.5 35t39.5 15q20 0 30.5 -15t5.5 -35zM166 506q-5 -2 -8 -3t-5 -3t-2 -3q3 2 7 4.5t8 4.5z" />
    <glyph glyph-name="aring" unicode="&#xe5;" horiz-adv-x="294" 
d="M317 353l-101 -217l-2 -4q-17 -35 -21 -52.5t9 -17.5q20 0 43 32.5t49 88.5l23 -24q-36 -77 -74 -119.5t-84 -42.5q-5 0 -15 2q1 -29 2 -46.5t3.5 -28.5t5 -16.5t6.5 -8.5q3 -4 8 -6.5t15.5 -5t29.5 -3.5t50 -2q-30 0 -49 -1.5t-30 -3.5t-16.5 -5t-9.5 -7q-3 -4 -6 -10
t-4.5 -18.5t-3 -33.5t-1.5 -55q0 34 -1.5 55.5t-3.5 34t-5 18.5t-6 9q-4 4 -10 7t-17 5t-29.5 3.5t-48.5 1.5q30 1 48.5 2t29.5 3.5t16.5 5t9.5 6.5q4 3 6.5 8.5t4.5 16.5t3.5 28.5t1.5 46.5q-33 6 -36 44q-30 -29 -60.5 -41.5t-56.5 3.5q-26 17 -24 66t33 111
q29 59 59 97.5t58 59.5t53 26t43 -3q14 -7 19 -19l5 10h81zM263 547q30 0 45.5 -21t7.5 -51q-8 -31 -35 -52.5t-57 -21.5q-31 0 -46.5 21.5t-7.5 52.5q5 19 18 34q-18 -2 -24.5 -4t-10.5 -5q-4 -5 -6 -16.5t-3 -49.5q0 19 -1 30.5t-2 19t-3 11t-4 5.5q-5 4 -15 6.5t-44 3.5
q32 0 43 2.5t16 7.5q4 4 6.5 14.5t3.5 43.5q1 -33 3 -43.5t7 -14.5q3 -4 9.5 -6.5t25.5 -3.5q14 17 34 27t40 10zM167 194q11 25 20.5 47t14 39.5t4 29t-9.5 16.5q-8 5 -21.5 -4.5t-29 -27.5t-31.5 -43t-28 -51q-11 -23 -19 -45.5t-12 -41.5t-3.5 -32t8.5 -16q7 -4 20 6
t28 28.5t31 43.5t28 51zM281 475q4 15 -4 26t-24 11q-4 0 -12 -2q-12 -4 -22 -13.5t-13 -21.5q-5 -16 3.5 -27t23.5 -11q16 0 29.5 11t18.5 27z" />
    <glyph glyph-name="ae" unicode="&#xe6;" horiz-adv-x="438" 
d="M296 366l-16 -33q36 26 68 32.5t52 -3.5q15 -8 23.5 -23.5t9.5 -35.5t-5.5 -43.5t-22.5 -46.5q-22 -32 -48.5 -51.5t-51.5 -26t-44.5 -1t-28.5 23.5q-9 -33 -6.5 -58.5t22.5 -34.5q16 -8 42 -2.5t53 22t52.5 42t42.5 56.5l23 -24q-30 -51 -70.5 -90.5t-82.5 -59.5
q-35 -17 -69 -19t-61 15q-35 21 -38 74q-18 -23 -37.5 -41t-39 -28.5t-38.5 -12.5t-35 8q-26 17 -24 66t33 111q29 59 59 97.5t58 59.5t53 26t43 -3q12 -5 20 -20l13 24h51zM167 194q11 25 20.5 47t14 39.5t4 29t-9.5 16.5q-8 5 -21.5 -4.5t-29 -27.5t-31.5 -43t-28 -51
q-11 -23 -19 -45.5t-12 -41.5t-3.5 -32t8.5 -16q7 -4 20 6t28 28.5t31 43.5t28 51zM351 244q26 28 34 52.5t0 29.5q-12 8 -30 0t-37 -26t-37 -43t-30 -51q-5 -14 3 -17.5t23 2t34.5 19t39.5 34.5zM325 -131q3 -4 8 -6.5t15.5 -5t29.5 -3.5t50 -2q-30 0 -49 -1.5t-30 -3.5
t-16.5 -5t-9.5 -7q-3 -4 -6 -10t-4.5 -18.5t-3 -33.5t-1.5 -55q0 34 -1.5 55.5t-3.5 34t-5 18.5t-6 9q-4 4 -10 7t-17 5t-29.5 3.5t-48.5 1.5q30 1 48.5 2t29.5 3.5t16.5 5t9.5 6.5q3 4 6 9.5t5 16.5t3.5 29.5t2.5 48.5q0 -30 1.5 -48.5t3.5 -29.5t5 -16.5t7 -9.5zM318 560
q4 -5 14 -7.5t44 -2.5q-33 -1 -43.5 -3.5t-15.5 -6.5q-4 -5 -6 -16.5t-3 -49.5q0 19 -1 30.5t-2 19t-3 11t-4 5.5q-5 4 -15 6.5t-44 3.5q32 0 43 2.5t16 7.5q4 4 6.5 14.5t3.5 43.5q1 -33 3 -43.5t7 -14.5z" />
    <glyph glyph-name="egrave" unicode="&#xe8;" horiz-adv-x="274" 
d="M14 5q-16 10 -25.5 28t-11.5 42.5t4 53t21 59.5q29 59 62.5 97t65.5 58t60 24t46 -5q15 -8 23.5 -23.5t9.5 -35.5t-5.5 -43.5t-22.5 -46.5q-22 -32 -48.5 -51.5t-51.5 -26t-44.5 -1t-28.5 23.5q-9 -33 -6.5 -58.5t22.5 -34.5q16 -8 42 -2.5t53 22t52.5 42t42.5 56.5
l23 -24q-30 -51 -70.5 -90.5t-82.5 -59.5q-35 -17 -69 -19t-61 15zM123 505l18 19q-3 12 -7 16q-5 4 -15 6.5t-44 3.5q32 0 43 2.5t16 7.5q4 4 6.5 14.5t3.5 43.5q1 -33 3 -43.5t7 -14.5q4 -6 14 -8l7 8l10 -9q4 -1 10 -1h13q-7 -1 -12 -1h-9l124 -117l-22 -24l-145 84v-15
q0 5 -0.5 8.5t-0.5 7.5zM187 244q26 28 34 52.5t0 29.5q-12 8 -30 0t-37 -26t-37 -43t-30 -51q-5 -14 3 -17.5t23 2t34.5 19t39.5 34.5zM161 -131q3 -4 8 -6.5t15.5 -5t29.5 -3.5t50 -2q-30 0 -49 -1.5t-30 -3.5t-16.5 -5t-9.5 -7q-3 -3 -6 -9t-4.5 -17t-3 -29.5t-1.5 -48.5
q-1 30 -2.5 49t-3.5 30t-4.5 16.5t-5.5 8.5q-4 4 -10 7t-17 5t-29.5 3.5t-48.5 1.5q30 1 48.5 2t29.5 3.5t16.5 5t9.5 6.5q3 4 6 9.5t5 16.5t3.5 29.5t2.5 48.5q0 -30 1.5 -48.5t3.5 -29.5t5 -16.5t7 -9.5zM153 540q-4 -4 -5 -8l12 12q-2 -1 -3.5 -2t-3.5 -2z" />
    <glyph glyph-name="eacute" unicode="&#xe9;" horiz-adv-x="274" 
d="M274 183l23 -24q-30 -51 -70.5 -90.5t-82.5 -59.5q-35 -17 -69 -19t-61 15q-16 10 -25.5 28t-11.5 42.5t4 53t21 59.5q29 59 62.5 97t65.5 58t60 24t46 -5q15 -8 23.5 -23.5t9.5 -35.5t-5.5 -43.5t-22.5 -46.5q-22 -32 -48.5 -51.5t-51.5 -26t-44.5 -1t-28.5 23.5
q-9 -33 -6.5 -58.5t22.5 -34.5q16 -8 42 -2.5t53 22t52.5 42t42.5 56.5zM154 560q4 -5 14 -7.5t44 -2.5q-33 -1 -43.5 -3.5t-15.5 -6.5q-2 -3 -4 -7.5t-3 -14t-1.5 -26.5t-0.5 -45l166 109l25 -71l-188 -76l-18 28l15 10q0 28 -0.5 45t-2 26.5t-3 14t-4.5 7.5q-5 4 -15 6.5
t-44 3.5q32 0 43 2.5t16 7.5q4 4 6.5 14.5t3.5 43.5q1 -33 3 -43.5t7 -14.5zM187 244q26 28 34 52.5t0 29.5q-12 8 -30 0t-37 -26t-37 -43t-30 -51q-5 -14 3 -17.5t23 2t34.5 19t39.5 34.5zM161 -131q3 -4 8 -6.5t15.5 -5t29.5 -3.5t50 -2q-30 0 -49 -1.5t-30 -3.5t-16.5 -5
t-9.5 -7q-3 -3 -6 -9t-4.5 -17t-3 -29.5t-1.5 -48.5q-1 30 -2.5 49t-3.5 30t-4.5 16.5t-5.5 8.5q-4 4 -10 7t-17 5t-29.5 3.5t-48.5 1.5q30 1 48.5 2t29.5 3.5t16.5 5t9.5 6.5q3 4 6 9.5t5 16.5t3.5 29.5t2.5 48.5q0 -30 1.5 -48.5t3.5 -29.5t5 -16.5t7 -9.5z" />
    <glyph glyph-name="ecircumflex" unicode="&#xea;" horiz-adv-x="274" 
d="M14 5q-16 10 -25.5 28t-11.5 42.5t4 53t21 59.5q29 59 62.5 97t65.5 58t60 24t46 -5q15 -8 23.5 -23.5t9.5 -35.5t-5.5 -43.5t-22.5 -46.5q-22 -32 -48.5 -51.5t-51.5 -26t-44.5 -1t-28.5 23.5q-9 -33 -6.5 -58.5t22.5 -34.5q16 -8 42 -2.5t53 22t52.5 42t42.5 56.5
l23 -24q-30 -51 -70.5 -90.5t-82.5 -59.5q-35 -17 -69 -19t-61 15zM304 536v-107h-37v50l-116 -50l-18 27l11 7l124 86zM187 244q26 28 34 52.5t0 29.5q-12 8 -30 0t-37 -26t-37 -43t-30 -51q-5 -14 3 -17.5t23 2t34.5 19t39.5 34.5zM161 -131q3 -4 8 -6.5t15.5 -5
t29.5 -3.5t50 -2q-30 0 -49 -1.5t-30 -3.5t-16.5 -5t-9.5 -7q-3 -3 -6 -9t-4.5 -17t-3 -29.5t-1.5 -48.5q-1 30 -2.5 49t-3.5 30t-4.5 16.5t-5.5 8.5q-4 4 -10 7t-17 5t-29.5 3.5t-48.5 1.5q30 1 48.5 2t29.5 3.5t16.5 5t9.5 6.5q3 4 6 9.5t5 16.5t3.5 29.5t2.5 48.5
q0 -30 1.5 -48.5t3.5 -29.5t5 -16.5t7 -9.5zM154 560q4 -5 14 -7.5t44 -2.5q-33 -1 -43.5 -3.5t-15.5 -6.5q-4 -5 -6 -16.5t-3 -49.5q0 19 -1 30.5t-2 19t-3 11t-4 5.5q-5 4 -15 6.5t-44 3.5q32 0 43 2.5t16 7.5q4 4 6.5 14.5t3.5 43.5q1 -33 3 -43.5t7 -14.5z" />
    <glyph glyph-name="edieresis" unicode="&#xeb;" horiz-adv-x="274" 
d="M274 183l23 -24q-30 -51 -70.5 -90.5t-82.5 -59.5q-35 -17 -69 -19t-61 15q-16 10 -25.5 28t-11.5 42.5t4 53t21 59.5q29 59 62.5 97t65.5 58t60 24t46 -5q15 -8 23.5 -23.5t9.5 -35.5t-5.5 -43.5t-22.5 -46.5q-22 -32 -48.5 -51.5t-51.5 -26t-44.5 -1t-28.5 23.5
q-9 -33 -6.5 -58.5t22.5 -34.5q16 -8 42 -2.5t53 22t52.5 42t42.5 56.5zM187 244q26 28 34 52.5t0 29.5q-12 8 -30 0t-37 -26t-37 -43t-30 -51q-5 -14 3 -17.5t23 2t34.5 19t39.5 34.5zM214 461q-5 -21 -23.5 -35.5t-39.5 -14.5q-20 0 -30.5 14.5t-5.5 35.5q6 23 28 39
q-2 21 -4 28.5t-5 11.5q-5 4 -15 6.5t-44 3.5q32 0 43 2.5t16 7.5q4 4 6.5 14.5t3.5 43.5q1 -33 3 -43.5t7 -14.5q4 -5 14 -7.5t44 -2.5q-33 -1 -43.5 -3.5t-15.5 -6.5q-3 -4 -5 -11.5t-3 -27.5q17 10 33 10q20 0 30.5 -15t5.5 -35zM323 461q-5 -21 -24 -35.5t-39 -14.5
q-21 0 -31.5 14.5t-4.5 35.5q5 20 23.5 35t39.5 15q20 0 30.5 -15t5.5 -35zM161 -131q3 -4 8 -6.5t15.5 -5t29.5 -3.5t50 -2q-30 0 -49 -1.5t-30 -3.5t-16.5 -5t-9.5 -7q-3 -3 -6 -9t-4.5 -17t-3 -29.5t-1.5 -48.5q-1 30 -2.5 49t-3.5 30t-4.5 16.5t-5.5 8.5q-4 4 -10 7
t-17 5t-29.5 3.5t-48.5 1.5q30 1 48.5 2t29.5 3.5t16.5 5t9.5 6.5q3 4 6 9.5t5 16.5t3.5 29.5t2.5 48.5q0 -30 1.5 -48.5t3.5 -29.5t5 -16.5t7 -9.5z" />
    <glyph glyph-name="igrave" unicode="&#xec;" horiz-adv-x="139" 
d="M162 353l-103 -221q-17 -35 -21.5 -52.5t9.5 -17.5q20 0 43 32.5t49 88.5l23 -24q-36 -77 -74 -119.5t-83 -42.5q-42 0 -51 35t22 100l104 221h82zM30 505l52 55l136 -128l-22 -24z" />
    <glyph glyph-name="iacute" unicode="&#xed;" horiz-adv-x="139" 
d="M162 353l-103 -221q-17 -35 -21.5 -52.5t9.5 -17.5q20 0 43 32.5t49 88.5l23 -24q-36 -77 -74 -119.5t-83 -42.5q-42 0 -51 35t22 100l104 221h82zM248 556l25 -71l-188 -76l-18 28z" />
    <glyph glyph-name="icircumflex" unicode="&#xee;" horiz-adv-x="139" 
d="M162 353l-103 -221q-17 -35 -21.5 -52.5t9.5 -17.5q20 0 43 32.5t49 88.5l23 -24q-36 -77 -74 -119.5t-83 -42.5q-42 0 -51 35t22 100l104 221h82zM219 536v-107h-37v50l-116 -50l-18 27l135 93z" />
    <glyph glyph-name="idieresis" unicode="&#xef;" horiz-adv-x="139" 
d="M162 353l-103 -221q-17 -35 -21.5 -52.5t9.5 -17.5q20 0 43 32.5t49 88.5l23 -24q-36 -77 -74 -119.5t-83 -42.5q-42 0 -51 35t22 100l104 221h82zM153 458q-5 -20 -22 -33.5t-37 -13.5q-19 0 -29 13.5t-5 33.5t22.5 33.5t37.5 13.5q19 0 28.5 -13.5t4.5 -33.5zM256 458
q-5 -20 -22.5 -33.5t-36.5 -13.5q-20 0 -30 13.5t-4 33.5q5 20 22 33.5t37 13.5t29.5 -13.5t4.5 -33.5z" />
    <glyph glyph-name="ntilde" unicode="&#xf1;" horiz-adv-x="279" 
d="M161 353l-43 -90q38 44 72 67t61 23q13 0 22.5 -7t13.5 -19.5t1.5 -29.5t-13.5 -36q-36 -64 -58 -103.5t-32.5 -61.5t-11 -29.5t5.5 -7.5q20 0 47 34t53 90l23 -24q-36 -77 -74 -119.5t-84 -42.5q-9 0 -19 2q-17 4 -25 18.5t-4 40.5t22 65.5t55 94.5q22 32 31.5 53.5
t-1.5 21.5q-9 0 -29.5 -19.5t-46 -52t-53.5 -75.5t-52 -89l-27 -57h-83l168 353h81zM118 444l-8 12l2 3q-1 2 -2 3t-2 3q-4 3 -10 6t-17 5t-29.5 3.5t-48.5 2.5q30 0 48.5 1t29.5 3t16.5 5t9.5 8q3 3 6 8.5t5 16.5t3.5 30t2.5 49q0 -30 1.5 -49t3.5 -30t5 -16.5t7 -8.5
q14 17 31 29.5t37 12.5q13 0 22 -6.5t15.5 -14.5t13.5 -15t17 -7t24.5 9.5t37.5 33.5l18 -27q-14 -15 -26.5 -29.5t-25 -26t-26 -18.5t-29.5 -7t-27.5 13.5t-24 22.5t-29 3.5t-41.5 -43.5q-2 -11 -3 -27t-1 -39q-1 32 -2.5 51t-3.5 30zM135 -97q2 -2 5 -4t9 -3t16.5 -2
t27.5 -1q-33 -1 -44 -3.5t-15 -6.5t-6 -14.5t-3 -43.5q-1 33 -3.5 43.5t-6.5 14.5q-2 2 -5.5 4t-9.5 3t-16.5 2t-27.5 1q16 0 26.5 1t17 2t10 3t5.5 4q4 5 6.5 15.5t3.5 43.5q1 -33 3 -44t7 -15z" />
    <glyph glyph-name="ograve" unicode="&#xf2;" horiz-adv-x="292" 
d="M345 270l13 -27q-27 -17 -54.5 -26t-53.5 -11q-2 -8 -5.5 -15t-6.5 -15q-18 -38 -44.5 -75t-57.5 -63t-63.5 -36.5t-63.5 3.5q-32 15 -38.5 61t24.5 108q29 59 61 99.5t63.5 63.5t60 29t51.5 -4q10 -5 19 -15.5t9 -23.5q-15 12 -35.5 13.5t-43.5 -13t-48 -46t-50 -85.5
q-22 -46 -22.5 -79.5t20.5 -44.5q10 -6 25.5 2t32.5 25.5t33.5 42t28.5 50.5l9 22q-21 9 -29 28t-5.5 37.5t15 33t34.5 14.5q27 0 36.5 -24t0.5 -59q23 3 47 11t37 19zM113 505l40 43q0 7 1 11v-10l11 11l74 -70l62 -58l-22 -24l-118 69q-3 -5 -5 -18t-2 -45q0 19 -1 30.5
t-2 19t-3 11t-4 5.5q-5 4 -15 6.5t-44 3.5q35 0 47 3zM145 -113q2 -2 7.5 -4t25.5 -3q-18 0 -24.5 -2t-9.5 -5q-2 -2 -4 -8.5t-2 -24.5q-1 18 -3 24.5t-4 8.5q-3 3 -9.5 5t-25.5 2q20 1 26 3t9 4q2 3 4 9t3 26q0 -19 2 -25.5t5 -9.5z" />
    <glyph glyph-name="oacute" unicode="&#xf3;" horiz-adv-x="292" 
d="M345 270l13 -27q-27 -17 -54.5 -26t-53.5 -11q-2 -8 -5.5 -15t-6.5 -15q-18 -38 -44.5 -75t-57.5 -63t-63.5 -36.5t-63.5 3.5q-32 15 -38.5 61t24.5 108q29 59 61 99.5t63.5 63.5t60 29t51.5 -4q10 -5 19 -15.5t9 -23.5q-15 12 -35.5 13.5t-43.5 -13t-48 -46t-50 -85.5
q-22 -46 -22.5 -79.5t20.5 -44.5q10 -6 25.5 2t32.5 25.5t33.5 42t28.5 50.5l9 22q-21 9 -29 28t-5.5 37.5t15 33t34.5 14.5q27 0 36.5 -24t0.5 -59q23 3 47 11t37 19zM309 556l25 -71l-180 -73l-8 -3l-18 28l24 16q-1 13 -3 18.5t-5 8.5q-5 4 -15 6.5t-44 3.5q32 0 43 2.5
t16 7.5q4 4 6.5 14.5t3.5 43.5q1 -33 3 -43.5t7 -14.5q4 -5 11.5 -7t33.5 -3zM163 480q-2 -3 -4 -8t-3 -17l52 34q-24 -1 -32.5 -3t-12.5 -6zM145 -113q2 -2 7.5 -4t25.5 -3q-18 0 -24.5 -2t-9.5 -5q-2 -3 -4 -10t-2 -30q-1 23 -2.5 30t-4.5 10t-9.5 5t-25.5 2q20 1 26 3
t9 4q2 3 4 9t3 26q0 -19 2 -25.5t5 -9.5z" />
    <glyph glyph-name="ocircumflex" unicode="&#xf4;" horiz-adv-x="292" 
d="M345 270l13 -27q-27 -17 -54.5 -26t-53.5 -11q-2 -8 -5.5 -15t-6.5 -15q-18 -38 -44.5 -75t-57.5 -63t-63.5 -36.5t-63.5 3.5q-32 15 -38.5 61t24.5 108q29 59 61 99.5t63.5 63.5t60 29t51.5 -4q10 -5 19 -15.5t9 -23.5q-15 12 -35.5 13.5t-43.5 -13t-48 -46t-50 -85.5
q-22 -46 -22.5 -79.5t20.5 -44.5q10 -6 25.5 2t32.5 25.5t33.5 42t28.5 50.5l9 22q-21 9 -29 28t-5.5 37.5t15 33t34.5 14.5q27 0 36.5 -24t0.5 -59q23 3 47 11t37 19zM302 536v-107h-37v50l-111 -48v-48v26.5t-1 21.5l-4 -2l-18 27l18 13q-1 5 -5 11q-5 4 -15 6.5t-44 3.5
q32 0 43 2.5t16 7.5q4 4 6.5 14.5t3.5 43.5q1 -33 3 -43.5t7 -14.5q2 -3 6 -5t13 -3l83 57zM145 -113q2 -2 7.5 -4t25.5 -3q-18 0 -24.5 -2t-9.5 -5q-2 -3 -4 -10t-2 -30q-1 23 -2.5 30t-4.5 10t-9.5 5t-25.5 2q20 1 26 3t9 4q2 3 4 9t3 26q0 -19 2 -25.5t5 -9.5zM163 480
l-3 -4l13 9q-6 -1 -10 -5z" />
    <glyph glyph-name="otilde" unicode="&#xf5;" horiz-adv-x="292" 
d="M345 270l13 -27q-27 -17 -54.5 -26t-53.5 -11q-2 -8 -5.5 -15t-6.5 -15q-18 -38 -44.5 -75t-57.5 -63t-63.5 -36.5t-63.5 3.5q-32 15 -38.5 61t24.5 108q29 59 61 99.5t63.5 63.5t60 29t51.5 -4q10 -5 19 -15.5t9 -23.5q-15 12 -35.5 13.5t-43.5 -13t-48 -46t-50 -85.5
q-22 -46 -22.5 -79.5t20.5 -44.5q10 -6 25.5 2t32.5 25.5t33.5 42t28.5 50.5l9 22q-21 9 -29 28t-5.5 37.5t15 33t34.5 14.5q27 0 36.5 -24t0.5 -59q23 3 47 11t37 19zM132 429l-18 27l20 29q-6 2 -17.5 3t-31.5 2q32 0 43 2.5t16 7.5q4 4 6.5 14.5t3.5 43.5q0 -33 3 -45
q12 12 25.5 20t30.5 8q13 0 22 -6.5t15.5 -14.5t13.5 -15t17 -7t24.5 9.5t37.5 33.5l18 -27q-14 -15 -26.5 -29.5t-25 -26t-26 -18.5t-29.5 -7q-14 0 -24.5 10.5t-21 20t-22.5 11.5t-30 -15q-1 -8 -1.5 -18.5t-0.5 -27.5q-1 14 -1 23.5t-1 17.5q-5 -5 -10 -11.5t-10 -14.5z
M145 -113q2 -2 7.5 -4t25.5 -3q-18 0 -24.5 -2t-9.5 -5q-2 -2 -4 -8.5t-2 -24.5q-1 18 -3 24.5t-4 8.5q-3 3 -9.5 5t-25.5 2q20 1 26 3t9 4q2 3 4 9t3 26q0 -19 2 -25.5t5 -9.5z" />
    <glyph glyph-name="odieresis" unicode="&#xf6;" horiz-adv-x="292" 
d="M345 270l13 -27q-27 -17 -54.5 -26t-53.5 -11q-2 -8 -5.5 -15t-6.5 -15q-18 -38 -44.5 -75t-57.5 -63t-63.5 -36.5t-63.5 3.5q-32 15 -38.5 61t24.5 108q29 59 61 99.5t63.5 63.5t60 29t51.5 -4q10 -5 19 -15.5t9 -23.5q-15 12 -35.5 13.5t-43.5 -13t-48 -46t-50 -85.5
q-22 -46 -22.5 -79.5t20.5 -44.5q10 -6 25.5 2t32.5 25.5t33.5 42t28.5 50.5l9 22q-21 9 -29 28t-5.5 37.5t15 33t34.5 14.5q27 0 36.5 -24t0.5 -59q23 3 47 11t37 19zM225 461q-5 -21 -23.5 -35.5t-39.5 -14.5q-20 0 -30.5 14.5t-5.5 35.5q3 13 12 23q-6 2 -17 3.5t-35 2.5
q32 0 42.5 2.5t15.5 7.5q4 4 6.5 14.5t3.5 43.5q0 -27 2 -38.5t5 -16.5q14 8 28 8q12 0 21 -6t13 -15q6 -14 2 -29zM334 461q-5 -21 -24 -35.5t-39 -14.5q-21 0 -31.5 14.5t-4.5 35.5q5 20 23.5 35t39.5 15q20 0 30.5 -15t5.5 -35zM145 -113q2 -2 7.5 -4t25.5 -3
q-18 0 -24.5 -2t-9.5 -5q-2 -2 -4 -8.5t-2 -24.5q-1 18 -3 24.5t-4 8.5q-3 3 -9.5 5t-25.5 2q20 1 26 3t9 4q2 3 4 9t3 26q0 -19 2 -25.5t5 -9.5z" />
    <glyph glyph-name="oslash" unicode="&#xf8;" horiz-adv-x="292" 
d="M343 416l-87 -109q8 -11 9 -28.5t-4 -38.5q23 3 47 11t37 19l13 -27q-27 -17 -54.5 -26t-53.5 -11q-2 -8 -5.5 -15t-6.5 -15q-18 -38 -43.5 -73.5t-55.5 -61.5t-62.5 -37.5t-62.5 -0.5l-60 -75h-48l79 98q-16 23 -14.5 61.5t24.5 86.5q29 59 61 99.5t63.5 63.5t60 29
t51.5 -4q3 -2 6.5 -4.5t7.5 -5.5l51 64h47zM222 323l10 13q-31 5 -70.5 -26.5t-79.5 -117.5q-10 -20 -15 -38.5t-7 -33.5l113 142q-1 23 11.5 41.5t37.5 19.5zM190 224l-119 -149q2 -4 9 -7q10 -6 25.5 2t32.5 25.5t33.5 42t28.5 50.5l9 22q-13 6 -19 14zM164 500
q4 -5 14 -7.5t44 -2.5q-33 -1 -43.5 -3.5t-15.5 -6.5q-4 -5 -6 -16.5t-3 -49.5q0 19 -1 30.5t-2 19t-3 11t-4 5.5q-5 4 -15 6.5t-44 3.5q32 0 43 2.5t16 7.5q4 4 6.5 14.5t3.5 43.5q1 -33 3 -43.5t7 -14.5zM145 -113q2 -2 7.5 -4t25.5 -3q-18 0 -24.5 -2t-9.5 -5
q-2 -2 -4 -8.5t-2 -24.5q-1 18 -3 24.5t-4 8.5q-3 3 -9.5 5t-25.5 2q20 1 26 3t9 4q2 3 4 9t3 26q0 -19 2 -25.5t5 -9.5z" />
    <glyph glyph-name="ugrave" unicode="&#xf9;" 
d="M322 353l-103 -221q-17 -35 -21 -52.5t9 -17.5q20 0 43 32.5t49 88.5l23 -24q-35 -77 -73.5 -119.5t-83.5 -42.5q-12 0 -21 3q-47 14 -24 90q-31 -41 -61 -67t-53 -26q-21 0 -34 10t-16 32t6 55t33 80q23 47 42 80.5t33 55.5q16 26 27 43h81q-19 -30 -37 -61
q-16 -26 -33 -57.5t-31 -60.5q-52 -112 -29 -112q8 0 30.5 27t50 66t55.5 83t47 78l20 37h71zM115 505l48 51v6.5t1 7.5v-13l3 3l63 -60l73 -68l-22 -24l-114 66q-3 -14 -3 -53q-1 24 -2 37t-3 21l-33 19q-7 1 -16 1t-22 1h19t15 1zM161 -151q3 -4 8 -6.5t15.5 -5t29.5 -3.5
t50 -2q-30 0 -49 -1.5t-30 -3.5t-16.5 -5t-9.5 -7q-3 -4 -6 -10t-4.5 -18.5t-3 -33.5t-1.5 -55q0 34 -1.5 55.5t-3.5 34t-5 18.5t-6 9q-4 4 -10 7t-17 5t-29.5 3.5t-48.5 1.5q30 1 48.5 2t29.5 3.5t16.5 5t9.5 6.5q3 4 6 9.5t5 16.5t3.5 29.5t2.5 48.5q0 -30 1.5 -48.5
t3.5 -29.5t5 -16.5t7 -9.5z" />
    <glyph glyph-name="uacute" unicode="&#xfa;" 
d="M322 353l-103 -221q-17 -35 -21 -52.5t9 -17.5q20 0 43 32.5t49 88.5l23 -24q-35 -77 -73.5 -119.5t-83.5 -42.5q-12 0 -21 3q-47 14 -24 90q-31 -41 -61 -67t-53 -26q-21 0 -34 10t-16 32t6 55t33 80q23 47 42 80.5t33 55.5q16 26 27 43h81q-19 -30 -37 -61
q-16 -26 -33 -57.5t-31 -60.5q-52 -112 -29 -112q8 0 30.5 27t50 66t55.5 83t47 78l20 37h71zM173 490q-3 -4 -5 -10.5t-3 -24.5l68 45l86 56l25 -71l-180 -73l-8 -3l-18 28l25 16q-2 20 -4 26.5t-5 10.5q-5 4 -15 6.5t-44 3.5q32 0 43 2.5t16 7.5q4 4 6.5 14.5t3.5 43.5
q1 -33 3 -43.5t7 -14.5q3 -5 12.5 -7.5t39.5 -2.5q-29 -1 -39 -4t-14 -6zM161 -151q3 -4 8 -6.5t15.5 -5t29.5 -3.5t50 -2q-30 0 -49 -1.5t-30 -3.5t-16.5 -5t-9.5 -7q-3 -4 -6 -10t-4.5 -18.5t-3 -33.5t-1.5 -55q0 34 -1.5 55.5t-3.5 34t-5 18.5t-6 9q-4 4 -10 7t-17 5
t-29.5 3.5t-48.5 1.5q30 1 48.5 2t29.5 3.5t16.5 5t9.5 6.5q3 4 6 9.5t5 16.5t3.5 29.5t2.5 48.5q0 -30 1.5 -48.5t3.5 -29.5t5 -16.5t7 -9.5z" />
    <glyph glyph-name="ucircumflex" unicode="&#xfb;" 
d="M322 353l-103 -221q-17 -35 -21 -52.5t9 -17.5q20 0 43 32.5t49 88.5l23 -24q-35 -77 -73.5 -119.5t-83.5 -42.5q-12 0 -21 3q-47 14 -24 90q-31 -41 -61 -67t-53 -26q-21 0 -34 10t-16 32t6 55t33 80q23 47 42 80.5t33 55.5q16 26 27 43h81q-19 -30 -37 -61
q-16 -26 -33 -57.5t-31 -60.5q-52 -112 -29 -112q8 0 30.5 27t50 66t55.5 83t47 78l20 37h71zM313 536v-107h-37v50l-112 -49l-4 -1l-18 27l19 13q-1 10 -3 14t-4 7q-5 4 -15 6.5t-44 3.5q32 0 43 2.5t16 7.5q4 4 6.5 14.5t3.5 43.5q1 -33 3 -43.5t7 -14.5q3 -4 9 -6t24 -3
l70 48zM161 -151q3 -4 8 -6.5t15.5 -5t29.5 -3.5t50 -2q-30 0 -49 -1.5t-30 -3.5t-16.5 -5t-9.5 -7q-3 -3 -6 -9t-4.5 -17t-3 -29.5t-1.5 -48.5q-1 30 -2.5 49t-3.5 30t-4.5 16.5t-5.5 8.5q-4 4 -10 7t-17 5t-29.5 3.5t-48.5 1.5q30 1 48.5 2t29.5 3.5t16.5 5t9.5 6.5
q3 4 6 9.5t5 16.5t3.5 29.5t2.5 48.5q0 -30 1.5 -48.5t3.5 -29.5t5 -16.5t7 -9.5zM173 490q-2 -2 -3.5 -5.5t-3.5 -11.5l37 25q-15 -1 -21 -3t-9 -5z" />
    <glyph glyph-name="udieresis" unicode="&#xfc;" 
d="M322 353l-103 -221q-17 -35 -21 -52.5t9 -17.5q20 0 43 32.5t49 88.5l23 -24q-35 -77 -73.5 -119.5t-83.5 -42.5q-12 0 -21 3q-47 14 -24 90q-31 -41 -61 -67t-53 -26q-21 0 -34 10t-16 32t6 55t33 80q23 47 42 80.5t33 55.5q16 26 27 43h81q-19 -30 -37 -61
q-16 -26 -33 -57.5t-31 -60.5q-52 -112 -29 -112q8 0 30.5 27t50 66t55.5 83t47 78l20 37h71zM238 461q-5 -21 -23.5 -35.5t-39.5 -14.5q-8 0 -11 1q-15 4 -22.5 17.5t-2.5 31.5q3 15 16 28q-1 0 -1 1q-5 4 -15 6.5t-44 3.5q32 0 43 2.5t16 7.5q4 4 6.5 14.5t3.5 43.5
q1 -33 3 -43.5t7 -14.5q1 -2 5 -4q12 5 23 5q18 0 27 -11h8q-3 -1 -7 -1q6 -7 8.5 -17t-0.5 -21zM347 461q-5 -21 -24 -35.5t-39 -14.5q-21 0 -31.5 14.5t-4.5 35.5q5 20 23.5 35t39.5 15q20 0 30.5 -15t5.5 -35zM161 -151q3 -4 8 -6.5t15.5 -5t29.5 -3.5t50 -2
q-30 0 -49 -1.5t-30 -3.5t-16.5 -5t-9.5 -7q-3 -3 -6 -9t-4.5 -17t-3 -29.5t-1.5 -48.5q-1 30 -2.5 49t-3.5 30t-4.5 16.5t-5.5 8.5q-4 4 -10 7t-17 5t-29.5 3.5t-48.5 1.5q30 1 48.5 2t29.5 3.5t16.5 5t9.5 6.5q3 4 6 9.5t5 16.5t3.5 29.5t2.5 48.5q0 -30 1.5 -48.5
t3.5 -29.5t5 -16.5t7 -9.5z" />
    <glyph glyph-name="yacute" unicode="&#xfd;" horiz-adv-x="307" 
d="M244 353h80q-22 -49 -47 -100q-21 -44 -46.5 -97t-49.5 -104q38 24 71 55t55 76l23 -24q-22 -51 -69.5 -89t-103.5 -68l-2 -5q-25 -53 -55 -96.5t-61.5 -71.5t-62 -37t-55.5 8q-20 14 -25.5 34.5t6.5 45.5q9 20 26.5 36t40.5 30t50 26.5t56 25.5q13 24 25.5 48.5
t23.5 47.5q-32 -42 -63.5 -69.5t-54.5 -27.5q-21 0 -34 10t-16 32t6 55t33 80q23 47 42 80.5t33 55.5q16 26 27 43h57h24q-19 -30 -37 -61q-16 -26 -33 -57.5t-30 -60.5q-53 -112 -30 -112q6 0 21 16.5t34 42.5t40 59t40.5 65t35.5 61t25 47zM337 556l25 -71l-188 -76
l-15 23q-2 -6 -3.5 -19t-1.5 -39q0 19 -1 30.5t-2 19t-3 11t-4 5.5q-5 4 -15 6.5t-44 3.5q32 0 43 2.5t16 7.5q4 4 6.5 14.5t3.5 43.5q1 -33 3 -43.5t7 -14.5q4 -6 15 -8zM-64 -138q-5 -19 5 -25q10 -5 22.5 2t26 22t28 37t29.5 48q-42 -21 -72.5 -41t-38.5 -43zM193 -164
q2 -2 7.5 -4t25.5 -3q-18 0 -24.5 -2t-9.5 -5q-2 -3 -4 -10t-2 -30q-1 23 -2.5 30t-4.5 10t-9.5 5t-25.5 2q20 1 26 3t9 4q2 3 4 9t3 26q0 -19 2 -25.5t5 -9.5z" />
    <glyph glyph-name="ydieresis" unicode="&#xff;" horiz-adv-x="307" 
d="M48 62q6 0 21 16.5t34 42.5t40 59t40.5 65t35.5 61t25 47h80q-22 -49 -47 -100q-21 -44 -46.5 -97t-49.5 -104q38 24 71 55t55 76l23 -24q-22 -51 -69.5 -89t-103.5 -68l-2 -5q-25 -53 -55 -96.5t-61.5 -71.5t-62 -37t-55.5 8q-20 14 -25.5 34.5t6.5 45.5q9 20 26.5 36
t40.5 30t50 26.5t56 25.5q13 24 25.5 48.5t23.5 47.5q-32 -42 -63.5 -69.5t-54.5 -27.5q-21 0 -34 10t-16 32t6 55t33 80q23 47 42 80.5t33 55.5q16 26 27 43h81q-19 -30 -37 -61q-16 -26 -33 -57.5t-30 -60.5q-53 -112 -30 -112zM149 430q-2 4 -2 7l-3 3q-5 4 -15 6.5
t-44 3.5q32 0 43 2.5t16 7.5q4 4 6.5 14.5t3.5 43.5q0 -13 0.5 -22t1.5 -15q9 13 23.5 21.5t30.5 8.5q20 0 30.5 -15t5.5 -35l-4 -11q-8 -17 -24.5 -28t-34.5 -11q-17 0 -27 9q-1 -9 -1.5 -25t-0.5 -42q0 35 -1.5 52t-3.5 25zM355 461q-5 -21 -24 -35.5t-39 -14.5
q-18 0 -29 11t-9 28q0 3 2 11q5 20 23.5 35t39.5 15q20 0 30.5 -15t5.5 -35zM-64 -138q-5 -19 5 -25q10 -5 22.5 2t26 22t28 37t29.5 48q-42 -21 -72.5 -41t-38.5 -43zM193 -164q2 -2 7.5 -4t25.5 -3q-18 0 -24.5 -2t-9.5 -5q-2 -3 -4 -10t-2 -30q-1 23 -2.5 30t-4.5 10
t-9.5 5t-25.5 2q20 1 26 3t9 4q2 3 4 9t3 26q0 -19 2 -25.5t5 -9.5z" />
    <glyph glyph-name="uni00A0" unicode="&#xa0;" horiz-adv-x="256" 
 />
    <glyph glyph-name="Aogonek" unicode="&#x104;" horiz-adv-x="739" 
d="M580 564q-25 40 -70 59q-27 11 -55 10.5t-53.5 -10t-46 -27t-32.5 -40.5q-9 -17 -14.5 -40.5t-4 -46t11.5 -41t31 -27.5t41.5 -2.5t32.5 22.5q8 11 11 25.5t2 28.5q24 8 41 -3t17 -37q0 -31 -17 -53t-42.5 -33t-54 -10t-51.5 16q-22 14 -34.5 35t-18 46t-4.5 50.5t6 48.5
q10 42 35 74.5t59.5 53t75.5 27.5t83 -2q34 -8 62 -23t54 -38q25 10 55.5 20.5t60 19.5t55.5 16t43 10l7 -33q-38 -21 -67.5 -62t-52.5 -89.5t-40.5 -98t-32.5 -87.5l-18 -45t-21 -54q38 -11 70.5 -13.5t53.5 11.5l16 -30q-38 -18 -77 -19t-79 7q-11 -30 -19 -61.5t-12 -61
t-1.5 -56t13.5 -47.5q7 -13 32 -21q3 -14 -3.5 -22.5t-17.5 -10.5t-24.5 1t-24.5 12q-24 19 -36 47q-25 -13 -48.5 -24.5t-40 -23t-24 -23.5t-1.5 -24t18.5 -15t26.5 0.5t25.5 11t16.5 16.5l26 -26q-7 -14 -25 -27q8 0 12 -1h-14q-20 -15 -49 -23.5t-56 -6.5
q-4 -11 -5.5 -33.5t-2.5 -70.5q-1 51 -3 74t-7 33q-24 5 -38 23q-12 2 -31 3t-47 1q26 1 43.5 1.5t29.5 2.5q-5 6 -6 15q-7 29 10 48.5t48 36.5q0 3 0.5 5.5t0.5 5.5v-10q28 15 62.5 29t68.5 32q-6 25 -6.5 54t2.5 57t9 54t13 46l-33 9q-25 -40 -58.5 -87t-73 -90t-82.5 -77
t-86.5 -47t-85 0.5t-77.5 63.5q-18 26 -23.5 57t-1.5 61q6 63 45 114q20 25 48 45t66 27q26 5 51 -2.5t42 -25.5q10 26 28 39t42 16.5t52.5 -1.5t59.5 -14q35 51 71.5 101t75.5 99q22 27 51.5 62.5t58.5 64.5zM268 177q-18 14 -38 20t-43 1q-22 -4 -41.5 -16t-35.5 -29
t-28 -37t-18 -41q-7 -22 -6 -44t12 -40t30 -28.5t39 -12.5q29 -4 55.5 8.5t51.5 35t47.5 52t42.5 61.5t38 63.5t33 56.5q-17 1 -36.5 0t-38.5 -6.5t-36 -16t-28 -27.5zM613 385q32 62 74 130.5t96 121.5q-46 -27 -83 -74t-68 -101t-56 -107.5t-47 -94.5q10 -3 22 -8
q14 36 30 69.5t32 63.5zM136 473q4 -5 14 -7.5t44 -2.5q-33 -1 -43.5 -3.5t-15.5 -6.5q-4 -5 -6 -16.5t-3 -49.5q0 19 -1 30.5t-2 19t-3 11t-4 5.5q-5 4 -15 6.5t-44 3.5q32 0 43 2.5t16 7.5q4 4 6.5 14.5t3.5 43.5q1 -33 3 -43.5t7 -14.5z" />
    <glyph glyph-name="Lcaron" unicode="&#x13d;" horiz-adv-x="678" 
d="M10 19q35 9 70.5 7.5t71.5 -9.5q27 11 49.5 30.5t41.5 44t35.5 52.5t31.5 56q-40 17 -69.5 47.5t-41.5 78.5q-8 34 1 42t21 -12q19 -30 51.5 -52t71.5 -36l11 21q24 47 50 102.5t56.5 108.5t68 99t85.5 75q22 13 47 17.5t48 -0.5t43 -20.5t32 -41.5q16 -36 15 -77
t-15.5 -82t-39 -80.5t-54.5 -74t-63 -61.5t-64 -43q-36 -18 -78.5 -26.5t-86.5 -5.5q-16 -28 -35.5 -56t-42.5 -52t-49.5 -43t-56.5 -28q46 -15 93.5 -33t96 -33t97.5 -22.5t100 0.5q8 -14 8 -28.5t-6 -28t-17 -24t-25 -16.5q-45 -17 -96 -3.5t-111 49.5q-33 19 -73.5 46.5
t-85 50t-91 33.5t-91.5 -2zM465 254q53 5 102 31.5t88.5 66t66.5 89t36 101.5q4 19 3 38t-9 35q-9 16 -22.5 25t-29.5 11t-32.5 -2t-29.5 -13q-38 -25 -66 -70.5t-51 -99.5t-42.5 -110.5t-40.5 -102.5h13.5t13.5 1zM962 578q-8 -29 -34 -45l-88 -64l-19 20l40 42
q-20 16 -12 47q6 24 27 40.5t45 16.5q23 0 35 -16.5t6 -40.5zM177 -203q3 -4 8 -6.5t15.5 -5t29.5 -3.5t50 -2q-30 0 -49 -1.5t-30 -3.5t-16.5 -5t-9.5 -7q-3 -3 -6 -9t-4.5 -17t-3 -29.5t-1.5 -48.5q-1 30 -2.5 49t-3.5 30t-4.5 16.5t-5.5 8.5q-4 4 -10 7t-17 5t-29.5 3.5
t-48.5 1.5q30 1 48.5 2t29.5 3.5t16.5 5t9.5 6.5q3 4 6 9.5t5 16.5t3.5 29.5t2.5 48.5q0 -30 1.5 -48.5t3.5 -29.5t5 -16.5t7 -9.5zM296 473q4 -5 14 -7.5t44 -2.5q-33 -1 -43.5 -3.5t-15.5 -6.5q-4 -5 -6 -16.5t-3 -49.5q0 19 -1 30.5t-2 19t-3 11t-4 5.5q-5 4 -15 6.5
t-44 3.5q32 0 43 2.5t16 7.5q4 4 6.5 14.5t3.5 43.5q1 -33 3 -43.5t7 -14.5zM515 -285q2 -2 7.5 -4t25.5 -3q-18 0 -24.5 -2t-9.5 -5q-2 -2 -3 -5t-1.5 -10t-1 -19.5t-0.5 -33.5q0 21 -0.5 33.5t-1 19.5t-2 10t-3.5 5q-3 3 -9.5 5t-25.5 2q20 1 26 3t9 4q2 3 4 9t3 26
q0 -19 2 -25.5t5 -9.5z" />
    </font>
</defs>
</svg>
