<?xml version="1.0" standalone="no"?>
<!DOCTYPE svg PUBLIC "-//W3C//DTD SVG 1.1//EN" "http://www.w3.org/Graphics/SVG/1.1/DTD/svg11.dtd" >
<svg xmlns="http://www.w3.org/2000/svg" xmlns:xlink="http://www.w3.org/1999/xlink" version="1.1">
<metadata>
Created by FontForge 20170924 at Sun Jan 26 15:16:07 2014
 By www-data
Copyright 2003 Zone Erogene.  All rights reserved.
</metadata>
<defs>
<font id="MarcelleScript" horiz-adv-x="2048" >
  <font-face 
    font-family="Marcelle Script"
    font-weight="700"
    font-stretch="normal"
    units-per-em="2048"
    panose-1="3 4 6 2 4 6 7 8 9 4"
    ascent="1638"
    descent="-410"
    x-height="833"
    cap-height="1430"
    bbox="-102 -543 2044 2133"
    underline-thickness="102"
    underline-position="-205"
    unicode-range="U+0020-FB02"
  />
<missing-glyph horiz-adv-x="1024" 
d="M128 0v1950h768v-1950h-768zM256 128h512v1694h-512v-1694z" />
    <glyph glyph-name=".notdef" horiz-adv-x="1024" 
d="M128 0v1950h768v-1950h-768zM256 128h512v1694h-512v-1694z" />
    <glyph glyph-name=".null" horiz-adv-x="0" 
 />
    <glyph glyph-name="nonmarkingreturn" horiz-adv-x="512" 
 />
    <glyph glyph-name="space" unicode=" " horiz-adv-x="512" 
 />
    <glyph glyph-name="exclam" unicode="!" horiz-adv-x="662" 
d="M239 55l-29 -29l-12 13l29 28zM648 1280q0 -77 -33 -107q4 -11 12 -105q-53 -166 -114 -259q-1 -1 -22 -7q0 -23 -40.5 -87.5t-66.5 -88.5q-42 -112 -42 -167q0 -28 12 -35q-11 -18 -30 -43q-47 76 -56 109q-8 26 -8 91q0 96 29 178l82 198q0 -13 11 -23q12 31 15 57
q2 18 0 48q-2 38 -2 59q0 -35 12 -47q6 6 15 10t15 10l-9 122q-21 -22 -21 -54q0 35 -29 179q163 98 205 98q65 0 65 -136zM511 858l-16 -31l-16 7l15 30zM248 93q-20 -17 -31 -17q-7 7 -4 31q4 38 4 39q4 -20 31 -53zM582 1159v43h-21v-43h21zM518 1260q-35 0 -33 -30v-37
q19 18 25 37zM580 1136l-12 12l-29 -28l12 -13zM517 1019v150h-31q-8 -35 -26 -102q6 -5 17.5 -10.5t17.5 -10.5l-23 -27h45zM534 947v67h-20v-67h20zM483 1001q-9 0 -19 12t-10 21q0 -81 -14 -123q10 33 43 90zM440 865v43h-20v-43h20zM382 873h-20l-13 -78h20zM413 188
q-11 11 -46 -9q0 -46 -21 -116q-27 -1 -74 8q11 18 20 49.5t21 49.5l18 -19q-7 -12 -7 -63q3 36 30 66q-18 12 -61.5 21.5t-58.5 19.5q-32 28 -88 68q-25 -109 -61 -156v-100q6 0 28 -6t28 -6q1 30 -4.5 62.5t-5.5 43.5q0 41 40 116q21 -71 -5 -116q18 -29 14 -130
q22 11 74 11q28 0 28 72h26q-5 -16 -1 -39q4 -18 -2 -23q38 55 108 196zM76 19v43h-20v-43h20z" />
    <glyph glyph-name="quotedbl" unicode="&#x22;" horiz-adv-x="901" 
d="M805 1417q3 -156 -35 -265q-32 -93 -129 -237l-63 -10q60 166 60 288q0 78 -22 165zM467 1397q3 -157 -35 -265q-32 -92 -129 -237l-63 -10q60 166 60 288q0 78 -21 164z" />
    <glyph glyph-name="numbersign" unicode="#" 
 />
    <glyph glyph-name="dollar" unicode="$" horiz-adv-x="1067" 
d="M552 86l-34 -15v17l28 15zM526 61l-21 -58l-17 7l21 51h17zM1034 1290q5 -12 5 -26q0 -39 -36 -109q-27 -50 -53 -100h-53q-6 6 -5 26q2 28 2 29q6 6 11.5 16.5t11.5 16.5q-12 12 -16 58q-4 52 -18 79q-24 46 -90 70q-29 -10 -38 -43q-23 -103 -47 -205
q-36 -153 -74 -218q210 -197 210 -301q0 -9 -2 -17q-17 -19 10 -19q19 0 17 7q-6 26 -6 17q19 -52 19 -118q0 -72 -3 -83q-12 -54 -68 -67q-5 -5 6 -16q6 6 25.5 17.5t25.5 17.5q-71 -113 -88 -133q-55 -60 -145 -75q2 2 17.5 25t28.5 36q-6 6 -17.5 11.5t-17.5 11.5
q15 30 73 113q42 60 49 106q28 -28 56 -15l-10 111q-20 -24 -76 -71l-21 -19q9 -9 35 -9q-27 -26 -79 -103q2 16 -43 146q-3 10 4.5 28t7.5 26q0 6 -3 13q-1 -1 -8 -17q-3 -7 -21 -7q-16 0 -30.5 18t-18.5 18l-40 -119q0 26 -10 36q-5 -11 -26.5 -26t-27.5 -27l18 -18
q10 10 10 35q1 -6 14 -23q8 4 8 2q0 -8 -27 -21q13 -18 13 -47q0 -34 -19 -96t-19 -73q-28 0 -42 -13q0 4 -13.5 20t-13.5 33q0 41 51 132q8 36 41 165q26 99 26 116q0 12 -19.5 33.5t-19.5 46.5q0 12 4 27q0 120 3 194q2 51 6 78q3 23 3 21q-5 24 -16 70q-13 10 -38 43
q-18 -19 -18 -40q0 -16 12.5 -35.5t11.5 -21.5q7 -55 5.5 -164t4.5 -162q-50 19 -109 148q-54 119 -54 181q0 69 21 118q11 26 69 118l35 -177q39 92 26 189q-20 -13 -15 -47q-1 -4 -30 54q38 37 58 37q0 -29 -11 -29l18 -15q9 8 9 58q16 0 27 -11q13 13 -6 32q25 0 69 25
q-13 -14 6 -33q18 33 88 52q83 22 118 52q-15 -16 -3 -33q32 32 45 32q-6 -12 -6 -47q56 -19 111 -38q76 -29 125 -78zM715 460h-32v20h32v-20zM773 216q0 -6 -11.5 -22.5t-11.5 -21.5h-45q17 18 68 44zM629 181q1 -4 -6 -36t-7 -48q0 -14 4 -21l-25 23q2 -11 -8 -26
t-10 -18q0 -7 21 -7q-29 -29 -57 -29q32 51 88 162zM435 78q-4 -5 -19 -21q6 7 3 29q-6 35 -6 47q16 -8 23 -28q7 -18 -1 -27zM155 148h-20l-14 55h20zM992 1168l-17 6l-15 -31l17 -7zM730 1384l-7 17l-28 -14v-17zM692 1347q-25 15 -52 15q-18 0 -48 -28q-27 -24 -36 -43
q-11 11 -25 11q0 -26 -19.5 -80.5t-19.5 -66.5q0 -24 39 -100q40 -80 64 -94q37 128 97 386zM662 1021v44h-21v-44h21zM390 1120l-17 6l-15 -30l17 -7zM378 1073l-17 6l-26 -54l16 -7zM707 747q-12 -34 -35 -93q11 11 19 24q25 3 25 27q0 10 -4.5 25.5t-4.5 16.5zM745 632
v31h-20v-31h20zM602 798l-13 12l-40 -41l11 -12zM709 611l-14 40h-17l14 -46zM355 990l-17 6l-27 -53l17 -8zM674 573v55h-21v-55h21zM805 317q0 6 -4.5 26.5t-4.5 26.5l-32 -32q41 0 41 -21zM798 254v54q-14 7 -34 4q-18 -4 -35 -7q47 0 59 -12q-24 -23 -42 -23q6 0 26 -8
t26 -8zM541 487l-7 17l-40 -14v-17zM741 251l-6 17l-28 -14v-18zM165 251l-43 29l-10 -16l41 -28zM469 -4q-21 7 -20 33q0 20 11 35q-6 -19 -23 -49q-4 0 -13 1h-26q-18 0 -18 48q0 50 14 105q-15 -30 -40 -95h-31q-83 37 -107 100q-13 37 -15 143q0 67 -21 100
q-101 -134 -101 -147q0 -5 8 -5.5t8 -11.5q0 -21 -23 -84q-10 11 -10 30q0 -44 44 -78q61 -46 70 -59q-8 8 -3 12q4 2 15 2q6 -34 65 -59q66 -27 70 -33q1 -2 10 -10q6 -6 6 -23q0 -15 -25 -66q-27 -57 -33 -80h67q8 12 38 120q21 75 63 75q9 0 20 -4z" />
    <glyph glyph-name="percent" horiz-adv-x="1559" 
d="M1356 -374l-16 -31l-16 7l15 30zM1046 -406q0 1 3 -17q1 -12 -2 -20t-16 -8t-14 4q0 1 2.5 5.5t2.5 7.5q-1 4 -3 6q-18 -17 -29 -5q27 27 56 27zM1099 -531h-20v31h20v-31zM421 -274h-20v43h20v-43zM382 -305q-7 7 -10 19q-2 12 2 12q2 0 5 -2q11 0 11 -23q0 -24 -19 -24
l-35 20q-1 0 23 -6q16 -3 23 4zM371 -353q-19 0 -30 -10q7 7 4 20q-6 19 -6 20zM1016 872l-30 -29l-11 12l29 28zM959 703l-39 -81l-16 8l38 73h17zM1497 -114l-14 -55h-20l14 55h20zM1421 1329q1 -24 -73.5 -148.5t-95.5 -124.5q-12 0 -13 4q0 1 2.5 5.5t2.5 7.5q-1 3 -3 6
q-18 -17 -22 -29q10 -28 11 -27q-30 -31 -73 -99q-35 -57 -70 -113q0 51 -13 51q-5 0 -11 -4q0 9 14 8q15 0 24 -9q6 6 1 17q-7 16 -7 30q0 17 65 126q100 165 110 183q5 7 -5 18q-95 -136 -98 -140q-54 -87 -53 -129q-1 6 -12 24q-100 -199 -124 -199q-14 0 -18.5 9.5
t-7.5 9.5q-4 -1 -9 -3q15 -20 41 -63q22 35 68 93q4 0 11.5 -17t19.5 -22q-5 -5 -30 -40q-17 -25 -34 -25q-13 0 -14 4q0 1 2.5 5.5t2.5 7.5t-3 6l-18 -20q0 -30 35 -30q-18 -11 -48 -57q9 -3 19 8q-17 -18 -34 -6q-9 -9 -6 -24q2 -15 11 -15q-20 -20 -41 -20q-14 0 -11 6
t-11 6t-14 4q0 1 2.5 5.5t2.5 7.5q0 4 -3 7q-120 -197 -357 -568q-4 26 0 34q-11 9 -14 9q-1 -29 -14 -91q-3 -9 -25 -42q-19 -28 -19 -42q-6 0 -27 22q-15 -13 6 -54q-16 -11 -63 -86q-46 16 -51 16q-7 1 -25 -14q28 48 55 97q43 69 96 83l-13 13q9 -4 29 -20q3 5 3 10
q0 7 -10 24t-10 30q0 11 50 75q42 55 58 72q2 19 13 55q79 144 182 304q115 178 135 178q17 0 22.5 -6.5t9.5 -6.5q9 25 9 45q0 10 -11 38q0 32 44 59q32 19 52 22l20 19q-5 10 -34 32l175 280q-17 0 -52 -13.5t-47.5 -13.5t-98 -35t-100.5 -35t-76.5 -11.5t-75.5 -11.5
q-15 0 -12 11.5t-12 11.5q-14 0 -11 -6t-12 -6l-35 -11q-21 0 -69 23q-10 -15 -16 -66q-4 -39 -20 -39t-16 7t-3 7q2 -12 2 -24q0 -86 -75 -165q-76 -82 -165 -82q-13 0 -35 6t-35 6q-15 0 -12 -6t-11 -6q-59 0 -102 95q-33 73 -33 115q0 128 51 176q15 53 75 125
q67 81 122 95l24 24q44 0 44 -23q0 -18 -28 -58q-25 -36 -48 -56q-4 -24 -44 -115q-32 -74 -32 -156q0 -152 82 -152q77 0 142 114q56 99 56 172q0 10 -35 59t-35 81q0 44 20 87q22 48 50 48q42 0 65 -79q19 -63 16 -117q-23 4 -23 -6l20 -21q48 12 162 12q9 0 10 -3
q0 -3 -4.5 -8.5t-4.5 -7.5q1 -4 10 -4q18 0 16 6l-5 12q205 36 288 66q109 55 289 125q-14 -24 -3 -45q3 2 31 57h55v-41zM1355 -52h-17l-14 40l17 6zM1257 53q-24 0 -24 -35q-28 0 -41 -13q0 11 32 43q0 5 -11.5 17.5t-11.5 17.5q28 -2 28 9q0 -4 14 -15t14 -24zM1444 -192
q5 0 -26 4q-19 3 -30 -4q7 7 5 22q-5 23 -5 21q6 0 21.5 6t21.5 6zM1380 -123q-1 -6 -12 -24v41q3 -26 12 -17zM729 379q-27 27 -43 27q29 2 29 13q0 -6 7 -20t7 -20zM1189 -33l-18 14q-12 -11 -12 -35q1 7 -1 25t-2 22q-29 -23 -29 -29q0 -7 8 -14q-6 0 -9 -8q-5 -9 3 -16
q-25 7 -29 13q-6 15 -12 31q-20 -25 -18 -56h-45q3 3 35 54q27 43 57 62q16 15 56 44q-1 4 -5 -54q-2 -42 21 -53zM1110 -29h-20v43h20v-43zM1072 -123l-6 -17l-31 16l7 16zM1124 -188q-13 0 -34 -15q-30 -21 -42 -28q7 -10 25 -6q35 6 44 6v-54q-25 -2 -25 -13
q-49 20 -62 46q-22 -22 -27 -22q0 -2 -6.5 28t-6.5 73q18 -3 29 8q-18 -18 16 -41q23 31 4 69q6 -6 14.5 -17t14.5 -17q21 0 21 18q0 -9 13 -22t22 -13zM920 530q-72 -126 -139 -234q-157 -250 -247 -335q0 -27 22 -5q-18 -20 -57 -39q12 -9 23 -9q-31 -45 -85 -137
q-20 14 -31 14q31 58 105 167q82 121 109 166q128 255 266 445q4 4 9 4q25 0 25 -37zM410 -122h-21v31h21v-31zM348 -217l-7 -16l-30 14l6 17zM337 -391q-25 -22 -44 -60q7 47 -3 48q-3 -1 -7 -4q21 15 1 49q-6 -15 -31 -48q-23 -29 -23 -45q0 -18 6 -23q10 10 39 10
q0 -12 -27 -40q6 6 6 7q-1 1 -8 0q-12 -1 -21 -1q-13 0 -13 4q0 1 2.5 6t2.5 8t-2 6q-8 -41 -58 -55q-39 -6 -77 -13q29 49 58 97q42 68 81 82q-12 9 -23 9q29 29 29 49q0 -41 -6 -47q3 -3 13 -19q6 -11 13 -11q13 28 13 56q0 11 -2 28t-2 23q0 32 67 45v-80l-28 16
q-13 6 -28 -1q8 -11 24 -62q12 -36 29 -36q12 0 16 -2q0 -1 -1 -1t4 5zM1321 1308l-17 5l-27 -53l17 -7zM1210 1004v21h-32v-21h32zM1087 976v31h-20v-31h20zM316 1311h-17l-14 -40l16 -6zM1457 28q0 10 -23.5 34t-43.5 35q0 -11 -26 -19q25 0 34 -9l-19 -18q-11 0 -25 11
q22 -90 11 -137q13 0 39 -20q32 -25 39 -28v67q-7 3 -38 4q-13 0 -18 6l8 63q29 -14 46 -36q0 4 8 17t8 30zM187 1034l-14 34l-17 -6l14 -28h17zM1438 -229q0 -3 -39 -3q12 -23 12 -32q0 -5 -5 -5q-23 0 -17 4l-37 -42l23 5q16 4 23 -3q-61 -47 -116 -105q12 -14 12 -26
q0 -14 -24 -28q-27 -16 -31 -22q-20 13 -55 15q-43 2 -56 6q-12 48 -12 117q-3 0 -6.5 -10.5t-20.5 -10.5q-18 0 -21.5 5.5t-7.5 11.5q11 11 23 13q-11 0 -27 -7q-19 37 -24 37q-2 -1 -5 -1.5t-9 -12.5t-19 -12q-3 23 -29 59l-15 -54q6 -6 23.5 -10.5t22.5 -10.5
q-46 -20 -46 -37q25 -63 101 -127q0 55 23 123q26 -21 27 -71q1 -76 2 -80h42q2 2 6 21q3 13 21 13q14 0 23 -12t23 -12q32 0 105 76q-13 14 -13 31q11 0 13.5 -6.5t17.5 -6.5q22 0 92 210zM550 100v78h-20v-78h20zM398 -251v32h-20v-32h20z" />
    <glyph glyph-name="ampersand" unicode="&#x26;" horiz-adv-x="1386" 
d="M237 -1h-31v20h31v-20zM188 4q-14 17 -24 17q20 0 24 34v-51zM1342 189q0 -76 -140 -148q-119 -61 -179 -61q-98 0 -157 51q-25 21 -135 158q-2 -1 -170 -117q-129 -89 -203 -91q-7 12 -4 34q3 32 3 37l-53 9q-7 -7 -4 -23q4 -27 4 -23q-7 19 -30.5 30t-28.5 28
q-12 -7 -12 -18q0 14 -11.5 44.5t-11.5 48.5q0 -13 8 -15q8 -3 21 6h-35q28 24 4 32q2 13 2 30q0 -13 11 -24q12 7 12 18q0 -18 32 -18q22 38 11 60q-24 9 -24 20q6 0 28.5 10.5t27.5 10.5q-23 -23 -23 -34q14 -14 43 15q11 -46 61 -87t88 -41q35 0 123 57q92 58 92 88
l-47.5 153.5t-47.5 244.5q0 22 3 41q-27 15 -76 -9q3 0 17 12q4 6 -7 17q-26 -10 -87 -44q0 -19 24 -19q-36 -14 -92 -71q-61 -63 -62 -98q-24 24 -43 5l34 -32v-169q-28 0 -53 -25q-10 40 19 52q-19 2 -43 -6q-12 -5 -25 -10q0 2 7 20q4 13 -3 19q20 -20 41 1
q-23 28 -53 28q-17 0 -16 -1q6 -9 6 -10q1 5 23 69q0 -12 22 -34q21 8 53 39q-17 5 -56 22v78q19 -6 50 -23q32 30 100 107q-14 -5 -46 -28q-27 -21 -43.5 -21t-15.5 -4q5 -21 5 -14q0 30 -18 47q61 53 221 141q82 0 93 88q4 72 7 144q94 411 399 411q88 0 155 -31
q78 -36 78 -97q0 -34 -45 -78q-39 -38 -88 -61q-18 0 -38 27q-3 53 -27 100q-29 59 -75 59q-130 0 -130 -273q0 -161 4 -145q-19 19 -19 -6q0 -18 5 -18q17 0 20.5 5t6.5 5q20 -179 84 -396q101 -345 232 -345q70 0 157 92q12 -8 24 -17q16 -13 16 -29zM716 560l-34 -15v17
l28 14zM217 511q-7 10 -7 21q0 4 4 -27q3 -19 -4 -26q-28 29 -52 35q-4 -3 59 -3zM343 126q-8 -3 -28 -18q-6 6 -9 21.5t-8 21.5q5 0 22.5 -12.5t22.5 -12.5zM342 81h-43v20h43v-20zM95 73q-38 66 -47 97q-6 24 -6 77q0 66 6 83q24 51 47 103v-360zM173 63h-20v31h20v-31z
M805 943q-33 -15 -90 -42h68q0 4 11 20t11 22zM785 868q-59 0 -79 -5q-48 -10 -59 -44q30 0 39 9l23 -23q9 4 38 36q25 27 38 27zM647 920l-7 16l-50 -25v-17zM672 886l-12 16l-46 -39l10 -16zM786 722l-7 17l-27 -14v-17zM763 595l-7 16l-27 -14v-17zM150 388v43h-20v-43
h20zM185 133v43h-20v-43h20z" />
    <glyph glyph-name="quotesingle" unicode="'" horiz-adv-x="492" 
d="M467 1417q3 -156 -35 -265q-32 -93 -129 -237l-63 -10q60 166 60 288q0 78 -21 165z" />
    <glyph glyph-name="parenleft" unicode="(" horiz-adv-x="981" 
d="M208 -87l-16 -11l-28 42l16 10zM290 -199h-21v43h21v-43zM295 -240h-31v20h31v-20zM509 971l-34 -14v17l28 14zM930 1463q-105 -79 -252 -273.5t-179 -300.5q-13 -22 -49 -40q11 -8 22 -8q-151 -413 -151 -725q0 -299 151 -572q-33 -1 -102 1q-40 62 -124 196
q0 38 -11 61q-19 15 -47 55q-37 51 -37 82q0 27 30 34q0 8 -13.5 18.5t-22.5 10.5l24 28q0 22 -6 27q-11 -1 -11 -12q-6 7 4 18q-23 24 -19 38q40 54 69 125q8 12 -3 12q16 -9 60 16q0 18 -9 26q-35 -6 -84 14v67q38 0 45 7q-14 16 -69 44q0 6 1.5 28t1.5 28q1 -6 13 -24
q3 9 18 29q-30 15 -57 81q19 -9 40 -51l17 19q-3 7 -21 30q-14 18 -14 33q0 17 14 24.5t14 10.5q-3 -15 13 -47q4 12 14 32q-5 4 -5 27l26 -23q27 26 27 23q-1 3 -4 6q20 -20 42 2q0 27 -25 18l-6 -2l-34 35q-22 -22 -22 -35q-2 4 -19 28q-10 15 -10 28q18 0 41 23t40 23
q-18 17 -48 56q57 116 133 202q15 68 72 115q63 42 179 144q76 86 229 184q10 7 51 4h63zM207 728h-20v43h20v-43zM136 494l-30 -29l-11 13l29 28zM137 423h-20v43h20v-43zM114 399h-21v44h21v-44zM114 306h-21v54h21v-54zM167 208q-43 -43 -44 -43q0 1 6 19q5 13 -2 20
q14 -14 40 4zM675 1245l-12 11l-40 -40l11 -12zM593 1163l-12 11l-40 -40l11 -12zM415 1065l-6 17l-28 -14v-18zM392 1007l-6 16l-28 -14v-17zM231 141v32h-20v-32h20zM114 188v43h-21v-43h21zM231 -70v55h-20v-55h20zM137 12v43h-20v-43h20z" />
    <glyph glyph-name="parenright" unicode=")" horiz-adv-x="981" 
d="M440 -178h-20v31h20v-31zM428 -214h-20v32h20v-32zM870 541q-49 -199 -148 -428q0 17 3.5 69t3.5 66q0 12 -6 67q-8 60 -9 84q-13 20 -21 20q-18 10 -18 42q0 19 10.5 73.5t11.5 84.5q-31 -15 -31 -66q-18 46 -18 94q0 49 23 82l-18 18q-11 -11 -11 -35q-1 1 0 176
q0 107 -15 175q3 -3 25.5 -29.5t35.5 -40.5l18 19q-78 80 -102 172q-18 77 -36 153q11 2 32 14q-17 18 -35 18q-31 0 -46 31q-25 50 -36 60h69q0 10 -5 -23q-2 -21 5 -46q17 -11 28 -11q7 14 5 35q-4 39 -4 36q82 -104 164 -259q98 -183 124 -314q-23 0 1 -337zM757 742
l-27 -55l-17 7l27 54zM685 1290l-12 12l-40 -40l11 -13zM663 1209l-16 10l-28 -41l16 -11zM838 992h-17l-25 -102h18zM803 867l-12 12l-29 -28l11 -13zM663 925v31h-20v-31h20zM780 824l-17 6l-26 -53l17 -8zM732 668l-12 11l-29 -28l12 -13zM640 411l-16 10l-28 -41l16 -11
zM605 346h-20l-14 -55h20zM593 270l-16 10l-28 -41l16 -11zM569 217h-17l-50 -133l17 -7zM522 59l-16 10l-27 -41l15 -12zM705 357q-54 23 -69 110q-9 64 -18 127q-118 -649 -569 -1054h98q63 -2 305 225q249 232 233 306q3 4 6 10t3 5v-15zM475 -68l-17 6l-15 -30l17 -7z
" />
    <glyph glyph-name="asterisk" unicode="*" horiz-adv-x="981" 
d="M589 544q-14 0 -29 14q-21 19 -30 23q3 12 23 25t20 28q0 11 -7 26q0 -1 23 -116zM542 547q-17 -15 -72 -15q29 59 29 113q0 -35 43 -98zM217 840l-15 -32l-17 7l15 32zM146 815q-9 0 -12 -9t6 -17q-11 0 -26.5 17t-15.5 34q0 -25 48 -25zM907 1304q-38 -75 -107 -141
q15 38 4 60q-4 -9 -20 -30q-12 -17 -12 -29q0 -15 13 -33l-67 -66l-14 12q-33 -7 -60 -61q-6 144 3 205q28 70 44 147q71 -20 216 -64zM692 1115h-18l-15 29l18 7zM979 763q-42 10 -68 -39l16 77l29 15q-17 17 -43 17q-18 0 -17 -4q5 -21 5 -14q0 41 18 50q-6 4 -13 10.5
t-9 44.5q-14 0 11.5 4.5t55.5 4.5v-59q-16 40 -47 40q-12 0 -22 -9q26 -19 47 -62q18 -38 37 -76zM627 1011q-44 -24 -84 -4q0 6 8 22.5t8 22.5q0 -6 13 -24q14 22 23 61q14 58 15 61q0 -74 -19 -103q35 -36 36 -36zM758 901q-11 20 -69 20q14 22 14 33q23 -9 29 -14
q13 -10 26 -39zM388 1237h-21v33h21v-33zM503 1090q-12 12 -38 12q-14 -15 -14 -37q1 20 -16 49.5t-34 59.5q-14 -14 6 -34q-28 16 -43 46q-7 -17 -38 -47q0 6 -6 23.5t-6 23.5q20 -19 33 -6q-24 25 -24 39q0 3 4 3q4 10 20 31q-42 43 -79 43q-30 0 -32 -2q23 22 45 62
q32 58 34 61q32 -12 66 -64q19 -35 39 -69l-13 -9l9 -52q23 22 27 22q6 0 14 -4q-25 -19 -73 -49q4 -7 7.5 -12.5t22.5 -5.5q10 0 11 4q0 3 -4.5 8.5t-4.5 8.5q1 4 10 4q14 0 14 -5q0 -1 -2.5 -5.5t-2.5 -7.5q1 -4 3 -7q10 10 10 36q15 -14 32 -60q12 -30 23 -60zM883 864
q0 -17 -7.5 -34.5t-7.5 -25.5q-7 15 -39 54q-17 -39 -68 -56q21 -21 60 -38q-27 10 -92 66q-70 60 -78 64q6 3 15 -3q12 -9 28 -9q19 0 17 8q-6 24 -6 16q8 -25 27 -73q11 16 24.5 32.5t28.5 16.5q17 0 16 -7q-1 -13 3 -17q13 24 51 60q0 -4 14 -20.5t14 -33.5zM486 994h-21
v44h21v-44zM570 943q-18 -20 -62 -35q7 58 -1 82q20 0 31 -11q6 0 0 -10q-9 -16 -9 -29q-9 -9 19 -9q22 0 22 12zM493 921h-47v45q6 0 47 -45zM634 529q0 6 -13 24q-9 -14 -17 -28q-13 -20 -32 -20q-15 0 -30 6t-31 6q-17 0 -20 -13q-5 -20 -7 -22q-1 15 10 26
q-28 -5 -35 -14q-14 -18 -25 -25v211q-1 21 19 64t37 52q0 -10 -22 -32v-43q33 -19 99 -13q-18 18 -48 18q0 3 5.5 10t5.5 24q0 23 -48 95q43 0 61 17q-11 -5 -5 -51q9 8 36 61q0 -22 -20 -42q11 -8 23 -8q0 -25 -35 -42q11 -16 38 -36q1 -23 16.5 -73t15.5 -69
q0 -18 -9 -28q33 -33 31 -55zM438 900l-24 19q-26 -26 -6 -45q-4 0 -11.5 -8t-24.5 -8q-18 0 -23 13q-6 21 -8 23q-6 -6 -15 -9t-15 -9q19 -20 19 -42q0 6 -12 24q-21 -18 -65 -72q29 58 46 125q-6 6 -8.5 16t-8.5 16q-20 -60 -52 -115q1 20 -16 44t-33 47l-53 -8
q29 21 82 55q0 -41 22 -84q10 24 20.5 48.5t33.5 24.5q15 0 23 -20q9 -23 20 -29q7 -6 18 5q-13 6 -18 23q-8 30 -10 34q8 -25 19 -25q5 0 6 4v1q-3 -2 -10 -9q53 1 61 26q-1 -2 1 -15q0 -7 42 -50zM125 847q-14 7 -24 26q-13 24 -16 27q5 -6 8.5 -12t22.5 -6t16 -13
q-7 -34 -7 -22zM66 872q-16 6 -35 16l32 30q0 -43 3 -46zM838 1213v69h-21v-69h21zM789 1219l-51 114l-18 -7l52 -107h17zM680 836l-16 35l-17 -7l15 -28h18zM296 1187v58q-1 0 -39 39q-53 -26 -53 -48l28 23q9 -4 31 -45zM192 861l-13 12l-30 -29l12 -14z" />
    <glyph glyph-name="plus" unicode="+" 
 />
    <glyph glyph-name="comma" unicode="," horiz-adv-x="492" 
d="M219 189q-11 -41 -1 -88q-9 -14 -9 -38q-30 0 -56 27zM454 56q0 -56 -65 -180q0 27 -8 35q0 -14 -10.5 -28.5t-10.5 -16.5q0 -5 24 -6q-136 -99 -151 -109q-110 -73 -171 -83q0 3 -6.5 24.5t-6.5 41.5q50 23 147 83v-24q-1 -21 -1 -34q76 68 76 257q0 25 -1 48
q-6 10 -17 10q-13 -13 -13 -35q3 53 5 106q4 75 32 114q-1 -2 -7 -65q-5 -45 -25 -57q18 -18 26 -18q17 70 36 163q70 -47 124 -110q-35 -28 -35 -64q0 -29 17 -46q11 13 11 93q30 -61 30 -99zM354 222h-20l-12 -65h20zM378 52v78h-21v-78h21zM331 64v89h-21v-89h21zM401 48
h-21l-12 -124h21zM319 17v31h-20v-31h20zM354 -22h-17l-14 -38l16 -7z" />
    <glyph glyph-name="hyphen" unicode="-" horiz-adv-x="670" 
d="M595 515q-59 -200 -148 -200q-27 0 -28 1q-16 17 -31 35q-19 -20 -7 -32q-24 0 -85 -1q-80 -1 -138 -1q0 95 -13 150q15 14 60 33q39 17 46 17q15 0 27 -12t27 -12q17 0 26 11.5t13 11.5l32 -130q8 23 7 64q-1 51 1 66q23 0 78 6.5t68 6.5q18 0 25 -13l11 -23
q22 22 29 22zM130 307q-20 -25 -56 -25q21 58 56 152v-127zM458 400v44h-21v-44h21zM256 424l-14 55h-20l14 -55h20zM208 441l-17 6l-15 -31l16 -7z" />
    <glyph glyph-name="period" unicode="." horiz-adv-x="406" 
d="M406 160q0 -23 -28 -69q-37 -62 -90 -72l-51 -41q5 4 5 9q0 24 -28 24q21 0 36 14q-8 7 -11 25t-10 25q-22 -44 -102 -71q-7 21 -28 71q-13 -13 -33 -26l34 40q29 -29 29 -43q-13 155 150 299q4 -8 1 -24q-4 -24 -4 -35q35 0 35 44q37 -37 37 -52q0 -3 -3 -4l-24 -22
q21 -22 51 8q34 -69 34 -100zM220 356q-116 -170 -164 -267q0 5 -4 14.5t-2 17.5q2 12 15 31q-25 25 -22 25q-5 -1 -9 -5q8 7 4 71q46 0 55 10q-11 10 -42 10q45 74 169 93zM310 235l-15 14l-35 -34l14 -16zM262 240v25h-39v-25h39zM240 197l-20 7l-18 -37l20 -8zM112 205
v38h-24v-38h24zM237 102l-8 20l-34 -17v-21z" />
    <glyph glyph-name="slash" unicode="/" 
 />
    <glyph glyph-name="zero" unicode="0" horiz-adv-x="1067" 
d="M506 48l-29 -29l-11 13l28 28zM317 123q-20 -10 -54 -55v68q4 0 22.5 -6.5t31.5 -6.5zM190 181q-15 -27 -41 -78q0 13 -14 42q-19 37 -23 50q6 -11 13 -21q7 -13 25 -13q17 0 26.5 10t13.5 10zM721 1332q-25 0 -25 -24q-12 17 -46 46q-9 -17 15 -64q-8 -17 -51 -49
q6 -35 -44 -49l-21 -21q0 -17 17 -17q-35 -59 -78 -171l-34 36q3 -9 -1 -33q-2 -17 15 -30q-26 -79 -76 -251q0 45 -14 177.5t-14 141.5q0 24 4 102q10 7 21 13q17 16 14 41q-5 -4 -18.5 -10.5t-13.5 -12.5q18 45 142.5 144t158.5 98h49v-67zM1047 952q-6 -12 -30 -21
q-36 -14 -37 -15q-17 -183 -164 -516q-177 -401 -336 -401q-21 0 -45 27v100q21 -11 68 -11q101 0 204 200q77 150 145 384q53 185 57 241q-69 31 -127 110h47q3 49 -42 49q-14 0 -26 -11q0 22 20 42q0 25 -20 4q48 266 153 266q89 0 89 -213q0 -84 -11 -152q14 -33 55 -43
v-40zM989 1264q-9 27 -29 78l-16 -78h45zM943 1242q-22 11 -26 41q-11 0 -32 -16q25 -25 58 -25zM613 1261q22 22 -2 46q0 -12 -26 -15q0 -3 28 -31zM426 978l-17 6l-14 -30l16 -7zM438 920l-17 6l-15 -30l16 -7zM306 841q-7 0 -17 -15q-16 -21 -17 -22q10 -11 32 -17
q0 51 2 54zM235 727v17l-34 -15l7 -16zM157 658l-7 16l-27 -14v-16zM421 -23v99q1 17 -31 91q-33 78 -35 93q-5 44 -5 96q0 55 10 184q9 119 7 183q-1 46 -11 178q-7 102 -5 161q-4 0 -7.5 -4.5t-19.5 -4.5q-19 0 -20 14q2 -19 2 24q14 14 31 -3v45q-112 -130 -192 -347
q-82 -221 -82 -406q0 -56 1 -78q18 -4 18 -11q0 -2 -8.5 -12.5t-7.5 -19.5q7 -86 83 -181q82 -102 163 -102q-3 0 35 5q24 3 74 -4zM332 349l-12 12l-40 -40l12 -12zM252 283l-16 6l-15 -29l16 -8z" />
    <glyph glyph-name="one" unicode="1" horiz-adv-x="811" 
d="M329 96h-17l-15 28l17 6zM348 79q-16 -16 -16 -43q-3 9 -19 30q24 13 35 13zM276 2q-11 5 -22 22q-8 14 -19 14v45q0 -1 25 -37q14 -20 16 -44zM111 105q-10 -32 -10 -126h-44v50q-1 21 54 76zM602 925q-14 -52 -29 -103q-18 -55 -49 -57q6 -6 34 -6q-15 -36 -35 -100
l-23 -20q12 -8 23 -8q-3 -11 -37 -37t-54 -30q0 50 -11 50q-5 0 -11 -4q0 9 14 8q15 0 24 -9q6 7 1 17q-7 17 -7 30q0 16 63 110q76 115 97 159zM722 1363q-26 -126 -98 -364q-10 -25 -96 -148q-72 -103 -67 -136q0 6 -12 23q-98 -199 -124 -199q-14 0 -19 9t-8 9
q-4 -1 -9 -3q0 -9 12.5 -18.5t21.5 -9.5q0 -20 -22 -42q0 -21 6 -27q21 21 29 21q-11 0 -11 -27q0 -24 52 -76q12 7 12 18q0 -18 -29 -47q59 -59 59 -99q0 -52 -59 -111q12 -9 23 -9q-17 -44 -34 -87q-20 -39 -65 -39q-8 0 -47 -8t-61 -8q-34 0 -50 17v147q34 54 102 155
q-6 -25 10 -58q10 11 33 40t42 48q-4 7 -8 12.5t-22 5.5h-28q-17 0 -15 7q2 12 -2 16q-77 -113 -132 -222q61 210 128 369q-3 33 21 111q38 118 40 128q0 -5 12 -23q5 10 -0.5 35t0.5 35q18 -18 30 -6q-24 24 -24 41q0 2 48.5 165t48.5 210q-159 -135 -228 -268
q-5 0 -23 -5.5t-31 -5.5q0 3 -7 12.5t-7 26.5q0 58 192.5 248.5t248.5 189.5h167v-53zM438 504q-3 3 -42 3l29 32q13 -24 13 -35zM303 610l-7 -16l-39 14v17zM412 280l-14 -55h-20l14 55h20zM540 721l-17 6l-15 -30l16 -7zM434 728v32h-20v-32h20zM417 757v20h-32v-20h32z
M341 705v43h-21v-43h21zM383 653q-10 0 -17 6q-8 7 0 15q-24 -24 -47 -24q62 0 64 3zM363 624l-12 12l-29 -29l11 -12zM512 558q-6 0 -31 -6q-20 -5 -32 -5q-28 0 -43 25l-15 14q-14 -29 -52 -92q8 8 18 5q9 -3 9 -13q0 -7 -5 14q-1 4 17 4q8 0 13 -19q6 -25 39 -46l-15 -17
q0 6 -18 7q-21 1 -27 7q20 -26 43 -26q9 0 27 34q23 46 24 47l-28 -22q-11 11 14 35q32 0 32 -12q-11 44 30 66zM289 536q-28 0 -28 21q0 2 -5 -44q-3 -30 4 -44q8 22 29 67zM436 346q0 -11 -12 -18q-5 12 -5 31v0q0 16 -6 22q8 -9 -18 -35q25 -25 25 -39q16 0 16 39z
M372 368q-39 19 -43 48v-30l-22 7q50 -25 65 -25zM305 455h-17l-38 -74l17 -7zM340 321q-14 -15 -49 -42v-54q31 0 46 15q-11 24 -7 39q10 37 10 42zM346 119q0 5 -7.5 19.5t-7.5 20.5q0 -11 -17 -27q11 0 32 -13zM277 97q-31 31 -46 61q4 4 13 12l2 2q-5 14 -49 14v-41
q24 -25 80 -48z" />
    <glyph glyph-name="two" unicode="2" horiz-adv-x="1069" 
d="M402 498l-35 -15v18l28 14zM332 393l-43 -29l-10 17l42 28zM559 100l-28 -43l-16 12l28 41zM934 1322q-6 0 -28.5 5t-28.5 5q0 12 28 39l-18 -23q6 -6 23.5 -13t23.5 -13zM867 1320h-20v32h20v-32zM986 1180l-28 -43l-16 12l28 41zM627 1438l-7 -17l-39 14v17zM694 1436
q0 -23 -6 -65.5t-6 -69.5l-12 22q-11 17 -22 17q-9 0 -18 -10q0 7 17 10q21 4 27 10q0 29 -38 41q-3 -9 8 -20q-5 5 -12 23q-5 13 -12 13q43 0 74 29zM614 1346q-25 -3 -65 37l24 -17q7 7 3 23q-5 25 -5 24q25 -49 43 -67zM535 1403h-20v32h20v-32zM481 1388
q-8 -23 -86 -101q-69 -70 -69 -128q0 -26 12 -54q-4 8 -15 23l-18 -20l11 -64q8 0 18.5 13.5t10.5 22.5q49 -49 90 -72v-57q-45 -26 -176 -69q24 24 3 45q-9 0 -45 -36q-46 26 -58 54q-8 17 -8 64q0 117 105 240q89 104 142 115q2 -26 2 -37q4 -10 15 -10q10 32 41 96
q0 -10 -20 -30l18 -18zM1029 1111q0 -15 -48 -39q0 -5 12.5 -15.5t19.5 -23.5q11 11 11 30q0 -43 -59 -169q-61 -134 -96 -134q-13 0 -13 4q0 2 2.5 6.5t2.5 7.5q0 4 -3 6q-43 -82 -189 -183q-125 -86 -250 -173q-9 13 -20 9q-39 -76 -212 -182q6 -6 9 -20.5t9 -20.5
q12 12 29 12q15 0 22 -13q9 -17 19 -22q9 8 6 25q-2 16 -11 16q58 5 155 4q65 -1 155 -6q85 -4 88 -4q77 0 102 11q52 22 84 107h41q16 -13 27 -13q-57 -182 -123 -256q-76 -86 -204 -86h-111q-12 0 -12 5q0 2 2.5 7t2.5 7q0 5 -11 5q-15 0 -172.5 -6t-171.5 -6q-10 0 -11 4
q0 2 4.5 7.5t4.5 7.5q-1 4 -10 4q-13 0 -40 -13q-35 -17 -48 -21v75q-1 31 54 87q5 63 80 142q128 134 146 157q0 -24 18 -24q18 33 55 82.5t43 49.5q13 0 14 -4q0 -2 -2.5 -6.5t-2.5 -7.5q0 -4 3 -6q22 42 64 94q39 26 104 117q91 128 103 141q7 41 68 210l-19 19
q-7 -7 -14 -41v76h13q-14 52 -52 139q12 5 19.5 32.5t10.5 31.5q2 -2 12 -24t24 -36q10 11 17 54q7 40 25 50q0 -4 -13 -17q0 -5 14.5 -13t21.5 -21q-21 -21 -13 -21q-23 -25 -23 -43q0 -14 14 -26q-6 6 -11 7t-11 7q-28 0 -28 -27q24 -14 82 -11q0 -43 -23 -55q0 -18 8 -26
q19 4 37 33q15 25 15 36q0 2 -1 2q-3 -3 -11 -16q11 -9 22 -9q0 -6 -22 -28q6 -6 15 -9t15 -9q16 14 23 36q6 23 -5 32q9 -2 11 9t-3.5 22t-14.5 10q-5 32 2 45q0 -14 13.5 -29t27.5 -30q9 10 6 59q0 -3 -3.5 -10.5t-1.5 -9.5q3 -4 16 -4q17 0 13 -7q-5 -12 0 -16q12 6 23 6
q-4 0 -5.5 -15t-18.5 -15l-21 12q0 -5 6 -23t6 -24q-13 12 -24 12q-20 -20 -20 -54q0 -30 35 -101q13 22 16 94q23 -8 55 -40zM749 1261l-15 34l-17 -6l14 -28h18zM993 1013q-11 11 -18 32q0 -11 -28 -20q6 0 23.5 -6t22.5 -6zM997 982l-30 30l-12 -12l29 -29zM919 998v43
h-38l32 -6zM737 877h-20l-13 -67h21zM547 537l-15 46l-17 -6l14 -40h18zM500 537v43h-21v-43h21z" />
    <glyph glyph-name="three" unicode="3" horiz-adv-x="1067" 
d="M797 202h-21v43h21v-43zM703 119h-21v67h21v-67zM687 81l-34 -15v17l28 15zM235 234q0 -45 -19 -45q-4 12 -15 30q23 15 34 15zM253 159l-16 -31l-16 7l15 30zM182 119h-21v55h21v-55zM945 959q-6 0 -28 11.5t-28 11.5v44q4 0 7.5 -11t20.5 -11t20.5 5t7.5 5v-55z
M1065 1129q0 -79 -45.5 -138t-89.5 -117q-2 2 -18 23q-10 13 -17 13q-17 -15 4 -56q-14 -4 -64 -36q-44 -27 -60 -27q-17 0 -26.5 7t-13.5 7q0 4 -6.5 16.5t-6.5 29.5t11 27.5t10 13.5q9 5 20 -6q3 3 3 5t-10.5 12t-10.5 25q0 10 33 62t34 80q3 57 9.5 71.5t6.5 10.5
q0 19 -38 80q-34 56 -44 64q43 0 43 -8l16 18q-4 7 -8 12.5t-22 5.5q-13 0 -44.5 17.5t-44.5 17.5q-14 0 -20 -6t-21 -6q-16 0 -13 8q5 11 0 16q-142 -71 -164 -71q-19 0 -24.5 8t-11.5 16l-18 -18q5 -5 10.5 -18t9.5 -13q3 1 6 3q-30 -28 -30 -81q0 -57 28 -92
q-39 -39 -39 -63q0 -6 2 -11q-11 0 -40 -15q-9 3 -17 3q-13 0 -28 -19t-38 -19q-53 0 -53 94q0 45 27 89q-2 6 -8 14q9 10 40 73q25 49 42 49q13 0 13 -4q0 -1 -2.5 -5.5t-2.5 -7.5q1 -4 3 -7q21 22 9 41q2 -20 16 -64q25 23 25 63q30 30 30 31t-2 1q-4 -1 -13 -5
q26 6 85.5 43t90.5 43q0 -26 20 -46q8 9 8 25t-8 16q-2 0 76 6q52 3 83 -4q-11 -11 -35 -60l17 -19q12 24 47 83q48 -47 78 -47q16 0 16 4q0 2 -15 17q200 -104 200 -275zM884 946l-27 23q-8 -7 17 -58q-16 0 -27 11q-12 -36 -50 -95q1 10 -25 106q3 -3 24 -18
q15 -10 15 -17q-10 53 -18 53q-5 0 -10 -4q9 28 29 81q0 -23 13 -36q6 0 19 10.5t19 10.5q0 -15 -11 -26q32 -32 32 -41zM869 896l-14 -55h-20l14 55h20zM720 790q-4 -8 -23 -29q-14 -15 -14 -28l-40 35q-60 0 -60 23q4 -3 10 -3q8 0 55 26q0 -25 15 -34q11 7 8 23
q-6 29 -6 23q13 -13 35 -13q0 -14 -14 -27q11 -11 34 4zM644 718q4 -17 -2 -33q-8 -23 -8 -47q-12 29 -49 94q-20 -20 -11 -29q-11 10 -41 10q-132 -218 -212 -343q2 4 4 9q86 135 232 350q0 9 -30 39q-9 -9 -9 -15t9 -15q-7 7 -21 4l-21 -5q6 1 24 13q-10 10 -35 10
q8 10 18 20.5t29 10.5q16 0 15 -6q-1 -13 2 -17q6 6 13 17.5t13 17.5q0 -50 11 -71l23 24q22 -22 46 -38zM980 423q1 -8 1 -17q0 -91 -82 -206.5t-163 -140.5q11 93 5 106q-2 -30 -22.5 -55t-20.5 -34q0 -15 23 -39q-13 4 -58 -19q1 0 23 22l-18 18q-23 -25 -46 -51
q-22 -20 -48 -20q-15 0 -18 6t-17 6t-14 4q0 1 2.5 5.5t2.5 7.5q-1 4 -3 7q-8 -8 -8 -46l-217 -2q-19 0 -121 39q-7 5 -6.5 19.5t-1.5 19t-13 17.5l-24 -24q-68 54 -85 140q-8 65 -15 130q12 10 85 51q82 46 98 46q15 0 12 -12t12 -12q17 0 26 5.5t13 5.5q2 -10 2 -21
q0 -26 -17.5 -80.5t-17.5 -80.5q0 -94 91 -142q69 -27 138 -53q19 19 7 31q44 19 123 51l43 8l-36 34q11 10 30.5 43t33.5 47q7 6 10 41q3 117 21 272q0 24 -19 5q-3 7 -3 15t7.5 29.5t7.5 41.5q0 10 -1 21q-21 -16 -21 -36q-3 30 9.5 69.5t25.5 48.5l35 -35q21 21 29 21
q-2 -5 -34 -35q-26 -25 -25 -49l17 -20q4 15 28.5 45.5t30.5 48.5l47 -30l55 -45q-17 -14 -17 -25q0 30 -18 41q-10 -6 -14.5 -20.5t-9.5 -19.5q7 -3 31 -25q20 -17 34 -17q17 0 21 10.5t7 10.5q-1 -8 22 -56q24 -51 24 -76q0 -26 -21 -37q11 -8 22 -8zM920 1088v93
q-1 0 -43 -11q-25 -6 -25 -24t29 -36q19 -11 39 -22zM855 1096l-30 30l-11 -13l28 -29zM548 1361v32h-20v-32h20zM389 1160q-21 67 -69 63q10 0 24.5 -12.5t14.5 -29.5l-25 24v-45h55zM820 680l-16 6l-15 -30l16 -8zM363 1110q-11 11 -27 24q-7 -14 -4 -37q5 -33 5 -28
q0 14 18 30q12 11 8 11zM921 527v21h-43v-21h43zM384 1085h-20l-14 -55h20zM812 579v41q-1 -6 -16 -13t-15 -13q12 -12 31 -15zM923 465q-16 9 -44 30q0 -6 6 -23t6 -23q11 11 32 16zM329 1046v20l-55 14v-20zM946 374q-9 0 -19 12t-10 21q0 -4 -9 -8.5t-9 -21.5t16 -17
q17 0 31 14zM667 644l-17 6l-15 -30l16 -7zM874 408v21h-32v-21h32zM890 404l-12 12l-41 -41l12 -12zM524 682l-54 53l-11 -12l52 -53zM454 763l-17 6l-15 -31l16 -7zM229 261v44h-20v-44h20zM192 270l-54 41l-10 -16l53 -40zM158 214v43h-20v-43h20z" />
    <glyph glyph-name="four" unicode="4" horiz-adv-x="1067" 
d="M533 117l-14 -30l-17 7l15 29zM544 45l-29 -29l-11 12l28 28zM688 1297q0 -74 -28 -114q0 42 8 42l-17 15l-42 -90q-33 -66 -88 -105q-4 114 20 114q17 0 20 -6t7 -6q10 11 3 30q20 47 117 120zM1013 495q-19 -26 -26 -68q-3 -17 -48 -17q-19 0 -29.5 6t-22.5 6
q-17 0 -29 -10.5t-16 -10.5q0 5 8 19q10 19 16 37q-10 -6 -20 -13q-19 -16 -19 -43q-6 0 -28 21q-68 -29 -91 -151q-23 -125 -62 -146q-2 -11 1 -17q3 -7 11 1q-4 -4 -6 -29t-13 -37q-48 -47 -115 -47q-10 0 -39.5 2t-68.5 2q28 15 13 34q0 29 -7.5 106.5t-7.5 91.5
q0 16 58 160q-3 3 -5 19q-1 11 -18 11q-28 0 -28 -12q2 23 -17 137q40 -2 105 3q14 18 40 54q2 28 19 92q16 5 39 23l6 56q6 45 35 61q-4 22 -4 49q0 108 77 325q-24 28 -15 108q38 29 76 57q69 49 112 49h68q14 0 27 -13t13 -27q0 -25 -22 -109q-24 -92 -48 -148l-26 -25
q-42 1 -42 -52q0 -2 12 -52q9 11 9 34v37q1 11 4 19h43q-19 -71 -38 -143q-22 -81 -54 -124q12 -11 23 -11q-20 -26 -39 -104q-28 -119 -30 -126q23 0 67 -2q32 -4 44 -29q18 18 5 31q10 0 30 -20q66 33 73 33v-98zM603 789l-12 -66h-20l12 66h20zM483 1076q-16 -20 -22 -51
q-7 -39 -10 -44q-13 -17 -142 -203q-102 -147 -160 -200q11 -5 20.5 -26t21.5 -27q24 0 5 21h182q0 -9 6.5 -38.5t6.5 -45.5q0 -15 -9 -32q-16 -27 -17 -31q-26 13 -99 13q0 6 5.5 23.5t5.5 23.5q-5 9 -16 9q-10 -9 -10 -55h-55q0 6 11 24q-11 2 -26 -26q-56 0 -91.5 6.5
t-31.5 6.5v83q0 37 135 224q157 217 171 244q0 -14 21 -35q17 39 33 77q24 52 65 59zM522 205h-20v54h20v-54zM959 1367l-11 15l-41 -26l10 -17zM902 1138l-14 34l-17 -7l14 -27h17zM845 1226h-20l-12 -88h20zM753 1121v117h-20v-117h20zM792 1091q0 40 -17 56
q0 -5 -6.5 -21.5t-6.5 -22.5q10 0 30 -12zM822 1011v123h-20v-123h20zM729 1034v31h-19v-31h19zM799 942v54h-20v-54h20zM764 996h-17l-14 -39l16 -6zM798 927h-17l-14 -39l17 -6zM579 1128l-13 11l-28 -28l11 -12zM749 824l-6 17l-27 -14v-17zM979 487q-19 38 -31 50
q0 -28 -15 -42q12 0 32 -8q14 -6 14 0zM735 515q-11 38 -25 91q-19 -19 -19 -34q0 -37 44 -57zM625 476l-29 29l-12 -12l28 -28zM706 343l-14 34l-17 -7l14 -27h17zM637 274v54h-20v-54h20zM588 294l-6 17l-27 -14v-17zM568 270h-17l-14 -38l17 -7zM299 508q-16 16 -44 16
v-44q35 12 44 28zM603 163l-17 6l-15 -29l17 -7zM522 159v31h-20v-31h20zM476 221l-17 6l-14 -30l16 -7zM154 453l-39 52l-16 -10l39 -53zM411 -3v194q-66 -95 -65 -133v-61h65z" />
    <glyph glyph-name="five" unicode="5" horiz-adv-x="1067" 
d="M833 587h-21v31h21v-31zM785 639l-15 -32l-16 8l15 30zM727 398h-21v43h21v-43zM786 198h-21v43h21v-43zM722 354q-23 -11 -30 -89q-4 -62 -8 -125q-15 9 -15 20q5 -16 5 -139q-23 -4 -102 -23q-63 -14 -79 -14q-34 0 -31 3q10 12 -16 32q-8 -8 -8 -35h-85
q-113 0 -208.5 95.5t-95.5 202.5q0 16 3 31q66 38 192 94h41q1 -25 -11 -85q-14 -63 -14 -95q0 -71 51 -115q26 -23 76 -46q40 -18 79 -36q4 23 56 55q63 39 79 61q30 40 60 115q21 53 42 107zM950 1420l-14 -46l-17 6l14 40h17zM974 1306h-17l-15 28l17 6zM1039 1432
q0 -9 -14.5 -27t-22.5 -18l-21 -21q0 -3 12.5 -12t12.5 -26q0 -25 -37.5 -66.5t-78.5 -62.5q0 6 -4 20t-4 20q0 -8 21 -30q4 66 -9 72q-32 -26 -32 -105q-11 1 -30 10t-26 9q-14 0 -23 -23q8 -9 -19 -9q-17 0 -26 47q-13 72 -17 83q-11 -7 -6 -15q8 -13 8 -15l-1 -3l-13 10
t-28 10q-17 0 -16 -1q6 -8 6 -10q17 30 -4 94q8 -29 29 -71q20 0 38 18q-8 8 -34 8q2 11 2 21q0 24 -36 82q22 -23 45 -23q97 0 199 21q-9 -10 -33.5 -25t-36.5 -27q0 -19 10 -29q42 -21 67 -46q3 5 14 21q9 24 -7 24q-4 0 -7 -3q16 16 43 16q0 10 6 40t6 42h67zM835 1251
q-9 0 -22.5 -13.5t-13.5 -21.5q0 6 4.5 26t4.5 26q16 -17 27 -17zM796 1254l-13 -12l-40 41l12 12zM786 1200h-21v32h21v-32zM646 1334q0 6 -11 17q-10 -12 -10 -23q-29 28 -29 46q19 -8 50 -40zM552 1357q-2 0 -26 8q-18 6 -25 -1q13 23 13 34q2 -2 19 -25q12 -16 19 -16z
M719 1175q-10 15 -32 42q27 -6 27 5q-7 -7 -2 -24q7 -22 7 -23zM676 1199l-6 -17l-31 16l7 16zM632 1200h-20v43h20v-43zM650 1170h-32v20h32v-20zM605 1223l-5 -17l-55 27l7 16zM481 1275q-4 0 -5.5 -15t-18.5 -15q-23 0 -23 -18q0 5 4.5 28.5t4.5 36.5q17 -17 38 -17z
M480 1149l-14 -55h-20l14 55h20zM880 709l-16 -31l-16 7l15 30zM434 1086q-10 9 -41 9q11 11 18 56q0 -42 23 -65zM863 1325q-6 0 -20 -7.5t-20 -7.5q11 0 24 -18q11 11 16 33zM514 1318v31h-20v-31h20zM528 1192v59q0 -29 -35 -29q-14 0 -22.5 -6.5t-27.5 -6.5
q-12 -12 -12 -46q52 27 78 14q-26 26 1 45q18 -12 18 -30zM734 853q-42 21 -65 21q12 0 27 -12.5t15 -29.5q0 -2 -9 -5q-12 -4 -19 -27q-11 -33 -15 -109q51 102 66 162zM434 1003q-6 6 -15 12t-15 12q6 6 6 35q0 -13 -14 -35.5t-14 -27.5l26 7q19 4 26 -3zM715 634v32h-21
v-32h21zM596 791q-6 0 -6 41q-7 -4 -30 -22q-16 -13 -30 -13q-6 6 -8 17.5t-8 17.5q0 -29 -21 -29q20 0 20 -28q58 19 83 16zM626 704q-6 10 -11 85q-1 26 -10 48q17 18 17 37q0 -6 -23 -30q-7 6 -27 33q-12 14 -26 14q-42 0 -77 -35q-11 11 -9 13q13 -24 -15 -48
q-59 49 -83 176q0 -51 5 -116q2 -30 -4 -37q-24 24 -24 42q0 -35 -16 -51q23 15 34 3q-9 -9 -19 -35q-7 -18 -21.5 -18t-14.5 -6q0 -2 2.5 -7.5t2.5 -8.5q0 -5 -3 -7q9 9 25.5 17t21.5 12q9 -8 9 -34q7 3 26 21q13 13 30 13q15 0 15 -11.5t14 -11.5q15 0 15 11.5t15 11.5
q19 0 24 -5q-17 -8 -15 -12q1 -2 3 -2q84 -19 139 -62zM982 479q0 211 -162 329q0 -38 -8 -46q-9 17 -9 69q-6 0 -27.5 6t-27.5 6q-6 -29 -35 -105q-26 -68 -26 -82q0 -15 15 -49.5t15 -51.5q0 11 12 18l17 -19q-23 -69 8 -105q-18 -28 -18 -39q11 0 24 11
q-46 -255 -46 -378q153 107 208 192q60 93 60 244z" />
    <glyph glyph-name="six" unicode="6" horiz-adv-x="1067" 
d="M293 140h-21v32h21v-32zM965 376h-20l-13 67h21zM853 1410q0 -41 -55 -68q0 16 -18 34q-9 -41 -107 -155q-126 -148 -152 -186q-10 13 -18 3q-14 -57 -123 -397q-73 -231 -73 -340q0 -24 3 -44q-29 13 -80 38q12 31 47 74q-19 25 -52 40l-39 -35q0 27 -9 35
q-12 -6 -12 -17q0 9 -11.5 56t-11.5 69q0 20 8 28q15 6 15 23q0 -17 12 -29q8 7 34 59q3 -3 6 -3q15 0 -9 48q13 -6 24 -30q9 -20 18 -39q9 0 11 10q1 11 -8 20q17 16 62 16q9 -2 9 25q0 18 -16 30q-13 9 -25 17q-22 -21 -22 -35q-5 6 -20 9q-10 2 -8.5 9.5t-8.5 28.5
l-22 -22h-43q0 8 12 28q-7 8 -13 17q-5 6 -13 -1q1 10 26 33q-4 9 -21 25q-13 12 -13 25h41q13 -7 13 -69q-20 20 -20 -7q0 -16 11 -22q15 -9 20 -19q31 21 98 77q-5 6 -30 47q-17 30 -35 30q-14 0 -20 -12t-21 -12q-11 0 -11 5q0 2 2.5 7t2.5 7q0 5 -11 5q-19 0 -17 -5
q5 -21 5 -13q0 41 47 135q0 -6 11 -23q20 32 20 40q0 13 -13 24q90 128 248.5 255t277.5 164l22 -23q-10 23 18 23h31q15 -13 26 -13zM984 515q0 -221 -177 -385q-169 -157 -377 -157q-170 0 -252 113q3 31 -31 47q42 5 64 -7q27 35 21 72q-17 0 -17 -47q-20 12 -30 12v45
q4 -3 7 -3q4 0 17 8t26 8t14 -4q0 -2 -2.5 -6.5t-2.5 -7.5q1 -3 3 -6q25 25 7 44q35 -10 56 1q-9 -18 -9 -40q0 -55 47.5 -106.5t99.5 -51.5q125 0 205 209q60 158 60 280q0 118 -68 168q-11 8 -91 24q1 -3 2 -3q5 0 2 22q-2 21 -13 21q-4 0 -10 -4q44 32 89 64
q35 21 101 21h17q14 1 22 1q95 0 110 -120q11 9 8 59q75 -80 93 -147q9 -32 9 -124zM222 741h-21v44h21v-44zM107 185q-54 189 -54 254q0 85 54 300v-554zM151 364h-20v43h20v-43zM894 682v44h-21v-44h21zM941 447v66h-20v-66h20zM327 1002l-13 11l-28 -28l11 -13zM256 554
l-12 11l-29 -28l11 -13zM245 447v31h-20v-31h20zM210 399v44h-20v-44h20zM198 222v32h-20v-32h20z" />
    <glyph glyph-name="seven" unicode="7" horiz-adv-x="1081" 
d="M507 254q-9 -21 -29 -65q0 27 -27 53q13 0 32.5 6t23.5 6zM478 184l-15 -30l-16 7l14 29zM397 209l-11 -12l-29 29l13 11zM444 100h-20v53h20v-53zM375 111h-19v31h19v-31zM262 179h-20v54h20v-54zM386 54h-16l-14 27l16 7zM235 161q-11 -21 -43 -39q6 11 14 39t13 39
q0 -23 16 -39zM273 125l-27 -41l-15 11l27 40zM258 35l-29 -28q-27 28 -27 42q25 10 25 14zM239 1157h-20v30h20v-30zM997 1360q0 -15 -129 -279q-155 -318 -206 -437q-23 23 -44 23q-10 -10 9 -29q-15 15 -40 -10q29 -8 68 -26q-10 0 -19 -12.5t-27 -12.5q0 -16 23 -16
q-39 -94 -53 -123q-26 -53 -48 -73q10 -11 32 4q-21 -28 -68 -185q-37 -121 -101 -139l28 -27q14 22 25 51q-7 -21 -84 -73q0 10 5 21q3 7 -3 13q-39 -17 -55 -46q-5 5 -8.5 24.5t-16.5 32.5q-33 -17 -10 -40l-23 17q-9 -9 -9 -33q-5 7 -9 14.5t-22 7.5t-19 -4q2 8 2 -13
q0 17 -11 28q-10 -10 -10 -34q-25 44 -6 100l28 25q2 -2 15 -21q10 -13 16 -13q14 14 -14 42q24 0 45 43q-34 34 -34 69q0 28 28 28q17 0 21 6t8 13q0 11 -23 7q10 35 45 83q30 42 30 59q0 5 -1 9q19 39 19 38q35 -17 71 -33q7 -5 18 6q-17 11 -46 34l23 23q-22 22 -22 36
l28 26q25 -13 25 -23q3 3 3 8q0 10 -23 32q1 1 54 68q32 42 71 47q-11 8 -22 8q18 18 49 60t49 61q0 -8 -5 -27q-3 -12 3 -18q21 20 13 65q16 24 55 83l23 -23l17 17q-11 9 -22 9q34 63 113 184q-25 29 -62 29q-15 0 -17.5 -6t-16.5 -6q-15 0 -19 8q-8 17 -18 27
q-5 0 -5 -33q-105 6 -241 20q-118 12 -127 12q-24 0 -81 -77q-53 -72 -53 -82q6 6 7.5 21t7.5 21q-3 12 -21 18l-36 12l84 228q44 87 172 87q9 0 10 -4q0 -2 -4.5 -7.5t-4.5 -7.5q2 -4 10 -4q14 0 23 5.5t23 5.5q57 0 218 -16q-6 -18 20 -18h108q26 0 87 16q65 16 78 30
q9 -6 19 -11.5t10 -22.5zM428 307q-74 0 -101 9q0 4 39 43q16 -20 16 -16q-2 -3 -22 -12q23 -8 68 -24zM695 1290h-20l-13 -53h19zM830 1055v30h-20v-30h20zM284 1259v31h-19v-31h19zM694 839v41h-20v-41h20zM330 1202v31h-20v-31h20zM307 1157v53h-20v-53h20zM699 743v19
l-53 -13v-19zM586 673v20h-31v-20h31zM568 646l-12 12l-28 -28l11 -12zM159 1039h-16l-14 -38l16 -6zM597 516v19l-53 -13v-20zM512 555l-15 33l-16 -7l14 -26h17zM535 545l-16 10l-21 -28l15 -11zM478 543v42h-20v-42h20zM489 539h-17l-14 -38l17 -6zM523 429v31h-19v-31
h19zM501 378l-51 64l-15 -11l50 -63zM472 344v19h-31v-19h31zM375 418v42h-19v-42h19zM461 253v19h-31v-19h31zM350 359l-7 16l-26 -14v-17zM409 225v30h-19v-30h19zM347 230v20h-42v-20h42z" />
    <glyph glyph-name="eight" unicode="8" horiz-adv-x="1071" 
d="M891 325q-10 10 -54 10q5 6 30 11q21 4 21 10q-14 -14 3 -31zM828 358h-21v32h21v-32zM995 1387l-7 -17l-56 34l8 17zM1054 1358q-3 -3 -3 -69q-2 2 -27 12q-18 6 -18 24q0 33 48 33zM1034 1267q2 -7 -10 -26t-12 -31v85q0 -9 8 -19.5t14 -8.5zM993 1318q1 0 -24 -7
q-18 -5 -28 2q-8 -12 -4 -29q6 -31 6 -33q24 0 24 23q0 5 -4 9l30 -27q-9 0 -41.5 -14t-48.5 -14q-25 0 -50.5 25t-25.5 44q11 18 29 49q4 10 0 22q-5 12 -14 12q5 0 24 -4t33 -4q1 13 -24 37q7 -9 20 -109q5 0 15 12.5t23 18.5q-7 12 -18 12q6 0 14 15t14 15q10 -34 16 -39
zM990 1192q-1 6 -14 24q-13 -7 -13 -18q0 28 27 42v-48zM1064 1091h-80v21h80v-21zM715 1446q-6 -6 -107 -70q21 35 66 107q0 -5 16 -15q19 -13 25 -22zM973 1117l-15 -47l-17 7l15 40h17zM877 1012h-21v33h21v-33zM915 434q0 32 -11 43q-11 -13 -11 -24q-50 62 -79 62
q0 22 55 46q5 -21 27 -51q19 -27 19 -39v-37zM840 455h-21v44h21v-44zM877 382h-21v44h21v-44zM896 994q-5 -10 -11 -21t-25 -11q-32 0 -32 24q-4 -3 -4 -8q0 -10 24 -34q-13 -14 -53.5 -42.5t-67.5 -55.5q19 -22 56 -70q2 -21 -9 -55q-14 -42 -15 -55q29 -34 29 -80
q0 -32 -25 -43q12 -7 23 -7q0 -42 7 -133.5t7 -101.5q0 23 -17 -160q-129 -161 -365 -161q-159 0 -255 79q-103 85 -103 236q0 227 352 444q-6 14 -55 86q-42 61 -42 76q0 10 46 72.5t43 97.5q-55 -47 -95 -127q-5 12 6 24q-36 36 -36 85q0 300 350 415q-120 -197 -120 -258
q0 -93 46 -170q34 -56 118 -139q39 32 112 84q0 -39 8 -48q23 46 23 85q15 -12 42 -49q4 0 14.5 10.5t23.5 10.5zM679 307q0 96 -42 172q-36 63 -157 204q-347 -187 -347 -400q0 -95 83 -162.5t196 -67.5q105 0 179 59q88 69 88 195zM891 1246q0 7 -6 25t-6 24
q0 -11 -18 -27q30 0 30 -22zM524 1311l-29 29l-13 -11l30 -31zM513 1223l-17 6l-16 -31l17 -7zM404 1267v56h-21v-56h21zM489 1184l-17 11l-28 -43l16 -11zM379 1214h-17l-15 -41l17 -6zM440 1102l-17 6l-15 -31l17 -7zM852 624v69h-21v-69h21zM356 1097v69h-22v-69h22z
M332 1081h-21l-13 -93h21z" />
    <glyph glyph-name="nine" unicode="9" horiz-adv-x="1067" 
d="M621 274l-15 -31l-16 7l15 30zM616 162h-71q0 -23 -24 -72q-3 0 -25 23q-12 -13 -36 -48q0 19 -22 48q-6 -17 -36 -65q-6 -12 5 -12q-1 0 -57 -28q43 70 120 200q19 -13 59 -48q23 18 57 71q19 -13 30 -13v-56zM426 196q0 -5 -11 -25t-11 -33q-16 16 -26 16q12 0 48 42z
M335 13h-32v21h32v-21zM309 101q-18 -81 -8 -116q-18 -3 -58 38q6 11 33.5 38.5t32.5 39.5zM854 1259l-29 -30l-12 13l29 28zM925 1167l-15 -32l-16 8l15 30zM882 1184q-3 6 -6 6q-8 0 -5 -41q-12 13 -41 13v56h43q0 -6 4.5 -17t4.5 -17zM884 1072h-43v21h43v-21zM984 1004
l-6 -68h-20l6 68h20zM992 1143q0 -19 -113 -173q0 34 7 42q-29 30 -38 30l-20 -19q20 -24 46 -86q-4 0 -23.5 -11.5t-33.5 -11.5q24 25 15 44q-40 -20 -40 -27q0 -8 12 -18q-22 11 -33 11q-3 30 46 55l-9 87q-26 -27 -40 -64.5t-23 -46.5q29 12 29 36q0 15 -11.5 41
t-12.5 33q1 -6 14 -24q5 6 14 9t15 9q-11 8 -34 27q17 2 28 -9q9 15 29 42q-6 8 -55 -17q-5 55 4 135q-14 31 -29 62q-20 39 -46 61q-40 13 -91 50q-9 -9 -90 -79q-53 -47 -80 -89q2 -3 13 8q-9 8 -24 6q-15 -3 -15 -12q-18 19 4 41q-6 6 -15 9t-14 9q-6 -6 -15 -8.5
t-15 -8.5q11 -8 22 -8q0 -46 -22 -46q-3 0 -16 4q-7 3 -7 -4q0 -16 5 -33t5 -28q9 0 31 -23q12 13 21 34.5t13 25.5q18 -15 29 -15q-12 -28 -39 -92q-17 18 5 40q-3 9 -25 9q-5 -36 4 -58.5t9 -18.5v-52l-42 -39l-12 42q-10 29 -33 53q-6 -6 -15 -9t-14 -9q11 -12 29 -12
q-39 0 -65 -13q11 -11 53 -11q-11 0 -30 -2.5t-35 -2.5t-22.5 -11.5t-10.5 -11.5q0 16 -25 41q12 6 28 32t28 32q0 -9 10 -22.5t18 -13.5q2 7 11 23.5t9 18.5q0 7 -20 9q0 10 34 40v35q-23 23 -36 23q9 6 20 -5q22 0 27 5q-12 6 -29.5 24t-28.5 24q6 6 38 6q9 9 4 20
q-4 10 -13 10q3 0 10.5 3t24.5 3q14 0 25 21q17 29 20 33q33 32 133 68q94 33 139 33h67q87 0 170 -83q64 -63 102 -147q11 -18 22 -37q18 -30 18 -48zM829 887l-7 -17l-30 15l6 18zM756 882h-32v21h32v-21zM967 686q-4 0 -19.5 17t-31.5 17q-15 0 -24 -12t-23 -12
q-13 0 -15 9q-2 3 -11 3q-20 21 -20 -12q7 22 45 72q6 -6 7 -24t7 -24q34 14 67 11q2 2 4 3q11 0 14 -48zM774 861l-13 -56h-20l13 56h20zM785 793h-20v44h20v-44zM925 627h-20v32h20v-32zM902 615h-20v32h20v-32zM779 745q-9 9 -24 5q-15 -3 -15 -12v47q0 -5 15 -15
q17 -13 24 -25zM828 665q-4 0 -14 3.5t-27 3.5q-6 0 -29 -17q-26 -20 -58 -26q36 21 38 48q1 19 14 19l21 -12q0 9 55 -19zM325 1105q-41 0 -41 -10q0 30 13 30q8 -5 28 -20zM703 718l-15 -47l-16 7l14 40h17zM809 541q-1 3 -63 66q9 3 30 18q16 -22 16 -18q0 -3 -23 -13
q17 -17 35 -17t18 -11t-13 -25zM692 627h-21v32h21v-32zM869 488q-15 -24 -65 -59q5 0 6 12q3 18 9 30q-11 -11 3 -25zM668 615h-20v32h20v-32zM340 936h-17l-14 28l17 7zM340 895l-13 -11l-28 29l11 12zM806 508q8 -14 -19 -14q-34 0 -58 12q-19 -20 -19 -39q25 -3 70 -18
q-1 9 -28 9q-50 0 -71 -59q0 6 7 31.5t7 41.5q0 12 -3 22l-25 -23q0 5 -6.5 22t-6.5 24h37q16 16 -2 34q32 -22 75 -22q17 0 16 8q-6 24 -6 16q3 -10 18 -32q-2 0 -26 5.5t-44 5.5q20 -38 47 -38q22 0 37 14zM525 697l-7 -17l-30 15l6 17zM290 977q-18 -6 -59 -37
q6 -6 23.5 -13t23.5 -13q3 -1 -69 -1q10 29 30 81q0 -2 -3 -12q-1 -6 2 -9t17 -3q17 0 24 3.5t11 3.5zM761 437l-30 -30l-11 13l28 29zM478 695l-34 -15v18l28 14zM621 496h-20v32h20v-32zM212 965l-27 -56l-16 8l26 54zM765 339q-5 28 -30 28q22 18 30 18v-46zM500 640
q-6 0 -22 -7t-22 -7q8 26 -3 26q6 -6 23.5 -6t23.5 -6zM793 370q-21 -27 -65 -90q-16 47 -52 102q29 0 29 11q0 -29 19 -54q4 3 9 43q1 9 4 16h42q3 -11 14 -28zM165 941l-15 -32l-16 8l14 30zM224 846l-16 -10l-28 42l16 11zM364 686h-17l-26 52l16 7zM331 797
q-18 0 -29 -12q5 -6 5 -35q0 18 -11 29q-15 -15 5 -56q-10 0 -30 80q-4 -3 -5 -22q0 -13 -17 -13q-13 0 -13 3q0 2 2.5 6.5t2.5 7.5q0 4 -3 6q-17 -42 16 -80q-16 3 -37 23.5t-21 39.5q0 16 17 42q20 32 25 47q0 -9 12.5 -19.5t21.5 -10.5q-17 0 -41 -24l18 -18q19 12 49 36
q0 -9 12 -19.5t21 -10.5zM471 607q-4 0 -28 -9t-40 -9l-28 -23q0 5 13 24q16 23 22 34q3 0 6 -11.5t20 -11.5t24.5 3t10.5 3zM651 372l-40 -45q-20 39 -52 39l35 39q-6 6 -6 35q0 -19 11 -30q13 7 13 18q0 -6 7 -20.5t7 -19.5q-28 0 -28 11l-16 -19q6 -9 12 -19t23 -10
q30 0 34 21zM196 833q-2 -2 -8 -25q-4 -17 -21 -17q-13 0 -13 4q0 2 2 6.5t2 7.5q0 4 -3 6q-5 -6 -35 -6q3 0 53 26q-11 22 -21 51q11 -15 44 -53zM120 857q-1 1 -25 11q-16 7 -16 25q0 5 11 0q15 -6 19 -6q18 0 16 4q-5 21 -5 13q0 3 -4 -23q-3 -17 4 -24zM712 278l-46 -14
v17l40 14zM294 650h-20v32h20v-32zM360 570q-4 0 -14 9.5t-27 9.5q-18 0 -16 -7q7 -21 7 -16q-10 20 -43 52q5 6 20 12.5t20 12.5q-21 -22 0 -42q12 7 12 18q0 -28 41 -49zM253 614q-38 12 -67 12q0 6 22 28l-18 18l-25 -23q-4 17 -9 34q-8 20 -30 31q6 0 24 13q-8 17 -8 28
q9 -23 13 -23q17 0 21 4.5t8 4.5q0 -16 -11 -27q22 -22 22 -16q-2 -4 -10 -9q7 -9 14.5 -19t26.5 -10q16 0 19.5 11t7.5 11v-68zM569 240l-46 15l6 17l40 -15v-17zM536 203q-47 16 -47 41q0 18 6.5 23.5t14.5 10.5q1 -18 -10 -29q23 -46 36 -46zM1002 924v92q-28 0 -34 6
q18 6 27 36q8 26 3 43q-41 -66 -110 -177q14 5 39 22q3 -8 18 -29q-10 -5 -23.5 -29.5t-29.5 -24.5q-29 0 -11 -24q-10 27 -23 27q-9 0 -18 -12q38 0 70 -42l-51 -9q-22 22 -14 30q-2 -3 -18 -14q-10 -6 -10 -13q39 -19 103 -50v55l-22 21q16 8 29 4q12 -5 12 -15
q0 18 -18 36q24 24 41 24q-18 0 -18 20q45 23 58 23zM493 1381l-17 6l-15 -30l16 -7zM452 1275v20h-32v-20h32zM357 1077v68l-53 50q20 -47 53 -118zM220 1202q-11 11 -33 17q0 -44 -12 -57q16 14 45 40zM261 1178q-8 -8 -16 -3t-8 15q0 -4 -14 -6.5t-13 -20.5v-50
q14 21 51 65zM855 496v32h-20v-32h20zM192 1101q0 6 -4.5 23t-4.5 23q-16 0 -16 -52q0 18 12 30q11 -11 13 -24zM147 1076q-39 -19 -56 -66l48 -42q-15 14 -15 27q0 7 11.5 31.5t11.5 49.5z" />
    <glyph glyph-name="colon" unicode=":" horiz-adv-x="575" 
d="M561 788q-30 -113 -58 -158q-49 -77 -138 -77q-76 0 -177 63q49 52 103 238q106 -88 170 -88q23 0 58 11t42 11zM403 213q-30 -113 -57 -157q-48 -79 -135 -79q-73 0 -174 64q57 85 100 235q103 -83 166 -83q16 0 100 20z" />
    <glyph glyph-name="semicolon" unicode=";" horiz-adv-x="662" 
d="M651 788q-58 -237 -194 -237q-65 0 -176 70q65 80 106 231q84 -84 164 -84q26 0 100 20zM285 293q159 -97 159 -236q0 -258 -393 -401l-20 63q104 56 145 90q80 66 80 140q0 86 -100 127q-33 14 -33 22q0 4 77 95q43 50 85 100z" />
    <glyph glyph-name="less" unicode="&#x3c;" 
 />
    <glyph glyph-name="equal" unicode="=" 
 />
    <glyph glyph-name="greater" unicode="&#x3e;" 
 />
    <glyph glyph-name="question" unicode="?" horiz-adv-x="897" 
d="M301 383q-47 80 -47 139q0 66 55 125q23 25 110 92q195 151 195 346q0 93 -44 153q-50 67 -140 67q-78 0 -131 -51t-53 -128q0 -109 75 -108q39 0 39 -23q0 -26 -70.5 -71t-99.5 -45q-41 0 -69 64q-23 52 -23 99q0 158 153 274q141 107 304 107q141 0 229 -90t88 -231
q0 -161 -126 -299q-85 -94 -263 -205q-75 -47 -97 -66q-50 -46 -50 -100q0 -6 4 -35zM432 215q-28 -114 -59 -162q-49 -76 -142 -76q-77 0 -170 68q47 56 109 234q76 -82 168 -82q25 0 94 18z" />
    <glyph glyph-name="at" unicode="@" horiz-adv-x="1704" 
d="M1704 160q-114 -281 -331 -432q-220 -154 -521 -154q-371 0 -611.5 238t-240.5 608q0 401 265 659t667 258q303 0 494 -172q198 -179 198 -479q0 -270 -151 -468q-164 -218 -426 -218q-87 0 -139 42q-56 46 -56 130q0 52 22 133q-178 -305 -333 -305q-83 0 -126 70
q-36 59 -36 147q0 165 78 331t205 275q122 105 215 105q117 0 139 -150l33 115l233 8l-176 -606q-29 -100 -29 -148q0 -33 23.5 -55t56.5 -22q96 0 206 107q90 88 141 193q67 137 67 298q0 271 -174 441q-173 167 -445 167q-373 0 -615 -260q-237 -254 -237 -629
q0 -333 211.5 -546.5t544.5 -213.5q266 0 480 143.5t309 389.5h59zM684 176q98 0 198 231q89 204 89 322q0 129 -68 129q-92 0 -189 -251q-85 -221 -85 -339q0 -92 55 -92z" />
    <glyph glyph-name="A" unicode="A" horiz-adv-x="1386" 
d="M134 615l-13 -27l-14 7l12 25zM156 499l-34 -13v15l29 12zM143 460l-37 -24l-8 14l35 23zM39 516h-27v17h27v-17zM181 319l-56 -33l-6 15l56 32zM84 376l-14 -9l-23 36l13 9zM57 321q-31 -3 -46 -11.5t-19 -8.5q-3 22 47 67q-11 -11 6 -28q9 9 12 25v-44zM123 172
l-36 -35l-9 11l34 34zM1398 1372q-42 -41 -53 -63q-26 24 -34 59q-6 28 -32 37q21 0 30 9q-5 5 -7.5 17.5t-7.5 17.5q-29 -31 -83 -49q0 43 -10 43q-4 -1 -9 -4q0 8 12 7q12 0 19 -7q5 9 5 29.5t5 29.5q56 -39 46 -39q13 0 15.5 10t14.5 10q10 0 41.5 -11t47.5 -11v-85z
M1425 349q2 -138 -145 -255q-143 -114 -301 -114q-114 0 -175 70.5t-81 229.5l-210 -220q-95 -80 -218 -80q-108 0 -165.5 49t-138.5 208q1 0 19.5 -4t42.5 -4q4 6 0 23q-3 13 5 13q11 0 46 -16q4 10 8 39.5t9 39.5l39 37q-17 17 -24 17q6 11 29 -12q6 3 10.5 6t4.5 19
q0 35 -17 35q-27 -1 -75 -10q-3 -2 -4 -2q5 0 -11 32q-10 0 -21 11.5t-21 11.5q5 5 20 16.5t20 16.5q0 3 -9 22.5t-9 30.5q21 -21 39 -21q0 -1 5 23q4 13 -7 34q11 16 17 22q12 10 40 21q3 7 -8 9t-42 0q-4 -3 -11 5q-9 12 -24 18q-4 -9 -6 5q-3 15 4 29q-7 7 -27 7v48
q12 -9 32 -40q16 31 45 45q-12 7 -29 32q-21 30 -21 53q0 210 272 440q261 220 463 220q68 0 93 -10l27 20l31 -31q96 21 98 21q91 0 155 -13l-46 -64q-32 -45 -31 -84q11 7 33 36q18 26 26 26q4 0 6 -2q41 -34 80 -10q0 -18 -18 -35q3 -7 25 -26q17 -16 17 -32q0 -8 -4 -17
q-2 -1 -2 -2q0 -4 34 -21q-11 -9 -22 -17q-15 -14 -22 -39q-2 2 -4 2q-4 0 -13.5 -11.5t-18.5 -16.5q17 -17 28 -5q-47 -73 -130 -307q-108 -303 -108 -491q0 -210 135 -210q51 0 145 68q87 64 116 111zM332 922l-35 -35l-9 11l34 34zM173 859l-37 -23l-8 14l35 23zM133 832
l-26 -25l-9 11l24 24zM1353 1330v47h-18v-47h18zM1163 1476v17l-52 -11v-17zM1152 1451l-11 10l-24 -24l9 -11zM1242 1341l-11 10l-24 -24l9 -11zM1215 1358l-5 14l-29 -12v-14zM1177 1338l-48 -25q9 0 21.5 -8.5t12.5 -15.5q9 19 14 49zM1269 1233q-4 8 -19 28
q-11 15 -11 21q11 8 11 11q0 2 -3 2q-7 0 -34.5 -8.5t-31.5 -9.5q0 -32 -32 -64q25 -25 70 -56q-10 5 -24 24q-16 23 -16 38q14 21 24 21q6 0 14 -3q17 -12 17 -48q3 22 35 44zM1150 1278l-5 14l-24 -12v-14zM1103 1307h-15l-32 -63l14 -6zM1142 1184l-10 14l-25 -19l9 -14z
M804 1440l-12 47h-17l11 -47h18zM1109 1205q-54 14 -59 24q-55 -79 -148 -254q43 69 136 206q10 13 17 13t13.5 -12t7.5 -13q4 7 33 36zM903 965l-14 5l-13 -26l14 -6zM461 1338l-6 14l-43 -22v-14zM422 1181l-10 10l-35 -34l10 -11zM442 1151l-10 10l-35 -34l10 -11z
M1099 1433q-52 15 -82 15q-10 -19 -38 -19q-23 0 -30 7q0 36 -6 42q0 -39 -13 -39q-92 8 -252 -94q-89 -59 -177 -118q0 -5 9.5 -15.5t9.5 -15.5q-34 -37 -100 -104q21 0 30 -8q-30 -45 -72 -145t-58 -123q-9 -105 -26 -188q-14 -63 -14 -123q0 -95 22 -170
q41 -135 143 -135q139 0 221 141q52 89 102 292.5t81 254.5q2 15 5 24q2 9 2 -1q6 0 10 13t-12 13q96 246 196 346q51 50 51 93q0 7 -3 11q-22 22 -38 22t-31 15q9 2 27 15q5 0 21.5 -3t21.5 -3zM326 1058l-6 15l-38 -23v-14zM331 1008l-6 15l-73 -32v-15zM332 972l-10 10
l-24 -25l9 -10zM252 870l-9 13l-40 -34l9 -13zM211 880l-39 12v-14l33 -12zM189 928q-53 -27 -74 -49q-28 29 -33 29q0 -4 -6 -23t-6 -31q0 -14 15.5 -12.5t19.5 -2.5q63 48 84 89z" />
    <glyph glyph-name="B" unicode="B" horiz-adv-x="1556" 
d="M1316 833h-17v44h17v-44zM299 927l-5 -14l-32 12v14zM1364 1261l-10 -68h-17l10 68h17zM1183 1387l-12 -26l-14 6l12 24zM1559 1025q-21 0 -21 -32q-25 10 -41 56q-12 -53 -7 -141q-5 4 -6 18.5t-5 18.5q-72 -105 -252 -185q129 -53 188 -121q68 -80 68 -206
q0 -159 -124 -300q-128 -145 -279 -145q-78 0 -147 23q-94 31 -94 91q0 91 110 142q23 -36 36 -122q9 -58 48 -58q92 0 143 217q32 140 32 228q0 201 -131 220q0 28 5 50.5l5 22.5q15 -3 29 -3q82 0 135 109q42 88 42 170q0 139 -111 230q-102 83 -234 83q-11 0 -111.5 -24
t-111.5 -24q-14 0 -17 9.5t-6 9.5q-50 -41 -164 -122l-5.5 22.5t-5.5 50.5q28 0 43 31q-10 6 -36 -11q73 80 244 100l36 15q9 0 17.5 4.5t21.5 4.5q-2 0 36 -1h119q0 -30 31 -38q0 9 -10 37q163 -18 297 -62q163 -53 163 -111q0 -144 10 -223q21 18 18 41t5 33q4 4 20 10
q12 6 12 11q-3 -35 -6 -69q-3 -54 11 -60zM1363 1098v54h-16v-54h16zM1003 1395l-21 37h-14l22 -42zM1363 1013l-12 37l-13 -5l11 -32h14zM516 1214l-12 119q-281 -181 -281 -409q0 -13 7 -19t2 -10q0 -58 26 -107q32 -61 88 -61q20 0 74 21q60 23 96 47v55q-35 12 -79 62.5
t-44 75.5q0 103 123 226zM1113 1196q-21 43 -56 43q-160 0 -264 -176q-76 -128 -118 -339q-16 -110 -33 -219q-8 -44 -26 -114q-14 -57 -14 -67q0 -25 14 -79t14 -75q0 -19 -8 -30q-7 23 -34 161q-28 -94 -82 -155q-64 -73 -146 -73q-109 0 -109 119q0 13 8 58t8 68
q0 41 -20 59q-73 -26 -147 -52q-67 -34 -67 -119q0 -137 116 -187q71 -31 211 -31q63 0 164 46q85 39 118 69q196 126 264 332q18 53 67 381q36 238 140 380z" />
    <glyph glyph-name="C" unicode="C" horiz-adv-x="1153" 
d="M979 831l-45 -44l-9 10l43 44zM872 863l-13 -26l-14 6l13 25zM908 780l-5 -14l-45 28l6 14zM829 854q-21 -64 -21 -83q-58 17 -60 59q-4 0 4 15t16 22q0 -38 10 -69q31 7 31 24q0 11 -18 24q0 6 15 10q16 5 23 -2zM735 817l-13 -38l-14 5l12 33h15zM642 732
q-29 21 -67 62q2 3 21 20q14 12 14 25q0 8 -4 18q22 -22 23 -63q2 -46 13 -62zM1077 208l-22 -46l-14 6l22 44zM309 756h-36v17h36v-17zM202 791q-29 1 -45 -11q-15 -15 -29 -30q0 5 -6 23.5t-6 23.5q22 6 59 21q2 -3 12 -9t15 -18zM196 739l-12 -39l-14 6l12 33h14zM830 36
l-5 -14l-33 12v15zM206 602l-12 -39l-14 6l12 33h14zM163 636l-29 -35l-13 10l28 34zM68 702l-30 -24l-9 14l30 23zM216 468h-17v46h17v-46zM98 576l-35 -34l-9 11l33 33zM627 -2h-15l-11 33l14 5zM194 446l-38 -12v14l33 12zM204 426l-29 -12v14l23 12zM236 296l-13 -26
l-14 6l13 25zM59 465l-12 -39l-14 6l12 33h14zM333 119l-12 -26l-14 6l12 25zM1117 1048l-22 -44l-15 5l23 45zM1172 277q-6 -66 -119 -145q-97 -68 -188 -96q-88 -40 -148 -40q-10 0 -44 -4.5t-54 -4.5q-34 -5 -87 -1q-63 6 -76 20q-18 -5 -51 2q-39 8 -45 8q-13 0 -25 10
t-24 10q-130 0 -228 234q-76 180 -76 270q0 36 22 75q6 10 63 96l-9 -40q2 2 4 2t5 -2t4 -2q7 0 19 55q3 16 -20 16q-19 0 -17 6q4 16 1 24q-29 -17 -32 -26q-4 -14 -8 -18q65 298 120 298q32 0 50 -20q22 4 62 16q-15 10 -50 18q-38 9 -57 19q20 50 55 93q1 0 79 89
q72 83 118 98q19 19 37 38q31 31 48 31q15 0 19.5 -5.5t7.5 -5.5q2 5 2 11t30 19q7 -1 14 -1q49 0 56 39q21 0 26 11q24 -9 31 -9q12 0 20 4.5t11 4.5q10 -8 19 -37q4 -16 36 -12q4 7 17 25q-6 6 -18 1q-15 -5 -14 -5q0 1 22 23q-9 10 -19 10q42 -1 55 -7.5l13 -6.5
q13 0 13 9.5t12 9.5t48.5 -19.5t49.5 -19.5q19 0 78 -53q-7 -8 -14.5 -18t-1.5 -15q-11 1 -23 3q-18 6 -14 30v10q0 4 -4 1q-8 -7 -21 -7q-17 0 -24 14q-8 18 -16 35q-4 -4 -4 -25q0 -13 14 -33q16 -23 18 -34l-6 2q15 -19 -7 -42q30 -30 57 -44q30 -18 41 -26
q-4 0 -17.5 -1.5t-25.5 -1.5l-6 -24q31 -13 49 -49q0 -18 24 -55q4 11 35 35q-5 11 -19 31q4 0 13 -11t20 -16q3 12 15 39q-6 2 -52 22q-28 12 -46 12l52 -5q2 -4 8 1q9 10 19 15q-40 28 -128 75q2 -2 35 -2q19 0 44 24q-15 1 -59 11q28 0 33 -6q20 39 30 39q3 0 5 -2
q1 -11 26 -44.5t25 -48.5q0 -11 -11 -18q6 -6 28 -6q-4 -12 3 -45q8 -42 8 -56q0 -27 -25 -117t-25 -102q0 -4 1 -6q-109 -161 -142 -161q-15 0 -58 -25.5t-60 -23.5q-9 0 -26 -10t-27 -10q-11 0 -28 6q-11 4 -16 -1q14 15 -15 34q-1 -9 -15 -24q-6 -3 -20 5t-14 15l20 48
q-6 5 -20 3q-20 -5 -19 -5q37 38 39 37q0 10 -7 13q-5 2 -16 0q-13 -2 -15 -2q0 24 8 33q-11 2 -42 15q-17 -20 -43 -59l6 39q2 -4 20 14q-6 7 -28 7q0 5 6 18.5t6 18.5q8 -11 45 -32l12 -4q15 3 15 13q0 6 -6 12q45 -23 85 -9q0 -14 -33 -70q28 7 45 37.5t25 33.5
q33 17 142 177q0 17 13.5 34.5t15.5 23.5q2 -6 -2 -17t-4 -14q0 -10 20 -8q3 0 20.5 -6.5t34.5 -6.5q-19 21 -42 59q-15 25 -26 25q-4 0 -9 -2q2 20 5.5 40t22.5 35q0 12 -25 12q3 0 -29 63q-37 71 -85 114q-78 -20 -115 -20q-26 -19 -87 -49q-19 -26 -61 -78l-25 39
q-18 -24 5 -66q-36 -12 -76 -96q-29 -62 -44 -122q-11 5 -31 19q-9 -7 14 -42q-39 13 -68 -2q20 -8 59 -27q-11 -27 -32 -84q-29 0 -37 -8q-3 -11 -7 -22q3 0 -9.5 8t-32.5 5q28 -29 28 -32q-7 0 -24.5 10.5t-33.5 10.5q9 -16 25 -51q5 10 21 13q30 5 43 10q3 -21 3 -49
q0 -45 -10 -134q-10 -95 -11 -124q-1 1 -44 1q0 6 -5 6q-9 0 -9 -15q0 -9 5 -22q38 0 59 10q31 -128 32 -121v-38q49 -53 151 -153q49 -43 127 -64q59 -15 117 -30q33 24 79 24l30 -9q36 0 135 66l112 80q51 34 56 69q2 -35 -15 -45q5 -5 15 -8.5t15 -8.5zM211 931l-14 -6
l-17 48h15zM901 1411l-14 5l-12 -25l13 -6zM930 1382l-14 5l-12 -25l14 -6zM1018 1139l-44 44l-10 -10l43 -44zM1068 1098l-15 5l-12 -25l14 -6zM686 1417v36h-17v-36h17zM1036 1063l-6 13l-23 -11v-15zM1026 1033l-6 14l-23 -12v-14zM1076 980l-9 14l-64 -48l9 -14z
M627 1411l-14 6l-22 -46l14 -5zM901 996v36h-17v-36h17zM549 1349l-13 28l-14 -5l12 -23h15zM957 921q-26 38 -17 92q-42 -25 -42 -62q0 -12 10.5 -26t10.5 -17q12 0 38 13zM887 954q-9 0 -36 -10v-27q36 31 36 37zM496 1324l-39 8q14 0 16 -9t-8 -13q6 -12 31 14zM908 886
l-5 14l-33 -11v-15zM924 867q-9 0 -36 -5q23 0 23 -23q21 21 13 28zM428 1253q-18 9 -45 35v-44q1 9 45 9zM458 1160l-5 14l-23 -12v-14zM343 1231v36h-17v-36h17zM617 918l-12 29l-14 -6l12 -23h14zM413 1159h-17l-12 -45h17zM324 1160l-14 8l-32 -49l13 -9zM295 1016v55
h-17v-55h17zM324 932l-14 5l-13 -25l14 -6zM254 894l-24 25l-10 -10l24 -24z" />
    <glyph glyph-name="D" unicode="D" horiz-adv-x="1556" 
d="M778 536l-30 -23l-8 13l29 22zM677 487l-44 -26l-5 14l43 26zM713 448q0 -5 -6 -18t-6 -18q-5 10 -16.5 28t-16.5 27q10 -6 45 -19zM712 361h-35v17h35v-17zM797 459q-8 -44 -76 -121q-40 -43 -80 -87q2 17 -31 50v51q24 24 23 24l11 -21q8 4 22 27q11 20 24 20
q17 0 27 -9q-2 30 23 38q41 13 57 28zM717 29l-12 -25l-14 5l12 25zM472 249l-12 -44h-16l11 44h17zM381 54q-208 -78 -240 -78q-50 0 -89 31.5t-39 77.5q0 25 29 69q37 57 90 68q70 29 136 29q12 0 50 -5.5t53 -5.5q0 -64 10 -186zM167 164l-12 -37l-13 5l11 32h14z
M1519 815q0 -313 -232 -563q-253 -272 -621 -265q-1 4 -19 8t-18 12q4 2 4 31q0 -14 19 -34q6 5 3 19q-6 24 -6 28l37 -11q-11 5 -38 57q55 0 55 3q-1 4 -9 10q5 -4 7.5 -10t7.5 -10q19 19 29 19q11 0 56 -14.5t57 -14.5q194 0 311 319q83 226 83 387q0 140 -106 343
q-119 231 -250 231q-10 0 -22.5 -5t-24.5 -5q-32 0 -32 20h-81q-11 -1 -52 -15t-53 -14q-13 0 -20.5 14t-15.5 14q-9 -7 12 -34q-1 -1 -30 -20q-19 -12 -31 -12q-75 0 -164 -140q-78 -123 -78 -173q0 -52 44 -99q17 -18 79 -64v-35q-28 -22 -82 -49.5t-70 -27.5h-37
q-74 0 -114 194q0 118 100 250q104 138 266 219q4 -11 9 -22q6 -14 17 -14q7 0 15 4l-28 28q23 23 43 23q8 0 27.5 5.5t33.5 4.5q7 0 22 6t30 8q16 0 30 -14q14 0 14 27q78 11 203 11q270 0 448 -186q172 -181 172 -444zM307 744l-5 -13l-32 11v14zM229 739l-44 11v17
l44 -12v-16zM599 -13q-142 9 -183 58q-34 39 -32 155v41q11 -5 33 -19q82 24 123 231q28 179 56 357q0 -73 -5 -86q16 -96 12 -254q-5 -231 -4 -256q-19 2 -46 -25q4 -4 46 -26v-176zM762 1387l-5 14l-23 -12v-14zM1008 1107q-27 54 -62 54q-88 0 -214 -120
q-135 -128 -135 -245q0 -41 19 -75q0 -17 -1 -51q-1 -41 -1 -45q0 15 9 24q4 -19 17.5 -41.5t1.5 -34.5q-28 14 -28 28q0 -13 12 -30q16 -22 17 -26q4 25 56 75q5 -7 25 -21q15 -10 15 -20q0 -11 -16 -29q13 -26 -4 -43q-13 27 -10 38q0 -16 -11.5 -36.5t-11.5 -28.5
q38 -9 52 8q27 -27 27 -38q11 24 42 20q21 94 51 249q16 100 31 200q30 114 119 188zM771 716l-24 12l-6 -13l26 -13zM307 1175l-34 17l-5 -13l33 -17z" />
    <glyph glyph-name="E" unicode="E" horiz-adv-x="1067" 
d="M501 982l-33 -33l-9 10l32 32zM1075 334q6 -132 -153 -235q-134 -88 -263 -97q-8 4 -19.5 -0.5t-11.5 -11.5h-45q35 40 56 50q-3 2 -7 2q-12 0 -47 -25.5t-48 -26.5q3 47 -14 64q-6 -23 -22 -65q7 17 7 46q0 12 -14 54q-18 53 -22 67q26 -13 63 -30q0 -1 -5 -32
q-3 -22 2 -36q13 14 15 60q40 -8 111 -8q234 0 417 224zM595 55h-14l-11 22l13 6zM478 -21q-21 19 -31 19q-13 0 -20.5 -4t-10.5 -4v55h-51q-6 -6 -3 -18q4 -19 4 -18h-44q8 35 3 45q-26 -26 -18 -33q-18 17 -31 55v99q-1 -8 -14 -48q-12 -36 -12 -58q0 -13 4 -24
q-17 14 -52 42q-143 51 -143 266q0 300 335 401q0 -14 5.5 -47.5t5.5 -44.5q0 -28 -32.5 -97.5t-32.5 -150.5q0 -58 63 -230q16 0 16 24q0 -86 -20 -135q-1 -13 -1 56q-14 -4 -22 -26q-12 -35 -18 -43q20 0 59 -7l30 122q3 -44 6 -89q4 -48 25 -63v-44zM399 -1h-16v35h16
v-35zM325 65h-17l-5 53h17zM558 1318h-14l-11 32l13 4zM1050 1265q0 -34 -22 -60q-37 -42 -73 -84q-6 -2 -11 -2q-28 0 -47 60q-30 94 -46 121q-7 11 -51 37q-40 23 -45 45q-64 -55 -128 -109q-92 -92 -92 -190q0 -12 1 -24l-16 -61q11 -53 72 -101q69 -56 152 -58q7 8 12 8
q14 0 14 -40q0 -33 -17 -67q-21 -41 -53 -41q-11 0 -49 9.5t-50 9.5q-41 0 -97.5 -26t-65.5 -49q-14 25 -14 65q0 49 21 56q4 4 17 7t18 8q-4 4 -65 34l-29 382q0 42 38 72q0 15 -7 22q-2 0 -15 -8.5t-25 -8.5q84 78 231 137q7 -18 33 -47q1 18 -4 43q-3 17 0 17t17 -12
q37 18 64 18q47 0 103 -18l41 7q-15 -35 6 -63q16 26 16 64q86 -43 130 -121l25 19q0 -3 5.5 -21.5t5.5 -29.5zM325 972h-17v43h17v-43zM988 1284l-13 5l-12 -24l13 -6zM856 1333l-41 42l-10 -9l42 -43zM600 1390q-5 0 -22 -5t-22 -5q0 -5 12 -13q17 -11 19 -13q13 12 13 36
zM520 1191l-13 4l-12 -24l13 -5zM474 1112v44h-16v-44h16zM446 1078l-14 5l-12 -24l13 -6zM483 1034h-14l-11 -31l13 -5zM393 831q-8 124 -35 352q-22 21 -8 27l17 39q-39 -8 -69 -91q-24 -68 -24 -108q0 -57 32 -119q34 -66 87 -100z" />
    <glyph glyph-name="F" unicode="F" horiz-adv-x="1237" 
d="M1079 1254h-17v56h17v-56zM982 1002h-14l-22 42l14 6zM719 1260l-11 -9l-23 23l9 10zM1195 806l-54 -48l-9 14l53 47zM958 963q-47 19 -47 56q0 27 28 27q-17 -17 12 -36l2 -25q1 -13 5 -22zM904 1035l-13 -8l-23 34l13 9zM963 885h-16l-12 45h17zM886 937q-24 0 -91 -22
q18 24 44 36q18 -18 18 5q0 -19 29 -19zM438 1225h-17v36h17v-36zM813 742q0 -69 -18 -160q-30 38 -29 64v139q47 -15 47 -43zM797 519l-12 -26l-14 6l12 25zM807 428h-14l-12 23l14 5zM349 876l-24 -24l-10 10l24 24zM1210 834q0 -46 -8 -58q11 -24 11 -45q0 -96 -174 -119
q1 20 -8 43q-12 -14 -14 -33.5t-12 -26.5q-43 -16 -77 -147q-40 -155 -91 -214q-70 -124 -190 -192q-113 -63 -242 -63q-47 0 -181 24q-63 11 -124 64q-65 56 -65 111q0 34 52 100q53 70 91 70h50q21 -156 31 -186q38 -115 141 -115q51 0 119 65t86 129q-1 -13 2 -78l22 13
l-10 120q19 56 40 136v54q-47 -2 -204 -68q44 115 152 206q85 71 93 191q19 -19 36 -3q0 16 -29 16q41 57 50 142q9 0 19 -11q14 -13 22 -17q9 14 28 38q49 -2 55 30q4 -15 32 -79q6 0 20 1h26q15 0 15 19q-17 -123 3 -195q18 0 36 -19q8 6 46 44q24 23 57 34l24 -19
q20 15 70 38zM749 311h-17v55h17v-55zM622 62l-12 -26l-14 6l12 25zM262 99l-12 -33l-14 5l12 28h14zM1196 1342h-17v65h17v-65zM1177 1342h-17v45h17v-45zM1079 1371h-17v65h17v-65zM1060 1342h-17v65h17v-65zM1040 1352h-16v55h16v-55zM982 1391h-17v55h17v-55zM865 1430
h-16v45h16v-45zM943 1323h-17v94h17v-94zM924 1332h-17v104h17v-104zM846 1352h-17v45h17v-45zM768 1451l-23 -35l-13 9l23 34zM827 1313h-17v94h17v-94zM711 1455l-12 -45h-16l11 45h17zM666 1235q-14 2 -86 2q39 19 59 43q-18 4 -50 -15q-3 27 25 27q15 0 18 4.5t6 10.5
q-7 14 -4 21q8 14 8 41q2 -10 15 -30q6 -8 9 -104zM575 1428q8 -12 8 -27q0 -18 -14 -50q-18 -45 -22 -59q-25 25 -25 39q0 10 12 31.5t12 31.5q0 -25 9 -34q5 10 10 34t10 34zM560 1271q-14 -29 -12 -47q-5 5 -15.5 9.5t-15.5 9.5q-44 -44 -131 -81q-39 -64 -39 -172
q0 -11 9.5 -26.5t9.5 -18.5q-23 -23 -1 -28q128 -19 128 -77q0 -27 -31 -42q-6 -20 -39 -47q-38 -33 -71 -33q-59 0 -100 73q-32 58 -32 102q0 108 89 258q82 140 181 218q0 -11 -10 -32q-14 -30 -17 -39q7 -7 15 -1t8 14q12 -15 33 -49q8 0 11 9q4 9 -3 16q5 -5 19 -9.5
t14 -6.5zM963 1293v65h-17v-65h17zM885 1245v94h-17v-94h17zM865 1245v103h-17v-103h17zM807 1293v56h-17v-56h17z" />
    <glyph glyph-name="G" unicode="G" horiz-adv-x="1300" 
d="M989 -158h-17v35h17v-35zM916 -113q0 -28 -13 -28q-5 6 -5 18q4 1 18 10zM913 -240l-13 -25l-13 6l12 24zM834 -288l-5 -42q0 19 -47 66q-6 -7 -11 -14q-9 -11 -17 -11q35 23 4 38q22 22 22 72q22 -23 40 -66q14 -34 14 -43zM743 -211l-14 -8l-22 34l13 9zM861 -369
l-23 -12l-5 13l28 12v-13zM808 -311l-34 -23l-9 14l34 22zM623 -150q-7 7 -14 2q-7 -4 -7 -12q-1 20 -18 26q-17 3 -35 5q4 -2 8 -2q9 0 28.5 17t28.5 20zM754 -198q4 -41 -62 -71q18 -12 32 -9q8 -6 2 -27q-5 -17 -10 -35q-2 5 -2 10q0 6 3.5 15t3.5 12q0 8 -19 8
q-8 0 -19 -1q0 17 33 49.5t38 48.5zM752 -376h-16v49h16v-49zM564 -202q-8 7 -30 -14q-7 32 -50 31q5 4 21 12t21 13q14 -14 29 -14q-15 0 -24 -14q5 -8 17 -9t16 -5zM714 -370l-12 -37l-14 5l12 32h14zM697 -344q-22 0 -27 5q0 -6 -5.5 -20.5t-5.5 -22.5q0 14 -9 23
q-19 -27 7 -66q-4 0 -17 57v-76q-3 84 16 122q4 0 17 -11t24 -11zM513 -220l-5 -14l-48 24l6 13zM637 -479l-24 -24l-9 10l23 23zM592 -471h-17l-10 49h17zM458 -363l-12 -25l-13 6l12 24zM532 -462l-5 -13l-25 12l5 13zM416 -390h-26v16h26v-16zM458 -480h-14l-11 22l13 5z
M1314 342l6 -54q4 -37 -7 -57q-22 -39 -125 -92q-106 -55 -135 -98q-19 -28 -29 -81q-16 -80 -17 -81q-7 0 -9 -18q-3 -29 -7 -40q-5 5 -11 5q-5 0 -12 -3.5t-9 -3.5q-8 0 -6 42q-6 3 -11 3q-24 0 -24 -32q0 -18 9 -37l-39 8q-8 -4 -8 -21q-13 1 53 1q13 0 8 -22
q-12 -3 -21 -20q-17 -34 -20 -38q4 -7 4 -14q0 -34 -39 -38q-4 5 -4 25q1 17 -3 17q25 0 25 23q11 -4 16 -4q4 0 4 3q0 4 -14 20t-14 20q-8 -7 -8 -38q3 25 -16 38l-26 15q20 -9 37 0q-22 22 -22 18q31 -4 41 47q-11 16 -26 16q-7 0 -22 -5t-22 -6q-31 0 -41 -9q0 13 -5 15
q-4 2 -13 -1t-11 -3q0 5 11.5 12t15.5 10q-16 15 -37 15v44q73 74 119 97l8 -28q28 36 62 105q-26 -19 -69 -48q-82 -68 -204 -189q3 45 -31 61q69 26 124 86q58 64 61 127q0 1 -4 -15q-2 -8 7 -14q10 39 -8 41q26 29 22 83q-100 -71 -257 -189q5 23 19 55l27 7q-1 1 -23 9
q-15 5 -14 19v52q-25 -11 -26 -56v-69q-2 -13 -8 -22q-10 -1 -36.5 -8t-39.5 -7q-10 0 -38.5 8.5t-44.5 8.5q-18 0 -32 -7q-20 1 -60 11q0 6 12.5 13t15.5 11q0 16 -4 21q-10 -10 -35 -15q-40 -7 -43 -8q-4 21 -23 61q-9 -5 -6 -18q4 -25 4 -19q-15 15 -15 49q14 6 46 30
q-9 5 -11 17t-12 17q-10 -10 -10 -33q0 37 -11 37q-5 0 -10 -3q0 9 10.5 30t10.5 31q0 -15 10 -24l23 24l-25 24q-3 0 -13.5 8t-21.5 6q-12 -7 -32 33q-12 0 -9 -10q5 -22 5 -18q-11 4 -21 8q-16 5 -33 3q20 31 41 62q24 39 36 97l-107 -142q-8 15 10 33q-14 8 -38 26v266
q0 189 210 442q207 249 380 279q21 14 97 40q90 31 142 31q44 0 59 -29q4 0 4 28q128 -40 175 -64q53 -28 69 -33q-1 -2 -10 -25q-7 -19 -18 -19t-15 7.5t-6 7.5q-4 0 -8 -2q5 -10 17.5 -26t16.5 -25q26 24 26 56q17 -10 44 -34q10 -23 38 -54q-24 -25 -51 -25
q-13 -5 -14 -23t-20 -37q25 -11 53 -63q5 5 11.5 7t11.5 7q-37 22 -35 80q13 -18 40 -56q6 9 21 28q-14 -91 -29 -181q-33 -144 -108 -197l-88 -70q-68 -44 -161 -44q-10 0 -44 5.5t-50 5.5q4 17 33 56q26 35 26 66q-37 -35 -69 -95l-15 28q-15 -15 -4 -25q-29 1 -68 49
q-36 45 -36 66q0 42 60 99h42q10 -32 19 -63q13 -41 26 -41q23 11 56 -18q232 217 219 331q0 -9 10 -19q33 15 41 32q-4 4 -56 17q2 13 2 24q0 50 -31 103q-56 94 -62 108q-20 -20 -15 -37q-9 4 -84 14q-51 6 -62 42q-15 -14 5 -34q-151 -32 -286 -202q-77 -99 -181 -300
q-17 -151 -63 -415q17 -21 77 -126q54 -93 95 -134q-8 7 -9 0q-2 -7 5 -21q3 0 12.5 14.5t23.5 14.5q30 0 97 -19q2 3 22 -28q8 6 9 17t2 11q6 -11 -22 -68q10 0 21 13q19 24 22 27q4 -19 26 -48l8 80q-6 6 -19 3q-21 -4 -19 -4q73 60 146 119q124 102 151 158q93 27 185 20
q-5 -5 15 -44l30 57q-19 -52 -46 -158.5t-46 -158.5l7 -34q150 87 227 190zM970 -16h-17v35h17v-35zM921 17l-10 -9l-23 23l10 10zM974 -112q-10 12 -13 14v0v0v1q-2 6 -10 22q-26 -26 -31 -26q9 15 28 44q-2 1 -2 2q0 6 15 5q14 -1 13 -15v-47zM856 -76l-12 -37l-13 5
l11 32h14zM250 593l-69 -119l-13 6l68 118zM825 -102l-5 -14l-25 13l6 13zM544 123l-11 -44h-16l11 44h16zM401 88h-16v16h16v-16zM444 76q0 -28 -22 -28q-7 0 -26 5q-12 3 -25 -2q16 16 41 16zM346 104l-11 -44h-17l12 44h16zM1109 1362q-45 12 -67 12q-4 0 -3 -10
q1 -12 7 -18q49 24 63 16zM1192 1269l-46 -24q8 0 20 -8t12 -14q9 17 14 46zM1103 1316h-17l-10 -63h16zM1166 1213l-5 13l-22 -12v-13zM1121 1240h-14l-30 -60l13 -6zM1158 1124l-9 12l-24 -17l8 -13zM1245 1022h-16l-11 -44h16zM513 1269l-6 14l-41 -21v-14zM790 804h-16
l-10 -72h16zM535 126l-11 44h-16l10 -44h17zM417 209l-31 23l-9 -13l31 -23zM492 169q-55 0 -56 3q-7 -15 -7 -47q17 6 27 19q7 9 13 18q7 -7 7 -28q19 12 16 17q-5 9 0 18zM369 189q-14 8 -37 25q24 24 5 43q-24 -24 -24 -43q0 -14 25 -18q29 -5 31 -7zM188 376v16l-44 11
v-16zM231 299l-11 22h-14l12 -27zM364 116l-10 54h-16l10 -54h16zM98 392l-10 9l-23 -23l9 -10zM230 231l-10 9l-23 -23l9 -10zM191 265l-5 14l-61 -21v-14zM326 162q0 -9 -22 -9q-16 0 -45 28l-11 -103q11 0 31 10t24 10q-5 13 -5 24q0 13 10 24zM259 112l-24 24l-10 -10
l23 -23zM114 251q-10 5 -16 20q-5 11 -9 9q-12 -5 -12 -10q0 -2 7 -12t7 -20q0 13 23 13zM182 153q-2 8 -13.5 22.5t-11.5 24.5q6 -22 -2 -44q-5 1 -11 4q16 1 38 -7zM146 178l-32 43l-13 -9l32 -43z" />
    <glyph glyph-name="H" unicode="H" horiz-adv-x="1812" 
d="M1806 280h-16v53h16v-53zM1395 701h-16v34h16v-34zM1428 707q-18 -30 -18 -27q0 -9 9 -25q-24 0 -34 -11q24 55 43 63zM1376 673h-16v62h16v-62zM1320 673h-16v34h16v-34zM1405 588l-14 -8l-31 47l13 9zM1783 198q1 -12 -15 -13q-19 -1 -24 -9q23 40 12 51q7 11 7 18
q0 3 -17 17q5 -6 18 -1q17 7 19 7v-70zM1283 716l-10 -48h-16l10 48h16zM1712 150h-13l-21 50l13 5zM1241 642q4 -4 0 -23q-5 -23 -1 -37q-1 -3 -52 -3q0 6 27 33q0 18 -24 37q9 13 50 -7zM1339 527l-21 -44l-14 6l21 43zM1686 125q0 2 -10 14q-9 -7 -25 -38q12 11 12 38
q0 26 -38 42q2 4 24 4q17 0 17 1q5 -6 -3 -15zM1263 559l-43 -31l-8 13l42 31zM1162 542h-17v43h17v-43zM1031 654h-16v39h16v-39zM1604 153q2 -1 2 -3q0 -8 -46 -53q14 -11 34 -42q-20 14 -49 56q-16 -16 -11 -20q-18 31 -18 47q15 -14 35 6q-13 17 -13 24q0 2 1 2
q11 0 28 -51q5 0 14 12q13 15 23 22zM1327 345l-5 -14l-24 12l5 14zM1302 359l-13 -25l-13 6l12 24zM1578 38q-30 4 -88 26q-6 -14 -16 -37q2 5 -31 37q-20 -24 -20 -46q0 -17 16 -24q-38 -14 -89 -14q-63 0 -143 89q-77 86 -77 144q0 42 77 126q9 2 16 21t16 21q4 -4 22 15
q-7 7 -27 7q40 52 87 146q30 -18 36 -28q14 -32 29 -65q-3 22 -81 29q-6 -6 -2 -22l5 -22q-11 -22 7 -59q-15 15 -45 8q7 -5 59 -28q15 33 40 94q0 -4 -3 -13.5t-2 -15.5q6 -12 9 -12q3 1 3 10q0 16 2 -22t2 -58q-9 7 -22 46q-33 -33 -5 -83q-21 0 -56 4l-27 -11
q19 -18 19 -28q-8 -10 -9 -14q1 -3 5 -3q1 0 49 13q0 -6 4 -6q14 0 14 19q0 7 -5 14q5 -4 10.5 -13t10.5 -14q9 19 9 61q26 -60 13 -97q-3 0 -10 -5t-21 -5q-31 0 -31 10q0 8 8 21q-22 3 -36 -13q-26 -30 -30 -33q7 -11 32 -32q18 36 8 55q24 -24 24 -46q9 4 23 18t23 19
q0 -20 7 -27q5 4 19.5 13.5t19.5 14.5q7 -23 40 -54q29 -26 29 -50q0 -17 -10 -39q32 -16 59 -16q2 2 5 2q1 0 29 -28zM1203 465q-5 -10 -16 -28t-16 -27q0 32 -17 32q27 0 49 23zM1423 194q3 -12 -7 -26.5t-19 -28.5q-22 23 -22 26q8 0 11 10t16 10t17 4.5zM1464 83
q-12 6 -34 21q0 10 24 35q-1 -13 10 -56zM1525 29l-24 -23l-9 10l23 22zM1437 61h-44v16h44v-16zM769 691h-13l-12 22l13 6zM1352 119l-9 -12l-28 23l8 12zM1306 154h-25v16h25v-16zM1255 112h-16l-10 53h16zM1344 56q-18 0 -35.5 -9.5t-21.5 -9.5q-8 0 -16 20q29 4 60 35
q13 -13 13 -36zM712 671l-33 -22l-8 13l33 22zM776 429l-5 -13l-31 11v14zM554 561l-24 -23l-9 10l23 23zM1774 1417q-86 -138 -188 -325q3 0 -16 4q-13 3 -30 -3q0 -8 10.5 -14.5t10.5 -9.5q0 -2 -2 -4q-22 -8 -22 -25q0 10 -7 12q-6 2 -17 -4q0 -12 19 -30q-29 16 -28 40
q-8 24 -23 24q-28 3 -28 -6q0 -7 13 -19q-54 18 -139 46q8 34 26 60l32 45q38 57 112 131q43 20 131.5 49.5t105.5 28.5h40zM1516 947l-26 28q-24 24 -41 24q-4 0 -7 -1q-14 14 -14 -7q5 -2 -3 -17l-9 -18l-14 49q25 10 59 40q36 -34 55 -98zM1387 1040q3 5 -18 5
q-18 0 -18 -10q-5 6 4 14q-9 9 -12 19q-2 13 10 13q0 -24 34 -41zM1488 963l-43 -42l-9 10l42 41zM1311 1059l-12 -25l-13 6l12 24zM1432 859h-16v44h16v-44zM1358 925h-16v25h16v-25zM1408 849q-10 23 -40 74q-13 -17 -24 -58q-7 -25 -27 -23q14 -14 35 6q0 -23 11 -37
q-28 22 -102 61q10 0 28 10l-7 33q-35 -14 -55 -48q0 45 20 72.5t40 53.5l25 -14q6 6 3 19q-4 20 -4 18q1 -18 20 -55q28 25 39 46q0 -17 -15 -32q7 -3 23 -14q8 8 8 18q-7 -16 -7 -34q0 -10 29 -96zM892 1329q0 14 -9 24q-5 -5 -10.5 -19t-10.5 -18q0 16 20 55
q10 -10 10 -42zM1309 812l-13 -9l-20 30l14 8zM1338 756l-33 -28l-9 13l33 27zM742 1298h-16l-11 44h16zM649 1398l-11 -44h-16l11 44h16zM1264 719h-14l-30 69l14 5zM1001 989l-6 -13l-43 21l5 13zM888 1017l-5 -13l-31 11v14zM943 796q-21 0 -33 -13q-9 24 -9 49
q0 13 3 36t3 34q0 34 -19 63q4 9 21 30.5t22 30.5q-16 -146 -16 -148q0 -59 28 -82zM881 897h-16v53h16v-53zM535 1314l-19 -118h-14l19 118h14zM551 914q0 -39 -39 -73q-36 -30 -68 -30q-49 0 -81 68q-26 54 -26 100q0 11 29 130q4 0 15 -10q14 -13 24 -18q0 3 11 31
q9 25 9 39q0 19 -13 28q7 18 38 54l-11 -17q-1 -17 3 -47q3 -8 16 -18q-28 -8 -28 -54q0 -20 7 -44q16 8 16 43q0 -117 28 -117q15 0 13 6q-5 16 -5 13q62 -63 62 -84zM395 1080l-19 -104h-14l19 104h14zM1317 601q-10 -1 -37 -19q7 -7 37 -7q-29 -49 -95 -136
q-36 -61 -107 -179q0 13 -6.5 50t-6.5 48q0 12 23.5 65.5t23.5 65.5q0 20 -13 33q-7 -31 -20 -84q0 87 15 162q-6 6 -33 6q-45 -4 -146 -21q-39 -210 -175 -390q-163 -215 -361 -215q-94 0 -213 40q-175 57 -175 161q0 43 68 105q64 58 96 58q28 0 37 -75q14 -106 29 -139
q32 -75 116 -75q137 0 213 217q33 131 67 263q-2 2 -4 11q-1 4 -15 4q-11 0 -100.5 -47t-95.5 -47q-23 0 -23 -14q0 7 -7 23t-7 29q0 71 119 122q72 28 143 55q53 126 131 325q23 17 76 81q10 11 47 42q34 43 101 124q-100 -20 -156 -10q-1 6 35 6q1 6 -11 15q-20 14 -27 21
h37q0 23 -24 17q-10 -3 -36 23q-10 -14 -15.5 -41.5t-14.5 -41.5q0 2 15 49q-6 3 -23 16q-26 -38 -23 -61q-8 58 -8 127q-23 -10 -35 -113q0 10 -11 30q-14 24 -18 36q-8 -9 -8 -19q2 20 -10 56q-5 -9 -20 -23l-12 38q13 20 49 40q33 19 50 19h35q11 0 49.5 -18.5t50 -18.5
t31.5 -9q17 -8 24 -5.5t18.5 -5.5t24.5 -8q18 0 83 32.5t66 32.5q12 0 35 -16q32 -23 35 -24q-64 -99 -134 -162q1 -16 -18 -64t-19 -65q0 -7 2 -12q-24 0 -41 17q-9 -14 -9 -28q0 -11 11 -33t11 -37q0 -26 -27 -58l-10 -221q5 -5 7.5 -12.5t7.5 -12.5q18 19 34 6
q-1 -6 3 -6q3 0 12 3.5t13 3.5q7 0 6 -8q10 0 36 29q0 -17 -16 -32q6 -13 33 -43q7 0 26 38q-8 -2 -26 -14q7 4 23 18q-3 4 -7.5 14t-7.5 10q-2 0 -4 -2q8 6 14 6q2 0 14 -5q10 -3 23 1q2 -5 27 13q-10 7 -10 20l37 88q-3 -46 -5 -91q-3 -48 -15 -71q4 -4 55.5 -35t65.5 -41
zM1568 1172v16h-53v-16h53zM1488 1093l-11 27l-14 -5l12 -22h13zM1413 1177l-9 10l-24 -23l10 -10zM1698 810q-11 -5 -29 -1q-16 4 -16 3q-13 -35 -27 -45q4 2 24 16q14 10 25 10q7 -8 -11 -27q34 17 34 44zM1619 757l-21 55l-13 -5l20 -50h14zM1618 734l-23 23l-9 -9
l22 -23zM1470 822v44h-16v-44h16zM1573 719l-10 53h-16l10 -53h16zM1345 889q-17 9 -45 24q18 -54 34 -54q0 30 11 30zM1408 784v46q-10 -17 -39 -52q16 17 39 6zM1496 683q-15 25 -15 58q0 -35 -18 -70q0 12 33 12zM662 1265v17h-44v-17h44zM605 1307v64q-27 -17 -63 -61
q2 -3 63 -3zM972 915l-36 11v-13l31 -12zM587 1257v16l-43 -11v-16zM424 925v43h-16v-43h16z" />
    <glyph glyph-name="I" unicode="I" horiz-adv-x="1237" 
d="M192 287h-25v16h25v-16zM1234 1372q-58 -47 -115 -147q-59 -105 -75 -199q-33 -197 -66 -395q-64 -322 -114 -322q-13 0 -13.5 -4.5t-3.5 -4.5q-4 -4 3 -11q10 -10 10 -22q0 -22 -59 -80q-46 -46 -61 -56q0 3 8 13.5t8 23.5q0 26 -31 87q13 12 13 31q0 -15 -14 -15
q-13 0 -11 119q3 158 0 191q-2 -2 -7 -15q9 -163 -1 -480q-34 -25 -98 -56t-80 -31q-12 0 -110.5 -4.5t-110.5 -4.5q-71 0 -157.5 65t-86.5 123q0 36 58.5 102.5t101.5 66.5q36 0 36 -57q0 -11 -6 -58q41 -99 54 -119q37 -57 99 -57q117 0 192 149q55 108 85 285l22 176
q0 -5 9 -19q12 33 -1 33q-5 0 -10 -4q53 188 117 297q78 132 238 277q-137 -21 -221 -21q-11 0 -66 28t-65 28q-20 0 -38 -19q-5 9 -12 20l-17 18q-24 -10 -65 -75q1 10 -8 18l-48 -58q-33 -43 -33 -92q0 -60 51.5 -108t51.5 -65q0 -41 -52 -78q-43 -30 -65 -30
q-49 0 -78 76q-20 55 -20 97q0 72 38 149q41 82 93 96q-7 7 -28 7q29 32 88 90q5 4 108 55q-10 -27 -37 -68l16 -15q22 10 38 51q11 2 31 12v25q-11 11 -38 11q14 1 40.5 12t39.5 11q14 0 27 -9q11 6 11 14q0 -14 9 -23q19 19 42 19q12 0 35.5 -19t35 -19t63.5 -4.5t63 -4.5
t60.5 23.5t61.5 23.5q23 0 65 -21v-33zM917 1341l-6 13l-22 -12v-13zM1076 1181l-5 13l-22 -11v-14zM925 1306q-25 25 -43 7h-18q32 0 36 -3q8 -5 25 -4zM797 1333v44h-16v-44h16zM759 1330h-13l-12 -31l14 -6zM590 1278l-10 9l-23 -22l9 -11zM522 1218l-4 14l-32 -11v-14z
M458 1154l-8 12l-33 -21l8 -14zM459 1005l-12 27l-13 -5l11 -22h14zM473 925v16h-34v-16h34zM722 592v35h-16v-35h16zM807 309q0 -9 -22 -12q0 -5 7 -20t7 -20q0 7 7 26q6 15 1 26z" />
    <glyph glyph-name="J" unicode="J" horiz-adv-x="1067" 
d="M1075 328q3 -17 3 -32q0 -68 -70 -125q-44 -36 -148.5 -85.5t-132.5 -71.5q-17 -14 -56 -91q-48 -93 -62 -114q0 2 -10.5 23t-10.5 32q29 0 37 8q0 2 -19 2q-12 0 -17 1t-15 1v-39q-1 17 4 44q9 4 28 16q-11 6 -18 26.5t-10 23.5q-2 0 43 -44q6 3 32 15q-8 14 -52 79
q-8 -7 -8 -28l-25 26l29 28q0 18 -20 27q3 0 23.5 2t36.5 2q10 8 8 49q-13 0 -13 -39q-16 10 -24 10v36q5 -4 15 2q14 8 25 8q13 0 10 -6q-4 -9 0 -13q18 18 7 29h21q7 2 24 13q-39 24 -66 37q9 25 37 59q-15 20 -41 32l-32 -28q0 22 -6 28q-10 -5 -10 -14q0 8 -9.5 45.5
t-9.5 55.5q0 16 6 22q13 5 13 19q0 -15 8 -24q28 45 28 57q0 -10 9 -19q0 4 3 15q2 8 0 14q-3 7 -15 16q10 -5 35 -55q7 0 8 9q1 8 -6 15q14 14 50 14q7 -3 7 19q0 15 -13 25q-10 6 -20 13q-17 -17 -17 -28q-4 5 -16 7q-8 2 -7 8t-7 23l-18 -18h-34q0 7 9 22q-16 17 -20 13
q1 9 21 27q-4 7 -17 20q-11 10 -11 20h34q9 -6 9 -56q-16 16 -16 -5q0 -13 10.5 -19t14.5 -14q25 17 79 62q-4 4 -24 37q-14 24 -28 24q-12 0 -16.5 -9.5t-16.5 -9.5q-8 0 -9 4q0 2 2 5.5t2 5.5q-1 4 -9 4q-14 0 -14 -3q5 -17 5 -11q0 22 -2 24q-17 0 -17 -15q0 139 98 310
q48 84 230 336v12q-67 -48 -154 -48q-11 0 -98.5 23.5t-99.5 23.5q-34 0 -80 -20q-52 -23 -68 -52t-60 -76q6 -39 30 -109q7 -12 48 -51q36 -35 36 -46q0 -24 -48.5 -66.5t-65.5 -42.5q-42 0 -75 74q27 0 56 21q-12 18 -23 18q-20 0 -49 -28q-13 36 -13 95q0 120 125 276
q135 168 267 168q12 0 116 -28.5t116 -28.5q14 0 53.5 16.5t53.5 30.5h79q12 -12 12 -28q0 -11 -37 -75q-44 -77 -55 -102q-30 -68 -58 -198q-24 -112 -29 -178l-133 -725q-7 -7 15 -7q51 0 170 89q106 79 143 128zM637 538h-16v34h16v-34zM581 235h-17v35h17v-35zM618 122
h-16v25h16v-25zM599 -237h-16v25h16v-25zM547 -283q1 -71 -156 -155q-143 -75 -220 -75q-83 0 -117 32t-34 110q0 86 45.5 148t164.5 131q8 5 112 32q79 22 100 64q47 95 70 258q17 142 35 283v-828zM314 1140l-6 14l-22 -12v-14zM720 734l-5 13l-23 -11v-14zM661 742h-35
q0 -4 6.5 -20t6.5 -21q0 11 11 24.5t11 16.5zM665 387l-10 10l-23 -23l9 -10zM656 301v26h-16v-26h16zM628 263v35h-16v-35h16zM694 56v25h-16v-25h16zM417 -130l-12 32q-311 -124 -311 -272q0 -14 2 -28q42 -39 66 -39q81 0 159 111q61 86 96 196z" />
    <glyph glyph-name="K" unicode="K" horiz-adv-x="1729" 
d="M1380 178l-12 -26l-14 6l13 25zM1428 97h-14l-12 23l14 5zM1348 206q0 -8 -32 -72q-8 3 -25 16q25 8 31 40q13 67 13 68q-2 -13 -2 -22q0 -15 7.5 -20t7.5 -10zM1357 133q0 -26 8 -41.5t8 -14.5q0 -5 -23 -19q8 32 -21 62q19 13 28 13zM1169 174h-14l-20 92h14zM1252 83
l-24 -26q-23 24 -23 34q0 24 24 24q13 0 16.5 13t6.5 13q-9 -20 -38 -51q7 -7 38 -7zM1208 117h-14l-12 22l14 5zM566 92l-12 -26l-14 6l13 24zM1749 242q-48 -56 -137 -131q-131 -111 -193 -110h-41q0 43 -4 47q0 -6 -4.5 -22t-4.5 -25q-15 6 -50 3q-52 -4 -48 -4
q-9 0 -22 16q-20 24 -55 45q-79 47 -79 191q0 18 2 35q-1 -10 8 -19q-12 63 4 184l6 14q7 13 7 27q0 25 -9 83q-13 83 -31 95q-9 7 -59 13q-35 4 -35 39q0 53 62 53q12 0 12 -9.5t12 -9.5q9 0 29 14t33 14q14 0 15 -10q1 -16 4 -18q7 7 5 19q-2 13 -10 13q2 15 24 15
q13 0 10 -6q-5 -9 -1 -13q26 60 85 187q3 2 20 7q8 6 -10 12q7 52 28 86q2 10 -7 10q37 0 42 -2v30q-7 3 -23 15q-9 -9 -9 -19q2 22 27.5 88t29.5 94q0 -29 9 -38q4 14 25 36q0 22 -18 3q30 48 60 95q40 59 118 85q0 -6 -10 -11q-13 -8 -17 -11q9 -4 12.5 -17t19.5 -18
q4 7 10 31q4 17 9 17q6 6 22 3q24 -5 23 -5q0 -13 -9 -22l24 -24q0 1 6 14q3 6 18 6q11 0 24 -17q15 -20 23 -24v-52q-20 -39 -40 -79q-19 -36 -38 -48l-23 -20l-17 22q-9 13 -9 25q0 10 4 21q7 -10 -15 -10q-9 0 -10 4q0 1 2 5t2 6q-1 4 -9 4q-14 0 -18.5 -4.5t-7.5 -4.5
q-9 24 -27 66q-9 -14 -31 -40h-17q-4 -3 6 -12q13 -14 18 -22q-21 0 -21 -21q-20 9 -60 28q-5 5 -14 -4q22 -11 56 -42q-12 8 -21 8q-5 -5 -3 -20q5 -22 5 -27q-14 2 -32 37q-8 -31 12 -66q-10 10 -38 10q0 -13 39 -23l-38 -96q-22 -61 -23 -112q0 20 -14 29q-7 -9 -7 -35
q1 -31 -1 -39q-45 -108 -74 -108q-12 0 -14.5 -5t-15 -5t-26.5 -19q-24 -32 -25 -34l14 -14q17 17 17 28l34 -15q13 -7 13 -22q0 -8 -3 -21q3 0 5 5.5t15 5.5q36 0 77 -92q33 -73 35 -94q1 -17 -10 -76q14 -18 4 -98q-3 -22 7 -60q12 -41 12 -49q0 -12 -16 -47
q-20 -43 -23 -52q4 -7 13 -7q27 41 29 86q30 -28 73 -28q71 0 140 58q63 57 127 114v-93zM1204 1433q-3 -7 -24 -27q-17 -16 -17 -27l-37 39q3 -5 3 -8q0 -4 -5 -4t-5 -1q3 -7 28 -31q-19 -15 -41 -75q-18 -54 -31 -54t-9 6q5 9 1 13q-12 -74 -48 -182q-19 19 -35 3
q0 -18 4 -22q11 6 11 14q0 -16 23 -16q-20 -51 -42 -237q0 10 -8 19q-34 -275 -91 -436q-83 -230 -239 -320q-3 28 -28 118q-22 84 -22 97q0 26 20.5 75.5t36.5 58.5q-9 6 -18 6q56 552 401 837l-16 14q-12 -3 -68 -22q-47 -16 -59 -16q-15 0 -17 6q-6 12 -7 13
q-6 -9 -6 -19h-70q-12 0 -53 28.5t-53 28.5t-9.5 -5t-9.5 -5q-11 0 -33 14.5t-34 14.5q-73 0 -128 -64q-50 -59 -50 -123q0 -52 27 -98q16 -27 79 -103q-29 -32 -58 -63q-37 -37 -67 -37q-52 0 -83 88q-22 61 -22 103q0 134 128 285q124 146 221 146q14 0 15 -11
q2 -15 5 -17q7 6 7 27q24 1 77 -19v29q19 -18 30.5 -18t67 -19.5t67.5 -19.5t43 -4.5t43 -4.5q75 0 134 67q-13 -19 9 -19q12 0 10 4.5t10 4.5t22 -12q13 -16 20 -20zM1697 1350q2 3 3 6q0 22 -25 22q0 -32 -15 -32q11 0 17 8t11 16q9 -9 9 -20zM1660 1393q-20 0 -20 20
q0 -9 -23 -11q4 0 21 -4.5t22 -4.5zM1658 1316l-11 33h-14l11 -38zM1680 1284v47q-20 -40 -20 -52q0 7 6 9q8 3 14 -4zM1557 1385v16h-25v-16h25zM1514 1409v26h-16v-26h16zM1577 1352q0 5 -1 23t-1 23q-17 -22 -54 -54q11 0 31.5 4t24.5 4zM1628 1300l-23 24l-10 -10
l23 -23zM1648 1266v25h-16v-25h16zM1589 1303l-38 12v-14l32 -11zM1510 1313v36q-3 0 -11 -4t-21 -4q-14 0 -17 9t-6 9q0 -11 6.5 -29.5t6.5 -22.5q0 15 10 24q18 -18 32 -18zM1456 1309l-24 25l-9 -10l23 -24zM1466 1298l-13 5l-12 -24l13 -6zM1176 1443q-5 0 -21.5 -1
t-21.5 -1q8 0 8 -33zM1112 1323v26h-16v-26h16zM1055 1342v36h-16v-36h16zM1353 1049q-9 0 -21 14q-5 -12 -2 -25q4 -20 4 -18q0 29 19 29zM1081 1303l-25 13l-5 -14l25 -12zM1021 1328v16h-26v-16h26zM907 1367q-8 0 -28 -11q7 -12 24 -34q5 4 2.5 22t1.5 23zM946 1308
q-5 0 -17 4.5t-16 4.5q8 0 8 -24q9 9 25 15zM1322 855l-10 9l-33 -32l9 -11zM764 1376q-3 0 -9 -3t-20 -3q-12 0 -14 15q-1 2 -3 2q0 -14 9.5 -28.5t17.5 -14.5q-7 6 19 32zM691 1381v54h-17v-54h17zM1272 804l-5 13l-32 -11v-14zM704 1341q0 7 -11.5 15.5t-19.5 8.5
q6 0 9 -16q5 -21 6 -23q-4 8 2 15q7 7 14 0zM892 1026l-12 28l-14 -5l12 -23h14zM1292 633l-25 12l-6 -13l26 -13zM561 1337v17h-25v-17h25zM1246 643l-12 28l-14 -5l12 -23h14zM1181 694q-3 0 -8.5 2.5t-18.5 2.5t-18.5 9.5t-17.5 9.5t-34.5 -6t-31.5 -6q16 -16 71 -16
q12 0 19.5 -10t19.5 -10q13 0 14.5 12t4.5 12zM1232 571v16h-35v-16h35zM951 867q-1 0 -17 -5q-11 -3 -17 3q9 0 3 16l-11 -36q5 0 21 11t21 11zM1265 500l-12 28l-13 -6l11 -22h14zM1299 448q-22 0 -22 16q0 -22 9.5 -69.5t9.5 -64.5q0 103 3 118zM1323 260v54h-17v-54h17z
M849 715v17h-35v-17h35zM1160 350l-14 5l-12 -24l14 -6zM849 609v17h-26v-17h26zM723 546v94q-7 0 -16.5 -17t-9.5 -34q0 -14 12.5 -27.5t13.5 -15.5zM672 480v26h-17v-26h17zM739 279v36h-17v-36h17zM630 70q-17 70 -53 189q-10 -40 -44 -88q-36 -52 -73 -74q-9 -5 -68 -27
q-36 -13 -37 -32q-82 82 -122 141q-2 7 -6 95q-3 66 -31 90q-63 -9 -121 -66t-58 -102q0 -50 72.5 -118t128.5 -68q9 0 9 4q0 1 -2 5t-2 6q2 4 10 4q12 0 32 -14.5t30 -14.5h110q113 0 225 70z" />
    <glyph glyph-name="L" unicode="L" horiz-adv-x="1300" 
d="M1213 201h-16v26h16v-26zM725 208l-28 -12v14l23 12zM708 87h-14l-11 22l13 6zM490 185l-14 -5l-12 27h14zM426 209q18 -18 -2 -38l-23 24q16 14 25 14zM408 148l-44 11v16l44 -11v-16zM323 148l-54 11v16l54 -10v-17zM1312 342q0 2 7 -56q4 -38 -9 -56
q-60 -83 -199 -161q-143 -79 -239 -79q-34 0 -56 19q-7 -9 -7 -18h-69q-9 -1 -393 146q-1 7 -9.5 32.5t-8.5 34.5q0 -5 37 -24q19 20 30 20q19 0 53 68q-11 -4 -37 -23q-22 -17 -35.5 -17t-12.5 -1q4 -7 4 -9q-5 6 4 15l-15 14q-9 -4 -14.5 -16t-15.5 -12q-4 19 -26 57
q-8 -1 -8 -10q72 72 96 262q6 46 14 248q1 17 3.5 22t24.5 20q-3 17 -3 36q0 80 36.5 177t95.5 168q-8 -13 -8 -21q17 -17 22 -17q4 2 10 15q-10 38 -10 32q11 -9 20 -9q10 11 -13 33q104 139 139 139q13 0 9 -6q-4 -9 0 -13q3 6 12 11.5t9 10.5q0 4 -7 12q122 61 138 61
q11 0 43 -4.5t43 -4.5q12 0 9.5 9.5t9.5 9.5t9.5 -9.5t9.5 -9.5q15 0 13 5q-5 17 -5 13q23 -23 23 -17q-1 -4 -7 -7q5 -5 13 -7t11 -5q8 3 12 12q221 -70 221 -294q0 -97 -44 -192q-53 -114 -153 -184q-18 81 -3 155q-16 17 -21 17q-10 -27 -10 -56q0 -17 5.5 -57.5
t5.5 -66.5q-45 -12 -137 -12q-37 0 -79 71q9 32 3 57q-11 32 8 63q14 -9 27 -18q17 -11 32 -11q57 0 93 47.5t40 47.5q13 0 9 -6q-5 -9 -1 -13q35 151 35 210q0 79 -29 122q-22 33 -99 88q-7 -9 -7 -18q-13 0 -31 18q-8 -10 -8 -19q-10 6 -26 3q-25 -4 -29 -4q-13 0 -11 8
t-1 12q0 -2 -5.5 -9.5t-5.5 -10.5q0 -9 23 -12q-6 -8 -11 -17q-8 -9 -22 -9q-31 0 -31 20q-9 -9 16 -35q-8 -4 -71 -4q-13 0 -10 11q4 14 1 18q-5 -5 -7.5 -12t-7.5 -12q1 -1 6 -20q4 -13 18 -13q19 0 19 14q0 -14 10 -24q16 17 23 17q-38 -50 -41 -93q-19 20 -35 5
q17 -17 28 -17q-11 -40 -35 -109q1 7 10 -26q-30 -279 -66 -410q-60 -218 -194 -361q5 -3 72 -3q61 0 188 -45q207 -72 269 -72q159 0 316 171zM619 735h-36q0 4 -9.5 17t-9.5 18q11 0 15.5 6.5t8.5 13.5q0 -30 8 -38q10 9 8 47q3 -22 15 -64zM442 725h-17v25h17v-25z
M219 21q-92 -31 -109 -31q-100 0 -100 81q0 60 69 121q64 57 139 73v-122q1 -84 1 -122zM1108 1388l-33 33l-10 -9l33 -34zM1204 1249v35h-17v-35h17zM1070 1353v26h-16v-26h16zM1197 1180v37q-2 0 -22 4t-31 4l34 -35q0 9 9 19q6 -6 10 -29zM1170 1187h-31q8 -2 14 -12
q-18 -18 -18 -22q13 0 24 13t11 21zM1156 1148l-14 5l-12 -25l14 -6zM839 1408l-5 14l-22 -12v-14zM1099 978l-12 10l-23 -30l13 -8zM661 1243l-14 5l-12 -25l13 -5zM651 1115v35h-16v-35h16zM675 1082v16h-25v-16h25zM689 1045l-34 33l-9 -10l32 -33zM704 986v17h-26v-17
h26zM652 987l-23 34l-13 -8l23 -35zM567 1038q15 36 0 66q-3 -11 -30 -38q-15 0 13 -28q0 9 8 19q9 -9 9 -19zM528 1100l-14 5l-22 -39l14 -6zM603 968l-10 39h-14l10 -39h14zM588 1028q-16 -11 -46.5 -16.5t-36.5 -8.5q31 0 31 -22l23 19q29 0 29 28zM537 953v26h-16v-26
h16zM580 910v17h-35v-17h35zM480 887v35h-17v-35h17zM494 863v16h-25v-16h25zM442 868v25h-17v-25h17zM470 757l-13 5l-12 -24l13 -6zM439 695l-25 12l-5 -13l25 -12zM461 582v26h-17v-26h17zM513 529v17h-25v-17h25zM479 230l-10 10l-23 -23l9 -10zM318 201v26h-16v-26h16z
" />
    <glyph glyph-name="M" unicode="M" 
d="M1885 142h-17v25h17v-25zM1725 123h-16l-10 54h16zM1697 148l-5 -44h-17l6 44h16zM1689 40h-32q0 15 6.5 30.5t6.5 18.5q0 -46 19 -49zM1556 161h-17v34h17v-34zM831 86h-16v44h16v-44zM161 102l-27 -12v14l22 12zM1768 1258q-21 -32 -52 -83q0 7 8 38t8 45h36z
M1621 1252h-16v44h16v-44zM1686 1196l-33 -33l-9 11l32 32zM1706 1045h-14l-11 22l13 5zM1720 1164q-14 -37 -59 -130q-27 27 -14 40q-32 -3 -34 -15.5t-32 -12.5q18 21 32 63q0 -5 9 -19q16 37 41 37q2 0 2 -2q2 -8 13 -25q18 52 42 64zM1706 992l-12 -25l-13 6l11 24z
M1655 938q-13 11 -46 32q0 8 10 21t17 13q0 -51 19 -66zM1737 911q0 -3 -3.5 -23.5t-3.5 -30.5q-6 0 -12 10q-8 14 -11 17q-14 -6 -23 -6q40 19 53 33zM1621 913h-16v35h16v-35zM1581 949l-27 -12v14l22 11zM1555 983l-12 -25l-13 6l12 24zM2037 338q7 -19 7 -39
q0 -139 -293 -288q16 16 -4 36q-7 -48 -8 -46q-14 0 -32 17q-6 -6 -6 -27q-13 0 -30 18q-9 -10 -9 -19q-4 6 -17 4q-24 -4 -32 -4q-36 0 -117 58q5 53 27 174q20 111 20 121q0 5 -10 0q-12 -5 -4 -5q15 0 11 12l-10 20l-10 36q-6 23 4 40l-24 24q-9 -9 -9 -24q0 38 -11.5 53
t-11.5 18q0 12 39 108q48 118 60 155q0 -6 -4 -22q-2 -10 3 -16q8 13 25 35v79q-15 -3 -48 -16q18 -17 28 -17q-34 -2 -74 -23q14 35 55 89q-10 10 -28 10q-9 6 -18 6q9 35 49 101q8 52 33 112q32 76 68 100q-5 5 -8 16.5t-8 16.5q-23 0 -23 -28q-3 0 -9 13.5t-18 13.5
q-24 0 -38 -13q8 -12 30 -34q6 0 3 -9q-3 -10 -19 -10q-9 0 -23 -14q7 -7 28 -7q-43 -43 -81 -119q5 37 -21 83q9 -9 30 -9l16 15q-16 16 -27 6q14 3 46 15q0 -2 6 14q3 7 -11 7t-16.5 -4t-5.5 -4v44q3 0 5.5 10.5t16.5 10.5q13 0 13 -5.5t2 -5.5q4 47 43 80q42 37 44 43
q5 -9 20 -28q0 1 21 1q-10 -11 15 -11q3 7 16 24q-32 18 -66 27q6 8 12 16.5t21 8.5q-1 0 64.5 28t77.5 28h116v-34q0 -12 -10 -29q-14 -22 -16 -27q-24 -74 -59 -149q-18 -37 -18 -85q0 -5 -9 -1q-12 6 -14 6q-13 0 -26 -10q-21 -14 -25 -17q14 15 3 27q-31 -14 -42 -33
q24 -24 42 -24q13 0 27 15q17 19 27 23q4 -8 -1.5 -22.5t-12.5 -14.5l-16 -16q0 -3 9 -16q0 -72 -37 -87q5 -6 27 -6q-14 -42 -29 -84q-12 -35 -12 -74q0 20 -9 28q-5 -9 -15.5 -18.5t-10.5 -12.5q0 -7 26 -16q-1 -12 -24 -33q11 -8 11 -45q0 -50 -19.5 -149.5t-19.5 -92.5
q0 -77 18 -153q24 -102 70 -129q7 9 7 18q6 0 24 -18q2 0 15 9.5t25 9.5q42 0 110 58q59 50 93 102zM1442 1031l-10 -9l-23 23l9 10zM1646 888q-9 -4 -28 -18q10 -8 19 -8q-24 -23 -24 -40q0 31 -10 52q-31 -15 -69 -15q13 6 40 53q-1 -10 21 -10q8 0 9 -4q0 -1 -2 -5t-2 -6
q1 -3 9 -3q11 0 24 5q8 4 13 -1zM1029 1412h-16v25h16v-25zM1123 1321l-12 -25l-14 6l12 24zM1058 1358l-30 24q-4 0 -11.5 -11t-17.5 -16q4 10 20.5 28t21.5 27q0 -34 17 -52zM991 1393h-14l-11 32l13 5zM1115 1255q-7 7 -13 2q-6 -4 -6 -11q0 4 4 16t4 16q1 -7 11 -23z
M1405 951h-16v34h16v-34zM991 1355h-16v26h16v-26zM983 1396q0 15 -8 24q-9 -17 -9 -56q-15 14 -25 4q23 -24 14 -24l-19 19q-9 -9 -9 -33q0 10 9.5 40t9.5 45q0 -24 9 -33q4 14 18 47q10 -10 10 -33zM1048 1280h-17v25h17v-25zM1029 1252h-16v25h16v-25zM1367 888l-13 -5
l-12 27h14zM989 1269l-6 -13l-24 12l5 14zM966 1298q-4 4 -15.5 -0.5t-22.5 0.5v-29q-5 37 6 37q7 7 20 3q12 -4 12 -11zM1016 1210l-27 -24l18 22q-23 23 -2 23q5 -21 11 -21zM1381 818q-17 12 -26 12q23 23 23 30q0 -5 1.5 -21t1.5 -21zM908 1293q0 15 -41 15
q0 5 10.5 18.5t10.5 17.5q5 -5 -4 -14q24 -23 24 -37zM1104 1083h-16v44h16v-44zM1058 1111h-17l-10 44h16zM897 1271h-16v25h16v-25zM973 1204q0 -6 -9 -15v28q0 -21 9 -13zM1085 1045h-14l-11 22l13 5zM1104 1007h-16v35h16v-35zM894 1238q-34 -33 -45 -33v64
q18 -31 45 -31zM972 1111h-16v34h16v-34zM1010 1108l-12 -37l-13 5l11 32h14zM922 1131l-14 16l-22 -18q30 63 30 55q2 -3 2 -65q4 3 4 12zM841 1186h-17v35h17v-35zM822 1186h-16v25h16v-25zM1079 940q-16 16 -52 1q6 12 52 36v-37zM930 1077h-25v17h25v-17zM954 1045
l-13 -8l-22 28l12 9zM984 987q-21 23 -24 23q22 0 24 19v-42zM1024 960q-22 0 -22 -25q0 8 -7 15q-7 6 -14 0q0 7 19 28h12q3 4 -3.5 13.5t-6.5 18.5q0 -15 22 -15v-35zM838 1146l-27 -12v14l22 12zM897 1054h-16v54h16v-54zM1079 874q-5 5 -20 2.5t-19 2.5q2 -2 4 -2
q-1 0 25 25q10 -19 10 -28zM836 1096h-25v16h25v-16zM1110 821q-1 0 -23 -8q-18 -6 -24 0q14 14 14 47q0 -14 10 -24q9 10 9 24q0 -26 14 -39zM953 923h-13l-12 22l14 5zM972 885h-16v25h16v-25zM803 1026h-16v25h16v-25zM791 1068q-9 3 -16 3q-24 0 -39 -46v35q15 10 23 27
q6 12 10 12q4 -31 22 -31zM957 808q0 -5 -32 -37q0 33 -8 33q34 0 40 4zM1030 576h-41q11 16 11 25q11 -12 30 -25zM759 892q0 -46 -16 -46l-21 10q0 -27 -7 -34q2 -7 14 -23q9 1 9 9q-35 -127 -69 -253q-46 -161 -86 -234l-18 -16q9 -7 18 -7q-164 -308 -371 -308
q-69 0 -127 40q-66 46 -66 115q0 44 52.5 109t93.5 65q12 0 9.5 -9.5t9.5 -9.5q13 0 16 9t6 9q7 -63 16 -95q18 -64 57 -111q155 27 251 240q37 82 112 359q57 207 57 219q17 -12 25 -12q-9 -9 6 -53zM1903 1402v26h-16v-26h16zM1776 1369v16h-34v-16h34zM1753 1327v35h-16
v-35h16zM1741 1362l-5 14l-32 -11v-14zM1790 1352h-14l-25 -81h14zM1763 1004h-16l-11 -44h16zM1702 1017q-9 9 -22 17q-1 0 -20 -19q-8 9 -9 19q-5 -11 -3 -29q3 -24 3 -27q0 10 11 23q15 18 18 24q9 -9 22 -8zM1595 1001q-9 0 -22 13q0 -4 -3.5 -20t-3.5 -21q0 7 11 17.5
t18 10.5zM1481 1026l-10 53h-17l10 -53h17zM1639 777l-10 39h-14l10 -39h14zM1442 970l-21 46l-13 -5l21 -41h13zM1610 798l-6 14l-22 -12v-14zM1509 882h-16l-11 -44h16zM1079 1260q0 11 -10.5 20t-10.5 13v-38q0 7 7 10q7 2 14 -5zM1424 894v44h-16v-44h16zM1405 894v44
h-16v-44h16zM1689 653q-17 0 -40 23q0 4 5 -13q2 -5 -12 -5q-10 0 -29 -19q-13 13 -23 3q27 -3 52 6q7 0 8 -3q0 -2 -3.5 -6.5t-3.5 -5.5q1 -3 8 -3q14 0 24.5 11.5t13.5 11.5zM1678 625l-14 5l-21 -43l13 -5zM1593 659v26h-16v-26h16zM1067 1216l-13 8l-41 -56l12 -9z
M1515 715l-36 12v-14l31 -12zM1584 612v44h-17v-44h17zM1543 761q0 14 -24 38q-8 -9 -23 -13q10 -15 28 -47q-9 -9 -13 -6q-34 34 -34 52q0 13 3 21.5t3 11.5q-15 -27 -15 -71q0 -55 20 -80h-13q-11 -11 -11 -24t-15 -27q23 -23 23 -43q6 21 42 107q29 68 29 81zM1349 819
v35h-17v-35h17zM1631 569l-14 5l-12 -24l13 -6zM946 1255q0 -14 -10 -23q-9 9 -9 23q0 -2 4 -26q3 -13 -5 -18q20 18 20 44zM1359 808q0 -19 -37 -19q-7 0 -8 -2q0 -2 5.5 -7t5.5 -7q-1 -2 -8 -2q-10 0 -24 5q-8 3 -13 -2q10 0 26 -10.5t19 -10.5q0 18 13 18q7 -13 2 -57
q4 14 9 47t10 47zM1593 471v25h-16v-25h16zM1555 513l-13 4l-12 -24l13 -5zM1104 913v54h-16v-54h16zM1292 735v25h-16v-25h16zM814 1161q-19 19 -19 28q0 -9 -22 -31l22 17zM1273 593v35h-16v-35h16zM1023 855l-25 -12l14 -44q0 3 5.5 24t5.5 32zM891 941v37q-1 -4 -19 -28
q-14 -20 -13 -39q-5 5 12 38q9 -8 20 -8zM780 1030v17h-26v-17h26zM1239 592q-9 0 -25 -13l23 -25q20 20 2 38zM982 791v63h-17v-63h17zM1100 670q-16 8 -42 35q-3 -19 -8 -43q0 15 18 15q13 0 21.5 -3.5t10.5 -3.5zM1490 347q0 -8 -8 -9q-2 10 -17 69q-11 41 -11 63
q-4 -22 -25 -90q-18 -59 -18 -70q0 -36 23 -105q20 -62 39 -93q16 43 15 91q-2 67 1 87q-14 16 1 57zM1235 510l-10 9l-23 -23l9 -10zM1100 655q-4 0 -22 -4t-23 -4q0 -9 14 -27q0 3 31 35zM770 923q0 33 -13 73q0 -29 -9 -37q-9 8 -10 18q0 -8 -9 -18q-4 8 -11 42v-49
q55 -29 52 -29zM991 650v35h-16v-35h16zM1035 634l-24 10l23 -12l-23 16q-13 0 -21 -10.5t-11 -10.5q8 -9 56 7zM943 660l-10 10l-23 -23l9 -10zM1322 724q-19 -55 -44 -67q4 25 29 49q-2 -2 -5 -2q-10 0 -38 29q0 -8 25 -33q-9 -10 -25 -15q-9 -2 -19 -4q-10 -47 -35 -130
q-84 -224 -148 -270v25q0 11 17 93q15 79 15 118q0 27 -6 41q15 20 13 75q5 11 1 37q-5 37 -5 44q10 -19 -8 -19q-2 2 -6 13q-1 6 -15 6q-20 0 -38 -37l-23 23q14 14 4 24q-4 -5 -6.5 -22.5t-6.5 -22.5q20 0 28 -7q-29 -30 -60 -43q-10 19 -9 45t-1 30q-4 8 -15 13h39
q0 22 13 35q4 -5 14 -9.5t15 -9.5q11 22 40 20v44q-5 0 -31 -26l-15 14q14 18 47 46q-5 6 -28 26q-14 12 -14 22q0 -14 -10 -24q-9 10 -9 24q0 -24 -9 -33l-15 16q0 9 8 21q-20 -30 -30 -41q-18 -21 -35 -26q26 38 26 77q-17 -33 -42 -27q0 -32 1 -35q-7 -51 -26 -51
q-24 0 -24 12q5 5 19 16t19 16q-11 0 -38 27q6 5 19 2q17 -5 18 -5l-14 45q-3 -19 -19 -31q-20 -15 -22 -20q0 -5 5 -14q5 -12 6 -15q-14 -67 -19 -188q-3 -138 -15 -376q-3 -32 -19 -114q-15 -76 -14 -85v-59h102q9 -1 9 3q0 2 -1.5 5.5t-1.5 5.5q1 4 9 4q7 0 8 -3
q0 -2 -3.5 -6.5t-3.5 -6.5q1 -3 8 -3q56 0 183 181q123 174 123 223q-13 6 -13 38q4 -4 -1 -13q-4 -6 9 -6q14 0 47 87q26 69 51 137q-5 0 -9.5 3t-2.5 5q2 3 13 3q16 0 19 31q3 28 -5 45zM709 689l-13 9l-22 -33l13 -10zM888 227v34h-17v-34h17zM540 264v35h-17v-35h17z
" />
    <glyph glyph-name="N" unicode="N" horiz-adv-x="1812" 
d="M1805 1336q0 -69 -56 -87q-97 -30 -160 -91q-30 -30 -71 -177q-28 -104 -79 -339q-71 -333 -204 -614q-14 -30 -48 -38q-28 -6 -55 -11h-33q0 61 -12 84q-1 -2 -2 -3q-11 -14 2 -80q-26 -5 -73 0q-18 216 -102 700q-19 130 -60 392q-38 -72 -117 -396.5t-158 -471.5
q-121 -226 -309 -226q-66 0 -95 13q-46 22 -112 103v79l23 22q8 -10 17 -10q6 6 -12 24q47 42 137 99q14 -8 48 -119q29 -98 93 -98q120 0 234 365q61 236 122 471q36 124 72 249q44 138 98 234h43q29 -342 57 -685q35 -387 83 -653q6 2 13 6q-66 427 -92 769
q-20 286 -39 572q11 0 46 5.5t47 5.5q11 0 13.5 -9.5t14.5 -9.5q13 0 18.5 4t8.5 4q0 -15 -8 -74q-4 -35 8 -39l157 -1026q72 173 139 524q119 626 342 626q28 0 46 -35q15 -28 15 -59zM1044 1356v44h-16v-44h16zM1045 1318v26h-16v-26h16zM1014 1363l-6 14l-22 -12v-13z
M1101 1224v25h-16v-25h16zM1016 1322l-13 5l-12 -24l13 -6zM1054 1277h-14l-12 -31l14 -5zM1072 1225l-10 9l-33 -32l10 -10zM851 1153v17h-35v-17h35zM224 276l-13 4l-12 -24l13 -5zM168 196l-11 44h-16l11 -44h16zM139 196l-12 28l-13 -5l11 -23h14zM178 140l-11 44h-16
l10 -44h17zM223 98l-33 33l-9 -10l32 -32zM143 111q-18 36 -18 54q-3 0 -5.5 -8.5t-16.5 -8.5q-21 0 -21 -28q14 9 38 9zM167 68l-13 5l-12 -24l13 -6zM120 55v44h-16v-44h16z" />
    <glyph glyph-name="O" unicode="O" horiz-adv-x="1300" 
d="M265 476l-23 24q7 2 23 14q7 -7 7 -19t-7 -19zM179 449l-34 -23l-8 13l33 22zM296 183h-25v16h25v-16zM128 342h-25v16h25v-16zM272 146l-10 -9l-23 23l10 10zM142 235h-14l-11 22l13 5zM142 188h-14l-11 32l13 4zM1271 1089q0 3 -32 -154q-19 19 -35 11q0 -13 38 -23
q-57 -263 -268 -545q-239 -320 -495 -388l-18 19q-25 -28 -37 -28t-19 9t-18 9q-12 0 -16.5 -4.5t-16.5 -4.5q-124 0 -210 147q-71 121 -69 224v59q6 0 21 -9q3 18 24 43q-7 2 -23 13q-6 -13 -21 -37v54q12 0 29 -17q7 14 7 28t-7 28q-5 -9 -18 -28v65q0 -9 9 -28q5 9 4 24
q-1 11 20 28q-6 6 -27 6q32 164 87 296q4 5 19 12q67 182 214 346q167 186 310 186q11 0 31.5 -6t29.5 -6q-235 -238 -322 -443q-34 -82 -85 -270q-11 0 -32 -9q5 -6 26 -6q6 -41 -36 -62v-42q9 -8 18 -8q0 -44 5 -138t5 -99q0 -31 53.5 -97.5t82.5 -66.5q9 0 33.5 -9.5
t36.5 -9.5q134 0 282 165q122 136 220 343q89 187 100 297q0 -5 9 -19q16 96 16 196q0 206 -103 206q-72 0 -139 -92q-52 -71 -74 -148q-23 -81 -21 -175q32 -18 93 -55q1 -18 -49 -78t-67 -60q-90 0 -132 71q-32 53 -32 130q0 147 107 295l20 -19q5 5 1 18q-5 18 -4 26
q144 171 301 171q93 0 140 -131q34 -95 34 -210zM376 749v25h-16v-25h16zM217 833v44h-16v-44h16zM301 712v25h-16v-25h16zM203 800v16h-25v-16h25zM282 684l-12 27l-13 -5l12 -22h13zM226 707l-22 33l-12 -8l21 -33zM267 635q-17 -7 -44 -23l25 -23q0 5 9.5 23t9.5 23z
M149 691l-5 13l-22 -11v-14zM275 542v42q0 -9 -24 -11q6 0 12 -12q8 -16 12 -19zM208 581l-5 53h-16l4 -53h17zM161 599v44h-16v-44h16zM161 568h-14l-11 -31l13 -5zM170 519l-13 5l-12 -24l13 -6z" />
    <glyph glyph-name="P" unicode="P" horiz-adv-x="1386" 
d="M1194 744l-28 -12v14l22 11zM658 299l-21 -56l-14 6l21 50h14zM639 161h-16l-10 63h17zM238 175l-37 12l5 13l32 -11v-14zM1221 910q-12 -12 -12 -33q1 9 -21 9q-13 0 -41 -27q9 13 39.5 33.5t34.5 17.5zM1391 1051q0 -37 -41 -169q-10 11 -29 32q-3 -4 -3 -8q0 -6 8 -22
t8 -26q0 -34 -78 -92.5t-110 -58.5t-62 17q-33 18 -33 39q0 11 52 81q57 77 68 105q31 80 31 164q0 155 -129 212q-77 33 -225 33q-130 0 -280 -120q-159 -127 -159 -258q0 -64 21 -87q30 -33 32 -38q7 -41 23 -98q-126 -50 -156 -50q-17 0 -61 44q6 0 21 -7q7 -4 7 10
q0 6 -12.5 32.5t-15.5 93.5q2 7 -7 16q-2 0 -14.5 -9t-24.5 -9q-3 61 16 103t17 64q66 147 246 266q185 122 357 122q11 0 43 -9t42 -9t23.5 9t23.5 9q32 0 143 -41q67 -25 105 -61q32 -30 26 -30q11 0 9 5t9 5t43 -56.5t43 -98.5q23 -82 23 -105zM1319 1118l-14 5l-12 -24
l13 -6zM1241 800l-6 14l-22 -12v-13zM951 806l-14 5l-12 -24l13 -6zM522 785v32q-29 29 -46 29q6 -32 22 -83zM262 944v44h-17v-44h17zM271 916v25h-16v-25h16zM1108 1173q-22 43 -62 43q-49 0 -145 -70q-89 -65 -120 -111q-55 -81 -77 -171q-6 -26 -47 -293
q-19 -85 -56 -255q-2 -8 5.5 -26t7.5 -26q0 -11 -11 -20q-9 9 -9 38q-75 -226 -241 -226q-97 0 -97 100q0 19 4 65.5t4 71.5q0 37 -7 64h-36q-9 0 -9 -4q0 -1 1.5 -5t1.5 -5q-1 -4 -9 -4q-7 0 -8 3q0 2 3.5 6.5t3.5 5.5q-1 4 -8 4q-31 0 -101 -63q-74 -65 -74 -103
q0 -114 102 -170q78 -42 191 -42q139 0 240 43q114 49 223 168.5t155 343.5l56 372q35 198 119 266zM262 774l-10 63h-16l9 -63h17z" />
    <glyph glyph-name="Q" unicode="Q" horiz-adv-x="1300" 
d="M975 83h-16v43h16v-43zM523 99l-28 -12v14l22 11zM324 201q-3 -8 -19 -23q-12 -11 -12 -41q-5 14 -12 57q-3 20 -22 23q43 0 43 9q0 -4 -15 -18l16 -15q12 8 21 8zM256 203q18 -18 -1 -38l-24 25q17 13 25 13zM148 163q-6 8 -6 16v-42q-23 23 -42 28q-3 -2 48 -2z
M1315 334q3 -14 3 -29q0 -97 -135 -210q-128 -108 -216 -108q-70 0 -121 39q-26 20 -66 72q-29 39 -47 39q-11 0 -51 -31q-50 -40 -69 -50q-99 -56 -151 -66q-43 -1 -133 -12q-13 11 -21 11q0 17 -5 58q-5 46 -6 74l-15 16l-13 -13q8 -7 17 -7q-3 -64 8 -129q-9 9 -41 9
l-30 29q-81 57 -81 78q0 -14 19 -14q28 0 51 24l-23 23q-17 -16 -23 -16q12 23 -4 73q0 -5 35 -19q8 8 66 45q32 22 27 49q-12 -4 -41.5 -25.5t-40.5 -21.5q-14 0 -13 -2q5 -6 5 -8q-6 6 3 14q-14 15 -31 15q-8 -8 11 -27q-24 15 -51 57q-23 35 -37 35q-13 0 -21 -3.5
t-11 -3.5q5 5 22 17.5t22 17.5q0 -19 18 -19l17 -18q5 9 -2 32q-9 31 -9 42q25 -1 25 -23l-27 -11q19 10 19 30t-19 52t-19 34q4 9 18 27q-7 24 -41 42q-14 -14 2 -46q-17 10 -25 10q22 204 28 204q2 -3 7 -11l17 -17q15 5 59 51q-6 5 -47 5h-14q-2 -1 0 -3l8 -6q0 82 -1 84
q18 -19 31 -19q9 0 28 -18q15 15 -5 34q9 0 35 -25q15 0 21 7v26q0 13 -6 17q-9 6 -19 13q-18 5 -77 5q24 54 48 107q34 73 73 75q-6 6 -28 6q16 16 31 16q5 4 2 8q-5 8 -5 20q0 16 65.5 100.5t107.5 119.5q22 19 71 21q-17 16 -38 16q2 1 58.5 45.5t86.5 44.5q14 0 15 -6
q2 -11 4 -13q4 9 17 26h119q-210 -191 -325 -450q-106 -239 -106 -476q0 -328 183 -328h112q14 0 34 19q28 28 36 33q-27 36 -90 100q-3 12 8 24q15 2 -7 2q-11 0 -14 -9t-15 -8h-77q6 39 67 84.5t114 45.5q51 0 80 -24q81 -65 88 -70q137 152 229 368q95 224 95 410
q0 73 -22 130q-30 76 -90 76q-98 0 -174 -167q-60 -131 -60 -198q0 -89 93 -96v-51q0 -35 -117 -97q-77 0 -118 61q-36 52 -36 131q0 14 10 15q15 1 18 4q-6 6 -27 6q3 122 92.5 254t213.5 202q-8 -22 -17 -22q32 3 39 32q13 -8 30 1q3 0 18 -4.5t25 -4.5q12 0 17 4.5
t16 4.5q96 0 134 -128q21 -70 21 -162q0 -122 -22 -222q-28 -121 -94 -263q-30 -62 -131 -211q-90 -133 -90 -143q0 -41 71 -91q65 -45 93 -45q107 0 254 178zM830 299q-22 -6 -63 -20v35q30 0 41 11q22 -23 22 -26zM262 817l-12 -25l-13 6l12 24zM223 607l-6 -14l-31 12v13
zM1040 1385v25h-16v-25h16zM975 1310l-12 28l-13 -6l11 -22h14zM403 1142v53h-16v-53h16zM418 1063q-23 0 -23 16q0 -27 -23 -47q23 -12 23 -56q0 19 23 87zM328 879v25h-16v-25h16zM225 926v25h-16v-25h16zM683 421l-9 9l-23 -23l9 -10zM164 743v16h-25v-16h25zM103 735
h-14l-11 -31l13 -5zM161 610q-1 0 -24 6.5t-45 6.5q0 -46 14 -73q-6 17 -2 46q10 -19 43 -15q-30 29 -30 26q5 0 22 1.5t22 1.5zM300 382l-10 63h-16l10 -63h16zM291 336v34h-17v-34h17zM291 270v44h-16v-44h16zM56 392v137h-16v-137h16zM56 308v71h-16v-71h16z" />
    <glyph glyph-name="R" unicode="R" horiz-adv-x="1642" 
d="M1520 862h-13l-12 22l13 5zM1390 862h-13l-12 22l13 5zM870 977l-12 -25l-13 6l12 24zM1186 578l-17 -34l-13 5l17 33zM1182 491q-9 0 -27 10q0 7 10 20t16 13q0 -43 1 -43zM824 390l-23 -33l-12 9l22 32zM1646 213q-128 -127 -187 -171q-97 -73 -179 -73h-55q-8 0 -8 3
q0 2 3 6t3 6q-1 3 -8 3q-11 0 -9 -4.5t-9 -4.5q-69 0 -117 96q-37 73 -37 122q0 12 32.5 153.5t32.5 153.5q0 47 -21 88q-28 52 -80 56v54q21 20 75 22h77q80 6 127 138q36 98 36 185q0 108 -88 232q-8 -9 -8 -18q-5 5 -5 48q-5 0 -12 -11q-10 -16 -12 -19q-29 30 -31 30v91
q11 -9 31 -28q18 19 28 19q18 0 59 -21q0 -29 8 -45h33q7 7 3 15q-4 7 -11 0q4 4 49 4q12 -1 12 -23q0 -11 -10 -45q-12 -37 -13 -48q-7 0 -24 -8q6 -13 40 -34q1 30 3 60q5 45 33 50q0 7 -10 9q-10 1 -17 -6q10 18 10 26q46 -46 57 -46q40 -33 41 -66q41 -3 70 -76
q24 -62 24 -122q0 -40 -13 -49q-11 -216 -377 -305q149 -125 149 -273q0 -58 -28 -106q9 -8 18 -8q-10 -22 -10 -58q0 -68 38 -83q-23 -23 -13 -43q25 25 60 36q42 12 64 28q-16 -15 -5 -26q15 25 82 89q86 83 99 96v-99zM1164 1376q-9 -6 -28 -20q0 -3 8.5 -16t8.5 -23
q-29 4 -58 26l-18 -18q-92 18 -126 18q-19 0 -5 -14q-5 5 -14 12t-14 12q-6 -6 -6 -27q-122 -2 -269 -84q-165 -92 -207 -212q-2 -2 1 -18q2 -12 -11 -12q-12 0 -15 5q-2 3 -8 -1q15 -16 27 -16q-7 -17 -7 -34q0 -54 59.5 -114t59.5 -59q0 -53 -172 -88q-57 0 -90 67
q-26 54 -26 119q0 227 244 385q210 135 429 135q47 0 67 -28q14 0 14 27h34q0 -29 11 -36q8 6 6 18q-5 21 -5 17h54q-9 -10 -9 -38l15 -16q13 14 -6 33q23 22 45 22q3 -9 11 -22zM1437 1237l-14 5l-21 -42l13 -6zM1576 1057l-12 27l-13 -5l11 -22h14zM1330 1314
q-19 3 -22 -10q-6 -24 -8 -26q0 5 -29 5q7 0 9 -7q3 -7 -4 -13q3 0 8.5 3t19.5 3q11 0 13 -14q1 -3 4 -3q0 1 4.5 20.5t4.5 41.5zM1419 1184h-16l-11 -43h16zM1242 1360h-15l-11 -43h15zM1136 1163q-48 32 -79 32q-109 0 -226 -147q-108 -135 -108 -224q0 -8 1 -14
q-1 -1 -1 -2q-3 -2 -10 0q-4 0 -4 -13q0 -9 -9 -66t-9 -77q-12 -72 -42 -219q0 3 -1 7q-1 2 1 2h14q13 0 13 -6q0 -4 -5.5 -15t-6.5 -17q-2 0 -2 5.5t-13 5.5q2 0 -65 -149q-70 -156 -103 -185q-25 -15 -56 -47q-10 22 -43 24q-26 1 -52 3q0 -9 -6 -18q-8 17 -41 52
q-29 31 -29 41q0 23 27 184q-9 0 -18 7q18 18 18 22h-49q-39 0 -113 -61q-77 -63 -69 -97v-26q32 0 9 -23q1 -26 57 -91q61 -73 107 -73q-5 0 88 1q79 1 118 0q0 27 14 27q11 -12 -3 -26q110 25 238.5 117t175.5 181q54 102 85 261q4 21 36 232q20 132 37 194q34 121 87 152
q-8 0 -14 8t1 14l22 -9q-5 0 28 33z" />
    <glyph glyph-name="S" unicode="S" horiz-adv-x="1153" 
d="M553 625h-16v35h16v-35zM830 247h-17v53h17v-53zM744 95h-17v35h17v-35zM686 143l-24 -23l-10 10l24 23zM626 72q-15 -15 -39 -15q0 -31 -7 -31q-5 1 -11 6q9 9 13 42q3 -2 44 -2zM549 20q-23 2 -23 -7q0 9 -2 42q25 -24 25 -35zM417 37l-6 -13l-24 12l5 13zM1074 1253
q0 -17 -62 -90t-63 -84h-36q0 24 9 32q-10 5 -29 19q0 15 19 39q-83 126 -88 132q-62 70 -145 70q-14 0 -26.5 -4t-15.5 -4q0 7 5 22q4 9 -2 14q-149 -160 -190 -160q-25 0 -25 -3q12 -7 35 -6t30 8q-5 -27 -11 -55q-7 -31 -25 -55q0 -17 5 -22q17 17 29 5q-7 7 -24 -10
q9 -8 37 -6q0 -13 5 -42.5t5 -43.5q10 -10 38 -10q-31 -27 -31 -34l-34 36l20 -19q-10 39 -11 39q-35 0 -54 -38l4 58q2 37 -4 65q-18 -36 -18 -61q0 14 -38 14q-13 0 -9.5 5.5t-5.5 5.5q4 -13 27.5 -35.5t29.5 -39.5q-17 -3 -66 -27l14 -13q8 9 8 18q5 -4 10 -13.5
t10 -14.5q7 9 7 18q3 0 8.5 -4t18.5 -4q18 0 1 17q19 -11 28 -11q-3 -2 -13 -30q15 -39 3 -56l15 -15q5 5 12 7.5t12 7.5q-5 19 -29 56q9 5 29 19q-16 15 -16 28q20 -12 58 -42q3 3 6 17.5t14 24.5q-5 -4 -8.5 -7.5t-1.5 -4.5q3 -2 14 -2q21 0 57 -53q-17 -2 -35 -4
q-29 -7 -34 -29q3 3 3 5q0 3 -10 7t-14 8q-7 -8 -25 -26v-23q21 4 73 19q40 11 66 11q3 0 0 -7q-4 -11 1 -21q9 4 28 19q38 -38 48 -76q8 10 8 18q127 -142 153 -179q72 -103 72 -203q0 -41 -21 -111t-39 -83q-39 -7 -39 -12q2 -2 14 -2q-5 1 -48 -20q7 -7 47 -7
q-150 -149 -176 -149q-13 0 -10 6q4 9 1 13q-77 -76 -163 -76q-7 0 -40.5 16t-59.5 16q2 -6 15 -22q5 5 14 1q12 -6 14 -6q-24 0 -38 -14l-21 19q-34 -10 -93 -10q-63 0 -167.5 79t-104.5 125t51 126q38 52 75 105h34q22 -40 2 -61q6 -6 27 -6q-2 -19 -2 -37q0 -93 92 -221
q-4 -15 -4 -35q29 0 11 17q14 0 51 -8t49.5 -8t9.5 -6q-5 -9 -1 -13q7 9 7 18q7 0 27 -4t33 -4q51 0 105 39q11 8 45 50q28 34 41 34t13 -5.5t3 -5.5q6 62 46 91q-4 4 -16 10q2 13 2 26q0 76 -75 173q-54 64 -108 129l-80 68q-67 63 -64 120q-18 -19 -8 -34q0 -1 -11 16.5
t-11 34.5q11 0 24 -4.5t16 -4.5q2 2 12 5q4 1 4 15q0 12 -18 8q-32 -8 -38 -8q-30 0 -42 22q-11 18 -4 39q-5 6 -21 58q-20 59 -20 84q0 77 16 125q30 92 129 197q1 1 17.5 0.5t16.5 5.5q0 5 -12 15q7 0 29 22l19 -19q10 9 -5 24q129 51 138 51q11 0 26 -9.5t27 -9.5t12 5
t12 5t23.5 9.5t23.5 9.5q15 0 81 -22q-7 -5 -21 -54q34 31 34 52q8 -8 27 -9q25 -2 35 -6l28 -28h29q2 -7 52 -54q45 -43 45 -73zM930 1377v16h-35v-16h35zM951 1323l-5 14l-23 -12v-14zM896 1310l-13 5l-12 -24l13 -6zM834 1406v16l-140 -9v-17zM829 1335l-12 27l-13 -5
l12 -22h13zM872 1301v16l-44 11v-16zM607 1386q-24 0 -24 18v-28q0 9 24 10zM567 1358v16h-25v-16h25zM534 1316v25h-17v-25h17zM481 1263v17h-25v-17h25zM751 755l-5 14l-32 -11v-14zM625 847v16h-36v-16h36zM552 911l-25 19l-8 -13l24 -18zM677 740l-13 9l-22 -33l12 -10z
M553 839l-12 9l-23 -29l13 -8zM425 934q-32 0 -47 -14q9 0 23 6q9 -9 9 -37q9 17 15 45zM555 770q-9 0 -18 14q-14 0 -14 -27q4 0 15.5 6.5t16.5 6.5zM510 809v17h-45v-17h45zM445 836q-22 9 -22 52q-8 -11 -26 -32q14 -28 48 -20zM515 739l-22 46l-13 -5l21 -41h14z
M343 890v35h-16v-35h16z" />
    <glyph glyph-name="T" unicode="T" horiz-adv-x="1386" 
d="M1381 1310q0 -51 -43 -111q-49 -69 -110 -69l-27 -10q-16 0 -204.5 50t-246.5 71l-18 -19q-40 0 -121 -9q-33 0 -38 -5q9 9 0 23q-17 -17 -31 -17q0 5 11.5 11.5t15.5 9.5q-10 8 -19 8q34 34 43 34q20 -19 23 -19q9 45 91 86q68 35 102 35l32 -14q22 13 66 29q34 3 55 3
h50q8 0 8 -4q0 -1 -1.5 -5t-1.5 -5q1 -4 8 -4q12 0 32.5 4.5t32.5 4.5q11 0 110.5 -32.5t110.5 -32.5q20 0 57 19q13 -13 13 -32zM540 1159q-14 -1 -22 8q-18 -18 -18 -19q-4 4 4 12q-21 2 -26 -8q-7 -16 -11 -18q16 -16 36 -16q-8 -13 -54 -13l18 19q-8 7 -17 7q0 8 7.5 16
t14.5 1q5 6 5 18t-13 6q-2 -2 -5 -4q18 20 63 49q-9 0 -18 -10q5 -9 18 -24t18 -24zM432 1132l-23 -23l-9 10l23 22zM461 1084q-19 -40 -48 -54q20 29 13 54q0 -10 18 -10q17 0 17 10zM1039 892q-8 0 -28 3.5t-32 3.5t-13.5 8t-10.5 3q0 -8 13 -23.5t25 -15.5q29 0 29 1
q0 2 -1 4q6 -13 -10 -28q14 -21 14 -60q0 -12 -17 -119q-4 4 -5.5 13t-5.5 14q-10 -4 -69 -44q0 -14 8 -21q33 -17 52 -37q3 4 11 16q3 8 0 16q-4 7 -11 1q12 11 42 11q-16 -19 -24.5 -119.5t-46.5 -154.5q1 5 -3 41q-3 24 19 46q-2 2 -4 11q-1 3 -15 3t-14 -14q0 24 -9 33
q-21 -21 -9 -33q-5 5 -9.5 12t-9.5 12q-12 -23 -41 -52q10 -10 45 4q9 -26 -13 -26q-10 0 -14 8q0 1 -3 1q-4 -3 3 -17q7 -17 6 -27q-24 -29 -24 -55q0 -17 4 -21q27 44 40 82q17 48 26 65q0 -11 11 -49.5t11 -51.5q0 -9 -47 -80q-50 -75 -80 -104q18 39 36 98v32
q-23 -2 -43 -66q-26 -87 -29 -92q5 82 19.5 99.5t14.5 11.5q0 21 -37 21q19 6 55 21q-2 2 -4 14q-1 8 -14 8t-23 -8.5t-13 -8.5v148q-20 2 -34 -34q0 25 35 78q5 0 22 -5.5t21 -5.5q-3 -14 -6.5 -26.5t-20.5 -24.5v-60q3 -8 14 -25q2 1 9 22q5 15 19 15q13 0 13.5 -5t3.5 -5
q16 16 10 28q-15 -4 -49 -17q13 34 54 87q-14 15 -34 -5q0 8 8 28.5t8 31.5q0 30 -29 88q-8 -6 -6 -19q4 -22 4 -18l-28 27q-9 -1 -9 -9q13 24 -3 73q6 -21 22 -55q16 0 30 14q-7 7 -27 7q6 9 6 18q0 10 -10 24q-13 18 -14 22q-4 -2 30 -2l15 15q-7 9 -30 11q-27 3 -34 6
q5 11 28 31l-7 76q-26 -26 -26 -23q0 2 -3 10q-2 6 0 9q2 4 12 4q-7 0 52 83q66 91 143 129l18 -18q-8 18 14 18h25q12 -19 12 -40q0 -16 -7.5 -41.5t-7.5 -35.5q0 -11 5 -19zM777 622q0 5 -9 19q-10 -6 -10 -14q0 22 11 22q8 -18 8 -27zM396 984h-16v34h16v-34zM378 1038
q-15 -15 -4 -31q-9 9 -27 28q31 0 31 3zM832 498q0 15 -23 38q22 -5 22 3q-6 -11 -3 -24q4 -20 4 -17zM775 541h-14l-11 21l13 6zM392 909q-25 20 -25 53q21 -7 21 2q-12 -24 4 -55zM800 522l-5 -14l-24 12l5 13zM819 493l-6 -13l-24 12l5 13zM337 910q-14 12 -22 12
q18 0 18 19q0 -27 4 -31zM415 817h-16v25h16v-25zM396 827h-16v24h16v-24zM481 710q0 7 -7 10q-8 2 -14 -5q21 43 21 69v-74zM360 845h-16v34h16v-34zM784 384h-16v25h16v-25zM323 845h-16v25h16v-25zM341 808h-16v34h16v-34zM488 689l-23 -23l-9 10l22 22zM408 751
q0 5 -10 19q-21 -21 -28 -14q2 -2 5 -2q10 0 10 24q23 0 23 -27zM376 789l-6 -13l-24 11l5 14zM303 864l-23 -23l-9 10l23 23zM415 716h-16v25h16v-25zM452 670h-16v34h16v-34zM304 799h-16v43h16v-43zM352 765q-19 19 -19 -14v33zM323 753h-16v80h16v-80zM784 310h-16v34
h16v-34zM765 319h-13l-11 22l13 5zM424 661h-14l-11 21l13 6zM392 688q-37 0 -22 -15l-20 17v29q1 -11 11 -32q16 16 9 23zM286 771h-16v25h16v-25zM304 757l-12 -25l-13 6l12 23zM761 307l-16 -45l-14 5l16 40h14zM771 98q-100 -76 -124 -76q-13 0 -11 6q4 10 0 13
q-4 0 -10 -12q-7 -15 -14 -22q-7 0 -23.5 -6t-29.5 -6q-11 0 -11 4v0q-1 5 -12 5t-45.5 -18.5t-46.5 -18.5h-111q-59 0 -161 58q-120 67 -120 140q0 44 67 105q63 57 94 57q12 0 9.5 -14t9.5 -14q14 0 13 6q-5 20 -5 13q2 -6 35 -214q29 -22 85 -72q7 8 7 17q2 0 17.5 -4
t30.5 -4q2 2 4 2q-1 0 21 -30q8 6 5 13q-5 12 -5 13q36 9 109 37q-10 -10 6 -26q4 4 21 34q11 21 25 21q13 0 10 -5q-5 -9 -1 -13q3 13 8 32q33 20 73 75q22 -1 62 8q3 5 -18 5q-10 0 -10 4q0 3 3.5 9.5t3.5 9.5t-2 5q-6 -7 -32 -7q9 9 23 34l19 -18q18 18 18 23
q0 -14 -14 -27q16 -12 16 -46q0 -17 -15 -13q2 -9 16 -41q10 -26 10 -42zM802 1233v24h-15v-24h15zM772 1296q0 23 -33 23q9 0 14 -9q-14 -15 -41 -39q12 0 37 25q15 -16 3 -29q20 19 20 29zM701 1251v25h-16v-25h16zM719 1255l-13 5l-12 -24l13 -6zM996 937v16h-34v-16h34z
M655 1294h-14l-11 -31l13 -5zM922 957l-10 9l-32 -32l9 -10zM894 878l-23 23l-9 -9l22 -23zM1014 754l-10 9l-32 -32l9 -10zM973 757v16h-25v-16h25zM857 866l-33 27l-8 -12l32 -27zM937 773q-6 12 -22 34q-10 -9 -19 -9q-25 0 -29 23v-41q2 0 4 4t16 4q11 0 11 -13.5
t12 -13.5q13 0 18.5 6t8.5 6zM902 732l-6 13l-21 -11v-13zM862 707v71q-6 0 -17.5 11t-11.5 18q-5 -10 -18 -26t-13 -20q17 12 25 3q-9 -24 -27 -57q11 6 31 3q32 -3 31 -3zM946 620q-4 0 -15.5 -6t-15.5 -6q8 0 19 -13q8 8 12 25zM973 503q6 34 2 59q-4 33 -4 23
q-7 -14 -33 -40l14 -61q0 19 21 19zM924 562q-9 0 -21 13q0 -4 -3.5 -20t-3.5 -20q0 6 10.5 16.5t17.5 10.5zM894 564l-32 33l-10 -10l32 -32zM885 522v25h-15v-25h15zM911 511l-5 13l-22 -11v-14zM938 363l-5 13l-21 -11v-13zM936 318q0 6 -21 27q-21 -20 -21 -36l21 18
q8 -9 21 -9zM857 306l-23 23l-9 -9l22 -23z" />
    <glyph glyph-name="U" unicode="U" horiz-adv-x="1556" 
d="M701 81q0 -23 -13 -37q-2 8 -13 24q18 13 26 13zM1090 834l-28 -11v13l22 12zM769 1061q0 -92 -5 -122q-9 -59 -46 -123q-19 19 -19 0q-5 6 4 14l-16 15q-8 0 -9 -10q-2 -10 5 -17q-85 63 -90 93q-7 -7 -31 -7q5 5 22 17.5t22 16.5q0 -18 18 -18l22 -15v93l-13 16
q-10 -1 -10 -9q2 40 -14 51q19 19 19 36q-7 7 -24 7q-32 0 -15 -17q-17 9 -26 9v242q22 0 22 25q0 -7 11 -8q19 -3 27 -7v7q3 15 -24 26q22 5 22 14q95 -69 127 -159q21 -60 21 -170zM1566 317q7 -42 -2 -101q-200 -247 -414 -247q-37 0 -99 52q-58 49 -72 83q-10 23 -19 86
q-10 72 -18 99l-76 -112q-48 -68 -112 -114q-7 7 -9 0t5 -14q-9 -8 -28 5q-9 -6 -6 -13l5 -13q-20 -14 -64 -22.5t-56 -16.5q5 14 20 46q25 -14 63 -13q-11 16 -51 51q-10 -10 -29 -38q0 5 -10 19q-10 -8 -14 -32q-5 -25 4 -42q-22 14 -22 41q0 24 44 77q2 6 -1.5 16.5
t-3.5 13.5q26 -8 107 -8q15 0 63.5 50.5t69.5 87.5q45 78 138 355q8 0 25 10q-9 7 -18 7q6 13 25 105q12 60 41 70q0 13 -19 13q18 69 81 231q17 82 34 165q26 111 75 182q50 6 241 21l-122 -485q-23 -5 -75 -28q0 -16 6 -22q24 5 58 18q-21 -71 -70 -294q-59 -267 -59 -336
q0 -51 25 -96q30 -54 78 -54q50 0 152 92q55 52 109 105zM602 861l-10 -9l-23 23l10 9zM647 767q-5 8 -5 16v-42q-23 23 -43 28q-3 -2 48 -2zM735 804q-11 -15 -42 -40q19 -19 19 -37q0 -49 -61 -118q-5 5 -5 16.5t-4 16.5q16 -16 33 0q-18 24 -43 24q-14 0 -13 -2
q4 -7 4 -8q1 4 19 57q0 -10 18 -29q17 7 43 33q-14 4 -45 17v68q1 -4 39 -23q26 25 38 25zM593 667h-16v35h16v-35zM621 460h-16v35h16v-35zM612 404h-16v25h16v-25zM551 -21h-68q-87 0 -133 125q-33 88 -33 176q0 162 113 489.5t113 409.5q0 54 -29 99q-36 56 -98 56
q-97 0 -165 -110q-57 -92 -57 -172q0 -56 10 -83q14 -38 61 -83q14 -23 14 -37q0 -36 -41.5 -76.5t-76.5 -40.5q-108 0 -108 193q0 144 112 312q120 181 252 181h134v-1439zM1325 1145l-5 14l-22 -12v-14zM1200 1161v17h-44v-17h44zM1185 1026l-10 9l-23 -23l10 -10z
M1108 938l-5 13l-22 -11v-14zM664 1316q-5 -4 -15 1q-15 8 -26 8q-24 0 -10 14q-5 -5 -17 -20.5t-15 -19.5q19 0 33 -31q0 9 10 19q8 -9 9 -19q5 23 31 48zM634 1184q0 5 -10 18.5t-10 18.5q-23 -28 -23 -46q5 0 6.5 11.5t6.5 15.5q10 -4 30 -18zM584 272l-11 44h-16l11 -44
h16z" />
    <glyph glyph-name="V" unicode="V" horiz-adv-x="1386" 
d="M804 26l-24 -24l-9 11l23 22zM748 16h-16v44h16v-44zM710 22l-9 -10l-24 23l10 10zM669 6h-14l-16 32l13 5zM494 54l-23 -23l-9 10l23 22zM1336 1097q0 -5 -9 -65q-8 -51 -3 -70q-7 6 -7 30q-17 17 -20 17q-2 -48 7 -90q-10 -9 -20 -19t-6 -34q4 0 15.5 12t21.5 17
q0 -5 -11 -34q-4 -7 -6 -57q-2 -33 -37 -45q9 -6 18 -6q-10 -41 -29 -110q-4 0 -22 18q-11 -15 -5 -42q6 -30 6 -29q-18 -48 -71 -84q21 -21 33 -9q-7 -7 -7 -32q-27 5 -72 20q-2 5 -2 11q0 11 8.5 34.5t8.5 35.5q0 6 -1 11q0 -2 17 -19q2 4 2 8q0 6 -7.5 20t-7.5 24
q0 12 17 68q20 65 25 86q15 -34 43 -103q8 -8 8 14q0 13 -8 27l-14 20l-34 85q0 33 -1.5 94t-65.5 223t-64 151q0 43 96 94q90 49 127 41q59 -105 72 -185q5 -28 5 -128zM1157 434q-16 -48 -52 -91q0 10 -18 27l-14 -14q10 -9 28 -39q-28 -11 -50 -78q-10 10 -27 10
q-13 -13 12 -13q-13 -23 -42 -68q-48 -35 -132 -107l-10 19q-4 -4 1 -18q4 -10 -9 -10q-22 0 -24 -16q-7 8 -23 25q-18 -17 -46 -63q-14 -21 -53 -21h-33q-10 0 -19 16.5t-17 20.5q-6 -6 13 -25q-23 0 -23 -17q0 14 -14 14q-12 0 -13 -1q-2 0 3 -3.5t8 -6.5q-3 3 -7 15.5
t-15 23.5q-6 -6 -6 -36q-2 0 -14.5 13.5t-26.5 13.5t-13 -4q4 -16 4 -10q0 33 -28 33q-8 0 -8 -4q0 -1 3 -5.5t3 -6.5q-1 -3 -8 -3q-26 0 -123 124q-5 20 6 31q17 14 -5 14q-35 0 -35 84q0 36 12 51q-9 7 -18 7q10 95 49 276q166 482 166 599q0 14 -35.5 69.5t-55.5 63.5
q-34 12 -64 12q-32 0 -99 -75q-58 -66 -63 -81q-30 -103 -30 -139q0 -67 8 -83q2 -4 63 -77q13 -23 13 -37q0 -29 -38 -71q-41 -46 -79 -46q-54 0 -88 69q-29 57 -29 118q0 190 136 345q142 162 328 162q126 0 204 -139q63 -112 63 -232q0 -97 -57 -282q-45 -136 -91 -272
q-39 -129 -53 -243q-6 -46 -43 -71q6 -8 18 -5q18 6 17 6q11 -7 11 -48q14 0 14 29q11 -23 49 -75q5 -4 13 5l-17 22q20 -19 87 -64q7 6 5 15q-2 8 -9 8q4 -1 18.5 5t26.5 8q0 -38 13 -38q2 45 36 45q39 1 52 50q0 -32 -25 -44q0 -16 6 -21l19 19l11 -10q4 0 6.5 10.5
t6.5 13.5q11 5 11 13q19 -19 35 -3q-3 3 -41 23q-11 -11 -11 -19q-1 41 117 127q-19 19 -27 12q27 26 35 37q21 26 26 49q0 -10 1 -29.5t1 -28.5q9 0 21 14q14 19 28 26q-7 10 -20 13t-13 -5q14 70 46 150q11 -18 53 -39q-4 4 -19 -12q6 -7 27 -7zM1179 972l-11 27l-14 -5
l12 -22h13zM1215 943l-25 12l-5 -13l24 -12zM1261 853q-42 43 -42 66q0 -16 10 -46q15 -40 18 -52q0 19 14 32zM1277 774q0 5 -4 22.5t-4 22.5q-3 0 -27 -24q13 0 35 -21zM692 1191l-13 5l-12 -24l13 -5zM1215 632l-5 14l-23 -12v-13zM1217 573l-22 34l-13 -9l22 -33z
M1149 417l-5 13l-22 -11v-14zM1085 392l-10 9l-23 -23l9 -10zM1039 259v26h-16v-26h16zM652 624l-25 12l-4 -13l24 -12zM612 648v16h-25v-16h25zM529 584q-8 -4 -29 -19q-17 -12 -22 -12q9 0 21 -13q0 15 30 44zM439 475v25h-16v-25h16zM455 351l-5 13l-31 -11v-14zM522 279
l-9 9l-23 -22l9 -10zM401 385l-13 5l-12 -24l13 -6zM669 68q-34 0 -49 -7q-9 9 -24 7l21 -25q3 0 9.5 9t20.5 9q21 0 8 -19q9 9 14 26zM588 120l-10 9l-23 -23l9 -10zM417 290q-28 11 -74 32q44 -45 43 -45q13 13 31 13zM410 219l-23 22l-10 -9l24 -23zM485 138l-10 10
l-23 -23l9 -10zM476 87l-24 23l-9 -10l22 -23z" />
    <glyph glyph-name="W" unicode="W" horiz-adv-x="1962" 
d="M1482 153q-85 -25 -145 -25l24 25h121zM1419 101q-4 -10 -69 -58q-73 -53 -101 -53q-16 0 -21.5 6.5t-10.5 13.5q-6 -6 -6 -30h-117q-31 -1 -131 121q30 0 121 1.5t101 1.5q20 0 23 -12q0 -14 1 -29q1 -28 18 -53q2 8 2 19q0 9 -2 26.5t-2 23.5q0 26 24 25q45 4 170 -3z
M1200 131l-246 10v19l246 -11v-18zM782 104q-6 -15 -57 -51q-46 -31 -77 -46q-58 -28 -106 -28q-139 0 -191 122l141 13l19 -20l19 20q113 -10 240 -10h12zM496 136l-6 -15l-34 13v15zM413 135l-6 -14l-27 13l5 15zM1908 1117q0 -233 -105 -491q-118 -289 -318 -459
q0 20 -29 20q-19 0 -56 -18q150 113 246 324q86 189 86 349q0 133 -57.5 281t-57.5 150q0 62 100 107q86 39 127 32q48 -108 58 -162q6 -32 6 -133zM1450 1410q-69 -268 -226 -854q-11 0 -33 -11q8 -7 31 -7q-14 -47 -14 -91q0 5 -11 21q-3 -4 -14 -18q9 -6 17 -38v-246
q-16 21 -81 21q-8 0 -8 -3q0 -2 5.5 -7.5t5.5 -7.5q-1 -3 -9 -3q-9 0 -74.5 6t-95.5 6q5 57 -8 103q-35 -42 -112 -104l-47 14q42 73 135 208q-10 9 -20 9q17 49 54 150q18 68 35 135q26 88 66 103q-16 16 -30 16q16 49 43 140q20 89 73 271q16 57 63 157q20 27 69 32
q6 1 83 1q16 0 20 -7l8 -14q21 0 4 18h71zM1130 790l-6 -14l-35 12v15zM1205 490h-18v38h18v-38zM977 386h-18v49h18v-49zM765 1070q0 -62 -24 -120q1 -112 -92.5 -371t-93.5 -338q0 -37 12 -62q-43 1 -136 -6t-97 -7q-15 0 -18 -4t-6 -4q-1 -8 -12 171q25 33 17 62
q-1 4 -1 9q0 15 11 46q16 42 17 49q33 124 62 187q-3 39 42 151q46 117 46 168q12 6 34 23q-15 27 -15 48q0 10 4.5 29t5.5 32q0 -9 10.5 -21t17.5 -12q1 5 -3 25q-1 8 22 23q-12 7 -27 37q-9 -9 -9 -21q3 10 3 22q0 54 -38 101q-41 53 -102 53h-24q-10 0 -10 -4q0 -2 2 -6
t2 -6q-1 -4 -10 -4q-14 0 -27.5 -11.5t-22.5 -13.5q-2 -1 -18 -24.5t-25 -23.5q-15 0 -15 5.5t-3 5.5q-20 -30 -44 -105q-5 9 -13 21q-17 0 -24 -7l10 -50q0 -122 23 -164q5 -9 42 -59q29 -39 29 -52q0 -29 -87 -114h-58q1 3 6 15t5 17q0 9 -12 9q-15 0 -20 -10t-8 -10
q-2 20 -10 62q-12 -10 -22 -10q-23 61 -23 113q0 -27 24 121q19 120 190 305q0 -5 11 -21q20 0 25 5q-11 8 -21 8q11 20 69 49t93 29q18 0 25.5 -9t26.5 -40q4 4 4 38l26 24q5 -5 10 -20.5t11 -20.5q17 17 6 29q107 -43 172 -154q55 -95 55 -187zM530 542h-18v28h18v-28z
M827 153l-23 -28q-24 0 -53.5 7.5t-37.5 7.5zM1247 1093v28h-18v-28h18zM1221 1084q0 8 -15 28q0 -23 -25 -28h40zM634 1300v28h-18v-28h18zM612 1299l-10 14l-36 -24l9 -15zM540 1325l-15 6l-13 -27l15 -6zM587 1222v18h-28v-18h28zM607 1174v51q-5 0 -14 -11.5t-14 -11.5z
M673 1134l-27 13l-6 -15l27 -13zM634 1134v38h-18v-38h18zM694 1071l-28 13l-5 -15l26 -13zM372 1360l-6 15l-25 -13v-15zM644 958v38h-18v-38h18zM613 958v27h-18v-27h18zM618 931v18h-28v-18h28zM535 931v18h-28v-18h28zM165 1208l-10 10l-26 -25l10 -11zM156 1082v28h-18
v-28h18z" />
    <glyph glyph-name="X" unicode="X" horiz-adv-x="1473" 
d="M1485 329q-6 -17 -4 -54q3 -48 2 -58q-100 -101 -231 -167q-136 -67 -247 -67q-148 0 -238 106.5t-104 292.5q-97 -138 -193 -277q-104 -122 -236 -122q-49 0 -115 38q-79 44 -79 98q0 28 91 115q0 -20 24 -20q11 0 11 -3q0 -2 -3 -6.5t-3 -6.5q0 -3 2 -6q5 0 19 11
q18 14 27 18l-7 35q-9 -5 -28 -31q-18 13 -28 13l45 49h27q16 -1 20 -1q41 -146 117 -146q112 0 220 254q79 185 147 478q53 232 53 281q0 81 -36 134q-41 60 -116 60q-12 0 -94 -32q-97 -38 -132 -48l2 -2q1 -2 0 -15q0 -8 14 -8q15 0 18.5 4t7.5 4q-9 -19 -60 -92v34
q-22 10 -85 -11q8 16 44 70q50 65 163 130q106 60 154 60q165 0 243 -76q85 -81 114 -291q45 77 89 155q59 98 114 147q72 65 153 65q55 0 100 -104q0 -77 -99 -158q-19 10 -64 50q-38 34 -52 34q-35 0 -95 -82q-69 -95 -118 -248q-51 -159 -87 -212q0 -16 21 -16
q-62 -166 -62 -203q0 -162 29 -238q51 -134 201 -134q166 0 344 199zM342 1140h-82q19 9 59 29q23 -24 23 -29zM522 858q0 -33 -66 -83q-62 -47 -86 -47q-44 0 -90.5 34.5t-46.5 74.5q0 16 9 31q-4 9 -33 9q2 49 5 98q7 73 42 120l11 -42q51 51 85 63q13 -45 -40 -130
q11 -10 39 15q12 -40 62 -73t109 -34v-36zM953 1189l-5 15l-25 -13v-15zM273 940l-11 11l-25 -25l10 -12zM316 869l-13 25h-15l13 -31zM284 856l-11 11l-26 -25l10 -12zM375 101q0 4 -25 29q-43 -22 -58 -39q63 0 83 10zM147 164l-11 10l-46 -46l10 -11z" />
    <glyph glyph-name="Y" unicode="Y" horiz-adv-x="1556" 
d="M1191 860l-38 -37l-10 11l37 36zM1138 760l-13 -41l-16 5l13 36h16zM576 761l-31 -13v15l25 13zM1146 -96q0 -19 -36 -89q-39 -75 -77 -121q-53 -44 -126 -110q-82 -94 -230 -94q-177 0 -177 154q0 214 421 356q56 190 155 571q2 -131 36 -399q34 -262 34 -268zM385 280
l-14 -28l-15 7l14 27zM897 -87q-103 -34 -197 -93q-136 -86 -136 -171q0 -28 30 -60q31 -35 67 -35q73 0 159 136q78 123 77 186v37zM1572 338q9 -127 -94 -192q-100 -43 -200 -87q-112 -52 -116 -145l-55 806q-10 -7 -10 -16q0 14 -8 56t-8 55q0 31 23 83q28 61 64 73
q0 9 -12 15q-12 7 -19 -1q18 29 50 140q28 98 59 125v52q17 -5 45 -21q16 16 16 35q-4 6 -21 3q-24 -5 -32 -4q9 96 72 119q42 16 238 25q-16 -43 -43 -144q-24 -87 -26 -87q-14 0 -18 5q-1 3 -9 -2q0 -16 32 -16q-11 -17 -16 -52q-6 -44 -9 -51l-23 21l-17 -19q0 -6 13 -18
q17 -17 20 -21l-237 -942q7 -7 22 -7q51 0 178 89q119 84 141 123zM503 906l-14 -29l-15 7l14 27zM1070 666q0 -93 -160 -332q-152 -227 -223 -268q-115 -67 -187 -67q-124 0 -188 105q-49 81 -49 186q0 106 79.5 361t125.5 285q-10 7 -21 7v38q11 19 32 104q21 89 21 127
q0 -5 -30 144q-16 0 -51 10t-48 10q-44 0 -119.5 -68.5t-69.5 -68.5q-15 0 -15.5 5.5t-3.5 5.5q-8 -8 -1 -17q6 -8 15 -8q-43 -50 -43 -140q0 -26 81 -171q16 -25 16 -36q0 -33 -46 -80t-78 -47q-68 0 -97 98q-16 54 -16 109q0 171 128 331q137 172 313 172q208 0 289 -231
q-14 4 -63 -21v-27l17 -18q12 16 51 36q7 -49 7 -102q0 -143 -53 -331q-29 -100 -112 -331q-14 -5 -39 -21v-243q0 -15 21.5 -30.5t43.5 -15.5q176 0 458 657q0 -15 7.5 -59.5t7.5 -57.5zM1358 1292q3 7 3 14q0 26 -41 59v-39q30 -34 38 -34zM1472 1187l-14 31l-15 -6
l13 -25h16zM1321 1124v39h-18v-39h18zM1386 980l-16 5l-13 -27l15 -7zM1337 985v51q-7 0 -18.5 -15t-11.5 -23q11 -10 30 -13zM1351 962l-6 15l-25 -13v-15zM1214 1096l-16 6l-13 -28l15 -6zM1300 912l-14 31l-15 -6l13 -25h16zM1235 969l-15 5l-14 -27l15 -6zM1225 859v28
h-19v-28h19zM1170 919h-15l-13 -36l15 -6zM542 1373q-10 0 -31 -12q16 -16 16 -32q0 29 15 44zM658 1218q0 10 -47 19v-51q19 35 40 35q4 -1 7 -3zM608 1248l-6 15l-25 -12v-16zM471 1393l-15 5l-14 -27l15 -6zM726 1022q-22 15 -22 45q-2 53 -2 54q-20 0 -29 -124
q27 0 53 25zM557 1145l-13 31l-16 -6l13 -25h16zM630 1005l-6 15l-25 -13v-16zM547 1041l-15 9l-25 -37l14 -10zM587 964l-28 14l-6 -15l28 -14zM563 853v19h-51v-19h51z" />
    <glyph glyph-name="Z" unicode="Z" horiz-adv-x="1153" 
d="M755 -46h-19v28h19v-28zM1140 1326q1 -62 -194 -298l-200 -230q-13 -17 -87 -74q-58 -45 -58 -72q0 -6 2 -11q24 113 61 278q-1 3 -2 5q-60 -211 -85 -297l-20 21q-16 -51 -33 -75q-30 -46 -97 -80q12 21 2 30q-2 -2 -4 -19q-1 -12 -17 -12q-14 0 -14 6t-3 6
q-2 -28 0 -62q-10 0 -30 5.5t-31 5.5q-9 29 15 29q15 0 14.5 -6t3.5 -6q0 29 45 74q6 -5 16.5 -10t15.5 -11q7 8 1 16q-6 7 -15 7q1 14 29 43t47 28q7 7 3 17q-4 9 -12 9q9 0 16 7q7 8 0 16q19 0 37 -18q8 7 8 19q0 15 -24 15q148 156 422 467q-147 -24 -227 -24
q-14 0 -145.5 26t-144.5 26q-190 0 -190 -124q0 -46 47.5 -100.5t47.5 -71.5q0 -22 -29 -52q-33 -34 -69 -35l-24 -21q-6 6 -19 38q-9 24 -23 24q-13 0 -23 -10q1 6 -0.5 25.5t-1.5 22.5l20 19q-16 11 -42 31q19 29 74 83q-10 7 -20 7q20 33 51 96q5 7 -4 16
q-49 -62 -98 -145q48 184 182 296q130 109 284 109q13 0 179 -26t180 -26q23 0 66 14q49 17 69 37h48v-58zM1171 182q-3 0 -22 -21.5t-34 -21.5q-13 0 -16 10.5t-16 10.5q-21 0 -37 -15q18 -18 18 -47q-8 8 -17.5 -1.5t-1.5 -17.5q-20 12 -30 12q32 28 32 41q-17 16 -25 8
q-14 0 -71 -37q18 -17 41 -17l-11 -49q-12 0 -22.5 -5.5t-14.5 -5.5l-24 28q-2 0 21 -4q15 -3 21 4q4 27 -35 44q-10 -19 -30 -36v0q1 0 3 3q10 23 43 49q-3 8 -12 22q9 0 38 14l20 -21q2 2 7 25q112 100 129 100q14 0 16 -6t12 -6q0 16 -12 28q20 13 30 13v-101zM902 120
h-18v28h18v-28zM875 36q-11 9 -20 29q-8 17 -30 27q5 11 32 33q-6 13 -23 37q3 -3 41 -3v-123zM754 141h-15l-13 25l15 6zM811 139q-2 -6 -2 -98q0 9 -8 16q-9 8 -16 0q8 31 26 82zM839 27h-18v38h18v-38zM649 162h-18v59h18v-59zM719 101q-42 -10 -37 -24q0 25 -21 5l16 20
q-11 10 -20 10q5 11 31 43l-16 21q32 -32 47 -75zM586 193h-18v49h18v-49zM375 401h-15l-13 24l15 6zM565 203h-18v28h18v-28zM543 220l-12 -10l-25 25l10 11zM710 35l-31 -13v15l25 13zM627 120l-26 -25l-11 11l27 26zM734 -46h-19v59h19v-59zM544 187l-14 -28l-15 7l14 26
zM341 385q6 3 -4 -16q-5 0 -19.5 12t-19.5 12q3 -2 19 -12q13 -9 19 -9t5 13zM502 193h-19v28h19v-28zM565 120h-18v49h18v-49zM586 79h-18v59h18v-59zM691 -25h-18v28h18v-28zM628 27h-18v49h18v-49zM417 214h-18v28h18v-28zM586 17h-18v38h18v-38zM565 27h-18v28h18v-28z
M502 79h-19v38h19v-38zM607 -35h-18v28h18v-28zM375 162h-18v69h18v-69zM565 -15h-18v28h18v-28zM537 -27q-1 11 -12 32q-11 -6 -11 -16v62q0 -27 23 -27v-51zM270 255h-19v28h19v-28zM227 286h-18v28h18v-28zM502 17h-19v27h19v-27zM460 37h-19v70h19v-70zM385 121h-15
l-13 24l15 6zM438 58h-18v28h18v-28zM325 150q0 5 -11 21q-11 -6 -11 -16v62q0 -9 11 -29.5t11 -37.5zM354 131h-18v38h18v-38zM240 274q0 1 -5 -32q-2 -22 4 -40q0 11 -10 21q-10 -11 -10 -26q0 28 -20 67q0 -12 10.5 -18.5t19.5 -12.5q13 11 11 41zM417 27h-18v28h18v-28z
M354 79h-18v38h18v-38zM291 158l-24 -71l-15 6l23 65h16zM185 193h-18v28h18v-28zM162 192l-7 -15l-27 13l6 15zM249 69h-19v27h19v-27zM164 37h-18v101h18v-101zM185 48h-18v28h18v-28zM122 100h-18v38h18v-38zM80 58h-18v28h18v-28zM122 -4h-18v59h18v-59zM101 -14h-18v58
h18v-58zM312 1220v28h-18v-28h18zM685 793q-35 -34 -39 -34q10 -10 29 -17q0 5 5 25.5t5 25.5zM260 1165h-19l-6 -38h18zM225 907l-6 14l-25 -12v-15z" />
    <glyph glyph-name="bracketleft" unicode="[" 
 />
    <glyph glyph-name="backslash" unicode="\" 
 />
    <glyph glyph-name="bracketright" unicode="]" 
 />
    <glyph glyph-name="asciicircum" unicode="^" 
 />
    <glyph glyph-name="underscore" unicode="_" 
 />
    <glyph glyph-name="grave" unicode="`" 
 />
    <glyph glyph-name="a" unicode="a" horiz-adv-x="1067" 
d="M783 30l-31 -13v16l25 12zM255 5l-6 -15l-38 19l6 15zM1087 203q-91 -81 -181 -161q-89 -74 -177 -74q-96 0 -134 98q-7 19 -10 79q-4 69 -10 98l-144 -180q-22 0 -39 18q21 0 21 16q-12 4 -46 19l-7 -36q10 -11 43 -31q-8 -6 -18 3q-12 -20 -50 -51q19 35 -5 60l22 -20
q-1 20 -2 39q-9 13 -19 26q-15 0 -15 -20q-6 0 -12 11q-7 15 -11 19q-2 -9 -14 -31t-12 -31q0 -11 15 -14q-15 -11 -15 -32q1 -22 19 -37q-84 7 -117 -3l-29 22q-32 19 -32 39q0 12 10 26q-15 0 -53 -11q5 12 20 35q-24 28 -61 28q0 23 -11.5 71t-11.5 59q0 70 43 98
q0 13 -11 13q-7 0 -5 16q2 17 16 24q0 22 -19 3q11 37 23 75q20 40 69 57q-21 22 -21 32q6 18 36 55q40 47 45 54q0 -24 11 -32q-10 77 222 190q0 -9 12 -34t12 -39q0 -27 -62.5 -87.5t-65.5 -104.5q26 0 26 23q-58 -131 -58 -188q-2 0 -25 -23q-16 16 -16 42q0 18 21 48
t43 43q-6 5 -14 12.5t-13 12.5q-5 -5 -18.5 -7.5t-18.5 -7.5l21 -21q-10 -15 -19 -30q-16 -28 -16 -56q0 -7 1 -14q-21 20 -40 20q-11 0 -30 -8q-12 -5 -11 2.5t-8 16.5q-21 3 -30 -38q-13 0 -47 -10q12 -6 24 -26q23 -41 24 -42q11 11 -6 28q39 0 39 -8l14 17q-4 3 -13 20
q-8 11 -14 11q41 0 54 27q0 -33 10 -43q9 10 9 22q-28 -57 -28 -116q-17 5 -45 21l-16 -16q12 -6 19 -26q10 -30 19 -43q23 23 6 40q21 1 58 -19q11 5 22 26t21 27q3 -32 7 -64q4 -37 33 -63q13 13 -4 30q35 -30 73 -30q55 0 115 74q87 107 88 107q8 7 -6 17q12 35 38 105
q5 14 31 63q19 36 19 51q0 217 -116 217q-14 0 -31 -12q-25 -18 -28 -20q-1 1 -36 71q105 35 111 35q63 0 107 -47q31 -35 62 -69q32 15 116 66q63 39 75 38h66q-48 -133 -100 -317q-57 -207 -57 -273q0 -106 37 -106q40 0 87 31q0 -33 12 -41q26 41 51 81q45 63 86 76v-91z
M264 356q-10 -29 -35 -71l-22 21q-11 -6 -11 -16q0 12 9.5 42.5t9.5 46.5q23 -23 49 -23zM118 359l-6 -15l-27 13l5 16zM593 822l-6 15l-25 -13v-15zM738 603q-12 23 -26 56v-46q8 0 26 -10zM701 318v28h-18v-28h18zM564 244v39h-18v-39h18zM237 561v39h-18v-39h18zM237 519
v28h-18v-28h18zM211 536q-6 0 -20.5 4.5t-20.5 4.5q11 -6 32 -23l-21 -24q30 14 30 38zM124 485l-25 -21q-6 0 -3 -9q5 -14 5 -17q0 5 11.5 23t11.5 24zM57 413v28h-18v-28h18zM265 163q-12 12 -23.5 33t-15.5 25q0 -39 18 -68q-18 -18 -18 -37q14 18 39 47zM287 126l-6 14
l-25 -12v-16zM226 152l-13 25h-15l13 -31zM78 286v29h-18v-29h18zM129 222l-63 24v-16l56 -23zM226 43v50h-18v-50h18zM190 103q-28 0 -36 -8l-16 15q23 23 29 17q0 39 -13 52q-13 -12 -36 -35v-79q40 -3 39 -3q0 11 14.5 21t18.5 20zM120 169l-10 14l-37 -25l8 -14zM68 174
l-15 6l-14 -27l15 -7zM99 96l-13 31l-15 -6l13 -25h15z" />
    <glyph glyph-name="b" unicode="b" horiz-adv-x="897" 
d="M407 116q-5 0 -26 -4.5t-27 -4.5l53 53v-44zM391 54l-15 -10l-38 51l15 11zM314 64q-44 0 -44 -17q-3 9 -17 30q13 0 25 14q8 11 17 23q1 -19 -10 -30q0 -20 29 -20zM233 37h-19v42h19v-42zM158 58q-5 27 -29 27q21 17 29 17v-44zM927 231l-32 -24q24 25 5 44
q-13 -31 -44 -76q-10 0 -41 -7.5t-45 -7.5q-35 0 -93 34t-71 34q-25 0 -83.5 -68t-62.5 -68q-17 0 -17 1l-5 10q-12 -12 5 -29q-38 -17 -82 -61q-6 0 -13 14.5t-12 19.5q-7 -8 -7 -44q-3 0 -23.5 -6.5t-36.5 -6.5q-8 0 -9 3q0 2 6 8t6 9q-1 3 -9 3q-14 0 -19.5 -11.5
t-19.5 -11.5q-16 0 -12 18q5 23 1 27q-32 -31 -38 -31q10 28 35 112q-52 -36 -49 -90h-43q0 -1 -1 34q-1 18 12 36q-1 0 -17 10.5t-22 10.5t-6 -8q0 -6 4 -17q-2 13 -11 20q-4 3 6 20q-8 25 -39 56q28 -28 51 -28q18 0 19 4q-2 -8 -2 13q0 -28 -17 -45q19 -3 61 -17
q5 5 14 8t15 8q-14 11 -57 63q-24 28 -56 28q-13 0 -32 -4q1 11 6.5 29t5.5 25q0 14 -13 22h37q6 7 3 17t-10 10q-4 -1 -7 -4q16 4 44 30q-6 9 -56 9q22 23 20 23q3 -1 6 -4q3 9 3 18q0 14 -9 40.5t-9 40.5q29 26 45 26t16 -7q-1 -12 3 -16q22 0 11 31q19 5 60 21l-31 28
q-5 0 -16 -8q-9 -6 -9 0l-17 19q-11 -6 -11 -17q0 14 10 46t10 50q17 -17 57 -34l18 18q-4 6 -8 13q-3 4 -20 4q-29 0 -61 31q16 2 26 -9q13 39 52 98v31q-6 6 -12 3q-9 -5 -12 -5q-1 -16 3.5 -23.5t4.5 -5.5q0 -1 -38 -40q52 145 103 290q70 182 143 287q2 -17 21 -45
q24 29 1 76q280 94 309 94q84 0 84 -136q0 -218 -291 -509q-57 -53 -168 -181q-7 -28 -30 -88q-3 -2 -38 -14q-24 -8 -24 -25q0 -35 43 -35q0 -63 -6 -95.5t-6 -26.5q-10 4 -28 34q-16 0 -16 -22q-6 0 -13 12q-8 16 -12 20q-22 -43 -22 -80q3 3 5 3q3 0 7 -13t9 -18
q-6 6 -16 9t-16 9q0 -18 21 -103q5 10 29 36q16 18 16 34q0 9 -4 20q13 -11 24 -11q7 7 4 23q-4 26 -4 23q43 -44 29 -126q147 10 164 -33q11 7 11 17q0 -18 20 -18q10 29 16 89q49 33 49 71q0 11 -22 74t-22 96h15q0 32 4 70q-7 9 -17 -1q89 317 227 317q85 0 85 -108
t-44 -206q-23 -50 -81 -138q-44 -65 -44 -93q0 -36 53 -60q40 -19 65 -19q59 0 150 101q-7 -11 -3 -43q5 -44 5 -55zM208 375l-33 -15v17l27 14zM725 1248q0 43 -50 80q-80 -35 -161 -233q-57 -154 -114 -309q59 13 192 197.5t133 264.5zM480 1068l-11 15l-62 -50l10 -15z
M404 1018q-33 -1 -66 -32l-40 -40q22 9 65 -2q-2 9 -2 17q0 25 17 40q13 8 26 17zM301 923l-15 11l-72 -85l15 -12zM318 746v19h-30v-19h30zM321 715l-7 16l-26 -14v-16zM312 457l-14 33l-16 -7l14 -26h16zM255 429l-28 29l-11 -12l27 -28zM492 200l-16 6l-14 -29l16 -7z
M222 404l-25 43h-16l26 -50zM177 400l-25 78l-16 -6l24 -72h17zM144 403l-14 27h-16l14 -33zM166 393l-16 6l-14 -29l15 -7zM268 238h-19l-13 -53h19zM320 144q-48 47 -56 47q2 -3 24 -35q15 -22 15 -36q0 11 17 24zM144 287v53h-20v-53h20zM286 133q-26 0 -30 21v-38
q8 0 30 17zM174 246l-41 20l-5 -16l40 -20z" />
    <glyph glyph-name="c" unicode="c" horiz-adv-x="748" 
d="M194 46h-21v32h21v-32zM230 732l-14 -55h-20l14 55h20zM770 324q2 -33 -1 -101q-37 -44 -134 -123q-125 -102 -177 -102q-14 0 -11 5.5t-12 5.5q-19 0 -20 -4q2 9 2 -13q0 29 -11 41q-8 -8 -8 -57h-125l6 29t6 64q-7 0 -10 8.5t-8 13.5q-1 -3 -9 -60q-4 -33 -22 -33
q-14 0 -14 -6t-15 -6q-17 0 -40 15q-35 24 -36 24q1 23 13 80q-6 0 -9 6q-4 10 -9 15q-12 -22 -12 -76q0 24 -1.5 79t-1.5 78q19 -12 30 -12q0 -6 -22 -28q19 -19 26 -19q1 7 23 106q14 64 14 105q15 -15 31 -5q-35 31 -35 53q0 23 29 81q-1 -12 10 -23q2 7 2 14
q0 15 -9 33.5t-9 22.5q0 33 27 139q30 118 49 118q18 0 24 -7.5t11 -15.5q12 11 -6 29q34 32 80 51q0 -36 15 -57q12 7 12 68q11 0 58.5 7t62.5 7q66 0 125 -62q56 -59 56 -119q0 -35 -38 -69q-33 -31 -55 -31q-13 0 -28.5 -11.5t-30.5 -11.5q-14 0 -11 6t-12 6
q-17 0 -22 -13q-8 -20 -9 -22q0 29 -3.5 73t-3.5 60q0 55 27 92q-23 0 -79.5 10t-67.5 10q-18 0 -15 -13q6 -35 6 -22q-6 18 -24 47q-1 -8 -8 -22t-7 -19q0 -9 19 -10q-49 -47 -83 -145.5t-34 -183.5q0 -47 40 -155q43 -120 77 -120h110q87 0 150 40q44 27 157 135zM213 612
q-29 -29 -29 -65q2 40 -12 58q-9 -3 -29 -18l28 -44q19 -31 19 -49q0 -88 -54 -274q0 13 -22 35q-18 -32 -29 -85q-15 -72 -17 -79q-13 19 -22 57q-13 56 -15 60q-11 -1 -11 -12q1 11 1 23q0 25 -6 78t-6 78q0 65 34 96q21 19 21 24q0 2 -14 14q16 -9 26 -9q8 7 -15 29
q27 27 63 80q46 68 63 89q-7 -21 -1 -48q7 -30 27 -38zM580 767h-21l-12 -66h20zM474 794l-15 34l-17 -6l15 -28h17zM556 661h-18l-14 -39l17 -6zM299 689v31h-20v-31h20zM159 479v54h-21v-54h21zM469 123q-20 1 -44 -21q-30 -27 -37 -30q33 0 40 7q17 -34 11 -58
q9 40 30 102zM269 215v20h-31v-20h31zM422 135q-32 -4 -76 -32q-13 13 -2 24q-26 -42 -5 -106q-3 8 -3 17q0 26 34 56q26 21 52 41zM146 358h-18l-18 -90h17zM299 93v113h-20v-113h20zM229 253h-20l-13 -66h21zM252 159h-20l-12 -89h20zM205 93v90h-20v-90h20z" />
    <glyph glyph-name="d" unicode="d" horiz-adv-x="1067" 
d="M163 144h-30v19h30v-19zM1084 316q0 2 5 -47q4 -34 -7 -51q-65 -98 -200 -190q-71 -49 -144 -49q-76 0 -113 104q-20 72 -39 144q-127 -151 -205 -202q0 9 -7 14q-8 5 -15 -3q13 35 -9 123q-6 -24 -6 -154q-20 -26 -63 -25h-81q0 35 -9 45q-18 0 -18 -34q-40 40 -40 43
q34 0 43 9q0 5 -19 25.5t-25 31.5q30 0 39 -8q11 7 14 40q2 38 14 55q-8 7 -44 7q0 28 10 38q-39 30 -55 30q0 34 46 106q-11 46 9 46q-8 8 -18 5t-10 -12q5 40 0 50q0 -3 12 -17q38 20 38 57q0 66 -17 101q-15 -23 -15 -44q0 -16 7 -34q-6 8 -42 26q119 164 199 223
q89 65 211 65q62 0 74 -3q27 -8 71 -53q49 164 144 595q14 0 52.5 12t52 12t34.5 5.5t34 5.5q68 0 84 -15l-248 -1128q0 -106 57 -106q55 0 199 157zM190 257l-12 -11l-39 39l12 12zM93 69q-63 107 -63 174q0 17 63 265v-439zM146 183h-19v42h19v-42zM648 626q0 141 -95 141
q-85 0 -151 -117l-86 -176q-10 11 -3 20q-29 9 -68 27q8 -8 0 -17q-7 -8 -16 -8q-12 12 -12 34q-24 -47 -24 -50q0 10 10 17q-2 -25 -20 -47.5t-18 -20.5q0 -17 28 -39q34 -26 35 -28q0 34 -30 72q40 20 96 63q17 -35 13 -61q-17 -108 -17 -139q0 -138 88 -138
q112 0 200 208q70 166 70 259zM315 532v42h-20v-42h20z" />
    <glyph glyph-name="e" unicode="e" horiz-adv-x="748" 
d="M781 309l-14 -106q0 23 -17 23q14 -67 -187 -181q0 3 4.5 22.5t4.5 31.5q-8 0 -28 19q-5 -5 -1 -27q6 -35 6 -66q-117 -45 -212 -45q-137 0 -217.5 76.5t-80.5 207.5q0 16 1 32q9 11 18 21q11 14 23 12q0 -35 19 -62h7q-9 23 -13 109q-3 71 -23 87q8 8 18 24q-3 35 7 96
q68 130 187 207q112 72 224 72q202 0 202 -175q0 -108 -101 -181q-48 -35 -237 -121v60q45 23 99 93q58 76 58 128q0 32 -17 70q-24 52 -62 52q-57 0 -118 -83q-56 -75 -62 -130q-5 18 5 18l-16 14q-16 -66 -33 -138q-7 30 6 58l-16 16q-11 -15 -19 -44t-19 -45q23 2 69 -6
q7 7 14 37v-62q5 -6 9 -12t20 -6q10 0 10 5q0 2 -2 6t-2 6q1 5 10 5q16 0 37 -22q6 6 7 21.5t6 20.5q4 -82 -44 -95q-17 0 -33 32q-15 -15 -15 -48q0 -51 54 -116q48 -60 80 -67q28 -6 57 -11q44 -10 49 -24q24 24 30 24q5 0 10 -3l24 22q-1 -12 9 -22q19 34 205 170z
M63 467l-22 -108h-16l22 108h16zM552 546l-11 11l-26 -26l10 -11zM287 645l-15 6l-13 -28l15 -6zM447 450l-14 31l-15 -6l13 -25h16zM245 588v39h-18v-39h18zM139 460l-5 60h-19l6 -60h18zM521 46v39h-18v-39h18zM148 440l-11 10l-26 -25l10 -12zM404 78l-13 31l-15 -6
l13 -25h15zM248 437q-30 -48 -45 -117q-10 9 -10 31q0 54 27 84h-41v-124q18 0 22 -18q-16 -85 -35 -239q9 39 50 125q-8 22 -8 49q0 36 19 105q19 73 21 104zM182 276h-19l-11 -60h18z" />
    <glyph glyph-name="f" unicode="f" horiz-adv-x="811" 
d="M457 642h-30v20h30v-20zM403 497l-45 -14v17l39 14zM258 580h-20v42h20v-42zM186 385l-6 -16l-39 14v16zM103 300h-30v20h30v-20zM832 316q2 -11 2 -22q0 -101 -146 -214q-137 -107 -235 -107q-20 0 -89 23q-37 -50 -57 -200.5t-53 -193.5q0 -9 10 -19q4 -10 4 -19
q0 -47 -66 -47q-28 0 -96 -16q-72 -17 -79 -17q20 341 79 417q0 24 -20 4q4 33 30 142q23 100 23 115q0 37 -41 120q-29 -28 -94 -68v87q199 195 234 330q5 44 9 88q7 66 25 84q-3 15 7 47q12 36 32 54q-1 1 -3 2t-14 0q-6 -1 -6 15l16 11q1 2 15 58q10 41 37 51
q-11 8 -22 8q3 4 61 169q37 103 90 132q50 27 144 51q82 22 110 22q17 0 41 -37t24 -74q0 -25 -14 -43q8 -7 34 -7v-74q0 -113 -120 -281q-102 -142 -180 -193q2 -7 -25 -29q-30 -25 -37 -46q-28 -80 -57 -224q-26 -128 -26 -156q0 -58 68 -102q53 -35 86 -35q125 0 299 194
zM565 1203l-29 29l-11 -12l27 -28zM767 1259q-26 30 -75 73q-22 -18 -45 -36q-30 -25 -35 -44l-24 22q4 -45 -15 -84q0 -10 6 -24q0 11 10 18q-34 -137 -79 -412q3 29 46 69q11 -11 26 -10q-4 30 39 88q40 55 80 111q21 88 66 229zM326 808v42h-20v-42h20zM336 798l-12 11
l-27 -27l11 -12zM315 683v31h-20v-31h20z" />
    <glyph glyph-name="g" unicode="g" horiz-adv-x="981" 
d="M431 -240h-19v60h19v-60zM426 -75q-25 0 -37 12q-9 -22 -94 -70q-80 -46 -95 -46q-31 0 -31 48q0 -41 16 -73q-52 -38 -67 -73q-7 -18 -7 -60q0 -105 95 -105q75 0 125 91q28 67 56 133q40 87 39 96v47zM994 214q-72 -51 -145 -101q-93 -63 -150 -84q-41 -94 -82 -187
q-53 -113 -143 -221q-10 23 -34 115h-8q2 -18 15 -68q12 -46 12 -58q0 -48 -118 -91q-93 -35 -130 -35q-174 0 -174 179q0 171 224 280q60 21 180 70q26 13 34 77t36 84q-12 7 -26 37q-154 -200 -295 -200q-185 0 -185 284q0 222 151 388q154 171 371 171q12 0 74.5 -37
t73.5 -37t86 34q88 39 118 49q-43 -149 -102 -411q-55 -241 -55 -266v-61q44 -6 137 69q68 56 135 111v-91zM663 519v38h-19v-38h19zM604 601v38q-7 45 -14 89q-13 52 -89 52q-113 0 -191 -167q-62 -135 -62 -249q0 -174 100 -174q86 0 142 96q33 58 65 180q27 101 40 106
q-5 35 3 35q3 -1 6 -6zM599 108l-13 30l-15 -6l13 -24h15z" />
    <glyph glyph-name="h" unicode="h" horiz-adv-x="981" 
d="M733 303l-29 -28l-11 12l28 28zM643 52l-28 -42l-15 11l27 41zM263 291h-20v42h20v-42zM145 334l-34 -14v17l28 14zM1016 224q2 -6 -39 -45q-131 -127 -256 -176q3 37 -28 57q-17 10 -17 40q0 19 10.5 72.5t11.5 83.5q-30 -15 -30 -65q-17 45 -17 92q0 48 22 80l-18 18
q-11 -11 -11 -29q0 65 -31 167q-9 -5 -9 -46q0 -49 23 -219q28 -204 55 -253q19 0 22 29v-37q-32 -14 -117 -14q-50 0 -89 70q-32 60 -32 108q0 35 42 166t42 132q10 0 31 11q-12 10 -22 10q20 34 47 147h16q4 5 -5.5 19.5t-9.5 25.5q8 -5 27 -23q5 -3 16 7q-25 51 -52 51
q-4 0 -116 -69t-114 -69q-17 0 -18 1q-2 6 -5 11q-6 -7 -3 -23q3 -17 2 -20q-34 0 -48 -45q-28 -89 -35 -223l-8 -228q-134 -43 -222 -58q0 36 -7 116.5t-7 89.5q0 90 17 120q16 9 44 20q2 2 21 57q-6 0 -9 6q-5 11 -9 15q-12 -11 -24.5 -40t-23.5 -40q-6 48 3 128
q9 93 30 120q-7 31 -13 31q12 15 30 98q17 78 46 105q-1 -16 -14.5 -35t-13.5 -31q0 -15 14 -37q12 7 12 17q0 -17 -18 -34q4 -9 19 -29q14 15 51 41q-6 6 -3.5 20t-2.5 20l-23 -23l2 62q2 25 38 47q-7 7 -5 7q-8 -2 -18 -2q-35 0 -17 -17l-29 23q30 28 53 75q0 -33 -19 -51
q20 -3 63 -18q5 6 14.5 8.5t14.5 8.5q-14 11 -80 92q13 17 13 27q4 0 24.5 -5.5t33.5 -5.5q2 9 -13 18.5t-34 9.5q83 121 83 169q13 0 37 -12l17 18q-6 6 -23 11.5t-23 11.5q9 9 41 64q27 48 54 63q64 37 184 80q110 40 135 40q32 0 52 -60q17 -47 17 -90q0 -73 -46 -179
q-49 -114 -104 -148q12 -9 23 -9q-37 -56 -97 -146q-5 4 -23 11q-14 6 -14 12q-7 -7 0 -21q5 -9 11 -18q-15 -8 -15 -13q0 -45 9.5 -54t54.5 -9q12 0 13 -4q0 -2 -2.5 -6t-2.5 -7q1 -4 3 -6l29 29l-19 17q-28 -7 -47 -2q-24 7 -20 7q2 0 20.5 9t36.5 9t56 -52q30 -43 59 -86
l17 17q-14 19 -114 152q4 0 13.5 13t26.5 13q10 0 59 17t73 17q51 0 86 -53q29 -45 29 -84l-12 -17q14 -27 -4 -90.5t-81 -240.5q-53 -149 -53 -164q0 -63 52 -63q30 0 126 80q54 46 108 91v-87zM382 1152v91q0 -1 -41 -11q-25 -6 -25 -23q0 -18 29 -35q19 -11 37 -22z
M861 647v31h-20v-31h20zM684 1226q0 15 -6.5 50t-6.5 47h-52q-172 -219 -218 -402q-3 3 -8 3q-28 0 -28 -25q22 15 32 5q-3 -8 -17 -29q-44 44 -51 44q18 -28 46 -81q-17 -3 -58 -36q6 -12 20 -20.5t14 -13.5q-17 -26 -45 -74q10 0 12 -11q3 -11 -13 -19q6 -7 21 -2
q22 7 31 7q18 0 74 83q44 67 87 135q11 -11 12 -23q0 11 12 23q4 -4 1 -16q-1 -7 15 -7q11 0 19 48q7 53 15 60q-2 6 -2 13q0 28 47 115.5t47 125.5zM562 928l-17 6l-14 -30l16 -7zM407 1026v55q-4 0 -7.5 -5t-19.5 -5q-17 0 -20.5 10.5t-6.5 10.5v-43q5 0 26.5 -11.5
t27.5 -11.5zM849 632h-17l-37 -108l17 -6zM378 935v42h-20v-42h20zM347 1014q0 9 -31 40q11 10 11 26q-6 0 -18.5 -10.5t-18.5 -10.5q-13 12 -13 35q-8 -29 -28 -79q5 4 10 4q7 0 18 -51q0 6 -15 16q-21 15 -23 17q25 -93 24 -102q37 56 49 92q11 -11 26 -10q-25 48 -16 55z
M802 499l-12 11l-28 -27l11 -13zM492 746l-29 29l-11 -12l27 -28zM665 555v31h-20v-31h20zM642 595l-16 5l-15 -29l16 -7zM351 860q-27 0 -31 21v-38q9 0 31 17zM780 457l-16 5l-26 -52l16 -7zM447 721l-17 6l-14 -30l16 -7zM757 376l-16 6l-26 -53l16 -6zM297 762v43h-20
v-43h20zM286 756l-17 5l-14 -29l16 -7zM221 784v44q-9 0 -31 -17q25 0 31 -27zM596 448h-17l-14 -38l17 -7zM273 841q-44 -88 -82 -82l15 -56q34 51 67 138zM384 607v20h-43v-20h43zM278 658v39q-1 -5 -15.5 -12t-14.5 -13q11 -11 30 -14zM176 624q0 6 -13 14t-13 13
q0 -10 -29 -12zM132 616l-28 30q-4 -4 -4 -9q0 -7 7.5 -26t7.5 -29q0 17 17 34zM125 394v31h-20v-31h20zM156 380l-6 17l-27 -14v-17zM333 966l-14 -54h-19l13 54h20z" />
    <glyph glyph-name="i" unicode="i" horiz-adv-x="492" 
d="M473 1137q0 -37 -36.5 -77t-76.5 -40h-33q-89 48 -89 117q0 41 37.5 79.5t80.5 38.5q44 0 82 -45q35 -41 35 -73zM523 325q3 -13 3 -27q0 -86 -134 -200q-80 -68 -110 -88q-57 -37 -108 -37q-150 0 -150 256q0 245 86 336q-10 8 -21 8v34q-1 11 27 76q32 73 58 86
q-6 11 -16 11q20 0 20 37q1 -5 12 -21q1 0 2 2t0 13q-1 6 13 6t93 16q94 20 126 25q-12 -29 -26 -108q-8 -47 -42 -66q10 -8 20 -8q-117 -350 -117 -393q0 -48 70 -118q98 64 194 160zM355 708q-6 0 -26.5 4.5t-25.5 4.5l39 -38q0 9 13 29zM271 759l-74 29v-15l68 -29z" />
    <glyph glyph-name="j" unicode="j" horiz-adv-x="748" 
d="M126 -161l-29 -29l-11 13l28 27zM287 -113q-13 -14 -28 -102q-18 -106 -33 -147q-27 -75 -73 -75q-63 0 -85 -10q-1 7 44 50q-24 23 -24 74q0 49 38 110q50 83 145 128q2 -8 16 -28zM676 1064h-20l-12 76h20zM637 1008q-57 -37 -111 -37q-20 0 -59.5 44t-39.5 64
q0 50 44 92q42 39 84 39q9 0 70 -26q-12 -58 12 -176zM612 711v41q-11 13 -44 13q5 -15 6 -33q0 -11 -2 -26.5t-2 -17.5q9 5 21 16q9 10 13 10q4 -1 8 -3zM594 592l-16 6l-15 -29l16 -7zM431 671l-17 6l-15 -29l17 -7zM559 508v30h-20v-30h20zM489 474v41h-20v-41h20z
M570 390l-28 28l-13 -11l29 -29zM479 470h-20l-14 -53h20zM419 451v42h-20v-42h20zM559 308l-16 6l-15 -29l16 -7zM454 349v53h-20v-53h20zM244 519v31h-20v-31h20zM431 300h-17l-14 -39l16 -6zM489 194l-16 6l-15 -29l16 -7zM408 190v64h-21v-64h21zM765 230q-14 0 -35 20
l18 17q11 -10 13 -22q-8 25 -6 58q-95 -93 -203 -161l-8 63q29 236 102 641q-20 -8 -62 -45l-8 16q-3 7 -21 7q-10 0 -55.5 -6t-69.5 -6l-446 -503l14 -86q55 32 180 185q121 148 180 178v-39q-3 -63 -90 -551q-104 -45 -172 -117q-89 -92 -89 -202q0 -62 42 -122
q51 -71 127 -71q142 0 257 232q93 189 93 302q0 12 -3 16q148 106 242 196zM385 175h-21l-12 -87h20zM466 160l-17 6l-108 -176l16 -7zM361 84h-20l-12 -64h20z" />
    <glyph glyph-name="k" unicode="k" horiz-adv-x="981" 
d="M739 59l-12 -12l-27 29l11 12zM692 4l-32 -15v17l26 14zM628 33l-16 -7l-15 34h17zM650 22l-15 -30l-15 7l14 29zM238 10l-53 14v20l53 -14v-20zM1007 215l-81 -83q-11 -5 -96 -74q-82 -65 -88 -65q-12 0 -13 4q0 1 2.5 5.5t2.5 6.5q-1 4 -3 7q-8 -9 -8 -34q-6 3 -14 3
q-10 0 -36 -7.5t-38 -7.5q-17 0 -53 14t-36 23q0 6 22 7v29l-18 19q-33 -33 -33 -35q-9 29 -50 91q22 -19 56 -13q-13 27 -56 27q0 67 25 67q14 14 -3 32q41 0 41 -9l15 18q-6 6 -14.5 17.5t-14.5 16.5q15 -14 40 11q-13 7 -26 13q0 1 -5 29q-24 -10 -40 -47q2 25 15 85
l-21 20q-22 2 -45 4q-26 3 -47 21v40q41 25 112 25q65 0 119 54q51 50 51 102q0 38 -29.5 67.5t-66.5 29.5l-23 -11q-9 0 -9 4q0 2 4 7.5t4 7.5q-1 4 -10 4q-17 0 -16 -6q2 -10 -1 -14q-49 -4 -127 -83q-74 -74 -101 -138q-10 15 -18 4q11 -31 11 -77q0 -119 -71 -155
q0 -20 6 -25q12 12 12 23q0 -9 12 -27.5t12 -27.5q0 -18 -30 -33q12 -6 34 -23l-17 -7q0 -1 -4 -8.5t-4 -11.5q0 -11 24 -14q0 -6 -12 -20q-15 -18 -21 -29q6 -5 9 -20t8 -21q10 10 14 29v-38q-94 -25 -149 -25q-35 0 -55 12q-13 -7 -13 -18q0 30 40 68q-21 11 -25 20
q10 -1 30 -13q22 20 32 47q17 45 19 50q-6 5 -8 14.5t-8 14.5l-22 -38q-14 -26 -14 -44q0 -5 1 -10q0 12 -22 35q-21 -22 -38 -22v66q27 0 49 -44q15 22 42 68q16 0 39 -46q4 -3 15 7q-31 63 -57 63q-16 0 -41 -13q-37 -18 -47 -21q0 25 47 22q10 10 10 47q-42 -21 -42 -30
q0 3 -8.5 23t-8.5 35q0 24 25 93q20 58 29 73q-20 -40 -20 -91q0 2 29 -23.5t29 -53.5q0 -8 -3 -17l48 11q0 8 -13 18.5t-22 10.5l29 30q9 -23 42 -69q0 29 -21 93q-14 -3 -62 -17q27 0 57 32q-7 0 -44 -5q-23 -3 -36 3q6 -6 24 7v53q-12 26 -50 44q-7 172 113 454
q33 77 125 265q14 29 28 59q22 42 46 54q77 35 204 78q121 41 143 41q39 0 58 -73q10 -42 10 -76q0 -120 -79 -234q-79 -109 -159 -217q100 26 153 26q79 0 138.5 -52.5t59.5 -120.5q0 -64 -52 -120q-48 -53 -115 -74q0 5 13 31q15 32 21 50q-19 -15 -39 -49.5t-22 -54.5
q21 -1 -83 -1q-21 0 -41 -59q21 5 80 11q-22 -30 -56 -94l16 -19q6 17 22 45.5t22 45.5q33 -12 37 -88q6 -116 8 -122q4 -18 20 -32t16 -20q0 -8 -14 -20q20 -20 50 -62q5 -4 15 7l-22 46q17 24 104 100q78 68 92 100q18 -13 29 -13v-75zM94 315l-7 -16l-37 14v17zM714 1246
q0 21 -13 43q-15 26 -38 26q-90 0 -187 -250q-30 -78 -109 -347q347 406 347 528zM885 647l-7 17l-63 -38l6 -16zM819 605l-12 11l-28 -27l11 -13zM560 792l-17 6l-19 -41l15 -7zM206 679h-44q0 -5 8 -18t8 -19q0 31 28 37zM686 263q-3 0 -17 7q-10 5 -17 -1
q-13 15 -26.5 30t-31.5 13h-38q32 -19 29 -43q0 15 8 23q-12 -109 -31 -150q-5 13 -22 22q-22 11 -24 13q-10 -11 -15 -33q9 4 14 4q8 0 10 -22q1 -29 14 -41q6 5 7 22.5t6 23.5q4 0 4 -1q6 -11 17 -11q16 0 31 -5t18 -5q0 26 30 56q10 -10 27 -9l-25 32q-3 0 -8.5 -11.5
t-21.5 -11.5q-17 0 -16 13q0 17 -3 21q0 -10 -10 -22q-7 6 -7 5q2 6 2 18q0 16 10 38q16 32 19 42q17 -17 67 -17zM509 241v20h-30v-20h30zM707 33l-26 44h-16l26 -51zM661 29l-25 80l-16 -7l24 -73h17zM278 457l-16 10l-27 -41l15 -11zM221 466v31h-20v-31h20zM183 479
q-23 23 -110 53q0 -11 -13 -31q4 0 13 4.5t25 4.5q20 0 33 -21.5t13 -41.5q0 8 15 20t24 12zM199 397v31h-20v-31h20zM153 422l-15 10l-27 -40l15 -11zM232 293v43h-19v-43h19zM173 256l-6 17l-27 -14v-17zM209 190l-14 34l-16 -7l14 -27h16z" />
    <glyph glyph-name="l" unicode="l" horiz-adv-x="662" 
d="M685 336q8 -94 0 -109q-28 -48 -169 -141q-146 -98 -205 -97h-104q-6 109 -27 350q-19 219 -19 228q0 24 3 99q10 7 21 14q17 15 13 39q-3 -3 -20 -14q-12 -8 -12 -14q0 17 -8 75t-8 71q0 74 74 250q24 63 47 125q31 76 72.5 109.5t143.5 66.5q88 29 118 29q62 0 62 -169
q0 -137 -68 -306q-64 -158 -164 -290q0 24 -17 24q0 -25 -28 -81q0 23 -19 23q-12 -11 -12 -30q0 -34 -1 -35q-26 -23 -71 -79q-36 -64 -36 -143q0 -25 41 -99.5t57 -84.5q23 -13 48 -13q47 0 152 75q101 73 136 127zM182 0q-84 24 -127 147q-29 87 -29 178q0 72 44 264
l52 220q0 -28 6.5 -89.5t6.5 -90.5q-17 17 -31 4q0 -42 -2 -23q2 -15 19 -15t20 5t7 5q0 -107 17 -334q17 -217 17 -220v-51zM588 1280q-27 23 -53 23q-86 -147 -140 -337q-30 -107 -74 -336q269 325 269 601q0 25 -2 49zM330 595l-6 16l-26 -14v-17zM267 507l-13 53h-20
l13 -53h20zM221 523l-16 6l-15 -29l16 -7zM104 389q-7 0 -17 -13q-14 -21 -16 -23q10 -10 31 -16q0 50 2 52z" />
    <glyph glyph-name="m" unicode="m" horiz-adv-x="1473" 
d="M132 204l-7 -17l-41 21l5 16zM1507 324q2 -11 2 -23q0 -102 -146 -215q-139 -107 -237 -107q-95 0 -127 72q-17 40 -17 123q0 106 52 243.5t52 194.5q0 25 -15 45t-15 25q0 6 7 14q-4 8 -15 4q-120 -135 -273 -290q11 -8 22 -8q-31 -131 -102 -373q-84 -19 -241 -48
q49 187 149 658q-7 10 -15 20t-26 10q-34 0 -146 -84q-10 -7 -23 -38q-15 -35 -27 -49q-78 -87 -99 -190q-10 -49 -10 -180q0 -6 -7 -36t-7 -66q-15 0 -25 10q-9 -11 -9 -21q-29 2 -84 -12q-48 -11 -96 -23q0 25 -7 86.5t-7 73.5q0 8 2 49.5t2 72.5q2 4 24 7q18 4 18 20
q0 13 -8 17q-6 2 -18 0q-16 -3 -19 -3l40 182q26 118 64 135q0 27 -18 9q27 27 32 27q2 -32 -4 -87l-23 -21l19 -17q21 9 35 54q14 6 51 24v30q-10 12 -57 9q0 6 21 27q-8 9 -24 9t-16 -9q0 57 43 143h32q7 -3 15 -7q-3 -11 1 -15q15 33 48 37q39 4 79 9q21 8 64 8
q-9 -11 -24 -63q-9 -30 -37 -25l-19 -19q2 -2 21 -7q13 -4 13 -21q0 -16 -28.5 -67t-28.5 -65q0 -23 17 -40q79 86 159 173q142 137 232 137q124 0 124 -134q0 -29 -8 -57q-9 -37 11 -73q59 57 186 183q0 -26 8 -34q12 54 69 92q6 0 12 -13q8 -17 12 -21q6 6 20.5 8.5
t20.5 8.5q-11 7 -34 38q4 0 19 7t32 7q71 0 113 -45t42 -122q0 -123 -57.5 -271t-57.5 -212v-43q7 -32 40 -32q32 0 125 82q70 60 107 102zM1136 636v31h-20v-31h20zM1026 711v20h-31v-20h31zM767 775v31h-20v-31h20zM730 795l-7 16l-52 -31l5 -17zM684 461l-7 17l-27 -14
v-17zM303 753q-40 40 -45 40l22 -26q-19 -19 -19 -28q14 14 42 14zM649 380l-6 17l-39 -14v-17zM307 567l-12 66h-20l12 -66h20zM205 663q0 5 -5.5 25t-5.5 33q0 -6 -8 -19.5t-8 -19.5q27 0 27 -19zM261 533v31h-20v-31h20zM225 482l-28 29l-12 -12l28 -28zM136 502
q0 -10 -28 -10q10 -11 18 -30q0 6 5 20.5t5 19.5zM107 516q-20 0 -46 -25q12 -12 34 -15q-14 14 12 40z" />
    <glyph glyph-name="n" unicode="n" horiz-adv-x="981" 
d="M648 33h-18v38h18v-38zM527 101h-39v18h39v-18zM647 761l-26 -27l-10 12l25 25zM585 723l-14 -9l-25 37l14 10zM557 675q-34 0 -67 -32q-4 25 48 71q-12 -11 7 -30q9 10 12 27v-36zM1009 337q4 -15 4 -31q0 -100 -150 -214q-134 -103 -198 -101h-31q6 1 21 13
q-18 3 -48 27q-6 -6 -6 -30q-19 0 -46 13q-41 19 -47 20q19 34 4 60q-5 -5 -10.5 -15.5t-10.5 -15.5q-7 25 -4 63q5 59 5 63q-2 -33 11 -53q24 24 10 37l21 -16q33 33 48 78l-19 18q-21 0 -3 -19q-47 0 -50 -2q1 3 1 6q0 4 -1.5 14t-1.5 16q0 27 31 43q-27 27 -30 27
q0 5 5.5 19.5t5.5 19.5q-4 0 22 -4q17 -3 30 3q0 19 -5 24q-12 -6 -12 -16q0 3 -8 20.5t-8 32.5q0 11 39 103q41 97 46 131q11 15 42 41q-18 17 -30 5q3 10 16 30q0 -12 19 -31q6 4 11 7t5 19q0 33 -15 48q-7 -21 -11 -21q-14 0 -17.5 10.5t-13.5 10.5l-25 -15l-32 -16
q0 5 5.5 20t5.5 21q-1 -10 24 -10q13 0 24 9q17 15 23 18q-17 17 -32 2q88 45 132 45q122 0 122 -143q0 -13 -74 -252.5t-74 -253.5q0 -68 48 -68q43 0 135 83q83 75 97 107zM480 693l-11 -70h-18l11 70h18zM676 310l-2 -2q-30 0 -81 -1q7 29 17 29q12 -12 37 -17t29 -9z
M441 663q4 -15 4 -31q0 -48 -52 -109q-78 -90 -84 -100q-42 -70 -52 -195q-3 -37 -3 -184q-23 -9 -230 -54v382q-1 49 68 235q56 153 83 209q137 28 236 57q-41 -120 -84 -266v-39q57 38 114 95zM686 671q-5 0 -25.5 -5.5t-25.5 -5.5q5 -5 19 -8.5t19 -8.5q0 9 13 28z
M676 599q-28 42 -51 42v-40q57 0 51 -2zM626 508l-11 10l-36 -36l10 -11zM564 290l-15 5l-13 -27l14 -6zM501 243v29h-18v-29h18z" />
    <glyph glyph-name="o" unicode="o" horiz-adv-x="897" 
d="M914 312q14 -22 14 -44q0 -53 -70 -96q-61 -37 -111 -37t-143 45q-177 -200 -288 -200h-63q-66 0 -110 37q-9 19 -39 47q3 0 27.5 2t44.5 2q12 10 10 58q-16 0 -16 -45q-19 11 -29 11v43q3 -3 7 -3q3 0 16 7t26 7t13 -4q0 -1 -2.5 -5t-2.5 -7q1 -4 3 -6q22 21 10 34
q-16 0 4 4q13 2 21 -5q6 6 14.5 8.5t14.5 7.5q-48 28 -81 43q12 30 46 70q-18 23 -51 38l-38 -33q0 25 -8 33q-12 -7 -12 -17q0 9 -11 53t-11 65q0 18 7 26q15 6 15 22q0 -17 11 -28q34 53 34 67q-1 -12 10 -23q0 5 4 18q2 9 0 16q-3 9 -18 19q12 -5 42 -64q9 0 10 10
q2 10 -7 18q16 16 60 16q9 -3 9 23q0 17 -16 29q-12 7 -24 15q-21 -20 -21 -32q-5 5 -17.5 7.5t-11 9.5t-8.5 27l-21 -22h-40q0 15 29 43q0 -23 10 -33q31 20 97 74q-6 15 -28 41q8 20 100.5 69t129.5 48h61q0 -5 -22 -26q-1 -1 -2 -1q-1 -2 3 -3.5t16 -1.5q13 0 57 22
t58 22q57 0 91 -45q30 -41 30 -99q0 -80 -51 -284q-4 -19 -30 -74q-23 -50 -23 -63q0 -55 104 -55q46 0 79 20q26 17 88 79zM108 281h-20v41h20v-41zM65 91q-14 21 -33.5 93.5t-19.5 105.5q0 62 15 112l38 110v-421zM154 148h-20v30h20v-30zM544 414l-14 43l-17 -5l14 -38
h17zM585 765h-84q-53 1 -124 -85q-90 -110 -101 -118q11 0 26 -12q-38 -201 -38 -221q0 -75 28 -137q34 -79 99 -79q34 0 82 34q55 40 79 94q-81 103 -81 149q0 15 8 23q21 0 21 -17q0 5 -6 21.5t-6 22.5q0 7 5 -13q2 -4 -16 -4q-25 0 -25 43q0 39 13 57q22 -43 43 -66
q-17 128 -14 150q-5 9 -5 20q0 28 42 75q51 58 54 63zM210 459l-12 11l-28 -26l11 -12zM199 359v29h-19v-29h19zM165 314v41h-20v-41h20zM245 70v30h-19v-30h19z" />
    <glyph glyph-name="p" unicode="p" horiz-adv-x="1131" 
d="M353 263l-33 -14v17l27 14zM293 -256q-23 -201 -23 -213q-84 -12 -249 -47q16 113 35 262q134 -17 237 -2zM1007 563q0 -161 -117 -354q-135 -221 -302 -221q-13 0 -33.5 -5.5t-35.5 -5.5q-95 0 -148 57q-38 -112 -55 -217q-40 0 -123.5 5t-93.5 5h-17q-3 -1 0 -3
q10 -8 10 -9q15 271 111 580q-6 6 -15 21t-15 20q-24 -7 -85 -46q2 -6 5 -12q-2 1 18 1q17 0 36 12l32 20q-104 -130 -180 -192v56q31 -16 43 -3q0 6 -14 9q-23 6 -32 11q42 52 84 103q58 70 90 74q0 23 -5 36q-8 17 -8 19q17 27 64 133q39 88 78 134q28 32 104 43l126 14
l-12 -80q-12 -60 -39 -63l20 -16q16 5 40 32q32 38 37 43q100 86 197 86q235 0 235 -287zM459 612l-12 11l-29 -28l12 -12zM441 642q-54 -27 -89 -27l65 -17q24 24 24 44zM754 500q0 189 -97 189q-118 0 -204 -232q-66 -181 -66 -296q0 -44 36.5 -74t83.5 -30q110 0 187 187
q60 147 60 256zM431 573q-49 -7 -97 -14q-39 -8 -50 -40q4 0 13.5 4.5t26.5 4.5q16 0 18.5 -17t6.5 -17q46 46 46 69q8 -8 22 -3q14 4 14 13zM286 623l-12 12l-39 -40l11 -12zM309 589l-12 11l-39 -39l11 -13zM436 451l-13 11l-39 -39l11 -12zM261 355l-6 16l-27 -14v-16z
" />
    <glyph glyph-name="q" unicode="q" horiz-adv-x="1067" 
d="M1103 335q7 -51 -1 -126q-87 -96 -258 -301q-187 -244 -218 -389q-77 -15 -254 -35l186 635l-8 53q-79 -82 -186 -164q1 18 -22 47q-4 -16 -12 -44q-40 -38 -105 -38q-98 0 -160 78q-57 73 -57 173q0 72 53 209q56 141 117 218q28 -47 28 -113q0 -35 -12 -122
q-12 -82 -11 -131l17 -20q7 18 7 129q0 9 13 58.5t13 75.5q0 137 5 178q216 167 326 167q64 0 113 -33q35 -24 60 -62q22 -34 19 -34q15 0 87 45q87 54 126 71q6 6 21 6t21 6q-28 -57 -27 -93q0 15 -21 36q-1 -82 -104 -458q-52 -189 -104 -377v-43q164 173 348 398z
M686 651q0 140 -93 140q-106 0 -201 -159q-45 -76 -115 -255q0 -11 -2 -57t-2 -77q1 -45 6 -82q11 0 24 11q0 5 4 -50q1 -27 -6 -41q6 0 28 5.5t28 5.5q0 13 -12 25q-17 16 -21 24q8 6 10 2q4 -6 19 -6q127 0 240 230q93 190 93 284zM199 197v66h-20v-66h20zM328 10v31h-20
v-31h20zM82 213l-16 6l-15 -30l16 -7z" />
    <glyph glyph-name="r" unicode="r" horiz-adv-x="748" 
d="M574 98h-18v39h18v-39zM627 130h-18v39h18v-39zM655 859q-38 -115 -79 -221q-5 26 -22 74q-20 -31 -16 -99q11 -10 29 8q0 -17 -22 -34q-9 -48 -42 -175q-28 -111 -28 -124q0 -55 4 -63q9 -21 59 -46v-143q-80 -46 -88 -49q-19 -7 -65 -7q-154 0 -154 180q0 89 52 194
q72 145 82 180q-112 -16 -197 -122q-118 -147 -179 -187v91q53 53 136 157l-70 86q-4 6 -4 63q0 84 52 156q60 84 153 84q13 0 25 -2q32 -32 32 -87q0 -29 -11.5 -84t-11.5 -75q0 -11 2 -19q171 50 281 264h82zM553 714v28h-18v-28h18zM251 714q0 5 -25 30q-12 -12 -46 -12
v-41l25 21q10 -6 25 -3q22 5 21 5zM758 330q-131 -137 -198 -152q30 -28 27 -49q0 9 11 10q8 -7 8 -31l34 31q10 -10 21 -10q19 0 50 29.5t46 57.5q7 14 5 54q-4 56 -4 60zM659 173v28h-18v-28h18z" />
    <glyph glyph-name="s" unicode="s" horiz-adv-x="854" 
d="M80 55h-20v32h20v-32zM572 877q-4 -12 -14 -31q-6 0 -13 15t-13 16h40zM680 432q0 -160 -145.5 -305t-310.5 -145q-54 0 -136 40q30 48 95 143l-18 18q-30 -53 -101 -142q-20 23 -20 53q0 35 26 66q4 -4 4 -61q39 14 39 49q0 23 -25 43q13 0 31 23q27 35 32 40h40
q11 -8 47 -96q29 -69 87 -69q67 0 124 65q53 61 53 118q0 49 -42 132.5t-76 102.5q22 29 76 138q6 -6 13 -24t12 -24q41 18 53 41q-7 9 -59 35q47 48 47 78q0 19 -6 24q-53 -80 -142 -237q-13 30 -37 83q-6 -6 -143 -177q0 43 9 43l-17 16q-22 -146 -183 -260v91
q112 105 214 262q88 135 133 250q0 -6 12 -24q29 25 55.5 30.5t40.5 16.5q-1 -29 27 -94q14 33 14 56q0 21 -12 30q31 -20 41 -56q8 -30 12 -30q17 0 16 1q-5 10 -5 11q-1 -20 3 -52q3 -35 3 -49q0 -6 42.5 -58.5t47.5 -105.5q9 -7 20 -25q-6 -50 1.5 -60t7.5 -5zM466 830
q-4 0 -8 -4t-21 -4t-20.5 11t-7.5 11v-56q15 0 57 42zM579 615q-11 0 -22 18q-13 0 -13 -30q0 12 35 12zM329 651l-17 6l-15 -30l16 -7zM222 528v44h-20v-44h20zM198 214l-17 6l-15 -31l17 -7z" />
    <glyph glyph-name="t" unicode="t" horiz-adv-x="575" 
d="M618 325q2 -10 2 -22q0 -102 -157 -215q-148 -106 -253 -106q-59 0 -63 34q-9 -12 -9 -22q269 548 287 584h-6q-6 -10 -297 -561q-12 0 -12 4t20 23q-14 7 -36 3q-31 -6 -36 -6q0 20 -19 56q-26 47 -29 56q25 -24 48 -24q1 17 10 28.5t9 13.5q0 7 -20 20q0 24 60 52
q-24 -22 14 -22v28q-8 8 -44 8q-17 0 -17.5 6t-4.5 6q-21 -20 -21 -18q0 50 2 25q-1 15 -20 15q-17 0 -23 -7q-3 -4 -8 1q18 38 18 92q0 -30 11 -40q17 36 58 55q0 16 -48 16v77q9 -2 18 -2q35 0 75 36q53 47 65 53q1 1 2 1q1 2 -3 3.5t-18 1.5q-26 0 -87 -57q-9 18 -9 43
q0 22 8.5 60t8.5 48q-24 13 -73 10q0 8 7.5 41.5t7.5 54.5q0 31 -14 50h123q37 109 113 317q225 50 224 50h53q-28 -90 -56 -181q-38 -118 -78 -167l19 -17q24 23 67 23q16 0 45 -8t41 -8q-37 -12 -111 -65q13 -18 39 -8q2 -1 9.5 -13.5t11.5 -12.5l35 22q0 -5 -5.5 -27
t-5.5 -28q-65 2 -149 -5q-23 -30 -83 -84q-9 -6 -9 -10q0 -5 16 -5q17 0 21.5 4t8.5 4q-18 -24 -41 -71q3 -9 3 -21q0 -26 -24 -107t-24 -119q0 -44 23 -81q28 -45 76 -45q58 0 137 62q59 49 117 98zM490 833l-13 11l-42 -39l11 -12zM350 717q0 33 -17 33q-7 0 -21 -17
q-21 -25 -22 -26q7 0 30 5t30 5zM256 510l-12 15l-49 -39l11 -16zM205 521l-48 15v-17l41 -14zM151 509q-12 0 -45 -31q25 0 43 -15q25 24 2 46zM99 469q0 -6 -13.5 -14.5t-13.5 -13.5q25 23 25 -12q1 1 1.5 2t0.5 38zM54 298v20h-33v-20h33zM110 218l-18 5l-16 -29l18 -7z
M142 77q0 6 -7 15t-7 14q-33 0 -33 -31q3 0 28 -3q12 -2 19 5z" />
    <glyph glyph-name="u" unicode="u" horiz-adv-x="1067" 
d="M50 72h-21v32h21v-32zM697 401l-35 -15v17l28 14zM1093 330q6 -14 6 -30q0 -93 -153 -212q-145 -112 -227 -112q-83 0 -121 58q-24 36 -33 108q-8 58 -17 58q-10 0 -78 -68q-80 -79 -120 -105q-19 -13 -126 -48q14 14 -5 33q-5 -28 -24.5 -30.5t-40.5 -4.5q0 5 22 26
q-19 3 -43 -5q-13 -4 -26 -9q0 2 6 20q5 13 -2 20q20 -21 41 0q-23 30 -53 30q-18 0 -17 -2q6 -9 6 -10q1 5 24 71q0 -13 22 -36q21 9 54 41q-18 4 -57 21v80q19 -6 51 -24q24 18 60 59q0 -21 -19 -40q31 -18 55 -90q6 7 16 5q19 -5 29 -5q28 0 93 54q58 47 88 86.5
t54 110.5q17 61 35 121q2 -8 15 -29q35 26 100 66q-24 19 -93 19q3 32 74 240q85 21 266 51q-165 -525 -165 -583q0 -100 71 -100q53 0 113 55t119 110zM626 235l-35 -15v17l28 15zM411 849q-97 -294 -157 -550q-2 -9 -21 -23q-22 -17 -39.5 -17t-16.5 -1q6 -8 6 -11
q-6 7 5 18l-21 19q-9 0 -15 -13q-7 -13 2 -22q-18 18 -66 62.5t-65 62.5q16 0 43 27q0 -24 23 -24l27 -18v117l-17 20q-12 -1 -12 -12q3 41 -12 59q-11 -11 -11 -24q34 92 80 270q150 63 205 60h62zM224 171l-7 -16l-42 21l6 17zM812 681v20h-55v-20h55zM793 511l-12 11
l-29 -28l11 -13zM717 625q-34 -15 -92 -43h69q0 5 11.5 21t11.5 22zM673 271l-6 16l-28 -14v-17zM50 297v43h-21v-43h21zM118 186q-65 0 -60 2q24 -6 53 -35q7 7 4 27q-4 31 -4 26q0 -11 7 -20z" />
    <glyph glyph-name="v" unicode="v" horiz-adv-x="897" 
d="M97 170h-21v42h21v-42zM916 260q0 -41 -62 -80q-55 -36 -94 -36q-15 0 -29.5 12t-29 12t-43.5 17t-43 17q-12 0 -67 -57q-68 -71 -120 -106q-86 -57 -173 -57q-13 0 -37.5 11.5t-37.5 11.5q-10 0 -10 -4q0 -2 4 -7.5t4 -7.5q-1 -4 -10 -4q-16 0 -76.5 60t-65.5 84
q-15 66 -15 123q0 110 50 264q78 244 84 269q0 -23 11 -34q8 7 8 56q144 24 252 34q-173 -453 -173 -583q0 -78 25 -109q29 -36 109 -36q14 0 11.5 5.5t11.5 5.5q35 0 157 146l-36 70q-22 59 -22 138q0 106 57 224q69 142 169 142q63 0 74 -38q1 -4 1 -78q0 -99 -36 -194
q-45 -117 -47 -130q-12 1 -56 -20q19 -19 44 6l-67 -109q55 -52 104 -52h64q33 0 95 92q0 -3 7.5 -22t7.5 -36zM185 601q-27 17 -31 43q2 -15 2 28q0 -45 -28 -45q52 -26 57 -26zM166 541v42h-20v-42h20zM156 510q0 -23 -23 -23q10 0 15 -8q5 -7 -3 -16q11 12 11 47z
M178 425v31h-20v-31h20zM194 6q-22 216 -22 392q-11 0 -21 -344q14 -6 26 -24q16 -24 17 -24z" />
    <glyph glyph-name="w" unicode="w" horiz-adv-x="1386" 
d="M902 67l-15 -31l-17 7l15 30zM762 95l-41 -27l-10 16l41 27zM740 16h-16l-14 28l16 6zM335 13l-45 -14v17l39 14zM143 67l-15 -31l-16 7l14 30zM1402 213q-70 -48 -71 -48q-25 -13 -83 -13l-34 -11q-47 0 -104 57q-78 -51 -72 -51q-2 0 -2 2q6 10 23 32q-6 6 -41 6
q-12 0 -14 -16.5t-14 -16.5q-1 -5 22 -28q-1 -26 -77 -72q-52 -30 -104 -61q10 14 10 25q-19 19 -41 -4q-9 10 -4 27q6 18 22 18v28l-19 20q-32 -28 -32 -65q0 -24 16 -46q-21 -12 -81 -12q6 1 23 13l-31 30q-24 3 -42 -35q-64 33 -64 107q-8 8 -19 1q-9 -7 -9 -16
q0 17 -4 48q-3 9 -15 9q-14 0 -11 -11.5t-12 -11.5q-16 0 -19 12t-7 12q-5 -12 -12 -35t-13 -35q-23 23 -41 6q6 -6 17.5 -12t17.5 -12q-5 -2 -79 -46q-48 -28 -65 -28q-80 0 -131 14q3 43 -3 67q-9 -6 -14 -27q-6 -25 -11 -31q-72 18 -96 114q-13 60 -27 120q3 44 5 88
q7 54 41 64q-10 7 -21 7v54q27 0 33 6q-11 9 -22 9q0 5 8 24.5t8 25.5q0 -19 10 -29q5 15 16 27q8 9 8 13q0 7 -15 28l25 -23q0 16 -7 53t-7 61q6 0 21.5 6t21.5 6q5 -22 -11 -70q4 0 20 -5.5t29 -5.5q1 13 -2 24.5t-3 10.5q0 4 26 7q-30 5 -34 47q-6 52 -23 67q13 24 13 62
q156 23 250 23q-18 -43 -55 -161q-28 -90 -36 -90q-28 0 -46 -17q5 -5 22.5 -12t23.5 -13q-13 1 -57 -21q34 -17 34 -46q0 -27 -36 -74q-6 36 13 73l-17 18q-20 -19 -28 -19q18 18 5 31q-32 -32 -32 -69q-3 3 -54 3l23 26l-2 2q3 7 -5 26q-27 -13 -51 -61q29 -20 75 -88
q9 19 -15 67q42 -26 90 -36q-7 8 -11 2q-6 -7 -12 -15q10 -8 21 -8q0 6 -14 -71q22 -16 11 -74q-4 -5 -40 -25q-31 -16 -36 -39q15 -5 46 -25q26 -18 41 -18l6 -16q9 2 15.5 15t18.5 20q-8 7 -45 7q15 21 15 32q18 -35 58 -35q21 0 56 16q40 18 57 41h68q1 29 -6 38t-6 16
v119q13 -12 36 -12q9 9 4 18q-4 9 -13 0q6 6 14.5 11.5t14.5 11.5q-20 20 -45 20q15 35 48 173q29 124 62 179q50 82 136 82q8 0 9 -3q0 -2 -6 -8t-6 -9q1 -3 9 -3q11 0 30 17t34 17h61q-11 -35 -77 -202q-19 -88 -39 -175q-34 -126 -102 -137l30 -44q29 -47 29 -79
q0 -8 -3 -16l-44 -9q55 -25 167 -96q13 13 -5 31q8 0 39 -31q17 16 7 27q0 12 39 -27q6 12 2 37q-4 31 -3 37q18 9 44 42q42 55 51 64q-3 25 -7 50q-3 25 11 42q0 17 -44 17q0 141 24 251q50 230 187 230q16 0 35 -8.5t22 -8.5q-5 0 -28 -23q6 -7 21 -2q20 7 22 7
q14 -28 14 -74q0 -97 -51 -238q-53 -146 -110 -190v-41q23 -16 72 -36q40 -16 49 -30q47 35 142 103v-88zM1222 751l-11 15l-63 -50l10 -16zM1140 692l-7 17l-64 -38l6 -17zM1073 650l-12 11l-28 -28l11 -12zM798 741v42h-20v-42h20zM1057 425v19h-31v-19h31zM1060 393
l-7 16l-27 -14v-16zM752 384l-14 45l-17 -6l14 -39h17zM992 103l-28 29l-12 -12l28 -28zM695 361v31h-20v-31h20zM641 394q0 6 -5.5 22.5t-5.5 22.5q-21 -11 -43 -39q2 -2 2 -39q6 0 19.5 13.5t18.5 13.5q-9 0 -14 10q-5 11 3 19zM679 275q-13 0 -38.5 6t-29.5 6
q13 -13 19 -37.5t9 -28.5q8 21 40 54zM609 293q0 4 -28 32q-6 -7 -4 -20q4 -22 4 -20q0 10 28 8zM242 666q-17 0 -17 33q0 -5 -7 -27.5t-7 -35.5zM311 581q-28 29 -28 37q0 -10 -22 -35.5t-20 -39.5q24 38 70 38zM580 200v31h-20v-31h20zM706 101l-16 6l-15 -29l16 -7z
M644 172q-14 14 -14 37q-25 -16 -49 -16q18 0 41 -23q-19 -19 -19 -52q6 12 25 31q16 17 16 23zM600 163l-6 16l-39 -13v-17zM177 561l-16 6l-15 -29l16 -7zM153 512l-12 11l-40 -39l12 -12zM172 328q0 31 -16 31q1 0 -28 -31h44zM207 305q-4 5 -56 5q11 -12 14 -30
q5 0 21 12.5t21 12.5zM98 357h-20l-13 -53h19zM218 177q0 13 -1 38v29q-26 -13 -75 11q0 -11 -14 -31q4 0 10.5 4.5t23.5 4.5t18 -4q2 -11 5 -13q-12 -12 -29 -12q13 0 35.5 -13.5t26.5 -13.5zM183 119l-16 68q0 -35 -12 -46q-20 14 -33 0q-7 7 -4 23q5 24 5 23
q-24 -49 -4 -68h64zM85 216l-16 6l-15 -29l16 -7z" />
    <glyph glyph-name="x" unicode="x" horiz-adv-x="1153" 
d="M693 109h-20v65h20v-65zM717 28h-20l-12 77h20zM1183 225q-135 -120 -198 -161q-127 -84 -238 -84q-68 0 -118 28q-55 31 -55 83q0 9 1 18q-5 0 -17.5 -4.5t-17.5 -4.5q5 0 23 11q-26 11 -53 65q-12 -12 -31 1q1 -4 -2.5 -15t-3.5 -14q0 -4 3 -4q5 0 16 7
q-110 -171 -252 -171q-44 0 -111 34q-73 37 -73 75q0 17 36 52t72 69q30 -15 66 -78q28 -48 85 -48q101 0 167 228q39 135 47 242q10 2 161 32q-4 4 -54 6h-49q2 41 -19 102q-5 -40 -17 -115q-10 52 -31 173q-5 -6 -5 -33q-3 0 -25.5 5t-36.5 5q-21 0 -69 -31
q-52 -33 -80 -71q-72 -109 -144 -219q-92 -141 -160 -185v88q27 28 71 81l144 212q94 132 165 178l-7 13q93 61 190 61q132 0 190 -185q62 103 103 139q50 46 121 46q59 0 113 -47q49 -42 49 -74q0 -49 -58 -83q-80 -48 -81 -50q-10 19 12 41q-23 52 -99 109
q-47 -18 -83 -78q-18 -29 -67 -195q-51 -170 -51 -205q0 -69 24 -122q31 -68 92 -68q76 0 198 99q79 65 157 130v-88zM647 781l-16 6l-15 -29l16 -7zM601 512v42h-20v-42h20zM624 431l-12 65h-20l12 -65h20zM647 427h-17l-14 -38l17 -7zM556 485h-20l-13 -54h19zM647 316v54
h-20v-54h20zM712 287q-51 0 -66 15q7 -50 27 -126q0 -3 -3 51q-2 28 5 42q18 0 37 18zM608 272q-24 9 -54 27q-2 33 -14 80.5t-12 26.5q0 -31 30 -149q0 -11 -6 15q-1 8 16 8t27 -4t13 -4zM520 189l-26 57l-16 -7l25 -50h17zM567 132v53h-20v-53h20z" />
    <glyph glyph-name="y" unicode="y" horiz-adv-x="1067" 
d="M246 -515h-20v31h20v-31zM463 833q-27 -65 -97 -232q-18 18 -41 2l18 44q15 34 39 43q-2 8 -17 28q-11 -12 -11 -23q-8 23 -13 23q-11 0 -17.5 11.5t-17.5 11.5q-26 5 -26 3l5 -9t5 -17q0 -11 -8 -23q-3 8 -29 43q-22 30 -22 44q0 19 74 37q65 15 96 14h62zM316 661h-20
v32h20v-32zM316 580h-20v43h20v-43zM316 533h-20v32h20v-32zM1089 321q1 -9 1 -19q0 -107 -157 -203l-246 -136q-32 -147 -145 -293q-135 -173 -286 -185q0 4 5.5 24.5t5.5 33.5q-36 0 -36 7q2 15 29 15q14 0 15 -7.5t2 -14.5q1 -2 4 -2l1 1t1 28q0 -6 14.5 -9t20.5 -8
q8 8 0 17q-7 9 -17 9q9 13 71 136q45 88 80 111q-25 10 -27 14q-1 3 4 32q-7 6 -37 4q-64 -5 -115 -5q69 36 184 123q13 14 25 67q14 60 25 82v30q-21 1 -41 -38l-24 24q-9 -9 -6 -24q3 -16 12 -16q-2 -19 -29 -19q-17 0 -38.5 14t-25.5 14q162 135 234 332q47 133 94 265
q63 108 238 108h50l-245 -716v-41q154 36 359 245zM332 531q0 -6 -5 -22.5t-5 -21.5h-42v44q9 -9 26 -9t26 9zM644 176q0 5 4 -38q2 -23 -5 -37q0 24 -12 24q-3 0 -6 -3q19 17 19 54zM204 -3h-86q-97 61 -97 243q0 123 59 275l124 284v-802zM393 85q-4 -3 -57 -48
q-36 -30 -52.5 -30t-27.5 -4.5t-19 -4.5q9 14 22 67q5 -10 15 -23q16 0 16 29q12 1 53 8q34 6 50 6zM217 -516q-115 40 -115 145q0 48 31 106q33 62 83 97q-1 -53 -22.5 -120.5t-21.5 -88.5q0 -45 45 -61v-78zM351 766v32h-20v-32h20zM665 282l-16 6l-15 -30l16 -7zM311 459
q-11 0 -31 13q0 -4 6 -34q4 -17 -3 -23l-26 23q0 -141 2 -116q-3 26 16 67z" />
    <glyph glyph-name="z" unicode="z" horiz-adv-x="981" 
d="M616 54h-21v32h21v-32zM603 30h-17l-14 28l16 7zM984 312q6 -18 6 -36q0 -109 -229 -282h-42q0 7 13 15q17 10 21 14q-6 5 -15 8t-15 9q-27 -27 -20 -70q-37 22 -101 0q0 1 6 24q4 16 -3 23q-25 -25 -18 -32q-4 0 -14 16t-27 16q-9 0 -10 -4q0 -3 4.5 -8.5t4.5 -7.5
q-2 -4 -11 -4q-14 0 -14 17.5t-15 17.5q-11 0 -11 -5q0 -2 2 -6.5t2 -6.5q0 -5 -11 -5q-17 0 -30 14.5t-17 14.5q6 0 16.5 -3t16.5 -3q11 10 -13 58l25 -23q-1 14 -2 42q-2 1 -21 30q-8 -3 -18.5 -19.5t-27.5 -16.5q-3 0 -26 96l-14 6q14 0 14 -24v-37q1 -5 3 -8
q5 -10 0 -33q-6 -23 1 -35l25 23q0 1 -6 -26q-4 -20 3 -27q-6 6 -17 9t-17 9q-10 -12 -10 -23q1 11 -27 11q-50 0 -144 -70q0 13 -7 26t-7 18q9 4 37 61h49q5 6 5.5 16.5t1.5 10.5q2 0 5 -3q0 2 12 13t12 17q0 9 -24 11q3 19 28.5 43.5t32.5 45.5q0 -26 10 -35
q32 97 137 221q173 202 178 208q-20 7 -83 3q-85 -7 -77 -7q-16 0 -38 7q-27 9 -30 9q7 8 -2 15q-25 -9 -93 5q-47 -68 -95 -137q-51 -66 -104 -85q0 -19 17 -12q5 -14 -40 -74q-9 20 13 42q-15 6 -53 23q12 5 23 -6l34 66q28 53 43 53q17 0 16 -8q-2 -12 2 -16q11 10 -3 54
q56 84 113 169q81 120 120 120q13 0 83 -18t82 -18q15 0 33 6t31.5 6t69.5 6t73 6q47 0 111 21q-91 -157 -246 -348q-147 -182 -250 -271v-18h19q35 2 50 -35q6 0 6 35q7 -3 125 -26q95 -18 115 -44q53 25 105 50q78 39 143 116zM567 787l-13 12l-40 -40l11 -13zM485 720
l-17 6l-15 -30l17 -7zM734 54l-12 79h-21l13 -79h20zM550 133q-3 0 -6.5 -5t-20.5 -5t-20.5 11t-7.5 11v-44q6 0 22.5 -5t22.5 -5q-4 4 -4 8q0 6 7 18t7 16zM426 188l-26 45h-17l27 -52zM367 177l-17 6l-15 -30l17 -8zM344 66v55h-21v-55h21zM115 331q-10 5 -28 30
q-15 21 -28 21q-10 -19 -46 -67q-28 -37 -28 -53q0 -15 9.5 -21.5l9.5 -6.5q-1 -3 -3 -5l15 7q22 11 28 25q-22 12 -23 13t-3 15q19 -13 38 6q-13 0 -24 11l19 18q16 -8 39 -4q20 3 25 11z" />
    <glyph glyph-name="braceleft" unicode="{" 
 />
    <glyph glyph-name="bar" unicode="|" 
 />
    <glyph glyph-name="braceright" unicode="}" 
 />
    <glyph glyph-name="asciitilde" unicode="~" 
 />
    <glyph glyph-name="exclamdown" unicode="&#xa1;" 
 />
    <glyph glyph-name="cent" unicode="&#xa2;" 
 />
    <glyph glyph-name="sterling" unicode="&#xa3;" 
 />
    <glyph glyph-name="currency" unicode="&#xa4;" 
 />
    <glyph glyph-name="yen" unicode="&#xa5;" 
 />
    <glyph glyph-name="brokenbar" unicode="&#xa6;" 
 />
    <glyph glyph-name="section" unicode="&#xa7;" 
 />
    <glyph glyph-name="dieresis" unicode="&#xa8;" 
 />
    <glyph glyph-name="ordfeminine" unicode="&#xaa;" 
 />
    <glyph glyph-name="guillemotleft" unicode="&#xab;" 
 />
    <glyph glyph-name="logicalnot" unicode="&#xac;" 
 />
    <glyph glyph-name="macron" unicode="&#xaf;" horiz-adv-x="1024" 
d="M1520 1590h-1060v102h1060v-102z" />
    <glyph glyph-name="degree" unicode="&#xb0;" 
 />
    <glyph glyph-name="plusminus" unicode="&#xb1;" 
 />
    <glyph glyph-name="twosuperior" unicode="&#xb2;" horiz-adv-x="662" 
d="M559 776q-28 -103 -55 -138q-41 -56 -129 -56q-36 0 -107.5 6t-107.5 6q-34 0 -111 -12q-8 0 -8 14q0 108 195 281q221 196 221 354q0 55 -28 92q-31 41 -85 41q-50 0 -85.5 -34.5t-35.5 -84.5q0 -36 29 -61.5t29 -34.5q0 -18 -48 -38q-43 -19 -65 -19q-53 0 -53 69
q0 106 98 186q93 76 201 76q89 0 151 -54t62 -142q0 -100 -95 -195q-51 -52 -177 -137q-175 -118 -222 -186q69 18 131 18q27 0 80 -5t80 -5q47 0 67.5 14t36.5 57z" />
    <glyph glyph-name="threesuperior" unicode="&#xb3;" horiz-adv-x="662" 
d="M635 1241q0 -136 -205 -205q160 -73 160 -202q0 -125 -104 -195q-91 -61 -222 -61q-91 0 -149 34q-72 43 -72 127q0 39 25 57q14 11 61 23q37 10 45 10q16 0 16 -22q0 -11 -11 -41t-11 -53q0 -43 32 -69t76 -26q75 0 118 77q36 64 36 145q0 54 -23 94q-29 49 -79 49
l-43 -4q-17 0 -17 20q0 34 10 41t46 7q78 0 124 62q41 56 41 136q0 129 -118 129q-42 0 -76 -26q-37 -29 -37 -70q0 -6 9 -30t9 -31q0 -17 -41 -39q-37 -21 -57 -21q-31 0 -31 55q0 92 93 155q84 56 180 56q90 0 149 -45q66 -50 66 -137z" />
    <glyph glyph-name="acute" unicode="&#xb4;" horiz-adv-x="682" 
d="M803 1329q-30 -123 -146 -223q-74 -65 -227 -150l-61 21q149 173 204 328z" />
    <glyph glyph-name="paragraph" unicode="&#xb6;" 
 />
    <glyph glyph-name="cedilla" unicode="&#xb8;" 
 />
    <glyph glyph-name="onesuperior" unicode="&#xb9;" 
 />
    <glyph glyph-name="ordmasculine" unicode="&#xba;" 
 />
    <glyph glyph-name="guillemotright" unicode="&#xbb;" 
 />
    <glyph glyph-name="onequarter" unicode="&#xbc;" 
 />
    <glyph glyph-name="onehalf" unicode="&#xbd;" 
 />
    <glyph glyph-name="threequarters" unicode="&#xbe;" 
 />
    <glyph glyph-name="questiondown" unicode="&#xbf;" 
 />
    <glyph glyph-name="Agrave" unicode="&#xc0;" horiz-adv-x="1386" 
d="M134 615l-13 -27l-14 7l12 25zM156 499l-34 -13v15l29 12zM143 460l-37 -24l-8 14l35 23zM39 516h-27v17h27v-17zM181 319l-56 -33l-6 15l56 32zM84 376l-14 -9l-23 36l13 9zM57 321q-31 -3 -46 -11.5t-19 -8.5q-3 22 47 67q-11 -11 6 -28q9 9 12 25v-44zM123 172
l-36 -35l-9 11l34 34zM1398 1372q-42 -41 -53 -63q-26 24 -34 59q-6 28 -32 37q21 0 30 9q-5 5 -7.5 17.5t-7.5 17.5q-29 -31 -83 -49q0 43 -10 43q-4 -1 -9 -4q0 8 12 7q12 0 19 -7q5 9 5 29.5t5 29.5q56 -39 46 -39q13 0 15.5 10t14.5 10q10 0 41.5 -11t47.5 -11v-85z
M1425 349q2 -138 -145 -255q-143 -114 -301 -114q-114 0 -175 70.5t-81 229.5l-210 -220q-95 -80 -218 -80q-108 0 -165.5 49t-138.5 208q1 0 19.5 -4t42.5 -4q4 6 0 23q-3 13 5 13q11 0 46 -16q4 10 8 39.5t9 39.5l39 37q-17 17 -24 17q6 11 29 -12q6 3 10.5 6t4.5 19
q0 35 -17 35q-27 -1 -75 -10q-3 -2 -4 -2q5 0 -11 32q-10 0 -21 11.5t-21 11.5q5 5 20 16.5t20 16.5q0 3 -9 22.5t-9 30.5q21 -21 39 -21q0 -1 5 23q4 13 -7 34q11 16 17 22q12 10 40 21q3 7 -8 9t-42 0q-4 -3 -11 5q-9 12 -24 18q-4 -9 -6 5q-3 15 4 29q-7 7 -27 7v48
q12 -9 32 -40q16 31 45 45q-12 7 -29 32q-21 30 -21 53q0 210 272 440q261 220 463 220q68 0 93 -10l27 20l31 -31q96 21 98 21q91 0 155 -13l-46 -64q-32 -45 -31 -84q11 7 33 36q18 26 26 26q4 0 6 -2q41 -34 80 -10q0 -18 -18 -35q3 -7 25 -26q17 -16 17 -32q0 -8 -4 -17
q-2 -1 -2 -2q0 -4 34 -21q-11 -9 -22 -17q-15 -14 -22 -39q-2 2 -4 2q-4 0 -13.5 -11.5t-18.5 -16.5q17 -17 28 -5q-47 -73 -130 -307q-108 -303 -108 -491q0 -210 135 -210q51 0 145 68q87 64 116 111zM332 922l-35 -35l-9 11l34 34zM173 859l-37 -23l-8 14l35 23zM133 832
l-26 -25l-9 11l24 24zM1353 1330v47h-18v-47h18zM1163 1476v17l-52 -11v-17zM1152 1451l-11 10l-24 -24l9 -11zM1242 1341l-11 10l-24 -24l9 -11zM1215 1358l-5 14l-29 -12v-14zM1177 1338l-48 -25q9 0 21.5 -8.5t12.5 -15.5q9 19 14 49zM1269 1233q-4 8 -19 28
q-11 15 -11 21q11 8 11 11q0 2 -3 2q-7 0 -34.5 -8.5t-31.5 -9.5q0 -32 -32 -64q25 -25 70 -56q-10 5 -24 24q-16 23 -16 38q14 21 24 21q6 0 14 -3q17 -12 17 -48q3 22 35 44zM1150 1278l-5 14l-24 -12v-14zM1103 1307h-15l-32 -63l14 -6zM1142 1184l-10 14l-25 -19l9 -14z
M804 1440l-12 47h-17l11 -47h18zM1109 1205q-54 14 -59 24q-55 -79 -148 -254q43 69 136 206q10 13 17 13t13.5 -12t7.5 -13q4 7 33 36zM903 965l-14 5l-13 -26l14 -6zM461 1338l-6 14l-43 -22v-14zM422 1181l-10 10l-35 -34l10 -11zM442 1151l-10 10l-35 -34l10 -11z
M1099 1433q-52 15 -82 15q-10 -19 -38 -19q-23 0 -30 7q0 36 -6 42q0 -39 -13 -39q-92 8 -252 -94q-89 -59 -177 -118q0 -5 9.5 -15.5t9.5 -15.5q-34 -37 -100 -104q21 0 30 -8q-30 -45 -72 -145t-58 -123q-9 -105 -26 -188q-14 -63 -14 -123q0 -95 22 -170
q41 -135 143 -135q139 0 221 141q52 89 102 292.5t81 254.5q2 15 5 24q2 9 2 -1q6 0 10 13t-12 13q96 246 196 346q51 50 51 93q0 7 -3 11q-22 22 -38 22t-31 15q9 2 27 15q5 0 21.5 -3t21.5 -3zM326 1058l-6 15l-38 -23v-14zM331 1008l-6 15l-73 -32v-15zM332 972l-10 10
l-24 -25l9 -10zM252 870l-9 13l-40 -34l9 -13zM211 880l-39 12v-14l33 -12zM189 928q-53 -27 -74 -49q-28 29 -33 29q0 -4 -6 -23t-6 -31q0 -14 15.5 -12.5t19.5 -2.5q63 48 84 89z" />
    <glyph glyph-name="Aacute" unicode="&#xc1;" horiz-adv-x="1386" 
d="M134 615l-13 -27l-14 7l12 25zM156 499l-34 -13v15l29 12zM143 460l-37 -24l-8 14l35 23zM39 516h-27v17h27v-17zM181 319l-56 -33l-6 15l56 32zM84 376l-14 -9l-23 36l13 9zM57 321q-31 -3 -46 -11.5t-19 -8.5q-3 22 47 67q-11 -11 6 -28q9 9 12 25v-44zM123 172
l-36 -35l-9 11l34 34zM1398 1372q-42 -41 -53 -63q-26 24 -34 59q-6 28 -32 37q21 0 30 9q-5 5 -7.5 17.5t-7.5 17.5q-29 -31 -83 -49q0 43 -10 43q-4 -1 -9 -4q0 8 12 7q12 0 19 -7q5 9 5 29.5t5 29.5q56 -39 46 -39q13 0 15.5 10t14.5 10q10 0 41.5 -11t47.5 -11v-85z
M1425 349q2 -138 -145 -255q-143 -114 -301 -114q-114 0 -175 70.5t-81 229.5l-210 -220q-95 -80 -218 -80q-108 0 -165.5 49t-138.5 208q1 0 19.5 -4t42.5 -4q4 6 0 23q-3 13 5 13q11 0 46 -16q4 10 8 39.5t9 39.5l39 37q-17 17 -24 17q6 11 29 -12q6 3 10.5 6t4.5 19
q0 35 -17 35q-27 -1 -75 -10q-3 -2 -4 -2q5 0 -11 32q-10 0 -21 11.5t-21 11.5q5 5 20 16.5t20 16.5q0 3 -9 22.5t-9 30.5q21 -21 39 -21q0 -1 5 23q4 13 -7 34q11 16 17 22q12 10 40 21q3 7 -8 9t-42 0q-4 -3 -11 5q-9 12 -24 18q-4 -9 -6 5q-3 15 4 29q-7 7 -27 7v48
q12 -9 32 -40q16 31 45 45q-12 7 -29 32q-21 30 -21 53q0 210 272 440q261 220 463 220q68 0 93 -10l27 20l31 -31q96 21 98 21q91 0 155 -13l-46 -64q-32 -45 -31 -84q11 7 33 36q18 26 26 26q4 0 6 -2q41 -34 80 -10q0 -18 -18 -35q3 -7 25 -26q17 -16 17 -32q0 -8 -4 -17
q-2 -1 -2 -2q0 -4 34 -21q-11 -9 -22 -17q-15 -14 -22 -39q-2 2 -4 2q-4 0 -13.5 -11.5t-18.5 -16.5q17 -17 28 -5q-47 -73 -130 -307q-108 -303 -108 -491q0 -210 135 -210q51 0 145 68q87 64 116 111zM332 922l-35 -35l-9 11l34 34zM173 859l-37 -23l-8 14l35 23zM133 832
l-26 -25l-9 11l24 24zM1353 1330v47h-18v-47h18zM1163 1476v17l-52 -11v-17zM1152 1451l-11 10l-24 -24l9 -11zM1242 1341l-11 10l-24 -24l9 -11zM1215 1358l-5 14l-29 -12v-14zM1177 1338l-48 -25q9 0 21.5 -8.5t12.5 -15.5q9 19 14 49zM1269 1233q-4 8 -19 28
q-11 15 -11 21q11 8 11 11q0 2 -3 2q-7 0 -34.5 -8.5t-31.5 -9.5q0 -32 -32 -64q25 -25 70 -56q-10 5 -24 24q-16 23 -16 38q14 21 24 21q6 0 14 -3q17 -12 17 -48q3 22 35 44zM1150 1278l-5 14l-24 -12v-14zM1103 1307h-15l-32 -63l14 -6zM1142 1184l-10 14l-25 -19l9 -14z
M804 1440l-12 47h-17l11 -47h18zM1109 1205q-54 14 -59 24q-55 -79 -148 -254q43 69 136 206q10 13 17 13t13.5 -12t7.5 -13q4 7 33 36zM903 965l-14 5l-13 -26l14 -6zM461 1338l-6 14l-43 -22v-14zM422 1181l-10 10l-35 -34l10 -11zM442 1151l-10 10l-35 -34l10 -11z
M1099 1433q-52 15 -82 15q-10 -19 -38 -19q-23 0 -30 7q0 36 -6 42q0 -39 -13 -39q-92 8 -252 -94q-89 -59 -177 -118q0 -5 9.5 -15.5t9.5 -15.5q-34 -37 -100 -104q21 0 30 -8q-30 -45 -72 -145t-58 -123q-9 -105 -26 -188q-14 -63 -14 -123q0 -95 22 -170
q41 -135 143 -135q139 0 221 141q52 89 102 292.5t81 254.5q2 15 5 24q2 9 2 -1q6 0 10 13t-12 13q96 246 196 346q51 50 51 93q0 7 -3 11q-22 22 -38 22t-31 15q9 2 27 15q5 0 21.5 -3t21.5 -3zM326 1058l-6 15l-38 -23v-14zM331 1008l-6 15l-73 -32v-15zM332 972l-10 10
l-24 -25l9 -10zM252 870l-9 13l-40 -34l9 -13zM211 880l-39 12v-14l33 -12zM189 928q-53 -27 -74 -49q-28 29 -33 29q0 -4 -6 -23t-6 -31q0 -14 15.5 -12.5t19.5 -2.5q63 48 84 89zM1288 1907q-30 -123 -146 -223q-74 -65 -227 -150l-61 21q149 173 204 328z" />
    <glyph glyph-name="Acircumflex" unicode="&#xc2;" horiz-adv-x="1386" 
d="M134 615l-13 -27l-14 7l12 25zM156 499l-34 -13v15l29 12zM143 460l-37 -24l-8 14l35 23zM39 516h-27v17h27v-17zM181 319l-56 -33l-6 15l56 32zM84 376l-14 -9l-23 36l13 9zM57 321q-31 -3 -46 -11.5t-19 -8.5q-3 22 47 67q-11 -11 6 -28q9 9 12 25v-44zM123 172
l-36 -35l-9 11l34 34zM1398 1372q-42 -41 -53 -63q-26 24 -34 59q-6 28 -32 37q21 0 30 9q-5 5 -7.5 17.5t-7.5 17.5q-29 -31 -83 -49q0 43 -10 43q-4 -1 -9 -4q0 8 12 7q12 0 19 -7q5 9 5 29.5t5 29.5q56 -39 46 -39q13 0 15.5 10t14.5 10q10 0 41.5 -11t47.5 -11v-85z
M1425 349q2 -138 -145 -255q-143 -114 -301 -114q-114 0 -175 70.5t-81 229.5l-210 -220q-95 -80 -218 -80q-108 0 -165.5 49t-138.5 208q1 0 19.5 -4t42.5 -4q4 6 0 23q-3 13 5 13q11 0 46 -16q4 10 8 39.5t9 39.5l39 37q-17 17 -24 17q6 11 29 -12q6 3 10.5 6t4.5 19
q0 35 -17 35q-27 -1 -75 -10q-3 -2 -4 -2q5 0 -11 32q-10 0 -21 11.5t-21 11.5q5 5 20 16.5t20 16.5q0 3 -9 22.5t-9 30.5q21 -21 39 -21q0 -1 5 23q4 13 -7 34q11 16 17 22q12 10 40 21q3 7 -8 9t-42 0q-4 -3 -11 5q-9 12 -24 18q-4 -9 -6 5q-3 15 4 29q-7 7 -27 7v48
q12 -9 32 -40q16 31 45 45q-12 7 -29 32q-21 30 -21 53q0 210 272 440q261 220 463 220q68 0 93 -10l27 20l31 -31q96 21 98 21q91 0 155 -13l-46 -64q-32 -45 -31 -84q11 7 33 36q18 26 26 26q4 0 6 -2q41 -34 80 -10q0 -18 -18 -35q3 -7 25 -26q17 -16 17 -32q0 -8 -4 -17
q-2 -1 -2 -2q0 -4 34 -21q-11 -9 -22 -17q-15 -14 -22 -39q-2 2 -4 2q-4 0 -13.5 -11.5t-18.5 -16.5q17 -17 28 -5q-47 -73 -130 -307q-108 -303 -108 -491q0 -210 135 -210q51 0 145 68q87 64 116 111zM332 922l-35 -35l-9 11l34 34zM173 859l-37 -23l-8 14l35 23zM133 832
l-26 -25l-9 11l24 24zM1353 1330v47h-18v-47h18zM1163 1476v17l-52 -11v-17zM1152 1451l-11 10l-24 -24l9 -11zM1242 1341l-11 10l-24 -24l9 -11zM1215 1358l-5 14l-29 -12v-14zM1177 1338l-48 -25q9 0 21.5 -8.5t12.5 -15.5q9 19 14 49zM1269 1233q-4 8 -19 28
q-11 15 -11 21q11 8 11 11q0 2 -3 2q-7 0 -34.5 -8.5t-31.5 -9.5q0 -32 -32 -64q25 -25 70 -56q-10 5 -24 24q-16 23 -16 38q14 21 24 21q6 0 14 -3q17 -12 17 -48q3 22 35 44zM1150 1278l-5 14l-24 -12v-14zM1103 1307h-15l-32 -63l14 -6zM1142 1184l-10 14l-25 -19l9 -14z
M804 1440l-12 47h-17l11 -47h18zM1109 1205q-54 14 -59 24q-55 -79 -148 -254q43 69 136 206q10 13 17 13t13.5 -12t7.5 -13q4 7 33 36zM903 965l-14 5l-13 -26l14 -6zM461 1338l-6 14l-43 -22v-14zM422 1181l-10 10l-35 -34l10 -11zM442 1151l-10 10l-35 -34l10 -11z
M1099 1433q-52 15 -82 15q-10 -19 -38 -19q-23 0 -30 7q0 36 -6 42q0 -39 -13 -39q-92 8 -252 -94q-89 -59 -177 -118q0 -5 9.5 -15.5t9.5 -15.5q-34 -37 -100 -104q21 0 30 -8q-30 -45 -72 -145t-58 -123q-9 -105 -26 -188q-14 -63 -14 -123q0 -95 22 -170
q41 -135 143 -135q139 0 221 141q52 89 102 292.5t81 254.5q2 15 5 24q2 9 2 -1q6 0 10 13t-12 13q96 246 196 346q51 50 51 93q0 7 -3 11q-22 22 -38 22t-31 15q9 2 27 15q5 0 21.5 -3t21.5 -3zM326 1058l-6 15l-38 -23v-14zM331 1008l-6 15l-73 -32v-15zM332 972l-10 10
l-24 -25l9 -10zM252 870l-9 13l-40 -34l9 -13zM211 880l-39 12v-14l33 -12zM189 928q-53 -27 -74 -49q-28 29 -33 29q0 -4 -6 -23t-6 -31q0 -14 15.5 -12.5t19.5 -2.5q63 48 84 89zM540 1719l13 49q181 122 309 330l217 35q-4 -131 9 -200q19 -104 83 -177l-10 -41
q-150 53 -252 233q-172 -181 -369 -229z" />
    <glyph glyph-name="Atilde" unicode="&#xc3;" horiz-adv-x="1386" 
d="M134 615l-13 -27l-14 7l12 25zM156 499l-34 -13v15l29 12zM143 460l-37 -24l-8 14l35 23zM39 516h-27v17h27v-17zM181 319l-56 -33l-6 15l56 32zM84 376l-14 -9l-23 36l13 9zM57 321q-31 -3 -46 -11.5t-19 -8.5q-3 22 47 67q-11 -11 6 -28q9 9 12 25v-44zM123 172
l-36 -35l-9 11l34 34zM1398 1372q-42 -41 -53 -63q-26 24 -34 59q-6 28 -32 37q21 0 30 9q-5 5 -7.5 17.5t-7.5 17.5q-29 -31 -83 -49q0 43 -10 43q-4 -1 -9 -4q0 8 12 7q12 0 19 -7q5 9 5 29.5t5 29.5q56 -39 46 -39q13 0 15.5 10t14.5 10q10 0 41.5 -11t47.5 -11v-85z
M1425 349q2 -138 -145 -255q-143 -114 -301 -114q-114 0 -175 70.5t-81 229.5l-210 -220q-95 -80 -218 -80q-108 0 -165.5 49t-138.5 208q1 0 19.5 -4t42.5 -4q4 6 0 23q-3 13 5 13q11 0 46 -16q4 10 8 39.5t9 39.5l39 37q-17 17 -24 17q6 11 29 -12q6 3 10.5 6t4.5 19
q0 35 -17 35q-27 -1 -75 -10q-3 -2 -4 -2q5 0 -11 32q-10 0 -21 11.5t-21 11.5q5 5 20 16.5t20 16.5q0 3 -9 22.5t-9 30.5q21 -21 39 -21q0 -1 5 23q4 13 -7 34q11 16 17 22q12 10 40 21q3 7 -8 9t-42 0q-4 -3 -11 5q-9 12 -24 18q-4 -9 -6 5q-3 15 4 29q-7 7 -27 7v48
q12 -9 32 -40q16 31 45 45q-12 7 -29 32q-21 30 -21 53q0 210 272 440q261 220 463 220q68 0 93 -10l27 20l31 -31q96 21 98 21q91 0 155 -13l-46 -64q-32 -45 -31 -84q11 7 33 36q18 26 26 26q4 0 6 -2q41 -34 80 -10q0 -18 -18 -35q3 -7 25 -26q17 -16 17 -32q0 -8 -4 -17
q-2 -1 -2 -2q0 -4 34 -21q-11 -9 -22 -17q-15 -14 -22 -39q-2 2 -4 2q-4 0 -13.5 -11.5t-18.5 -16.5q17 -17 28 -5q-47 -73 -130 -307q-108 -303 -108 -491q0 -210 135 -210q51 0 145 68q87 64 116 111zM332 922l-35 -35l-9 11l34 34zM173 859l-37 -23l-8 14l35 23zM133 832
l-26 -25l-9 11l24 24zM1353 1330v47h-18v-47h18zM1163 1476v17l-52 -11v-17zM1152 1451l-11 10l-24 -24l9 -11zM1242 1341l-11 10l-24 -24l9 -11zM1215 1358l-5 14l-29 -12v-14zM1177 1338l-48 -25q9 0 21.5 -8.5t12.5 -15.5q9 19 14 49zM1269 1233q-4 8 -19 28
q-11 15 -11 21q11 8 11 11q0 2 -3 2q-7 0 -34.5 -8.5t-31.5 -9.5q0 -32 -32 -64q25 -25 70 -56q-10 5 -24 24q-16 23 -16 38q14 21 24 21q6 0 14 -3q17 -12 17 -48q3 22 35 44zM1150 1278l-5 14l-24 -12v-14zM1103 1307h-15l-32 -63l14 -6zM1142 1184l-10 14l-25 -19l9 -14z
M804 1440l-12 47h-17l11 -47h18zM1109 1205q-54 14 -59 24q-55 -79 -148 -254q43 69 136 206q10 13 17 13t13.5 -12t7.5 -13q4 7 33 36zM903 965l-14 5l-13 -26l14 -6zM461 1338l-6 14l-43 -22v-14zM422 1181l-10 10l-35 -34l10 -11zM442 1151l-10 10l-35 -34l10 -11z
M1099 1433q-52 15 -82 15q-10 -19 -38 -19q-23 0 -30 7q0 36 -6 42q0 -39 -13 -39q-92 8 -252 -94q-89 -59 -177 -118q0 -5 9.5 -15.5t9.5 -15.5q-34 -37 -100 -104q21 0 30 -8q-30 -45 -72 -145t-58 -123q-9 -105 -26 -188q-14 -63 -14 -123q0 -95 22 -170
q41 -135 143 -135q139 0 221 141q52 89 102 292.5t81 254.5q2 15 5 24q2 9 2 -1q6 0 10 13t-12 13q96 246 196 346q51 50 51 93q0 7 -3 11q-22 22 -38 22t-31 15q9 2 27 15q5 0 21.5 -3t21.5 -3zM326 1058l-6 15l-38 -23v-14zM331 1008l-6 15l-73 -32v-15zM332 972l-10 10
l-24 -25l9 -10zM252 870l-9 13l-40 -34l9 -13zM211 880l-39 12v-14l33 -12zM189 928q-53 -27 -74 -49q-28 29 -33 29q0 -4 -6 -23t-6 -31q0 -14 15.5 -12.5t19.5 -2.5q63 48 84 89z" />
    <glyph glyph-name="Adieresis" unicode="&#xc4;" horiz-adv-x="1386" 
d="M134 615l-13 -27l-14 7l12 25zM156 499l-34 -13v15l29 12zM143 460l-37 -24l-8 14l35 23zM39 516h-27v17h27v-17zM181 319l-56 -33l-6 15l56 32zM84 376l-14 -9l-23 36l13 9zM57 321q-31 -3 -46 -11.5t-19 -8.5q-3 22 47 67q-11 -11 6 -28q9 9 12 25v-44zM123 172
l-36 -35l-9 11l34 34zM1398 1372q-42 -41 -53 -63q-26 24 -34 59q-6 28 -32 37q21 0 30 9q-5 5 -7.5 17.5t-7.5 17.5q-29 -31 -83 -49q0 43 -10 43q-4 -1 -9 -4q0 8 12 7q12 0 19 -7q5 9 5 29.5t5 29.5q56 -39 46 -39q13 0 15.5 10t14.5 10q10 0 41.5 -11t47.5 -11v-85z
M1425 349q2 -138 -145 -255q-143 -114 -301 -114q-114 0 -175 70.5t-81 229.5l-210 -220q-95 -80 -218 -80q-108 0 -165.5 49t-138.5 208q1 0 19.5 -4t42.5 -4q4 6 0 23q-3 13 5 13q11 0 46 -16q4 10 8 39.5t9 39.5l39 37q-17 17 -24 17q6 11 29 -12q6 3 10.5 6t4.5 19
q0 35 -17 35q-27 -1 -75 -10q-3 -2 -4 -2q5 0 -11 32q-10 0 -21 11.5t-21 11.5q5 5 20 16.5t20 16.5q0 3 -9 22.5t-9 30.5q21 -21 39 -21q0 -1 5 23q4 13 -7 34q11 16 17 22q12 10 40 21q3 7 -8 9t-42 0q-4 -3 -11 5q-9 12 -24 18q-4 -9 -6 5q-3 15 4 29q-7 7 -27 7v48
q12 -9 32 -40q16 31 45 45q-12 7 -29 32q-21 30 -21 53q0 210 272 440q261 220 463 220q68 0 93 -10l27 20l31 -31q96 21 98 21q91 0 155 -13l-46 -64q-32 -45 -31 -84q11 7 33 36q18 26 26 26q4 0 6 -2q41 -34 80 -10q0 -18 -18 -35q3 -7 25 -26q17 -16 17 -32q0 -8 -4 -17
q-2 -1 -2 -2q0 -4 34 -21q-11 -9 -22 -17q-15 -14 -22 -39q-2 2 -4 2q-4 0 -13.5 -11.5t-18.5 -16.5q17 -17 28 -5q-47 -73 -130 -307q-108 -303 -108 -491q0 -210 135 -210q51 0 145 68q87 64 116 111zM332 922l-35 -35l-9 11l34 34zM173 859l-37 -23l-8 14l35 23zM133 832
l-26 -25l-9 11l24 24zM1353 1330v47h-18v-47h18zM1163 1476v17l-52 -11v-17zM1152 1451l-11 10l-24 -24l9 -11zM1242 1341l-11 10l-24 -24l9 -11zM1215 1358l-5 14l-29 -12v-14zM1177 1338l-48 -25q9 0 21.5 -8.5t12.5 -15.5q9 19 14 49zM1269 1233q-4 8 -19 28
q-11 15 -11 21q11 8 11 11q0 2 -3 2q-7 0 -34.5 -8.5t-31.5 -9.5q0 -32 -32 -64q25 -25 70 -56q-10 5 -24 24q-16 23 -16 38q14 21 24 21q6 0 14 -3q17 -12 17 -48q3 22 35 44zM1150 1278l-5 14l-24 -12v-14zM1103 1307h-15l-32 -63l14 -6zM1142 1184l-10 14l-25 -19l9 -14z
M804 1440l-12 47h-17l11 -47h18zM1109 1205q-54 14 -59 24q-55 -79 -148 -254q43 69 136 206q10 13 17 13t13.5 -12t7.5 -13q4 7 33 36zM903 965l-14 5l-13 -26l14 -6zM461 1338l-6 14l-43 -22v-14zM422 1181l-10 10l-35 -34l10 -11zM442 1151l-10 10l-35 -34l10 -11z
M1099 1433q-52 15 -82 15q-10 -19 -38 -19q-23 0 -30 7q0 36 -6 42q0 -39 -13 -39q-92 8 -252 -94q-89 -59 -177 -118q0 -5 9.5 -15.5t9.5 -15.5q-34 -37 -100 -104q21 0 30 -8q-30 -45 -72 -145t-58 -123q-9 -105 -26 -188q-14 -63 -14 -123q0 -95 22 -170
q41 -135 143 -135q139 0 221 141q52 89 102 292.5t81 254.5q2 15 5 24q2 9 2 -1q6 0 10 13t-12 13q96 246 196 346q51 50 51 93q0 7 -3 11q-22 22 -38 22t-31 15q9 2 27 15q5 0 21.5 -3t21.5 -3zM326 1058l-6 15l-38 -23v-14zM331 1008l-6 15l-73 -32v-15zM332 972l-10 10
l-24 -25l9 -10zM252 870l-9 13l-40 -34l9 -13zM211 880l-39 12v-14l33 -12zM189 928q-53 -27 -74 -49q-28 29 -33 29q0 -4 -6 -23t-6 -31q0 -14 15.5 -12.5t19.5 -2.5q63 48 84 89z" />
    <glyph glyph-name="Aring" unicode="&#xc5;" horiz-adv-x="1386" 
d="M134 615l-13 -27l-14 7l12 25zM156 499l-34 -13v15l29 12zM143 460l-37 -24l-8 14l35 23zM39 516h-27v17h27v-17zM181 319l-56 -33l-6 15l56 32zM84 376l-14 -9l-23 36l13 9zM57 321q-31 -3 -46 -11.5t-19 -8.5q-3 22 47 67q-11 -11 6 -28q9 9 12 25v-44zM123 172
l-36 -35l-9 11l34 34zM1398 1372q-42 -41 -53 -63q-26 24 -34 59q-6 28 -32 37q21 0 30 9q-5 5 -7.5 17.5t-7.5 17.5q-29 -31 -83 -49q0 43 -10 43q-4 -1 -9 -4q0 8 12 7q12 0 19 -7q5 9 5 29.5t5 29.5q56 -39 46 -39q13 0 15.5 10t14.5 10q10 0 41.5 -11t47.5 -11v-85z
M1425 349q2 -138 -145 -255q-143 -114 -301 -114q-114 0 -175 70.5t-81 229.5l-210 -220q-95 -80 -218 -80q-108 0 -165.5 49t-138.5 208q1 0 19.5 -4t42.5 -4q4 6 0 23q-3 13 5 13q11 0 46 -16q4 10 8 39.5t9 39.5l39 37q-17 17 -24 17q6 11 29 -12q6 3 10.5 6t4.5 19
q0 35 -17 35q-27 -1 -75 -10q-3 -2 -4 -2q5 0 -11 32q-10 0 -21 11.5t-21 11.5q5 5 20 16.5t20 16.5q0 3 -9 22.5t-9 30.5q21 -21 39 -21q0 -1 5 23q4 13 -7 34q11 16 17 22q12 10 40 21q3 7 -8 9t-42 0q-4 -3 -11 5q-9 12 -24 18q-4 -9 -6 5q-3 15 4 29q-7 7 -27 7v48
q12 -9 32 -40q16 31 45 45q-12 7 -29 32q-21 30 -21 53q0 210 272 440q261 220 463 220q68 0 93 -10l27 20l31 -31q96 21 98 21q91 0 155 -13l-46 -64q-32 -45 -31 -84q11 7 33 36q18 26 26 26q4 0 6 -2q41 -34 80 -10q0 -18 -18 -35q3 -7 25 -26q17 -16 17 -32q0 -8 -4 -17
q-2 -1 -2 -2q0 -4 34 -21q-11 -9 -22 -17q-15 -14 -22 -39q-2 2 -4 2q-4 0 -13.5 -11.5t-18.5 -16.5q17 -17 28 -5q-47 -73 -130 -307q-108 -303 -108 -491q0 -210 135 -210q51 0 145 68q87 64 116 111zM332 922l-35 -35l-9 11l34 34zM173 859l-37 -23l-8 14l35 23zM133 832
l-26 -25l-9 11l24 24zM1353 1330v47h-18v-47h18zM1163 1476v17l-52 -11v-17zM1152 1451l-11 10l-24 -24l9 -11zM1242 1341l-11 10l-24 -24l9 -11zM1215 1358l-5 14l-29 -12v-14zM1177 1338l-48 -25q9 0 21.5 -8.5t12.5 -15.5q9 19 14 49zM1269 1233q-4 8 -19 28
q-11 15 -11 21q11 8 11 11q0 2 -3 2q-7 0 -34.5 -8.5t-31.5 -9.5q0 -32 -32 -64q25 -25 70 -56q-10 5 -24 24q-16 23 -16 38q14 21 24 21q6 0 14 -3q17 -12 17 -48q3 22 35 44zM1150 1278l-5 14l-24 -12v-14zM1103 1307h-15l-32 -63l14 -6zM1142 1184l-10 14l-25 -19l9 -14z
M804 1440l-12 47h-17l11 -47h18zM1109 1205q-54 14 -59 24q-55 -79 -148 -254q43 69 136 206q10 13 17 13t13.5 -12t7.5 -13q4 7 33 36zM903 965l-14 5l-13 -26l14 -6zM461 1338l-6 14l-43 -22v-14zM422 1181l-10 10l-35 -34l10 -11zM442 1151l-10 10l-35 -34l10 -11z
M1099 1433q-52 15 -82 15q-10 -19 -38 -19q-23 0 -30 7q0 36 -6 42q0 -39 -13 -39q-92 8 -252 -94q-89 -59 -177 -118q0 -5 9.5 -15.5t9.5 -15.5q-34 -37 -100 -104q21 0 30 -8q-30 -45 -72 -145t-58 -123q-9 -105 -26 -188q-14 -63 -14 -123q0 -95 22 -170
q41 -135 143 -135q139 0 221 141q52 89 102 292.5t81 254.5q2 15 5 24q2 9 2 -1q6 0 10 13t-12 13q96 246 196 346q51 50 51 93q0 7 -3 11q-22 22 -38 22t-31 15q9 2 27 15q5 0 21.5 -3t21.5 -3zM326 1058l-6 15l-38 -23v-14zM331 1008l-6 15l-73 -32v-15zM332 972l-10 10
l-24 -25l9 -10zM252 870l-9 13l-40 -34l9 -13zM211 880l-39 12v-14l33 -12zM189 928q-53 -27 -74 -49q-28 29 -33 29q0 -4 -6 -23t-6 -31q0 -14 15.5 -12.5t19.5 -2.5q63 48 84 89z" />
    <glyph glyph-name="AE" unicode="&#xc6;" horiz-adv-x="1749" 
d="M1772 221q-216 -244 -533 -244q-358 0 -469 306q-192 -306 -405 -306q-150 0 -232 148q-67 121 -67 283q0 254 114 492q120 249 322 387q209 143 491 143q142 0 275 -39q102 41 196 41q90 0 181 -40q112 -49 112 -126q0 -32 -48 -96t-77 -64q-26 0 -39 82
q-27 166 -133 166q-102 0 -167 -114q-56 -97 -56 -206q0 -180 186 -180l43 4q13 0 13 -14q0 -25 -17 -81q-19 -63 -35 -63q-18 0 -53 4.5t-53 4.5q-122 0 -196 -86q-70 -81 -70 -205q0 -140 87.5 -227t227.5 -87q218 0 402 232v-115zM1200 770q-111 53 -160 104
q-67 70 -67 173q0 155 151 270q-73 37 -166 37q-191 0 -340 -175q-116 -137 -186 -351q-78 -239 -78 -408q0 -89 36 -154q44 -80 126 -80q125 0 238 224q58 116 93 165q56 77 139 126.5t214 68.5z" />
    <glyph glyph-name="Ccedilla" unicode="&#xc7;" horiz-adv-x="1153" 
d="M1176 221q-194 -203 -443 -235l-45 -54q133 -24 133 -147q0 -108 -129 -177q-101 -54 -305 -54l14 79q209 0 209 121q0 88 -108 92q85 84 119 129q-250 2 -404 143q-160 147 -160 394q0 229 108 442t294 344q179 127 352 127q143 0 234 -84q94 -87 94 -229
q0 -167 -99 -300q-108 -146 -270 -146q-72 0 -121 35q-57 39 -57 108q0 54 43 100q32 -59 88 -59q94 0 160 117q57 101 57 202q0 75 -32 124q-38 57 -109 57q-114 0 -232 -156q-87 -116 -142 -258q-71 -182 -71 -346q0 -198 109 -333q117 -144 311 -144q208 0 402 223v-115z
" />
    <glyph glyph-name="Egrave" unicode="&#xc8;" horiz-adv-x="1067" 
d="M501 982l-33 -33l-9 10l32 32zM1075 334q6 -132 -153 -235q-134 -88 -263 -97q-8 4 -19.5 -0.5t-11.5 -11.5h-45q35 40 56 50q-3 2 -7 2q-12 0 -47 -25.5t-48 -26.5q3 47 -14 64q-6 -23 -22 -65q7 17 7 46q0 12 -14 54q-18 53 -22 67q26 -13 63 -30q0 -1 -5 -32
q-3 -22 2 -36q13 14 15 60q40 -8 111 -8q234 0 417 224zM595 55h-14l-11 22l13 6zM478 -21q-21 19 -31 19q-13 0 -20.5 -4t-10.5 -4v55h-51q-6 -6 -3 -18q4 -19 4 -18h-44q8 35 3 45q-26 -26 -18 -33q-18 17 -31 55v99q-1 -8 -14 -48q-12 -36 -12 -58q0 -13 4 -24
q-17 14 -52 42q-143 51 -143 266q0 300 335 401q0 -14 5.5 -47.5t5.5 -44.5q0 -28 -32.5 -97.5t-32.5 -150.5q0 -58 63 -230q16 0 16 24q0 -86 -20 -135q-1 -13 -1 56q-14 -4 -22 -26q-12 -35 -18 -43q20 0 59 -7l30 122q3 -44 6 -89q4 -48 25 -63v-44zM399 -1h-16v35h16
v-35zM325 65h-17l-5 53h17zM558 1318h-14l-11 32l13 4zM1050 1265q0 -34 -22 -60q-37 -42 -73 -84q-6 -2 -11 -2q-28 0 -47 60q-30 94 -46 121q-7 11 -51 37q-40 23 -45 45q-64 -55 -128 -109q-92 -92 -92 -190q0 -12 1 -24l-16 -61q11 -53 72 -101q69 -56 152 -58q7 8 12 8
q14 0 14 -40q0 -33 -17 -67q-21 -41 -53 -41q-11 0 -49 9.5t-50 9.5q-41 0 -97.5 -26t-65.5 -49q-14 25 -14 65q0 49 21 56q4 4 17 7t18 8q-4 4 -65 34l-29 382q0 42 38 72q0 15 -7 22q-2 0 -15 -8.5t-25 -8.5q84 78 231 137q7 -18 33 -47q1 18 -4 43q-3 17 0 17t17 -12
q37 18 64 18q47 0 103 -18l41 7q-15 -35 6 -63q16 26 16 64q86 -43 130 -121l25 19q0 -3 5.5 -21.5t5.5 -29.5zM325 972h-17v43h17v-43zM988 1284l-13 5l-12 -24l13 -6zM856 1333l-41 42l-10 -9l42 -43zM600 1390q-5 0 -22 -5t-22 -5q0 -5 12 -13q17 -11 19 -13q13 12 13 36
zM520 1191l-13 4l-12 -24l13 -5zM474 1112v44h-16v-44h16zM446 1078l-14 5l-12 -24l13 -6zM483 1034h-14l-11 -31l13 -5zM393 831q-8 124 -35 352q-22 21 -8 27l17 39q-39 -8 -69 -91q-24 -68 -24 -108q0 -57 32 -119q34 -66 87 -100z" />
    <glyph glyph-name="Eacute" unicode="&#xc9;" horiz-adv-x="1067" 
d="M501 982l-33 -33l-9 10l32 32zM1075 334q6 -132 -153 -235q-134 -88 -263 -97q-8 4 -19.5 -0.5t-11.5 -11.5h-45q35 40 56 50q-3 2 -7 2q-12 0 -47 -25.5t-48 -26.5q3 47 -14 64q-6 -23 -22 -65q7 17 7 46q0 12 -14 54q-18 53 -22 67q26 -13 63 -30q0 -1 -5 -32
q-3 -22 2 -36q13 14 15 60q40 -8 111 -8q234 0 417 224zM595 55h-14l-11 22l13 6zM478 -21q-21 19 -31 19q-13 0 -20.5 -4t-10.5 -4v55h-51q-6 -6 -3 -18q4 -19 4 -18h-44q8 35 3 45q-26 -26 -18 -33q-18 17 -31 55v99q-1 -8 -14 -48q-12 -36 -12 -58q0 -13 4 -24
q-17 14 -52 42q-143 51 -143 266q0 300 335 401q0 -14 5.5 -47.5t5.5 -44.5q0 -28 -32.5 -97.5t-32.5 -150.5q0 -58 63 -230q16 0 16 24q0 -86 -20 -135q-1 -13 -1 56q-14 -4 -22 -26q-12 -35 -18 -43q20 0 59 -7l30 122q3 -44 6 -89q4 -48 25 -63v-44zM399 -1h-16v35h16
v-35zM325 65h-17l-5 53h17zM558 1318h-14l-11 32l13 4zM1050 1265q0 -34 -22 -60q-37 -42 -73 -84q-6 -2 -11 -2q-28 0 -47 60q-30 94 -46 121q-7 11 -51 37q-40 23 -45 45q-64 -55 -128 -109q-92 -92 -92 -190q0 -12 1 -24l-16 -61q11 -53 72 -101q69 -56 152 -58q7 8 12 8
q14 0 14 -40q0 -33 -17 -67q-21 -41 -53 -41q-11 0 -49 9.5t-50 9.5q-41 0 -97.5 -26t-65.5 -49q-14 25 -14 65q0 49 21 56q4 4 17 7t18 8q-4 4 -65 34l-29 382q0 42 38 72q0 15 -7 22q-2 0 -15 -8.5t-25 -8.5q84 78 231 137q7 -18 33 -47q1 18 -4 43q-3 17 0 17t17 -12
q37 18 64 18q47 0 103 -18l41 7q-15 -35 6 -63q16 26 16 64q86 -43 130 -121l25 19q0 -3 5.5 -21.5t5.5 -29.5zM325 972h-17v43h17v-43zM988 1284l-13 5l-12 -24l13 -6zM856 1333l-41 42l-10 -9l42 -43zM600 1390q-5 0 -22 -5t-22 -5q0 -5 12 -13q17 -11 19 -13q13 12 13 36
zM520 1191l-13 4l-12 -24l13 -5zM474 1112v44h-16v-44h16zM446 1078l-14 5l-12 -24l13 -6zM483 1034h-14l-11 -31l13 -5zM393 831q-8 124 -35 352q-22 21 -8 27l17 39q-39 -8 -69 -91q-24 -68 -24 -108q0 -57 32 -119q34 -66 87 -100zM1067 1907q-30 -123 -146 -223
q-74 -65 -227 -150l-61 21q149 173 204 328z" />
    <glyph glyph-name="Ecircumflex" unicode="&#xca;" horiz-adv-x="1067" 
d="M501 982l-33 -33l-9 10l32 32zM1075 334q6 -132 -153 -235q-134 -88 -263 -97q-8 4 -19.5 -0.5t-11.5 -11.5h-45q35 40 56 50q-3 2 -7 2q-12 0 -47 -25.5t-48 -26.5q3 47 -14 64q-6 -23 -22 -65q7 17 7 46q0 12 -14 54q-18 53 -22 67q26 -13 63 -30q0 -1 -5 -32
q-3 -22 2 -36q13 14 15 60q40 -8 111 -8q234 0 417 224zM595 55h-14l-11 22l13 6zM478 -21q-21 19 -31 19q-13 0 -20.5 -4t-10.5 -4v55h-51q-6 -6 -3 -18q4 -19 4 -18h-44q8 35 3 45q-26 -26 -18 -33q-18 17 -31 55v99q-1 -8 -14 -48q-12 -36 -12 -58q0 -13 4 -24
q-17 14 -52 42q-143 51 -143 266q0 300 335 401q0 -14 5.5 -47.5t5.5 -44.5q0 -28 -32.5 -97.5t-32.5 -150.5q0 -58 63 -230q16 0 16 24q0 -86 -20 -135q-1 -13 -1 56q-14 -4 -22 -26q-12 -35 -18 -43q20 0 59 -7l30 122q3 -44 6 -89q4 -48 25 -63v-44zM399 -1h-16v35h16
v-35zM325 65h-17l-5 53h17zM558 1318h-14l-11 32l13 4zM1050 1265q0 -34 -22 -60q-37 -42 -73 -84q-6 -2 -11 -2q-28 0 -47 60q-30 94 -46 121q-7 11 -51 37q-40 23 -45 45q-64 -55 -128 -109q-92 -92 -92 -190q0 -12 1 -24l-16 -61q11 -53 72 -101q69 -56 152 -58q7 8 12 8
q14 0 14 -40q0 -33 -17 -67q-21 -41 -53 -41q-11 0 -49 9.5t-50 9.5q-41 0 -97.5 -26t-65.5 -49q-14 25 -14 65q0 49 21 56q4 4 17 7t18 8q-4 4 -65 34l-29 382q0 42 38 72q0 15 -7 22q-2 0 -15 -8.5t-25 -8.5q84 78 231 137q7 -18 33 -47q1 18 -4 43q-3 17 0 17t17 -12
q37 18 64 18q47 0 103 -18l41 7q-15 -35 6 -63q16 26 16 64q86 -43 130 -121l25 19q0 -3 5.5 -21.5t5.5 -29.5zM325 972h-17v43h17v-43zM988 1284l-13 5l-12 -24l13 -6zM856 1333l-41 42l-10 -9l42 -43zM600 1390q-5 0 -22 -5t-22 -5q0 -5 12 -13q17 -11 19 -13q13 12 13 36
zM520 1191l-13 4l-12 -24l13 -5zM474 1112v44h-16v-44h16zM446 1078l-14 5l-12 -24l13 -6zM483 1034h-14l-11 -31l13 -5zM393 831q-8 124 -35 352q-22 21 -8 27l17 39q-39 -8 -69 -91q-24 -68 -24 -108q0 -57 32 -119q34 -66 87 -100zM380 1719l13 49q181 122 309 330
l217 35q-4 -131 9 -200q19 -104 83 -177l-10 -41q-150 53 -252 233q-172 -181 -369 -229z" />
    <glyph glyph-name="Edieresis" unicode="&#xcb;" horiz-adv-x="1067" 
d="M501 982l-33 -33l-9 10l32 32zM1075 334q6 -132 -153 -235q-134 -88 -263 -97q-8 4 -19.5 -0.5t-11.5 -11.5h-45q35 40 56 50q-3 2 -7 2q-12 0 -47 -25.5t-48 -26.5q3 47 -14 64q-6 -23 -22 -65q7 17 7 46q0 12 -14 54q-18 53 -22 67q26 -13 63 -30q0 -1 -5 -32
q-3 -22 2 -36q13 14 15 60q40 -8 111 -8q234 0 417 224zM595 55h-14l-11 22l13 6zM478 -21q-21 19 -31 19q-13 0 -20.5 -4t-10.5 -4v55h-51q-6 -6 -3 -18q4 -19 4 -18h-44q8 35 3 45q-26 -26 -18 -33q-18 17 -31 55v99q-1 -8 -14 -48q-12 -36 -12 -58q0 -13 4 -24
q-17 14 -52 42q-143 51 -143 266q0 300 335 401q0 -14 5.5 -47.5t5.5 -44.5q0 -28 -32.5 -97.5t-32.5 -150.5q0 -58 63 -230q16 0 16 24q0 -86 -20 -135q-1 -13 -1 56q-14 -4 -22 -26q-12 -35 -18 -43q20 0 59 -7l30 122q3 -44 6 -89q4 -48 25 -63v-44zM399 -1h-16v35h16
v-35zM325 65h-17l-5 53h17zM558 1318h-14l-11 32l13 4zM1050 1265q0 -34 -22 -60q-37 -42 -73 -84q-6 -2 -11 -2q-28 0 -47 60q-30 94 -46 121q-7 11 -51 37q-40 23 -45 45q-64 -55 -128 -109q-92 -92 -92 -190q0 -12 1 -24l-16 -61q11 -53 72 -101q69 -56 152 -58q7 8 12 8
q14 0 14 -40q0 -33 -17 -67q-21 -41 -53 -41q-11 0 -49 9.5t-50 9.5q-41 0 -97.5 -26t-65.5 -49q-14 25 -14 65q0 49 21 56q4 4 17 7t18 8q-4 4 -65 34l-29 382q0 42 38 72q0 15 -7 22q-2 0 -15 -8.5t-25 -8.5q84 78 231 137q7 -18 33 -47q1 18 -4 43q-3 17 0 17t17 -12
q37 18 64 18q47 0 103 -18l41 7q-15 -35 6 -63q16 26 16 64q86 -43 130 -121l25 19q0 -3 5.5 -21.5t5.5 -29.5zM325 972h-17v43h17v-43zM988 1284l-13 5l-12 -24l13 -6zM856 1333l-41 42l-10 -9l42 -43zM600 1390q-5 0 -22 -5t-22 -5q0 -5 12 -13q17 -11 19 -13q13 12 13 36
zM520 1191l-13 4l-12 -24l13 -5zM474 1112v44h-16v-44h16zM446 1078l-14 5l-12 -24l13 -6zM483 1034h-14l-11 -31l13 -5zM393 831q-8 124 -35 352q-22 21 -8 27l17 39q-39 -8 -69 -91q-24 -68 -24 -108q0 -57 32 -119q34 -66 87 -100z" />
    <glyph glyph-name="Igrave" unicode="&#xcc;" horiz-adv-x="1237" 
d="M192 287h-25v16h25v-16zM1234 1372q-58 -47 -115 -147q-59 -105 -75 -199q-33 -197 -66 -395q-64 -322 -114 -322q-13 0 -13.5 -4.5t-3.5 -4.5q-4 -4 3 -11q10 -10 10 -22q0 -22 -59 -80q-46 -46 -61 -56q0 3 8 13.5t8 23.5q0 26 -31 87q13 12 13 31q0 -15 -14 -15
q-13 0 -11 119q3 158 0 191q-2 -2 -7 -15q9 -163 -1 -480q-34 -25 -98 -56t-80 -31q-12 0 -110.5 -4.5t-110.5 -4.5q-71 0 -157.5 65t-86.5 123q0 36 58.5 102.5t101.5 66.5q36 0 36 -57q0 -11 -6 -58q41 -99 54 -119q37 -57 99 -57q117 0 192 149q55 108 85 285l22 176
q0 -5 9 -19q12 33 -1 33q-5 0 -10 -4q53 188 117 297q78 132 238 277q-137 -21 -221 -21q-11 0 -66 28t-65 28q-20 0 -38 -19q-5 9 -12 20l-17 18q-24 -10 -65 -75q1 10 -8 18l-48 -58q-33 -43 -33 -92q0 -60 51.5 -108t51.5 -65q0 -41 -52 -78q-43 -30 -65 -30
q-49 0 -78 76q-20 55 -20 97q0 72 38 149q41 82 93 96q-7 7 -28 7q29 32 88 90q5 4 108 55q-10 -27 -37 -68l16 -15q22 10 38 51q11 2 31 12v25q-11 11 -38 11q14 1 40.5 12t39.5 11q14 0 27 -9q11 6 11 14q0 -14 9 -23q19 19 42 19q12 0 35.5 -19t35 -19t63.5 -4.5t63 -4.5
t60.5 23.5t61.5 23.5q23 0 65 -21v-33zM917 1341l-6 13l-22 -12v-13zM1076 1181l-5 13l-22 -11v-14zM925 1306q-25 25 -43 7h-18q32 0 36 -3q8 -5 25 -4zM797 1333v44h-16v-44h16zM759 1330h-13l-12 -31l14 -6zM590 1278l-10 9l-23 -22l9 -11zM522 1218l-4 14l-32 -11v-14z
M458 1154l-8 12l-33 -21l8 -14zM459 1005l-12 27l-13 -5l11 -22h14zM473 925v16h-34v-16h34zM722 592v35h-16v-35h16zM807 309q0 -9 -22 -12q0 -5 7 -20t7 -20q0 7 7 26q6 15 1 26z" />
    <glyph glyph-name="Iacute" unicode="&#xcd;" horiz-adv-x="1237" 
d="M192 287h-25v16h25v-16zM1234 1372q-58 -47 -115 -147q-59 -105 -75 -199q-33 -197 -66 -395q-64 -322 -114 -322q-13 0 -13.5 -4.5t-3.5 -4.5q-4 -4 3 -11q10 -10 10 -22q0 -22 -59 -80q-46 -46 -61 -56q0 3 8 13.5t8 23.5q0 26 -31 87q13 12 13 31q0 -15 -14 -15
q-13 0 -11 119q3 158 0 191q-2 -2 -7 -15q9 -163 -1 -480q-34 -25 -98 -56t-80 -31q-12 0 -110.5 -4.5t-110.5 -4.5q-71 0 -157.5 65t-86.5 123q0 36 58.5 102.5t101.5 66.5q36 0 36 -57q0 -11 -6 -58q41 -99 54 -119q37 -57 99 -57q117 0 192 149q55 108 85 285l22 176
q0 -5 9 -19q12 33 -1 33q-5 0 -10 -4q53 188 117 297q78 132 238 277q-137 -21 -221 -21q-11 0 -66 28t-65 28q-20 0 -38 -19q-5 9 -12 20l-17 18q-24 -10 -65 -75q1 10 -8 18l-48 -58q-33 -43 -33 -92q0 -60 51.5 -108t51.5 -65q0 -41 -52 -78q-43 -30 -65 -30
q-49 0 -78 76q-20 55 -20 97q0 72 38 149q41 82 93 96q-7 7 -28 7q29 32 88 90q5 4 108 55q-10 -27 -37 -68l16 -15q22 10 38 51q11 2 31 12v25q-11 11 -38 11q14 1 40.5 12t39.5 11q14 0 27 -9q11 6 11 14q0 -14 9 -23q19 19 42 19q12 0 35.5 -19t35 -19t63.5 -4.5t63 -4.5
t60.5 23.5t61.5 23.5q23 0 65 -21v-33zM917 1341l-6 13l-22 -12v-13zM1076 1181l-5 13l-22 -11v-14zM925 1306q-25 25 -43 7h-18q32 0 36 -3q8 -5 25 -4zM797 1333v44h-16v-44h16zM759 1330h-13l-12 -31l14 -6zM590 1278l-10 9l-23 -22l9 -11zM522 1218l-4 14l-32 -11v-14z
M458 1154l-8 12l-33 -21l8 -14zM459 1005l-12 27l-13 -5l11 -22h14zM473 925v16h-34v-16h34zM722 592v35h-16v-35h16zM807 309q0 -9 -22 -12q0 -5 7 -20t7 -20q0 7 7 26q6 15 1 26zM1265 1907q-30 -123 -146 -223q-74 -65 -227 -150l-61 21q149 173 204 328z" />
    <glyph glyph-name="Icircumflex" unicode="&#xce;" horiz-adv-x="1237" 
d="M192 287h-25v16h25v-16zM1234 1372q-58 -47 -115 -147q-59 -105 -75 -199q-33 -197 -66 -395q-64 -322 -114 -322q-13 0 -13.5 -4.5t-3.5 -4.5q-4 -4 3 -11q10 -10 10 -22q0 -22 -59 -80q-46 -46 -61 -56q0 3 8 13.5t8 23.5q0 26 -31 87q13 12 13 31q0 -15 -14 -15
q-13 0 -11 119q3 158 0 191q-2 -2 -7 -15q9 -163 -1 -480q-34 -25 -98 -56t-80 -31q-12 0 -110.5 -4.5t-110.5 -4.5q-71 0 -157.5 65t-86.5 123q0 36 58.5 102.5t101.5 66.5q36 0 36 -57q0 -11 -6 -58q41 -99 54 -119q37 -57 99 -57q117 0 192 149q55 108 85 285l22 176
q0 -5 9 -19q12 33 -1 33q-5 0 -10 -4q53 188 117 297q78 132 238 277q-137 -21 -221 -21q-11 0 -66 28t-65 28q-20 0 -38 -19q-5 9 -12 20l-17 18q-24 -10 -65 -75q1 10 -8 18l-48 -58q-33 -43 -33 -92q0 -60 51.5 -108t51.5 -65q0 -41 -52 -78q-43 -30 -65 -30
q-49 0 -78 76q-20 55 -20 97q0 72 38 149q41 82 93 96q-7 7 -28 7q29 32 88 90q5 4 108 55q-10 -27 -37 -68l16 -15q22 10 38 51q11 2 31 12v25q-11 11 -38 11q14 1 40.5 12t39.5 11q14 0 27 -9q11 6 11 14q0 -14 9 -23q19 19 42 19q12 0 35.5 -19t35 -19t63.5 -4.5t63 -4.5
t60.5 23.5t61.5 23.5q23 0 65 -21v-33zM917 1341l-6 13l-22 -12v-13zM1076 1181l-5 13l-22 -11v-14zM925 1306q-25 25 -43 7h-18q32 0 36 -3q8 -5 25 -4zM797 1333v44h-16v-44h16zM759 1330h-13l-12 -31l14 -6zM590 1278l-10 9l-23 -22l9 -11zM522 1218l-4 14l-32 -11v-14z
M458 1154l-8 12l-33 -21l8 -14zM459 1005l-12 27l-13 -5l11 -22h14zM473 925v16h-34v-16h34zM722 592v35h-16v-35h16zM807 309q0 -9 -22 -12q0 -5 7 -20t7 -20q0 7 7 26q6 15 1 26zM497 1719l13 49q181 122 309 330l217 35q-4 -131 9 -200q19 -104 83 -177l-10 -41
q-150 53 -252 233q-172 -181 -369 -229z" />
    <glyph glyph-name="Idieresis" unicode="&#xcf;" horiz-adv-x="1237" 
d="M192 287h-25v16h25v-16zM1234 1372q-58 -47 -115 -147q-59 -105 -75 -199q-33 -197 -66 -395q-64 -322 -114 -322q-13 0 -13.5 -4.5t-3.5 -4.5q-4 -4 3 -11q10 -10 10 -22q0 -22 -59 -80q-46 -46 -61 -56q0 3 8 13.5t8 23.5q0 26 -31 87q13 12 13 31q0 -15 -14 -15
q-13 0 -11 119q3 158 0 191q-2 -2 -7 -15q9 -163 -1 -480q-34 -25 -98 -56t-80 -31q-12 0 -110.5 -4.5t-110.5 -4.5q-71 0 -157.5 65t-86.5 123q0 36 58.5 102.5t101.5 66.5q36 0 36 -57q0 -11 -6 -58q41 -99 54 -119q37 -57 99 -57q117 0 192 149q55 108 85 285l22 176
q0 -5 9 -19q12 33 -1 33q-5 0 -10 -4q53 188 117 297q78 132 238 277q-137 -21 -221 -21q-11 0 -66 28t-65 28q-20 0 -38 -19q-5 9 -12 20l-17 18q-24 -10 -65 -75q1 10 -8 18l-48 -58q-33 -43 -33 -92q0 -60 51.5 -108t51.5 -65q0 -41 -52 -78q-43 -30 -65 -30
q-49 0 -78 76q-20 55 -20 97q0 72 38 149q41 82 93 96q-7 7 -28 7q29 32 88 90q5 4 108 55q-10 -27 -37 -68l16 -15q22 10 38 51q11 2 31 12v25q-11 11 -38 11q14 1 40.5 12t39.5 11q14 0 27 -9q11 6 11 14q0 -14 9 -23q19 19 42 19q12 0 35.5 -19t35 -19t63.5 -4.5t63 -4.5
t60.5 23.5t61.5 23.5q23 0 65 -21v-33zM917 1341l-6 13l-22 -12v-13zM1076 1181l-5 13l-22 -11v-14zM925 1306q-25 25 -43 7h-18q32 0 36 -3q8 -5 25 -4zM797 1333v44h-16v-44h16zM759 1330h-13l-12 -31l14 -6zM590 1278l-10 9l-23 -22l9 -11zM522 1218l-4 14l-32 -11v-14z
M458 1154l-8 12l-33 -21l8 -14zM459 1005l-12 27l-13 -5l11 -22h14zM473 925v16h-34v-16h34zM722 592v35h-16v-35h16zM807 309q0 -9 -22 -12q0 -5 7 -20t7 -20q0 7 7 26q6 15 1 26z" />
    <glyph glyph-name="Eth" unicode="&#xd0;" horiz-adv-x="1556" 
d="M567 180q75 -32 150 -63q94 -37 155 -37q186 0 289 263q78 201 78 421q0 238 -109 399q-125 185 -352 185q-151 0 -297 -107q-157 -116 -157 -262q0 -97 84 -135q36 -16 36 -45q0 -26 -74 -63q-69 -34 -100 -34q-58 0 -96 69q-33 59 -33 122q0 242 248 398
q216 136 471 136q298 0 479 -159q191 -168 191 -461q0 -219 -112.5 -412t-302.5 -306.5t-402 -113.5q-182 0 -334 78q-128 -78 -217 -78q-48 0 -85 27q-40 29 -40 76q0 83 92 129q73 37 164 37q78 0 149 -25q77 58 110 212q3 11 34 245h-129l10 74h133q35 158 129 265
q104 119 254 138l39 -53q-120 -116 -139 -350h172l-13 -72h-168q-21 -187 -84 -293q-69 -116 -223 -205z" />
    <glyph glyph-name="Ntilde" unicode="&#xd1;" horiz-adv-x="1812" 
d="M1805 1336q0 -69 -56 -87q-97 -30 -160 -91q-30 -30 -71 -177q-28 -104 -79 -339q-71 -333 -204 -614q-14 -30 -48 -38q-28 -6 -55 -11h-33q0 61 -12 84q-1 -2 -2 -3q-11 -14 2 -80q-26 -5 -73 0q-18 216 -102 700q-19 130 -60 392q-38 -72 -117 -396.5t-158 -471.5
q-121 -226 -309 -226q-66 0 -95 13q-46 22 -112 103v79l23 22q8 -10 17 -10q6 6 -12 24q47 42 137 99q14 -8 48 -119q29 -98 93 -98q120 0 234 365q61 236 122 471q36 124 72 249q44 138 98 234h43q29 -342 57 -685q35 -387 83 -653q6 2 13 6q-66 427 -92 769
q-20 286 -39 572q11 0 46 5.5t47 5.5q11 0 13.5 -9.5t14.5 -9.5q13 0 18.5 4t8.5 4q0 -15 -8 -74q-4 -35 8 -39l157 -1026q72 173 139 524q119 626 342 626q28 0 46 -35q15 -28 15 -59zM1044 1356v44h-16v-44h16zM1045 1318v26h-16v-26h16zM1014 1363l-6 14l-22 -12v-13z
M1101 1224v25h-16v-25h16zM1016 1322l-13 5l-12 -24l13 -6zM1054 1277h-14l-12 -31l14 -5zM1072 1225l-10 9l-33 -32l10 -10zM851 1153v17h-35v-17h35zM224 276l-13 4l-12 -24l13 -5zM168 196l-11 44h-16l11 -44h16zM139 196l-12 28l-13 -5l11 -23h14zM178 140l-11 44h-16
l10 -44h17zM223 98l-33 33l-9 -10l32 -32zM143 111q-18 36 -18 54q-3 0 -5.5 -8.5t-16.5 -8.5q-21 0 -21 -28q14 9 38 9zM167 68l-13 5l-12 -24l13 -6zM120 55v44h-16v-44h16z" />
    <glyph glyph-name="Ograve" unicode="&#xd2;" horiz-adv-x="1300" 
d="M265 476l-23 24q7 2 23 14q7 -7 7 -19t-7 -19zM179 449l-34 -23l-8 13l33 22zM296 183h-25v16h25v-16zM128 342h-25v16h25v-16zM272 146l-10 -9l-23 23l10 10zM142 235h-14l-11 22l13 5zM142 188h-14l-11 32l13 4zM1271 1089q0 3 -32 -154q-19 19 -35 11q0 -13 38 -23
q-57 -263 -268 -545q-239 -320 -495 -388l-18 19q-25 -28 -37 -28t-19 9t-18 9q-12 0 -16.5 -4.5t-16.5 -4.5q-124 0 -210 147q-71 121 -69 224v59q6 0 21 -9q3 18 24 43q-7 2 -23 13q-6 -13 -21 -37v54q12 0 29 -17q7 14 7 28t-7 28q-5 -9 -18 -28v65q0 -9 9 -28q5 9 4 24
q-1 11 20 28q-6 6 -27 6q32 164 87 296q4 5 19 12q67 182 214 346q167 186 310 186q11 0 31.5 -6t29.5 -6q-235 -238 -322 -443q-34 -82 -85 -270q-11 0 -32 -9q5 -6 26 -6q6 -41 -36 -62v-42q9 -8 18 -8q0 -44 5 -138t5 -99q0 -31 53.5 -97.5t82.5 -66.5q9 0 33.5 -9.5
t36.5 -9.5q134 0 282 165q122 136 220 343q89 187 100 297q0 -5 9 -19q16 96 16 196q0 206 -103 206q-72 0 -139 -92q-52 -71 -74 -148q-23 -81 -21 -175q32 -18 93 -55q1 -18 -49 -78t-67 -60q-90 0 -132 71q-32 53 -32 130q0 147 107 295l20 -19q5 5 1 18q-5 18 -4 26
q144 171 301 171q93 0 140 -131q34 -95 34 -210zM376 749v25h-16v-25h16zM217 833v44h-16v-44h16zM301 712v25h-16v-25h16zM203 800v16h-25v-16h25zM282 684l-12 27l-13 -5l12 -22h13zM226 707l-22 33l-12 -8l21 -33zM267 635q-17 -7 -44 -23l25 -23q0 5 9.5 23t9.5 23z
M149 691l-5 13l-22 -11v-14zM275 542v42q0 -9 -24 -11q6 0 12 -12q8 -16 12 -19zM208 581l-5 53h-16l4 -53h17zM161 599v44h-16v-44h16zM161 568h-14l-11 -31l13 -5zM170 519l-13 5l-12 -24l13 -6z" />
    </font>
</defs>
</svg>
