<?xml version="1.0" standalone="no"?>
<!DOCTYPE svg PUBLIC "-//W3C//DTD SVG 1.1//EN" "http://www.w3.org/Graphics/SVG/1.1/DTD/svg11.dtd" >
<svg xmlns="http://www.w3.org/2000/svg" xmlns:xlink="http://www.w3.org/1999/xlink" version="1.1">
<metadata>
Created by FontForge 20170924 at Thu Oct 18 21:29:22 2001
 By www-data
(c)2001 Kat - www.katsfunfonts.com
</metadata>
<defs>
<font id="KRHalloweenSignsTwo" horiz-adv-x="740" >
  <font-face 
    font-family="KR Halloween Signs Two"
    font-weight="400"
    font-stretch="normal"
    units-per-em="1000"
    panose-1="0 0 4 0 0 0 0 0 0 0"
    ascent="800"
    descent="-200"
    cap-height="620"
    bbox="6 -73.0061 713 800"
    underline-thickness="20"
    underline-position="-143"
    unicode-range="U+0020-0069"
  />
<missing-glyph horiz-adv-x="500" 
d="M63 0v800h375v-800h-375zM125 63h250v675h-250v-675z" />
    <glyph glyph-name=".notdef" horiz-adv-x="500" 
d="M63 0v800h375v-800h-375zM125 63h250v675h-250v-675z" />
    <glyph glyph-name=".null" horiz-adv-x="0" 
 />
    <glyph glyph-name="nonmarkingreturn" horiz-adv-x="1000" 
 />
    <glyph glyph-name="space" unicode=" " horiz-adv-x="1000" 
 />
    <glyph glyph-name="A" unicode="A" horiz-adv-x="743" 
d="M709 448q0 -41 -62 -242q-46 -147 -81 -245l-24 -18h-369q-36 82 -92 252q-64 192 -63 239v29q3 28 158 90q145 57 180 57q51 0 196 -58q157 -64 157 -104zM701 438q0 48 -156 109q-142 56 -206 56q-33 0 -170 -59q-146 -62 -146 -92q0 -34 52 -205q43 -141 70 -216
q7 -22 13 -44q12 -33 26 -33l358 -2q15 9 87 228t72 258zM656 357h-23q-19 23 -42 82q1 -26 0 -78v-2h-24q-8 92 -8 144q12 -5 32 -20q10 -14 21 -42q12 -33 18 -43q3 9 3 72q2 -1 23 -18v-95zM549 430q0 -25 -13 -47q-14 -26 -37 -26t-38 32q-12 27 -12 54q0 24 11 46
q13 28 34 28q25 0 41 -33q14 -27 14 -54zM431 361h-23v139q0 2 23 25v-164zM396 490h-20v-129h-28v127q-7 2 -22 2q1 17 4 50l66 -12v-38zM520 279q0 -6 -5 -10h-13v19h13q5 -4 5 -9zM316 526v-106q0 -24 -9 -41q-11 -22 -33 -22q-31 0 -38 38q-2 8 -2 58q0 10 -2.5 31
t-2.5 32q5 2 28 6l3 -104q0 -22 14 -22q15 0 15 15v115h27zM224 361h-27q3 3 3 7q0 3 -1.5 8.5t-2 7.5t-3.5 2q-2 0 -29 -3q-4 -10 -7 -20q-2 -6 -20 -10l29 162h11q4 0 17 -7q9 -37 18 -73q10 -43 12 -74zM563 135l-12 -14l5 -6l1 -9q0 -11 -1 -32.5t-1 -32.5l-11 -7
l-23 10q-13 -9 -57 -18q-40 -7 -62 -7h-112q-16 0 -40 4q-32 5 -40 6l-4 7q-11 1 -40 1l-1 24l1 51q15 0 23 2q0 -13 2 -19q4 6 4 13l-4 19q-29 29 -29 39q0 20 14 28q-4 12 -4 21q0 6 6 20t6 27v44h20l8 -12l17 11q28 1 65 3q9 2 49 13q32 8 51 8q16 0 48.5 -13t50.5 -11
l-5 -4v-68h14v28q9 -11 19 -28l18 2q-6 8 -18 23q16 17 16 22q0 12 -8 20q8 -2 10.5 -14t12.5 -13l1 -8q1 -18 -16 -47q2 -17 13 -41.5t13 -41.5zM135 489q0 -14 -9 -44q-5 5 -14 5q-28 0 -28 -39q0 -27 22 -27q6 0 23 16v-33q-11 -10 -27 -10q-19 0 -32 14.5t-13 33.5
q0 23 17.5 46.5t39.5 30.5q6 5 18 13q1 -3 3 -6zM527 434q0 8 -10 28t-18 20q-7 0 -20.5 -17t-13.5 -24t14 -28t21 -21q9 0 18 16t9 26zM467 293v8h-43v-67h43q0 2 -1 6.5t-1 6.5h-24v14h24v13h-24v13q9 2 26 6zM525 158v8q0 7 -9.5 13t-16.5 6q-24 0 -24 -25q0 -24 26 -24
q12 0 22 9q-11 -1 -17 -1q-7 0 -18 5v9q8 1 18 1t19 -1zM406 234v14q-6 -1 -10 -1h-5q-3 0 -8 1v54h-17v-68h40zM551 66v46l-15 2v-48h15zM191 416l-12 56q-4 -20 -11 -60q8 1 23 4zM459 152q0 33 -20 33q6 0 -20 -8q-1 8 -1 16q0 9 1 17h-13v-70l12 -2q-1 -2 -1 9
q0 28 15 28q6 0 7 -5q0 -11 5 -34h15v16zM349 235q0 2 -1 6t-1 6h-23v55h-17v-67h42zM551 51q-5 5 -9 5q-7 -7 -7 -9q0 -4 3 -7h10zM515 99v10h-40v-69h38q2 3 2 7t-2 7h-2h-6q-4 -1 -6 -1q-8 0 -11 4q1 5 6 14q11 1 17 1v9q-8 1 -23 5q1 5 4 13h23zM284 236v66h-16v-68z
M388 175v7q-1 1 -10 16h-8q-2 -6 -10 -16v-7q8 -3 8 -16q0 -2 -1 -7v-8q0 -3 1 -6h13q-1 -3 -1 16t8 21zM453 65q0 11 -15.5 16t-15.5 15q5 5 11 5q2 0 5 -2t5 -2q6 0 6 9q-13 7 -22 7q-7 0 -14 -7.5t-7 -14.5q0 -10 12 -16l20 -10v-8q-8 -7 -10 -7q-3 0 -17 10
q-3 -5 -7 -13q7 -7 23 -7q26 0 26 25zM248 301q-2 0 -7 1.5t-8 1.5q-2 0 -13 -16q-7 -10 -14 -19q-1 11 -3 35q-6 -1 -15 -5q2 -17 2 -67q5 1 15 2v9q-1 12 1 22q12 -11 23 -31h19l-23 35q0 3 23 32zM318 138v34q0 13 -17 13q-8 0 -19 -12q-2 5 -1 9h-13v-44h13l-1 11
q0 26 14 26q-1 0 5 -2q6 -9 6 -33v-2h13zM389 76q0 37 -40 37q-14 0 -23.5 -11t-9.5 -25q0 -39 39 -39q13 0 23.5 12.5t10.5 25.5zM248 160q0 25 -25 25q-26 0 -26 -25q0 -24 27 -24q24 0 24 24zM299 79q0 15 -13.5 24.5t-28.5 9.5q-13 0 -22.5 -12t-9.5 -25q0 -15 11 -26.5
t27 -11.5q15 0 25.5 13t10.5 28zM211 42v13q-6 -1 -10 -1h-5q-4 0 -9 1v55h-17v-68h41zM510 168h-21q-1 9 8 9q7 0 13 -9zM371 75q0 -21 -19 -21q-18 0 -18 20q0 25 17 25q20 0 20 -24zM234 152q-4 -4 -7 -4q-7 0 -14 6v13q5 6 11 6q4 0 10 -6v-15zM281 76q0 -22 -19 -22
q-20 0 -20 22q0 23 18 23q21 0 21 -23z" />
    <glyph glyph-name="B" unicode="B" horiz-adv-x="748" 
d="M713 551q-3 -18 -342 -581h-23q-45 58 -189 301q-153 259 -153 290q22 15 40 15q127 0 326 -2q279 -2 327 -3zM701 544l-2 15q-659 9 -638 9q-37 0 -47 -10q6 -36 154 -282q128 -212 184 -296l8 -2q57 62 177 271q82 147 164 295zM609 471q0 -26 -22 -26h-22q-6 18 -6 35
v19h16q34 0 34 -28zM553 445h-11q-7 9 -16 9q-2 0 -11 -9q-5 -1 -13 -4q6 19 18 58h15q18 -43 18 -45v-9zM494 468q-6 -1 -18 -5q1 -8 7 -8q1 0 5 1h4h2v-15q-20 3 -23 3q-6 0 -8 -3v56q8 4 14 4h17v-13h-14l-4 -4q1 -7 7 -7q1 0 4.5 0.5t4.5 -0.5h2v-9zM449 447l-13 -2
q-1 8 -6 23h-14v-23q-5 -1 -14 -4v56l12 2q2 -7 2 -20q1 -1 4 -1q11 0 13 2t2 11.5t14 11.5v-56zM393 447q-3 -2 -8 -2t-7 4.5t-12 4.5t-11.5 -5t-9.5 -9l-3 1q5 20 16 58h15q8 -16 20 -52zM432 399q0 -8 -5 -12t-5 -6q0 -3 4.5 -10.5t4.5 -9.5h-13q-5 9 -11 15l-3 -15h-9
q-6 24 -6 52h32q11 0 11 -14zM519 327q-18 -36 -15 -62h-11q-1 11 -3 32q-3 9 -15 30q2 0 5.5 1t5.5 1q4 -6 11 -17q3 3 7 15h15zM314 472q0 -9 -6.5 -18t-15.5 -9h-26q1 6 1 12v6q0 6 -1 18v18h16q32 0 32 -27zM476 265h-15q-1 3 -8 17q-2 -4 -2 -17h-13v68q12 -3 24.5 -7
t12.5 -16q0 -3 -5 -10.5t-5 -10.5q0 4 11 -24zM381 387q0 -9 -10 -18.5t-18 -9.5q-11 0 -19 9t-8 20q0 27 27 27q11 0 19.5 -8.5t8.5 -19.5zM257 456l-2 -11h-28q-2 9 -6 52h2q7 0 15 2q0 -1 1 -26q1 -19 11 -19q3 0 7 2zM429 278l-2 -13h-28q2 28 6 64h11q7 -1 10 -1
q2 0 3 1v-13q-4 -2 -16 -2l-1 -2v-5l16 -5v-9q-4 -2 -14 -2q-1 -3 -2 -9q6 -4 17 -4zM317 411q0 -4 -1 -7h-16v-4q-1 -3 -1 -5q2 -2 15 -2v-11h-14q-1 -7 -4 -21h-10v58q4 -4 10 -4q3 0 10 2t10 2q1 -3 1 -8zM392 316q-12 -3 -12 -20q0 -4 1 -11v-12q0 -5 -1.5 -7t-7.5 -3
q-2 3 -2 29q-1 19 -12 22v13q5 2 20 4l14 -2v-13zM215 444h-7h-8q-19 0 -18 0v55h22q3 0 9 -11h-14l-4 -4q0 -7 8 -7.5t10 -1.5v-7q-5 -2 -16 -2l-2 -1v-6q2 -1 20 -5v-10zM168 499v-54h-14v54h14zM352 287q0 -24 -23 -24q-4 0 -12 4q0 7 6 17q3 -3 10 -7q2 1 7 5
q-2 7 -12 13t-10 14q0 7 6 13.5t13 6.5q4 0 12 -4q0 -4 -4 -13q-4 4 -12 4l-1 -2v-5l13 -8q7 -5 7 -14zM144 497q-15 -17 -15 -42q0 -8 2 -14q-8 0 -17 6v7q0 13 -8 27.5l-8 14.5q0 3 9 7q4 -6 13 -19l12 15zM316 327q-20 -31 -15 -62h-14q1 5 1 10q0 10 -16 58h1
q8 0 12.5 -8t8.5 -15q2 5 7 17h15zM269 265h-15q4 3 4 9q0 17 -3 20q-6 -10 -9 -29h-9q-2 11 -7 31q-2 -10 -6 -31h-11l8 68l12 -6q3 -11 8 -33q2 5 7 31l15 2q5 -38 6 -62zM594 472q0 2 -1 5.5t-1 5.5q-5 0 -13 4v-31q15 8 15 16zM533 464q-4 22 -5 20q-1 -7 -6 -17z
M371 464q-1 7 -5 20q-2 -6 -7 -17zM416 399q-3 1 -7 4l-3 -13h8zM299 464v15q-7 6 -9 6h-7v-27h7zM461 302v8q0 4 -2 4h-4q-2 -1 -4 -1v-15q6 0 10 4zM369 385q0 5 -7 12t-11 7q-11 0 -11 -12q0 -18 15 -24q14 15 14 17z" />
    <glyph glyph-name="C" unicode="C" 
d="M705 272l-1 -15q-320 -325 -347 -324l-17 1q-66 60 -163 162q-137 144 -159 165v9l2 22q166 173 333 324q31 2 351 -330zM699 273q0 14 -326 331l-13 3q-15 0 -332 -317l-3 -14l1 -11l158 -164q93 -97 162 -160h12h13q42 35 178 168q147 145 150 164zM445 459h-47l-2 -5
l22 -77h-105l17 83h-49l79 102zM588 314q0 -3 -13.5 -38t-16.5 -42q-17 -14 -45 -47l-11 2q0 11 4 26l-7 1q-8 0 -15.5 -13.5t-23.5 -13.5q-21 0 -21 21l8 18l-4 4l-11 -8q0 -10 -5 -35h-42q1 -2 1 16q0 11 -8 17l-9 -1q3 -15 10 -32h-25q-1 2 -5 14q-2 8 -12 11
q-7 -6 1 -25q-9 1 -25 4v16l-15 3q-5 -4 -1 -18q-12 -4 -13 -4q-9 0 -10 18q1 -7 5 -12h11l1 7l-25 144h-15l-3 -4l25 -131l-5 2q-6 -4 -13 -12l-9 2v-11l-9 -2l-10 2l-6 15h-14q-23 0 -44 50q-12 36 -24 71l4 15l6 2v7h24q19 -16 29 -26q2 9 7 26h27l-2 -11l11 -7
q1 9 -1 15l14 3q14 0 15.5 -14t15.5 -14t6 25q6 2 14 2l15 -2v-14l7 -1q9 0 13 6l8 12h27q-3 -9 -8 -26l8 -4q10 0 12 10l4 20h52q1 -3 1 -16q0 -4 12 -4q8 0 18.5 10t21.5 10q13 0 38 -24q6 2 9 13l4 16h25l-8 -25q6 -4 20 -6v-13zM445 83l-83 -103q-40 46 -79 101
q18 3 45 2q1 16 -6 40q-8 35 -9 40h105l-22 -80h49zM572 352q-2 0 -7 1.5t-8 1.5q-4 -6 -20 -50.5t-16 -49.5q0 -4 3 -6h11zM519 338q-19 11 -24 11q-12 0 -24 -22.5t-12 -36.5t11.5 -24.5t11.5 -20.5q0 -24 -16 -29q-4 4 -11 18q-12 -19 -12 -23q0 -5 7 -16h22q30 39 30 71
q0 10 -11.5 18.5t-11.5 18.5q0 11 16 22l12 -9q9 11 12 22zM525 218q0 2 -1 5t-1 5q-17 -10 -17 -23v-12h7q12 16 12 25zM441 347h-44l-8 -148h36q0 3 1 9v9q0 5 -1 9q-2 0 -7.5 -1.5t-8.5 -1.5q-5 0 -5 8q0 1 6 28h25q-2 5 -2 10q0 -2 2 19q-4 -1 -10 -1q-1 0 -15 1v11
q0 21 11 21q3 0 10 -1t10 -1v29zM373 347h-21q-18 -48 -24 -76l28 -74h15q0 9 0 8l-25 72zM330 199l-10 148h-19l16 -150zM242 197q-5 19 -11 37q-6 25 -6 38q0 26 7 73h-5h-8h-8q-3 -25 0 -55l-36 57h-19q23 -35 45 -70q14 -27 28 -80h13z" />
    <glyph glyph-name="D" unicode="D" horiz-adv-x="749" 
d="M703 268l-3 -18q-129 -136 -329 -322l-17 -1l-16 1q-43 40 -177 176q-149 152 -149 163l2 21q119 123 164 168q94 93 172 158q31 3 352 -332zM697 269l-3 13q-148 152 -327 322l-10 1l-9 -1l-166 -156q-96 -92 -160 -162l-2 -14v-11l158 -166q96 -99 164 -160h12h13
q46 39 179 170q148 145 151 164zM443 457h-49l-1 -5l21 -77h-103v8q0 11 8 35.5t7 37.5h-47q20 35 77 104zM619 238l-3 -11l-8 -9q1 -13 3 -21h-25l-11 13q-6 -3 -7 -13h-21v16l-7 1q-10 0 -11 -17h-48l-2 19q-1 14 -10 14q-5 0 -15 -17t-30 -17q-13 0 -26 10q-16 13 -26 16
q-9 -2 -7 -23l-11 -3q-12 0 -15 9t-21 9q-4 0 -8 -15h-23v10l-4 1q-4 0 -5.5 -4t-2.5 -8h-20l-4 11l-19 5q-10 0 -12 -15h-24l-8 9l-10 2q-18 -19 -59 -11q2 11 -13 15q1 33 1 65q3 46 11 58l6 -4v-127l2 -3l16 -1q44 -1 44 61v24q0 27 -26 48h7q6 -7 18 -19q7 9 20.5 14
t15.5 9h31q0 -15 10 -20q5 -1 24 -1q2 13 1 21h16q9 0 11.5 -8t7.5 -8t12 6t8 10q13 0 25 -2q1 -8 2 -15.5t10 -7.5t20.5 13.5t22.5 13.5q9 0 23.5 -10t23.5 -10l11 6l3 10h48q3 -6 15 -12l3 12h38q27 -20 31 -43q1 -4 1 -56zM154 332h-5v4h5v-4zM443 77l-85 -103l-81 103
h48q1 2 1 5l-17 77l2 2h105l-24 -84h51zM168 244q0 -3 -6.5 -8.5t-10.5 -5.5h-8v80q7 -3 16 -7t9 -10v-49zM605 201v6q0 2 -3 8q-7 15 -16 39q18 10 18 40q0 37 -17 37h-35v-130l16 2l-2 45q0 5 2 7q7 -18 20 -54h17zM527 203q-1 7 -4 22q-7 1 -21 4v28h23v23q-9 1 -25 6
q2 11 3 23q2 3 24 3v21h-41v-130h41zM461 244v30h-35l-2 -20l21 -6q-3 -26 -21 -26q-22 0 -22 53q0 37 22 37q5 0 18 -14q13 7 13 13q0 10 -11 17t-21 7q-18 0 -29 -26q-9 -21 -9 -42q0 -67 47 -67q10 0 19.5 16.5t9.5 27.5zM360 203v130h-14v-107l-38 107h-15v-130h14v103
l37 -103h16zM273 203l-25 130h-21l-26 -130h14q3 25 13 25q2 0 22 -3q6 -9 8 -22h15zM586 292v-6q0 -12 -7 -17l-12 2v37h6q13 0 13 -16zM248 250q-19 0 -23 2q4 22 12 68q4 -18 11 -70z" />
    <glyph glyph-name="E" unicode="E" horiz-adv-x="722" 
d="M701 442q0 -44 -61 -240q-50 -159 -82 -245l-22 -16h-372q-41 123 -83 247q-67 206 -67 257q0 8 2 12q21 37 164 92q135 52 187 52q49 0 188 -60q146 -64 146 -99zM693 433q0 46 -154 107q-140 55 -202 55q-35 0 -171 -58q-145 -61 -145 -91q0 -31 51 -198
q38 -125 67 -209q8 -28 16 -55q13 -31 41 -32l338 -2q17 11 88 226.5t71 256.5zM639 406q0 -16 -8 -30q-8 -17 -23 -17h-27v101h10q17 0 34 -12q14 -11 14 -42zM572 359h-21l-11 29q-4 -5 -4 -12q0 -9 5 -17h-19l-6 95q3 -1 7 -1q3 0 8 1h9q28 0 28 -27q0 -22 -13 -31
q5 -12 17 -37zM512 359h-18q0 9 -5 17h-21q-3 -7 -3 -17l-20 2l26 93h19zM451 454q-22 -46 -22 -63q0 -6 1 -18t1 -18q-6 1 -19 4l1 18q0 19 -4 33q-1 5 -10 25q-6 15 -6 25q14 -1 18 -11l8 -20q5 2 7 10t4 15h21zM388 378l-2 -19h-42q2 1 2 2v2q0 29 -2 85q10 2 34 10
q4 -6 9 -23h-20l-2 -2v-13l22 -3v-17q-8 -3 -20 -2l-2 -2v-13q2 -1 23 -5zM338 446l-26 -87h-13l-29 85q10 6 21 10q4 -22 15 -56q6 12 15 56q5 0 17 -8zM279 359h-23q0 9 -5 17h-21q-1 -1 -5 -14q-2 -7 -12 -9l16 101h23zM203 427q0 -14 -14 -31l14 -37h-17q-4 10 -12 29
q-2 -7 -2 -14t1 -15h-20q3 3 3 18q0 52 -3 77l3 -2q3 0 10.5 1t11.5 1q25 0 25 -27zM142 400q0 2 -8 -29l-27 -14q-15 0 -24 16t-9 33q0 18 9 34t25 16q5 0 18 -5.5t13 -8.5q0 -5 -11 -15q-23 8 -18 8q-18 0 -18 -29q0 -30 18 -30q6 0 15 15q-5 3 -17 3v13q9 6 22 6h12v-13z
M437 -6h-68v12q1 58 -8 83q-11 34 -50 68q-1 0 -30 -23h-7l-14 125l125 -46q-11 -9 -33 -31q39 -32 62 -84t23 -104zM619 402v6q0 -4 -3 19q-5 2 -16 8v-53h5q14 0 14 20zM551 421q0 4 -11 14q-2 -6 -2 -13t2 -13q11 5 11 12zM486 394q-2 19 -7 37q-4 -22 -8 -37h15z
M248 394q-2 14 -7 39q-3 -20 -9 -37q3 -2 16 -2zM186 422q0 9 -12 13v-25h5q7 0 7 12z" />
    <glyph glyph-name="F" unicode="F" 
d="M707 439q0 -39 -63 -239q-46 -149 -82 -250l-20 -15h-381q-32 79 -89 255q-64 200 -64 241q0 31 11 46q9 12 40 29q18 10 139.5 56t130.5 47q3 1 17 1q62 0 205 -59q156 -64 156 -112zM701 437q0 45 -155 107q-141 57 -202 57q-48 0 -184 -58q-144 -62 -144 -98
q0 -37 68.5 -255.5t87.5 -242.5l368 -2q14 8 87.5 231t73.5 261zM656 357q-4 -2 -14 -2h-13q-21 35 -39 78q-3 -1 -1 -77q-16 1 -26 0l-6 145q13 -5 34 -22q10 -29 39 -85q1 1 1 74q9 -6 25 -20v-91zM547 428q0 -26 -12 -48q-15 -27 -39 -27t-38 33q-11 25 -11 54
q0 28 10 49q13 28 38 28q21 0 38 -35q14 -30 14 -54zM429 359q-4 -2 -13 -2q-14 0 -14 10q0 22 1 66t1 66q0 8 25 24v-164zM392 486q-6 1 -12 1t-11 -1v-129h-25v129q-7 2 -21 2q0 17 3 50q22 -3 66 -14v-38zM312 431q0 -76 -43 -76q-33 0 -40 45q-2 35 -3 71q0 3 -1.5 10.5
t-1.5 11.5v21q13 5 31 6v-108q0 -6 5 -13t11 -7q15 0 15 30v104h27v-95zM220 357h-24q-6 27 -8 27q-5 0 -31 -3q-5 -1 -5.5 -12t-2 -12t-20.5 -8l32 166q5 -2 28 -6zM581 154q-1 -21 -13 -36q-16 -21 -20 -31q-10 1 -53 3l-4 10l-10 7q-9 -4 -5 -18h-24q-2 15 -8 43h-7
q-3 -14 -6 -29.5t-20 -15.5l-3 10l-14 10q-4 -6 -10 -20l-20 3q-1 1 -3 16q-3 12 -7 12q-15 0 -11 -27h-28l1 12q1 17 -9 17q-12 0 -7 -29h-58q1 14 -1 22q-6 -5 -19 -16l-8 2q-14 -14 -26 -14q-36 0 -46 48q-4 20 -4 75q0 34 11 53q0 1 33 39q25 -5 55 -23q6 11 5 19h27
q-1 1 -1 -21q0 -8 10 -8t35 6q3 9 2 23h28q6 -12 22 -35q9 1 9 25l1 10h27l3 -14l10 8q9 -7 15 -10l2 12q2 0 27 4q1 -6 5 -18q7 5 23 7l6 8q36 3 57 3q2 -9 7 -26q23 -13 24 -57v-59zM127 495q-2 -11 -6 -52q-14 7 -17 7q-11 0 -20.5 -15t-9.5 -27q0 -9 7.5 -17.5
t17.5 -8.5q9 0 22 16v-37q-16 -8 -28 -8q-44 0 -44 51q0 48 63 80q5 4 15 11zM525 432q0 8 -11 28t-18 20q-8 0 -20.5 -17t-12.5 -25q0 -9 13 -28.5t21 -19.5q10 0 19 16t9 26zM547 97v33q-11 1 -32 5v11q0 19 6 30q12 1 24 1v33q-15 0 -30 5v12q0 30 10 30t22 -4v33h-51
v-189h51zM183 412q-4 18 -10 56q-8 -37 -13 -58q16 2 23 2zM470 97l-13 189h-19q-8 -62 -21 -129l-17 129h-21l-12 -189h9q5 0 8 4q5 97 5 110q0 5 6 13l17 -127h11q13 71 13 112q0 11 8 13l9 -125h17zM340 97v189h-20v-189h20zM295 97v39q-5 -1 -10 -1h-10q-6 1 -10 1v150
h-19v-189h49zM219 162q0 34 -19 50t-19 19q0 30 13 30q-1 0 16 -10q5 20 5 29q-14 12 -27 12q-24 0 -24 -73q0 -19 18.5 -34.5t18.5 -38.5q0 -22 -15 -22q-5 0 -17 24q-11 -27 -11 -32q0 -23 37 -23q24 0 24 69z" />
    <glyph glyph-name="G" unicode="G" horiz-adv-x="731" 
d="M707 437q0 -36 -62 -237q-54 -177 -81 -249l-28 -18l-377 2q-153 422 -151 496v31q3 22 149 85q141 60 173 62q4 3 21 3q64 0 204 -61q152 -66 152 -114zM584 95q0 18 -15.5 25.5t-15.5 14.5q0 15 12 15q5 0 11 -4l4 17q-10 6 -17 6q-24 0 -24 -43q0 -18 15.5 -24.5
t15.5 -19.5q0 -14 -14 -14q-3 0 -8 5l-6 6q-2 -7 -7 -21q9 -8 18 -8q31 0 31 45zM701 436q0 47 -154 109q-141 56 -204 56q-44 0 -182 -57q-147 -61 -147 -94q0 -39 47 -188q61 -187 64 -202l4 5v6l2 36q17 20 35 17l4 -9q9 0 15 6.5t13 6.5q14 0 12 -10q7 3 16 10q6 6 18 6
q4 0 4 -8l-6 4l-13 -7q-4 -25 -13 -75l-13 76l-13 -2q-4 -27 -13 -80q-4 26 -13 78l-15 -2l21 -111h9q8 12 12 34l6 36q2 -1 12 -64h15l20 105l14 -4q11 28 37 28q15 0 28 -16l22 9l4 10l12 3l8 -2l3 -22l22 9l-2 19l19 2l6 -10l8 6l14 -6l8 11l16 4l4 -3q0 -4 -3 -6t-5 -1
t0 5l-14 -7q-5 -28 -17 -83l-3 3q-4 33 -15 80h-15q8 -37 27 -113l13 5l26 105l16 6v-96l-12 8l-23 -8l-6 -22q-13 -6 -39 6l-6 -12q-15 0 -38 -3l-8 9h-12q-6 1 -22.5 -4t-51.5 -5l-24 -3l-7 -9l-13 -4q-15 6 -25 6l-4 -8l-15 -4q-8 9 -20 9l-8 -1q4 -16 9.5 -34t18.5 -28
l367 -4q21 14 33 54q9 32 19 64q-21 -19 -38 -17l-21 12l-11 -14q-27 -3 -33 -3l-11 1l2 4q28 0 41 5l-2 18l-21 2v24l21 4l-2 19l-19 -2l-2 23l25 5v17q-12 2 -41 -6v8l37 4l21 -11q4 17 29 17q11 0 19 -7l-2 -8l7 1q11 0 14 -20l2 -28q27 85 55 171q41 129 41 156zM390 33
v20q-6 -1 -13 -1q-6 0 -12 1v90q-10 0 -15 -1v-115q24 3 40 6zM330 88q0 13 -9.5 31.5t-20.5 18.5q-21 0 -33 -22q-9 -17 -9 -41q0 -56 33 -56q20 0 31 26q8 20 8 43zM644 333h-10q-12 0 -54 14v134q9 1 9 0l55 -27v-31q-15 9 -32 16l-1 -2v-17q11 -4 31 -15v-21
q-10 3 -29 8l-2 -2v-16q19 -7 33 -10v-31zM570 345h-8q-23 0 -30.5 19.5t-14.5 39.5q-2 -2 -2 -35v-22q-14 -4 -22 -8l-10 178q34 -2 57 -18q26 -19 26 -52q0 -5 -6 -27q-6 -4 -17 -12q9 -22 27 -63zM478 351q-4 -2 -13 -2q-11 0 -13 2t-2 12t-6 19h-35q0 -1 -8 -31
q-8 -7 -26 -16l34 197h34zM388 544l-37 -193h-26l-17 94q-7 -28 -16 -94q-7 -7 -28 -20l-27 196q7 -1 28 0l12 -92l3 -4l15 101q8 1 23 4q7 -36 14 -96l3 -3q4 3 15 99q9 3 38 8zM431 283q-1 -6 -6 -17q0 -1 -14 -1q-8 0 -13 -4v-9q6 -1 13 -1t13 1v-18h-25q-1 -15 0 -33
h-25q2 10 2 21v10q0 -10 -2 51h57zM230 486q-12 -3 -35 -12v-20q2 -3 7 -3q4 0 11.5 1.5t11.5 1.5h1l2 -34q-11 -3 -33 -8v-23q3 -3 8 -3t13 1.5t12 2.5v-31q0 -11 -4 -18l-57 6v154q21 15 53 33q3 -16 10 -48zM365 240q0 -15 -14 -28.5t-30 -13.5t-29 13.5t-13 29.5
q0 17 13.5 30t29.5 13t29.5 -14t13.5 -30zM150 388q0 -32 -27 -40q-26 -3 -52 -7q-8 59 -8 88q0 12 27.5 32.5t41.5 20.5q13 0 13 -25q0 -27 -16 -35v-3q4 -2 13 -5q8 -15 8 -26zM313 80q0 -38 -21 -38q-19 0 -19 33q0 11 6 25t14 14q20 0 20 -34zM537 448q0 25 -21 28v-41
l11 -2q10 6 10 15zM439 418l-12 71q-13 -62 -13 -61v-10h25zM348 240q0 6 -10.5 15.5t-16.5 9.5q-5 0 -14.5 -9t-9.5 -15t9 -14.5t15 -8.5q7 0 17 8t10 14zM119 439q0 5 -4 9q-2 0 -19 -6v-25q23 12 23 22zM123 388q0 3 -2 6l-2 3h-3q-7 -1 -20 -2v-25h10q6 0 11.5 6t5.5 12
z" />
    <glyph glyph-name="H" unicode="H" horiz-adv-x="734" 
d="M705 64q-23 -18 -31 -18l-622 4q-10 0 -38 20l-4 409q24 16 38 16l621 -2l28 -18zM557 372q0 51 -23 51h-20l-6 -168h11q1 20 6 59h8q12 -1 18 24q6 18 6 34zM427 394v29h-30l-8 -168h33v31q-7 1 -20 5v7q-1 13 6 27q6 0 16 3v26q-7 1 -20 6q2 11 4 23.5t11 12.5
q4 0 8 -2zM377 376q0 47 -27 47h-12l-8 -170h10l5 72q3 -2 13 -72h13l-12 64q18 40 18 59zM697 93l-6 183l-26 -17q0 2 -7 30q-6 19 -6 30l9 18t9 42q0 27 -11 41q-16 6 -31 1v8h23q11 0 17 -14.5t12 -14.5l7 2q-2 15 -2 69q-11 14 -33 15q-630 4 -597 4q-14 0 -33 -15v-77
q6 14 16 17q5 1 25 1l17 17q20 -2 32 -33l12 -8q4 4 8 39h33l9 -18q6 -11 15 -11q1 19 6 29l16 -4v-31h17q1 12 8 35h3q14 0 15 -30v-3h9q1 1 7 21q2 10 17 10l4 -3l2 -22h18l20 10l4 15h31q8 -14 15 -39h7q1 13 1.5 26t13.5 13q11 0 31 -3l-2 -10l13 5l12 -5l3 13h25v-23
h24q1 8 2.5 15.5t11.5 7.5q27 0 40 -14l11 14h39q-1 -8 -14 -9q-11 1 -23 2l-9 -167h32v33l-17 3q0 12 1.5 24t11.5 12q4 0 8 -1q0 13 2 30l-19 4q0 14 5 33l18 3l2 15q0 -11 9 -11l5 2l4 15l-10 -159l13 -3q2 25 7 74q6 -17 12 -74l16 2l3 -6l-3 -4h-41l-9 4v10l-7 2
l-8 -13l-18 -1q-32 -1 -60 10l-4 -10h-13q-2 2 -2 20q0 9 -9 11v-31l-20 2l2 20l3 -16h9l2 3l-12 165h-17l-29 -168h11q3 7 3 19t12 12l19 -5v-5q0 -4 -7 3q-26 -6 -24 -30q-59 0 -63 2l-3 15h-7l2 -13l-14 -4q-8 0 -13 18l-10 -20h-12l-6 9q-18 6 -29 5l1 -4q0 -10 -12 -10
q-9 0 -9 10l-2 8q-5 -1 -8.5 -9.5t-9.5 -8.5l-9 8h-11l-4 -8h-13l-12 12l-4 -12h-15l-4 14l-9 -11l-29 -3q-29 -2 -43 10l-13 -9l-11 -1q7 1 -52 14v-166q0 -33 28 -33l571 -6q43 -1 50 1q25 7 24 36zM287 253v170h-13l-16 -111l-4 5q-2 35 -6 106h-13l-16 -166l9 -4
q4 38 14 113q7 -48 7 -108l6 -5q6 38 20 113q2 -2 2 -111zM205 423h-9l-8 -168l11 2zM174 379q0 24 -10 44h-29l-10 -164q0 -4 2 -4h9q2 25 8 74q3 -25 13 -74h13l-12 63q0 1 6 12.5t7 15.5q3 14 3 33zM111 326v23h-27q-1 -9 -4 -27q7 -2 18 -9q-4 -33 -20 -33t-16 55
q0 59 22 59l15 -16q8 13 8 18q0 9 -7.5 20t-16.5 11t-21.5 -21.5t-12.5 -92.5q0 -33 16 -58h22q24 34 24 71zM656 375q0 -1 -6 -32h-11v47h11q6 -13 6 -15zM543 370q0 -9 -3 -17q0 -1 -5 -6h-8q-1 10 -1 14v11q0 18 1 18h10q6 -10 6 -20zM476 314q-2 -1 -5 -1h-2q-2 0 -6 1
h-6l13 97zM363 371q0 -9 -8 -30h-11q1 14 1 24v6q0 9 -1 19h11q8 -9 8 -19zM558 214q-14 -25 -28 -49q-5 -10 -5 -64h-27v45l-35 74q10 -2 30 -7q6 -11 16 -32h3l16 33h30zM474 102h-62l-8 94q0 7 13 11q19 7 20 7q2 -3 2 -86q9 -2 17 -2q9 0 18 2v-26zM160 368
q0 -22 -15 -29q-1 6 -1 16v18q1 11 1 17q6 0 12 -5q3 -22 3 -17zM388 103q-4 -2 -14 -2h-12q0 1 -44 70v-69h-31v102q10 3 29 10l45 -72v72h27v-111zM273 157q0 -23 -16.5 -40.5t-39.5 -17.5q-22 0 -38.5 18t-16.5 40q0 23 17 41t39 18q19 0 33.5 -14t18.5 -34
q0 -1 1.5 -4.5t1.5 -6.5zM254 157q0 8 -14.5 20t-22.5 12q-10 0 -20.5 -11t-10.5 -21q0 -8 11.5 -20.5t19.5 -12.5q9 0 23 12.5t14 20.5z" />
    <glyph glyph-name="I" unicode="I" horiz-adv-x="756" 
d="M709 271q1 -19 -167 -182t-186 -162l-16 1q-72 62 -168 165q-80 88 -160 175l2 22q58 70 162 168q85 81 170 161l7 1q33 0 355 -334zM703 273q0 17 -332 337l-11 1l-10 -1q-197 -185 -328 -322l-2 -17l2 -8q36 -50 154 -167q97 -96 170 -161h11l12 1q72 65 182 173
q152 149 152 164zM551 346q0 -45 -34 -44h-13v88h14q33 0 33 -44zM492 304h-29l-2 17q0 -3 2 65q6 2 16 2q7 0 11 -2l2 -15q-12 0 -18 -2v-11q3 -2 16 -2v-19h-3q-6 1 -13 -1v-11q6 -1 18 -4v-17zM453 371q-5 -1 -14 -6v-61h-15v63q-4 1 -12 4v27h11q5 0 30 -11v-16z
M533 223q-15 0 -45 2l-3 -3v58q22 4 46 6q-1 -14 -10 -15.5t-19 -3.5v-6q5 -2 11 -2t12 2v-13h-23v-7q2 -1 20 -4q11 -2 11 -14zM404 304h-15l-21 49q-1 -9 -1 -20q0 -14 1 -29h-18v95q13 -2 24 -27q8 -18 16 -37q1 1 1 53q1 -1 10 -6q3 -29 3 -27v-51zM475 245
q0 -8 -10 -14.5t-19 -6.5q-5 0 -22 8q3 4 6 11q12 -7 17 -7t8 3v5l-18 8q-11 5 -11 13q0 6 7.5 12t19.5 5q15 -1 19 0q0 -7 -8 -15q-4 4 -6 4h-9l-4 -4v-1q0 -2 15 -8t15 -13zM340 320q0 -18 -24 -18q-7 0 -15 6.5t-8 14.5v67h15v-62q0 -7 8 -7q10 0 10 13v56h14v-70z
M416 252q0 -28 -32 -28q-24 0 -28 18.5t-6 37.5h23q-1 3 -1 -24q0 -13 6 -19h12q6 8 7 41v2h19v-28zM287 304h-13q0 6 -4 14h-19q-3 -8 -3 -18q-4 -1 -11 -2l15 92h17l18 -75v-11zM342 253q0 -12 -12 -20.5t-24 -8.5q-13 0 -25.5 9t-12.5 21q0 11 12.5 19.5t24.5 8.5
q37 0 37 -29zM227 304h-14q0 -2 0 20q0 9 -3 15h-13q-4 -7 -4 -17v-18h-15l-8 82q7 1 21 4q2 -8 2 -17t-2 -17h21q1 7 1 16t-1 18h15v-86zM261 220q-10 4 -22 4q0 18 -1 25h-22v-23h-20q-5 17 -8 54h27v-20q3 -1 7 -1q14 0 15.5 2.5t1.5 18.5h19q3 -34 3 -60zM445 90h-6
q-12 0 -41 -2l-3 -6l21 -76h-107q0 16 6 40q9 39 9 40q-6 4 -20 4q-4 0 -27 -2l-3 -2l80 105l5 -1q29 -34 86 -100zM535 346q0 24 -13 24h-6v-46h7q8 3 9 6q3 8 3 16zM267 335q-2 19 -6 37q-3 -12 -7 -37h13zM326 253q0 5 -7.5 10.5t-12.5 5.5q-18 0 -25 -19q17 -12 24 -12
q4 0 12.5 5.5t8.5 9.5z" />
    <glyph glyph-name="a" unicode="a" horiz-adv-x="743" 
d="M709 448q0 -41 -62 -242q-46 -147 -81 -245l-24 -18h-369q-36 82 -92 252q-64 192 -63 239v29q3 28 158 90q145 57 180 57q51 0 196 -58q157 -64 157 -104zM701 438q0 48 -156 109q-142 56 -206 56q-33 0 -170 -59q-146 -62 -146 -92q0 -34 52 -205q43 -141 70 -216
q7 -22 13 -44q12 -33 26 -33l358 -2q15 9 87 228t72 258zM656 357h-23q-19 23 -42 82q1 -26 0 -78v-2h-24q-8 92 -8 144q12 -5 32 -20q10 -14 21 -42q12 -33 18 -43q3 9 3 72q2 -1 23 -18v-95zM549 430q0 -25 -13 -47q-14 -26 -37 -26t-38 32q-12 27 -12 54q0 24 11 46
q13 28 34 28q25 0 41 -33q14 -27 14 -54zM431 361h-23v139q0 2 23 25v-164zM396 490h-20v-129h-28v127q-7 2 -22 2q1 17 4 50l66 -12v-38zM520 279q0 -6 -5 -10h-13v19h13q5 -4 5 -9zM316 526v-106q0 -24 -9 -41q-11 -22 -33 -22q-31 0 -38 38q-2 8 -2 58q0 10 -2.5 31
t-2.5 32q5 2 28 6l3 -104q0 -22 14 -22q15 0 15 15v115h27zM224 361h-27q3 3 3 7q0 3 -1.5 8.5t-2 7.5t-3.5 2q-2 0 -29 -3q-4 -10 -7 -20q-2 -6 -20 -10l29 162h11q4 0 17 -7q9 -37 18 -73q10 -43 12 -74zM563 135l-12 -14l5 -6l1 -9q0 -11 -1 -32.5t-1 -32.5l-11 -7
l-23 10q-13 -9 -57 -18q-40 -7 -62 -7h-112q-16 0 -40 4q-32 5 -40 6l-4 7q-11 1 -40 1l-1 24l1 51q15 0 23 2q0 -13 2 -19q4 6 4 13l-4 19q-29 29 -29 39q0 20 14 28q-4 12 -4 21q0 6 6 20t6 27v44h20l8 -12l17 11q28 1 65 3q9 2 49 13q32 8 51 8q16 0 48.5 -13t50.5 -11
l-5 -4v-68h14v28q9 -11 19 -28l18 2q-6 8 -18 23q16 17 16 22q0 12 -8 20q8 -2 10.5 -14t12.5 -13l1 -8q1 -18 -16 -47q2 -17 13 -41.5t13 -41.5zM135 489q0 -14 -9 -44q-5 5 -14 5q-28 0 -28 -39q0 -27 22 -27q6 0 23 16v-33q-11 -10 -27 -10q-19 0 -32 14.5t-13 33.5
q0 23 17.5 46.5t39.5 30.5q6 5 18 13q1 -3 3 -6zM527 434q0 8 -10 28t-18 20q-7 0 -20.5 -17t-13.5 -24t14 -28t21 -21q9 0 18 16t9 26zM467 293v8h-43v-67h43q0 2 -1 6.5t-1 6.5h-24v14h24v13h-24v13q9 2 26 6zM525 158v8q0 7 -9.5 13t-16.5 6q-24 0 -24 -25q0 -24 26 -24
q12 0 22 9q-11 -1 -17 -1q-7 0 -18 5v9q8 1 18 1t19 -1zM406 234v14q-6 -1 -10 -1h-5q-3 0 -8 1v54h-17v-68h40zM551 66v46l-15 2v-48h15zM191 416l-12 56q-4 -20 -11 -60q8 1 23 4zM459 152q0 33 -20 33q6 0 -20 -8q-1 8 -1 16q0 9 1 17h-13v-70l12 -2q-1 -2 -1 9
q0 28 15 28q6 0 7 -5q0 -11 5 -34h15v16zM349 235q0 2 -1 6t-1 6h-23v55h-17v-67h42zM551 51q-5 5 -9 5q-7 -7 -7 -9q0 -4 3 -7h10zM515 99v10h-40v-69h38q2 3 2 7t-2 7h-2h-6q-4 -1 -6 -1q-8 0 -11 4q1 5 6 14q11 1 17 1v9q-8 1 -23 5q1 5 4 13h23zM284 236v66h-16v-68z
M388 175v7q-1 1 -10 16h-8q-2 -6 -10 -16v-7q8 -3 8 -16q0 -2 -1 -7v-8q0 -3 1 -6h13q-1 -3 -1 16t8 21zM453 65q0 11 -15.5 16t-15.5 15q5 5 11 5q2 0 5 -2t5 -2q6 0 6 9q-13 7 -22 7q-7 0 -14 -7.5t-7 -14.5q0 -10 12 -16l20 -10v-8q-8 -7 -10 -7q-3 0 -17 10
q-3 -5 -7 -13q7 -7 23 -7q26 0 26 25zM248 301q-2 0 -7 1.5t-8 1.5q-2 0 -13 -16q-7 -10 -14 -19q-1 11 -3 35q-6 -1 -15 -5q2 -17 2 -67q5 1 15 2v9q-1 12 1 22q12 -11 23 -31h19l-23 35q0 3 23 32zM318 138v34q0 13 -17 13q-8 0 -19 -12q-2 5 -1 9h-13v-44h13l-1 11
q0 26 14 26q-1 0 5 -2q6 -9 6 -33v-2h13zM389 76q0 37 -40 37q-14 0 -23.5 -11t-9.5 -25q0 -39 39 -39q13 0 23.5 12.5t10.5 25.5zM248 160q0 25 -25 25q-26 0 -26 -25q0 -24 27 -24q24 0 24 24zM299 79q0 15 -13.5 24.5t-28.5 9.5q-13 0 -22.5 -12t-9.5 -25q0 -15 11 -26.5
t27 -11.5q15 0 25.5 13t10.5 28zM211 42v13q-6 -1 -10 -1h-5q-4 0 -9 1v55h-17v-68h41zM510 168h-21q-1 9 8 9q7 0 13 -9zM371 75q0 -21 -19 -21q-18 0 -18 20q0 25 17 25q20 0 20 -24zM234 152q-4 -4 -7 -4q-7 0 -14 6v13q5 6 11 6q4 0 10 -6v-15zM281 76q0 -22 -19 -22
q-20 0 -20 22q0 23 18 23q21 0 21 -23z" />
    <glyph glyph-name="b" unicode="b" horiz-adv-x="748" 
d="M713 551q-3 -18 -342 -581h-23q-45 58 -189 301q-153 259 -153 290q22 15 40 15q127 0 326 -2q279 -2 327 -3zM701 544l-2 15q-659 9 -638 9q-37 0 -47 -10q6 -36 154 -282q128 -212 184 -296l8 -2q57 62 177 271q82 147 164 295zM609 471q0 -26 -22 -26h-22q-6 18 -6 35
v19h16q34 0 34 -28zM553 445h-11q-7 9 -16 9q-2 0 -11 -9q-5 -1 -13 -4q6 19 18 58h15q18 -43 18 -45v-9zM494 468q-6 -1 -18 -5q1 -8 7 -8q1 0 5 1h4h2v-15q-20 3 -23 3q-6 0 -8 -3v56q8 4 14 4h17v-13h-14l-4 -4q1 -7 7 -7q1 0 4.5 0.5t4.5 -0.5h2v-9zM449 447l-13 -2
q-1 8 -6 23h-14v-23q-5 -1 -14 -4v56l12 2q2 -7 2 -20q1 -1 4 -1q11 0 13 2t2 11.5t14 11.5v-56zM393 447q-3 -2 -8 -2t-7 4.5t-12 4.5t-11.5 -5t-9.5 -9l-3 1q5 20 16 58h15q8 -16 20 -52zM432 399q0 -8 -5 -12t-5 -6q0 -3 4.5 -10.5t4.5 -9.5h-13q-5 9 -11 15l-3 -15h-9
q-6 24 -6 52h32q11 0 11 -14zM519 327q-18 -36 -15 -62h-11q-1 11 -3 32q-3 9 -15 30q2 0 5.5 1t5.5 1q4 -6 11 -17q3 3 7 15h15zM314 472q0 -9 -6.5 -18t-15.5 -9h-26q1 6 1 12v6q0 6 -1 18v18h16q32 0 32 -27zM476 265h-15q-1 3 -8 17q-2 -4 -2 -17h-13v68q12 -3 24.5 -7
t12.5 -16q0 -3 -5 -10.5t-5 -10.5q0 4 11 -24zM381 387q0 -9 -10 -18.5t-18 -9.5q-11 0 -19 9t-8 20q0 27 27 27q11 0 19.5 -8.5t8.5 -19.5zM257 456l-2 -11h-28q-2 9 -6 52h2q7 0 15 2q0 -1 1 -26q1 -19 11 -19q3 0 7 2zM429 278l-2 -13h-28q2 28 6 64h11q7 -1 10 -1
q2 0 3 1v-13q-4 -2 -16 -2l-1 -2v-5l16 -5v-9q-4 -2 -14 -2q-1 -3 -2 -9q6 -4 17 -4zM317 411q0 -4 -1 -7h-16v-4q-1 -3 -1 -5q2 -2 15 -2v-11h-14q-1 -7 -4 -21h-10v58q4 -4 10 -4q3 0 10 2t10 2q1 -3 1 -8zM392 316q-12 -3 -12 -20q0 -4 1 -11v-12q0 -5 -1.5 -7t-7.5 -3
q-2 3 -2 29q-1 19 -12 22v13q5 2 20 4l14 -2v-13zM215 444h-7h-8q-19 0 -18 0v55h22q3 0 9 -11h-14l-4 -4q0 -7 8 -7.5t10 -1.5v-7q-5 -2 -16 -2l-2 -1v-6q2 -1 20 -5v-10zM168 499v-54h-14v54h14zM352 287q0 -24 -23 -24q-4 0 -12 4q0 7 6 17q3 -3 10 -7q2 1 7 5
q-2 7 -12 13t-10 14q0 7 6 13.5t13 6.5q4 0 12 -4q0 -4 -4 -13q-4 4 -12 4l-1 -2v-5l13 -8q7 -5 7 -14zM144 497q-15 -17 -15 -42q0 -8 2 -14q-8 0 -17 6v7q0 13 -8 27.5l-8 14.5q0 3 9 7q4 -6 13 -19l12 15zM316 327q-20 -31 -15 -62h-14q1 5 1 10q0 10 -16 58h1
q8 0 12.5 -8t8.5 -15q2 5 7 17h15zM269 265h-15q4 3 4 9q0 17 -3 20q-6 -10 -9 -29h-9q-2 11 -7 31q-2 -10 -6 -31h-11l8 68l12 -6q3 -11 8 -33q2 5 7 31l15 2q5 -38 6 -62zM594 472q0 2 -1 5.5t-1 5.5q-5 0 -13 4v-31q15 8 15 16zM533 464q-4 22 -5 20q-1 -7 -6 -17z
M371 464q-1 7 -5 20q-2 -6 -7 -17zM416 399q-3 1 -7 4l-3 -13h8zM299 464v15q-7 6 -9 6h-7v-27h7zM461 302v8q0 4 -2 4h-4q-2 -1 -4 -1v-15q6 0 10 4zM369 385q0 5 -7 12t-11 7q-11 0 -11 -12q0 -18 15 -24q14 15 14 17z" />
    <glyph glyph-name="c" unicode="c" 
d="M705 272l-1 -15q-320 -325 -347 -324l-17 1q-66 60 -163 162q-137 144 -159 165v9l2 22q166 173 333 324q31 2 351 -330zM699 273q0 14 -326 331l-13 3q-15 0 -332 -317l-3 -14l1 -11l158 -164q93 -97 162 -160h12h13q42 35 178 168q147 145 150 164zM445 459h-47l-2 -5
l22 -77h-105l17 83h-49l79 102zM588 314q0 -3 -13.5 -38t-16.5 -42q-17 -14 -45 -47l-11 2q0 11 4 26l-7 1q-8 0 -15.5 -13.5t-23.5 -13.5q-21 0 -21 21l8 18l-4 4l-11 -8q0 -10 -5 -35h-42q1 -2 1 16q0 11 -8 17l-9 -1q3 -15 10 -32h-25q-1 2 -5 14q-2 8 -12 11
q-7 -6 1 -25q-9 1 -25 4v16l-15 3q-5 -4 -1 -18q-12 -4 -13 -4q-9 0 -10 18q1 -7 5 -12h11l1 7l-25 144h-15l-3 -4l25 -131l-5 2q-6 -4 -13 -12l-9 2v-11l-9 -2l-10 2l-6 15h-14q-23 0 -44 50q-12 36 -24 71l4 15l6 2v7h24q19 -16 29 -26q2 9 7 26h27l-2 -11l11 -7
q1 9 -1 15l14 3q14 0 15.5 -14t15.5 -14t6 25q6 2 14 2l15 -2v-14l7 -1q9 0 13 6l8 12h27q-3 -9 -8 -26l8 -4q10 0 12 10l4 20h52q1 -3 1 -16q0 -4 12 -4q8 0 18.5 10t21.5 10q13 0 38 -24q6 2 9 13l4 16h25l-8 -25q6 -4 20 -6v-13zM445 83l-83 -103q-40 46 -79 101
q18 3 45 2q1 16 -6 40q-8 35 -9 40h105l-22 -80h49zM572 352q-2 0 -7 1.5t-8 1.5q-4 -6 -20 -50.5t-16 -49.5q0 -4 3 -6h11zM519 338q-19 11 -24 11q-12 0 -24 -22.5t-12 -36.5t11.5 -24.5t11.5 -20.5q0 -24 -16 -29q-4 4 -11 18q-12 -19 -12 -23q0 -5 7 -16h22q30 39 30 71
q0 10 -11.5 18.5t-11.5 18.5q0 11 16 22l12 -9q9 11 12 22zM525 218q0 2 -1 5t-1 5q-17 -10 -17 -23v-12h7q12 16 12 25zM441 347h-44l-8 -148h36q0 3 1 9v9q0 5 -1 9q-2 0 -7.5 -1.5t-8.5 -1.5q-5 0 -5 8q0 1 6 28h25q-2 5 -2 10q0 -2 2 19q-4 -1 -10 -1q-1 0 -15 1v11
q0 21 11 21q3 0 10 -1t10 -1v29zM373 347h-21q-18 -48 -24 -76l28 -74h15q0 9 0 8l-25 72zM330 199l-10 148h-19l16 -150zM242 197q-5 19 -11 37q-6 25 -6 38q0 26 7 73h-5h-8h-8q-3 -25 0 -55l-36 57h-19q23 -35 45 -70q14 -27 28 -80h13z" />
    <glyph glyph-name="d" unicode="d" horiz-adv-x="749" 
d="M703 268l-3 -18q-129 -136 -329 -322l-17 -1l-16 1q-43 40 -177 176q-149 152 -149 163l2 21q119 123 164 168q94 93 172 158q31 3 352 -332zM697 269l-3 13q-148 152 -327 322l-10 1l-9 -1l-166 -156q-96 -92 -160 -162l-2 -14v-11l158 -166q96 -99 164 -160h12h13
q46 39 179 170q148 145 151 164zM443 457h-49l-1 -5l21 -77h-103v8q0 11 8 35.5t7 37.5h-47q20 35 77 104zM619 238l-3 -11l-8 -9q1 -13 3 -21h-25l-11 13q-6 -3 -7 -13h-21v16l-7 1q-10 0 -11 -17h-48l-2 19q-1 14 -10 14q-5 0 -15 -17t-30 -17q-13 0 -26 10q-16 13 -26 16
q-9 -2 -7 -23l-11 -3q-12 0 -15 9t-21 9q-4 0 -8 -15h-23v10l-4 1q-4 0 -5.5 -4t-2.5 -8h-20l-4 11l-19 5q-10 0 -12 -15h-24l-8 9l-10 2q-18 -19 -59 -11q2 11 -13 15q1 33 1 65q3 46 11 58l6 -4v-127l2 -3l16 -1q44 -1 44 61v24q0 27 -26 48h7q6 -7 18 -19q7 9 20.5 14
t15.5 9h31q0 -15 10 -20q5 -1 24 -1q2 13 1 21h16q9 0 11.5 -8t7.5 -8t12 6t8 10q13 0 25 -2q1 -8 2 -15.5t10 -7.5t20.5 13.5t22.5 13.5q9 0 23.5 -10t23.5 -10l11 6l3 10h48q3 -6 15 -12l3 12h38q27 -20 31 -43q1 -4 1 -56zM154 332h-5v4h5v-4zM443 77l-85 -103l-81 103
h48q1 2 1 5l-17 77l2 2h105l-24 -84h51zM168 244q0 -3 -6.5 -8.5t-10.5 -5.5h-8v80q7 -3 16 -7t9 -10v-49zM605 201v6q0 2 -3 8q-7 15 -16 39q18 10 18 40q0 37 -17 37h-35v-130l16 2l-2 45q0 5 2 7q7 -18 20 -54h17zM527 203q-1 7 -4 22q-7 1 -21 4v28h23v23q-9 1 -25 6
q2 11 3 23q2 3 24 3v21h-41v-130h41zM461 244v30h-35l-2 -20l21 -6q-3 -26 -21 -26q-22 0 -22 53q0 37 22 37q5 0 18 -14q13 7 13 13q0 10 -11 17t-21 7q-18 0 -29 -26q-9 -21 -9 -42q0 -67 47 -67q10 0 19.5 16.5t9.5 27.5zM360 203v130h-14v-107l-38 107h-15v-130h14v103
l37 -103h16zM273 203l-25 130h-21l-26 -130h14q3 25 13 25q2 0 22 -3q6 -9 8 -22h15zM586 292v-6q0 -12 -7 -17l-12 2v37h6q13 0 13 -16zM248 250q-19 0 -23 2q4 22 12 68q4 -18 11 -70z" />
    <glyph glyph-name="e" unicode="e" horiz-adv-x="722" 
d="M701 442q0 -44 -61 -240q-50 -159 -82 -245l-22 -16h-372q-41 123 -83 247q-67 206 -67 257q0 8 2 12q21 37 164 92q135 52 187 52q49 0 188 -60q146 -64 146 -99zM693 433q0 46 -154 107q-140 55 -202 55q-35 0 -171 -58q-145 -61 -145 -91q0 -31 51 -198
q38 -125 67 -209q8 -28 16 -55q13 -31 41 -32l338 -2q17 11 88 226.5t71 256.5zM639 406q0 -16 -8 -30q-8 -17 -23 -17h-27v101h10q17 0 34 -12q14 -11 14 -42zM572 359h-21l-11 29q-4 -5 -4 -12q0 -9 5 -17h-19l-6 95q3 -1 7 -1q3 0 8 1h9q28 0 28 -27q0 -22 -13 -31
q5 -12 17 -37zM512 359h-18q0 9 -5 17h-21q-3 -7 -3 -17l-20 2l26 93h19zM451 454q-22 -46 -22 -63q0 -6 1 -18t1 -18q-6 1 -19 4l1 18q0 19 -4 33q-1 5 -10 25q-6 15 -6 25q14 -1 18 -11l8 -20q5 2 7 10t4 15h21zM388 378l-2 -19h-42q2 1 2 2v2q0 29 -2 85q10 2 34 10
q4 -6 9 -23h-20l-2 -2v-13l22 -3v-17q-8 -3 -20 -2l-2 -2v-13q2 -1 23 -5zM338 446l-26 -87h-13l-29 85q10 6 21 10q4 -22 15 -56q6 12 15 56q5 0 17 -8zM279 359h-23q0 9 -5 17h-21q-1 -1 -5 -14q-2 -7 -12 -9l16 101h23zM203 427q0 -14 -14 -31l14 -37h-17q-4 10 -12 29
q-2 -7 -2 -14t1 -15h-20q3 3 3 18q0 52 -3 77l3 -2q3 0 10.5 1t11.5 1q25 0 25 -27zM142 400q0 2 -8 -29l-27 -14q-15 0 -24 16t-9 33q0 18 9 34t25 16q5 0 18 -5.5t13 -8.5q0 -5 -11 -15q-23 8 -18 8q-18 0 -18 -29q0 -30 18 -30q6 0 15 15q-5 3 -17 3v13q9 6 22 6h12v-13z
M437 -6h-68v12q1 58 -8 83q-11 34 -50 68q-1 0 -30 -23h-7l-14 125l125 -46q-11 -9 -33 -31q39 -32 62 -84t23 -104zM619 402v6q0 -4 -3 19q-5 2 -16 8v-53h5q14 0 14 20zM551 421q0 4 -11 14q-2 -6 -2 -13t2 -13q11 5 11 12zM486 394q-2 19 -7 37q-4 -22 -8 -37h15z
M248 394q-2 14 -7 39q-3 -20 -9 -37q3 -2 16 -2zM186 422q0 9 -12 13v-25h5q7 0 7 12z" />
    <glyph glyph-name="f" unicode="f" 
d="M707 439q0 -39 -63 -239q-46 -149 -82 -250l-20 -15h-381q-32 79 -89 255q-64 200 -64 241q0 31 11 46q9 12 40 29q18 10 139.5 56t130.5 47q3 1 17 1q62 0 205 -59q156 -64 156 -112zM701 437q0 45 -155 107q-141 57 -202 57q-48 0 -184 -58q-144 -62 -144 -98
q0 -37 68.5 -255.5t87.5 -242.5l368 -2q14 8 87.5 231t73.5 261zM656 357q-4 -2 -14 -2h-13q-21 35 -39 78q-3 -1 -1 -77q-16 1 -26 0l-6 145q13 -5 34 -22q10 -29 39 -85q1 1 1 74q9 -6 25 -20v-91zM547 428q0 -26 -12 -48q-15 -27 -39 -27t-38 33q-11 25 -11 54
q0 28 10 49q13 28 38 28q21 0 38 -35q14 -30 14 -54zM429 359q-4 -2 -13 -2q-14 0 -14 10q0 22 1 66t1 66q0 8 25 24v-164zM392 486q-6 1 -12 1t-11 -1v-129h-25v129q-7 2 -21 2q0 17 3 50q22 -3 66 -14v-38zM312 431q0 -76 -43 -76q-33 0 -40 45q-2 35 -3 71q0 3 -1.5 10.5
t-1.5 11.5v21q13 5 31 6v-108q0 -6 5 -13t11 -7q15 0 15 30v104h27v-95zM220 357h-24q-6 27 -8 27q-5 0 -31 -3q-5 -1 -5.5 -12t-2 -12t-20.5 -8l32 166q5 -2 28 -6zM581 154q-1 -21 -13 -36q-16 -21 -20 -31q-10 1 -53 3l-4 10l-10 7q-9 -4 -5 -18h-24q-2 15 -8 43h-7
q-3 -14 -6 -29.5t-20 -15.5l-3 10l-14 10q-4 -6 -10 -20l-20 3q-1 1 -3 16q-3 12 -7 12q-15 0 -11 -27h-28l1 12q1 17 -9 17q-12 0 -7 -29h-58q1 14 -1 22q-6 -5 -19 -16l-8 2q-14 -14 -26 -14q-36 0 -46 48q-4 20 -4 75q0 34 11 53q0 1 33 39q25 -5 55 -23q6 11 5 19h27
q-1 1 -1 -21q0 -8 10 -8t35 6q3 9 2 23h28q6 -12 22 -35q9 1 9 25l1 10h27l3 -14l10 8q9 -7 15 -10l2 12q2 0 27 4q1 -6 5 -18q7 5 23 7l6 8q36 3 57 3q2 -9 7 -26q23 -13 24 -57v-59zM127 495q-2 -11 -6 -52q-14 7 -17 7q-11 0 -20.5 -15t-9.5 -27q0 -9 7.5 -17.5
t17.5 -8.5q9 0 22 16v-37q-16 -8 -28 -8q-44 0 -44 51q0 48 63 80q5 4 15 11zM525 432q0 8 -11 28t-18 20q-8 0 -20.5 -17t-12.5 -25q0 -9 13 -28.5t21 -19.5q10 0 19 16t9 26zM547 97v33q-11 1 -32 5v11q0 19 6 30q12 1 24 1v33q-15 0 -30 5v12q0 30 10 30t22 -4v33h-51
v-189h51zM183 412q-4 18 -10 56q-8 -37 -13 -58q16 2 23 2zM470 97l-13 189h-19q-8 -62 -21 -129l-17 129h-21l-12 -189h9q5 0 8 4q5 97 5 110q0 5 6 13l17 -127h11q13 71 13 112q0 11 8 13l9 -125h17zM340 97v189h-20v-189h20zM295 97v39q-5 -1 -10 -1h-10q-6 1 -10 1v150
h-19v-189h49zM219 162q0 34 -19 50t-19 19q0 30 13 30q-1 0 16 -10q5 20 5 29q-14 12 -27 12q-24 0 -24 -73q0 -19 18.5 -34.5t18.5 -38.5q0 -22 -15 -22q-5 0 -17 24q-11 -27 -11 -32q0 -23 37 -23q24 0 24 69z" />
    <glyph glyph-name="g" unicode="g" horiz-adv-x="731" 
d="M707 437q0 -36 -62 -237q-54 -177 -81 -249l-28 -18l-377 2q-153 422 -151 496v31q3 22 149 85q141 60 173 62q4 3 21 3q64 0 204 -61q152 -66 152 -114zM584 95q0 18 -15.5 25.5t-15.5 14.5q0 15 12 15q5 0 11 -4l4 17q-10 6 -17 6q-24 0 -24 -43q0 -18 15.5 -24.5
t15.5 -19.5q0 -14 -14 -14q-3 0 -8 5l-6 6q-2 -7 -7 -21q9 -8 18 -8q31 0 31 45zM701 436q0 47 -154 109q-141 56 -204 56q-44 0 -182 -57q-147 -61 -147 -94q0 -39 47 -188q61 -187 64 -202l4 5v6l2 36q17 20 35 17l4 -9q9 0 15 6.5t13 6.5q14 0 12 -10q7 3 16 10q6 6 18 6
q4 0 4 -8l-6 4l-13 -7q-4 -25 -13 -75l-13 76l-13 -2q-4 -27 -13 -80q-4 26 -13 78l-15 -2l21 -111h9q8 12 12 34l6 36q2 -1 12 -64h15l20 105l14 -4q11 28 37 28q15 0 28 -16l22 9l4 10l12 3l8 -2l3 -22l22 9l-2 19l19 2l6 -10l8 6l14 -6l8 11l16 4l4 -3q0 -4 -3 -6t-5 -1
t0 5l-14 -7q-5 -28 -17 -83l-3 3q-4 33 -15 80h-15q8 -37 27 -113l13 5l26 105l16 6v-96l-12 8l-23 -8l-6 -22q-13 -6 -39 6l-6 -12q-15 0 -38 -3l-8 9h-12q-6 1 -22.5 -4t-51.5 -5l-24 -3l-7 -9l-13 -4q-15 6 -25 6l-4 -8l-15 -4q-8 9 -20 9l-8 -1q4 -16 9.5 -34t18.5 -28
l367 -4q21 14 33 54q9 32 19 64q-21 -19 -38 -17l-21 12l-11 -14q-27 -3 -33 -3l-11 1l2 4q28 0 41 5l-2 18l-21 2v24l21 4l-2 19l-19 -2l-2 23l25 5v17q-12 2 -41 -6v8l37 4l21 -11q4 17 29 17q11 0 19 -7l-2 -8l7 1q11 0 14 -20l2 -28q27 85 55 171q41 129 41 156zM390 33
v20q-6 -1 -13 -1q-6 0 -12 1v90q-10 0 -15 -1v-115q24 3 40 6zM330 88q0 13 -9.5 31.5t-20.5 18.5q-21 0 -33 -22q-9 -17 -9 -41q0 -56 33 -56q20 0 31 26q8 20 8 43zM644 333h-10q-12 0 -54 14v134q9 1 9 0l55 -27v-31q-15 9 -32 16l-1 -2v-17q11 -4 31 -15v-21
q-10 3 -29 8l-2 -2v-16q19 -7 33 -10v-31zM570 345h-8q-23 0 -30.5 19.5t-14.5 39.5q-2 -2 -2 -35v-22q-14 -4 -22 -8l-10 178q34 -2 57 -18q26 -19 26 -52q0 -5 -6 -27q-6 -4 -17 -12q9 -22 27 -63zM478 351q-4 -2 -13 -2q-11 0 -13 2t-2 12t-6 19h-35q0 -1 -8 -31
q-8 -7 -26 -16l34 197h34zM388 544l-37 -193h-26l-17 94q-7 -28 -16 -94q-7 -7 -28 -20l-27 196q7 -1 28 0l12 -92l3 -4l15 101q8 1 23 4q7 -36 14 -96l3 -3q4 3 15 99q9 3 38 8zM431 283q-1 -6 -6 -17q0 -1 -14 -1q-8 0 -13 -4v-9q6 -1 13 -1t13 1v-18h-25q-1 -15 0 -33
h-25q2 10 2 21v10q0 -10 -2 51h57zM230 486q-12 -3 -35 -12v-20q2 -3 7 -3q4 0 11.5 1.5t11.5 1.5h1l2 -34q-11 -3 -33 -8v-23q3 -3 8 -3t13 1.5t12 2.5v-31q0 -11 -4 -18l-57 6v154q21 15 53 33q3 -16 10 -48zM365 240q0 -15 -14 -28.5t-30 -13.5t-29 13.5t-13 29.5
q0 17 13.5 30t29.5 13t29.5 -14t13.5 -30zM150 388q0 -32 -27 -40q-26 -3 -52 -7q-8 59 -8 88q0 12 27.5 32.5t41.5 20.5q13 0 13 -25q0 -27 -16 -35v-3q4 -2 13 -5q8 -15 8 -26zM313 80q0 -38 -21 -38q-19 0 -19 33q0 11 6 25t14 14q20 0 20 -34zM537 448q0 25 -21 28v-41
l11 -2q10 6 10 15zM439 418l-12 71q-13 -62 -13 -61v-10h25zM348 240q0 6 -10.5 15.5t-16.5 9.5q-5 0 -14.5 -9t-9.5 -15t9 -14.5t15 -8.5q7 0 17 8t10 14zM119 439q0 5 -4 9q-2 0 -19 -6v-25q23 12 23 22zM123 388q0 3 -2 6l-2 3h-3q-7 -1 -20 -2v-25h10q6 0 11.5 6t5.5 12
z" />
    <glyph glyph-name="h" unicode="h" horiz-adv-x="734" 
d="M705 64q-23 -18 -31 -18l-622 4q-10 0 -38 20l-4 409q24 16 38 16l621 -2l28 -18zM557 372q0 51 -23 51h-20l-6 -168h11q1 20 6 59h8q12 -1 18 24q6 18 6 34zM427 394v29h-30l-8 -168h33v31q-7 1 -20 5v7q-1 13 6 27q6 0 16 3v26q-7 1 -20 6q2 11 4 23.5t11 12.5
q4 0 8 -2zM377 376q0 47 -27 47h-12l-8 -170h10l5 72q3 -2 13 -72h13l-12 64q18 40 18 59zM697 93l-6 183l-26 -17q0 2 -7 30q-6 19 -6 30l9 18t9 42q0 27 -11 41q-16 6 -31 1v8h23q11 0 17 -14.5t12 -14.5l7 2q-2 15 -2 69q-11 14 -33 15l-597 4q-14 0 -33 -15v-77
q6 14 16 17q5 1 25 1l17 17q20 -2 32 -33l12 -8q4 4 8 39h33l9 -18q6 -11 15 -11q1 19 6 29l16 -4v-31h17q1 12 8 35h3q14 0 15 -30v-3h9q1 1 7 21q2 10 17 10l4 -3l2 -22h18l20 10l4 15h31q8 -14 15 -39h7q1 13 1.5 26t13.5 13q11 0 31 -3l-2 -10l13 5l12 -5l3 13h25v-23
h24q1 8 2.5 15.5t11.5 7.5q27 0 40 -14l11 14h39q-1 -8 -14 -9q-11 1 -23 2l-9 -167h32v33l-17 3q0 12 1.5 24t11.5 12q4 0 8 -1q0 13 2 30l-19 4q0 14 5 33l18 3l2 15q0 -11 9 -11l5 2l4 15l-10 -159l13 -3q2 25 7 74q6 -17 12 -74l16 2l3 -6l-3 -4h-41l-9 4v10l-7 2
l-8 -13l-18 -1q-32 -1 -60 10l-4 -10h-13q-2 2 -2 20q0 9 -9 11v-31l-20 2l2 20l3 -16h9l2 3l-12 165h-17l-29 -168h11q3 7 3 19t12 12l19 -5v-5q0 -4 -7 3q-26 -6 -24 -30q-59 0 -63 2l-3 15h-7l2 -13l-14 -4q-8 0 -13 18l-10 -20h-12l-6 9q-18 6 -29 5l1 -4q0 -10 -12 -10
q-9 0 -9 10l-2 8q-5 -1 -8.5 -9.5t-9.5 -8.5l-9 8h-11l-4 -8h-13l-12 12l-4 -12h-15l-4 14l-9 -11l-29 -3q-29 -2 -43 10l-13 -9l-11 -1q7 1 -52 14v-166q0 -33 28 -33l571 -6q43 -1 50 1q25 7 24 36zM287 253v170h-13l-16 -111l-4 5q-2 35 -6 106h-13l-16 -166l9 -4
q4 38 14 113q7 -48 7 -108l6 -5q6 38 20 113q2 -2 2 -111zM205 423h-9l-8 -168l11 2zM174 379q0 24 -10 44h-29l-10 -164q0 -4 2 -4h9q2 25 8 74q3 -25 13 -74h13l-12 63q0 1 6 12.5t7 15.5q3 14 3 33zM111 326v23h-27q-1 -9 -4 -27q7 -2 18 -9q-4 -33 -20 -33t-16 55
q0 59 22 59l15 -16q8 13 8 18q0 9 -7.5 20t-16.5 11t-21.5 -21.5t-12.5 -92.5q0 -33 16 -58h22q24 34 24 71zM656 375q0 -1 -6 -32h-11v47h11q6 -13 6 -15zM543 370q0 -9 -3 -17q0 -1 -5 -6h-8q-1 10 -1 14v11q0 18 1 18h10q6 -10 6 -20zM476 314q-2 -1 -5 -1h-2q-2 0 -6 1
h-6l13 97zM363 371q0 -9 -8 -30h-11q1 14 1 24v6q0 9 -1 19h11q8 -9 8 -19zM558 214q-14 -25 -28 -49q-5 -10 -5 -64h-27v45l-35 74q10 -2 30 -7q6 -11 16 -32h3l16 33h30zM474 102h-62l-8 94q0 7 13 11q19 7 20 7q2 -3 2 -86q9 -2 17 -2q9 0 18 2v-26zM160 368
q0 -22 -15 -29q-1 6 -1 16v18q1 11 1 17q6 0 12 -5q3 -22 3 -17zM388 103q-4 -2 -14 -2h-12q0 1 -44 70v-69h-31v102q10 3 29 10l45 -72v72h27v-111zM273 157q0 -23 -16.5 -40.5t-39.5 -17.5q-22 0 -38.5 18t-16.5 40q0 23 17 41t39 18q19 0 33.5 -14t18.5 -34
q0 -1 1.5 -4.5t1.5 -6.5zM254 157q0 8 -14.5 20t-22.5 12q-10 0 -20.5 -11t-10.5 -21q0 -8 11.5 -20.5t19.5 -12.5q9 0 23 12.5t14 20.5z" />
    <glyph glyph-name="i" unicode="i" horiz-adv-x="756" 
d="M709 271q1 -19 -167 -182t-186 -162l-16 1q-72 62 -168 165q-80 88 -160 175l2 22q58 70 162 168q85 81 170 161l7 1q33 0 355 -334zM703 273q0 17 -332 337l-11 1l-10 -1q-197 -185 -328 -322l-2 -17l2 -8q36 -50 154 -167q97 -96 170 -161h11l12 1q72 65 182 173
q152 149 152 164zM551 346q0 -45 -34 -44h-13v88h14q33 0 33 -44zM492 304h-29l-2 17q0 -3 2 65q6 2 16 2q7 0 11 -2l2 -15q-12 0 -18 -2v-11q3 -2 16 -2v-19h-3q-6 1 -13 -1v-11q6 -1 18 -4v-17zM453 371q-5 -1 -14 -6v-61h-15v63q-4 1 -12 4v27h11q5 0 30 -11v-16z
M533 223q-15 0 -45 2l-3 -3v58q22 4 46 6q-1 -14 -10 -15.5t-19 -3.5v-6q5 -2 11 -2t12 2v-13h-23v-7q2 -1 20 -4q11 -2 11 -14zM404 304h-15l-21 49q-1 -9 -1 -20q0 -14 1 -29h-18v95q13 -2 24 -27q8 -18 16 -37q1 1 1 53q1 -1 10 -6q3 -29 3 -27v-51zM475 245
q0 -8 -10 -14.5t-19 -6.5q-5 0 -22 8q3 4 6 11q12 -7 17 -7t8 3v5l-18 8q-11 5 -11 13q0 6 7.5 12t19.5 5q15 -1 19 0q0 -7 -8 -15q-4 4 -6 4h-9l-4 -4v-1q0 -2 15 -8t15 -13zM340 320q0 -18 -24 -18q-7 0 -15 6.5t-8 14.5v67h15v-62q0 -7 8 -7q10 0 10 13v56h14v-70z
M416 252q0 -28 -32 -28q-24 0 -28 18.5t-6 37.5h23q-1 3 -1 -24q0 -13 6 -19h12q6 8 7 41v2h19v-28zM287 304h-13q0 6 -4 14h-19q-3 -8 -3 -18q-4 -1 -11 -2l15 92h17l18 -75v-11zM342 253q0 -12 -12 -20.5t-24 -8.5q-13 0 -25.5 9t-12.5 21q0 11 12.5 19.5t24.5 8.5
q37 0 37 -29zM227 304h-14q0 -2 0 20q0 9 -3 15h-13q-4 -7 -4 -17v-18h-15l-8 82q7 1 21 4q2 -8 2 -17t-2 -17h21q1 7 1 16t-1 18h15v-86zM261 220q-10 4 -22 4q0 18 -1 25h-22v-23h-20q-5 17 -8 54h27v-20q3 -1 7 -1q14 0 15.5 2.5t1.5 18.5h19q3 -34 3 -60zM445 90h-6
q-12 0 -41 -2l-3 -6l21 -76h-107q0 16 6 40q9 39 9 40q-6 4 -20 4q-4 0 -27 -2l-3 -2l80 105l5 -1q29 -34 86 -100zM535 346q0 24 -13 24h-6v-46h7q8 3 9 6q3 8 3 16zM267 335q-2 19 -6 37q-3 -12 -7 -37h13zM326 253q0 5 -7.5 10.5t-12.5 5.5q-18 0 -25 -19q17 -12 24 -12
q4 0 12.5 5.5t8.5 9.5z" />
    </font>
</defs>
</svg>
