<?xml version="1.0" standalone="no"?>
<!DOCTYPE svg PUBLIC "-//W3C//DTD SVG 1.1//EN" "http://www.w3.org/Graphics/SVG/1.1/DTD/svg11.dtd" >
<svg>
<metadata>
Created by FontForge 20120731 at Fri Oct 18 14:38:12 2019
 By www-data
Copyright (c) 2012 by Kimberly Geswein. All rights reserved.
</metadata>
<defs>
<font id="JandaAppleCobblerSolid" horiz-adv-x="499" >
  <font-face 
    font-family="Janda Apple Cobbler Solid"
    font-weight="400"
    font-stretch="normal"
    units-per-em="1024"
    panose-1="2 0 5 7 0 0 0 2 0 2"
    ascent="819"
    descent="-205"
    x-height="530"
    cap-height="986"
    bbox="-376.596 -553.067 1468 1316"
    underline-thickness="0"
    underline-position="0"
    unicode-range="U+0020-2212"
  />
<missing-glyph horiz-adv-x="500" 
 />
    <glyph glyph-name=".notdef" horiz-adv-x="500" 
 />
    <glyph glyph-name=".null" horiz-adv-x="0" 
 />
    <glyph glyph-name="nonmarkingreturn" horiz-adv-x="500" 
 />
    <glyph glyph-name="space" unicode=" " horiz-adv-x="406" 
 />
    <glyph glyph-name="space" unicode="&#xa0;" horiz-adv-x="406" 
 />
    <glyph glyph-name="N" unicode="N" horiz-adv-x="917" 
d="M27 0l39 969l93 4l449 -737q-36 97 -65 190t-44 176.5t-13 155t27 125t77 86t137 39.5q49 3 84.5 -12t57.5 -42t31 -62t6 -70.5t-18.5 -68t-42 -55t-64.5 -31t-86 4.5q-26 8 -37 29t-8.5 43t18 39.5t44.5 18.5q-16 -12 -24.5 -27t-9 -28.5t6.5 -24.5t22 -17q29 2 48.5 21
t28.5 46t8 57.5t-12 56.5t-32.5 43.5t-53.5 17.5q-71 -16 -109 -55t-51.5 -94t-6 -122.5t27 -141.5t47 -151t54.5 -150q1 -3 7.5 -21.5t15 -43.5t19 -54t19 -54t15 -43t7.5 -21l-49 -3l-522 891l128 -886z" />
    <glyph glyph-name="A" unicode="A" horiz-adv-x="1415" 
d="M30 184q0 57 29.5 111t76 95.5t103.5 66.5t112 25q40 3 67.5 -12.5t41.5 -39.5t14.5 -53.5t-13.5 -54.5t-43 -41.5t-73 -15.5q-29 0 -43 12.5t-16 29t6 34t22 28t33 9.5t39 -20q0 -7 -5.5 -13t-15.5 -6q-14 12 -26.5 8t-18.5 -14.5t-1.5 -22t25.5 -13.5q32 0 52.5 13
t30 32t9 40t-10.5 38t-29 26t-45 3q-50 0 -101 -22t-92.5 -59t-68 -85.5t-26.5 -100.5q0 -42 11 -81.5t33.5 -70t56 -49t78.5 -18.5q49 4 96.5 43.5t90 107.5t79.5 161.5t67.5 206t52 240.5t33.5 266h29q6 -20 15.5 -57t21.5 -83.5t26 -96.5t28 -95.5t27 -81t23 -52.5
l353 242l44 -49l-377 -242q8 -29 35.5 -70t66.5 -85t84.5 -85.5t89 -71.5t81 -44t59.5 -1q27 7 45.5 20.5t30 30.5t16.5 37.5t6 40.5q-3 39 -20.5 70t-42.5 51.5t-54.5 31t-56.5 8.5t-48.5 -16.5t-30.5 -42.5q0 -13 11 -19.5t23.5 -6t23.5 7t11 19.5l27 -2q2 -31 -18 -47
t-45 -16.5t-47.5 14.5t-24.5 46q6 39 30.5 63.5t59 33.5t74 2t74.5 -30.5t61 -63.5t33 -97q0 -56 -23.5 -105t-63 -86.5t-91 -59t-106.5 -21.5q-48 9 -85.5 35.5t-67 64.5t-53 84t-43.5 94.5t-38.5 95.5t-38.5 88l-97 -65q-9 -36 -21 -83.5t-30 -98t-43 -100.5t-60 -90.5
t-82 -69t-108 -35.5q-30 -6 -66.5 -1.5t-72.5 18.5t-70 38t-59.5 58t-41 77t-14.5 95zM718 473l58 44q0 1 -2 5t-7.5 18t-15.5 42t-26 76z" />
    <glyph glyph-name="m" unicode="m" horiz-adv-x="729" 
d="M6 536l180 4q1 -42 0.5 -67t-2 -38.5t-2.5 -17.5l-1 -4q13 10 32.5 31.5t40.5 42t40 35t30 11.5q25 6 39.5 -5t21.5 -36.5t7 -65.5t-5 -92q18 37 43 72t49.5 63t47 45t36.5 17q29 11 49.5 -8t35.5 -58.5t26 -95t20.5 -118t19 -127.5t21.5 -123l-158 -6q8 110 11 189
t2 132.5t-5 85t-9.5 48.5t-12 22.5t-13.5 6.5q-13 -5 -30 -20t-34 -35.5t-33.5 -45t-29 -48t-20.5 -44t-8 -33.5q0 -27 0.5 -51.5t2 -53t5 -65t8.5 -88.5l-75 3q7 129 11 215t4 140t-3 81.5t-9 38t-14 10t-18 -1.5q-18 -15 -37 -33t-36 -37.5t-31 -38.5t-22 -35l-50 -339
h-56z" />
    <glyph glyph-name="c" unicode="c" 
d="M146 1q-59 19 -87.5 64t-33.5 101.5t11 118t46.5 113.5t72.5 88t89 42q35 4 63.5 -3t49.5 -17.5t34.5 -20.5t18.5 -13l3 20l44 -3l-3 -106l-44 5q-1 8 0.5 21.5t2.5 21.5q-5 10 -25 22t-45 18.5t-50 4.5t-41 -19q-24 -26 -41 -66.5t-26 -85t-10.5 -90t5 -82t21 -60
t37.5 -25.5q28 -5 61.5 -1.5t64.5 18.5t54 42t29 68l38 -2q-7 -57 -38 -93.5t-77.5 -56t-104.5 -25t-119 0.5z" />
    <glyph glyph-name="O" unicode="O" horiz-adv-x="786" 
d="M440 7q-26 -10 -61 -13t-73.5 2.5t-78 20t-75 40.5t-64 64t-45.5 89q-19 84 -25 175t5 178t41 164.5t82.5 135.5t129 90.5t180.5 29.5q97 -19 160.5 -69t99 -119.5t45.5 -152.5t-1 -168t-40.5 -165t-72 -144.5t-95.5 -107t-112 -50.5zM420 936q-46 -19 -79.5 -66
t-55 -111t-31.5 -140.5t-9.5 -154t11.5 -150.5t30.5 -131t48 -94.5t64.5 -41.5q70 15 120 61t81 111t44 143t10.5 157.5t-20 154t-47.5 132.5t-72.5 93.5t-94.5 36.5z" />
    <glyph glyph-name="I" unicode="I" horiz-adv-x="516" 
d="M189 36l-30 906q5 1 -6 1q-10 0 -36.5 -0.5t-85.5 -2.5l3 41l471 5q0 -2 1.5 -8.5t2 -13t0 -12.5t-3.5 -7l-115 -6l-117 -903l214 10l-1 -43l-448 -13l-4 37z" />
    <glyph glyph-name="W" unicode="W" horiz-adv-x="1208" 
d="M10 920l267 78l215 -866l120 409l62 6l159 -351q11 62 19 146t19 174t28 177t46.5 154.5t74 107t110.5 35.5q31 -16 44.5 -36.5t14 -42.5t-9 -43.5t-23 -37.5t-28.5 -25t-26 -7l-18 32q32 16 45.5 36t13 38t-12 30.5t-30 13t-41 -13.5t-44.5 -50q-26 -42 -39.5 -109.5
t-18.5 -148.5t-4.5 -169.5t3.5 -172.5t6.5 -156.5t3.5 -122.5l-228 -10l-123 361l-103 -351h-89z" />
    <glyph glyph-name="d" unicode="d" horiz-adv-x="679" 
d="M17 129q2 53 21 102.5t50 92.5t72.5 77.5t90 56t101 29t106.5 -3.5l-24 490l210 21q0 -1 -1.5 -11t-6.5 -38t-13.5 -78t-22.5 -132t-35 -199.5t-49 -280.5q-12 -72 -12.5 -114.5t5.5 -65.5t15 -30t17 -8q24 -4 40 9t26 33t14 44t5 43h34q3 -30 -6 -64t-28.5 -60t-49 -38
t-67.5 1q-28 21 -38.5 46.5t-12 56.5t2 68.5t5.5 82.5q-23 -40 -60.5 -85.5t-83.5 -84.5t-97.5 -64.5t-100.5 -25.5q-28 0 -48 11t-33 29t-19.5 41.5t-6.5 48.5zM173 216q0 -15 3 -34.5t10.5 -37t20 -29.5t31.5 -12h13q39 15 76.5 43t67 64t47 78.5t17.5 86.5q0 39 -12 61
t-53 22q-47 0 -87.5 -20.5t-70 -54.5t-46.5 -77.5t-17 -89.5z" />
    <glyph glyph-name="n" unicode="n" horiz-adv-x="481" 
d="M173 536l-18 -130q24 16 50 38.5t53 43t55.5 34.5t59.5 14q32 4 47 -23t19.5 -73t1.5 -105.5t-5 -120.5t-0.5 -117.5t13.5 -96.5h-156q7 29 15.5 72.5t16 92.5t14 99t10 92t3 71.5t-6.5 37.5q-4 10 -11 17t-26.5 -1t-55.5 -36t-97 -86l-72 -357l-48 -4l-21 535z" />
    <glyph glyph-name="J" unicode="J" horiz-adv-x="640" 
d="M150 896l571 128l12 -42l-142 -35q7 -36 12 -97t5.5 -136t-6.5 -158.5t-25.5 -165.5t-49.5 -156t-79 -130.5t-115.5 -89.5t-157.5 -32q-53 1 -90 27t-56 66t-20 87t17.5 89.5t56.5 74.5t97 42q34 2 57.5 -9.5t36.5 -30.5t15.5 -42t-5.5 -43.5t-27 -35.5t-48 -19l-20 28
q35 7 51 22t18 31t-9 31.5t-29.5 24.5t-44 8t-52.5 -17q-26 -16 -43.5 -43.5t-25 -59.5t-4 -65t19.5 -61.5t44.5 -48.5t72.5 -25q69 11 113.5 53.5t70.5 104t35.5 137.5t8 154.5t-12 153t-24 134.5t-28.5 99.5t-25 46.5l-167 -39z" />
    <glyph glyph-name="B" unicode="B" horiz-adv-x="649" 
d="M14 918l260 73l7 -50q29 7 65.5 10.5t74 0.5t73.5 -14t64.5 -34t45.5 -59.5t18 -90.5q0 -45 -17 -86.5t-41.5 -75t-51 -58t-44.5 -35.5q61 12 93.5 3.5t47.5 -25.5t18 -36t4 -27t1.5 -29.5t-9 -52t-33.5 -67.5t-72 -76.5t-124 -79.5t-190 -76l-5 -20l-68 -6zM204 73
q31 7 72 19.5t84 32t84 47t71.5 64.5t46.5 84t9 106q-14 29 -35.5 38t-60.5 -3t-101 -44.5t-158 -85.5zM224 392q87 42 145.5 82t96 76t57 66.5t28.5 55t10.5 42.5t2.5 27q6 55 -22.5 92t-74.5 54.5t-99 15.5t-96 -23z" />
    <glyph glyph-name="e" unicode="e" horiz-adv-x="570" 
d="M30 250q7 28 20.5 60.5t32.5 63t42 58t49 46.5q42 26 92 45t97 18.5t86 -25.5t60 -87q4 -13 -10 -31t-39 -39.5t-58 -44.5t-67.5 -47t-66 -47t-53.5 -44q-3 -11 -2 -26.5t5.5 -30.5t13 -26.5t21.5 -14.5q23 -13 52 -16.5t59.5 2.5t58.5 19.5t49.5 34.5t32.5 47t7 57
q1 -1 8 1t15 5t14 5.5t6 1.5q7 -60 -27 -107t-91 -78t-127.5 -44t-137.5 -5q-39 -1 -71.5 17.5t-53 51.5t-26 79t8.5 101zM180 408q1 -23 3 -42.5t5 -38.5t7 -38.5t9 -42.5q8 7 34.5 19.5t56 29t56 38t34.5 46.5q6 26 -2.5 44.5t-26.5 29t-42 13.5t-49 -2.5t-47.5 -19.5
t-37.5 -36z" />
    <glyph glyph-name="P" unicode="P" horiz-adv-x="880" 
d="M290 70q-67 -56 -116 -72.5t-81 -3t-48.5 53t-19 94.5t8 121.5t32 135.5t54 135t73.5 120l-58 286h-91v37l389 12l-3 -37l-67 -4l4 -130q33 29 81 60t101.5 55.5t107.5 39.5t99 12t75.5 -27.5t37.5 -77.5q-4 -88 -47 -158t-107 -119t-140.5 -76t-147.5 -29
q-32 6 -46.5 23.5t-16.5 38.5t7 41t26 33t39.5 14t47.5 -16l-24 -27q-14 12 -26 11.5t-20.5 -9t-11.5 -21t1 -25t15.5 -22t32.5 -10.5q48 0 90.5 24t75 61.5t51.5 84.5t19 92q0 39 -16.5 59.5t-58.5 20.5q-35 0 -70.5 -10.5t-68.5 -28.5t-62.5 -41.5t-52.5 -49.5
q-3 -51 -4.5 -111.5t-2.5 -126.5t-1 -134t-1 -134t-2.5 -126.5t-4.5 -111.5l-31 -3zM211 599q-21 -37 -40 -85t-33.5 -99t-23 -102t-9 -94t8.5 -75t30 -44.5t54.5 -3t82.5 49.5z" />
    <glyph glyph-name="o" unicode="o" horiz-adv-x="519" 
d="M14 165q-14 66 0 124t46.5 104.5t78 79.5t95.5 48.5t99.5 11.5t88.5 -30.5t63 -78t24 -131.5q-2 -66 -32.5 -122.5t-77 -96.5t-103 -59.5t-110.5 -12t-100 46.5t-72 116zM188 444q-11 -5 -21 -27.5t-17.5 -55.5t-11 -73t-1.5 -78.5t10.5 -72.5t24.5 -55t41.5 -25.5
t61.5 15.5q31 24 50.5 69t26.5 95.5t1 100t-26 83t-54.5 43t-84.5 -18.5z" />
    <glyph glyph-name="X" unicode="X" horiz-adv-x="892" 
d="M498 374q-99 -150 -184 -243t-154 -128q-38 -14 -67.5 -5t-48.5 30t-25.5 50.5t1 56.5t30.5 47t64 24q28 3 45 -7.5t23.5 -26t4 -33t-13.5 -29.5t-29.5 -15t-42.5 10q-3 8 1 15t10 8q1 1 2 1t2 1q16 -8 27.5 -3t14 15.5t-5 21t-27.5 12.5q-31 -3 -48.5 -16.5t-23.5 -31.5
t-2 -38t15.5 -34.5t28.5 -21.5t38 0q32 3 73 39.5t81 93t75 126.5t55 142l-359 378l21 13t52.5 32t68.5 41.5t68.5 42t53.5 32.5t24 14l179 -330l135 326l239 -103l-304 -364l269 -507l-26 -13z" />
    <glyph glyph-name="f" unicode="f" horiz-adv-x="510" 
d="M126 -7q1 -22 0 1.5t-3.5 73t-5.5 116t-6 130.5t-4.5 116.5t-1.5 73.5l-99 -4l2 34l96 2q1 43 2 94t7 102t19.5 98.5t38 84t62.5 58t95 21.5q49 2 85.5 -18t58.5 -51.5t29 -69.5t-3.5 -73t-39 -62t-76.5 -36l-5 29q30 7 50 26t29.5 44t8.5 53.5t-12.5 53t-34 43
t-55.5 24.5q-53 -4 -89 -33.5t-53.5 -82t-15.5 -127.5t25 -170l188 -1v-38l-176 -4l94 -503z" />
    <glyph glyph-name="C" unicode="C" horiz-adv-x="654" 
d="M32 227q-17 87 -5 171.5t43.5 161.5t78.5 144.5t100.5 120.5t110 89.5t106 52t88.5 7.5t59 -44l-33 -23q-25 29 -62 24t-78.5 -36t-83.5 -83.5t-75.5 -117.5t-55 -138.5t-22.5 -146.5q-3 -79 16.5 -131t53 -79t77 -31.5t88.5 12.5t88.5 53.5t76.5 90.5l46 -12
q-11 -31 -38.5 -70t-65.5 -78t-84.5 -73t-95.5 -56t-98.5 -27t-93.5 15t-80.5 69t-60.5 135z" />
    <glyph glyph-name="Q" unicode="Q" horiz-adv-x="908" 
d="M586 -176l-28 209q-9 -7 -36.5 -19t-68 -21.5t-90.5 -11.5t-102 12q-91 24 -143.5 82t-72.5 135.5t-10.5 168t43.5 180t89 171.5t125 141.5t152.5 91t171.5 19.5q38 0 84.5 -25t87.5 -71.5t69 -112.5t28 -149q0 -91 -20 -169.5t-49 -140.5t-60.5 -107.5t-55.5 -70.5
l83 -157zM273 371q-1 -90 19.5 -161t58 -110.5t89 -41t112.5 46.5l-14 276l53 29l49 -118q39 41 63.5 100t33.5 124.5t3.5 132t-25 122t-53 95.5t-79.5 52q-59 0 -114.5 -42t-98.5 -115.5t-69.5 -173.5t-27.5 -216z" />
    <glyph glyph-name="K" unicode="K" horiz-adv-x="627" 
d="M18 985h252l-64 -380l369 383l35 -26l-374 -404l376 -437l-116 -116l-310 503l-64 -507l-66 1z" />
    <glyph glyph-name="p" unicode="p" horiz-adv-x="609" 
d="M15 520q19 29 45 38t48 -4.5t34.5 -52t4.5 -104.5q16 38 54.5 69t87.5 49t101.5 20t96 -17t71.5 -63.5t28 -118.5q-3 -79 -38.5 -145.5t-92.5 -111t-131 -63.5t-154 -2l26 -504l-212 -7q13 42 25.5 107t23.5 144.5t21 170t19 183t17.5 183.5t16.5 171q-2 17 -8.5 33
t-16.5 23.5t-22.5 1.5t-26.5 -32zM234 39q40 0 73.5 23.5t59 61t43 84t25 93t4.5 87.5t-18.5 67t-43.5 32t-70 -17q-12 -6 -35 -21t-46 -52t-40 -102.5t-17 -172.5q0 -39 12 -61t53 -22z" />
    <glyph glyph-name="g" unicode="g" horiz-adv-x="604" 
d="M-40 -336q0 47 16 88t41.5 73.5t59 54t70 31t72.5 4.5t67 -27l-18 -25q-25 19 -56.5 18.5t-60 -18t-50 -51t-26.5 -81.5q-8 -50 3.5 -99.5t39.5 -85t71 -50.5t99 4q59 20 92 62t47.5 97.5t15.5 119.5t-5.5 128.5t-15.5 125t-13 108.5q-20 -33 -56.5 -62t-80 -49
t-88.5 -27t-81.5 4.5t-59.5 44.5t-22 94q0 82 28 155.5t69.5 128t91.5 86.5t94.5 31.5t78 -38t43.5 -121.5q2 17 4.5 39.5t7.5 46.5t14 47.5t25 42.5t40.5 31t60.5 14l-2 -44q-26 3 -44 -7.5t-29.5 -31.5t-16.5 -49t-5.5 -58.5t3.5 -62t10 -58.5q1 -8 10.5 -36t22 -71.5
t26.5 -98t23 -115t10.5 -123.5t-9 -122.5t-36.5 -112.5t-72 -93q-42 -34 -94 -54t-106.5 -24t-106.5 7t-94.5 38t-71.5 69.5t-36 101.5zM193 204q-3 -46 8.5 -74t30.5 -40t43 -9t47 19.5t42 45.5t28 69q5 21 8 53.5t1.5 68.5t-9.5 71.5t-24 63.5q-31 20 -56 14.5
t-43.5 -27.5t-32 -56t-22.5 -70t-14 -71t-7 -58z" />
    <glyph glyph-name="Y" unicode="Y" horiz-adv-x="671" 
d="M202 9l145 608q-86 65 -145.5 110.5t-98 75t-59 46t-30 24.5t-11 10l-1.5 2l294 100l163 -269l160 275l35 -25l-176 -300l55 -666z" />
    <glyph glyph-name="D" unicode="D" horiz-adv-x="836" 
d="M87 20l64 21q-1 13 -3.5 54.5t-5.5 100.5t-7 130.5t-8.5 145t-9.5 144.5t-9.5 129t-9.5 98t-9 51l-73 -19l-9 49q75 25 158.5 40.5t166.5 16.5t161 -14t141.5 -51t109 -96t62.5 -147q2 -118 -22.5 -211t-71 -165t-112 -124.5t-144.5 -90t-169.5 -61t-186.5 -36.5z
M650 615q9 65 -20.5 120.5t-79 96.5t-111 66.5t-118.5 30.5l-56 -890q94 33 158.5 82.5t106 106.5t64.5 117t34.5 113t15 94.5t6.5 62.5z" />
    <glyph glyph-name="q" unicode="q" horiz-adv-x="604" 
d="M577 510q-15 22 -29.5 28t-26 0.5t-19 -19t-8.5 -31.5q13 -79 28 -194t29.5 -249.5t28.5 -281t27 -287.5l-225 -16l57 617q-40 -46 -85.5 -65t-90.5 -17t-86.5 22.5t-74.5 55t-54.5 80t-25.5 97.5q-2 82 25 140t70 93.5t95.5 49t101.5 6.5t88 -34t55 -72q-10 64 2.5 98.5
t36 46t51 2.5t47.5 -33zM302 59q44 1 71 31t39.5 75t12.5 98t-10 100.5t-27.5 82t-40.5 42.5q-42 15 -75.5 4t-57.5 -38.5t-38 -68t-18 -84.5t2.5 -88t24 -78.5t47 -55.5t70.5 -20z" />
    <glyph glyph-name="L" unicode="L" horiz-adv-x="661" 
d="M74 2l-3 44q3 1 14 1.5t24 0.5h24t14 1l-121 930l326 6l-71 -930l355 -3l-1 -43z" />
    <glyph glyph-name="R" unicode="R" horiz-adv-x="745" 
d="M73 0l-58 937l243 45l-8 -122q17 15 40.5 32t51 33t56.5 29t56 19.5t50.5 5t39.5 -14.5q37 -32 46 -77.5t-2.5 -97t-41 -106t-70 -104.5t-89.5 -92t-99 -68q-5 -19 -5 -53t7 -73.5t21.5 -80t38.5 -73.5t58.5 -54.5t82.5 -22.5q35 -1 59 14t38 36.5t20 46t4 43t-10.5 27
t-22.5 -0.5q-9 0 -15 -7t-9.5 -16.5t-4.5 -19.5t-1 -16l-18 -3q-3 10 0.5 28.5t13.5 36t27 31t41 13.5q35 1 56 -13t30 -36.5t8 -50t-10 -54t-24 -49.5t-33 -35q-45 -31 -94.5 -39.5t-96.5 4t-89 45t-73.5 83.5t-48.5 119t-14 152l-34 -13l-41 -388h-76zM446 871
q-3 14 -16.5 22t-33 9t-42.5 -5.5t-44.5 -22t-39.5 -40.5t-28 -60q-3 -15 -6 -42.5t-6 -60t-5.5 -66.5t-4.5 -63t-3 -49t-1 -24q93 64 142 130t70 122.5t21.5 96.5t-3.5 53z" />
    <glyph glyph-name="h" unicode="h" horiz-adv-x="579" 
d="M400 3q17 113 29 198.5t15 144.5t-5 91.5t-32 39.5q-27 8 -64 -12t-74 -53t-69 -71t-50 -66l-35 -277h-59l-53 989h221l-57 -604v-5q32 32 61 63t60 55t65.5 38t77.5 13q36 -3 56.5 -27t31.5 -64.5t15 -93t6 -112t4.5 -123.5t11.5 -125z" />
    <glyph glyph-name="r" unicode="r" horiz-adv-x="444" 
d="M13 512l250 25l-20 -60q36 36 69.5 44.5t59 -1t41 -33t16.5 -53t-15.5 -60t-54.5 -54.5l-25 11q38 43 46.5 74t-2.5 48t-35.5 20t-52 -10t-52.5 -41.5t-36 -74.5q-14 -49 -20.5 -87.5t-9 -75t-1 -75t3.5 -88.5l-112 -17z" />
    <glyph glyph-name="Z" unicode="Z" horiz-adv-x="877" 
d="M220 90q6 -14 38 -25t78 -17t101.5 -4.5t109.5 11t101.5 28.5t77.5 50t37.5 74.5t-17.5 102.5q-21 14 -46.5 14t-48 -13.5t-37.5 -39t-15 -61.5q-19 36 -15.5 64.5t22 48t47 30.5t60.5 11t62 -10.5t51 -33.5t29 -58.5t-6 -85.5q-16 -51 -55.5 -85t-94.5 -55t-121.5 -30.5
t-136 -12.5t-138 -1t-128 5t-105 5t-69.5 -2l529 918q-58 10 -123 4.5t-128.5 -23.5t-121.5 -47t-103 -66l27 182l748 19l-609 -897v0z" />
    <glyph glyph-name="E" unicode="E" horiz-adv-x="681" 
d="M15 966l630 12l13 -121q-48 27 -97.5 39t-99 16t-99 3t-97.5 1l-45 -408l246 14l-4 -63l-241 -13l-54 -371q78 -3 140.5 5t112.5 23t87.5 34.5t65.5 39t47.5 37t32.5 28.5l-9 -215l-606 -18z" />
    <glyph glyph-name="i" unicode="i" horiz-adv-x="262" 
d="M104 0q-2 20 -8.5 57.5t-18 100.5t-27.5 155.5t-36 222.5q92 2 138.5 3.5t65 2l18.5 0.5v0l-82 -542h-50zM114 674q-42 -1 -61 22t-19.5 54.5t15 63t42.5 47.5q36 10 61 2.5t39 -25.5t16 -43t-7.5 -49t-31 -44t-54.5 -28z" />
    <glyph glyph-name="s" unicode="s" horiz-adv-x="426" 
d="M141 5q-42 4 -76 25t-50.5 52t-11.5 68t41 73l17 -22q-6 -5 -15 -23.5t-8 -40.5t18 -43t61 -31q30 0 61.5 4.5t57.5 17t42.5 35.5t16.5 60q5 26 -14.5 40t-51.5 22.5t-71 14.5t-72.5 16.5t-55.5 28t-21 49.5q-8 40 11.5 78t54 66.5t79 44t88.5 10.5q45 -2 72.5 -15
t42 -33t17 -43.5t-2.5 -46.5h-27q4 14 0 32.5t-15 35.5t-28.5 29t-41.5 13q-26 0 -49.5 -16.5t-41.5 -40.5t-29.5 -52t-13.5 -52.5t6.5 -41.5t29.5 -19q90 -8 140.5 -27.5t75.5 -44t31 -50t6 -44.5q-17 -50 -51 -77t-74 -40t-80 -14t-68 2z" />
    <glyph glyph-name="S" unicode="S" horiz-adv-x="709" 
d="M199 -14q-76 1 -120 27.5t-60.5 63t-8.5 74.5t35 62t70 26t96 -34q-30 10 -56 5.5t-45 -17.5t-28.5 -31t-7.5 -36.5t18 -33.5t49 -21q42 -15 86 -7t84.5 31.5t73.5 60t54 78t25.5 85.5t-13 84t-60 72t-116.5 49q-43 12 -85 27.5t-75.5 39.5t-54.5 59t-21 85
q1 75 40 127.5t96.5 83t124 39t123.5 -4.5t94.5 -48.5t37.5 -92.5q-3 -35 -26.5 -62t-51 -36.5t-51.5 3.5t-28 58l32 9q6 -21 22 -28t31.5 -2.5t26 19.5t7.5 38q-7 46 -36 64t-66.5 14t-77.5 -26.5t-68.5 -57.5t-40 -79t8.5 -91q8 -33 32 -53.5t58.5 -34t75 -23t82 -20
t80 -24.5t68 -37.5t46.5 -58.5t15 -87q-3 -64 -26 -114t-59 -88t-84 -64t-101.5 -42.5t-111 -23.5t-113.5 -6z" />
    <glyph glyph-name="M" unicode="M" horiz-adv-x="1412" 
d="M152 -16q-58 3 -89 25t-42 52.5t-4.5 62.5t24.5 55q10 12 26 18.5t32.5 5.5t31.5 -8.5t23 -22.5t6 -38t-19 -53l-25 15q13 33 8 50.5t-17.5 22.5t-27.5 -0.5t-23 -18.5q-10 -16 -12 -37.5t9.5 -42t38 -36.5t73.5 -20q53 11 94.5 57t73 112.5t54 145.5t37 155t21.5 142
t9 106q-3 44 -18.5 85t-37.5 72.5t-48.5 49t-51.5 15.5t-46 -27.5t-32 -81.5l-30 10q9 55 31.5 86t53 40.5t65 -2t67.5 -41t60.5 -75t44.5 -104.5l149 -515q48 165 100.5 288.5t107.5 212.5t110 147t109 92l44 -63q-61 -77 -110.5 -167t-82 -181.5t-47 -179.5t-5.5 -160
t42 -123.5t96 -70.5q40 -10 82.5 11t78.5 59t63 87t37 96t-1.5 84.5t-51.5 52.5q-26 0 -45.5 -10.5t-30.5 -32t-11.5 -53t13.5 -72.5q-32 28 -41 58.5t-1 59t29 53t48.5 40t58.5 20t58.5 -6t49 -38t29.5 -77.5q0 -75 -25.5 -141t-69 -117t-101.5 -84.5t-123 -43.5
q-49 -5 -92 11.5t-79 49t-63 77.5t-43 96t-20.5 105.5t5.5 105.5l-131 -362l-79 3l-112 283q-17 -38 -32.5 -80t-32.5 -83t-37.5 -78t-48.5 -65t-65.5 -45t-88.5 -18z" />
    <glyph glyph-name="j" unicode="j" horiz-adv-x="369" 
d="M-171 -542q-70 1 -116.5 35t-68.5 84.5t-20.5 110t26 112.5t72 91.5t117.5 47.5q34 2 57.5 -9.5t36.5 -30.5t15.5 -42t-5.5 -43.5t-27 -35.5t-48 -19l-20 28q34 7 51.5 22t21 32t-5.5 32.5t-26 24.5t-41.5 8.5t-51.5 -16.5q-39 -24 -59 -80.5t-20 -128.5q0 -27 8 -60
t24.5 -61.5t41 -47.5t57.5 -19q51 3 101 38t90 92t65.5 130t27.5 151q4 117 -4 217.5t-20 178.5t-25.5 129.5t-21.5 70.5l255 27q-1 -27 -2 -87t-6 -140.5t-16.5 -174.5t-33.5 -188t-56.5 -181t-86 -153.5t-122 -106t-164.5 -38.5zM131 646q-29 1 -47.5 15t-27 34t-8.5 44
t8.5 45.5t24 38t37.5 22.5q42 8 72 -3t46.5 -32.5t18.5 -49t-10.5 -52t-41 -42.5t-72.5 -20z" />
    <glyph glyph-name="F" unicode="F" horiz-adv-x="665" 
d="M287 936l-46 -291l216 8l3 -54l-228 -15l-86 -586l-81 -16l-49 1000l539 -1q32 1 55 -11.5t35.5 -32.5t14.5 -44t-8 -45t-32.5 -36t-58.5 -17q-29 0 -43 12.5t-16 29t6 34t22 28t33 9.5t39 -20q0 -8 -5.5 -13.5t-11.5 -5.5h-4q-14 12 -26.5 8t-18.5 -14.5t-1.5 -22
t25.5 -13.5q39 7 54 26.5t10.5 39.5t-27 35t-57.5 14z" />
    <glyph glyph-name="T" unicode="T" horiz-adv-x="683" 
d="M296 -5l-82 912q-77 4 -116.5 -7t-56.5 -24.5t-18 -24t-1 -6.5l-1 137l642 6v-131q-23 15 -40 26.5t-38 18.5t-50 9t-75 -2l-79 -914h-85z" />
    <glyph glyph-name="t" unicode="t" horiz-adv-x="440" 
d="M193 -4l-56 534q-6 -2 -23.5 -2.5t-37 -0.5t-37 -0.5t-23.5 -1.5v39l120 2l-56 409l217 8l-21 -408l150 4l-3 -37l-146 -6l-26 -541z" />
    <glyph glyph-name="a" unicode="a" horiz-adv-x="681" 
d="M494 -16q-30 -1 -45.5 14.5t-23 38t-9.5 48.5t-5 47q-48 -63 -124.5 -99t-169.5 -33q-49 9 -72 42t-25 80t14.5 102t46.5 106.5t71.5 94.5t88.5 65.5t97 19.5t99 -43l20 72l155 -15q-12 -32 -30.5 -75.5t-37.5 -91.5t-36.5 -97t-27 -92t-9 -76t17.5 -50q24 -11 47.5 -5
t43.5 21.5t34.5 38t20.5 44.5l25 -38q-7 -26 -25.5 -47.5t-42.5 -37.5t-50 -25t-48 -9zM139 190q0 -51 27.5 -77t77.5 -26q45 0 76.5 18.5t60.5 51.5q-2 6 0 24.5t6 43t9.5 53t10 55.5t8 50t3.5 36q-23 41 -54.5 51.5t-64.5 -1t-65 -40.5t-55 -68.5t-35 -84t-5 -86.5z" />
    <glyph glyph-name="G" unicode="G" horiz-adv-x="741" 
d="M577 169q-49 -86 -108 -129t-119 -49.5t-116.5 19t-101.5 75t-73 120t-31 153.5q1 88 26 181t67.5 176t100 148.5t123 98t136.5 24.5t141 -71l-22 -17q-52 38 -96.5 44.5t-82.5 -9.5t-69 -50.5t-55.5 -78.5t-42 -93.5t-28.5 -96t-15.5 -86t-2.5 -62.5q-3 -45 3.5 -102
t21.5 -111t38.5 -99.5t54 -68t68 -16.5t81 55.5t91.5 148t101 259.5l-222 -18l-3 48l279 18q-10 -52 -25.5 -106.5t-35 -107.5t-41 -103.5t-42.5 -93.5z" />
    <glyph glyph-name="k" unicode="k" horiz-adv-x="542" 
d="M43 982h222l-102 -613l250 180l17 -25l-231 -178l338 -279l-67 -64l-323 302l-59 -305h-53z" />
    <glyph glyph-name="u" unicode="u" 
d="M404 -2l-20 303q-8 -45 -25.5 -98.5t-45.5 -100t-66.5 -77.5t-89.5 -31q-17 -2 -35.5 0t-36 18t-32 50t-22.5 94t-8 150.5t11 220.5l176 2q-32 -131 -48.5 -218.5t-22 -141.5t-2 -81.5t10.5 -39t15.5 -12.5t14.5 -4q45 5 75.5 34t51 73.5t31 98.5t16 107.5t6 102
t0.5 81.5l124 3l-26 -531z" />
    <glyph glyph-name="U" unicode="U" horiz-adv-x="896" 
d="M25 935l-3 40l336 -1l-4 -36l-64 -3q-4 -55 -8.5 -136.5t-6 -173t1.5 -185t13.5 -171.5t30 -133t51.5 -70q32 -16 63 -1.5t59.5 52.5t53.5 95.5t46 127t37 147t25 156t11.5 153.5t-3.5 139h-70v40l282 3v-43l-48 3q-8 -61 -14 -141t-10 -168t-7 -177t-5 -167.5t-3 -140
t-2 -93.5l44 6q8 -13 6 -25.5t-2 -26.5l-206 -6v45l104 5l-45 412q-15 -51 -30 -105.5t-35 -106.5t-46.5 -98.5t-63.5 -80.5t-86.5 -53.5t-115.5 -16.5q-73 11 -116.5 60.5t-67 125t-30.5 170t-7 195t2.5 200.5t-0.5 187z" />
    <glyph glyph-name="v" unicode="v" horiz-adv-x="590" 
d="M3 515l178 22l112 -421l145 428l136 -32q-50 -18 -86.5 -56t-63 -86t-45 -102t-31.5 -104.5t-22 -93.5t-18 -68l-68 -2z" />
    <glyph glyph-name="eight" unicode="8" horiz-adv-x="570" 
d="M267 1q-79 -5 -129 18t-74.5 64.5t-26.5 96.5t15.5 113t52.5 114t83 99q-66 27 -101.5 72.5t-46 97.5t2 105.5t42.5 97.5t74.5 73.5t99.5 32.5q69 -3 114.5 -23t71 -52t32 -72.5t-2 -84.5t-30.5 -88t-54 -82q60 -40 99.5 -95.5t55.5 -116t8.5 -121.5t-41 -112.5
t-94.5 -88t-151 -48.5zM239 473q-32 -12 -55 -40.5t-36.5 -65t-17 -76.5t4 -76t26 -63t49.5 -37.5t74.5 -0.5t100.5 50q30 28 39 58.5t2.5 61.5t-26 60t-46 54t-57 44.5t-58.5 30.5zM256 930q-30 -10 -39.5 -34.5t-4.5 -56t21 -66t36 -65.5t41 -54t36 -30q27 24 40.5 58
t14.5 70t-9 70.5t-29 60.5t-46.5 39.5t-60.5 7.5z" />
    <glyph glyph-name="ampersand" unicode="&#x26;" horiz-adv-x="783" 
d="M693 39q-3 4 -20.5 15.5t-37.5 24t-37.5 23.5t-21.5 15q-14 -15 -46 -36t-75.5 -40t-94.5 -31.5t-103 -12t-100.5 18.5t-87.5 61q-33 43 -43.5 100t-2 122t32.5 135t59 141q-25 57 -30.5 119t5 117.5t34.5 99t56.5 62.5t71.5 8t80 -63q12 -31 12 -67.5t-7.5 -73.5
t-21 -72t-28 -63.5t-28 -48t-22.5 -24.5q31 -58 66.5 -112t77 -101.5t90 -87.5t105.5 -70q20 15 35 52t24 81.5t12.5 87t1.5 67.5l-90 -9l-2 40l197 5l4 -38l-82 5q5 -32 4.5 -70t-8 -78.5t-22 -81.5t-36.5 -79q0 -1 9.5 -7t24 -15t31 -20t30.5 -20t23.5 -15.5t9.5 -7.5z
M192 474q-12 -22 -19 -53.5t-6 -67t10.5 -72t29.5 -68t52 -55t78 -33.5q4 -3 20.5 -7t40.5 -3t52.5 10.5t54.5 32.5q-66 45 -116 86t-87.5 79.5t-64 75.5t-45.5 75zM259 923q-30 -22 -45 -64t-17.5 -87t5.5 -84t25 -55q14 14 26 41t21 59.5t13.5 66.5t3.5 61.5t-9 44.5
t-23 17z" />
    <glyph glyph-name="underscore" unicode="_" horiz-adv-x="533" 
d="M502 119l2 -99l-474 -24l-2 169z" />
    <glyph glyph-name="zero" unicode="0" horiz-adv-x="647" 
d="M299 2q-53 -6 -97 19.5t-78.5 73t-59 112t-37 138t-13 151t12.5 150.5t40 137t70 109.5t101.5 68.5t134.5 15q63 -9 109.5 -43t77.5 -85t47 -115t19.5 -134.5t-5 -143t-28 -140.5t-49 -127t-67 -101.5t-82.5 -65.5t-96 -19zM303 925q-21 6 -40 -24.5t-33.5 -85
t-23.5 -126t-9.5 -148.5t8.5 -151.5t29.5 -135t54.5 -99.5t84 -44q47 12 77.5 53.5t47 102t19.5 133.5t-5 147t-26.5 143.5t-45.5 122.5t-62 84t-75 28z" />
    <glyph glyph-name="at" unicode="@" horiz-adv-x="1055" 
d="M58 378q-6 123 26.5 211t89 148.5t130 96t149.5 52.5t147.5 19.5t124.5 -3.5q85 -11 147.5 -47t101.5 -90t53.5 -122.5t5.5 -144.5q-17 -73 -56.5 -130t-89.5 -92.5t-103.5 -48t-99.5 3.5t-77.5 63t-36.5 130q-9 -30 -33 -53.5t-55.5 -37.5t-66 -17t-63.5 7.5t-48.5 35
t-20.5 65.5q-3 41 5 83.5t29 77.5t56 57.5t85 22.5q29 0 58 -16.5t50 -34.5v4l-4 66l73 -17q-21 -106 -24.5 -178t6 -116t29 -63t44 -18t51 18.5t49 47t39.5 67.5t22 79q6 87 -19 155t-74 113t-118.5 66t-153.5 14q-85 -25 -145 -75t-97 -113.5t-50.5 -135.5t-5.5 -141.5
t38 -131t80 -103.5t120.5 -59.5t159.5 0.5l-7 -34q-51 -9 -108 -8.5t-112.5 12.5t-107 36.5t-92.5 63t-68 92t-33 123.5zM448 628q-14 -11 -26 -35.5t-20 -55t-11.5 -62.5t0 -57.5t14.5 -41t32 -12.5q32 4 56 25.5t39 50.5t18.5 61.5t-5.5 60.5t-33 46.5t-64 19.5z" />
    <glyph glyph-name="nine" unicode="9" horiz-adv-x="627" 
d="M192 11l176 497q-21 -7 -55 -16.5t-72.5 -15.5t-77 -5t-70 15.5t-51 45.5t-19.5 84q0 59 23 115.5t62.5 103.5t91 82t108 50.5t114.5 8t110 -44.5l11 49l67 -18l-183 -957zM211 672q6 -59 27 -90t73 -31q33 0 61 22t48.5 53.5t32 67.5t11.5 63q0 22 -7.5 51t-21.5 54.5
t-35.5 43t-48.5 17.5q-39 0 -66 -24.5t-44 -62t-24.5 -81.5t-5.5 -83z" />
    <glyph glyph-name="ellipsis" unicode="&#x2026;" horiz-adv-x="752" 
d="M543 70q0 19 7 39t19.5 36t30 26.5t38.5 10.5q15 0 29 -7t25 -18.5t17.5 -26.5t6.5 -30q0 -19 -10.5 -37t-27 -32t-36 -22.5t-38.5 -8.5q-34 0 -47.5 20.5t-13.5 49.5zM284 83q0 19 6.5 37t18.5 31.5t29 22t38 8.5q28 0 46.5 -17t18.5 -48q0 -22 -9.5 -41.5t-25 -34.5
t-36 -24t-41.5 -9q-18 0 -27 5.5t-13 15.5t-4.5 24t-0.5 30zM34 81q0 19 6 40t18 38.5t29 28.5t38 11q38 0 60.5 -20t22.5 -58q0 -21 -9.5 -40t-25.5 -33.5t-35.5 -23t-40.5 -8.5q-29 0 -46 18.5t-17 46.5z" />
    <glyph glyph-name="one" unicode="1" horiz-adv-x="435" 
d="M117 1l197 843q-19 -20 -45.5 -50t-61 -61t-77 -58t-93.5 -39l-6 30q52 15 102 49t93.5 78t77 94t53.5 95h38l-3 -980z" />
    <glyph glyph-name="w" unicode="w" horiz-adv-x="795" 
d="M505 100q1 37 10 80.5t23.5 89t32.5 89.5t37 81.5t37 65.5t33 41l118 -16q-23 -18 -59 -58t-72.5 -105t-68 -156t-46.5 -210l-63 -3l-72 233l-104 -145l6 -84l-76 -8l-228 529l220 28l70 -429l98 133l-45 143l67 28l20 -116l73 106l19 -20l-80 -121z" />
    <glyph glyph-name="asciicircum" unicode="^" horiz-adv-x="415" 
d="M100 533l-95 64l185 223l159 -258l-22 -17l-130 216z" />
    <glyph glyph-name="exclam" unicode="!" horiz-adv-x="348" 
d="M13 917l307 71l-73 -745l-77 -6zM177 0q-27 0 -37 25t-4.5 55t27 54.5t58.5 23.5q23 -1 34.5 -13t14 -29.5t-3.5 -37.5t-18.5 -37.5t-31 -29t-39.5 -11.5z" />
    <glyph glyph-name="two" unicode="2" horiz-adv-x="795" 
d="M791 84q-16 -30 -36 -48t-53.5 -27t-86.5 -11t-133.5 -1t-194.5 4t-271 3q131 219 224 375.5t138 258t38 151.5t-76 56q-34 -1 -69 -11t-66 -28t-55 -44.5t-35 -59t-6.5 -71t31.5 -82.5l-24 -22q-42 63 -39.5 124t35 115t88 98.5t119 74t129 41.5t117.5 0.5t84.5 -48.5
t30.5 -105q0 -8 -2.5 -33.5t-15.5 -69t-41 -104t-79.5 -139.5t-131 -176t-195.5 -212q115 -36 208 -53t161.5 -16t111.5 18t57 49q9 55 -7.5 86.5t-41 39.5t-47.5 -7.5t-26 -55.5q0 -13 8.5 -20.5t18.5 -8t18.5 5t8.5 18.5l27 -2q2 -31 -15.5 -46t-40 -14.5t-42.5 16.5
t-22 47q-1 36 16 60.5t41.5 35.5t52.5 7.5t50.5 -23t34.5 -56t4 -90.5z" />
    <glyph glyph-name="x" unicode="x" horiz-adv-x="508" 
d="M37 -2l154 244l-181 237l145 63l97 -220l116 220l78 -47l-162 -247q34 -93 64 -142t53 -67t39 -11.5t22.5 24.5t2 40t-21.5 36q1 -1 5 1.5t8.5 5.5t8.5 5.5t4 1.5q31 -41 31 -73.5t-18 -51t-46.5 -21.5t-55.5 15q-42 29 -72 72t-59 95l-94 -180h-118z" />
    <glyph glyph-name="parenleft" unicode="(" horiz-adv-x="479" 
d="M7 337q-4 53 8.5 123.5t39 146t64 151.5t83 140.5t96.5 111.5t105 66l12 -27q-19 -6 -44.5 -37t-52.5 -78.5t-53.5 -108.5t-47.5 -127.5t-34 -135.5t-12 -133q1 -74 21 -138.5t53 -119t74.5 -97.5t84 -73.5t82.5 -48.5t70 -21q-7 -7 -19 -24q-11 -14 -29.5 -39t-47.5 -63
q-89 10 -171.5 51t-145.5 109.5t-100.5 162t-35.5 209.5z" />
    <glyph glyph-name="hyphen" unicode="-" horiz-adv-x="462" 
d="M420 362l2 -101l-379 -49l-5 180z" />
    <glyph glyph-name="hyphen" unicode="&#xad;" horiz-adv-x="462" 
d="M420 362l2 -101l-379 -49l-5 180z" />
    <glyph glyph-name="sterling" unicode="&#xa3;" horiz-adv-x="690" 
d="M444 430l-5 -57l-132 -2q-10 -117 -22.5 -180t-23.5 -80q62 19 116.5 26t104 0.5t95 -26t90.5 -52.5l-63 -98q-29 12 -58 29t-63.5 31.5t-75 25t-93 11t-117.5 -12.5t-148 -45l-24 30q52 31 84 68t51 78.5t29 87t20 93.5l-197 -16l31 126l170 -23q-6 44 -4.5 101
t11.5 116.5t29.5 116.5t50 102t72.5 72.5t98 27.5q54 0 90 -20.5t56 -52.5t24 -71t-8 -75t-39 -65.5t-69 -41.5q-2 0 -5 3.5t-6 8t-4.5 8.5t-0.5 5q18 12 31.5 33.5t22 46t11 49.5t-1.5 43q-8 31 -29.5 44t-49 5t-58 -38t-55.5 -85.5t-41 -138.5t-16 -196z" />
    <glyph glyph-name="quotedbl" unicode="&#x22;" horiz-adv-x="500" 
d="M109 513q-26 0 -41 17t-20.5 42.5t-1.5 56t16 57.5t32 46.5t47 22.5q34 0 54 -12t28 -29.5t4.5 -38.5t-17 -39.5t-35.5 -31.5t-51 -14q-14 0 -21 2t-20 10q0 -31 12 -42.5t30.5 -12.5t41 4t43.5 6q0 -14 -12.5 -22.5t-29.5 -13.5t-33.5 -6.5t-25.5 -1.5zM368 513
q-33 5 -54 28t-30 53.5t-6 64t17.5 59.5t41.5 40t66 5q26 -5 39.5 -20t16.5 -34t-3 -39.5t-18.5 -37t-30.5 -26.5t-40 -8q-8 0 -14 3t-11.5 7t-12 6.5t-13.5 1.5q5 -27 13 -41.5t21.5 -21t33.5 -8t47 -1.5q0 -8 -8.5 -13.5t-19.5 -9.5t-21.5 -6t-13.5 -2z" />
    <glyph glyph-name="parenright" unicode=")" horiz-adv-x="488" 
d="M474 612q4 -53 -8.5 -123.5t-39 -146t-64 -151.5t-83 -140.5t-97 -111.5t-104.5 -66l-12 27q19 6 44.5 37t52.5 78.5t53.5 108.5t47.5 127.5t33.5 135.5t12.5 133q0 74 -20.5 138.5t-53.5 119t-74.5 97.5t-84 73.5t-82.5 48.5t-70 21q7 7 19 24q11 14 29.5 38.5
t47.5 63.5q89 -10 171.5 -51t145.5 -109.5t100 -162.5t36 -209z" />
    <glyph glyph-name="three" unicode="3" horiz-adv-x="807" 
d="M24 117q-3 59 11.5 100.5t42.5 68.5t66 41t81 17t88.5 -2.5t88.5 -18t81 -29.5t66 -36q51 88 59.5 160t-15 125t-75 85.5t-120 42t-149 -6.5t-162.5 -60q-5 0 -10.5 9t-7.5 17q62 28 104 48.5t71.5 37t49.5 29.5t38 27q51 44 59.5 69t-9.5 35t-54.5 6.5t-77 -16
t-77 -32.5t-53.5 -43h-46l55 178l47 -7l-7 -41q39 9 87 21t97.5 22.5t97 16.5t86 2t63 -20t29.5 -49q0 -30 -20.5 -57t-48.5 -48.5t-57 -36.5t-46 -22q94 14 162 -9.5t109.5 -70t55.5 -110t-1 -129.5t-59 -128.5t-118 -106.5q1 -2 7 -10t12.5 -20t12 -27t5.5 -29l-24 -13
q-2 11 -5.5 24t-10 26t-15.5 23.5t-21 15.5q-143 -96 -240.5 -142.5t-160 -51.5t-95.5 28.5t-47 96.5zM541 217q-30 25 -72.5 39.5t-85.5 17t-82.5 -7t-64 -33t-29 -62t22.5 -93.5q9 -14 29.5 -14.5t48 9t59.5 25.5t63.5 36.5t60 42t50.5 40.5z" />
    <glyph glyph-name="y" unicode="y" horiz-adv-x="645" 
d="M336 -549l-242 75q15 21 38 59.5t49.5 86.5t54 100.5t50 102t38 91.5t19.5 68l-328 418l235 79l130 -460l206 463l49 -5q-23 -52 -51.5 -133.5t-59 -179t-61 -204t-56.5 -209t-46 -195t-30 -160.5z" />
    <glyph glyph-name="colon" unicode=":" horiz-adv-x="223" 
d="M95 309q-27 8 -38.5 23t-12 33.5t9 37t25 32.5t35 21t39.5 2q29 -9 41 -25t11.5 -34t-11.5 -35.5t-27 -31t-35.5 -20.5t-36.5 -3zM87 74q-27 8 -38.5 23t-12 33.5t9 37t25 32.5t35 21t39.5 2q29 -9 41 -25t11.5 -34t-11.5 -35.5t-27 -31t-35.5 -20.5t-36.5 -3z" />
    <glyph glyph-name="four" unicode="4" horiz-adv-x="579" 
d="M31 493l-16 459l187 26l-102 -423l254 69l-32 356l245 -2l-108 -980l-62 -3l-38 598z" />
    <glyph glyph-name="slash" unicode="/" horiz-adv-x="769" 
d="M9 25q3 2 11.5 18t31 56t63.5 109t109 177t168 260t241 358l161 -77q-159 -205 -273 -354t-192.5 -253t-126 -168t-73 -99.5t-34.5 -48l-9 -12.5z" />
    <glyph glyph-name="z" unicode="z" 
d="M13 4l365 461l-366 -78v143h463l-278 -434l287 50l7 -137z" />
    <glyph glyph-name="semicolon" unicode=";" horiz-adv-x="223" 
d="M79 193q-27 8 -39 24.5t-12.5 36.5t8 40.5t23.5 36t34.5 24t39.5 3.5q31 -10 45 -28t14.5 -38.5t-10 -40.5t-27 -34.5t-36.5 -22t-40 -1.5zM53 -93q8 5 24.5 11t32.5 15t26 21t6 30q-12 -9 -29.5 -10.5t-33 4.5t-27 21t-12.5 39q-1 19 6 36.5t18.5 30.5t27 19.5t32.5 5.5
q35 -3 53.5 -24t23.5 -49t-3.5 -58.5t-28 -54t-49 -35.5t-67.5 -2z" />
    <glyph glyph-name="bracketleft" unicode="[" horiz-adv-x="342" 
d="M41 978l274 4l3 -29h-53l-148 -921l199 4l-2 -27l-295 -4z" />
    <glyph glyph-name="numbersign" unicode="#" horiz-adv-x="883" 
d="M296 64q-1 8 -5 40.5t-8.5 70.5t-8.5 70.5t-5 40.5l-180 -55l-4 61l175 51l-11 138l-160 -55l-15 54l157 54l-20 251l186 23l-16 -225q8 0 30 6t47.5 14t50 16t38.5 13l-1 197l175 37l-33 -191l118 30l-4 -61l-127 -33l-17 -124q23 0 37 2.5t26 6t26.5 7.5t38.5 7l2 -66
l-126 -36q-1 -9 -4 -31.5t-7 -53t-8.5 -64t-8.5 -63.5t-7 -53t-4 -31l-35 -9l-19 277l-200 -56l-11 -257zM373 398l185 67l-7 104l-175 -56z" />
    <glyph glyph-name="five" unicode="5" horiz-adv-x="699" 
d="M495 344q5 67 -10.5 106.5t-45 58t-70 19t-84 -10t-87 -28.5t-80 -37.5t-62 -36.5t-33.5 -25l-11 587l452 15q47 -4 75 -19.5t41 -36.5t13 -44.5t-8.5 -43.5t-23.5 -33.5t-32.5 -14t-34 14.5t-29.5 52l21 14q3 -26 16 -36t27.5 -7.5t26 16t11.5 35.5q-6 38 -30.5 54.5
t-71 20t-118.5 -3t-172 -15.5q0 -41 3.5 -88t7.5 -96t7 -99.5t2 -99.5q33 17 81 32.5t100.5 23.5t104.5 5.5t94.5 -22.5t69 -60t28.5 -106q-4 -48 -35.5 -103.5t-80.5 -108.5t-109.5 -100.5t-121.5 -80t-118 -46t-98 1.5q-55 26 -72.5 67.5t-6 86t46 83.5t82.5 60.5
t103.5 17t109.5 -47.5q-23 7 -53.5 6.5t-62.5 -9.5t-62.5 -26.5t-52 -44t-31.5 -61.5t-1 -80q18 -20 50.5 -18t72 19.5t82 48.5t79 70t64 84t37.5 90z" />
    <glyph glyph-name="asterisk" unicode="*" horiz-adv-x="672" 
d="M282 386l-216 47l57 123l184 -114l-16 213l164 -14l-68 -210l207 149l46 -147l-223 -46l177 -120l-135 -137l-110 206l-106 -190l-173 69z" />
    <glyph glyph-name="less" unicode="&#x3c;" horiz-adv-x="604" 
d="M40 356l494 337l29 -187l-345 -137l356 -120l-9 -183z" />
    <glyph glyph-name="bracketright" unicode="]" horiz-adv-x="346" 
d="M318 5l-295 4l-2 27l199 -4l-148 921h-53l3 29l274 -4z" />
    <glyph glyph-name="dollar" unicode="$" horiz-adv-x="820" 
d="M344 -120l8 187q-50 -1 -97.5 5.5t-88 22.5t-73.5 42.5t-54 65.5l91 95q12 -38 41.5 -64.5t65 -41.5t69 -17.5t52.5 9.5l-9 295q-88 -14 -138.5 -1.5t-70 41t-12.5 68.5t33 80.5t67 77t90 59.5l-42 165l164 24l-9 -161q18 4 48 -1t56.5 -22.5t40.5 -49.5t1 -82l-37 3
q5 13 4.5 32t-11.5 35.5t-34.5 28.5t-64.5 12l2 -213q33 0 69.5 -0.5t73 -5.5t71.5 -16t64 -32t51 -54.5t33 -82.5q4 -56 -13 -97.5t-46.5 -72t-66.5 -51t-73.5 -34.5t-68 -22t-48.5 -14l12 -216zM442 504q0 -82 6 -163.5t6 -163.5q22 0 57.5 16.5t68.5 40.5t57 52t24 51
q0 44 -21 75.5t-53.5 52t-71 30t-73.5 9.5zM323 748q-21 -13 -37.5 -41.5t-18.5 -58t14.5 -52t60.5 -23.5z" />
    <glyph glyph-name="six" unicode="6" horiz-adv-x="656" 
d="M177 7q-58 20 -93 55.5t-50.5 90t-14.5 130.5t15.5 178t39.5 232.5t57 293.5l219 -32q-18 -42 -46.5 -111t-58 -150.5t-56 -170.5t-43 -172t-18 -153.5t20.5 -116.5q2 35 17 83.5t40.5 99t60 99t75 84.5t86 54t93.5 9q62 -26 92 -64.5t34.5 -83.5t-13.5 -93t-52 -93
t-81 -83t-100.5 -62t-111 -32t-112.5 8zM425 410q-20 2 -46.5 -14.5t-53.5 -44t-53 -63.5t-45.5 -72.5t-31 -71.5t-8.5 -60q1 -13 9 -20t20.5 -10t28.5 -3.5t34 -0.5q36 5 71 33t63.5 67t47.5 83.5t23 83t-9.5 64.5t-49.5 29z" />
    <glyph glyph-name="greater" unicode="&#x3e;" horiz-adv-x="604" 
d="M49 66l-9 183l356 120l-345 137l29 187l494 -337z" />
    <glyph glyph-name="asciitilde" unicode="~" horiz-adv-x="503" 
d="M47 282q-5 79 19.5 130.5t69 63.5t102.5 -20.5t119 -121.5q19 -19 33 -23.5t23.5 0.5t13.5 17t3.5 26t-6.5 27t-17 20l37 -4q20 -31 17.5 -61.5t-22 -49t-53 -20.5t-74.5 25q-42 45 -74.5 62.5t-57 18t-41.5 -12t-27 -28.5t-14 -30.5t-3 -18.5h-48z" />
    <glyph glyph-name="braceleft" unicode="{" horiz-adv-x="508" 
d="M57 147q-2 39 14.5 72t42 60.5t56 49.5t56.5 40t42.5 32t14.5 25q6 13 -5.5 20.5t-34.5 11t-52.5 3.5t-59.5 -1.5t-56.5 -3.5t-41.5 -2v45q40 6 91.5 23t97.5 38.5t76.5 46t27.5 45.5q1 15 -13 23.5t-36 15.5t-47 17t-44 28.5t-28.5 48.5t0.5 79q6 28 32 56.5t64 53.5
t84.5 44.5t93.5 29t89.5 7.5t72.5 -20l-19 -23q-29 12 -60.5 12t-58 -5t-43 -11t-15.5 -5q-48 -36 -68 -72t-21.5 -70.5t9.5 -66.5t23.5 -60t22.5 -51t6 -40q-8 -27 -29.5 -46.5t-48.5 -35t-55 -29.5t-50 -32q14 -6 38.5 -9t48 -9.5t41.5 -19t19 -36.5q-10 -24 -28 -52
t-36.5 -58t-33.5 -63t-21 -68t1.5 -72.5t35.5 -76.5q23 -23 51 -35.5t58 -17t59 -1t53 12.5q2 -7 4 -11q1 -3 3 -7l2 -4q-29 -21 -71 -29t-88.5 -4.5t-93 18.5t-84 41.5t-62 63.5t-26.5 84z" />
    <glyph glyph-name="plus" unicode="+" horiz-adv-x="386" 
d="M130 292l-91 -16l-1 29l91 17q1 0 -0.5 18.5t-4 44t-5 52t-3.5 43.5l147 14l-14 -154l108 13l2 -28l-110 -15l-12 -199l-96 -5z" />
    <glyph glyph-name="seven" unicode="7" horiz-adv-x="713" 
d="M453 808q-76 37 -133 48t-95 2.5t-56.5 -31.5t-18.5 -54q0 -26 10 -40t25 -20t33.5 -7t36.5 -1q-13 -10 -35 -15.5t-48 -6t-52 5t-48 17t-36.5 30t-16.5 44.5q-3 33 7.5 66.5t30 60.5t47 44t57.5 17q45 3 90.5 -12.5t86.5 -37.5t75 -44t57 -31q12 33 33.5 67t49 58.5
t60 33t66.5 -10.5q21 -26 25 -52t-4.5 -50t-26 -44.5t-38.5 -35t-43 -21.5t-39 -4l-177 -784l-188 3zM660 955q-17 0 -33.5 -14t-29.5 -34.5t-20.5 -43t-7.5 -40.5q5 -6 17 -3t26 13.5t28 25.5t22.5 31.5t9 33.5t-11.5 31z" />
    <glyph glyph-name="percent" unicode="%" horiz-adv-x="816" 
d="M9 25q3 2 11.5 18t31 56t63.5 109t109 177t168 260t241 358l161 -77q-159 -205 -273 -354t-192.5 -253t-126 -168t-73 -99.5t-34.5 -48l-9 -12.5zM160 732q-41 10 -62.5 32.5t-26 50t4.5 56t29 51.5t48 36.5t61 9.5q43 -5 68 -27.5t33 -52t1 -61.5t-27.5 -56.5t-53 -36.5
t-75.5 -2zM576 26q-38 13 -53 39t-12.5 56t19.5 59.5t42 50t55.5 27.5t60.5 -7q43 -26 59 -56t13 -58t-22 -52.5t-45.5 -41t-57.5 -22t-59 4.5z" />
    <glyph glyph-name="period" unicode="." horiz-adv-x="231" 
d="M101 5q-25 5 -37.5 19.5t-15 32t3 36t17 32.5t27.5 21.5t34 2.5q42 -9 57 -36t8.5 -54t-31.5 -45t-63 -9z" />
    <glyph glyph-name="comma" unicode="," horiz-adv-x="203" 
d="M43 -71q8 5 24.5 11t32.5 15t26 21t6 30q-12 -9 -29.5 -10.5t-33 4.5t-27 21t-12.5 39q-1 19 6 36.5t18.5 30.5t27 19.5t32.5 5.5q35 -3 53.5 -24t23.5 -49t-3.5 -58.5t-28 -54t-49 -35.5t-67.5 -2z" />
    <glyph glyph-name="question" unicode="?" horiz-adv-x="684" 
d="M120 5q-26 10 -37.5 27.5t-12.5 37t7 39t23.5 33.5t36 20t44.5 0q40 -21 48 -52t-4.5 -58t-41.5 -42.5t-63 -4.5zM121 212l-40 319q38 -9 85 -1.5t95 26t93 47.5t79.5 63.5t53.5 72.5t15 77q-2 24 -22 46t-51.5 38t-70.5 25.5t-78.5 9t-76.5 -12t-63 -37.5t-38.5 -68
t-3.5 -103l-49 -6q-11 81 9.5 135t62.5 86t99.5 43t118.5 5t120.5 -27t106 -53.5t74.5 -74t26 -88.5q-3 -58 -21.5 -101.5t-48 -76t-67 -55.5t-78 -39.5t-82 -29t-78.5 -22.5l-105 -198h-65z" />
    <glyph glyph-name="braceright" unicode="}" horiz-adv-x="440" 
d="M393 146q-2 -47 -26.5 -84t-62 -63.5t-84 -41.5t-93 -18.5t-88.5 4.5t-71 29q0 2 1 4q2 4 3 7q2 4 5 11q24 -9 53 -12.5t59 1t58 17t51 35.5q28 39 35.5 76.5t1.5 72.5t-21 68t-33.5 63t-36.5 58t-28 52q1 24 19 36.5t41.5 19t48 9.5t38.5 9q-22 18 -50 32t-55 29.5
t-48.5 35t-29.5 46.5q-4 17 6 40t22.5 51t23.5 60t9.5 66.5t-21.5 70.5t-68 72q1 -1 -15.5 5t-43 11t-58 5t-60.5 -12l-19 23q30 18 72.5 20t89.5 -7.5t93.5 -29t84.5 -44.5t64 -53.5t32 -56.5q9 -49 0 -79t-28 -48.5t-44 -28.5t-47 -17t-36 -15.5t-13 -23.5
q-2 -14 11.5 -30t37.5 -31.5t55 -30t64 -27t65.5 -21.5t59.5 -13v-45q-16 0 -42 2t-56 3.5t-59.5 1.5t-52.5 -3.5t-34.5 -11t-5.5 -20.5q-2 -11 14.5 -25t42.5 -32t56.5 -40t56 -49.5t42 -60.5t14.5 -72z" />
    <glyph glyph-name="l" unicode="l" horiz-adv-x="259" 
d="M12 976l221 4l-55 -978q0 -3 -5.5 -4t-13 -0.5t-14.5 1.5t-10 1z" />
    <glyph glyph-name="V" unicode="V" horiz-adv-x="999" 
d="M13 930q106 24 164.5 36.5t85.5 18.5t32.5 7l5.5 1l223 -777q3 52 13 126t27.5 155t44.5 162.5t65 148.5t88.5 112t115.5 53q58 -3 84 -26t29.5 -53.5t-11.5 -62t-41 -51t-58 -20.5t-62 30q0 7 5 19t13 12q17 -26 38.5 -28t41 10t32 34t11.5 43.5t-20.5 38t-63.5 17.5
q-47 -9 -86.5 -44t-71 -88t-55.5 -120.5t-41.5 -141.5t-28.5 -149.5t-16 -145t-4.5 -129t6.5 -100.5l-43 -18z" />
    <glyph glyph-name="b" unicode="b" horiz-adv-x="592" 
d="M82 6q-24 11 -36.5 30t-16 40.5t0.5 43t13.5 39t23 28t29.5 9.5l16 -35q-13 3 -25 -8t-19 -28t-7.5 -36t10 -31t33 -14.5t61.5 14.5l-130 920l249 -14q-10 -110 -16 -189t-9.5 -133t-4 -87t-0.5 -52t0.5 -27t0.5 -11q28 22 51.5 40.5t47.5 31t52 18t65 1.5q51 -5 79 -37
t22 -83q-1 -30 -15.5 -75t-42.5 -94t-69 -97.5t-95 -86t-121.5 -59.5t-146.5 -18zM228 78q39 0 79.5 28.5t75 70.5t59.5 91t34 90q8 45 -2 73t-31 40.5t-50 10t-58 -18.5t-55 -45t-42 -70z" />
    <glyph glyph-name="H" unicode="H" horiz-adv-x="713" 
d="M11 976l312 6l-34 -507l259 -1l3 508l149 -3l-51 -979l-98 -3v49t-1 75t-2 87.5t-1 87.5v76t1 51h-261l-9 -429h-97z" />
    <glyph glyph-name="quotesingle" unicode="'" horiz-adv-x="294" 
d="M51 608q10 6 32 14.5t43 19.5t35.5 26t9.5 34q-17 -11 -39.5 -15t-43 1t-34.5 19.5t-14 41.5q0 21 9.5 41t25.5 35t36.5 24t42.5 9q45 0 68.5 -20.5t28.5 -50.5t-7 -64t-38.5 -62t-66 -44t-88.5 -9z" />
    <glyph glyph-name="equal" unicode="=" horiz-adv-x="481" 
d="M440 339l5 -87l-401 -17l-6 157zM450 556l-1 -161l-407 67l2 83z" />
    <glyph glyph-name="backslash" unicode="\" horiz-adv-x="769" 
d="M717 -9q-1 0 -9.5 12.5t-34 48t-73 99.5t-126 168t-192.5 253t-273 354l161 77q140 -206 240.5 -358t168.5 -260t109 -177t63.5 -109t31 -56t11.5 -18z" />
    <glyph glyph-name="circumflex" unicode="&#x2c6;" horiz-adv-x="415" 
d="M100 533l-95 64l185 223l159 -258l-22 -17l-130 216z" />
    <glyph glyph-name="grave" unicode="`" horiz-adv-x="335" 
d="M22 627l71 115l213 -209z" />
    <glyph glyph-name="acute" unicode="&#xb4;" horiz-adv-x="330" 
d="M22 533l213 209l71 -115z" />
    <glyph glyph-name="quoteright" unicode="&#x2019;" horiz-adv-x="294" 
d="M51 608q10 6 32 14.5t43 19.5t35.5 26t9.5 34q-17 -11 -39.5 -15t-43 1t-34.5 19.5t-14 41.5q0 21 9.5 41t25.5 35t36.5 24t42.5 9q45 0 68.5 -20.5t28.5 -50.5t-7 -64t-38.5 -62t-66 -44t-88.5 -9z" />
    <glyph glyph-name="quoteleft" unicode="&#x2018;" horiz-adv-x="294" 
d="M242 608q-49 -7 -88.5 9t-66 44t-38.5 62t-7 64t28.5 50.5t68.5 20.5q22 0 42.5 -9t36.5 -24t25.5 -35t9.5 -41q0 -27 -14 -41.5t-34.5 -19.5t-43 -1t-39.5 15q-5 -19 9.5 -34t35.5 -26t42.5 -19.5t32.5 -14.5z" />
    <glyph glyph-name="quotesinglbase" unicode="&#x201a;" horiz-adv-x="294" 
d="M57 -58q10 6 32 14.5t43 19.5t35.5 26t9.5 34q-17 -11 -39.5 -15t-43 1t-34.5 19.5t-14 41.5q0 21 9.5 41t25.5 35t36.5 24t42.5 9q45 0 68.5 -20.5t28.5 -50.5t-7 -64t-38.5 -62t-66 -44t-88.5 -9z" />
    <glyph glyph-name="quotedblleft" unicode="&#x201c;" horiz-adv-x="500" 
d="M109 513q-26 0 -41 17t-20.5 42.5t-1.5 56t16 57.5t32 46.5t47 22.5q34 0 54 -12t28 -29.5t4.5 -38.5t-17 -39.5t-35.5 -31.5t-51 -14q-14 0 -21 2t-20 10q0 -31 12 -42.5t30.5 -12.5t41 4t43.5 6q0 -14 -12.5 -22.5t-29.5 -13.5t-33.5 -6.5t-25.5 -1.5zM368 513
q-33 5 -54 28t-30 53.5t-6 64t17.5 59.5t41.5 40t66 5q26 -5 39.5 -20t16.5 -34t-3 -39.5t-18.5 -37t-30.5 -26.5t-40 -8q-8 0 -14 3t-11.5 7t-12 6.5t-13.5 1.5q5 -27 13 -41.5t21.5 -21t33.5 -8t47 -1.5q0 -8 -8.5 -13.5t-19.5 -9.5t-21.5 -6t-13.5 -2z" />
    <glyph glyph-name="quotedblright" unicode="&#x201d;" horiz-adv-x="500" 
d="M395 513q-9 0 -25.5 1.5t-33.5 6.5t-29.5 13.5t-12.5 22.5q21 -1 43.5 -6t41 -4t30.5 12.5t12 42.5q-13 -8 -20 -10t-21 -2q-29 1 -51 14t-35.5 31.5t-17 39.5t4.5 38.5t28 29.5t54 12q27 -3 47 -22.5t32 -46.5t16 -57.5t-1.5 -56t-20.5 -42.5t-41 -17zM136 513
q-3 0 -13.5 2t-21.5 6t-19.5 9.5t-8.5 13.5q27 0 46.5 1.5t33 8t22 21t13.5 41.5q-8 1 -14 -1.5t-11.5 -6.5t-12 -7t-13.5 -3q-22 -2 -40 8t-30.5 26.5t-18.5 37t-3 39.5t16.5 34t39.5 20q39 9 66 -5t41.5 -40t17.5 -59.5t-6 -64t-30 -53.5t-54 -28z" />
    <glyph glyph-name="quotedblbase" unicode="&#x201e;" horiz-adv-x="500" 
d="M413 -34q-9 0 -25.5 1.5t-33.5 6.5t-29.5 13.5t-12.5 22.5q21 -1 43.5 -6t41 -4t30.5 12.5t12 42.5q-13 -8 -20 -10t-21 -2q-29 1 -51 14t-35.5 31.5t-17 39.5t4.5 38.5t28 29.5t54 12q27 -3 47 -22.5t32 -46.5t16 -57.5t-1.5 -56t-20.5 -42.5t-41 -17zM154 -34
q-3 0 -13.5 2t-21.5 6t-19.5 9.5t-8.5 13.5q27 0 46.5 1.5t33 8t22 21t13.5 41.5q-8 1 -14 -1.5t-11.5 -6.5t-12 -7t-13.5 -3q-22 -2 -40 8t-30.5 26.5t-18.5 37t-3 39.5t16.5 34t39.5 20q39 9 66 -5t41.5 -40t17.5 -59.5t-6 -64t-30 -53.5t-54 -28z" />
    <glyph glyph-name="dieresis" unicode="&#xa8;" horiz-adv-x="403" 
d="M77 555q-27 8 -38.5 23t-12 33.5t9 37t25 32.5t35 21t39.5 2q29 -9 41 -25t11.5 -34t-11.5 -35.5t-27 -31t-35.5 -20.5t-36.5 -3zM267 553q-27 8 -38.5 23t-12 33.5t9 37t25 32.5t35 21t39.5 2q29 -9 41 -25t11.5 -34t-11.5 -35.5t-27 -31t-35.5 -20.5t-36.5 -3z" />
    <glyph glyph-name="bar" unicode="|" horiz-adv-x="259" 
d="M19 1037l225 3l-70 -1086q0 -3 -5.5 -4t-13 -0.5t-14.5 1.5t-10 1z" />
    <glyph glyph-name="Euro" unicode="&#x20ac;" horiz-adv-x="791" 
d="M197 577q33 74 80 138t100 114.5t107.5 85t102.5 48.5t86 5.5t57 -43.5l-33 -23q-20 23 -48 24t-60 -15.5t-66 -49t-65.5 -76t-59 -95.5t-46.5 -109l199 12l-1 -161l-228 12q-2 -11 -2 -20.5v-19.5v-21l221 -7l5 -87l-210 -14q23 -66 70 -93t103 -19t112.5 48t98.5 108
l46 -12q-11 -31 -38.5 -70t-65.5 -78t-84.5 -73t-95.5 -56t-98.5 -27t-93.5 15t-80.5 69t-60.5 135q-2 11 -3.5 22.5t-3.5 22.5l-96 -4l-6 157l106 -14q2 17 5.5 32.5t7.5 32.5l-115 19l2 83z" />
    <glyph glyph-name="fraction" unicode="&#x2044;" horiz-adv-x="769" 
d="M9 25q3 2 11.5 18t31 56t63.5 109t109 177t168 260t241 358l161 -77q-159 -205 -273 -354t-192.5 -253t-126 -168t-73 -99.5t-34.5 -48l-9 -12.5z" />
    <glyph glyph-name="exclamdown" unicode="&#xa1;" horiz-adv-x="348" 
d="M337.001 50.0557l-306.981 -70.9951l72.9951 744.954l76.9961 6zM173.011 967q26.998 0 36.998 -24.998q9.99902 -24.999 4.49902 -54.9971q-5.49902 -29.998 -26.998 -54.4971q-21.498 -24.498 -58.4961 -23.498q-22.999 1 -34.498 12.999t-13.999 29.498t3.5 37.498
q5.99902 19.999 18.498 37.4971q12.5 17.499 30.999 28.999q18.498 11.499 39.4971 11.499z" />
    <glyph glyph-name="questiondown" unicode="&#xbf;" horiz-adv-x="684" 
d="M577.008 957q25.998 -9.99902 37.4971 -27.498t12.499 -36.998q1 -19.498 -6.99902 -38.9971q-8 -19.499 -23.499 -33.498t-35.998 -19.999q-20.498 -6 -44.4971 0q-39.9971 20.999 -47.9971 51.9971q-7.99902 30.998 4.5 57.9961q12.499 26.999 41.4971 42.498
q28.999 15.499 62.9971 4.49902zM576.008 750.013l39.9971 -318.98q-37.998 9 -84.9951 1.5q-46.9971 -7.49902 -94.9941 -25.998t-92.9941 -47.4971t-79.4951 -63.4961t-53.4971 -72.4961q-18.998 -37.9971 -14.999 -76.9951q2 -23.999 21.999 -45.9971
q19.999 -21.999 51.4971 -37.998t70.4951 -25.498q38.998 -9.5 78.4951 -9q39.498 0.5 76.4961 12q36.9971 11.499 62.9961 37.4971q25.998 25.999 38.4971 67.9961q12.5 41.9971 3.5 102.994l48.9971 5.99902q10.999 -80.9951 -9.49902 -134.991
q-20.499 -53.9971 -62.4961 -85.9951q-41.998 -31.998 -99.4941 -42.9971q-57.4971 -11 -118.493 -5t-120.492 26.998q-59.4971 20.999 -105.994 53.4971t-74.4951 73.9951q-27.998 41.498 -25.998 88.4951q2.99902 57.9961 21.498 101.494q18.499 43.4971 47.9971 75.9951
t66.9961 55.4961q37.498 22.999 77.9951 39.498q40.498 16.499 81.9951 28.998t78.4951 22.499l104.994 197.987h64.9961z" />
    <glyph glyph-name="dotlessi" unicode="&#x131;" horiz-adv-x="262" 
d="M104 0q-2 20 -8.5 57.5t-18 100.5t-27.5 155.5t-36 222.5q92 2 138.5 3.5t65 2l18.5 0.5v0l-82 -542h-50z" />
    <glyph glyph-name="caron" unicode="&#x2c7;" horiz-adv-x="367" 
d="M197 592l130 216l22 -17l-159 -258l-185 223l95 64z" />
    <glyph glyph-name="hungarumlaut" unicode="&#x2dd;" horiz-adv-x="544" 
d="M22 533l213 209l71 -115zM242 530l213 209l71 -115z" />
    <glyph glyph-name="ring" unicode="&#x2da;" horiz-adv-x="298" 
d="M81 550q-39 14 -55 39.5t-15 55t17 58.5t41 50.5t56.5 30.5t64.5 -2q43 -26 59.5 -56.5t13.5 -59.5t-21.5 -54.5t-45 -42.5t-57 -23t-58.5 4zM165 748q-9 7 -23.5 4t-29.5 -13t-27.5 -25.5t-18 -33t-2 -35.5t22.5 -34q9 -5 30.5 7t39.5 33t24 47t-16 50z" />
    <glyph glyph-name="ogonek" unicode="&#x2db;" horiz-adv-x="246" 
d="M217 -136q-34 -38 -64 -47.5t-53.5 0t-40.5 34t-24.5 55t-5 62.5t17.5 58l25 -8q-7 -18 -2.5 -46t19.5 -50.5t39.5 -33t59.5 5.5z" />
    <glyph glyph-name="breve" unicode="&#x2d8;" horiz-adv-x="289" 
d="M266 670q-7 -43 -28 -68t-49 -34.5t-58.5 -6t-55.5 17.5t-41.5 37t-15.5 51l45 3q6 -19 26 -33t44.5 -17t49 9t41.5 46z" />
    <glyph glyph-name="dotaccent" unicode="&#x2d9;" horiz-adv-x="187" 
d="M70 549q-25 5 -37.5 19.5t-15 32t3 36t17 32.5t27.5 21.5t34 2.5q42 -9 57 -36t8.5 -54t-31.5 -45t-63 -9z" />
    <glyph glyph-name="tilde" unicode="&#x2dc;" horiz-adv-x="476" 
d="M39 543q-5 79 18 132t64 66.5t95.5 -19t112.5 -123.5q23 -37 44 -41t33 11t11.5 42t-18.5 51h35q20 -31 16.5 -63.5t-23.5 -53.5t-53 -22.5t-70 29.5q-47 39 -81.5 55t-59 16t-40 -11t-24 -25t-11 -27t-1.5 -17h-48z" />
    <glyph glyph-name="yen" unicode="&#xa5;" horiz-adv-x="668" 
d="M339 577l10 40q-86 65 -145.5 110.5t-98 75t-59 46t-30 24.5t-11 10l-1.5 2l294 100l163 -269l160 275l35 -25l-176 -300l7 -85l95 3l-1 -161l-82 13l5 -60l68 -9l5 -87l-65 -3l23 -277l-331 9l61 258l-89 -4l-6 157l128 -17l15 64l-139 23l2 83z" />
    <glyph glyph-name="cedilla" unicode="&#xb8;" horiz-adv-x="383" 
d="M97 23h73l-5 -38q67 6 107.5 -17t57 -59t10.5 -78.5t-33 -75t-73.5 -48.5t-110.5 1q-19 11 -32 28.5t-19 36.5t-5 37.5t9 30.5t24 16t39 -5q-20 -2 -27.5 -16t-5 -30.5t13 -32t25.5 -21.5q29 2 48 15.5t26.5 32t4 40.5t-19 41t-43.5 33t-69 17z" />
    <glyph glyph-name="macron" unicode="&#xaf;" horiz-adv-x="431" 
d="M396 673l2 -101l-384 -24l-2 134z" />
    <glyph glyph-name="germandbls" unicode="&#xdf;" horiz-adv-x="661" 
d="M206 -59l-60 8q-23 153 -43.5 275t-35 218.5t-22.5 170t-7 129.5t13 97.5t37 74.5q15 19 45.5 37t71.5 31.5t88 20.5t94 4.5t90.5 -17.5t77.5 -45t54 -77t21 -115q0 -45 -17 -86.5t-41.5 -75t-51 -58t-44.5 -35.5q61 12 93.5 3.5t47.5 -25.5t18 -36t4 -27q1 -7 1 -26.5
t-8 -47t-27.5 -61.5t-58 -70.5t-99.5 -74t-151 -72.5l-9 34q27 9 60 24t66.5 35.5t65 47.5t55 60.5t36 74t9.5 88.5q-12 24 -25.5 34.5t-37.5 6.5t-62.5 -22.5t-99.5 -51.5l-26 43q93 53 143 105.5t72.5 95.5t25.5 71t3 33q-2 32 -19.5 64.5t-44.5 58t-61.5 40.5t-69.5 13
t-68.5 -24.5t-59.5 -73.5q-24 -46 -37 -111t-18 -140t-4.5 -157t4 -163t8 -156.5t6.5 -138.5z" />
    <glyph glyph-name="thorn" unicode="&#xfe;" horiz-adv-x="570" 
d="M23 988l249 -14q-10 -110 -16.5 -179t-10.5 -109t-5.5 -56.5t-2 -20.5t-0.5 -2.5t0 -1.5q28 22 51.5 40.5t47.5 31t52 18t65 1.5q51 -5 79 -37t22 -83q-1 -26 -11.5 -62t-30 -76.5t-49 -82t-67.5 -79t-86 -67.5t-104 -47l8 -168h-55zM210 218q39 0 79.5 28.5t75 70.5
t59.5 91t34 90q8 45 -2 73t-31 40.5t-50 10t-58 -18.5t-55 -45t-42 -70z" />
    <glyph glyph-name="Thorn" unicode="&#xde;" horiz-adv-x="613" 
d="M165 661l-18 -264q16 38 54.5 69t87.5 49t101.5 20t96 -17t71.5 -63.5t28 -118.5q-3 -79 -38.5 -145.5t-92.5 -111t-131 -63.5t-154 -2l27 -395l-212 -7l82 1028zM234 39q40 0 73.5 23.5t59 61t43 84t25 93t4.5 87.5t-18.5 67t-43.5 32t-70 -17q-12 -6 -35 -21t-46 -52
t-40 -102.5t-17 -172.5q0 -39 12 -61t53 -22z" />
    <glyph glyph-name="commaaccent" horiz-adv-x="237" 
d="M73 -250q8 5 24.5 11t32.5 15t26 21t6 30q-12 -9 -29.5 -10.5t-33 4.5t-27 21t-12.5 39q-1 19 6 36.5t18.5 30.5t27 19.5t32.5 5.5q35 -3 53.5 -24t23.5 -49t-3.5 -58.5t-28 -54t-49 -35.5t-67.5 -2z" />
    <glyph glyph-name="Aacute" unicode="&#xc1;" horiz-adv-x="1415" 
d="M30 184q0 57 29.5 111t76 95.5t103.5 66.5t112 25q40 3 67.5 -12.5t41.5 -39.5t14.5 -53.5t-13.5 -54.5t-43 -41.5t-73 -15.5q-29 0 -43 12.5t-16 29t6 34t22 28t33 9.5t39 -20q0 -7 -5.5 -13t-15.5 -6q-14 12 -26.5 8t-18.5 -14.5t-1.5 -22t25.5 -13.5q32 0 52.5 13
t30 32t9 40t-10.5 38t-29 26t-45 3q-50 0 -101 -22t-92.5 -59t-68 -85.5t-26.5 -100.5q0 -42 11 -81.5t33.5 -70t56 -49t78.5 -18.5q49 4 96.5 43.5t90 107.5t79.5 161.5t67.5 206t52 240.5t33.5 266h29q6 -20 15.5 -57t21.5 -83.5t26 -96.5t28 -95.5t27 -81t23 -52.5
l353 242l44 -49l-377 -242q8 -29 35.5 -70t66.5 -85t84.5 -85.5t89 -71.5t81 -44t59.5 -1q27 7 45.5 20.5t30 30.5t16.5 37.5t6 40.5q-3 39 -20.5 70t-42.5 51.5t-54.5 31t-56.5 8.5t-48.5 -16.5t-30.5 -42.5q0 -13 11 -19.5t23.5 -6t23.5 7t11 19.5l27 -2q2 -31 -18 -47
t-45 -16.5t-47.5 14.5t-24.5 46q6 39 30.5 63.5t59 33.5t74 2t74.5 -30.5t61 -63.5t33 -97q0 -56 -23.5 -105t-63 -86.5t-91 -59t-106.5 -21.5q-48 9 -85.5 35.5t-67 64.5t-53 84t-43.5 94.5t-38.5 95.5t-38.5 88l-97 -65q-9 -36 -21 -83.5t-30 -98t-43 -100.5t-60 -90.5
t-82 -69t-108 -35.5q-30 -6 -66.5 -1.5t-72.5 18.5t-70 38t-59.5 58t-41 77t-14.5 95zM718 473l58 44q0 1 -2 5t-7.5 18t-15.5 42t-26 76zM565 992l213 209l71 -115z" />
    <glyph glyph-name="Abreve" unicode="&#x102;" horiz-adv-x="1415" 
d="M30 184q0 57 29.5 111t76 95.5t103.5 66.5t112 25q40 3 67.5 -12.5t41.5 -39.5t14.5 -53.5t-13.5 -54.5t-43 -41.5t-73 -15.5q-29 0 -43 12.5t-16 29t6 34t22 28t33 9.5t39 -20q0 -7 -5.5 -13t-15.5 -6q-14 12 -26.5 8t-18.5 -14.5t-1.5 -22t25.5 -13.5q32 0 52.5 13
t30 32t9 40t-10.5 38t-29 26t-45 3q-50 0 -101 -22t-92.5 -59t-68 -85.5t-26.5 -100.5q0 -42 11 -81.5t33.5 -70t56 -49t78.5 -18.5q49 4 96.5 43.5t90 107.5t79.5 161.5t67.5 206t52 240.5t33.5 266h29q6 -20 15.5 -57t21.5 -83.5t26 -96.5t28 -95.5t27 -81t23 -52.5
l353 242l44 -49l-377 -242q8 -29 35.5 -70t66.5 -85t84.5 -85.5t89 -71.5t81 -44t59.5 -1q27 7 45.5 20.5t30 30.5t16.5 37.5t6 40.5q-3 39 -20.5 70t-42.5 51.5t-54.5 31t-56.5 8.5t-48.5 -16.5t-30.5 -42.5q0 -13 11 -19.5t23.5 -6t23.5 7t11 19.5l27 -2q2 -31 -18 -47
t-45 -16.5t-47.5 14.5t-24.5 46q6 39 30.5 63.5t59 33.5t74 2t74.5 -30.5t61 -63.5t33 -97q0 -56 -23.5 -105t-63 -86.5t-91 -59t-106.5 -21.5q-48 9 -85.5 35.5t-67 64.5t-53 84t-43.5 94.5t-38.5 95.5t-38.5 88l-97 -65q-9 -36 -21 -83.5t-30 -98t-43 -100.5t-60 -90.5
t-82 -69t-108 -35.5q-30 -6 -66.5 -1.5t-72.5 18.5t-70 38t-59.5 58t-41 77t-14.5 95zM718 473l58 44q0 1 -2 5t-7.5 18t-15.5 42t-26 76zM833 1129q-7 -43 -28 -68t-49 -34.5t-58.5 -6t-55.5 17.5t-41.5 37t-15.5 51l45 3q6 -19 26 -33t44.5 -17t49 9t41.5 46z" />
    <glyph glyph-name="Acircumflex" unicode="&#xc2;" horiz-adv-x="1415" 
d="M30 184q0 57 29.5 111t76 95.5t103.5 66.5t112 25q40 3 67.5 -12.5t41.5 -39.5t14.5 -53.5t-13.5 -54.5t-43 -41.5t-73 -15.5q-29 0 -43 12.5t-16 29t6 34t22 28t33 9.5t39 -20q0 -7 -5.5 -13t-15.5 -6q-14 12 -26.5 8t-18.5 -14.5t-1.5 -22t25.5 -13.5q32 0 52.5 13
t30 32t9 40t-10.5 38t-29 26t-45 3q-50 0 -101 -22t-92.5 -59t-68 -85.5t-26.5 -100.5q0 -42 11 -81.5t33.5 -70t56 -49t78.5 -18.5q49 4 96.5 43.5t90 107.5t79.5 161.5t67.5 206t52 240.5t33.5 266h29q6 -20 15.5 -57t21.5 -83.5t26 -96.5t28 -95.5t27 -81t23 -52.5
l353 242l44 -49l-377 -242q8 -29 35.5 -70t66.5 -85t84.5 -85.5t89 -71.5t81 -44t59.5 -1q27 7 45.5 20.5t30 30.5t16.5 37.5t6 40.5q-3 39 -20.5 70t-42.5 51.5t-54.5 31t-56.5 8.5t-48.5 -16.5t-30.5 -42.5q0 -13 11 -19.5t23.5 -6t23.5 7t11 19.5l27 -2q2 -31 -18 -47
t-45 -16.5t-47.5 14.5t-24.5 46q6 39 30.5 63.5t59 33.5t74 2t74.5 -30.5t61 -63.5t33 -97q0 -56 -23.5 -105t-63 -86.5t-91 -59t-106.5 -21.5q-48 9 -85.5 35.5t-67 64.5t-53 84t-43.5 94.5t-38.5 95.5t-38.5 88l-97 -65q-9 -36 -21 -83.5t-30 -98t-43 -100.5t-60 -90.5
t-82 -69t-108 -35.5q-30 -6 -66.5 -1.5t-72.5 18.5t-70 38t-59.5 58t-41 77t-14.5 95zM718 473l58 44q0 1 -2 5t-7.5 18t-15.5 42t-26 76zM553 992l-95 64l185 223l159 -258l-22 -17l-130 216z" />
    <glyph glyph-name="Agrave" unicode="&#xc0;" horiz-adv-x="1415" 
d="M30 184q0 57 29.5 111t76 95.5t103.5 66.5t112 25q40 3 67.5 -12.5t41.5 -39.5t14.5 -53.5t-13.5 -54.5t-43 -41.5t-73 -15.5q-29 0 -43 12.5t-16 29t6 34t22 28t33 9.5t39 -20q0 -7 -5.5 -13t-15.5 -6q-14 12 -26.5 8t-18.5 -14.5t-1.5 -22t25.5 -13.5q32 0 52.5 13
t30 32t9 40t-10.5 38t-29 26t-45 3q-50 0 -101 -22t-92.5 -59t-68 -85.5t-26.5 -100.5q0 -42 11 -81.5t33.5 -70t56 -49t78.5 -18.5q49 4 96.5 43.5t90 107.5t79.5 161.5t67.5 206t52 240.5t33.5 266h29q6 -20 15.5 -57t21.5 -83.5t26 -96.5t28 -95.5t27 -81t23 -52.5
l353 242l44 -49l-377 -242q8 -29 35.5 -70t66.5 -85t84.5 -85.5t89 -71.5t81 -44t59.5 -1q27 7 45.5 20.5t30 30.5t16.5 37.5t6 40.5q-3 39 -20.5 70t-42.5 51.5t-54.5 31t-56.5 8.5t-48.5 -16.5t-30.5 -42.5q0 -13 11 -19.5t23.5 -6t23.5 7t11 19.5l27 -2q2 -31 -18 -47
t-45 -16.5t-47.5 14.5t-24.5 46q6 39 30.5 63.5t59 33.5t74 2t74.5 -30.5t61 -63.5t33 -97q0 -56 -23.5 -105t-63 -86.5t-91 -59t-106.5 -21.5q-48 9 -85.5 35.5t-67 64.5t-53 84t-43.5 94.5t-38.5 95.5t-38.5 88l-97 -65q-9 -36 -21 -83.5t-30 -98t-43 -100.5t-60 -90.5
t-82 -69t-108 -35.5q-30 -6 -66.5 -1.5t-72.5 18.5t-70 38t-59.5 58t-41 77t-14.5 95zM718 473l58 44q0 1 -2 5t-7.5 18t-15.5 42t-26 76zM565 1086l71 115l213 -209z" />
    <glyph glyph-name="Adieresis" unicode="&#xc4;" horiz-adv-x="1415" 
d="M30 184q0 57 29.5 111t76 95.5t103.5 66.5t112 25q40 3 67.5 -12.5t41.5 -39.5t14.5 -53.5t-13.5 -54.5t-43 -41.5t-73 -15.5q-29 0 -43 12.5t-16 29t6 34t22 28t33 9.5t39 -20q0 -7 -5.5 -13t-15.5 -6q-14 12 -26.5 8t-18.5 -14.5t-1.5 -22t25.5 -13.5q32 0 52.5 13
t30 32t9 40t-10.5 38t-29 26t-45 3q-50 0 -101 -22t-92.5 -59t-68 -85.5t-26.5 -100.5q0 -42 11 -81.5t33.5 -70t56 -49t78.5 -18.5q49 4 96.5 43.5t90 107.5t79.5 161.5t67.5 206t52 240.5t33.5 266h29q6 -20 15.5 -57t21.5 -83.5t26 -96.5t28 -95.5t27 -81t23 -52.5
l353 242l44 -49l-377 -242q8 -29 35.5 -70t66.5 -85t84.5 -85.5t89 -71.5t81 -44t59.5 -1q27 7 45.5 20.5t30 30.5t16.5 37.5t6 40.5q-3 39 -20.5 70t-42.5 51.5t-54.5 31t-56.5 8.5t-48.5 -16.5t-30.5 -42.5q0 -13 11 -19.5t23.5 -6t23.5 7t11 19.5l27 -2q2 -31 -18 -47
t-45 -16.5t-47.5 14.5t-24.5 46q6 39 30.5 63.5t59 33.5t74 2t74.5 -30.5t61 -63.5t33 -97q0 -56 -23.5 -105t-63 -86.5t-91 -59t-106.5 -21.5q-48 9 -85.5 35.5t-67 64.5t-53 84t-43.5 94.5t-38.5 95.5t-38.5 88l-97 -65q-9 -36 -21 -83.5t-30 -98t-43 -100.5t-60 -90.5
t-82 -69t-108 -35.5q-30 -6 -66.5 -1.5t-72.5 18.5t-70 38t-59.5 58t-41 77t-14.5 95zM718 473l58 44q0 1 -2 5t-7.5 18t-15.5 42t-26 76zM578 1014q-27 8 -38.5 23t-12 33.5t9 37t25 32.5t35 21t39.5 2q29 -9 41 -25t11.5 -34t-11.5 -35.5t-27 -31t-35.5 -20.5t-36.5 -3z
M768 1012q-27 8 -38.5 23t-12 33.5t9 37t25 32.5t35 21t39.5 2q29 -9 41 -25t11.5 -34t-11.5 -35.5t-27 -31t-35.5 -20.5t-36.5 -3z" />
    <glyph glyph-name="Amacron" unicode="&#x100;" horiz-adv-x="1415" 
d="M30 184q0 57 29.5 111t76 95.5t103.5 66.5t112 25q40 3 67.5 -12.5t41.5 -39.5t14.5 -53.5t-13.5 -54.5t-43 -41.5t-73 -15.5q-29 0 -43 12.5t-16 29t6 34t22 28t33 9.5t39 -20q0 -7 -5.5 -13t-15.5 -6q-14 12 -26.5 8t-18.5 -14.5t-1.5 -22t25.5 -13.5q32 0 52.5 13
t30 32t9 40t-10.5 38t-29 26t-45 3q-50 0 -101 -22t-92.5 -59t-68 -85.5t-26.5 -100.5q0 -42 11 -81.5t33.5 -70t56 -49t78.5 -18.5q49 4 96.5 43.5t90 107.5t79.5 161.5t67.5 206t52 240.5t33.5 266h29q6 -20 15.5 -57t21.5 -83.5t26 -96.5t28 -95.5t27 -81t23 -52.5
l353 242l44 -49l-377 -242q8 -29 35.5 -70t66.5 -85t84.5 -85.5t89 -71.5t81 -44t59.5 -1q27 7 45.5 20.5t30 30.5t16.5 37.5t6 40.5q-3 39 -20.5 70t-42.5 51.5t-54.5 31t-56.5 8.5t-48.5 -16.5t-30.5 -42.5q0 -13 11 -19.5t23.5 -6t23.5 7t11 19.5l27 -2q2 -31 -18 -47
t-45 -16.5t-47.5 14.5t-24.5 46q6 39 30.5 63.5t59 33.5t74 2t74.5 -30.5t61 -63.5t33 -97q0 -56 -23.5 -105t-63 -86.5t-91 -59t-106.5 -21.5q-48 9 -85.5 35.5t-67 64.5t-53 84t-43.5 94.5t-38.5 95.5t-38.5 88l-97 -65q-9 -36 -21 -83.5t-30 -98t-43 -100.5t-60 -90.5
t-82 -69t-108 -35.5q-30 -6 -66.5 -1.5t-72.5 18.5t-70 38t-59.5 58t-41 77t-14.5 95zM718 473l58 44q0 1 -2 5t-7.5 18t-15.5 42t-26 76zM898 1132l2 -101l-384 -24l-2 134z" />
    <glyph glyph-name="Aogonek" unicode="&#x104;" horiz-adv-x="1415" 
d="M30 184q0 57 29.5 111t76 95.5t103.5 66.5t112 25q40 3 67.5 -12.5t41.5 -39.5t14.5 -53.5t-13.5 -54.5t-43 -41.5t-73 -15.5q-29 0 -43 12.5t-16 29t6 34t22 28t33 9.5t39 -20q0 -7 -5.5 -13t-15.5 -6q-14 12 -26.5 8t-18.5 -14.5t-1.5 -22t25.5 -13.5q32 0 52.5 13
t30 32t9 40t-10.5 38t-29 26t-45 3q-50 0 -101 -22t-92.5 -59t-68 -85.5t-26.5 -100.5q0 -42 11 -81.5t33.5 -70t56 -49t78.5 -18.5q49 4 96.5 43.5t90 107.5t79.5 161.5t67.5 206t52 240.5t33.5 266h29q6 -20 15.5 -57t21.5 -83.5t26 -96.5t28 -95.5t27 -81t23 -52.5
l353 242l44 -49l-377 -242q8 -29 35.5 -70t66.5 -85t84.5 -85.5t89 -71.5t81 -44t59.5 -1q27 7 45.5 20.5t30 30.5t16.5 37.5t6 40.5q-3 39 -20.5 70t-42.5 51.5t-54.5 31t-56.5 8.5t-48.5 -16.5t-30.5 -42.5q0 -13 11 -19.5t23.5 -6t23.5 7t11 19.5l27 -2q2 -31 -18 -47
t-45 -16.5t-47.5 14.5t-24.5 46q6 39 30.5 63.5t59 33.5t74 2t74.5 -30.5t61 -63.5t33 -97q0 -56 -23.5 -105t-63 -86.5t-91 -59t-106.5 -21.5q-48 9 -85.5 35.5t-67 64.5t-53 84t-43.5 94.5t-38.5 95.5t-38.5 88l-97 -65q-9 -36 -21 -83.5t-30 -98t-43 -100.5t-60 -90.5
t-82 -69t-108 -35.5q-30 -6 -66.5 -1.5t-72.5 18.5t-70 38t-59.5 58t-41 77t-14.5 95zM718 473l58 44q0 1 -2 5t-7.5 18t-15.5 42t-26 76zM1345 -140q-34 -38 -64 -47.5t-53.5 0t-40.5 34t-24.5 55t-5 62.5t17.5 58l25 -8q-7 -18 -2.5 -46t19.5 -50.5t39.5 -33t59.5 5.5z
" />
    <glyph glyph-name="Aring" unicode="&#xc5;" horiz-adv-x="1415" 
d="M30 184q0 57 29.5 111t76 95.5t103.5 66.5t112 25q40 3 67.5 -12.5t41.5 -39.5t14.5 -53.5t-13.5 -54.5t-43 -41.5t-73 -15.5q-29 0 -43 12.5t-16 29t6 34t22 28t33 9.5t39 -20q0 -7 -5.5 -13t-15.5 -6q-14 12 -26.5 8t-18.5 -14.5t-1.5 -22t25.5 -13.5q32 0 52.5 13
t30 32t9 40t-10.5 38t-29 26t-45 3q-50 0 -101 -22t-92.5 -59t-68 -85.5t-26.5 -100.5q0 -42 11 -81.5t33.5 -70t56 -49t78.5 -18.5q49 4 96.5 43.5t90 107.5t79.5 161.5t67.5 206t52 240.5t33.5 266h29q6 -20 15.5 -57t21.5 -83.5t26 -96.5t28 -95.5t27 -81t23 -52.5
l353 242l44 -49l-377 -242q8 -29 35.5 -70t66.5 -85t84.5 -85.5t89 -71.5t81 -44t59.5 -1q27 7 45.5 20.5t30 30.5t16.5 37.5t6 40.5q-3 39 -20.5 70t-42.5 51.5t-54.5 31t-56.5 8.5t-48.5 -16.5t-30.5 -42.5q0 -13 11 -19.5t23.5 -6t23.5 7t11 19.5l27 -2q2 -31 -18 -47
t-45 -16.5t-47.5 14.5t-24.5 46q6 39 30.5 63.5t59 33.5t74 2t74.5 -30.5t61 -63.5t33 -97q0 -56 -23.5 -105t-63 -86.5t-91 -59t-106.5 -21.5q-48 9 -85.5 35.5t-67 64.5t-53 84t-43.5 94.5t-38.5 95.5t-38.5 88l-97 -65q-9 -36 -21 -83.5t-30 -98t-43 -100.5t-60 -90.5
t-82 -69t-108 -35.5q-30 -6 -66.5 -1.5t-72.5 18.5t-70 38t-59.5 58t-41 77t-14.5 95zM718 473l58 44q0 1 -2 5t-7.5 18t-15.5 42t-26 76zM644 1009q-39 14 -55 39.5t-15 55t17 58.5t41 50.5t56.5 30.5t64.5 -2q43 -26 59.5 -56.5t13.5 -59.5t-21.5 -54.5t-45 -42.5t-57 -23
t-58.5 4zM728 1207q-9 7 -23.5 4t-29.5 -13t-27.5 -25.5t-18 -33t-2 -35.5t22.5 -34q9 -5 30.5 7t39.5 33t24 47t-16 50z" />
    <glyph glyph-name="Atilde" unicode="&#xc3;" horiz-adv-x="1415" 
d="M30 184q0 57 29.5 111t76 95.5t103.5 66.5t112 25q40 3 67.5 -12.5t41.5 -39.5t14.5 -53.5t-13.5 -54.5t-43 -41.5t-73 -15.5q-29 0 -43 12.5t-16 29t6 34t22 28t33 9.5t39 -20q0 -7 -5.5 -13t-15.5 -6q-14 12 -26.5 8t-18.5 -14.5t-1.5 -22t25.5 -13.5q32 0 52.5 13
t30 32t9 40t-10.5 38t-29 26t-45 3q-50 0 -101 -22t-92.5 -59t-68 -85.5t-26.5 -100.5q0 -42 11 -81.5t33.5 -70t56 -49t78.5 -18.5q49 4 96.5 43.5t90 107.5t79.5 161.5t67.5 206t52 240.5t33.5 266h29q6 -20 15.5 -57t21.5 -83.5t26 -96.5t28 -95.5t27 -81t23 -52.5
l353 242l44 -49l-377 -242q8 -29 35.5 -70t66.5 -85t84.5 -85.5t89 -71.5t81 -44t59.5 -1q27 7 45.5 20.5t30 30.5t16.5 37.5t6 40.5q-3 39 -20.5 70t-42.5 51.5t-54.5 31t-56.5 8.5t-48.5 -16.5t-30.5 -42.5q0 -13 11 -19.5t23.5 -6t23.5 7t11 19.5l27 -2q2 -31 -18 -47
t-45 -16.5t-47.5 14.5t-24.5 46q6 39 30.5 63.5t59 33.5t74 2t74.5 -30.5t61 -63.5t33 -97q0 -56 -23.5 -105t-63 -86.5t-91 -59t-106.5 -21.5q-48 9 -85.5 35.5t-67 64.5t-53 84t-43.5 94.5t-38.5 95.5t-38.5 88l-97 -65q-9 -36 -21 -83.5t-30 -98t-43 -100.5t-60 -90.5
t-82 -69t-108 -35.5q-30 -6 -66.5 -1.5t-72.5 18.5t-70 38t-59.5 58t-41 77t-14.5 95zM718 473l58 44q0 1 -2 5t-7.5 18t-15.5 42t-26 76zM489 1002q-5 79 18 132t64 66.5t95.5 -19t112.5 -123.5q23 -37 44 -41t33 11t11.5 42t-18.5 51h35q20 -31 16.5 -63.5t-23.5 -53.5
t-53 -22.5t-70 29.5q-47 39 -81.5 55t-59 16t-40 -11t-24 -25t-11 -27t-1.5 -17h-48z" />
    <glyph glyph-name="AE" unicode="&#xc6;" horiz-adv-x="1493" 
d="M847 456l-136 -27q-9 -36 -22 -87.5t-32.5 -108t-46 -113t-63 -103t-84.5 -79t-109 -39.5q-30 -6 -66.5 -1.5t-72.5 18.5t-70 38t-59.5 58t-41 77t-14.5 95q0 57 29.5 111t76 95.5t103.5 66.5t112 25q40 3 67.5 -12.5t41.5 -39.5t14.5 -53.5t-13.5 -54.5t-43 -41.5
t-73 -15.5q-29 0 -43 12.5t-16 29t6 34t22 28t33 9.5t39 -20q0 -7 -5.5 -13t-15.5 -6q-14 12 -26.5 8t-18.5 -14.5t-1.5 -22t25.5 -13.5q32 0 52.5 13t30 32t9 40t-10.5 38t-29 26t-45 3q-50 0 -101 -22t-92.5 -59t-68 -85.5t-26.5 -100.5q0 -42 11 -81.5t33.5 -70t56 -49
t78.5 -18.5q70 16 128 63t106.5 119.5t89 167.5t76.5 206t69 234.5t67 253.5l677 9l13 -124q-47 28 -96 40t-97.5 16t-97.5 3t-96 1l-44 -420l242 15l-4 -65l-237 -14l-54 -382q115 -5 197.5 15.5t138.5 49.5t90 59.5t53 47.5l-9 -221l-597 -19zM831 492q-1 17 0 47
t1.5 64.5t1 69.5t-0.5 61.5t-3.5 41t-7.5 8.5l-104 -311z" />
    <glyph glyph-name="AEacute" unicode="&#x1fc;" horiz-adv-x="1493" 
d="M847 456l-136 -27q-9 -36 -22 -87.5t-32.5 -108t-46 -113t-63 -103t-84.5 -79t-109 -39.5q-30 -6 -66.5 -1.5t-72.5 18.5t-70 38t-59.5 58t-41 77t-14.5 95q0 57 29.5 111t76 95.5t103.5 66.5t112 25q40 3 67.5 -12.5t41.5 -39.5t14.5 -53.5t-13.5 -54.5t-43 -41.5
t-73 -15.5q-29 0 -43 12.5t-16 29t6 34t22 28t33 9.5t39 -20q0 -7 -5.5 -13t-15.5 -6q-14 12 -26.5 8t-18.5 -14.5t-1.5 -22t25.5 -13.5q32 0 52.5 13t30 32t9 40t-10.5 38t-29 26t-45 3q-50 0 -101 -22t-92.5 -59t-68 -85.5t-26.5 -100.5q0 -42 11 -81.5t33.5 -70t56 -49
t78.5 -18.5q70 16 128 63t106.5 119.5t89 167.5t76.5 206t69 234.5t67 253.5l677 9l13 -124q-47 28 -96 40t-97.5 16t-97.5 3t-96 1l-44 -420l242 15l-4 -65l-237 -14l-54 -382q115 -5 197.5 15.5t138.5 49.5t90 59.5t53 47.5l-9 -221l-597 -19zM831 492q-1 17 0 47
t1.5 64.5t1 69.5t-0.5 61.5t-3.5 41t-7.5 8.5l-104 -311zM873 1069l213 209l71 -115z" />
    <glyph glyph-name="Cacute" unicode="&#x106;" horiz-adv-x="654" 
d="M32 227q-17 87 -5 171.5t43.5 161.5t78.5 144.5t100.5 120.5t110 89.5t106 52t88.5 7.5t59 -44l-33 -23q-25 29 -62 24t-78.5 -36t-83.5 -83.5t-75.5 -117.5t-55 -138.5t-22.5 -146.5q-3 -79 16.5 -131t53 -79t77 -31.5t88.5 12.5t88.5 53.5t76.5 90.5l46 -12
q-11 -31 -38.5 -70t-65.5 -78t-84.5 -73t-95.5 -56t-98.5 -27t-93.5 15t-80.5 69t-60.5 135zM185 992l213 209l71 -115z" />
    <glyph glyph-name="Ccaron" unicode="&#x10c;" horiz-adv-x="654" 
d="M32 227q-17 87 -5 171.5t43.5 161.5t78.5 144.5t100.5 120.5t110 89.5t106 52t88.5 7.5t59 -44l-33 -23q-25 29 -62 24t-78.5 -36t-83.5 -83.5t-75.5 -117.5t-55 -138.5t-22.5 -146.5q-3 -79 16.5 -131t53 -79t77 -31.5t88.5 12.5t88.5 53.5t76.5 90.5l46 -12
q-11 -31 -38.5 -70t-65.5 -78t-84.5 -73t-95.5 -56t-98.5 -27t-93.5 15t-80.5 69t-60.5 135zM347 1051l130 216l22 -17l-159 -258l-185 223l95 64z" />
    <glyph glyph-name="Ccedilla" unicode="&#xc7;" horiz-adv-x="654" 
d="M32 227q-17 87 -5 171.5t43.5 161.5t78.5 144.5t100.5 120.5t110 89.5t106 52t88.5 7.5t59 -44l-33 -23q-25 29 -62 24t-78.5 -36t-83.5 -83.5t-75.5 -117.5t-55 -138.5t-22.5 -146.5q-3 -79 16.5 -131t53 -79t77 -31.5t88.5 12.5t88.5 53.5t76.5 90.5l46 -12
q-11 -31 -38.5 -70t-65.5 -78t-84.5 -73t-95.5 -56t-98.5 -27t-93.5 15t-80.5 69t-60.5 135zM268 37h73l-5 -38q67 6 107.5 -17t57 -59t10.5 -78.5t-33 -75t-73.5 -48.5t-110.5 1q-19 11 -32 28.5t-19 36.5t-5 37.5t9 30.5t24 16t39 -5q-20 -2 -27.5 -16t-5 -30.5t13 -32
t25.5 -21.5q29 2 48 15.5t26.5 32t4 40.5t-19 41t-43.5 33t-69 17z" />
    <glyph glyph-name="Ccircumflex" unicode="&#x108;" horiz-adv-x="654" 
d="M32 227q-17 87 -5 171.5t43.5 161.5t78.5 144.5t100.5 120.5t110 89.5t106 52t88.5 7.5t59 -44l-33 -23q-25 29 -62 24t-78.5 -36t-83.5 -83.5t-75.5 -117.5t-55 -138.5t-22.5 -146.5q-3 -79 16.5 -131t53 -79t77 -31.5t88.5 12.5t88.5 53.5t76.5 90.5l46 -12
q-11 -31 -38.5 -70t-65.5 -78t-84.5 -73t-95.5 -56t-98.5 -27t-93.5 15t-80.5 69t-60.5 135zM360 1029l-95 64l185 223l159 -258l-22 -17l-130 216z" />
    <glyph glyph-name="Cdotaccent" unicode="&#x10a;" horiz-adv-x="654" 
d="M32 227q-17 87 -5 171.5t43.5 161.5t78.5 144.5t100.5 120.5t110 89.5t106 52t88.5 7.5t59 -44l-33 -23q-25 29 -62 24t-78.5 -36t-83.5 -83.5t-75.5 -117.5t-55 -138.5t-22.5 -146.5q-3 -79 16.5 -131t53 -79t77 -31.5t88.5 12.5t88.5 53.5t76.5 90.5l46 -12
q-11 -31 -38.5 -70t-65.5 -78t-84.5 -73t-95.5 -56t-98.5 -27t-93.5 15t-80.5 69t-60.5 135zM383 1022q-25 5 -37.5 19.5t-15 32t3 36t17 32.5t27.5 21.5t34 2.5q42 -9 57 -36t8.5 -54t-31.5 -45t-63 -9z" />
    <glyph glyph-name="Dcaron" unicode="&#x10e;" horiz-adv-x="836" 
d="M87 20l64 21q-1 13 -3.5 54.5t-5.5 100.5t-7 130.5t-8.5 145t-9.5 144.5t-9.5 129t-9.5 98t-9 51l-73 -19l-9 49q75 25 158.5 40.5t166.5 16.5t161 -14t141.5 -51t109 -96t62.5 -147q2 -118 -22.5 -211t-71 -165t-112 -124.5t-144.5 -90t-169.5 -61t-186.5 -36.5z
M650 615q9 65 -20.5 120.5t-79 96.5t-111 66.5t-118.5 30.5l-56 -890q94 33 158.5 82.5t106 106.5t64.5 117t34.5 113t15 94.5t6.5 62.5zM438 1051l130 216l22 -17l-159 -258l-185 223l95 64z" />
    <glyph glyph-name="Dcroat" unicode="&#x110;" horiz-adv-x="836" 
d="M87 20l64 21q-1 13 -3.5 54.5t-5.5 100.5t-7 130.5t-8.5 145t-9.5 144.5t-9.5 129t-9.5 98t-9 51l-73 -19l-9 49q75 25 158.5 40.5t166.5 16.5t161 -14t141.5 -51t109 -96t62.5 -147q2 -118 -22.5 -211t-71 -165t-112 -124.5t-144.5 -90t-169.5 -61t-186.5 -36.5z
M650 615q9 65 -20.5 120.5t-79 96.5t-111 66.5t-118.5 30.5l-56 -890q94 33 158.5 82.5t106 106.5t64.5 117t34.5 113t15 94.5t6.5 62.5zM399 536l2 -101l-384 -24l-2 134z" />
    <glyph glyph-name="Eacute" unicode="&#xc9;" horiz-adv-x="681" 
d="M15 966l630 12l13 -121q-48 27 -97.5 39t-99 16t-99 3t-97.5 1l-45 -408l246 14l-4 -63l-241 -13l-54 -371q78 -3 140.5 5t112.5 23t87.5 34.5t65.5 39t47.5 37t32.5 28.5l-9 -215l-606 -18zM198 992l213 209l71 -115z" />
    <glyph glyph-name="Ebreve" unicode="&#x114;" horiz-adv-x="681" 
d="M15 966l630 12l13 -121q-48 27 -97.5 39t-99 16t-99 3t-97.5 1l-45 -408l246 14l-4 -63l-241 -13l-54 -371q78 -3 140.5 5t112.5 23t87.5 34.5t65.5 39t47.5 37t32.5 28.5l-9 -215l-606 -18zM466 1129q-7 -43 -28 -68t-49 -34.5t-58.5 -6t-55.5 17.5t-41.5 37t-15.5 51
l45 3q6 -19 26 -33t44.5 -17t49 9t41.5 46z" />
    <glyph glyph-name="Ecaron" unicode="&#x11a;" horiz-adv-x="681" 
d="M15 966l630 12l13 -121q-48 27 -97.5 39t-99 16t-99 3t-97.5 1l-45 -408l246 14l-4 -63l-241 -13l-54 -371q78 -3 140.5 5t112.5 23t87.5 34.5t65.5 39t47.5 37t32.5 28.5l-9 -215l-606 -18zM360 1051l130 216l22 -17l-159 -258l-185 223l95 64z" />
    <glyph glyph-name="Ecircumflex" unicode="&#xca;" horiz-adv-x="681" 
d="M15 966l630 12l13 -121q-48 27 -97.5 39t-99 16t-99 3t-97.5 1l-45 -408l246 14l-4 -63l-241 -13l-54 -371q78 -3 140.5 5t112.5 23t87.5 34.5t65.5 39t47.5 37t32.5 28.5l-9 -215l-606 -18zM263 992l-95 64l185 223l159 -258l-22 -17l-130 216z" />
    <glyph glyph-name="Edotaccent" unicode="&#x116;" horiz-adv-x="681" 
d="M15 966l630 12l13 -121q-48 27 -97.5 39t-99 16t-99 3t-97.5 1l-45 -408l246 14l-4 -63l-241 -13l-54 -371q78 -3 140.5 5t112.5 23t87.5 34.5t65.5 39t47.5 37t32.5 28.5l-9 -215l-606 -18zM320 1008q-25 5 -37.5 19.5t-15 32t3 36t17 32.5t27.5 21.5t34 2.5
q42 -9 57 -36t8.5 -54t-31.5 -45t-63 -9z" />
    <glyph glyph-name="Edieresis" unicode="&#xcb;" horiz-adv-x="681" 
d="M15 966l630 12l13 -121q-48 27 -97.5 39t-99 16t-99 3t-97.5 1l-45 -408l246 14l-4 -63l-241 -13l-54 -371q78 -3 140.5 5t112.5 23t87.5 34.5t65.5 39t47.5 37t32.5 28.5l-9 -215l-606 -18zM211 1014q-27 8 -38.5 23t-12 33.5t9 37t25 32.5t35 21t39.5 2q29 -9 41 -25
t11.5 -34t-11.5 -35.5t-27 -31t-35.5 -20.5t-36.5 -3zM401 1012q-27 8 -38.5 23t-12 33.5t9 37t25 32.5t35 21t39.5 2q29 -9 41 -25t11.5 -34t-11.5 -35.5t-27 -31t-35.5 -20.5t-36.5 -3z" />
    <glyph glyph-name="Egrave" unicode="&#xc8;" horiz-adv-x="681" 
d="M15 966l630 12l13 -121q-48 27 -97.5 39t-99 16t-99 3t-97.5 1l-45 -408l246 14l-4 -63l-241 -13l-54 -371q78 -3 140.5 5t112.5 23t87.5 34.5t65.5 39t47.5 37t32.5 28.5l-9 -215l-606 -18zM180 1109l71 115l213 -209z" />
    <glyph glyph-name="Emacron" unicode="&#x112;" horiz-adv-x="681" 
d="M15 966l630 12l13 -121q-48 27 -97.5 39t-99 16t-99 3t-97.5 1l-45 -408l246 14l-4 -63l-241 -13l-54 -371q78 -3 140.5 5t112.5 23t87.5 34.5t65.5 39t47.5 37t32.5 28.5l-9 -215l-606 -18zM531 1132l2 -101l-384 -24l-2 134z" />
    <glyph glyph-name="Eogonek" unicode="&#x118;" horiz-adv-x="681" 
d="M15 966l630 12l13 -121q-48 27 -97.5 39t-99 16t-99 3t-97.5 1l-45 -408l246 14l-4 -63l-241 -13l-54 -371q78 -3 140.5 5t112.5 23t87.5 34.5t65.5 39t47.5 37t32.5 28.5l-9 -215l-606 -18zM658 -136q-34 -38 -64 -47.5t-53.5 0t-40.5 34t-24.5 55t-5 62.5t17.5 58
l25 -8q-7 -18 -2.5 -46t19.5 -50.5t39.5 -33t59.5 5.5z" />
    <glyph glyph-name="Gbreve" unicode="&#x11e;" horiz-adv-x="741" 
d="M577 169q-49 -86 -108 -129t-119 -49.5t-116.5 19t-101.5 75t-73 120t-31 153.5q1 88 26 181t67.5 176t100 148.5t123 98t136.5 24.5t141 -71l-22 -17q-52 38 -96.5 44.5t-82.5 -9.5t-69 -50.5t-55.5 -78.5t-42 -93.5t-28.5 -96t-15.5 -86t-2.5 -62.5q-3 -45 3.5 -102
t21.5 -111t38.5 -99.5t54 -68t68 -16.5t81 55.5t91.5 148t101 259.5l-222 -18l-3 48l279 18q-10 -52 -25.5 -106.5t-35 -107.5t-41 -103.5t-42.5 -93.5zM496 1129q-7 -43 -28 -68t-49 -34.5t-58.5 -6t-55.5 17.5t-41.5 37t-15.5 51l45 3q6 -19 26 -33t44.5 -17t49 9t41.5 46
z" />
    <glyph glyph-name="Gcircumflex" unicode="&#x11c;" horiz-adv-x="741" 
d="M577 169q-49 -86 -108 -129t-119 -49.5t-116.5 19t-101.5 75t-73 120t-31 153.5q1 88 26 181t67.5 176t100 148.5t123 98t136.5 24.5t141 -71l-22 -17q-52 38 -96.5 44.5t-82.5 -9.5t-69 -50.5t-55.5 -78.5t-42 -93.5t-28.5 -96t-15.5 -86t-2.5 -62.5q-3 -45 3.5 -102
t21.5 -111t38.5 -99.5t54 -68t68 -16.5t81 55.5t91.5 148t101 259.5l-222 -18l-3 48l279 18q-10 -52 -25.5 -106.5t-35 -107.5t-41 -103.5t-42.5 -93.5zM293 992l-95 64l185 223l159 -258l-22 -17l-130 216z" />
    <glyph glyph-name="Gcommaaccent" unicode="&#x122;" horiz-adv-x="741" 
d="M577 169q-49 -86 -108 -129t-119 -49.5t-116.5 19t-101.5 75t-73 120t-31 153.5q1 88 26 181t67.5 176t100 148.5t123 98t136.5 24.5t141 -71l-22 -17q-52 38 -96.5 44.5t-82.5 -9.5t-69 -50.5t-55.5 -78.5t-42 -93.5t-28.5 -96t-15.5 -86t-2.5 -62.5q-3 -45 3.5 -102
t21.5 -111t38.5 -99.5t54 -68t68 -16.5t81 55.5t91.5 148t101 259.5l-222 -18l-3 48l279 18q-10 -52 -25.5 -106.5t-35 -107.5t-41 -103.5t-42.5 -93.5zM273 -250q8 5 24.5 11t32.5 15t26 21t6 30q-12 -9 -29.5 -10.5t-33 4.5t-27 21t-12.5 39q-1 19 6 36.5t18.5 30.5
t27 19.5t32.5 5.5q35 -3 53.5 -24t23.5 -49t-3.5 -58.5t-28 -54t-49 -35.5t-67.5 -2z" />
    <glyph glyph-name="Gdotaccent" unicode="&#x120;" horiz-adv-x="741" 
d="M577 169q-49 -86 -108 -129t-119 -49.5t-116.5 19t-101.5 75t-73 120t-31 153.5q1 88 26 181t67.5 176t100 148.5t123 98t136.5 24.5t141 -71l-22 -17q-52 38 -96.5 44.5t-82.5 -9.5t-69 -50.5t-55.5 -78.5t-42 -93.5t-28.5 -96t-15.5 -86t-2.5 -62.5q-3 -45 3.5 -102
t21.5 -111t38.5 -99.5t54 -68t68 -16.5t81 55.5t91.5 148t101 259.5l-222 -18l-3 48l279 18q-10 -52 -25.5 -106.5t-35 -107.5t-41 -103.5t-42.5 -93.5zM350 1008q-25 5 -37.5 19.5t-15 32t3 36t17 32.5t27.5 21.5t34 2.5q42 -9 57 -36t8.5 -54t-31.5 -45t-63 -9z" />
    <glyph glyph-name="Hbar" unicode="&#x126;" horiz-adv-x="713" 
d="M11 976l312 6l-19 -277l245 -5l2 282l149 -3l-51 -979l-98 -3v49t-1 75t-2 87.5t-1 87.5v76t1 51h-261l-9 -429h-97zM548 474v121l-252 -15l-7 -105z" />
    <glyph glyph-name="Hcircumflex" unicode="&#x124;" horiz-adv-x="713" 
d="M11 976l312 6l-34 -507l259 -1l3 508l149 -3l-51 -979l-98 -3v49t-1 75t-2 87.5t-1 87.5v76t1 51h-261l-9 -429h-97zM361 1029l-95 64l185 223l159 -258l-22 -17l-130 216z" />
    <glyph glyph-name="Iacute" unicode="&#xcd;" horiz-adv-x="516" 
d="M189 36l-30 906q5 1 -6 1q-10 0 -36.5 -0.5t-85.5 -2.5l3 41l471 5q0 -2 1.5 -8.5t2 -13t0 -12.5t-3.5 -7l-115 -6l-117 -903l214 10l-1 -43l-448 -13l-4 37zM116 992l213 209l71 -115z" />
    <glyph glyph-name="Ibreve" unicode="&#x12c;" horiz-adv-x="516" 
d="M189 36l-30 906q5 1 -6 1q-10 0 -36.5 -0.5t-85.5 -2.5l3 41l471 5q0 -2 1.5 -8.5t2 -13t0 -12.5t-3.5 -7l-115 -6l-117 -903l214 10l-1 -43l-448 -13l-4 37zM383 1129q-7 -43 -28 -68t-49 -34.5t-58.5 -6t-55.5 17.5t-41.5 37t-15.5 51l45 3q6 -19 26 -33t44.5 -17t49 9
t41.5 46z" />
    <glyph glyph-name="Icircumflex" unicode="&#xce;" horiz-adv-x="516" 
d="M189 36l-30 906q5 1 -6 1q-10 0 -36.5 -0.5t-85.5 -2.5l3 41l471 5q0 -2 1.5 -8.5t2 -13t0 -12.5t-3.5 -7l-115 -6l-117 -903l214 10l-1 -43l-448 -13l-4 37zM181 992l-95 64l185 223l159 -258l-22 -17l-130 216z" />
    <glyph glyph-name="Idieresis" unicode="&#xcf;" horiz-adv-x="516" 
d="M189 36l-30 906q5 1 -6 1q-10 0 -36.5 -0.5t-85.5 -2.5l3 41l471 5q0 -2 1.5 -8.5t2 -13t0 -12.5t-3.5 -7l-115 -6l-117 -903l214 10l-1 -43l-448 -13l-4 37zM129 1014q-27 8 -38.5 23t-12 33.5t9 37t25 32.5t35 21t39.5 2q29 -9 41 -25t11.5 -34t-11.5 -35.5t-27 -31
t-35.5 -20.5t-36.5 -3zM319 1012q-27 8 -38.5 23t-12 33.5t9 37t25 32.5t35 21t39.5 2q29 -9 41 -25t11.5 -34t-11.5 -35.5t-27 -31t-35.5 -20.5t-36.5 -3z" />
    <glyph glyph-name="Idotaccent" unicode="&#x130;" horiz-adv-x="516" 
d="M189 36l-30 906q5 1 -6 1q-10 0 -36.5 -0.5t-85.5 -2.5l3 41l471 5q0 -2 1.5 -8.5t2 -13t0 -12.5t-3.5 -7l-115 -6l-117 -903l214 10l-1 -43l-448 -13l-4 37zM237 1008q-25 5 -37.5 19.5t-15 32t3 36t17 32.5t27.5 21.5t34 2.5q42 -9 57 -36t8.5 -54t-31.5 -45t-63 -9z
" />
    <glyph glyph-name="Igrave" unicode="&#xcc;" horiz-adv-x="516" 
d="M189 36l-30 906q5 1 -6 1q-10 0 -36.5 -0.5t-85.5 -2.5l3 41l471 5q0 -2 1.5 -8.5t2 -13t0 -12.5t-3.5 -7l-115 -6l-117 -903l214 10l-1 -43l-448 -13l-4 37zM116 1086l71 115l213 -209z" />
    <glyph glyph-name="Iogonek" unicode="&#x12e;" horiz-adv-x="516" 
d="M189 36l-30 906q5 1 -6 1q-10 0 -36.5 -0.5t-85.5 -2.5l3 41l471 5q0 -2 1.5 -8.5t2 -13t0 -12.5t-3.5 -7l-115 -6l-117 -903l214 10l-1 -43l-448 -13l-4 37zM514 -136q-34 -38 -64 -47.5t-53.5 0t-40.5 34t-24.5 55t-5 62.5t17.5 58l25 -8q-7 -18 -2.5 -46t19.5 -50.5
t39.5 -33t59.5 5.5z" />
    <glyph glyph-name="Imacron" horiz-adv-x="516" 
d="M189 36l-30 906q5 1 -6 1q-10 0 -36.5 -0.5t-85.5 -2.5l3 41l471 5q0 -2 1.5 -8.5t2 -13t0 -12.5t-3.5 -7l-115 -6l-117 -903l214 10l-1 -43l-448 -13l-4 37zM449 1132l2 -101l-384 -24l-2 134z" />
    <glyph glyph-name="Itilde" unicode="&#x128;" horiz-adv-x="516" 
d="M189 36l-30 906q5 1 -6 1q-10 0 -36.5 -0.5t-85.5 -2.5l3 41l471 5q0 -2 1.5 -8.5t2 -13t0 -12.5t-3.5 -7l-115 -6l-117 -903l214 10l-1 -43l-448 -13l-4 37zM59 1025q-5 79 18 132t64 66.5t95.5 -19t112.5 -123.5q23 -37 44 -41t33 11t11.5 42t-18.5 51h35
q20 -31 16.5 -63.5t-23.5 -53.5t-53 -22.5t-70 29.5q-47 39 -81.5 55t-59 16t-40 -11t-24 -25t-11 -27t-1.5 -17h-48z" />
    <glyph glyph-name="Jcircumflex" unicode="&#x134;" horiz-adv-x="640" 
d="M150 896l571 128l12 -42l-142 -35q7 -36 12 -97t5.5 -136t-6.5 -158.5t-25.5 -165.5t-49.5 -156t-79 -130.5t-115.5 -89.5t-157.5 -32q-53 1 -90 27t-56 66t-20 87t17.5 89.5t56.5 74.5t97 42q34 2 57.5 -9.5t36.5 -30.5t15.5 -42t-5.5 -43.5t-27 -35.5t-48 -19l-20 28
q35 7 51 22t18 31t-9 31.5t-29.5 24.5t-44 8t-52.5 -17q-26 -16 -43.5 -43.5t-25 -59.5t-4 -65t19.5 -61.5t44.5 -48.5t72.5 -25q69 11 113.5 53.5t70.5 104t35.5 137.5t8 154.5t-12 153t-24 134.5t-28.5 99.5t-25 46.5l-167 -39zM321 1028l-95 64l185 223l159 -258l-22 -17
l-130 216z" />
    <glyph glyph-name="Kcommaaccent" unicode="&#x136;" horiz-adv-x="627" 
d="M18 985h252l-64 -380l369 383l35 -26l-374 -404l376 -437l-116 -116l-310 503l-64 -507l-66 1zM216 -250q8 5 24.5 11t32.5 15t26 21t6 30q-12 -9 -29.5 -10.5t-33 4.5t-27 21t-12.5 39q-1 19 6 36.5t18.5 30.5t27 19.5t32.5 5.5q35 -3 53.5 -24t23.5 -49t-3.5 -58.5
t-28 -54t-49 -35.5t-67.5 -2z" />
    <glyph glyph-name="Lacute" unicode="&#x139;" horiz-adv-x="661" 
d="M74 2l-3 44q3 1 14 1.5t24 0.5h24t14 1l-121 930l326 6l-71 -930l355 -3l-1 -43zM170 1033l213 209l71 -115z" />
    <glyph glyph-name="Lcaron" unicode="&#x13d;" horiz-adv-x="661" 
d="M74 2l-3 44q3 1 14 1.5t24 0.5h24t14 1l-121 930l326 6l-71 -930l355 -3l-1 -43zM408 666q10 6 32 14.5t43 19.5t35.5 26t9.5 34q-17 -11 -39.5 -15t-43 1t-34.5 19.5t-14 41.5q0 21 9.5 41t25.5 35t36.5 24t42.5 9q45 0 68.5 -20.5t28.5 -50.5t-7 -64t-38.5 -62t-66 -44
t-88.5 -9z" />
    <glyph glyph-name="Lcommaaccent" unicode="&#x13b;" horiz-adv-x="661" 
d="M74 2l-3 44q3 1 14 1.5t24 0.5h24t14 1l-121 930l326 6l-71 -930l355 -3l-1 -43zM233 -250q8 5 24.5 11t32.5 15t26 21t6 30q-12 -9 -29.5 -10.5t-33 4.5t-27 21t-12.5 39q-1 19 6 36.5t18.5 30.5t27 19.5t32.5 5.5q35 -3 53.5 -24t23.5 -49t-3.5 -58.5t-28 -54
t-49 -35.5t-67.5 -2z" />
    <glyph glyph-name="Ldot" unicode="&#x13f;" horiz-adv-x="661" 
d="M74 2l-3 44q3 1 14 1.5t24 0.5h24t14 1l-121 930l326 6l-71 -930l355 -3l-1 -43zM451 439q-25 5 -37.5 19.5t-15 32t3 36t17 32.5t27.5 21.5t34 2.5q42 -9 57 -36t8.5 -54t-31.5 -45t-63 -9z" />
    <glyph glyph-name="Lslash" unicode="&#x141;" horiz-adv-x="663" 
d="M74 2l-3 44q3 1 14 1.5t24 0.5h24t14 1l-33 253l-62 -8l-28 103l76 9v-6h1l-1 6v4l-74 569l326 6l-43 -555l120 14l2 -101l-130 -17l-20 -271l355 -3l-1 -43zM100 406v4v-4z" />
    <glyph glyph-name="Nacute" unicode="&#x143;" horiz-adv-x="917" 
d="M27 0l39 969l93 4l449 -737q-36 97 -65 190t-44 176.5t-13 155t27 125t77 86t137 39.5q49 3 84.5 -12t57.5 -42t31 -62t6 -70.5t-18.5 -68t-42 -55t-64.5 -31t-86 4.5q-26 8 -37 29t-8.5 43t18 39.5t44.5 18.5q-16 -12 -24.5 -27t-9 -28.5t6.5 -24.5t22 -17q29 2 48.5 21
t28.5 46t8 57.5t-12 56.5t-32.5 43.5t-53.5 17.5q-71 -16 -109 -55t-51.5 -94t-6 -122.5t27 -141.5t47 -151t54.5 -150q1 -3 7.5 -21.5t15 -43.5t19 -54t19 -54t15 -43t7.5 -21l-49 -3l-522 891l128 -886zM316 992l213 209l71 -115z" />
    <glyph glyph-name="Ncaron" unicode="&#x147;" horiz-adv-x="917" 
d="M27 0l39 969l93 4l449 -737q-36 97 -65 190t-44 176.5t-13 155t27 125t77 86t137 39.5q49 3 84.5 -12t57.5 -42t31 -62t6 -70.5t-18.5 -68t-42 -55t-64.5 -31t-86 4.5q-26 8 -37 29t-8.5 43t18 39.5t44.5 18.5q-16 -12 -24.5 -27t-9 -28.5t6.5 -24.5t22 -17q29 2 48.5 21
t28.5 46t8 57.5t-12 56.5t-32.5 43.5t-53.5 17.5q-71 -16 -109 -55t-51.5 -94t-6 -122.5t27 -141.5t47 -151t54.5 -150q1 -3 7.5 -21.5t15 -43.5t19 -54t19 -54t15 -43t7.5 -21l-49 -3l-522 891l128 -886zM478 1051l130 216l22 -17l-159 -258l-185 223l95 64z" />
    <glyph glyph-name="Ncommaaccent" unicode="&#x145;" horiz-adv-x="917" 
d="M27 0l39 969l93 4l449 -737q-36 97 -65 190t-44 176.5t-13 155t27 125t77 86t137 39.5q49 3 84.5 -12t57.5 -42t31 -62t6 -70.5t-18.5 -68t-42 -55t-64.5 -31t-86 4.5q-26 8 -37 29t-8.5 43t18 39.5t44.5 18.5q-16 -12 -24.5 -27t-9 -28.5t6.5 -24.5t22 -17q29 2 48.5 21
t28.5 46t8 57.5t-12 56.5t-32.5 43.5t-53.5 17.5q-71 -16 -109 -55t-51.5 -94t-6 -122.5t27 -141.5t47 -151t54.5 -150q1 -3 7.5 -21.5t15 -43.5t19 -54t19 -54t15 -43t7.5 -21l-49 -3l-522 891l128 -886zM361 -250q8 5 24.5 11t32.5 15t26 21t6 30q-12 -9 -29.5 -10.5
t-33 4.5t-27 21t-12.5 39q-1 19 6 36.5t18.5 30.5t27 19.5t32.5 5.5q35 -3 53.5 -24t23.5 -49t-3.5 -58.5t-28 -54t-49 -35.5t-67.5 -2z" />
    <glyph glyph-name="Oacute" unicode="&#xd3;" horiz-adv-x="786" 
d="M440 7q-26 -10 -61 -13t-73.5 2.5t-78 20t-75 40.5t-64 64t-45.5 89q-19 84 -25 175t5 178t41 164.5t82.5 135.5t129 90.5t180.5 29.5q97 -19 160.5 -69t99 -119.5t45.5 -152.5t-1 -168t-40.5 -165t-72 -144.5t-95.5 -107t-112 -50.5zM420 936q-46 -19 -79.5 -66
t-55 -111t-31.5 -140.5t-9.5 -154t11.5 -150.5t30.5 -131t48 -94.5t64.5 -41.5q70 15 120 61t81 111t44 143t10.5 157.5t-20 154t-47.5 132.5t-72.5 93.5t-94.5 36.5zM251 992l213 209l71 -115z" />
    <glyph glyph-name="Ntilde" unicode="&#xd1;" horiz-adv-x="917" 
d="M27 0l39 969l93 4l449 -737q-36 97 -65 190t-44 176.5t-13 155t27 125t77 86t137 39.5q49 3 84.5 -12t57.5 -42t31 -62t6 -70.5t-18.5 -68t-42 -55t-64.5 -31t-86 4.5q-26 8 -37 29t-8.5 43t18 39.5t44.5 18.5q-16 -12 -24.5 -27t-9 -28.5t6.5 -24.5t22 -17q29 2 48.5 21
t28.5 46t8 57.5t-12 56.5t-32.5 43.5t-53.5 17.5q-71 -16 -109 -55t-51.5 -94t-6 -122.5t27 -141.5t47 -151t54.5 -150q1 -3 7.5 -21.5t15 -43.5t19 -54t19 -54t15 -43t7.5 -21l-49 -3l-522 891l128 -886zM164 1016q-5 79 18 132t64 66.5t95.5 -19t112.5 -123.5
q23 -37 44 -41t33 11t11.5 42t-18.5 51h35q20 -31 16.5 -63.5t-23.5 -53.5t-53 -22.5t-70 29.5q-47 39 -81.5 55t-59 16t-40 -11t-24 -25t-11 -27t-1.5 -17h-48z" />
    <glyph glyph-name="Obreve" unicode="&#x14e;" horiz-adv-x="786" 
d="M440 7q-26 -10 -61 -13t-73.5 2.5t-78 20t-75 40.5t-64 64t-45.5 89q-19 84 -25 175t5 178t41 164.5t82.5 135.5t129 90.5t180.5 29.5q97 -19 160.5 -69t99 -119.5t45.5 -152.5t-1 -168t-40.5 -165t-72 -144.5t-95.5 -107t-112 -50.5zM420 936q-46 -19 -79.5 -66
t-55 -111t-31.5 -140.5t-9.5 -154t11.5 -150.5t30.5 -131t48 -94.5t64.5 -41.5q70 15 120 61t81 111t44 143t10.5 157.5t-20 154t-47.5 132.5t-72.5 93.5t-94.5 36.5zM518 1129q-7 -43 -28 -68t-49 -34.5t-58.5 -6t-55.5 17.5t-41.5 37t-15.5 51l45 3q6 -19 26 -33t44.5 -17
t49 9t41.5 46z" />
    <glyph glyph-name="Ocircumflex" unicode="&#xd4;" horiz-adv-x="786" 
d="M440 7q-26 -10 -61 -13t-73.5 2.5t-78 20t-75 40.5t-64 64t-45.5 89q-19 84 -25 175t5 178t41 164.5t82.5 135.5t129 90.5t180.5 29.5q97 -19 160.5 -69t99 -119.5t45.5 -152.5t-1 -168t-40.5 -165t-72 -144.5t-95.5 -107t-112 -50.5zM420 936q-46 -19 -79.5 -66
t-55 -111t-31.5 -140.5t-9.5 -154t11.5 -150.5t30.5 -131t48 -94.5t64.5 -41.5q70 15 120 61t81 111t44 143t10.5 157.5t-20 154t-47.5 132.5t-72.5 93.5t-94.5 36.5zM316 992l-95 64l185 223l159 -258l-22 -17l-130 216z" />
    <glyph glyph-name="Odieresis" unicode="&#xd6;" horiz-adv-x="786" 
d="M440 7q-26 -10 -61 -13t-73.5 2.5t-78 20t-75 40.5t-64 64t-45.5 89q-19 84 -25 175t5 178t41 164.5t82.5 135.5t129 90.5t180.5 29.5q97 -19 160.5 -69t99 -119.5t45.5 -152.5t-1 -168t-40.5 -165t-72 -144.5t-95.5 -107t-112 -50.5zM420 936q-46 -19 -79.5 -66
t-55 -111t-31.5 -140.5t-9.5 -154t11.5 -150.5t30.5 -131t48 -94.5t64.5 -41.5q70 15 120 61t81 111t44 143t10.5 157.5t-20 154t-47.5 132.5t-72.5 93.5t-94.5 36.5zM264 1014q-27 8 -38.5 23t-12 33.5t9 37t25 32.5t35 21t39.5 2q29 -9 41 -25t11.5 -34t-11.5 -35.5
t-27 -31t-35.5 -20.5t-36.5 -3zM454 1012q-27 8 -38.5 23t-12 33.5t9 37t25 32.5t35 21t39.5 2q29 -9 41 -25t11.5 -34t-11.5 -35.5t-27 -31t-35.5 -20.5t-36.5 -3z" />
    <glyph glyph-name="Ograve" unicode="&#xd2;" horiz-adv-x="786" 
d="M440 7q-26 -10 -61 -13t-73.5 2.5t-78 20t-75 40.5t-64 64t-45.5 89q-19 84 -25 175t5 178t41 164.5t82.5 135.5t129 90.5t180.5 29.5q97 -19 160.5 -69t99 -119.5t45.5 -152.5t-1 -168t-40.5 -165t-72 -144.5t-95.5 -107t-112 -50.5zM420 936q-46 -19 -79.5 -66
t-55 -111t-31.5 -140.5t-9.5 -154t11.5 -150.5t30.5 -131t48 -94.5t64.5 -41.5q70 15 120 61t81 111t44 143t10.5 157.5t-20 154t-47.5 132.5t-72.5 93.5t-94.5 36.5zM251 1086l71 115l213 -209z" />
    <glyph glyph-name="Ohungarumlaut" unicode="&#x150;" horiz-adv-x="786" 
d="M440 7q-26 -10 -61 -13t-73.5 2.5t-78 20t-75 40.5t-64 64t-45.5 89q-19 84 -25 175t5 178t41 164.5t82.5 135.5t129 90.5t180.5 29.5q97 -19 160.5 -69t99 -119.5t45.5 -152.5t-1 -168t-40.5 -165t-72 -144.5t-95.5 -107t-112 -50.5zM420 936q-46 -19 -79.5 -66
t-55 -111t-31.5 -140.5t-9.5 -154t11.5 -150.5t30.5 -131t48 -94.5t64.5 -41.5q70 15 120 61t81 111t44 143t10.5 157.5t-20 154t-47.5 132.5t-72.5 93.5t-94.5 36.5zM141 992l213 209l71 -115zM361 989l213 209l71 -115z" />
    <glyph glyph-name="Omacron" unicode="&#x14c;" horiz-adv-x="786" 
d="M440 7q-26 -10 -61 -13t-73.5 2.5t-78 20t-75 40.5t-64 64t-45.5 89q-19 84 -25 175t5 178t41 164.5t82.5 135.5t129 90.5t180.5 29.5q97 -19 160.5 -69t99 -119.5t45.5 -152.5t-1 -168t-40.5 -165t-72 -144.5t-95.5 -107t-112 -50.5zM420 936q-46 -19 -79.5 -66
t-55 -111t-31.5 -140.5t-9.5 -154t11.5 -150.5t30.5 -131t48 -94.5t64.5 -41.5q70 15 120 61t81 111t44 143t10.5 157.5t-20 154t-47.5 132.5t-72.5 93.5t-94.5 36.5zM584 1132l2 -101l-384 -24l-2 134z" />
    <glyph glyph-name="Oslash" unicode="&#xd8;" horiz-adv-x="786" 
d="M1 25q2 1 6 8t11.5 21t20 37t32.5 57q-8 14 -15.5 29.5t-12.5 32.5q-19 84 -25 175t5 178t41 164.5t82.5 135.5t129 90.5t180.5 29.5q73 -16 124 -46q11 17 22 33t23 33l161 -77q-44 -57 -84 -108q31 -51 46.5 -112t17 -125.5t-9.5 -130.5t-32 -127.5t-51 -116t-66.5 -97
t-79 -69.5t-87.5 -33q-28 -11 -65.5 -13.5t-79 4.5t-83 25t-77.5 48q-35 -47 -46 -63t-11 -17zM399 47q62 13 108 50.5t77 91.5t48 119.5t21 135.5t-4 139.5t-26 131.5q-121 -158 -208 -271.5t-147 -194.5q19 -84 52 -140t79 -62zM420 936q-49 -20 -83.5 -70.5t-55.5 -120.5
t-30 -151.5t-6 -162.5q55 86 127.5 195.5t166.5 249.5q-26 28 -55.5 43.5t-63.5 16.5z" />
    <glyph glyph-name="Oslashacute" unicode="&#x1fe;" horiz-adv-x="786" 
d="M1 25q2 1 6 8t11.5 21t20 37t32.5 57q-8 14 -15.5 29.5t-12.5 32.5q-19 84 -25 175t5 178t41 164.5t82.5 135.5t129 90.5t180.5 29.5q73 -16 124 -46q11 17 22 33t23 33l161 -77q-44 -57 -84 -108q31 -51 46.5 -112t17 -125.5t-9.5 -130.5t-32 -127.5t-51 -116t-66.5 -97
t-79 -69.5t-87.5 -33q-28 -11 -65.5 -13.5t-79 4.5t-83 25t-77.5 48q-35 -47 -46 -63t-11 -17zM399 47q62 13 108 50.5t77 91.5t48 119.5t21 135.5t-4 139.5t-26 131.5q-121 -158 -208 -271.5t-147 -194.5q19 -84 52 -140t79 -62zM420 936q-49 -20 -83.5 -70.5t-55.5 -120.5
t-30 -151.5t-6 -162.5q55 86 127.5 195.5t166.5 249.5q-26 28 -55.5 43.5t-63.5 16.5zM251 992l213 209l71 -115z" />
    <glyph glyph-name="Otilde" unicode="&#xd5;" horiz-adv-x="786" 
d="M440 7q-26 -10 -61 -13t-73.5 2.5t-78 20t-75 40.5t-64 64t-45.5 89q-19 84 -25 175t5 178t41 164.5t82.5 135.5t129 90.5t180.5 29.5q97 -19 160.5 -69t99 -119.5t45.5 -152.5t-1 -168t-40.5 -165t-72 -144.5t-95.5 -107t-112 -50.5zM420 936q-46 -19 -79.5 -66
t-55 -111t-31.5 -140.5t-9.5 -154t11.5 -150.5t30.5 -131t48 -94.5t64.5 -41.5q70 15 120 61t81 111t44 143t10.5 157.5t-20 154t-47.5 132.5t-72.5 93.5t-94.5 36.5zM175 1002q-5 79 18 132t64 66.5t95.5 -19t112.5 -123.5q23 -37 44 -41t33 11t11.5 42t-18.5 51h35
q20 -31 16.5 -63.5t-23.5 -53.5t-53 -22.5t-70 29.5q-47 39 -81.5 55t-59 16t-40 -11t-24 -25t-11 -27t-1.5 -17h-48z" />
    <glyph glyph-name="OE" unicode="&#x152;" horiz-adv-x="1041" 
d="M1005 974l13 -121q-48 27 -97.5 39t-99 16t-99 3t-97.5 1l-45 -408l246 14l-4 -63l-241 -13l-54 -371q78 -3 140.5 5t112.5 23t87.5 34.5t65.5 39t47.5 37t32.5 28.5l-9 -215q-182 -21 -321 -29.5t-242 -5t-173.5 19t-116.5 43t-71 67.5t-37 92q-19 81 -25 168t3.5 171
t36 160.5t74 135.5t116.5 95.5t163 41.5zM376 908q-37 -31 -63 -83.5t-42 -117t-22.5 -137t-3.5 -144t14.5 -138t30.5 -118t46 -85t61 -38.5z" />
    <glyph glyph-name="Racute" unicode="&#x154;" horiz-adv-x="745" 
d="M73 0l-58 937l243 45l-8 -122q17 15 40.5 32t51 33t56.5 29t56 19.5t50.5 5t39.5 -14.5q37 -32 46 -77.5t-2.5 -97t-41 -106t-70 -104.5t-89.5 -92t-99 -68q-5 -19 -5 -53t7 -73.5t21.5 -80t38.5 -73.5t58.5 -54.5t82.5 -22.5q35 -1 59 14t38 36.5t20 46t4 43t-10.5 27
t-22.5 -0.5q-9 0 -15 -7t-9.5 -16.5t-4.5 -19.5t-1 -16l-18 -3q-3 10 0.5 28.5t13.5 36t27 31t41 13.5q35 1 56 -13t30 -36.5t8 -50t-10 -54t-24 -49.5t-33 -35q-45 -31 -94.5 -39.5t-96.5 4t-89 45t-73.5 83.5t-48.5 119t-14 152l-34 -13l-41 -388h-76zM446 871
q-3 14 -16.5 22t-33 9t-42.5 -5.5t-44.5 -22t-39.5 -40.5t-28 -60q-3 -15 -6 -42.5t-6 -60t-5.5 -66.5t-4.5 -63t-3 -49t-1 -24q93 64 142 130t70 122.5t21.5 96.5t-3.5 53zM230 992l213 209l71 -115z" />
    <glyph glyph-name="Rcaron" unicode="&#x158;" horiz-adv-x="745" 
d="M73 0l-58 937l243 45l-8 -122q17 15 40.5 32t51 33t56.5 29t56 19.5t50.5 5t39.5 -14.5q37 -32 46 -77.5t-2.5 -97t-41 -106t-70 -104.5t-89.5 -92t-99 -68q-5 -19 -5 -53t7 -73.5t21.5 -80t38.5 -73.5t58.5 -54.5t82.5 -22.5q35 -1 59 14t38 36.5t20 46t4 43t-10.5 27
t-22.5 -0.5q-9 0 -15 -7t-9.5 -16.5t-4.5 -19.5t-1 -16l-18 -3q-3 10 0.5 28.5t13.5 36t27 31t41 13.5q35 1 56 -13t30 -36.5t8 -50t-10 -54t-24 -49.5t-33 -35q-45 -31 -94.5 -39.5t-96.5 4t-89 45t-73.5 83.5t-48.5 119t-14 152l-34 -13l-41 -388h-76zM446 871
q-3 14 -16.5 22t-33 9t-42.5 -5.5t-44.5 -22t-39.5 -40.5t-28 -60q-3 -15 -6 -42.5t-6 -60t-5.5 -66.5t-4.5 -63t-3 -49t-1 -24q93 64 142 130t70 122.5t21.5 96.5t-3.5 53zM392 1051l130 216l22 -17l-159 -258l-185 223l95 64z" />
    <glyph glyph-name="Rcommaaccent" unicode="&#x156;" horiz-adv-x="745" 
d="M73 0l-58 937l243 45l-8 -122q17 15 40.5 32t51 33t56.5 29t56 19.5t50.5 5t39.5 -14.5q37 -32 46 -77.5t-2.5 -97t-41 -106t-70 -104.5t-89.5 -92t-99 -68q-5 -19 -5 -53t7 -73.5t21.5 -80t38.5 -73.5t58.5 -54.5t82.5 -22.5q35 -1 59 14t38 36.5t20 46t4 43t-10.5 27
t-22.5 -0.5q-9 0 -15 -7t-9.5 -16.5t-4.5 -19.5t-1 -16l-18 -3q-3 10 0.5 28.5t13.5 36t27 31t41 13.5q35 1 56 -13t30 -36.5t8 -50t-10 -54t-24 -49.5t-33 -35q-45 -31 -94.5 -39.5t-96.5 4t-89 45t-73.5 83.5t-48.5 119t-14 152l-34 -13l-41 -388h-76zM446 871
q-3 14 -16.5 22t-33 9t-42.5 -5.5t-44.5 -22t-39.5 -40.5t-28 -60q-3 -15 -6 -42.5t-6 -60t-5.5 -66.5t-4.5 -63t-3 -49t-1 -24q93 64 142 130t70 122.5t21.5 96.5t-3.5 53zM275 -250q8 5 24.5 11t32.5 15t26 21t6 30q-12 -9 -29.5 -10.5t-33 4.5t-27 21t-12.5 39
q-1 19 6 36.5t18.5 30.5t27 19.5t32.5 5.5q35 -3 53.5 -24t23.5 -49t-3.5 -58.5t-28 -54t-49 -35.5t-67.5 -2z" />
    <glyph glyph-name="Sacute" unicode="&#x15a;" horiz-adv-x="709" 
d="M199 -14q-76 1 -120 27.5t-60.5 63t-8.5 74.5t35 62t70 26t96 -34q-30 10 -56 5.5t-45 -17.5t-28.5 -31t-7.5 -36.5t18 -33.5t49 -21q42 -15 86 -7t84.5 31.5t73.5 60t54 78t25.5 85.5t-13 84t-60 72t-116.5 49q-43 12 -85 27.5t-75.5 39.5t-54.5 59t-21 85
q1 75 40 127.5t96.5 83t124 39t123.5 -4.5t94.5 -48.5t37.5 -92.5q-3 -35 -26.5 -62t-51 -36.5t-51.5 3.5t-28 58l32 9q6 -21 22 -28t31.5 -2.5t26 19.5t7.5 38q-7 46 -36 64t-66.5 14t-77.5 -26.5t-68.5 -57.5t-40 -79t8.5 -91q8 -33 32 -53.5t58.5 -34t75 -23t82 -20
t80 -24.5t68 -37.5t46.5 -58.5t15 -87q-3 -64 -26 -114t-59 -88t-84 -64t-101.5 -42.5t-111 -23.5t-113.5 -6zM212 992l213 209l71 -115z" />
    <glyph glyph-name="Scedilla" unicode="&#x15e;" horiz-adv-x="709" 
d="M199 -14q-76 1 -120 27.5t-60.5 63t-8.5 74.5t35 62t70 26t96 -34q-30 10 -56 5.5t-45 -17.5t-28.5 -31t-7.5 -36.5t18 -33.5t49 -21q42 -15 86 -7t84.5 31.5t73.5 60t54 78t25.5 85.5t-13 84t-60 72t-116.5 49q-43 12 -85 27.5t-75.5 39.5t-54.5 59t-21 85
q1 75 40 127.5t96.5 83t124 39t123.5 -4.5t94.5 -48.5t37.5 -92.5q-3 -35 -26.5 -62t-51 -36.5t-51.5 3.5t-28 58l32 9q6 -21 22 -28t31.5 -2.5t26 19.5t7.5 38q-7 46 -36 64t-66.5 14t-77.5 -26.5t-68.5 -57.5t-40 -79t8.5 -91q8 -33 32 -53.5t58.5 -34t75 -23t82 -20
t80 -24.5t68 -37.5t46.5 -58.5t15 -87q-3 -64 -26 -114t-59 -88t-84 -64t-101.5 -42.5t-111 -23.5t-113.5 -6zM213 1h73l-5 -38q67 6 107.5 -17t57 -59t10.5 -78.5t-33 -75t-73.5 -48.5t-110.5 1q-19 11 -32 28.5t-19 36.5t-5 37.5t9 30.5t24 16t39 -5q-20 -2 -27.5 -16
t-5 -30.5t13 -32t25.5 -21.5q29 2 48 15.5t26.5 32t4 40.5t-19 41t-43.5 33t-69 17z" />
    <glyph glyph-name="Scircumflex" unicode="&#x15c;" horiz-adv-x="709" 
d="M199 -14q-76 1 -120 27.5t-60.5 63t-8.5 74.5t35 62t70 26t96 -34q-30 10 -56 5.5t-45 -17.5t-28.5 -31t-7.5 -36.5t18 -33.5t49 -21q42 -15 86 -7t84.5 31.5t73.5 60t54 78t25.5 85.5t-13 84t-60 72t-116.5 49q-43 12 -85 27.5t-75.5 39.5t-54.5 59t-21 85
q1 75 40 127.5t96.5 83t124 39t123.5 -4.5t94.5 -48.5t37.5 -92.5q-3 -35 -26.5 -62t-51 -36.5t-51.5 3.5t-28 58l32 9q6 -21 22 -28t31.5 -2.5t26 19.5t7.5 38q-7 46 -36 64t-66.5 14t-77.5 -26.5t-68.5 -57.5t-40 -79t8.5 -91q8 -33 32 -53.5t58.5 -34t75 -23t82 -20
t80 -24.5t68 -37.5t46.5 -58.5t15 -87q-3 -64 -26 -114t-59 -88t-84 -64t-101.5 -42.5t-111 -23.5t-113.5 -6zM268 1015l-95 64l185 223l159 -258l-22 -17l-130 216z" />
    <glyph glyph-name="Scaron" unicode="&#x160;" horiz-adv-x="709" 
d="M199 -14q-76 1 -120 27.5t-60.5 63t-8.5 74.5t35 62t70 26t96 -34q-30 10 -56 5.5t-45 -17.5t-28.5 -31t-7.5 -36.5t18 -33.5t49 -21q42 -15 86 -7t84.5 31.5t73.5 60t54 78t25.5 85.5t-13 84t-60 72t-116.5 49q-43 12 -85 27.5t-75.5 39.5t-54.5 59t-21 85
q1 75 40 127.5t96.5 83t124 39t123.5 -4.5t94.5 -48.5t37.5 -92.5q-3 -35 -26.5 -62t-51 -36.5t-51.5 3.5t-28 58l32 9q6 -21 22 -28t31.5 -2.5t26 19.5t7.5 38q-7 46 -36 64t-66.5 14t-77.5 -26.5t-68.5 -57.5t-40 -79t8.5 -91q8 -33 32 -53.5t58.5 -34t75 -23t82 -20
t80 -24.5t68 -37.5t46.5 -58.5t15 -87q-3 -64 -26 -114t-59 -88t-84 -64t-101.5 -42.5t-111 -23.5t-113.5 -6zM374 1051l130 216l22 -17l-159 -258l-185 223l95 64z" />
    <glyph glyph-name="Scommaaccent" unicode="&#x218;" horiz-adv-x="709" 
d="M199 -14q-76 1 -120 27.5t-60.5 63t-8.5 74.5t35 62t70 26t96 -34q-30 10 -56 5.5t-45 -17.5t-28.5 -31t-7.5 -36.5t18 -33.5t49 -21q42 -15 86 -7t84.5 31.5t73.5 60t54 78t25.5 85.5t-13 84t-60 72t-116.5 49q-43 12 -85 27.5t-75.5 39.5t-54.5 59t-21 85
q1 75 40 127.5t96.5 83t124 39t123.5 -4.5t94.5 -48.5t37.5 -92.5q-3 -35 -26.5 -62t-51 -36.5t-51.5 3.5t-28 58l32 9q6 -21 22 -28t31.5 -2.5t26 19.5t7.5 38q-7 46 -36 64t-66.5 14t-77.5 -26.5t-68.5 -57.5t-40 -79t8.5 -91q8 -33 32 -53.5t58.5 -34t75 -23t82 -20
t80 -24.5t68 -37.5t46.5 -58.5t15 -87q-3 -64 -26 -114t-59 -88t-84 -64t-101.5 -42.5t-111 -23.5t-113.5 -6zM257 -250q8 5 24.5 11t32.5 15t26 21t6 30q-12 -9 -29.5 -10.5t-33 4.5t-27 21t-12.5 39q-1 19 6 36.5t18.5 30.5t27 19.5t32.5 5.5q35 -3 53.5 -24t23.5 -49
t-3.5 -58.5t-28 -54t-49 -35.5t-67.5 -2z" />
    <glyph glyph-name="Tbar" unicode="&#x166;" horiz-adv-x="683" 
d="M296 -5l-82 912q-77 4 -116.5 -7t-56.5 -24.5t-18 -24t-1 -6.5l-1 137l642 6v-131q-23 15 -40 26.5t-38 18.5t-50 9t-75 -2l-79 -914h-85zM532 731l2 -101l-384 -24l-2 134z" />
    <glyph glyph-name="Tcaron" unicode="&#x164;" horiz-adv-x="683" 
d="M296 -5l-82 912q-77 4 -116.5 -7t-56.5 -24.5t-18 -24t-1 -6.5l-1 137l642 6v-131q-23 15 -40 26.5t-38 18.5t-50 9t-75 -2l-79 -914h-85zM361 1051l130 216l22 -17l-159 -258l-185 223l95 64z" />
    <glyph glyph-name="Tcommaaccent" unicode="&#x162;" horiz-adv-x="683" 
d="M296 -5l-82 912q-77 4 -116.5 -7t-56.5 -24.5t-18 -24t-1 -6.5l-1 137l642 6v-131q-23 15 -40 26.5t-38 18.5t-50 9t-75 -2l-79 -914h-85zM244 -250q8 5 24.5 11t32.5 15t26 21t6 30q-12 -9 -29.5 -10.5t-33 4.5t-27 21t-12.5 39q-1 19 6 36.5t18.5 30.5t27 19.5
t32.5 5.5q35 -3 53.5 -24t23.5 -49t-3.5 -58.5t-28 -54t-49 -35.5t-67.5 -2z" />
    <glyph glyph-name="Uacute" unicode="&#xda;" horiz-adv-x="896" 
d="M25 935l-3 40l336 -1l-4 -36l-64 -3q-4 -55 -8.5 -136.5t-6 -173t1.5 -185t13.5 -171.5t30 -133t51.5 -70q32 -16 63 -1.5t59.5 52.5t53.5 95.5t46 127t37 147t25 156t11.5 153.5t-3.5 139h-70v40l282 3v-43l-48 3q-8 -61 -14 -141t-10 -168t-7 -177t-5 -167.5t-3 -140
t-2 -93.5l44 6q8 -13 6 -25.5t-2 -26.5l-206 -6v45l104 5l-45 412q-15 -51 -30 -105.5t-35 -106.5t-46.5 -98.5t-63.5 -80.5t-86.5 -53.5t-115.5 -16.5q-73 11 -116.5 60.5t-67 125t-30.5 170t-7 195t2.5 200.5t-0.5 187zM369 1019l213 209l71 -115z" />
    <glyph glyph-name="Ubreve" unicode="&#x16c;" horiz-adv-x="896" 
d="M25 935l-3 40l336 -1l-4 -36l-64 -3q-4 -55 -8.5 -136.5t-6 -173t1.5 -185t13.5 -171.5t30 -133t51.5 -70q32 -16 63 -1.5t59.5 52.5t53.5 95.5t46 127t37 147t25 156t11.5 153.5t-3.5 139h-70v40l282 3v-43l-48 3q-8 -61 -14 -141t-10 -168t-7 -177t-5 -167.5t-3 -140
t-2 -93.5l44 6q8 -13 6 -25.5t-2 -26.5l-206 -6v45l104 5l-45 412q-15 -51 -30 -105.5t-35 -106.5t-46.5 -98.5t-63.5 -80.5t-86.5 -53.5t-115.5 -16.5q-73 11 -116.5 60.5t-67 125t-30.5 170t-7 195t2.5 200.5t-0.5 187zM573 1129q-7 -43 -28 -68t-49 -34.5t-58.5 -6
t-55.5 17.5t-41.5 37t-15.5 51l45 3q6 -19 26 -33t44.5 -17t49 9t41.5 46z" />
    <glyph glyph-name="Ucircumflex" unicode="&#xdb;" horiz-adv-x="896" 
d="M25 935l-3 40l336 -1l-4 -36l-64 -3q-4 -55 -8.5 -136.5t-6 -173t1.5 -185t13.5 -171.5t30 -133t51.5 -70q32 -16 63 -1.5t59.5 52.5t53.5 95.5t46 127t37 147t25 156t11.5 153.5t-3.5 139h-70v40l282 3v-43l-48 3q-8 -61 -14 -141t-10 -168t-7 -177t-5 -167.5t-3 -140
t-2 -93.5l44 6q8 -13 6 -25.5t-2 -26.5l-206 -6v45l104 5l-45 412q-15 -51 -30 -105.5t-35 -106.5t-46.5 -98.5t-63.5 -80.5t-86.5 -53.5t-115.5 -16.5q-73 11 -116.5 60.5t-67 125t-30.5 170t-7 195t2.5 200.5t-0.5 187zM371 992l-95 64l185 223l159 -258l-22 -17l-130 216
z" />
    <glyph glyph-name="Udieresis" unicode="&#xdc;" horiz-adv-x="896" 
d="M25 935l-3 40l336 -1l-4 -36l-64 -3q-4 -55 -8.5 -136.5t-6 -173t1.5 -185t13.5 -171.5t30 -133t51.5 -70q32 -16 63 -1.5t59.5 52.5t53.5 95.5t46 127t37 147t25 156t11.5 153.5t-3.5 139h-70v40l282 3v-43l-48 3q-8 -61 -14 -141t-10 -168t-7 -177t-5 -167.5t-3 -140
t-2 -93.5l44 6q8 -13 6 -25.5t-2 -26.5l-206 -6v45l104 5l-45 412q-15 -51 -30 -105.5t-35 -106.5t-46.5 -98.5t-63.5 -80.5t-86.5 -53.5t-115.5 -16.5q-73 11 -116.5 60.5t-67 125t-30.5 170t-7 195t2.5 200.5t-0.5 187zM319 1014q-27 8 -38.5 23t-12 33.5t9 37t25 32.5
t35 21t39.5 2q29 -9 41 -25t11.5 -34t-11.5 -35.5t-27 -31t-35.5 -20.5t-36.5 -3zM509 1012q-27 8 -38.5 23t-12 33.5t9 37t25 32.5t35 21t39.5 2q29 -9 41 -25t11.5 -34t-11.5 -35.5t-27 -31t-35.5 -20.5t-36.5 -3z" />
    <glyph glyph-name="Ugrave" unicode="&#xd9;" horiz-adv-x="896" 
d="M25 935l-3 40l336 -1l-4 -36l-64 -3q-4 -55 -8.5 -136.5t-6 -173t1.5 -185t13.5 -171.5t30 -133t51.5 -70q32 -16 63 -1.5t59.5 52.5t53.5 95.5t46 127t37 147t25 156t11.5 153.5t-3.5 139h-70v40l282 3v-43l-48 3q-8 -61 -14 -141t-10 -168t-7 -177t-5 -167.5t-3 -140
t-2 -93.5l44 6q8 -13 6 -25.5t-2 -26.5l-206 -6v45l104 5l-45 412q-15 -51 -30 -105.5t-35 -106.5t-46.5 -98.5t-63.5 -80.5t-86.5 -53.5t-115.5 -16.5q-73 11 -116.5 60.5t-67 125t-30.5 170t-7 195t2.5 200.5t-0.5 187zM306 1086l71 115l213 -209z" />
    <glyph glyph-name="Uhungarumlaut" unicode="&#x170;" horiz-adv-x="896" 
d="M25 935l-3 40l336 -1l-4 -36l-64 -3q-4 -55 -8.5 -136.5t-6 -173t1.5 -185t13.5 -171.5t30 -133t51.5 -70q32 -16 63 -1.5t59.5 52.5t53.5 95.5t46 127t37 147t25 156t11.5 153.5t-3.5 139h-70v40l282 3v-43l-48 3q-8 -61 -14 -141t-10 -168t-7 -177t-5 -167.5t-3 -140
t-2 -93.5l44 6q8 -13 6 -25.5t-2 -26.5l-206 -6v45l104 5l-45 412q-15 -51 -30 -105.5t-35 -106.5t-46.5 -98.5t-63.5 -80.5t-86.5 -53.5t-115.5 -16.5q-73 11 -116.5 60.5t-67 125t-30.5 170t-7 195t2.5 200.5t-0.5 187zM196 992l213 209l71 -115zM416 989l213 209l71 -115
z" />
    <glyph glyph-name="Uogonek" unicode="&#x172;" horiz-adv-x="896" 
d="M25 935l-3 40l336 -1l-4 -36l-64 -3q-4 -55 -8.5 -136.5t-6 -173t1.5 -185t13.5 -171.5t30 -133t51.5 -70q32 -16 63 -1.5t59.5 52.5t53.5 95.5t46 127t37 147t25 156t11.5 153.5t-3.5 139h-70v40l282 3v-43l-48 3q-8 -61 -14 -141t-10 -168t-7 -177t-5 -167.5t-3 -140
t-2 -93.5l44 6q8 -13 6 -25.5t-2 -26.5l-206 -6v45l104 5l-45 412q-15 -51 -30 -105.5t-35 -106.5t-46.5 -98.5t-63.5 -80.5t-86.5 -53.5t-115.5 -16.5q-73 11 -116.5 60.5t-67 125t-30.5 170t-7 195t2.5 200.5t-0.5 187zM876 -136q-34 -38 -64 -47.5t-53.5 0t-40.5 34
t-24.5 55t-5 62.5t17.5 58l25 -8q-7 -18 -2.5 -46t19.5 -50.5t39.5 -33t59.5 5.5z" />
    <glyph glyph-name="Uring" unicode="&#x16e;" horiz-adv-x="896" 
d="M25 935l-3 40l336 -1l-4 -36l-64 -3q-4 -55 -8.5 -136.5t-6 -173t1.5 -185t13.5 -171.5t30 -133t51.5 -70q32 -16 63 -1.5t59.5 52.5t53.5 95.5t46 127t37 147t25 156t11.5 153.5t-3.5 139h-70v40l282 3v-43l-48 3q-8 -61 -14 -141t-10 -168t-7 -177t-5 -167.5t-3 -140
t-2 -93.5l44 6q8 -13 6 -25.5t-2 -26.5l-206 -6v45l104 5l-45 412q-15 -51 -30 -105.5t-35 -106.5t-46.5 -98.5t-63.5 -80.5t-86.5 -53.5t-115.5 -16.5q-73 11 -116.5 60.5t-67 125t-30.5 170t-7 195t2.5 200.5t-0.5 187zM385 1009q-39 14 -55 39.5t-15 55t17 58.5t41 50.5
t56.5 30.5t64.5 -2q43 -26 59.5 -56.5t13.5 -59.5t-21.5 -54.5t-45 -42.5t-57 -23t-58.5 4zM469 1207q-9 7 -23.5 4t-29.5 -13t-27.5 -25.5t-18 -33t-2 -35.5t22.5 -34q9 -5 30.5 7t39.5 33t24 47t-16 50z" />
    <glyph glyph-name="Utilde" unicode="&#x168;" horiz-adv-x="896" 
d="M25 935l-3 40l336 -1l-4 -36l-64 -3q-4 -55 -8.5 -136.5t-6 -173t1.5 -185t13.5 -171.5t30 -133t51.5 -70q32 -16 63 -1.5t59.5 52.5t53.5 95.5t46 127t37 147t25 156t11.5 153.5t-3.5 139h-70v40l282 3v-43l-48 3q-8 -61 -14 -141t-10 -168t-7 -177t-5 -167.5t-3 -140
t-2 -93.5l44 6q8 -13 6 -25.5t-2 -26.5l-206 -6v45l104 5l-45 412q-15 -51 -30 -105.5t-35 -106.5t-46.5 -98.5t-63.5 -80.5t-86.5 -53.5t-115.5 -16.5q-73 11 -116.5 60.5t-67 125t-30.5 170t-7 195t2.5 200.5t-0.5 187zM230 1002q-5 79 18 132t64 66.5t95.5 -19
t112.5 -123.5q23 -37 44 -41t33 11t11.5 42t-18.5 51h35q20 -31 16.5 -63.5t-23.5 -53.5t-53 -22.5t-70 29.5q-47 39 -81.5 55t-59 16t-40 -11t-24 -25t-11 -27t-1.5 -17h-48z" />
    <glyph glyph-name="Umacron" unicode="&#x16a;" horiz-adv-x="896" 
d="M25 935l-3 40l336 -1l-4 -36l-64 -3q-4 -55 -8.5 -136.5t-6 -173t1.5 -185t13.5 -171.5t30 -133t51.5 -70q32 -16 63 -1.5t59.5 52.5t53.5 95.5t46 127t37 147t25 156t11.5 153.5t-3.5 139h-70v40l282 3v-43l-48 3q-8 -61 -14 -141t-10 -168t-7 -177t-5 -167.5t-3 -140
t-2 -93.5l44 6q8 -13 6 -25.5t-2 -26.5l-206 -6v45l104 5l-45 412q-15 -51 -30 -105.5t-35 -106.5t-46.5 -98.5t-63.5 -80.5t-86.5 -53.5t-115.5 -16.5q-73 11 -116.5 60.5t-67 125t-30.5 170t-7 195t2.5 200.5t-0.5 187zM639 1132l2 -101l-384 -24l-2 134z" />
    <glyph glyph-name="Wacute" unicode="&#x1e82;" horiz-adv-x="1208" 
d="M10 920l267 78l215 -866l120 409l62 6l159 -351q11 62 19 146t19 174t28 177t46.5 154.5t74 107t110.5 35.5q31 -16 44.5 -36.5t14 -42.5t-9 -43.5t-23 -37.5t-28.5 -25t-26 -7l-18 32q32 16 45.5 36t13 38t-12 30.5t-30 13t-41 -13.5t-44.5 -50q-26 -42 -39.5 -109.5
t-18.5 -148.5t-4.5 -169.5t3.5 -172.5t6.5 -156.5t3.5 -122.5l-228 -10l-123 361l-103 -351h-89zM462 992l213 209l71 -115z" />
    <glyph glyph-name="Wcircumflex" unicode="&#x174;" horiz-adv-x="1208" 
d="M10 920l267 78l215 -866l120 409l62 6l159 -351q11 62 19 146t19 174t28 177t46.5 154.5t74 107t110.5 35.5q31 -16 44.5 -36.5t14 -42.5t-9 -43.5t-23 -37.5t-28.5 -25t-26 -7l-18 32q32 16 45.5 36t13 38t-12 30.5t-30 13t-41 -13.5t-44.5 -50q-26 -42 -39.5 -109.5
t-18.5 -148.5t-4.5 -169.5t3.5 -172.5t6.5 -156.5t3.5 -122.5l-228 -10l-123 361l-103 -351h-89zM527 992l-95 64l185 223l159 -258l-22 -17l-130 216z" />
    <glyph glyph-name="Wdieresis" unicode="&#x1e84;" horiz-adv-x="1208" 
d="M10 920l267 78l215 -866l120 409l62 6l159 -351q11 62 19 146t19 174t28 177t46.5 154.5t74 107t110.5 35.5q31 -16 44.5 -36.5t14 -42.5t-9 -43.5t-23 -37.5t-28.5 -25t-26 -7l-18 32q32 16 45.5 36t13 38t-12 30.5t-30 13t-41 -13.5t-44.5 -50q-26 -42 -39.5 -109.5
t-18.5 -148.5t-4.5 -169.5t3.5 -172.5t6.5 -156.5t3.5 -122.5l-228 -10l-123 361l-103 -351h-89zM475 1014q-27 8 -38.5 23t-12 33.5t9 37t25 32.5t35 21t39.5 2q29 -9 41 -25t11.5 -34t-11.5 -35.5t-27 -31t-35.5 -20.5t-36.5 -3zM665 1012q-27 8 -38.5 23t-12 33.5t9 37
t25 32.5t35 21t39.5 2q29 -9 41 -25t11.5 -34t-11.5 -35.5t-27 -31t-35.5 -20.5t-36.5 -3z" />
    <glyph glyph-name="Wgrave" unicode="&#x1e80;" horiz-adv-x="1208" 
d="M10 920l267 78l215 -866l120 409l62 6l159 -351q11 62 19 146t19 174t28 177t46.5 154.5t74 107t110.5 35.5q31 -16 44.5 -36.5t14 -42.5t-9 -43.5t-23 -37.5t-28.5 -25t-26 -7l-18 32q32 16 45.5 36t13 38t-12 30.5t-30 13t-41 -13.5t-44.5 -50q-26 -42 -39.5 -109.5
t-18.5 -148.5t-4.5 -169.5t3.5 -172.5t6.5 -156.5t3.5 -122.5l-228 -10l-123 361l-103 -351h-89zM462 1086l71 115l213 -209z" />
    <glyph glyph-name="Yacute" unicode="&#xdd;" horiz-adv-x="671" 
d="M202 9l145 608q-86 65 -145.5 110.5t-98 75t-59 46t-30 24.5t-11 10l-1.5 2l294 100l163 -269l160 275l35 -25l-176 -300l55 -666zM325 992l213 209l71 -115z" />
    <glyph glyph-name="Ycircumflex" unicode="&#x176;" horiz-adv-x="671" 
d="M202 9l145 608q-86 65 -145.5 110.5t-98 75t-59 46t-30 24.5t-11 10l-1.5 2l294 100l163 -269l160 275l35 -25l-176 -300l55 -666zM354 996l-95 64l185 223l159 -258l-22 -17l-130 216z" />
    <glyph glyph-name="Ydieresis" unicode="&#x178;" horiz-adv-x="671" 
d="M202 9l145 608q-86 65 -145.5 110.5t-98 75t-59 46t-30 24.5t-11 10l-1.5 2l294 100l163 -269l160 275l35 -25l-176 -300l55 -666zM310 1014q-27 8 -38.5 23t-12 33.5t9 37t25 32.5t35 21t39.5 2q29 -9 41 -25t11.5 -34t-11.5 -35.5t-27 -31t-35.5 -20.5t-36.5 -3z
M500 1012q-27 8 -38.5 23t-12 33.5t9 37t25 32.5t35 21t39.5 2q29 -9 41 -25t11.5 -34t-11.5 -35.5t-27 -31t-35.5 -20.5t-36.5 -3z" />
    <glyph glyph-name="Ygrave" unicode="&#x1ef2;" horiz-adv-x="671" 
d="M202 9l145 608q-86 65 -145.5 110.5t-98 75t-59 46t-30 24.5t-11 10l-1.5 2l294 100l163 -269l160 275l35 -25l-176 -300l55 -666zM239 1077l71 115l213 -209z" />
    <glyph glyph-name="Zacute" unicode="&#x179;" horiz-adv-x="877" 
d="M220 90q6 -14 38 -25t78 -17t101.5 -4.5t109.5 11t101.5 28.5t77.5 50t37.5 74.5t-17.5 102.5q-21 14 -46.5 14t-48 -13.5t-37.5 -39t-15 -61.5q-19 36 -15.5 64.5t22 48t47 30.5t60.5 11t62 -10.5t51 -33.5t29 -58.5t-6 -85.5q-16 -51 -55.5 -85t-94.5 -55t-121.5 -30.5
t-136 -12.5t-138 -1t-128 5t-105 5t-69.5 -2l529 918q-58 10 -123 4.5t-128.5 -23.5t-121.5 -47t-103 -66l27 182l748 19l-609 -897v0zM296 992l213 209l71 -115z" />
    <glyph glyph-name="Zcaron" unicode="&#x17d;" horiz-adv-x="877" 
d="M220 90q6 -14 38 -25t78 -17t101.5 -4.5t109.5 11t101.5 28.5t77.5 50t37.5 74.5t-17.5 102.5q-21 14 -46.5 14t-48 -13.5t-37.5 -39t-15 -61.5q-19 36 -15.5 64.5t22 48t47 30.5t60.5 11t62 -10.5t51 -33.5t29 -58.5t-6 -85.5q-16 -51 -55.5 -85t-94.5 -55t-121.5 -30.5
t-136 -12.5t-138 -1t-128 5t-105 5t-69.5 -2l529 918q-58 10 -123 4.5t-128.5 -23.5t-121.5 -47t-103 -66l27 182l748 19l-609 -897v0zM458 1051l130 216l22 -17l-159 -258l-185 223l95 64z" />
    <glyph glyph-name="Zdotaccent" unicode="&#x17b;" horiz-adv-x="877" 
d="M220 90q6 -14 38 -25t78 -17t101.5 -4.5t109.5 11t101.5 28.5t77.5 50t37.5 74.5t-17.5 102.5q-21 14 -46.5 14t-48 -13.5t-37.5 -39t-15 -61.5q-19 36 -15.5 64.5t22 48t47 30.5t60.5 11t62 -10.5t51 -33.5t29 -58.5t-6 -85.5q-16 -51 -55.5 -85t-94.5 -55t-121.5 -30.5
t-136 -12.5t-138 -1t-128 5t-105 5t-69.5 -2l529 918q-58 10 -123 4.5t-128.5 -23.5t-121.5 -47t-103 -66l27 182l748 19l-609 -897v0zM418 1008q-25 5 -37.5 19.5t-15 32t3 36t17 32.5t27.5 21.5t34 2.5q42 -9 57 -36t8.5 -54t-31.5 -45t-63 -9z" />
    <glyph glyph-name="aacute" unicode="&#xe1;" horiz-adv-x="681" 
d="M494 -16q-30 -1 -45.5 14.5t-23 38t-9.5 48.5t-5 47q-48 -63 -124.5 -99t-169.5 -33q-49 9 -72 42t-25 80t14.5 102t46.5 106.5t71.5 94.5t88.5 65.5t97 19.5t99 -43l20 72l155 -15q-12 -32 -30.5 -75.5t-37.5 -91.5t-36.5 -97t-27 -92t-9 -76t17.5 -50q24 -11 47.5 -5
t43.5 21.5t34.5 38t20.5 44.5l25 -38q-7 -26 -25.5 -47.5t-42.5 -37.5t-50 -25t-48 -9zM139 190q0 -51 27.5 -77t77.5 -26q45 0 76.5 18.5t60.5 51.5q-2 6 0 24.5t6 43t9.5 53t10 55.5t8 50t3.5 36q-23 41 -54.5 51.5t-64.5 -1t-65 -40.5t-55 -68.5t-35 -84t-5 -86.5z
M198 533l213 209l71 -115z" />
    <glyph glyph-name="abreve" unicode="&#x103;" horiz-adv-x="681" 
d="M494 -16q-30 -1 -45.5 14.5t-23 38t-9.5 48.5t-5 47q-48 -63 -124.5 -99t-169.5 -33q-49 9 -72 42t-25 80t14.5 102t46.5 106.5t71.5 94.5t88.5 65.5t97 19.5t99 -43l20 72l155 -15q-12 -32 -30.5 -75.5t-37.5 -91.5t-36.5 -97t-27 -92t-9 -76t17.5 -50q24 -11 47.5 -5
t43.5 21.5t34.5 38t20.5 44.5l25 -38q-7 -26 -25.5 -47.5t-42.5 -37.5t-50 -25t-48 -9zM139 190q0 -51 27.5 -77t77.5 -26q45 0 76.5 18.5t60.5 51.5q-2 6 0 24.5t6 43t9.5 53t10 55.5t8 50t3.5 36q-23 41 -54.5 51.5t-64.5 -1t-65 -40.5t-55 -68.5t-35 -84t-5 -86.5z
M466 670q-7 -43 -28 -68t-49 -34.5t-58.5 -6t-55.5 17.5t-41.5 37t-15.5 51l45 3q6 -19 26 -33t44.5 -17t49 9t41.5 46z" />
    <glyph glyph-name="acircumflex" unicode="&#xe2;" horiz-adv-x="681" 
d="M494 -16q-30 -1 -45.5 14.5t-23 38t-9.5 48.5t-5 47q-48 -63 -124.5 -99t-169.5 -33q-49 9 -72 42t-25 80t14.5 102t46.5 106.5t71.5 94.5t88.5 65.5t97 19.5t99 -43l20 72l155 -15q-12 -32 -30.5 -75.5t-37.5 -91.5t-36.5 -97t-27 -92t-9 -76t17.5 -50q24 -11 47.5 -5
t43.5 21.5t34.5 38t20.5 44.5l25 -38q-7 -26 -25.5 -47.5t-42.5 -37.5t-50 -25t-48 -9zM139 190q0 -51 27.5 -77t77.5 -26q45 0 76.5 18.5t60.5 51.5q-2 6 0 24.5t6 43t9.5 53t10 55.5t8 50t3.5 36q-23 41 -54.5 51.5t-64.5 -1t-65 -40.5t-55 -68.5t-35 -84t-5 -86.5z
M263 533l-95 64l185 223l159 -258l-22 -17l-130 216z" />
    <glyph glyph-name="adieresis" unicode="&#xe4;" horiz-adv-x="681" 
d="M494 -16q-30 -1 -45.5 14.5t-23 38t-9.5 48.5t-5 47q-48 -63 -124.5 -99t-169.5 -33q-49 9 -72 42t-25 80t14.5 102t46.5 106.5t71.5 94.5t88.5 65.5t97 19.5t99 -43l20 72l155 -15q-12 -32 -30.5 -75.5t-37.5 -91.5t-36.5 -97t-27 -92t-9 -76t17.5 -50q24 -11 47.5 -5
t43.5 21.5t34.5 38t20.5 44.5l25 -38q-7 -26 -25.5 -47.5t-42.5 -37.5t-50 -25t-48 -9zM139 190q0 -51 27.5 -77t77.5 -26q45 0 76.5 18.5t60.5 51.5q-2 6 0 24.5t6 43t9.5 53t10 55.5t8 50t3.5 36q-23 41 -54.5 51.5t-64.5 -1t-65 -40.5t-55 -68.5t-35 -84t-5 -86.5z
M211 555q-27 8 -38.5 23t-12 33.5t9 37t25 32.5t35 21t39.5 2q29 -9 41 -25t11.5 -34t-11.5 -35.5t-27 -31t-35.5 -20.5t-36.5 -3zM401 553q-27 8 -38.5 23t-12 33.5t9 37t25 32.5t35 21t39.5 2q29 -9 41 -25t11.5 -34t-11.5 -35.5t-27 -31t-35.5 -20.5t-36.5 -3z" />
    <glyph glyph-name="agrave" unicode="&#xe0;" horiz-adv-x="681" 
d="M494 -16q-30 -1 -45.5 14.5t-23 38t-9.5 48.5t-5 47q-48 -63 -124.5 -99t-169.5 -33q-49 9 -72 42t-25 80t14.5 102t46.5 106.5t71.5 94.5t88.5 65.5t97 19.5t99 -43l20 72l155 -15q-12 -32 -30.5 -75.5t-37.5 -91.5t-36.5 -97t-27 -92t-9 -76t17.5 -50q24 -11 47.5 -5
t43.5 21.5t34.5 38t20.5 44.5l25 -38q-7 -26 -25.5 -47.5t-42.5 -37.5t-50 -25t-48 -9zM139 190q0 -51 27.5 -77t77.5 -26q45 0 76.5 18.5t60.5 51.5q-2 6 0 24.5t6 43t9.5 53t10 55.5t8 50t3.5 36q-23 41 -54.5 51.5t-64.5 -1t-65 -40.5t-55 -68.5t-35 -84t-5 -86.5z
M143 631l71 115l213 -209z" />
    <glyph glyph-name="amacron" unicode="&#x101;" horiz-adv-x="681" 
d="M494 -16q-30 -1 -45.5 14.5t-23 38t-9.5 48.5t-5 47q-48 -63 -124.5 -99t-169.5 -33q-49 9 -72 42t-25 80t14.5 102t46.5 106.5t71.5 94.5t88.5 65.5t97 19.5t99 -43l20 72l155 -15q-12 -32 -30.5 -75.5t-37.5 -91.5t-36.5 -97t-27 -92t-9 -76t17.5 -50q24 -11 47.5 -5
t43.5 21.5t34.5 38t20.5 44.5l25 -38q-7 -26 -25.5 -47.5t-42.5 -37.5t-50 -25t-48 -9zM139 190q0 -51 27.5 -77t77.5 -26q45 0 76.5 18.5t60.5 51.5q-2 6 0 24.5t6 43t9.5 53t10 55.5t8 50t3.5 36q-23 41 -54.5 51.5t-64.5 -1t-65 -40.5t-55 -68.5t-35 -84t-5 -86.5z
M531 673l2 -101l-384 -24l-2 134z" />
    <glyph glyph-name="aogonek" unicode="&#x105;" horiz-adv-x="681" 
d="M494 -16q-30 -1 -45.5 14.5t-23 38t-9.5 48.5t-5 47q-48 -63 -124.5 -99t-169.5 -33q-49 9 -72 42t-25 80t14.5 102t46.5 106.5t71.5 94.5t88.5 65.5t97 19.5t99 -43l20 72l155 -15q-12 -32 -30.5 -75.5t-37.5 -91.5t-36.5 -97t-27 -92t-9 -76t17.5 -50q24 -11 47.5 -5
t43.5 21.5t34.5 38t20.5 44.5l25 -38q-7 -26 -25.5 -47.5t-42.5 -37.5t-50 -25t-48 -9zM139 190q0 -51 27.5 -77t77.5 -26q45 0 76.5 18.5t60.5 51.5q-2 6 0 24.5t6 43t9.5 53t10 55.5t8 50t3.5 36q-23 41 -54.5 51.5t-64.5 -1t-65 -40.5t-55 -68.5t-35 -84t-5 -86.5z
M660 -136q-34 -38 -64 -47.5t-53.5 0t-40.5 34t-24.5 55t-5 62.5t17.5 58l25 -8q-7 -18 -2.5 -46t19.5 -50.5t39.5 -33t59.5 5.5z" />
    <glyph glyph-name="aring" unicode="&#xe5;" horiz-adv-x="681" 
d="M494 -16q-30 -1 -45.5 14.5t-23 38t-9.5 48.5t-5 47q-48 -63 -124.5 -99t-169.5 -33q-49 9 -72 42t-25 80t14.5 102t46.5 106.5t71.5 94.5t88.5 65.5t97 19.5t99 -43l20 72l155 -15q-12 -32 -30.5 -75.5t-37.5 -91.5t-36.5 -97t-27 -92t-9 -76t17.5 -50q24 -11 47.5 -5
t43.5 21.5t34.5 38t20.5 44.5l25 -38q-7 -26 -25.5 -47.5t-42.5 -37.5t-50 -25t-48 -9zM139 190q0 -51 27.5 -77t77.5 -26q45 0 76.5 18.5t60.5 51.5q-2 6 0 24.5t6 43t9.5 53t10 55.5t8 50t3.5 36q-23 41 -54.5 51.5t-64.5 -1t-65 -40.5t-55 -68.5t-35 -84t-5 -86.5z
M277 550q-39 14 -55 39.5t-15 55t17 58.5t41 50.5t56.5 30.5t64.5 -2q43 -26 59.5 -56.5t13.5 -59.5t-21.5 -54.5t-45 -42.5t-57 -23t-58.5 4zM361 748q-9 7 -23.5 4t-29.5 -13t-27.5 -25.5t-18 -33t-2 -35.5t22.5 -34q9 -5 30.5 7t39.5 33t24 47t-16 50z" />
    <glyph glyph-name="atilde" unicode="&#xe3;" horiz-adv-x="681" 
d="M494 -16q-30 -1 -45.5 14.5t-23 38t-9.5 48.5t-5 47q-48 -63 -124.5 -99t-169.5 -33q-49 9 -72 42t-25 80t14.5 102t46.5 106.5t71.5 94.5t88.5 65.5t97 19.5t99 -43l20 72l155 -15q-12 -32 -30.5 -75.5t-37.5 -91.5t-36.5 -97t-27 -92t-9 -76t17.5 -50q24 -11 47.5 -5
t43.5 21.5t34.5 38t20.5 44.5l25 -38q-7 -26 -25.5 -47.5t-42.5 -37.5t-50 -25t-48 -9zM139 190q0 -51 27.5 -77t77.5 -26q45 0 76.5 18.5t60.5 51.5q-2 6 0 24.5t6 43t9.5 53t10 55.5t8 50t3.5 36q-23 41 -54.5 51.5t-64.5 -1t-65 -40.5t-55 -68.5t-35 -84t-5 -86.5z
M132 602q-5 79 18 132t64 66.5t95.5 -19t112.5 -123.5q23 -37 44 -41t33 11t11.5 42t-18.5 51h35q20 -31 16.5 -63.5t-23.5 -53.5t-53 -22.5t-70 29.5q-47 39 -81.5 55t-59 16t-40 -11t-24 -25t-11 -27t-1.5 -17h-48z" />
    <glyph glyph-name="ae" unicode="&#xe6;" horiz-adv-x="873" 
d="M437 467q28 19 62.5 37.5t70 30.5t71 15t67 -6.5t56.5 -35t41 -70.5q4 -13 -10 -31t-39 -39.5t-58 -44.5t-67.5 -47t-66 -47t-53.5 -44q-3 -11 -2 -26.5t5.5 -30.5t13 -26.5t21.5 -14.5q23 -14 52 -17t59.5 3t58.5 20t49.5 34t32.5 46.5t7 57.5q1 -1 8 1t15 5t14 5.5
t6 1.5q7 -60 -27 -107t-91 -78t-127.5 -44t-137.5 -5q-37 -1 -68 15t-51 45q-47 -35 -106 -53.5t-126 -16.5q-49 9 -72 42t-25 80t14.5 102t46.5 106.5t71.5 94.5t88.5 65.5t97 19.5t99 -43zM326 259q10 40 32.5 85.5t53.5 84.5q-24 36 -55 43.5t-64 -5t-63.5 -42.5
t-53 -68.5t-33.5 -82t-4 -84.5q0 -51 27.5 -77t77.5 -26q48 0 85 23q-11 31 -12.5 68t9.5 81zM476 417q1 -23 3 -42.5t5 -38.5t7 -38.5t9 -42.5q8 7 34.5 19.5t56 29t56 38t34.5 46.5q6 26 -2.5 44.5t-26.5 29t-42 13.5t-49 -2.5t-47.5 -19.5t-37.5 -36z" />
    <glyph glyph-name="aeacute" unicode="&#x1fd;" horiz-adv-x="873" 
d="M437 467q28 19 62.5 37.5t70 30.5t71 15t67 -6.5t56.5 -35t41 -70.5q4 -13 -10 -31t-39 -39.5t-58 -44.5t-67.5 -47t-66 -47t-53.5 -44q-3 -11 -2 -26.5t5.5 -30.5t13 -26.5t21.5 -14.5q23 -14 52 -17t59.5 3t58.5 20t49.5 34t32.5 46.5t7 57.5q1 -1 8 1t15 5t14 5.5
t6 1.5q7 -60 -27 -107t-91 -78t-127.5 -44t-137.5 -5q-37 -1 -68 15t-51 45q-47 -35 -106 -53.5t-126 -16.5q-49 9 -72 42t-25 80t14.5 102t46.5 106.5t71.5 94.5t88.5 65.5t97 19.5t99 -43zM326 259q10 40 32.5 85.5t53.5 84.5q-24 36 -55 43.5t-64 -5t-63.5 -42.5
t-53 -68.5t-33.5 -82t-4 -84.5q0 -51 27.5 -77t77.5 -26q48 0 85 23q-11 31 -12.5 68t9.5 81zM476 417q1 -23 3 -42.5t5 -38.5t7 -38.5t9 -42.5q8 7 34.5 19.5t56 29t56 38t34.5 46.5q6 26 -2.5 44.5t-26.5 29t-42 13.5t-49 -2.5t-47.5 -19.5t-37.5 -36zM294 533l213 209
l71 -115z" />
    <glyph glyph-name="cacute" unicode="&#x107;" 
d="M146 1q-59 19 -87.5 64t-33.5 101.5t11 118t46.5 113.5t72.5 88t89 42q35 4 63.5 -3t49.5 -17.5t34.5 -20.5t18.5 -13l3 20l44 -3l-3 -106l-44 5q-1 8 0.5 21.5t2.5 21.5q-5 10 -25 22t-45 18.5t-50 4.5t-41 -19q-24 -26 -41 -66.5t-26 -85t-10.5 -90t5 -82t21 -60
t37.5 -25.5q28 -5 61.5 -1.5t64.5 18.5t54 42t29 68l38 -2q-7 -57 -38 -93.5t-77.5 -56t-104.5 -25t-119 0.5zM107 533l213 209l71 -115z" />
    <glyph glyph-name="ccaron" unicode="&#x10d;" 
d="M146 1q-59 19 -87.5 64t-33.5 101.5t11 118t46.5 113.5t72.5 88t89 42q35 4 63.5 -3t49.5 -17.5t34.5 -20.5t18.5 -13l3 20l44 -3l-3 -106l-44 5q-1 8 0.5 21.5t2.5 21.5q-5 10 -25 22t-45 18.5t-50 4.5t-41 -19q-24 -26 -41 -66.5t-26 -85t-10.5 -90t5 -82t21 -60
t37.5 -25.5q28 -5 61.5 -1.5t64.5 18.5t54 42t29 68l38 -2q-7 -57 -38 -93.5t-77.5 -56t-104.5 -25t-119 0.5zM269 592l130 216l22 -17l-159 -258l-185 223l95 64z" />
    <glyph glyph-name="ccedilla" unicode="&#xe7;" 
d="M146 1q-59 19 -87.5 64t-33.5 101.5t11 118t46.5 113.5t72.5 88t89 42q35 4 63.5 -3t49.5 -17.5t34.5 -20.5t18.5 -13l3 20l44 -3l-3 -106l-44 5q-1 8 0.5 21.5t2.5 21.5q-5 10 -25 22t-45 18.5t-50 4.5t-41 -19q-24 -26 -41 -66.5t-26 -85t-10.5 -90t5 -82t21 -60
t37.5 -25.5q28 -5 61.5 -1.5t64.5 18.5t54 42t29 68l38 -2q-7 -57 -38 -93.5t-77.5 -56t-104.5 -25t-119 0.5zM195 15h73l-5 -38q67 6 107.5 -17t57 -59t10.5 -78.5t-33 -75t-73.5 -48.5t-110.5 1q-19 11 -32 28.5t-19 36.5t-5 37.5t9 30.5t24 16t39 -5q-20 -2 -27.5 -16
t-5 -30.5t13 -32t25.5 -21.5q29 2 48 15.5t26.5 32t4 40.5t-19 41t-43.5 33t-69 17z" />
    <glyph glyph-name="ccircumflex" unicode="&#x109;" 
d="M146 1q-59 19 -87.5 64t-33.5 101.5t11 118t46.5 113.5t72.5 88t89 42q35 4 63.5 -3t49.5 -17.5t34.5 -20.5t18.5 -13l3 20l44 -3l-3 -106l-44 5q-1 8 0.5 21.5t2.5 21.5q-5 10 -25 22t-45 18.5t-50 4.5t-41 -19q-24 -26 -41 -66.5t-26 -85t-10.5 -90t5 -82t21 -60
t37.5 -25.5q28 -5 61.5 -1.5t64.5 18.5t54 42t29 68l38 -2q-7 -57 -38 -93.5t-77.5 -56t-104.5 -25t-119 0.5zM172 533l-95 64l185 223l159 -258l-22 -17l-130 216z" />
    <glyph glyph-name="cdotaccent" unicode="&#x10b;" 
d="M146 1q-59 19 -87.5 64t-33.5 101.5t11 118t46.5 113.5t72.5 88t89 42q35 4 63.5 -3t49.5 -17.5t34.5 -20.5t18.5 -13l3 20l44 -3l-3 -106l-44 5q-1 8 0.5 21.5t2.5 21.5q-5 10 -25 22t-45 18.5t-50 4.5t-41 -19q-24 -26 -41 -66.5t-26 -85t-10.5 -90t5 -82t21 -60
t37.5 -25.5q28 -5 61.5 -1.5t64.5 18.5t54 42t29 68l38 -2q-7 -57 -38 -93.5t-77.5 -56t-104.5 -25t-119 0.5zM229 549q-25 5 -37.5 19.5t-15 32t3 36t17 32.5t27.5 21.5t34 2.5q42 -9 57 -36t8.5 -54t-31.5 -45t-63 -9z" />
    <glyph glyph-name="dcaron" unicode="&#x10f;" horiz-adv-x="679" 
d="M17 129q2 53 21 102.5t50 92.5t72.5 77.5t90 56t101 29t106.5 -3.5l-24 490l210 21q0 -1 -1.5 -11t-6.5 -38t-13.5 -78t-22.5 -132t-35 -199.5t-49 -280.5q-12 -72 -12.5 -114.5t5.5 -65.5t15 -30t17 -8q24 -4 40 9t26 33t14 44t5 43h34q3 -30 -6 -64t-28.5 -60t-49 -38
t-67.5 1q-28 21 -38.5 46.5t-12 56.5t2 68.5t5.5 82.5q-23 -40 -60.5 -85.5t-83.5 -84.5t-97.5 -64.5t-100.5 -25.5q-28 0 -48 11t-33 29t-19.5 41.5t-6.5 48.5zM173 216q0 -15 3 -34.5t10.5 -37t20 -29.5t31.5 -12h13q39 15 76.5 43t67 64t47 78.5t17.5 86.5q0 39 -12 61
t-53 22q-47 0 -87.5 -20.5t-70 -54.5t-46.5 -77.5t-17 -89.5zM636 599q10 6 32 14.5t43 19.5t35.5 26t9.5 34q-17 -11 -39.5 -15t-43 1t-34.5 19.5t-14 41.5q0 21 9.5 41t25.5 35t36.5 24t42.5 9q45 0 68.5 -20.5t28.5 -50.5t-7 -64t-38.5 -62t-66 -44t-88.5 -9z" />
    <glyph glyph-name="dcroat" unicode="&#x111;" horiz-adv-x="679" 
d="M17 129q2 53 21 102.5t50 92.5t72.5 77.5t90 56t101 29t106.5 -3.5l-24 490l210 21q0 -1 -1.5 -11t-6.5 -38t-13.5 -78t-22.5 -132t-35 -199.5t-49 -280.5q-12 -72 -12.5 -114.5t5.5 -65.5t15 -30t17 -8q24 -4 40 9t26 33t14 44t5 43h34q3 -30 -6 -64t-28.5 -60t-49 -38
t-67.5 1q-28 21 -38.5 46.5t-12 56.5t2 68.5t5.5 82.5q-23 -40 -60.5 -85.5t-83.5 -84.5t-97.5 -64.5t-100.5 -25.5q-28 0 -48 11t-33 29t-19.5 41.5t-6.5 48.5zM173 216q0 -15 3 -34.5t10.5 -37t20 -29.5t31.5 -12h13q39 15 76.5 43t67 64t47 78.5t17.5 86.5q0 39 -12 61
t-53 22q-47 0 -87.5 -20.5t-70 -54.5t-46.5 -77.5t-17 -89.5zM680 731l2 -101l-379 -49l-5 180z" />
    <glyph glyph-name="eacute" unicode="&#xe9;" horiz-adv-x="570" 
d="M30 250q7 28 20.5 60.5t32.5 63t42 58t49 46.5q42 26 92 45t97 18.5t86 -25.5t60 -87q4 -13 -10 -31t-39 -39.5t-58 -44.5t-67.5 -47t-66 -47t-53.5 -44q-3 -11 -2 -26.5t5.5 -30.5t13 -26.5t21.5 -14.5q23 -13 52 -16.5t59.5 2.5t58.5 19.5t49.5 34.5t32.5 47t7 57
q1 -1 8 1t15 5t14 5.5t6 1.5q7 -60 -27 -107t-91 -78t-127.5 -44t-137.5 -5q-39 -1 -71.5 17.5t-53 51.5t-26 79t8.5 101zM180 408q1 -23 3 -42.5t5 -38.5t7 -38.5t9 -42.5q8 7 34.5 19.5t56 29t56 38t34.5 46.5q6 26 -2.5 44.5t-26.5 29t-42 13.5t-49 -2.5t-47.5 -19.5
t-37.5 -36zM143 533l213 209l71 -115z" />
    <glyph glyph-name="ebreve" unicode="&#x115;" horiz-adv-x="570" 
d="M30 250q7 28 20.5 60.5t32.5 63t42 58t49 46.5q42 26 92 45t97 18.5t86 -25.5t60 -87q4 -13 -10 -31t-39 -39.5t-58 -44.5t-67.5 -47t-66 -47t-53.5 -44q-3 -11 -2 -26.5t5.5 -30.5t13 -26.5t21.5 -14.5q23 -13 52 -16.5t59.5 2.5t58.5 19.5t49.5 34.5t32.5 47t7 57
q1 -1 8 1t15 5t14 5.5t6 1.5q7 -60 -27 -107t-91 -78t-127.5 -44t-137.5 -5q-39 -1 -71.5 17.5t-53 51.5t-26 79t8.5 101zM180 408q1 -23 3 -42.5t5 -38.5t7 -38.5t9 -42.5q8 7 34.5 19.5t56 29t56 38t34.5 46.5q6 26 -2.5 44.5t-26.5 29t-42 13.5t-49 -2.5t-47.5 -19.5
t-37.5 -36zM410 670q-7 -43 -28 -68t-49 -34.5t-58.5 -6t-55.5 17.5t-41.5 37t-15.5 51l45 3q6 -19 26 -33t44.5 -17t49 9t41.5 46z" />
    <glyph glyph-name="edieresis" unicode="&#xeb;" horiz-adv-x="570" 
d="M30 250q7 28 20.5 60.5t32.5 63t42 58t49 46.5q42 26 92 45t97 18.5t86 -25.5t60 -87q4 -13 -10 -31t-39 -39.5t-58 -44.5t-67.5 -47t-66 -47t-53.5 -44q-3 -11 -2 -26.5t5.5 -30.5t13 -26.5t21.5 -14.5q23 -13 52 -16.5t59.5 2.5t58.5 19.5t49.5 34.5t32.5 47t7 57
q1 -1 8 1t15 5t14 5.5t6 1.5q7 -60 -27 -107t-91 -78t-127.5 -44t-137.5 -5q-39 -1 -71.5 17.5t-53 51.5t-26 79t8.5 101zM180 408q1 -23 3 -42.5t5 -38.5t7 -38.5t9 -42.5q8 7 34.5 19.5t56 29t56 38t34.5 46.5q6 26 -2.5 44.5t-26.5 29t-42 13.5t-49 -2.5t-47.5 -19.5
t-37.5 -36zM156 555q-27 8 -38.5 23t-12 33.5t9 37t25 32.5t35 21t39.5 2q29 -9 41 -25t11.5 -34t-11.5 -35.5t-27 -31t-35.5 -20.5t-36.5 -3zM346 553q-27 8 -38.5 23t-12 33.5t9 37t25 32.5t35 21t39.5 2q29 -9 41 -25t11.5 -34t-11.5 -35.5t-27 -31t-35.5 -20.5t-36.5 -3
z" />
    <glyph glyph-name="ecaron" unicode="&#x11b;" horiz-adv-x="570" 
d="M30 250q7 28 20.5 60.5t32.5 63t42 58t49 46.5q42 26 92 45t97 18.5t86 -25.5t60 -87q4 -13 -10 -31t-39 -39.5t-58 -44.5t-67.5 -47t-66 -47t-53.5 -44q-3 -11 -2 -26.5t5.5 -30.5t13 -26.5t21.5 -14.5q23 -13 52 -16.5t59.5 2.5t58.5 19.5t49.5 34.5t32.5 47t7 57
q1 -1 8 1t15 5t14 5.5t6 1.5q7 -60 -27 -107t-91 -78t-127.5 -44t-137.5 -5q-39 -1 -71.5 17.5t-53 51.5t-26 79t8.5 101zM180 408q1 -23 3 -42.5t5 -38.5t7 -38.5t9 -42.5q8 7 34.5 19.5t56 29t56 38t34.5 46.5q6 26 -2.5 44.5t-26.5 29t-42 13.5t-49 -2.5t-47.5 -19.5
t-37.5 -36zM318 638l130 216l22 -17l-159 -258l-185 223l95 64z" />
    <glyph glyph-name="ecircumflex" unicode="&#xea;" horiz-adv-x="570" 
d="M30 250q7 28 20.5 60.5t32.5 63t42 58t49 46.5q42 26 92 45t97 18.5t86 -25.5t60 -87q4 -13 -10 -31t-39 -39.5t-58 -44.5t-67.5 -47t-66 -47t-53.5 -44q-3 -11 -2 -26.5t5.5 -30.5t13 -26.5t21.5 -14.5q23 -13 52 -16.5t59.5 2.5t58.5 19.5t49.5 34.5t32.5 47t7 57
q1 -1 8 1t15 5t14 5.5t6 1.5q7 -60 -27 -107t-91 -78t-127.5 -44t-137.5 -5q-39 -1 -71.5 17.5t-53 51.5t-26 79t8.5 101zM180 408q1 -23 3 -42.5t5 -38.5t7 -38.5t9 -42.5q8 7 34.5 19.5t56 29t56 38t34.5 46.5q6 26 -2.5 44.5t-26.5 29t-42 13.5t-49 -2.5t-47.5 -19.5
t-37.5 -36zM208 533l-95 64l185 223l159 -258l-22 -17l-130 216z" />
    <glyph glyph-name="emacron" unicode="&#x113;" horiz-adv-x="570" 
d="M30 250q7 28 20.5 60.5t32.5 63t42 58t49 46.5q42 26 92 45t97 18.5t86 -25.5t60 -87q4 -13 -10 -31t-39 -39.5t-58 -44.5t-67.5 -47t-66 -47t-53.5 -44q-3 -11 -2 -26.5t5.5 -30.5t13 -26.5t21.5 -14.5q23 -13 52 -16.5t59.5 2.5t58.5 19.5t49.5 34.5t32.5 47t7 57
q1 -1 8 1t15 5t14 5.5t6 1.5q7 -60 -27 -107t-91 -78t-127.5 -44t-137.5 -5q-39 -1 -71.5 17.5t-53 51.5t-26 79t8.5 101zM180 408q1 -23 3 -42.5t5 -38.5t7 -38.5t9 -42.5q8 7 34.5 19.5t56 29t56 38t34.5 46.5q6 26 -2.5 44.5t-26.5 29t-42 13.5t-49 -2.5t-47.5 -19.5
t-37.5 -36zM476 673l2 -101l-384 -24l-2 134z" />
    <glyph glyph-name="edotaccent" unicode="&#x117;" horiz-adv-x="570" 
d="M30 250q7 28 20.5 60.5t32.5 63t42 58t49 46.5q42 26 92 45t97 18.5t86 -25.5t60 -87q4 -13 -10 -31t-39 -39.5t-58 -44.5t-67.5 -47t-66 -47t-53.5 -44q-3 -11 -2 -26.5t5.5 -30.5t13 -26.5t21.5 -14.5q23 -13 52 -16.5t59.5 2.5t58.5 19.5t49.5 34.5t32.5 47t7 57
q1 -1 8 1t15 5t14 5.5t6 1.5q7 -60 -27 -107t-91 -78t-127.5 -44t-137.5 -5q-39 -1 -71.5 17.5t-53 51.5t-26 79t8.5 101zM180 408q1 -23 3 -42.5t5 -38.5t7 -38.5t9 -42.5q8 7 34.5 19.5t56 29t56 38t34.5 46.5q6 26 -2.5 44.5t-26.5 29t-42 13.5t-49 -2.5t-47.5 -19.5
t-37.5 -36zM264 549q-25 5 -37.5 19.5t-15 32t3 36t17 32.5t27.5 21.5t34 2.5q42 -9 57 -36t8.5 -54t-31.5 -45t-63 -9z" />
    <glyph glyph-name="egrave" unicode="&#xe8;" horiz-adv-x="570" 
d="M30 250q7 28 20.5 60.5t32.5 63t42 58t49 46.5q42 26 92 45t97 18.5t86 -25.5t60 -87q4 -13 -10 -31t-39 -39.5t-58 -44.5t-67.5 -47t-66 -47t-53.5 -44q-3 -11 -2 -26.5t5.5 -30.5t13 -26.5t21.5 -14.5q23 -13 52 -16.5t59.5 2.5t58.5 19.5t49.5 34.5t32.5 47t7 57
q1 -1 8 1t15 5t14 5.5t6 1.5q7 -60 -27 -107t-91 -78t-127.5 -44t-137.5 -5q-39 -1 -71.5 17.5t-53 51.5t-26 79t8.5 101zM180 408q1 -23 3 -42.5t5 -38.5t7 -38.5t9 -42.5q8 7 34.5 19.5t56 29t56 38t34.5 46.5q6 26 -2.5 44.5t-26.5 29t-42 13.5t-49 -2.5t-47.5 -19.5
t-37.5 -36zM138 686l71 115l213 -209z" />
    <glyph glyph-name="eogonek" unicode="&#x119;" horiz-adv-x="570" 
d="M30 250q7 28 20.5 60.5t32.5 63t42 58t49 46.5q42 26 92 45t97 18.5t86 -25.5t60 -87q4 -13 -10 -31t-39 -39.5t-58 -44.5t-67.5 -47t-66 -47t-53.5 -44q-3 -11 -2 -26.5t5.5 -30.5t13 -26.5t21.5 -14.5q23 -13 52 -16.5t59.5 2.5t58.5 19.5t49.5 34.5t32.5 47t7 57
q1 -1 8 1t15 5t14 5.5t6 1.5q7 -60 -27 -107t-91 -78t-127.5 -44t-137.5 -5q-39 -1 -71.5 17.5t-53 51.5t-26 79t8.5 101zM180 408q1 -23 3 -42.5t5 -38.5t7 -38.5t9 -42.5q8 7 34.5 19.5t56 29t56 38t34.5 46.5q6 26 -2.5 44.5t-26.5 29t-42 13.5t-49 -2.5t-47.5 -19.5
t-37.5 -36zM564 -90q-34 -38 -64 -47.5t-53.5 0t-40.5 34t-24.5 55t-5 62.5t17.5 58l25 -8q-7 -18 -2.5 -46t19.5 -50.5t39.5 -33t59.5 5.5z" />
    <glyph glyph-name="gbreve" unicode="&#x11f;" horiz-adv-x="604" 
d="M-40 -336q0 47 16 88t41.5 73.5t59 54t70 31t72.5 4.5t67 -27l-18 -25q-25 19 -56.5 18.5t-60 -18t-50 -51t-26.5 -81.5q-8 -50 3.5 -99.5t39.5 -85t71 -50.5t99 4q59 20 92 62t47.5 97.5t15.5 119.5t-5.5 128.5t-15.5 125t-13 108.5q-20 -33 -56.5 -62t-80 -49
t-88.5 -27t-81.5 4.5t-59.5 44.5t-22 94q0 82 28 155.5t69.5 128t91.5 86.5t94.5 31.5t78 -38t43.5 -121.5q2 17 4.5 39.5t7.5 46.5t14 47.5t25 42.5t40.5 31t60.5 14l-2 -44q-26 3 -44 -7.5t-29.5 -31.5t-16.5 -49t-5.5 -58.5t3.5 -62t10 -58.5q1 -8 10.5 -36t22 -71.5
t26.5 -98t23 -115t10.5 -123.5t-9 -122.5t-36.5 -112.5t-72 -93q-42 -34 -94 -54t-106.5 -24t-106.5 7t-94.5 38t-71.5 69.5t-36 101.5zM193 204q-3 -46 8.5 -74t30.5 -40t43 -9t47 19.5t42 45.5t28 69q5 21 8 53.5t1.5 68.5t-9.5 71.5t-24 63.5q-31 20 -56 14.5
t-43.5 -27.5t-32 -56t-22.5 -70t-14 -71t-7 -58zM427 670q-7 -43 -28 -68t-49 -34.5t-58.5 -6t-55.5 17.5t-41.5 37t-15.5 51l45 3q6 -19 26 -33t44.5 -17t49 9t41.5 46z" />
    <glyph glyph-name="gcircumflex" unicode="&#x11d;" horiz-adv-x="604" 
d="M-40 -336q0 47 16 88t41.5 73.5t59 54t70 31t72.5 4.5t67 -27l-18 -25q-25 19 -56.5 18.5t-60 -18t-50 -51t-26.5 -81.5q-8 -50 3.5 -99.5t39.5 -85t71 -50.5t99 4q59 20 92 62t47.5 97.5t15.5 119.5t-5.5 128.5t-15.5 125t-13 108.5q-20 -33 -56.5 -62t-80 -49
t-88.5 -27t-81.5 4.5t-59.5 44.5t-22 94q0 82 28 155.5t69.5 128t91.5 86.5t94.5 31.5t78 -38t43.5 -121.5q2 17 4.5 39.5t7.5 46.5t14 47.5t25 42.5t40.5 31t60.5 14l-2 -44q-26 3 -44 -7.5t-29.5 -31.5t-16.5 -49t-5.5 -58.5t3.5 -62t10 -58.5q1 -8 10.5 -36t22 -71.5
t26.5 -98t23 -115t10.5 -123.5t-9 -122.5t-36.5 -112.5t-72 -93q-42 -34 -94 -54t-106.5 -24t-106.5 7t-94.5 38t-71.5 69.5t-36 101.5zM193 204q-3 -46 8.5 -74t30.5 -40t43 -9t47 19.5t42 45.5t28 69q5 21 8 53.5t1.5 68.5t-9.5 71.5t-24 63.5q-31 20 -56 14.5
t-43.5 -27.5t-32 -56t-22.5 -70t-14 -71t-7 -58zM230 593l-95 64l185 223l159 -258l-22 -17l-130 216z" />
    <glyph glyph-name="gdotaccent" unicode="&#x121;" horiz-adv-x="604" 
d="M-40 -336q0 47 16 88t41.5 73.5t59 54t70 31t72.5 4.5t67 -27l-18 -25q-25 19 -56.5 18.5t-60 -18t-50 -51t-26.5 -81.5q-8 -50 3.5 -99.5t39.5 -85t71 -50.5t99 4q59 20 92 62t47.5 97.5t15.5 119.5t-5.5 128.5t-15.5 125t-13 108.5q-20 -33 -56.5 -62t-80 -49
t-88.5 -27t-81.5 4.5t-59.5 44.5t-22 94q0 82 28 155.5t69.5 128t91.5 86.5t94.5 31.5t78 -38t43.5 -121.5q2 17 4.5 39.5t7.5 46.5t14 47.5t25 42.5t40.5 31t60.5 14l-2 -44q-26 3 -44 -7.5t-29.5 -31.5t-16.5 -49t-5.5 -58.5t3.5 -62t10 -58.5q1 -8 10.5 -36t22 -71.5
t26.5 -98t23 -115t10.5 -123.5t-9 -122.5t-36.5 -112.5t-72 -93q-42 -34 -94 -54t-106.5 -24t-106.5 7t-94.5 38t-71.5 69.5t-36 101.5zM193 204q-3 -46 8.5 -74t30.5 -40t43 -9t47 19.5t42 45.5t28 69q5 21 8 53.5t1.5 68.5t-9.5 71.5t-24 63.5q-31 20 -56 14.5
t-43.5 -27.5t-32 -56t-22.5 -70t-14 -71t-7 -58zM272 595q-25 5 -37.5 19.5t-15 32t3 36t17 32.5t27.5 21.5t34 2.5q42 -9 57 -36t8.5 -54t-31.5 -45t-63 -9z" />
    <glyph glyph-name="gcommaaccent" unicode="&#x123;" horiz-adv-x="604" 
d="M-40 -336q0 47 16 88t41.5 73.5t59 54t70 31t72.5 4.5t67 -27l-18 -25q-25 19 -56.5 18.5t-60 -18t-50 -51t-26.5 -81.5q-8 -50 3.5 -99.5t39.5 -85t71 -50.5t99 4q59 20 92 62t47.5 97.5t15.5 119.5t-5.5 128.5t-15.5 125t-13 108.5q-20 -33 -56.5 -62t-80 -49
t-88.5 -27t-81.5 4.5t-59.5 44.5t-22 94q0 82 28 155.5t69.5 128t91.5 86.5t94.5 31.5t78 -38t43.5 -121.5q2 17 4.5 39.5t7.5 46.5t14 47.5t25 42.5t40.5 31t60.5 14l-2 -44q-26 3 -44 -7.5t-29.5 -31.5t-16.5 -49t-5.5 -58.5t3.5 -62t10 -58.5q1 -8 10.5 -36t22 -71.5
t26.5 -98t23 -115t10.5 -123.5t-9 -122.5t-36.5 -112.5t-72 -93q-42 -34 -94 -54t-106.5 -24t-106.5 7t-94.5 38t-71.5 69.5t-36 101.5zM193 204q-3 -46 8.5 -74t30.5 -40t43 -9t47 19.5t42 45.5t28 69q5 21 8 53.5t1.5 68.5t-9.5 71.5t-24 63.5q-31 20 -56 14.5
t-43.5 -27.5t-32 -56t-22.5 -70t-14 -71t-7 -58zM375 603q-49 -7 -88.5 9t-66 44t-38.5 62t-7 64t28.5 50.5t68.5 20.5q22 0 42.5 -9t36.5 -24t25.5 -35t9.5 -41q0 -27 -14 -41.5t-34.5 -19.5t-43 -1t-39.5 15q-5 -19 9.5 -34t35.5 -26t42.5 -19.5t32.5 -14.5z" />
    <glyph glyph-name="hbar" unicode="&#x127;" horiz-adv-x="579" 
d="M17 717l-14 270h221l-26 -274l113 -3l2 -101l-126 -8l-20 -218v-5q32 32 61 63t60 55t65.5 38t77.5 13q36 -3 56.5 -27t31.5 -64.5t15 -93t6 -112t4.5 -123.5t11.5 -125l-156 1q17 113 29 198.5t15 144.5t-5 91.5t-32 39.5q-27 8 -64 -12t-74 -53t-69 -71t-50 -66
l-35 -277h-59l-32 593l-95 -6l-2 134z" />
    <glyph glyph-name="hcircumflex" unicode="&#x125;" horiz-adv-x="579" 
d="M400 3q17 113 29 198.5t15 144.5t-5 91.5t-32 39.5q-27 8 -64 -12t-74 -53t-69 -71t-50 -66l-35 -277h-59l-53 989h221l-57 -604v-5q32 32 61 63t60 55t65.5 38t77.5 13q36 -3 56.5 -27t31.5 -64.5t15 -93t6 -112t4.5 -123.5t11.5 -125zM317 994l-95 64l185 223l159 -258
l-22 -17l-130 216z" />
    <glyph glyph-name="iacute" unicode="&#xed;" horiz-adv-x="262" 
d="M104 0q-2 20 -8.5 57.5t-18 100.5t-27.5 155.5t-36 222.5q92 2 138.5 3.5t65 2l18.5 0.5v0l-82 -542h-50zM-5 615l213 209l71 -115z" />
    <glyph glyph-name="ibreve" horiz-adv-x="262" 
d="M104 0q-2 20 -8.5 57.5t-18 100.5t-27.5 155.5t-36 222.5q92 2 138.5 3.5t65 2l18.5 0.5v0l-82 -542h-50zM258 670q-7 -43 -28 -68t-49 -34.5t-58.5 -6t-55.5 17.5t-41.5 37t-15.5 51l45 3q6 -19 26 -33t44.5 -17t49 9t41.5 46z" />
    <glyph glyph-name="icircumflex" unicode="&#xee;" horiz-adv-x="262" 
d="M104 0q-2 20 -8.5 57.5t-18 100.5t-27.5 155.5t-36 222.5q92 2 138.5 3.5t65 2l18.5 0.5v0l-82 -542h-50zM55 597l-95 64l185 223l159 -258l-22 -17l-130 216z" />
    <glyph glyph-name="idieresis" unicode="&#xef;" horiz-adv-x="262" 
d="M104 0q-2 20 -8.5 57.5t-18 100.5t-27.5 155.5t-36 222.5q92 2 138.5 3.5t65 2l18.5 0.5v0l-82 -542h-50zM8 600q-27 8 -38.5 23t-12 33.5t9 37t25 32.5t35 21t39.5 2q29 -9 41 -25t11.5 -34t-11.5 -35.5t-27 -31t-35.5 -20.5t-36.5 -3zM198 598q-27 8 -38.5 23t-12 33.5
t9 37t25 32.5t35 21t39.5 2q29 -9 41 -25t11.5 -34t-11.5 -35.5t-27 -31t-35.5 -20.5t-36.5 -3z" />
    <glyph glyph-name="igrave" unicode="&#xec;" horiz-adv-x="262" 
d="M104 0q-2 20 -8.5 57.5t-18 100.5t-27.5 155.5t-36 222.5q92 2 138.5 3.5t65 2l18.5 0.5v0l-82 -542h-50zM-15 746l71 115l213 -209z" />
    <glyph glyph-name="imacron" unicode="&#x12b;" horiz-adv-x="262" 
d="M104 0q-2 20 -8.5 57.5t-18 100.5t-27.5 155.5t-36 222.5q92 2 138.5 3.5t65 2l18.5 0.5v0l-82 -542h-50zM328 723l2 -101l-384 -24l-2 134z" />
    <glyph glyph-name="iogonek" unicode="&#x12f;" horiz-adv-x="262" 
d="M104 0q-2 20 -8.5 57.5t-18 100.5t-27.5 155.5t-36 222.5q92 2 138.5 3.5t65 2l18.5 0.5v0l-82 -542h-50zM114 674q-42 -1 -61 22t-19.5 54.5t15 63t42.5 47.5q36 10 61 2.5t39 -25.5t16 -43t-7.5 -49t-31 -44t-54.5 -28zM267 -122q-34 -38 -64 -47.5t-53.5 0t-40.5 34
t-24.5 55t-5 62.5t17.5 58l25 -8q-7 -18 -2.5 -46t19.5 -50.5t39.5 -33t59.5 5.5z" />
    <glyph glyph-name="itilde" unicode="&#x129;" horiz-adv-x="262" 
d="M104 0q-2 20 -8.5 57.5t-18 100.5t-27.5 155.5t-36 222.5q92 2 138.5 3.5t65 2l18.5 0.5v0l-82 -542h-50zM-85 607q-5 79 18 132t64 66.5t95.5 -19t112.5 -123.5q23 -37 44 -41t33 11t11.5 42t-18.5 51h35q20 -31 16.5 -63.5t-23.5 -53.5t-53 -22.5t-70 29.5
q-47 39 -81.5 55t-59 16t-40 -11t-24 -25t-11 -27t-1.5 -17h-48z" />
    <glyph glyph-name="dotlessj" unicode="&#x237;" horiz-adv-x="369" 
d="M-171 -542q-70 1 -116.5 35t-68.5 84.5t-20.5 110t26 112.5t72 91.5t117.5 47.5q34 2 57.5 -9.5t36.5 -30.5t15.5 -42t-5.5 -43.5t-27 -35.5t-48 -19l-20 28q34 7 51.5 22t21 32t-5.5 32.5t-26 24.5t-41.5 8.5t-51.5 -16.5q-39 -24 -59 -80.5t-20 -128.5q0 -27 8 -60
t24.5 -61.5t41 -47.5t57.5 -19q51 3 101 38t90 92t65.5 130t27.5 151q4 117 -4 217.5t-20 178.5t-25.5 129.5t-21.5 70.5l255 27q-1 -27 -2 -87t-6 -140.5t-16.5 -174.5t-33.5 -188t-56.5 -181t-86 -153.5t-122 -106t-164.5 -38.5z" />
    <glyph glyph-name="jcircumflex" unicode="&#x135;" horiz-adv-x="369" 
d="M-171 -542q-70 1 -116.5 35t-68.5 84.5t-20.5 110t26 112.5t72 91.5t117.5 47.5q34 2 57.5 -9.5t36.5 -30.5t15.5 -42t-5.5 -43.5t-27 -35.5t-48 -19l-20 28q34 7 51.5 22t21 32t-5.5 32.5t-26 24.5t-41.5 8.5t-51.5 -16.5q-39 -24 -59 -80.5t-20 -128.5q0 -27 8 -60
t24.5 -61.5t41 -47.5t57.5 -19q51 3 101 38t90 92t65.5 130t27.5 151q4 117 -4 217.5t-20 178.5t-25.5 129.5t-21.5 70.5l255 27q-1 -27 -2 -87t-6 -140.5t-16.5 -174.5t-33.5 -188t-56.5 -181t-86 -153.5t-122 -106t-164.5 -38.5zM102 593l-95 64l185 223l159 -258l-22 -17
l-130 216z" />
    <glyph glyph-name="kcommaaccent" unicode="&#x137;" horiz-adv-x="542" 
d="M43 982h222l-102 -613l250 180l17 -25l-231 -178l338 -279l-67 -64l-323 302l-59 -305h-53zM173 -250q8 5 24.5 11t32.5 15t26 21t6 30q-12 -9 -29.5 -10.5t-33 4.5t-27 21t-12.5 39q-1 19 6 36.5t18.5 30.5t27 19.5t32.5 5.5q35 -3 53.5 -24t23.5 -49t-3.5 -58.5
t-28 -54t-49 -35.5t-67.5 -2z" />
    <glyph glyph-name="lacute" unicode="&#x13a;" horiz-adv-x="259" 
d="M12 976l221 4l-55 -978q0 -3 -5.5 -4t-13 -0.5t-14.5 1.5t-10 1zM25 1039l213 209l71 -115z" />
    <glyph glyph-name="lcaron" unicode="&#x13e;" horiz-adv-x="462" 
d="M9 985l221 4l-55 -978q0 -3 -5.5 -4t-13 -0.5t-14.5 1.5t-10 1zM244.346 665.346q10.0674 5.5 32.2168 13.292q22.1484 7.79199 43.291 17.875q21.1426 10.084 35.7402 23.834q14.5986 13.751 9.56445 31.168q-17.1152 -10.084 -39.7676 -13.751
q-22.6523 -3.66602 -43.291 0.916992t-34.7334 17.875t-14.0947 38.043q0 19.25 9.56348 37.584q9.56445 18.334 25.6729 32.084q16.1084 13.751 36.748 22.001q20.6387 8.25 42.7871 8.25q45.3057 0 68.9648 -18.792t28.6924 -46.293q5.03418 -27.501 -7.04688 -58.668
t-38.7607 -56.835q-26.6797 -25.667 -66.4473 -40.334t-89.0996 -8.25z" />
    <glyph glyph-name="lcommaaccent" unicode="&#x13c;" horiz-adv-x="259" 
d="M12 976l221 4l-55 -978q0 -3 -5.5 -4t-13 -0.5t-14.5 1.5t-10 1zM73 -254q8 5 24.5 11t32.5 15t26 21t6 30q-12 -9 -29.5 -10.5t-33 4.5t-27 21t-12.5 39q-1 19 6 36.5t18.5 30.5t27 19.5t32.5 5.5q35 -3 53.5 -24t23.5 -49t-3.5 -58.5t-28 -54t-49 -35.5t-67.5 -2z" />
    <glyph glyph-name="ldot" unicode="&#x140;" horiz-adv-x="376" 
d="M8 976l221 4l-55 -978q0 -3 -5.5 -4t-13 -0.5t-14.5 1.5t-10 1zM274 441q-25 5 -37.5 19.5t-15 32t3 36t17 32.5t27.5 21.5t34 2.5q42 -9 57 -36t8.5 -54t-31.5 -45t-63 -9z" />
    <glyph glyph-name="lslash" unicode="&#x142;" horiz-adv-x="312" 
d="M96 351l-76 625l221 4l-35 -609l78 16l14 -114l-99 -29l-13 -242q0 -3 -5.5 -4t-13 -0.5t-14.5 1.5t-10 1l-30 233l-108 -32l-6 125z" />
    <glyph glyph-name="nacute" unicode="&#x144;" horiz-adv-x="481" 
d="M173 536l-18 -130q24 16 50 38.5t53 43t55.5 34.5t59.5 14q32 4 47 -23t19.5 -73t1.5 -105.5t-5 -120.5t-0.5 -117.5t13.5 -96.5h-156q7 29 15.5 72.5t16 92.5t14 99t10 92t3 71.5t-6.5 37.5q-4 10 -11 17t-26.5 -1t-55.5 -36t-97 -86l-72 -357l-48 -4l-21 535zM103 587
l213 209l71 -115z" />
    <glyph glyph-name="napostrophe" unicode="&#x149;" horiz-adv-x="481" 
d="M174 536l-18 -130q24 16 50 38.5t53 43t55.5 34.5t59.5 14q32 4 47 -23t19.5 -73t1.5 -105.5t-5 -120.5t-0.5 -117.5t13.5 -96.5h-156q7 29 15.5 72.5t16 92.5t14 99t10 92t3 71.5t-6.5 37.5q-4 10 -11 17t-26.5 -1t-55.5 -36t-97 -86l-72 -357l-48 -4l-21 535zM35 633
q8 5 24.5 11t32.5 15t26 21t6 30q-12 -9 -29.5 -10.5t-33 4.5t-27 21t-12.5 39q-1 19 6 36.5t18.5 30.5t27 19.5t32.5 5.5q35 -3 53.5 -24t23.5 -49t-3.5 -58.5t-28 -54t-49 -35.5t-67.5 -2z" />
    <glyph glyph-name="ncaron" unicode="&#x148;" horiz-adv-x="481" 
d="M173 536l-18 -130q24 16 50 38.5t53 43t55.5 34.5t59.5 14q32 4 47 -23t19.5 -73t1.5 -105.5t-5 -120.5t-0.5 -117.5t13.5 -96.5h-156q7 29 15.5 72.5t16 92.5t14 99t10 92t3 71.5t-6.5 37.5q-4 10 -11 17t-26.5 -1t-55.5 -36t-97 -86l-72 -357l-48 -4l-21 535zM260 592
l130 216l22 -17l-159 -258l-185 223l95 64z" />
    <glyph glyph-name="ncommaaccent" unicode="&#x146;" horiz-adv-x="481" 
d="M173 536l-18 -130q24 16 50 38.5t53 43t55.5 34.5t59.5 14q32 4 47 -23t19.5 -73t1.5 -105.5t-5 -120.5t-0.5 -117.5t13.5 -96.5h-156q7 29 15.5 72.5t16 92.5t14 99t10 92t3 71.5t-6.5 37.5q-4 10 -11 17t-26.5 -1t-55.5 -36t-97 -86l-72 -357l-48 -4l-21 535zM143 -250
q8 5 24.5 11t32.5 15t26 21t6 30q-12 -9 -29.5 -10.5t-33 4.5t-27 21t-12.5 39q-1 19 6 36.5t18.5 30.5t27 19.5t32.5 5.5q35 -3 53.5 -24t23.5 -49t-3.5 -58.5t-28 -54t-49 -35.5t-67.5 -2z" />
    <glyph glyph-name="ntilde" unicode="&#xf1;" horiz-adv-x="481" 
d="M173 536l-18 -130q24 16 50 38.5t53 43t55.5 34.5t59.5 14q32 4 47 -23t19.5 -73t1.5 -105.5t-5 -120.5t-0.5 -117.5t13.5 -96.5h-156q7 29 15.5 72.5t16 92.5t14 99t10 92t3 71.5t-6.5 37.5q-4 10 -11 17t-26.5 -1t-55.5 -36t-97 -86l-72 -357l-48 -4l-21 535zM19 611
q-5 79 18 132t64 66.5t95.5 -19t112.5 -123.5q23 -37 44 -41t33 11t11.5 42t-18.5 51h35q20 -31 16.5 -63.5t-23.5 -53.5t-53 -22.5t-70 29.5q-47 39 -81.5 55t-59 16t-40 -11t-24 -25t-11 -27t-1.5 -17h-48z" />
    <glyph glyph-name="oacute" unicode="&#xf3;" horiz-adv-x="519" 
d="M14 165q-14 66 0 124t46.5 104.5t78 79.5t95.5 48.5t99.5 11.5t88.5 -30.5t63 -78t24 -131.5q-2 -66 -32.5 -122.5t-77 -96.5t-103 -59.5t-110.5 -12t-100 46.5t-72 116zM188 444q-11 -5 -21 -27.5t-17.5 -55.5t-11 -73t-1.5 -78.5t10.5 -72.5t24.5 -55t41.5 -25.5
t61.5 15.5q31 24 50.5 69t26.5 95.5t1 100t-26 83t-54.5 43t-84.5 -18.5zM117 533l213 209l71 -115z" />
    <glyph glyph-name="obreve" unicode="&#x14f;" horiz-adv-x="519" 
d="M14 165q-14 66 0 124t46.5 104.5t78 79.5t95.5 48.5t99.5 11.5t88.5 -30.5t63 -78t24 -131.5q-2 -66 -32.5 -122.5t-77 -96.5t-103 -59.5t-110.5 -12t-100 46.5t-72 116zM188 444q-11 -5 -21 -27.5t-17.5 -55.5t-11 -73t-1.5 -78.5t10.5 -72.5t24.5 -55t41.5 -25.5
t61.5 15.5q31 24 50.5 69t26.5 95.5t1 100t-26 83t-54.5 43t-84.5 -18.5zM385 670q-7 -43 -28 -68t-49 -34.5t-58.5 -6t-55.5 17.5t-41.5 37t-15.5 51l45 3q6 -19 26 -33t44.5 -17t49 9t41.5 46z" />
    <glyph glyph-name="ocircumflex" unicode="&#xf4;" horiz-adv-x="519" 
d="M14 165q-14 66 0 124t46.5 104.5t78 79.5t95.5 48.5t99.5 11.5t88.5 -30.5t63 -78t24 -131.5q-2 -66 -32.5 -122.5t-77 -96.5t-103 -59.5t-110.5 -12t-100 46.5t-72 116zM188 444q-11 -5 -21 -27.5t-17.5 -55.5t-11 -73t-1.5 -78.5t10.5 -72.5t24.5 -55t41.5 -25.5
t61.5 15.5q31 24 50.5 69t26.5 95.5t1 100t-26 83t-54.5 43t-84.5 -18.5zM182 533l-95 64l185 223l159 -258l-22 -17l-130 216z" />
    <glyph glyph-name="odieresis" unicode="&#xf6;" horiz-adv-x="519" 
d="M14 165q-14 66 0 124t46.5 104.5t78 79.5t95.5 48.5t99.5 11.5t88.5 -30.5t63 -78t24 -131.5q-2 -66 -32.5 -122.5t-77 -96.5t-103 -59.5t-110.5 -12t-100 46.5t-72 116zM188 444q-11 -5 -21 -27.5t-17.5 -55.5t-11 -73t-1.5 -78.5t10.5 -72.5t24.5 -55t41.5 -25.5
t61.5 15.5q31 24 50.5 69t26.5 95.5t1 100t-26 83t-54.5 43t-84.5 -18.5zM130 555q-27 8 -38.5 23t-12 33.5t9 37t25 32.5t35 21t39.5 2q29 -9 41 -25t11.5 -34t-11.5 -35.5t-27 -31t-35.5 -20.5t-36.5 -3zM320 553q-27 8 -38.5 23t-12 33.5t9 37t25 32.5t35 21t39.5 2
q29 -9 41 -25t11.5 -34t-11.5 -35.5t-27 -31t-35.5 -20.5t-36.5 -3z" />
    <glyph glyph-name="ograve" unicode="&#xf2;" horiz-adv-x="519" 
d="M14 165q-14 66 0 124t46.5 104.5t78 79.5t95.5 48.5t99.5 11.5t88.5 -30.5t63 -78t24 -131.5q-2 -66 -32.5 -122.5t-77 -96.5t-103 -59.5t-110.5 -12t-100 46.5t-72 116zM188 444q-11 -5 -21 -27.5t-17.5 -55.5t-11 -73t-1.5 -78.5t10.5 -72.5t24.5 -55t41.5 -25.5
t61.5 15.5q31 24 50.5 69t26.5 95.5t1 100t-26 83t-54.5 43t-84.5 -18.5zM117 627l71 115l213 -209z" />
    <glyph glyph-name="ohungarumlaut" unicode="&#x151;" horiz-adv-x="519" 
d="M14 165q-14 66 0 124t46.5 104.5t78 79.5t95.5 48.5t99.5 11.5t88.5 -30.5t63 -78t24 -131.5q-2 -66 -32.5 -122.5t-77 -96.5t-103 -59.5t-110.5 -12t-100 46.5t-72 116zM188 444q-11 -5 -21 -27.5t-17.5 -55.5t-11 -73t-1.5 -78.5t10.5 -72.5t24.5 -55t41.5 -25.5
t61.5 15.5q31 24 50.5 69t26.5 95.5t1 100t-26 83t-54.5 43t-84.5 -18.5zM22 569l213 209l71 -115zM242 566l213 209l71 -115z" />
    <glyph glyph-name="omacron" unicode="&#x14d;" horiz-adv-x="519" 
d="M14 165q-14 66 0 124t46.5 104.5t78 79.5t95.5 48.5t99.5 11.5t88.5 -30.5t63 -78t24 -131.5q-2 -66 -32.5 -122.5t-77 -96.5t-103 -59.5t-110.5 -12t-100 46.5t-72 116zM188 444q-11 -5 -21 -27.5t-17.5 -55.5t-11 -73t-1.5 -78.5t10.5 -72.5t24.5 -55t41.5 -25.5
t61.5 15.5q31 24 50.5 69t26.5 95.5t1 100t-26 83t-54.5 43t-84.5 -18.5zM450 673l2 -101l-384 -24l-2 134z" />
    <glyph glyph-name="oslash" unicode="&#xf8;" horiz-adv-x="544" 
d="M8 18q2 2 11.5 15.5t35.5 49.5q-25 35 -41 82q-13 65 0 121.5t43.5 102.5t75 79t93 50t97 15.5t88.5 -24.5q6 7 12.5 14t13.5 15l111 -41l-66 -66q13 -27 20 -61t7 -77q-2 -54 -23 -101.5t-54 -85t-75.5 -63.5t-87.5 -36t-89.5 -3t-82.5 36q-11 -12 -17.5 -19.5
t-11.5 -12.5l-8 -8zM188 444q-12 -5 -22.5 -30.5t-17.5 -62t-10 -79.5t1 -83q34 42 80.5 97.5t109.5 128.5q-20 35 -54.5 46.5t-86.5 -17.5zM275 72q20 16 35.5 41.5t26 57t15 66t3.5 67.5q-67 -68 -115.5 -117t-80.5 -83q15 -33 43 -45t73 13z" />
    <glyph glyph-name="oslashacute" unicode="&#x1ff;" horiz-adv-x="519" 
d="M8 18q2 2 11.5 15.5t35.5 49.5q-25 35 -41 82q-13 65 0 121.5t43.5 102.5t75 79t93 50t97 15.5t88.5 -24.5q6 7 12.5 14t13.5 15l111 -41l-66 -66q13 -27 20 -61t7 -77q-2 -54 -23 -101.5t-54 -85t-75.5 -63.5t-87.5 -36t-89.5 -3t-82.5 36q-11 -12 -17.5 -19.5
t-11.5 -12.5l-8 -8zM188 444q-12 -5 -22.5 -30.5t-17.5 -62t-10 -79.5t1 -83q34 42 80.5 97.5t109.5 128.5q-20 35 -54.5 46.5t-86.5 -17.5zM275 72q20 16 35.5 41.5t26 57t15 66t3.5 67.5q-67 -68 -115.5 -117t-80.5 -83q15 -33 43 -45t73 13zM117 533l213 209l71 -115z
" />
    <glyph glyph-name="otilde" unicode="&#xf5;" horiz-adv-x="519" 
d="M14 165q-14 66 0 124t46.5 104.5t78 79.5t95.5 48.5t99.5 11.5t88.5 -30.5t63 -78t24 -131.5q-2 -66 -32.5 -122.5t-77 -96.5t-103 -59.5t-110.5 -12t-100 46.5t-72 116zM188 444q-11 -5 -21 -27.5t-17.5 -55.5t-11 -73t-1.5 -78.5t10.5 -72.5t24.5 -55t41.5 -25.5
t61.5 15.5q31 24 50.5 69t26.5 95.5t1 100t-26 83t-54.5 43t-84.5 -18.5zM64 566q-5 79 18 132t64 66.5t95.5 -19t112.5 -123.5q23 -37 44 -41t33 11t11.5 42t-18.5 51h35q20 -31 16.5 -63.5t-23.5 -53.5t-53 -22.5t-70 29.5q-47 39 -81.5 55t-59 16t-40 -11t-24 -25
t-11 -27t-1.5 -17h-48z" />
    <glyph glyph-name="oe" unicode="&#x153;" horiz-adv-x="891" 
d="M14 165q-15 73 3.5 136.5t58 112t93.5 79t109.5 38.5t106 -10t82.5 -66q17 17 32 28q42 26 92 45t97 18.5t86 -25.5t60 -87q4 -13 -10 -31t-39 -39.5t-58 -44.5t-67.5 -47t-66 -47t-53.5 -44q-3 -11 -2 -26.5t5.5 -30.5t13 -26.5t21.5 -14.5q23 -14 52 -17t59.5 3
t58.5 19.5t49.5 34.5t32.5 47t7 57q1 -1 8 1t15 5t14 5.5t6 1.5q7 -60 -27 -107t-91 -78t-127.5 -44t-137.5 -5q-35 -1 -64.5 13.5t-50.5 40.5q-47 -35 -101 -50t-105 -5.5t-94.5 48t-67.5 112.5zM188 444q-11 -5 -21 -27.5t-17.5 -55.5t-11 -73t-1.5 -78.5t10.5 -72.5
t24.5 -55t41.5 -25.5t61.5 15.5q26 20 44 56.5t27 79.5q1 9 3 18.5t4 19.5q6 50 -1 97.5t-27 79t-54 40.5t-83 -19zM505 413q1 -23 3 -42.5t5 -38.5t7 -38.5t9 -42.5q8 7 34.5 19.5t56 29t56 38t34.5 46.5q6 26 -2.5 44.5t-26.5 29t-42 13.5t-49 -2.5t-47.5 -19.5t-37.5 -36
z" />
    <glyph glyph-name="racute" unicode="&#x155;" horiz-adv-x="444" 
d="M13 512l250 25l-20 -60q36 36 69.5 44.5t59 -1t41 -33t16.5 -53t-15.5 -60t-54.5 -54.5l-25 11q38 43 46.5 74t-2.5 48t-35.5 20t-52 -10t-52.5 -41.5t-36 -74.5q-14 -49 -20.5 -87.5t-9 -75t-1 -75t3.5 -88.5l-112 -17zM89 570l213 209l71 -115z" />
    <glyph glyph-name="rcaron" unicode="&#x159;" horiz-adv-x="444" 
d="M13 512l250 25l-20 -60q36 36 69.5 44.5t59 -1t41 -33t16.5 -53t-15.5 -60t-54.5 -54.5l-25 11q38 43 46.5 74t-2.5 48t-35.5 20t-52 -10t-52.5 -41.5t-36 -74.5q-14 -49 -20.5 -87.5t-9 -75t-1 -75t3.5 -88.5l-112 -17zM261 647l130 216l22 -17l-159 -258l-185 223
l95 64z" />
    <glyph glyph-name="rcommaaccent" unicode="&#x157;" horiz-adv-x="444" 
d="M13 512l250 25l-20 -60q36 36 69.5 44.5t59 -1t41 -33t16.5 -53t-15.5 -60t-54.5 -54.5l-25 11q38 43 46.5 74t-2.5 48t-35.5 20t-52 -10t-52.5 -41.5t-36 -74.5q-14 -49 -20.5 -87.5t-9 -75t-1 -75t3.5 -88.5l-112 -17zM165 -254q8 5 24.5 11t32.5 15t26 21t6 30
q-12 -9 -29.5 -10.5t-33 4.5t-27 21t-12.5 39q-1 19 6 36.5t18.5 30.5t27 19.5t32.5 5.5q35 -3 53.5 -24t23.5 -49t-3.5 -58.5t-28 -54t-49 -35.5t-67.5 -2z" />
    <glyph glyph-name="sacute" unicode="&#x15b;" horiz-adv-x="426" 
d="M141 5q-42 4 -76 25t-50.5 52t-11.5 68t41 73l17 -22q-6 -5 -15 -23.5t-8 -40.5t18 -43t61 -31q30 0 61.5 4.5t57.5 17t42.5 35.5t16.5 60q5 26 -14.5 40t-51.5 22.5t-71 14.5t-72.5 16.5t-55.5 28t-21 49.5q-8 40 11.5 78t54 66.5t79 44t88.5 10.5q45 -2 72.5 -15
t42 -33t17 -43.5t-2.5 -46.5h-27q4 14 0 32.5t-15 35.5t-28.5 29t-41.5 13q-26 0 -49.5 -16.5t-41.5 -40.5t-29.5 -52t-13.5 -52.5t6.5 -41.5t29.5 -19q90 -8 140.5 -27.5t75.5 -44t31 -50t6 -44.5q-17 -50 -51 -77t-74 -40t-80 -14t-68 2zM71 533l213 209l71 -115z" />
    <glyph glyph-name="scaron" unicode="&#x161;" horiz-adv-x="426" 
d="M141 5q-42 4 -76 25t-50.5 52t-11.5 68t41 73l17 -22q-6 -5 -15 -23.5t-8 -40.5t18 -43t61 -31q30 0 61.5 4.5t57.5 17t42.5 35.5t16.5 60q5 26 -14.5 40t-51.5 22.5t-71 14.5t-72.5 16.5t-55.5 28t-21 49.5q-8 40 11.5 78t54 66.5t79 44t88.5 10.5q45 -2 72.5 -15
t42 -33t17 -43.5t-2.5 -46.5h-27q4 14 0 32.5t-15 35.5t-28.5 29t-41.5 13q-26 0 -49.5 -16.5t-41.5 -40.5t-29.5 -52t-13.5 -52.5t6.5 -41.5t29.5 -19q90 -8 140.5 -27.5t75.5 -44t31 -50t6 -44.5q-17 -50 -51 -77t-74 -40t-80 -14t-68 2zM219 646l130 216l22 -17
l-159 -258l-185 223l95 64z" />
    <glyph glyph-name="scedilla" unicode="&#x15f;" horiz-adv-x="426" 
d="M141 5q-42 4 -76 25t-50.5 52t-11.5 68t41 73l17 -22q-6 -5 -15 -23.5t-8 -40.5t18 -43t61 -31q30 0 61.5 4.5t57.5 17t42.5 35.5t16.5 60q5 26 -14.5 40t-51.5 22.5t-71 14.5t-72.5 16.5t-55.5 28t-21 49.5q-8 40 11.5 78t54 66.5t79 44t88.5 10.5q45 -2 72.5 -15
t42 -33t17 -43.5t-2.5 -46.5h-27q4 14 0 32.5t-15 35.5t-28.5 29t-41.5 13q-26 0 -49.5 -16.5t-41.5 -40.5t-29.5 -52t-13.5 -52.5t6.5 -41.5t29.5 -19q90 -8 140.5 -27.5t75.5 -44t31 -50t6 -44.5q-17 -50 -51 -77t-74 -40t-80 -14t-68 2zM135 23h73l-5 -38q67 6 107.5 -17
t57 -59t10.5 -78.5t-33 -75t-73.5 -48.5t-110.5 1q-19 11 -32 28.5t-19 36.5t-5 37.5t9 30.5t24 16t39 -5q-20 -2 -27.5 -16t-5 -30.5t13 -32t25.5 -21.5q29 2 48 15.5t26.5 32t4 40.5t-19 41t-43.5 33t-69 17z" />
    <glyph glyph-name="scircumflex" unicode="&#x15d;" horiz-adv-x="426" 
d="M141 5q-42 4 -76 25t-50.5 52t-11.5 68t41 73l17 -22q-6 -5 -15 -23.5t-8 -40.5t18 -43t61 -31q30 0 61.5 4.5t57.5 17t42.5 35.5t16.5 60q5 26 -14.5 40t-51.5 22.5t-71 14.5t-72.5 16.5t-55.5 28t-21 49.5q-8 40 11.5 78t54 66.5t79 44t88.5 10.5q45 -2 72.5 -15
t42 -33t17 -43.5t-2.5 -46.5h-27q4 14 0 32.5t-15 35.5t-28.5 29t-41.5 13q-26 0 -49.5 -16.5t-41.5 -40.5t-29.5 -52t-13.5 -52.5t6.5 -41.5t29.5 -19q90 -8 140.5 -27.5t75.5 -44t31 -50t6 -44.5q-17 -50 -51 -77t-74 -40t-80 -14t-68 2zM140 592l-95 64l185 223l159 -258
l-22 -17l-130 216z" />
    <glyph glyph-name="scommaaccent" unicode="&#x219;" horiz-adv-x="426" 
d="M141 5q-42 4 -76 25t-50.5 52t-11.5 68t41 73l17 -22q-6 -5 -15 -23.5t-8 -40.5t18 -43t61 -31q30 0 61.5 4.5t57.5 17t42.5 35.5t16.5 60q5 26 -14.5 40t-51.5 22.5t-71 14.5t-72.5 16.5t-55.5 28t-21 49.5q-8 40 11.5 78t54 66.5t79 44t88.5 10.5q45 -2 72.5 -15
t42 -33t17 -43.5t-2.5 -46.5h-27q4 14 0 32.5t-15 35.5t-28.5 29t-41.5 13q-26 0 -49.5 -16.5t-41.5 -40.5t-29.5 -52t-13.5 -52.5t6.5 -41.5t29.5 -19q90 -8 140.5 -27.5t75.5 -44t31 -50t6 -44.5q-17 -50 -51 -77t-74 -40t-80 -14t-68 2zM115 -250q8 5 24.5 11t32.5 15
t26 21t6 30q-12 -9 -29.5 -10.5t-33 4.5t-27 21t-12.5 39q-1 19 6 36.5t18.5 30.5t27 19.5t32.5 5.5q35 -3 53.5 -24t23.5 -49t-3.5 -58.5t-28 -54t-49 -35.5t-67.5 -2z" />
    <glyph glyph-name="tbar" unicode="&#x167;" horiz-adv-x="440" 
d="M193 -4l-56 534q-6 -2 -23.5 -2.5t-37 -0.5t-37 -0.5t-23.5 -1.5v39l120 2l-56 409l217 8l-21 -408l150 4l-3 -37l-146 -6l-26 -541zM420 459l2 -101l-384 -24l-2 134z" />
    <glyph glyph-name="tcaron" unicode="&#x165;" horiz-adv-x="440" 
d="M193 -4l-56 534q-6 -2 -23.5 -2.5t-37 -0.5t-37 -0.5t-23.5 -1.5v39l120 2l-56 409l217 8l-21 -408l150 4l-3 -37l-146 -6l-26 -541zM329 676q10 6 32 14.5t43 19.5t35.5 26t9.5 34q-17 -11 -39.5 -15t-43 1t-34.5 19.5t-14 41.5q0 21 9.5 41t25.5 35t36.5 24t42.5 9
q45 0 68.5 -20.5t28.5 -50.5t-7 -64t-38.5 -62t-66 -44t-88.5 -9z" />
    <glyph glyph-name="tcommaaccent" unicode="&#x163;" horiz-adv-x="440" 
d="M193 -4l-56 534q-6 -2 -23.5 -2.5t-37 -0.5t-37 -0.5t-23.5 -1.5v39l120 2l-56 409l217 8l-21 -408l150 4l-3 -37l-146 -6l-26 -541zM154 -272q8 5 24.5 11t32.5 15t26 21t6 30q-12 -9 -29.5 -10.5t-33 4.5t-27 21t-12.5 39q-1 19 6 36.5t18.5 30.5t27 19.5t32.5 5.5
q35 -3 53.5 -24t23.5 -49t-3.5 -58.5t-28 -54t-49 -35.5t-67.5 -2z" />
    <glyph glyph-name="uacute" unicode="&#xfa;" 
d="M404 -2l-20 303q-8 -45 -25.5 -98.5t-45.5 -100t-66.5 -77.5t-89.5 -31q-17 -2 -35.5 0t-36 18t-32 50t-22.5 94t-8 150.5t11 220.5l176 2q-32 -131 -48.5 -218.5t-22 -141.5t-2 -81.5t10.5 -39t15.5 -12.5t14.5 -4q45 5 75.5 34t51 73.5t31 98.5t16 107.5t6 102
t0.5 81.5l124 3l-26 -531zM116 597l213 209l71 -115z" />
    <glyph glyph-name="ubreve" unicode="&#x16d;" 
d="M404 -2l-20 303q-8 -45 -25.5 -98.5t-45.5 -100t-66.5 -77.5t-89.5 -31q-17 -2 -35.5 0t-36 18t-32 50t-22.5 94t-8 150.5t11 220.5l176 2q-32 -131 -48.5 -218.5t-22 -141.5t-2 -81.5t10.5 -39t15.5 -12.5t14.5 -4q45 5 75.5 34t51 73.5t31 98.5t16 107.5t6 102
t0.5 81.5l124 3l-26 -531zM375 670q-7 -43 -28 -68t-49 -34.5t-58.5 -6t-55.5 17.5t-41.5 37t-15.5 51l45 3q6 -19 26 -33t44.5 -17t49 9t41.5 46z" />
    <glyph glyph-name="ucircumflex" unicode="&#xfb;" 
d="M404 -2l-20 303q-8 -45 -25.5 -98.5t-45.5 -100t-66.5 -77.5t-89.5 -31q-17 -2 -35.5 0t-36 18t-32 50t-22.5 94t-8 150.5t11 220.5l176 2q-32 -131 -48.5 -218.5t-22 -141.5t-2 -81.5t10.5 -39t15.5 -12.5t14.5 -4q45 5 75.5 34t51 73.5t31 98.5t16 107.5t6 102
t0.5 81.5l124 3l-26 -531zM168 570l-95 64l185 223l159 -258l-22 -17l-130 216z" />
    <glyph glyph-name="udieresis" unicode="&#xfc;" 
d="M404 -2l-20 303q-8 -45 -25.5 -98.5t-45.5 -100t-66.5 -77.5t-89.5 -31q-17 -2 -35.5 0t-36 18t-32 50t-22.5 94t-8 150.5t11 220.5l176 2q-32 -131 -48.5 -218.5t-22 -141.5t-2 -81.5t10.5 -39t15.5 -12.5t14.5 -4q45 5 75.5 34t51 73.5t31 98.5t16 107.5t6 102
t0.5 81.5l124 3l-26 -531zM120 555q-27 8 -38.5 23t-12 33.5t9 37t25 32.5t35 21t39.5 2q29 -9 41 -25t11.5 -34t-11.5 -35.5t-27 -31t-35.5 -20.5t-36.5 -3zM310 553q-27 8 -38.5 23t-12 33.5t9 37t25 32.5t35 21t39.5 2q29 -9 41 -25t11.5 -34t-11.5 -35.5t-27 -31
t-35.5 -20.5t-36.5 -3z" />
    <glyph glyph-name="uhungarumlaut" unicode="&#x171;" 
d="M404 -2l-20 303q-8 -45 -25.5 -98.5t-45.5 -100t-66.5 -77.5t-89.5 -31q-17 -2 -35.5 0t-36 18t-32 50t-22.5 94t-8 150.5t11 220.5l176 2q-32 -131 -48.5 -218.5t-22 -141.5t-2 -81.5t10.5 -39t15.5 -12.5t14.5 -4q45 5 75.5 34t51 73.5t31 98.5t16 107.5t6 102
t0.5 81.5l124 3l-26 -531zM17 602l213 209l71 -115zM237 599l213 209l71 -115z" />
    <glyph glyph-name="ugrave" unicode="&#xf9;" 
d="M404 -2l-20 303q-8 -45 -25.5 -98.5t-45.5 -100t-66.5 -77.5t-89.5 -31q-17 -2 -35.5 0t-36 18t-32 50t-22.5 94t-8 150.5t11 220.5l176 2q-32 -131 -48.5 -218.5t-22 -141.5t-2 -81.5t10.5 -39t15.5 -12.5t14.5 -4q45 5 75.5 34t51 73.5t31 98.5t16 107.5t6 102
t0.5 81.5l124 3l-26 -531zM89 677l71 115l213 -209z" />
    <glyph glyph-name="umacron" unicode="&#x16b;" 
d="M404 -2l-20 303q-8 -45 -25.5 -98.5t-45.5 -100t-66.5 -77.5t-89.5 -31q-17 -2 -35.5 0t-36 18t-32 50t-22.5 94t-8 150.5t11 220.5l176 2q-32 -131 -48.5 -218.5t-22 -141.5t-2 -81.5t10.5 -39t15.5 -12.5t14.5 -4q45 5 75.5 34t51 73.5t31 98.5t16 107.5t6 102
t0.5 81.5l124 3l-26 -531zM449 705l2 -101l-384 -24l-2 134z" />
    <glyph glyph-name="uogonek" unicode="&#x173;" 
d="M404 -2l-20 303q-8 -45 -25.5 -98.5t-45.5 -100t-66.5 -77.5t-89.5 -31q-17 -2 -35.5 0t-36 18t-32 50t-22.5 94t-8 150.5t11 220.5l176 2q-32 -131 -48.5 -218.5t-22 -141.5t-2 -81.5t10.5 -39t15.5 -12.5t14.5 -4q45 5 75.5 34t51 73.5t31 98.5t16 107.5t6 102
t0.5 81.5l124 3l-26 -531zM574 -136q-34 -38 -64 -47.5t-53.5 0t-40.5 34t-24.5 55t-5 62.5t17.5 58l25 -8q-7 -18 -2.5 -46t19.5 -50.5t39.5 -33t59.5 5.5z" />
    <glyph glyph-name="uring" unicode="&#x16f;" 
d="M404 -2l-20 303q-8 -45 -25.5 -98.5t-45.5 -100t-66.5 -77.5t-89.5 -31q-17 -2 -35.5 0t-36 18t-32 50t-22.5 94t-8 150.5t11 220.5l176 2q-32 -131 -48.5 -218.5t-22 -141.5t-2 -81.5t10.5 -39t15.5 -12.5t14.5 -4q45 5 75.5 34t51 73.5t31 98.5t16 107.5t6 102
t0.5 81.5l124 3l-26 -531zM186 582q-39 14 -55 39.5t-15 55t17 58.5t41 50.5t56.5 30.5t64.5 -2q43 -26 59.5 -56.5t13.5 -59.5t-21.5 -54.5t-45 -42.5t-57 -23t-58.5 4zM270 780q-9 7 -23.5 4t-29.5 -13t-27.5 -25.5t-18 -33t-2 -35.5t22.5 -34q9 -5 30.5 7t39.5 33t24 47
t-16 50z" />
    <glyph glyph-name="utilde" unicode="&#x169;" 
d="M404 -2l-20 303q-8 -45 -25.5 -98.5t-45.5 -100t-66.5 -77.5t-89.5 -31q-17 -2 -35.5 0t-36 18t-32 50t-22.5 94t-8 150.5t11 220.5l176 2q-32 -131 -48.5 -218.5t-22 -141.5t-2 -81.5t10.5 -39t15.5 -12.5t14.5 -4q45 5 75.5 34t51 73.5t31 98.5t16 107.5t6 102
t0.5 81.5l124 3l-26 -531zM41 615q-5 79 18 132t64 66.5t95.5 -19t112.5 -123.5q23 -37 44 -41t33 11t11.5 42t-18.5 51h35q20 -31 16.5 -63.5t-23.5 -53.5t-53 -22.5t-70 29.5q-47 39 -81.5 55t-59 16t-40 -11t-24 -25t-11 -27t-1.5 -17h-48z" />
    <glyph glyph-name="wacute" unicode="&#x1e83;" horiz-adv-x="795" 
d="M505 100q1 37 10 80.5t23.5 89t32.5 89.5t37 81.5t37 65.5t33 41l118 -16q-23 -18 -59 -58t-72.5 -105t-68 -156t-46.5 -210l-63 -3l-72 233l-104 -145l6 -84l-76 -8l-228 529l220 28l70 -429l98 133l-45 143l67 28l20 -116l73 106l19 -20l-80 -121zM287 611l213 209
l71 -115z" />
    <glyph glyph-name="wcircumflex" unicode="&#x175;" horiz-adv-x="795" 
d="M505 100q1 37 10 80.5t23.5 89t32.5 89.5t37 81.5t37 65.5t33 41l118 -16q-23 -18 -59 -58t-72.5 -105t-68 -156t-46.5 -210l-63 -3l-72 233l-104 -145l6 -84l-76 -8l-228 529l220 28l70 -429l98 133l-45 143l67 28l20 -116l73 106l19 -20l-80 -121zM302 593l-95 64
l185 223l159 -258l-22 -17l-130 216z" />
    <glyph glyph-name="wdieresis" unicode="&#x1e85;" horiz-adv-x="795" 
d="M505 100q1 37 10 80.5t23.5 89t32.5 89.5t37 81.5t37 65.5t33 41l118 -16q-23 -18 -59 -58t-72.5 -105t-68 -156t-46.5 -210l-63 -3l-72 233l-104 -145l6 -84l-76 -8l-228 529l220 28l70 -429l98 133l-45 143l67 28l20 -116l73 106l19 -20l-80 -121zM295 605
q-27 8 -38.5 23t-12 33.5t9 37t25 32.5t35 21t39.5 2q29 -9 41 -25t11.5 -34t-11.5 -35.5t-27 -31t-35.5 -20.5t-36.5 -3zM485 603q-27 8 -38.5 23t-12 33.5t9 37t25 32.5t35 21t39.5 2q29 -9 41 -25t11.5 -34t-11.5 -35.5t-27 -31t-35.5 -20.5t-36.5 -3z" />
    <glyph glyph-name="wgrave" unicode="&#x1e81;" horiz-adv-x="795" 
d="M505 100q1 37 10 80.5t23.5 89t32.5 89.5t37 81.5t37 65.5t33 41l118 -16q-23 -18 -59 -58t-72.5 -105t-68 -156t-46.5 -210l-63 -3l-72 233l-104 -145l6 -84l-76 -8l-228 529l220 28l70 -429l98 133l-45 143l67 28l20 -116l73 106l19 -20l-80 -121zM241 677l71 115
l213 -209z" />
    <glyph glyph-name="yacute" unicode="&#xfd;" horiz-adv-x="645" 
d="M336 -549l-242 75q15 21 38 59.5t49.5 86.5t54 100.5t50 102t38 91.5t19.5 68l-328 418l235 79l130 -460l206 463l49 -5q-23 -52 -51.5 -133.5t-59 -179t-61 -204t-56.5 -209t-46 -195t-30 -160.5zM180 601l213 209l71 -115z" />
    <glyph glyph-name="ycircumflex" unicode="&#x177;" horiz-adv-x="645" 
d="M336 -549l-242 75q15 21 38 59.5t49.5 86.5t54 100.5t50 102t38 91.5t19.5 68l-328 418l235 79l130 -460l206 463l49 -5q-23 -52 -51.5 -133.5t-59 -179t-61 -204t-56.5 -209t-46 -195t-30 -160.5zM254 583l-95 64l185 223l159 -258l-22 -17l-130 216z" />
    <glyph glyph-name="ydieresis" unicode="&#xff;" horiz-adv-x="645" 
d="M336 -549l-242 75q15 21 38 59.5t49.5 86.5t54 100.5t50 102t38 91.5t19.5 68l-328 418l235 79l130 -460l206 463l49 -5q-23 -52 -51.5 -133.5t-59 -179t-61 -204t-56.5 -209t-46 -195t-30 -160.5zM234 596q-27 8 -38.5 23t-12 33.5t9 37t25 32.5t35 21t39.5 2
q29 -9 41 -25t11.5 -34t-11.5 -35.5t-27 -31t-35.5 -20.5t-36.5 -3zM424 594q-27 8 -38.5 23t-12 33.5t9 37t25 32.5t35 21t39.5 2q29 -9 41 -25t11.5 -34t-11.5 -35.5t-27 -31t-35.5 -20.5t-36.5 -3z" />
    <glyph glyph-name="ygrave" unicode="&#x1ef3;" horiz-adv-x="645" 
d="M336 -549l-242 75q15 21 38 59.5t49.5 86.5t54 100.5t50 102t38 91.5t19.5 68l-328 418l235 79l130 -460l206 463l49 -5q-23 -52 -51.5 -133.5t-59 -179t-61 -204t-56.5 -209t-46 -195t-30 -160.5zM194 659l71 115l213 -209z" />
    <glyph glyph-name="zacute" unicode="&#x17a;" 
d="M13 4l365 461l-366 -78v143h463l-278 -434l287 50l7 -137zM125 569l213 209l71 -115z" />
    <glyph glyph-name="zcaron" unicode="&#x17e;" 
d="M13 4l365 461l-366 -78v143h463l-278 -434l287 50l7 -137zM292 638l130 216l22 -17l-159 -258l-185 223l95 64z" />
    <glyph glyph-name="zdotaccent" unicode="&#x17c;" 
d="M13 4l365 461l-366 -78v143h463l-278 -434l287 50l7 -137zM234 613q-25 5 -37.5 19.5t-15 32t3 36t17 32.5t27.5 21.5t34 2.5q42 -9 57 -36t8.5 -54t-31.5 -45t-63 -9z" />
    <glyph glyph-name="endash" unicode="&#x2013;" horiz-adv-x="462" 
d="M420 362l2 -101l-379 -49l-5 180z" />
    <glyph glyph-name="minus" unicode="&#x2212;" horiz-adv-x="462" 
d="M420 362l2 -101l-379 -49l-5 180z" />
    </font>
</defs>
</svg>
