<?xml version="1.0" standalone="no"?>
<!DOCTYPE svg PUBLIC "-//W3C//DTD SVG 1.1//EN" "http://www.w3.org/Graphics/SVG/1.1/DTD/svg11.dtd" >
<svg>
<metadata>
Created by FontForge 20120731 at Fri Oct 18 14:37:52 2019
 By www-data
Copyright (c) 2012 by Kimberly Geswein. All rights reserved.
</metadata>
<defs>
<font id="JandaAppleCobbler" horiz-adv-x="499" >
  <font-face 
    font-family="Janda Apple Cobbler"
    font-weight="400"
    font-stretch="normal"
    units-per-em="1024"
    panose-1="2 0 5 7 0 0 0 2 0 2"
    ascent="819"
    descent="-205"
    x-height="530"
    cap-height="986"
    bbox="-376.596 -553.067 1468 1316"
    underline-thickness="0"
    underline-position="0"
    unicode-range="U+0020-2212"
  />
<missing-glyph horiz-adv-x="500" 
 />
    <glyph glyph-name=".notdef" horiz-adv-x="500" 
 />
    <glyph glyph-name=".null" horiz-adv-x="0" 
 />
    <glyph glyph-name="nonmarkingreturn" horiz-adv-x="500" 
 />
    <glyph glyph-name="space" unicode=" " horiz-adv-x="406" 
 />
    <glyph glyph-name="space" unicode="&#xa0;" horiz-adv-x="406" 
 />
    <glyph glyph-name="N" unicode="N" horiz-adv-x="917" 
d="M27 0l39 969l93 4l449 -737q-36 97 -65 190t-44 176.5t-13 155t27 125t77 86t137 39.5q49 3 84.5 -12t57.5 -42t31 -62t6 -70.5t-18.5 -68t-42 -55t-64.5 -31t-86 4.5q-26 8 -37 29t-8.5 43t18 39.5t44.5 18.5q-16 -12 -24.5 -27t-9 -28.5t6.5 -24.5t22 -17q29 2 48.5 21
t28.5 46t8 57.5t-12 56.5t-32.5 43.5t-53.5 17.5q-71 -16 -109 -55t-51.5 -94t-6 -122.5t27 -141.5t47 -151t54.5 -150q1 -3 7.5 -21.5t15 -43.5t19 -54t19 -54t15 -43t7.5 -21l-49 -3l-522 891l128 -886zM95 126q-13 -5 -19 -13t-8 -18.5t-1 -22.5t3 -24q3 0 9 1t11.5 2
t10 2.5t4.5 3.5zM225 93q-22 0 -19 -21q22 0 19 21zM209 195q-10 -14 -20 -33.5t-7 -38.5q20 0 26.5 16.5t4.5 33.5q-1 3 -2.5 11.5t-1.5 10.5zM90 213q10 4 15.5 14t7.5 22.5t1.5 25.5t-1.5 23q0 1 -0.5 4t-0.5 4l-8 -8zM199 382q-13 21 -18.5 26t-5.5 0t3 -17.5t7.5 -26.5
t8 -26t4.5 -17h10zM125 449q-3 0 -2.5 -4.5t3.5 -4.5q4 0 3.5 4.5t-4.5 4.5zM131 470q-4 1 -3 -4.5t4 -3.5q4 1 3.5 4t-4.5 4zM135 505q-2 1 -3 -2t0 -7t2.5 -7t3.5 -2q3 2 2.5 9t-5.5 9zM138 539q-2 1 -2.5 -2t0 -6.5t2 -6.5t3.5 -2q3 2 2 8.5t-5 8.5zM129 741
q-5 -14 -11.5 -32.5t-4.5 -36.5q0 -1 1 -4t1 -4q7 15 12.5 35.5t3.5 37.5l-1 2q-1 1 -1 2zM140 782q-3 0 -2.5 -4.5t3.5 -4.5t2.5 4.5t-3.5 4.5zM144 821q-5 1 -4 -4.5t5 -4.5t3.5 4t-4.5 5zM841 851q-1 -11 -3 -27t-5 -33t-7.5 -33t-10.5 -28q26 20 31 39.5t0 51.5
q0 3 -2 14.5t-3 15.5zM126 860q8 2 8 11t-1 15h-11zM830 928q3 -7 8.5 -14t11.5 -11v2q0 1 0.5 1t0.5 1q-1 6 -5 14t-12 8h-2q-1 0 -2 -1zM747 972q11 -9 29 -22.5t36 -13.5q1 0 4 0.5t5 0.5q-12 14 -31 24.5t-36 11.5q-1 0 -3.5 -0.5t-3.5 -0.5z" />
    <glyph glyph-name="A" unicode="A" horiz-adv-x="1415" 
d="M30 184q0 57 29.5 111t76 95.5t103.5 66.5t112 25q40 3 67.5 -12.5t41.5 -39.5t14.5 -53.5t-13.5 -54.5t-43 -41.5t-73 -15.5q-29 0 -43 12.5t-16 29t6 34t22 28t33 9.5t39 -20q0 -7 -5.5 -13t-15.5 -6q-14 12 -26.5 8t-18.5 -14.5t-1.5 -22t25.5 -13.5q32 0 52.5 13
t30 32t9 40t-10.5 38t-29 26t-45 3q-50 0 -101 -22t-92.5 -59t-68 -85.5t-26.5 -100.5q0 -42 11 -81.5t33.5 -70t56 -49t78.5 -18.5q49 4 96.5 43.5t90 107.5t79.5 161.5t67.5 206t52 240.5t33.5 266h29q6 -20 15.5 -57t21.5 -83.5t26 -96.5t28 -95.5t27 -81t23 -52.5
l353 242l44 -49l-377 -242q8 -29 35.5 -70t66.5 -85t84.5 -85.5t89 -71.5t81 -44t59.5 -1q27 7 45.5 20.5t30 30.5t16.5 37.5t6 40.5q-3 39 -20.5 70t-42.5 51.5t-54.5 31t-56.5 8.5t-48.5 -16.5t-30.5 -42.5q0 -13 11 -19.5t23.5 -6t23.5 7t11 19.5l27 -2q2 -31 -18 -47
t-45 -16.5t-47.5 14.5t-24.5 46q6 39 30.5 63.5t59 33.5t74 2t74.5 -30.5t61 -63.5t33 -97q0 -56 -23.5 -105t-63 -86.5t-91 -59t-106.5 -21.5q-48 9 -85.5 35.5t-67 64.5t-53 84t-43.5 94.5t-38.5 95.5t-38.5 88l-97 -65q-9 -36 -21 -83.5t-30 -98t-43 -100.5t-60 -90.5
t-82 -69t-108 -35.5q-30 -6 -66.5 -1.5t-72.5 18.5t-70 38t-59.5 58t-41 77t-14.5 95zM306 -61q-4 1 -4 -4t4 -4q3 2 3 4.5t-3 3.5zM475 20q-7 -4 -24 -15.5t-36.5 -24.5t-36.5 -25t-24 -16q-5 -3 -8 -8h24q15 0 33 7t34.5 18.5t27.5 27t11 32.5l-1 2v2zM1073 28
q0 -2 3.5 -5t5.5 -3q6 0 14.5 4.5t16.5 11t14.5 13t10.5 11.5q-3 -1 -11.5 -4t-17.5 -7t-16.5 -7.5t-10.5 -4.5q-2 -1 -5 -4t-4 -5zM1242 78q-29 0 -48 -25l65 7l8 9q-2 8 -11 8.5t-14 0.5zM1033 69l16 16h-2q-1 0 -2 1q-5 0 -9.5 -2.5t-11.5 -6.5zM500 105q-3 0 -3 -4t3 -4
q2 0 2 4t-2 4zM1158 110q-8 0 -12 -9l16 8h-2q-1 0 -2 1zM524 117q-2 4 -6.5 -1t-1.5 -7t6.5 1.5t1.5 6.5zM1005 133q-9 0 -12 -8h3q9 0 13 8h-4zM605 190q-21 -9 -28.5 -23t-12.5 -34q1 0 4 -1t5 -1q7 0 12.5 7t9 17t6 19.5t4.5 15.5zM1073 133h4q8 0 18.5 1.5t10.5 11.5
q0 7 -8 12zM1017 182q1 -1 2 -1h2h2q1 0 1 1q3 1 12.5 4t12.5 4l-25 24zM573 303l-3 -8.5t-7 -20t-8 -24t-7 -20.5q-1 -1 -1 -2v-2v-2q0 -1 1 -2q8 5 14 15t9.5 22t5.5 23.5t3 20.5h-7zM984 250q-3 0 -3 -4t3 -4q4 0 4 4t-4 4zM944 254l16 17l-8 8zM968 266q-3 0 -3 -3.5
t3 -3.5t3 3.5t-3 3.5zM612 298q0 -6 2 -12.5t11 -6.5t14.5 7.5t8.5 18t4 21t1 17.5v9q-25 -4 -33 -18.5t-8 -35.5zM879 347q0 -8 2 -18t6 -20t10.5 -18t14.5 -12h-8l32 16l-57 57v-5zM637 416q0 -1 4 -1q18 0 27.5 22t13.5 50.5t4 56v37.5v9.5t-0.5 13.5t-0.5 13.5v8.5z
M718 473l58 44q0 1 -2 5t-7.5 18t-15.5 42t-26 76zM678 820q0 6 0 -8t0.5 -40t2 -60.5t4.5 -69.5l9 16v8t0.5 15.5t0.5 17v13.5v18.5t-0.5 24.5t-0.5 21.5v11.5q-1 8 -4 20t-5 12h-7zM1178 723q-26 -11 -53 -26t-43 -39q5 3 17.5 10t27 14.5t27 14.5t17.5 10q8 6 8 12l-1 2
v2z" />
    <glyph glyph-name="m" unicode="m" horiz-adv-x="729" 
d="M6 536l180 4q1 -42 0.5 -67t-2 -38.5t-2.5 -17.5l-1 -4q13 10 32.5 31.5t40.5 42t40 35t30 11.5q25 6 39.5 -5t21.5 -36.5t7 -65.5t-5 -92q18 37 43 72t49.5 63t47 45t36.5 17q29 11 49.5 -8t35.5 -58.5t26 -95t20.5 -118t19 -127.5t21.5 -123l-158 -6q8 110 11 189
t2 132.5t-5 85t-9.5 48.5t-12 22.5t-13.5 6.5q-13 -5 -30 -20t-34 -35.5t-33.5 -45t-29 -48t-20.5 -44t-8 -33.5q0 -27 0.5 -51.5t2 -53t5 -65t8.5 -88.5l-75 3q7 129 11 215t4 140t-3 81.5t-9 38t-14 10t-18 -1.5q-18 -15 -37 -33t-36 -37.5t-31 -38.5t-22 -35l-50 -339
h-56zM98 39h8l23 232l-8 -9zM372 19h10q0 20 -3.5 37t-8.5 36zM627 41q0 -6 4.5 -9.5t10.5 -5t12 -1.5h9q0 5 -0.5 12t-2 13t-5 10t-10.5 4q-10 0 -14 -7t-4 -16zM634 125q-9 -4 -19 -10.5t-10 -18.5q11 0 20 3t9 17v9zM645 157q1 4 -4.5 4t-4.5 -4q2 -4 5 -4t4 4zM623 236
q-6 0 -6 -5t3 -12t6.5 -15t3.5 -13q12 0 9.5 6t-2.5 20q0 7 -3 13t-11 6zM364 221q-4 0 -4 -4.5t4 -4.5q3 0 3 4.5t-3 4.5zM628 295q-11 -5 -11 -17h11v17zM137 325l9 17v129q0 20 -5.5 24t-19.5 4h-8.5t-10 -2t-7.5 -6t-1 -11q1 -3 7.5 -9.5t9.5 -7.5zM41 489q0 -32 10 -61
v61h-10z" />
    <glyph glyph-name="c" unicode="c" 
d="M146 1q-59 19 -87.5 64t-33.5 101.5t11 118t46.5 113.5t72.5 88t89 42q35 4 63.5 -3t49.5 -17.5t34.5 -20.5t18.5 -13l3 20l44 -3l-3 -106l-44 5q-1 8 0.5 21.5t2.5 21.5q-5 10 -25 22t-45 18.5t-50 4.5t-41 -19q-24 -26 -41 -66.5t-26 -85t-10.5 -90t5 -82t21 -60
t37.5 -25.5q28 -5 61.5 -1.5t64.5 18.5t54 42t29 68l38 -2q-7 -57 -38 -93.5t-77.5 -56t-104.5 -25t-119 0.5zM114 41q2 -7 7 -8t11 -1h10q-7 5 -12.5 7.5t-12.5 2.5q-1 0 -1 -0.5t-1 -0.5h-1zM104 54q-4 0 -4 -4.5t4 -4.5t4 4.5t-4 4.5zM95 76q-2 1 -3.5 -2t-1.5 -7t1.5 -7
t3.5 -2q5 2 5 9t-5 9zM161 76q3 -6 6 -7.5t8 -1.5q4 0 7 -4.5t5 -9.5t3.5 -7.5t1.5 0.5t-2.5 10t-6 14.5t-7.5 13t-7 5.5q-9 0 -6.5 -3.5t-1.5 -9.5zM85 100q-2 1 -3.5 -1.5t-1.5 -6t1.5 -6.5t3.5 -2q4 2 4 8t-4 8zM151 118h12q0 17 -3.5 34t-8.5 33v-67zM155 371
q-3 -8 -7.5 -21t-8.5 -27.5t-7 -28.5t-3 -24h22z" />
    <glyph glyph-name="O" unicode="O" horiz-adv-x="786" 
d="M440 7q-26 -10 -61 -13t-73.5 2.5t-78 20t-75 40.5t-64 64t-45.5 89q-19 84 -25 175t5 178t41 164.5t82.5 135.5t129 90.5t180.5 29.5q97 -19 160.5 -69t99 -119.5t45.5 -152.5t-1 -168t-40.5 -165t-72 -144.5t-95.5 -107t-112 -50.5zM259 133q-3 -17 0.5 -34.5t13 -29.5
t24 -16.5t31.5 3.5zM210 107q-11 -10 -15 -19t-12 -22q2 -1 6.5 -1h6.5q10 0 13.5 2.5t4.5 7t-0.5 12t-2.5 16.5q-1 0 -1 2v2zM420 936q-46 -19 -79.5 -66t-55 -111t-31.5 -140.5t-9.5 -154t11.5 -150.5t30.5 -131t48 -94.5t64.5 -41.5q70 15 120 61t81 111t44 143
t10.5 157.5t-20 154t-47.5 132.5t-72.5 93.5t-94.5 36.5zM100 142q3 -7 8 -14t13 -12l18 61q-6 -10 -15.5 -21t-23.5 -14zM183 177q-4 -7 -5.5 -11.5t-1.5 -10.5q0 -1 0.5 -1t0.5 -1v-2q7 2 7.5 7t-0.5 10q0 1 -0.5 4t-0.5 5zM100 434q-4 0 -4 -1q-3 -2 -12 -12t-11 -13
q10 3 18 10t14 15q-1 1 -5 1zM85 198q-4 0 -3.5 -4.5t4.5 -4.5q3 0 2.5 4.5t-3.5 4.5zM218 263q-12 -16 -12.5 -29.5t1.5 -31.5q0 -3 2 -13t2 -13l15 18zM91 215q-3 0 -2.5 -4t3.5 -4q4 0 3.5 4t-4.5 4zM127 306q-11 -9 -17.5 -23.5t-10.5 -28.5q7 7 18.5 20t10.5 27
q0 1 -0.5 2.5t-0.5 2.5zM195 314h17l-2 18zM163 362q0 -2 0.5 -6.5t1.5 -6.5q10 20 17 33t13 35q2 8 1.5 24.5t-1.5 34t-1.5 33.5t1.5 24zM724 546q-3 0 -2.5 -4t3.5 -4t2.5 4t-3.5 4zM720 496q-7 -7 -15 -17.5t-6 -21.5q0 -1 1 -2q0 -1 1 -2q11 7 17.5 14.5t5.5 19.5
q-1 2 -1.5 5t-2.5 4zM678 663q1 -6 4.5 -10.5t8.5 -7.5l-2 18h-11zM709 622q-5 -3 -8.5 -9t-6.5 -13t-4.5 -13t-1.5 -8q8 6 15.5 17t5.5 22v4zM660 733q11 0 18 -2.5t9 9.5q-23 29 -32 51.5t-18.5 40.5t-26.5 32.5t-54 26.5l46 -36z" />
    <glyph glyph-name="I" unicode="I" horiz-adv-x="516" 
d="M189 36l-30 906q5 1 -6 1q-10 0 -36.5 -0.5t-85.5 -2.5l3 41l471 5q0 -2 1.5 -8.5t2 -13t0 -12.5t-3.5 -7l-115 -6l-117 -903l214 10l-1 -43l-448 -13l-4 37zM234 235q-9 0 -13 -13.5t-5 -30t0 -32t1 -19.5v-56q7 35 12 74t5 77zM262 165q-2 1 -2.5 -2.5t-0.5 -8t0.5 -8
t2.5 -1.5q3 2 3 10t-3 10zM247 187q14 0 17 12.5t5 27.5q3 15 7 37t8 45.5l8 47t7.5 43t5.5 31.5t2 13v20q-8 -8 -14 -18.5t-8 -23.5l-38 -216v-19zM217 350l8 21h-8v-21zM240 408q-3 0 -3 -5.5t3 -5.5q2 0 2 5.5t-2 5.5zM262 475l-3 -9t-4.5 -12.5t-4.5 -12t-3 -8.5v-5v-6
q8 8 11.5 19t3.5 23v11zM269 638q-3 -2 -10 -9.5t-14 -17.5t-13 -19.5t-7 -14.5q-1 -2 -2 -17.5t-1 -23.5q0 -5 1 -20.5t2 -20.5q6 12 14 30t15 37.5t11.5 38.5t4.5 33l-1 2v2zM351 783q-4 -18 -9.5 -43.5t-10 -53t-8 -55t-3.5 -49.5q6 0 11 13t8.5 32.5t6 42.5t4 43.5
t2 35.5t0.5 18q0 2 -0.5 8t-0.5 8zM273 784q-9 0 -16.5 -8t-13 -19t-8.5 -24t-3 -22v-31q2 1 4.5 5t3.5 6q2 5 7.5 18t11.5 28t11 28t7 18h-2q-1 0 -2 1zM322 803q-11 -11 -18.5 -27.5t-12.5 -33.5q14 7 22.5 21t8.5 36v4zM262 825q3 3 10.5 19.5t16.5 35.5t16.5 35t10.5 19
q3 4 6.5 5.5t6 3t4 4.5t1.5 10h-11t-16.5 -0.5t-16.5 -1t-11 -0.5l-12.5 -2.5l-15 -3t-12.5 -3t-5 -2.5l-2 -99q1 3 5 17t9 30t10 29t8 13q1 0 4 -10t6.5 -23t6 -24t4.5 -12z" />
    <glyph glyph-name="W" unicode="W" horiz-adv-x="1208" 
d="M10 920l267 78l215 -866l120 409l62 6l159 -351q11 62 19 146t19 174t28 177t46.5 154.5t74 107t110.5 35.5q31 -16 44.5 -36.5t14 -42.5t-9 -43.5t-23 -37.5t-28.5 -25t-26 -7l-18 32q32 16 45.5 36t13 38t-12 30.5t-30 13t-41 -13.5t-44.5 -50q-26 -42 -39.5 -109.5
t-18.5 -148.5t-4.5 -169.5t3.5 -172.5t6.5 -156.5t3.5 -122.5l-228 -10l-123 361l-103 -351h-89zM738 170l6 -75q-1 11 -5.5 36.5t-12.5 57t-18 65.5t-21 61.5t-22.5 44t-22.5 14.5zM406 211q-3 0 -3 -4t3 -4t3 4t-3 4zM363 310q-4 2 -4 -4t4 -4q4 1 4 4t-4 4zM320 315
q-3 0 -3 -4.5t3 -4.5t3 4.5t-3 4.5zM311 336q-4 2 -4 -4t4 -4q4 1 4 4t-4 4zM354 332q-3 0 -3 -4.5t3 -4.5q4 0 4 4.5t-4 4.5zM303 349q-4 0 -4 -4t4 -4q3 0 3 4t-3 4zM337 366q-3 0 -3 -4t3 -4t3 4t-3 4zM667 439q0 -17 11.5 -31.5t24.5 -24.5v4q0 16 -10 36t-25 29
q0 -2 -0.5 -6.5t-0.5 -6.5zM345 444q0 -4 -0.5 -16t9.5 -14v4v4q0 3 -1.5 9t-2.5 13t-2.5 13t-1.5 9q-1 -2 -1 -11v-11zM197 554q0 -13 5 -27.5t13 -28.5t17.5 -27t18.5 -23q0 2 0.5 6.5t0.5 6.5q0 11 -3.5 27t-10.5 30.5t-17.5 25t-23.5 10.5zM293 582q0 -24 1.5 -42.5
t16.5 -39.5q8 8 9 16.5t1 18.5q0 12 -1.5 22t-5 19.5t-8.5 20t-12 24.5q0 -5 -0.5 -19.5t-0.5 -19.5zM88 903q3 -19 9 -50.5t15 -64.5t21 -63.5t28 -47.5q0 1 2.5 -8t5 -20t4.5 -20t2 -8q0 9 -4.5 32.5t-11.5 53t-16 62.5t-18.5 61t-19 48t-17.5 25zM234 963
q-39 -10 -48.5 -29t-3 -43t23 -52.5t29.5 -57t16 -57t-17 -52.5h4q11 0 12.5 12t1.5 19q0 5 -4 22t-10 40t-12.5 49.5t-12.5 49.5t-10 40t-4 21q0 8 5.5 10.5t11.5 2.5h10q1 -1 8 -5t9 -4q7 0 8 6.5t1 10.5q0 7 -2.5 12.5t-10.5 5.5q-1 0 -2.5 -0.5t-2.5 -0.5zM311 685
q-3 0 -3 -4t3 -4q4 0 4 4t-4 4zM303 711q-4 0 -4 -4t4 -4q3 0 3 4t-3 4zM79 916q-3 0 -3 -4.5t3 -4.5t3 4.5t-3 4.5zM954 828q-4 0 -4 -4.5t4 -4.5q3 0 3 4.5t-3 4.5zM962 845q-3 0 -3 -4t3 -4t3 4t-3 4zM971 858q9 5 9 13l-1 2v2zM1005 910q-2 4 -7 -1.5t-1 -7.5
q3 -2 6.5 1.5t1.5 7.5z" />
    <glyph glyph-name="d" unicode="d" horiz-adv-x="679" 
d="M17 129q2 53 21 102.5t50 92.5t72.5 77.5t90 56t101 29t106.5 -3.5l-24 490l210 21q0 -1 -1.5 -11t-6.5 -38t-13.5 -78t-22.5 -132t-35 -199.5t-49 -280.5q-12 -72 -12.5 -114.5t5.5 -65.5t15 -30t17 -8q24 -4 40 9t26 33t14 44t5 43h34q3 -30 -6 -64t-28.5 -60t-49 -38
t-67.5 1q-28 21 -38.5 46.5t-12 56.5t2 68.5t5.5 82.5q-23 -40 -60.5 -85.5t-83.5 -84.5t-97.5 -64.5t-100.5 -25.5q-28 0 -48 11t-33 29t-19.5 41.5t-6.5 48.5zM87 52q0 -5 6.5 -8t10.5 -3v41q-5 0 -8 -4t-5 -9.5t-3 -10.5t-1 -6zM146 69q0 -11 2.5 -18.5t16.5 -7.5
q5 0 10 0.5t7 8.5l-35 34q0 -2 -0.5 -8.5t-0.5 -8.5zM173 216q0 -15 3 -34.5t10.5 -37t20 -29.5t31.5 -12h13q39 15 76.5 43t67 64t47 78.5t17.5 86.5q0 39 -12 61t-53 22q-47 0 -87.5 -20.5t-70 -54.5t-46.5 -77.5t-17 -89.5zM96 164q-5 1 -5 -4.5t5 -4.5q4 1 4 4.5t-4 4.5
zM139 293q-4 1 -4 -4.5t4 -4.5q4 2 4 5t-4 4zM535 453q-3 0 -3 -4.5t3 -4.5q4 0 4 4.5t-4 4.5zM501 466q8 23 12.5 41.5t4.5 39.5v13l-17 -17v-77zM570 767q-6 -11 -12 -26.5t-11 -31.5t-8.5 -31t-3.5 -27v-4q17 23 26 53t9 59v8zM509 724q-16 -4 -17 -18t-1 -25
q0 -3 0.5 -13t0.5 -13q9 13 13.5 29t4.5 32q0 1 -0.5 4t-0.5 4zM521 863q-2 0 -6.5 -0.5t-9.5 -2t-9 -3t-4 -4.5v-60q8 11 18.5 32t10.5 38zM587 901q-3 0 -3 -4.5t3 -4.5t3 4.5t-3 4.5z" />
    <glyph glyph-name="n" unicode="n" horiz-adv-x="481" 
d="M173 536l-18 -130q24 16 50 38.5t53 43t55.5 34.5t59.5 14q32 4 47 -23t19.5 -73t1.5 -105.5t-5 -120.5t-0.5 -117.5t13.5 -96.5h-156q7 29 15.5 72.5t16 92.5t14 99t10 92t3 71.5t-6.5 37.5q-4 10 -11 17t-26.5 -1t-55.5 -36t-97 -86l-72 -357l-48 -4l-21 535zM56 28
q14 12 17.5 31.5t2.5 40t-4 38t-2 26.5q0 2 -0.5 6.5t-0.5 6.5q-5 -8 -3.5 -24t2.5 -32t-0.5 -27t-11.5 -9v-57zM349 99q-12 -6 -15.5 -23t-3.5 -29h11q2 0 4 5t3 12t1.5 14.5t0.5 11.5q0 2 -0.5 5t-0.5 4zM373 48q-3 0 -3 -4.5t3 -4.5t3 4.5t-3 4.5zM373 147q-2 1 -3 -3
t-1 -10t1 -10.5t3 -2.5q4 3 4 13t-4 13zM48 205q-2 2 -3 -5.5t-1 -16.5t1 -16.5t3 -4.5q4 5 4 21.5t-4 21.5zM69 323q-14 -9 -16 -23t-2 -29q0 -2 0.5 -12t0.5 -13q6 15 12 33t6 36q0 1 -0.5 4t-0.5 4zM364 240q-3 0 -3 -4.5t3 -4.5q4 0 4 4.5t-4 4.5zM390 265q-3 0 -3 -4
t3 -4t3 4t-3 4zM378 357l-3.5 -10.5t-5.5 -15.5t-5 -15.5t-3 -10.5q0 -1 -0.5 -4t-0.5 -5h18v61zM35 413q0 -17 2.5 -32t7.5 -32q7 8 8 14.5t1 15.5q0 10 -3 22t-16 12zM61 459q3 6 11 20t8 25q-2 0 -6.5 -0.5t-9.5 -2t-8.5 -3.5t-3.5 -4zM101 380l18 9q3 13 7 24
q3 10 5.5 19.5t4.5 16.5q0 2 0.5 5t0.5 4h-10zM394 484q0 -4 -1.5 -14t-2.5 -21t-2.5 -20.5t-1.5 -13.5v-5v-4q9 9 9 23v25v14.5t-1 15.5z" />
    <glyph glyph-name="J" unicode="J" horiz-adv-x="640" 
d="M150 896l571 128l12 -42l-142 -35q7 -36 12 -97t5.5 -136t-6.5 -158.5t-25.5 -165.5t-49.5 -156t-79 -130.5t-115.5 -89.5t-157.5 -32q-53 1 -90 27t-56 66t-20 87t17.5 89.5t56.5 74.5t97 42q34 2 57.5 -9.5t36.5 -30.5t15.5 -42t-5.5 -43.5t-27 -35.5t-48 -19l-20 28
q35 7 51 22t18 31t-9 31.5t-29.5 24.5t-44 8t-52.5 -17q-26 -16 -43.5 -43.5t-25 -59.5t-4 -65t19.5 -61.5t44.5 -48.5t72.5 -25q69 11 113.5 53.5t70.5 104t35.5 137.5t8 154.5t-12 153t-24 134.5t-28.5 99.5t-25 46.5l-167 -39zM480 661q15 33 27 51l22 33t17.5 34.5
t13.5 56.5q0 1 0.5 5.5t0.5 5.5q-10 0 -15 -4.5l-15 -13.5q6 -8 7.5 -13.5t1.5 -13.5v-8l-60 -124v-9zM545 580q-26 -16 -39.5 -49.5t-20.5 -70t-10 -69.5t-6 -48zM450 654q-10 -22 -13.5 -30t-3 -11.5t4 -6.5t7.5 -14q5 13 5.5 23.5t0.5 30.5q0 1 -0.5 4t-0.5 4zM349 61
q1 -1 2 -1h2q8 0 19 5t21.5 13.5t18 18.5t7.5 20q0 2 -7 0t-7 0zM428 896q4 -2 2 -11t-5.5 -18.5t-5.5 -17t2 -7.5q11 0 19 8t8 19q-7 0 -9 6t-2.5 12.5t-2 10t-6.5 -1.5zM506 860q-8 -9 -18.5 -23.5t-15.5 -28.5q4 3 10 9t11.5 12.5t9.5 13t4 12.5q0 1 -0.5 2.5t-0.5 2.5z
M461 762q-11 -5 -14.5 -11t-3.5 -15v-5t1 -4q7 5 12.5 13.5t5.5 16.5q0 1 -0.5 2.5t-0.5 2.5zM512 322l-51 -132q-1 -1 -1 -7v-9zM532 886q1 4 -4.5 4t-4.5 -4q2 -5 5 -5t4 5z" />
    <glyph glyph-name="B" unicode="B" horiz-adv-x="649" 
d="M14 918l260 73l7 -50q29 7 65.5 10.5t74 0.5t73.5 -14t64.5 -34t45.5 -59.5t18 -90.5q0 -45 -17 -86.5t-41.5 -75t-51 -58t-44.5 -35.5q61 12 93.5 3.5t47.5 -25.5t18 -36t4 -27t1.5 -29.5t-9 -52t-33.5 -67.5t-72 -76.5t-124 -79.5t-190 -76l-5 -20l-68 -6zM204 73
q31 7 72 19.5t84 32t84 47t71.5 64.5t46.5 84t9 106q-14 29 -35.5 38t-60.5 -3t-101 -44.5t-158 -85.5zM224 392q87 42 145.5 82t96 76t57 66.5t28.5 55t10.5 42.5t2.5 27q6 55 -22.5 92t-74.5 54.5t-99 15.5t-96 -23zM569 476q7 1 12 -13.5t8.5 -32.5t5.5 -35t3 -21
q3 0 4 6.5t0.5 14.5t-1.5 15t-1 9q0 8 -1.5 18t-5 18.5t-8.5 14.5t-12 6h-4zM67 678q-2 -14 6.5 -7.5t19.5 19.5t21 26.5t13 13.5l-49 -40zM137 847q-9 -11 -18.5 -16.5t-18 -10.5t-14 -13.5t-5.5 -26.5q18 3 22.5 4.5t7 7t6.5 18t20 37.5zM214 807q-16 -8 -25.5 -28.5
t-9.5 -35.5l-10.5 -15t-23 -33t-23 -33l-10.5 -15q11 2 28.5 22.5t34 46t28 50t11.5 33.5v8zM130 797q7 4 25 22.5t37 41.5t34 44.5t15 30.5h-10zM599 737q-4 0 -4 -4.5t4 -4.5q3 0 3 4.5t-3 4.5zM539 873q0 -1 8 -14.5t17.5 -28.5t17.5 -26t8 -7q3 6 -4.5 19.5t-18 27
t-19.5 23t-9 6.5zM138 200q3 -38 7 -40t8 18t7.5 55.5t6 72.5t3 69t-0.5 46l-22 -171zM112 483q-7 -31 -8 -43t2 -9.5t9 16.5t14 33t16 41t15 42z" />
    <glyph glyph-name="e" unicode="e" horiz-adv-x="570" 
d="M30 250q7 28 20.5 60.5t32.5 63t42 58t49 46.5q42 26 92 45t97 18.5t86 -25.5t60 -87q4 -13 -10 -31t-39 -39.5t-58 -44.5t-67.5 -47t-66 -47t-53.5 -44q-3 -11 -2 -26.5t5.5 -30.5t13 -26.5t21.5 -14.5q23 -13 52 -16.5t59.5 2.5t58.5 19.5t49.5 34.5t32.5 47t7 57
q1 -1 8 1t15 5t14 5.5t6 1.5q7 -60 -27 -107t-91 -78t-127.5 -44t-137.5 -5q-39 -1 -71.5 17.5t-53 51.5t-26 79t8.5 101zM138 151q-2 -2 -1 -14t2.5 -25.5t3 -24t1.5 -8.5t-0.5 14.5t-1.5 26t-2 23.5t-2 8zM188 70q-2 -6 1 -11t10 -7h5l-20 117q1 -27 2 -49zM81 140
q-1 -3 0 -10.5t3 -16.5t4.5 -16.5t4.5 -9.5l1 64q-11 -3 -13 -11zM94 313q-6 -3 -12.5 -13.5t-12.5 -23t-10.5 -24.5t-5.5 -18q-1 -2 3.5 3t10.5 11l10.5 10.5t4.5 3.5q2 7 4 21t5 22v2q0 1 0.5 1t0.5 1t1 2t1 2zM149 340q-1 2 -3 -9t-4 -28t-4 -37.5t-3 -38t-1.5 -28.5
t1.5 -10t4 12t4 27.5t3.5 35t2.5 35t1 28t-1 13.5zM180 408q1 -23 3 -42.5t5 -38.5t7 -38.5t9 -42.5q8 7 34.5 19.5t56 29t56 38t34.5 46.5q6 26 -2.5 44.5t-26.5 29t-42 13.5t-49 -2.5t-47.5 -19.5t-37.5 -36zM421 445q3 0 -0.5 4t-9.5 8.5t-11.5 9t-4.5 7.5l-28 -4z
M406 509q3 -14 8 -19t15 -7q5 -2 10.5 -2t10.5 7q-7 9 -14 12.5t-17 5.5q-2 0 -6.5 1t-6.5 2zM79 204q0 -7 4.5 -9t12.5 -4q5 14 7.5 22.5t2.5 20.5q0 2 -0.5 5t-0.5 4q-9 -7 -17.5 -17.5t-8.5 -21.5z" />
    <glyph glyph-name="P" unicode="P" horiz-adv-x="880" 
d="M290 70q-67 -56 -116 -72.5t-81 -3t-48.5 53t-19 94.5t8 121.5t32 135.5t54 135t73.5 120l-58 286h-91v37l389 12l-3 -37l-67 -4l4 -130q33 29 81 60t101.5 55.5t107.5 39.5t99 12t75.5 -27.5t37.5 -77.5q-4 -88 -47 -158t-107 -119t-140.5 -76t-147.5 -29
q-32 6 -46.5 23.5t-16.5 38.5t7 41t26 33t39.5 14t47.5 -16l-24 -27q-14 12 -26 11.5t-20.5 -9t-11.5 -21t1 -25t15.5 -22t32.5 -10.5q48 0 90.5 24t75 61.5t51.5 84.5t19 92q0 39 -16.5 59.5t-58.5 20.5q-35 0 -70.5 -10.5t-68.5 -28.5t-62.5 -41.5t-52.5 -49.5
q-3 -51 -4.5 -111.5t-2.5 -126.5t-1 -134t-1 -134t-2.5 -126.5t-4.5 -111.5l-31 -3zM753 874q7 3 9 8.5t2 11.5q-14 0 -19 -11zM745 913q-3 0 -3 -4t3 -4t3 4t-3 4zM736 922q-3 0 -3 -4.5t3 -4.5q4 0 4 4.5t-4 4.5zM211 599q-21 -37 -40 -85t-33.5 -99t-23 -102t-9 -94
t8.5 -75t30 -44.5t54.5 -3t82.5 49.5zM307 495q-4 0 -4 -4.5t4 -4.5q3 0 3 4.5t-3 4.5zM301 605q0 -12 -1.5 -25t-2 -26t1 -25t8.5 -21q5 48 7.5 96t2.5 96q-12 0 -16 -7.5t-4 -17.5t1 -21t0 -17q-1 -2 2 -10t2 -10q-1 0 -1 -5v-7zM264 581q-4 0 -4 -4t4 -4q3 0 3 4t-3 4z
M703 702q-3 0 -3 -4.5t3 -4.5q4 0 4 4.5t-4 4.5zM264 775q-6 -1 -8 -6t-2.5 -11t0 -11t0.5 -6q0 -3 0.5 -13t0.5 -13q8 8 8.5 18t0.5 21v21zM720 736q-3 0 -3 -4t3 -4q4 0 4 4t-4 4zM315 818q0 -3 -1.5 -10.5t-2.5 -15.5t-2.5 -15.5t-1.5 -10.5v-4v-4q5 1 7 6t2.5 11t0 11
t-0.5 6v13t-1 13zM729 775q-2 1 -3 -2t-1 -6.5t1 -6.5t3 -2q4 2 4 8.5t-4 8.5zM815 913q-14 -26 -16 -45t-2 -45v-8.5t0.5 -11.5t0.5 -11.5v-7.5q12 20 23.5 45t11.5 50q0 10 -4.5 19.5t-13.5 14.5zM729 848q-3 0 -3 -4t3 -4t3 4t-3 4zM712 874q-3 0 -3 -4t3 -4t3 4t-3 4z
M686 896q1 4 -4.5 4t-4.5 -4q2 -4 5 -4t4 4zM608 913q-8 0 -13 -1t-12 -8h8q8 0 13 1.5t13 7.5h-9zM643 904h26q-12 9 -22 9h-4v-9zM321 960q-8 0 -14 -12.5t-10 -29.5t-5.5 -34.5t-1.5 -26.5l34 56zM764 939q1 -18 12 -18q6 0 11.5 3t10.5 6q-8 6 -13 7.5t-13 1.5h-8z" />
    <glyph glyph-name="o" unicode="o" horiz-adv-x="519" 
d="M14 165q-14 66 0 124t46.5 104.5t78 79.5t95.5 48.5t99.5 11.5t88.5 -30.5t63 -78t24 -131.5q-2 -66 -32.5 -122.5t-77 -96.5t-103 -59.5t-110.5 -12t-100 46.5t-72 116zM114 106q-6 -8 -7.5 -13t-1.5 -14l20 -7q0 9 -2 17.5t-9 16.5zM188 444q-11 -5 -21 -27.5
t-17.5 -55.5t-11 -73t-1.5 -78.5t10.5 -72.5t24.5 -55t41.5 -25.5t61.5 15.5q31 24 50.5 69t26.5 95.5t1 100t-26 83t-54.5 43t-84.5 -18.5zM68 216q0 -18 2 -31t16 -29q5 25 12.5 48t7.5 49q-5 0 -7 2t-2.5 3.5t-2 1.5t-5.5 -3q0 -2 -3.5 -8t-7 -12.5l-7 -13t-3.5 -7.5z
M336 89q15 8 26.5 25t19.5 37t12 41.5t4 38.5q0 4 -1 15.5t-1 14.5q-8 -39 -25.5 -80t-34.5 -75v-17zM77 132q-2 1 -3 -2t-1 -6.5t1 -6.5t3 -2q4 2 4 8.5t-4 8.5zM86 322q-19 -16 -29.5 -32.5t-10.5 -42.5q10 0 17.5 8t12.5 19t7.5 23t2.5 20v5zM431 347q-5 2 -5 -3.5
t5 -4.5q4 1 4 4t-4 4zM120 382q-11 1 -14.5 -4t-3.5 -13q0 -2 0.5 -5t0.5 -4q6 4 12 9t6 13zM310 503q4 -5 14 -16t21 -23t20.5 -23.5t13.5 -15.5q1 -2 6.5 -9.5t11 -16.5t10.5 -16.5t6 -9.5q2 -1 5 -4l4 -4v4q0 8 -4.5 20.5t-10.5 24.5t-11.5 22.5t-8.5 14.5q-3 6 -9 14.5
t-11 17t-9.5 14.5l-4.5 6h-43zM241 498q-3 0 -3 -4t3 -4t3 4t-3 4zM267 503q1 4 -4.5 4t-4.5 -4q1 -5 4 -5t5 5z" />
    <glyph glyph-name="X" unicode="X" horiz-adv-x="892" 
d="M498 374q-99 -150 -184 -243t-154 -128q-38 -14 -67.5 -5t-48.5 30t-25.5 50.5t1 56.5t30.5 47t64 24q28 3 45 -7.5t23.5 -26t4 -33t-13.5 -29.5t-29.5 -15t-42.5 10q-3 8 1 15t10 8q1 1 2 1t2 1q16 -8 27.5 -3t14 15.5t-5 21t-27.5 12.5q-31 -3 -48.5 -16.5t-23.5 -31.5
t-2 -38t15.5 -34.5t28.5 -21.5t38 0q32 3 73 39.5t81 93t75 126.5t55 142l-359 378l21 13t52.5 32t68.5 41.5t68.5 42t53.5 32.5t24 14l179 -330l135 326l239 -103l-304 -364l269 -507l-26 -13zM388 546v8l-9 18l-121 129h-4q-6 0 -11.5 -2.5t-10.5 -6.5l138 -138zM551 460
q0 -1 0.5 -3.5t6.5 -15t20 -40t42 -78.5q3 -3 12 -13.5t19 -23t19 -23t12 -12.5v2q0 1 0.5 1t0.5 1q0 10 -10 27.5t-23.5 35t-26.5 32t-19 18.5q-2 0 -10.5 14.5t-18 32t-17 32t-7.5 13.5zM139 798q29 -23 44.5 -36.5t23 -19.5t8.5 -6t1 5q0 6 -7.5 19.5t-16.5 27.5
t-17.5 24.5t-11.5 9.5zM614 707q-11 0 -23.5 -10.5t-23 -25t-18 -29.5t-7.5 -23v-2q0 -1 1 -2q9 7 21 18t23 23t19 25.5t8 25.5zM396 740q0 -12 4.5 -25.5t12 -26t17 -23t18.5 -16.5v9q0 9 -1.5 12t-7.5 14q-2 4 -8 13.5t-13 20.5t-13 21t-9 14v-13zM655 666
q-13 -7 -26.5 -17.5t-25 -23t-21 -26t-13.5 -27.5h8l78 86v8zM266 825q0 -11 2.5 -17.5t15.5 -11.5q8 2 9 9t1 13q0 12 -3.5 19.5t-15.5 18.5q-7 -8 -8 -15t-1 -16zM698 856q-3 -3 -8.5 -11.5t-12.5 -18.5t-13 -20.5t-9 -18.5l8.5 8.5l8.5 8.5l10 12.5t11.5 14t9 11.5l3.5 5
zM378 860q0 -11 4 -21.5t14 -16.5v2q0 1 0.5 1t0.5 1q0 11 -6 24t-12 23q0 -1 -0.5 -6t-0.5 -7zM241 839q2 3 5 13t4 13v8l-26 -17zM310 856h9l-18 43l-8 -8zM741 830q-5 -6 -7 -10.5t-2 -10.5v-5q7 2 14.5 6.5t11.5 11.5zM344 908q4 5 7 12t3 14h-10v-26zM319 787
q-4 -5 -7 -12t-3 -14h10v26zM404 804q0 -5 1 -10t8 -7v2q0 1 1 2q0 7 -2.5 11.5t-6.5 10.5q0 -1 -0.5 -4t-0.5 -5zM344 744q-2 1 -3 -2t-1 -6.5t1 -6.5t3 -2q5 2 5 8.5t-5 8.5zM663 701q-2 4 -7 -1.5t-1 -7.5t7 1.5t1 7.5zM362 813q-5 1 -5 -4.5t5 -4.5q4 2 4 5t-4 4z
M431 761q-5 2 -5 -4t5 -4q4 1 4 4t-4 4zM448 494q-4 1 -4 -4.5t4 -4.5q4 2 4 5t-4 4zM422 778q-4 2 -4 -3.5t4 -4.5t4 4t-4 4zM638 671q-4 0 -4 -4.5t4 -4.5q3 0 3 4.5t-3 4.5zM439 740q-3 0 -3 -4.5t3 -4.5q4 0 4 4.5t-4 4.5zM456 481q-3 0 -3 -4.5t3 -4.5q4 0 4 4.5
t-4 4.5zM775 817q-3 0 -3 -4t3 -4q4 0 4 4t-4 4zM396 541q-3 0 -3 -4t3 -4t3 4t-3 4zM429 454l-3 3z" />
    <glyph glyph-name="f" unicode="f" horiz-adv-x="510" 
d="M126 -7q1 -22 0 1.5t-3.5 73t-5.5 116t-6 130.5t-4.5 116.5t-1.5 73.5l-99 -4l2 34l96 2q1 43 2 94t7 102t19.5 98.5t38 84t62.5 58t95 21.5q49 2 85.5 -18t58.5 -51.5t29 -69.5t-3.5 -73t-39 -62t-76.5 -36l-5 29q30 7 50 26t29.5 44t8.5 53.5t-12.5 53t-34 43
t-55.5 24.5q-53 -4 -89 -33.5t-53.5 -82t-15.5 -127.5t25 -170l188 -1v-38l-176 -4l94 -503zM154 309q-1 1 -1 -16.5t1 -44.5t3 -58.5t4 -58.5t3.5 -45t3.5 -17q1 0 1 18t-1 44t-3 56.5t-4 57.5t-4 45t-3 19zM251 82q-3 -7 5 -15q1 0 8 1t16 3t16.5 5.5t9.5 8.5q2 8 -1.5 21
t-11.5 15h-2q-1 0 -2 1q-3 -2 -8 -7t-11 -10.5t-11 -10.5t-6 -7q0 -1 -1 -2.5t-1 -2.5zM184 201q-2 1 4 -10.5t14 -26.5t15.5 -27t9.5 -12q2 1 -4 12.5t-14 25t-16 25.5t-9 13zM227 235q-5 -20 3 -39.5t28 -24.5q5 20 -6 39.5t-22 33.5q0 -1 -1 -4t-2 -5zM188 498
q1 -5 4 -27.5t8.5 -51.5t14 -59t20.5 -51q2 -1 6.5 -2t6.5 -1q-2 6 -8 32t-13 56t-13 56t-9 32q-3 8 -6 11t-11 5zM179 560q-1 -5 -3 -13.5t6 -13.5l11 6l-8 37q-2 -1 -3.5 -7.5t-2.5 -8.5zM180 596q-3 2 -4.5 -3t2.5 -6q4 0 5 3.5t-3 5.5zM234 939q-21 -15 -37.5 -43.5
t-26.5 -61t-11.5 -65t8.5 -54.5q-2 10 2.5 35t11.5 53t15.5 53t15.5 35q1 3 4 9.5t6.5 14t6.5 14.5t5 10z" />
    <glyph glyph-name="C" unicode="C" horiz-adv-x="654" 
d="M32 227q-17 87 -5 171.5t43.5 161.5t78.5 144.5t100.5 120.5t110 89.5t106 52t88.5 7.5t59 -44l-33 -23q-25 29 -62 24t-78.5 -36t-83.5 -83.5t-75.5 -117.5t-55 -138.5t-22.5 -146.5q-3 -79 16.5 -131t53 -79t77 -31.5t88.5 12.5t88.5 53.5t76.5 90.5l46 -12
q-11 -31 -38.5 -70t-65.5 -78t-84.5 -73t-95.5 -56t-98.5 -27t-93.5 15t-80.5 69t-60.5 135zM157 120q-10 -4 -14.5 -9t-4.5 -16q0 -1 0.5 -4.5t0.5 -4.5q7 3 12.5 11t6.5 18q-1 0 -1 1v2v2zM263 96q-12 -8 -24 -21t-21 -26q1 0 2.5 -1t2.5 -1q7 -2 13.5 4.5t12 15.5
t9.5 17.5t5 11.5zM106 178q10 4 14.5 16.5t4.5 23.5v5q-3 -1 -8 -5.5t-9.5 -10t-7.5 -10t-2 -5.5zM343 97q-3 -4 -8 -6.5t-11 -4.5t-11 -4.5t-7 -6.5v-5q0 -1 -0.5 -2.5t-0.5 -2.5q52 18 99 43.5t88 64.5q-18 -6 -36 -19t-37 -26.5t-38 -23t-38 -7.5zM273 175q-2 0 -12 -9.5
t-22 -21.5t-22.5 -24t-13.5 -16l88 65q-3 6 -8 5t-10 1zM214 258q-7 -9 -16 -19.5t-18 -21.5t-17 -21.5t-12 -17.5q0 -2 0.5 -5.5t0.5 -5.5l71 70zM168 423q-2 -3 -5.5 -9.5t-4.5 -8.5q-3 -8 -11 -30t-17 -46.5t-16.5 -46.5t-10.5 -31q9 4 19 19t18.5 33t14.5 35.5t6 27.5v6
q0 4 1 11t2.5 14.5t2.5 14.5t1 11zM78 307q-4 4 -4 -2.5t4 -6.5t4 3.5t-4 5.5zM143 479q-6 -10 -15 -26.5t-18 -36.5t-16 -41t-7 -40v-9l56 144v9zM153 497q1 -1 4 -2t4 -2q8 -2 13 5t8 17.5t4.5 21t1.5 15.5v5z" />
    <glyph glyph-name="Q" unicode="Q" horiz-adv-x="908" 
d="M586 -176l-28 209q-9 -7 -36.5 -19t-68 -21.5t-90.5 -11.5t-102 12q-91 24 -143.5 82t-72.5 135.5t-10.5 168t43.5 180t89 171.5t125 141.5t152.5 91t171.5 19.5q38 0 84.5 -25t87.5 -71.5t69 -112.5t28 -149q0 -91 -20 -169.5t-49 -140.5t-60.5 -107.5t-55.5 -70.5
l83 -157zM273 371q-1 -90 19.5 -161t58 -110.5t89 -41t112.5 46.5l-14 276l53 29l49 -118q39 41 63.5 100t33.5 124.5t3.5 132t-25 122t-53 95.5t-79.5 52q-59 0 -114.5 -42t-98.5 -115.5t-69.5 -173.5t-27.5 -216zM225 230q2 -1 4 -2.5t4 -3.5q3 -3 6 -5v-89q0 -9 6 -18
t14.5 -16t16.5 -11.5t11 -4.5q1 0 3 0.5t3 0.5q-9 39 -17 70t-14.5 61.5t-12.5 64.5t-10 78q-7 -9 -14 -27t-13 -38t-10 -40t-4 -34q6 0 11.5 8t13.5 8zM843 618q0 -2 -7 -30.5t-16.5 -66.5t-20 -77t-16.5 -63q-2 -6 -7 -20.5t-10.5 -30t-10 -29.5t-6.5 -20q19 31 37 70
t32.5 83.5t23.5 92t9 96.5q0 15 -0.5 29.5t-7.5 28.5v-63zM90 219q5 -31 16 -56.5t24 -43.5q2 5 7 19.5t10 33.5t9 38.5t4 33.5q-9 0 -17.5 -5t-16.5 -10.5t-17 -9t-19 -0.5zM137 406q-4 -4 -13 -5.5t-18 -3.5t-16 -5.5t-7 -10.5v-125q19 26 32 67t22 83zM721 -7
q-6 23 -7 27t-1.5 -1t-3.5 -13t-12 -8q-5 -12 -14 -24t-19 -21t-17 -15.5t-7 -7.5v-12q4 3 15 12t23 19t22.5 19t14.5 13q1 2 3.5 6.5t2.5 5.5zM675 909q0 -1 4 -8t9.5 -17t11.5 -22t10 -23q0 -1 2 -5t4.5 -8.5t4.5 -8t3 -3.5q6 0 7.5 -0.5t1 0t-1.5 3t-1 8.5q0 51 -14 74.5
t-41 23.5v-14zM643 -31q3 0 8 9t10 23t9 30t5.5 30t-1 23.5t-10.5 9.5q-3 0 -3 -1l-34 -125v-12q5 6 8 9.5t8 3.5zM386 881q-9 0 -22 -5.5t-24.5 -16.5t-19.5 -28t-8 -39h9l68 87zM775 581q15 21 25 52t10 66v7l-35 -88v-37zM192 668q-14 -22 -25 -42t-20.5 -40t-18 -42.5
t-17.5 -50.5q-1 -2 -1 -3v-3v-3q0 -1 1 -2zM599 268q-4 -1 -6 -8t-2.5 -15.5t0 -16.5t0.5 -9v-19t1 -19q2 2 5.5 8t7 13t6 14.5t2.5 13.5q0 8 -4.5 20.5t-9.5 17.5zM246 593q14 22 28 51t19 62l-54 -101zM768 799q0 -1 -0.5 -7.5t0 -14.5t2 -14.5t5.5 -6.5q5 0 12 8.5
t9 16.5l-28 49v-31zM658 243q0 -8 2.5 -14.5t5.5 -9.5q21 19 34.5 49t27.5 62l-54 -87h-16zM171 67q1 -2 6 -6.5t7 -4.5q3 0 5 4t2.5 9t0.5 10v7v19zM626 143q-10 -7 -12 -18t-2 -26q0 -2 0.5 -9.5t0.5 -9.5zM225 43h28l-28 24v-24zM158 506q8 5 16.5 18t9.5 31zM782 535
q-2 1 -2.5 -3.5t-0.5 -9.5t0.5 -9.5t2.5 -2.5q3 3 3 12.5t-3 12.5zM293 768q0 3 -1.5 2t-3 -4t-2.5 -6t1 -4q2 -3 5 2t1 10zM308 67q1 6 -3.5 6t-4.5 -6q1 -5 3.5 -5t4.5 5zM741 374q-2 0 -2 -6t2 -6q3 0 3 6t-3 6zM192 586q-2 0 -2 -6t2 -6t2 6t-2 6zM192 336q-2 0 -2 -5.5
t2 -5.5t2 5.5t-2 5.5z" />
    <glyph glyph-name="K" unicode="K" horiz-adv-x="627" 
d="M18 985h252l-64 -380l369 383l35 -26l-374 -404l376 -437l-116 -116l-310 503l-64 -507l-66 1zM84 157q-2 0 -1.5 -6t2.5 -6t1.5 6t-2.5 6zM85 216q-2 1 -2 -3v-8.5t1 -8t3 -1.5q3 2 2.5 10.5t-4.5 10.5zM443 255q-2 2 -1.5 -5.5t2.5 -6.5q3 2 3 6.5t-4 5.5zM463 207
q6 -15 16 -14l-2 28q-10 -1 -14 -14zM315 391q3 -5 8 -13.5t11 -16.5t12.5 -14.5t12.5 -8.5v5.5t-1 5.5q-1 20 -15 31.5t-25 11.5q-1 0 -1 -0.5t-1 -0.5h-1zM413 307q3 -9 10.5 -15.5t14.5 -5.5h3q-5 8 -11.5 15t-14.5 7zM92 386q-5 -2 -5 -10.5t1 -15.5q0 -2 0.5 -8t1.5 -8
q3 9 4 15.5t0 15.5q0 2 -1 6t-1 5zM405 323q-3 0 -2.5 -5t3.5 -5q2 0 1.5 5t-2.5 5zM306 406q-2 0 -1.5 -5.5t2.5 -5.5q4 1 3.5 6.5t-4.5 4.5zM392 333q-3 0 -3 -5.5t3 -5.5q2 1 2 6.5t-2 4.5zM82 455q-2 0 -1.5 -5t2.5 -5t1.5 5t-2.5 5zM235 494q4 -11 10 -11l3 2
q-5 12 -11 12q-1 -1 -1 -2t-1 -1zM95 460q6 9 5 17v6zM139 580q-5 -3 -7 -10t-2.5 -15.5t0 -17.5t0.5 -16q0 -1 0.5 -3t0.5 -3q7 8 8.5 24.5t0.5 30.5q0 1 -0.5 5t-0.5 5zM98 606q-10 -1 -11 -16t0 -28q0 -2 0.5 -8t0.5 -8q8 11 10 27t0 33zM183 603q-3 1 -2.5 -6t3.5 -4
q3 1 2.5 4.5t-3.5 5.5zM189 625q16 75 26.5 143t18.5 146v12q-1 10 -5.5 14.5t-11 5.5t-12.5 0.5t-10 -0.5q-3 0 -12 -0.5t-12 -2.5q2 -14 5.5 -17.5t8.5 -2.5q8 0 12.5 6t12.5 6h2q3 -4 9.5 -11.5t5.5 -9.5l-39 -280zM83 793q-1 -1 -1.5 -11.5t-0.5 -25t0.5 -28.5t1.5 -22
l7 1q5 0 7 9t2.5 20.5t0 23.5t-0.5 18q0 2 -1 12.5t-3 12.5zM151 772q-5 -8 -11.5 -21.5t-5.5 -25.5q0 -1 1 -3t1 -3q5 8 11 21t4 27v5zM134 831q-2 0 -2 -5.5t2 -5.5t2 5.5t-2 5.5zM85 941q-2 0 -7 -3.5t-5 -5.5l6 -75q0 -7 4 -9t6 -2q3 0 6 2t3 9l-6 75q0 2 -2.5 5.5
t-4.5 3.5zM135 945q-4 0 -5.5 -6t-2 -14.5t0.5 -17t1 -13.5q0 -2 0.5 -7.5t0.5 -7.5q5 2 11.5 9t5.5 19q0 4 -1 11t-2 13t-3.5 10t-5.5 4z" />
    <glyph glyph-name="p" unicode="p" horiz-adv-x="609" 
d="M15 520q19 29 45 38t48 -4.5t34.5 -52t4.5 -104.5q16 38 54.5 69t87.5 49t101.5 20t96 -17t71.5 -63.5t28 -118.5q-3 -79 -38.5 -145.5t-92.5 -111t-131 -63.5t-154 -2l26 -504l-212 -7q13 42 25.5 107t23.5 144.5t21 170t19 183t17.5 183.5t16.5 171q-2 17 -8.5 33
t-16.5 23.5t-22.5 1.5t-26.5 -32zM234 39q40 0 73.5 23.5t59 61t43 84t25 93t4.5 87.5t-18.5 67t-43.5 32t-70 -17q-12 -6 -35 -21t-46 -52t-40 -102.5t-17 -172.5q0 -39 12 -61t53 -22zM58 -270q6 11 12 26.5t11 31.5t8.5 31t3.5 27v4q-17 -23 -26 -53t-9 -59v-8zM107 -366
q2 0 6.5 0.5t9.5 2t9 3t4 4.5v60q-8 -11 -18.5 -32t-10.5 -38zM127 31q-8 -23 -12.5 -41.5t-4.5 -39.5v-13l17 17v77zM480 465q0 11 -2.5 18.5t-16.5 7.5q-5 0 -10 -0.5t-7 -8.5l35 -34q0 2 0.5 8.5t0.5 8.5zM119 -227q16 4 17 18t1 25q0 3 -0.5 13t-0.5 13
q-9 -13 -13.5 -29t-4.5 -32q0 -1 0.5 -4t0.5 -4zM541 420q0 5 -6.5 8t-10.5 3v-41q5 0 8 4t5 9.5t3 10t1 6.5zM489 204q4 -1 4 4.5t-4 4.5q-4 -2 -4 -5t4 -4zM93 44q3 0 3 4.5t-3 4.5q-4 0 -4 -4.5t4 -4.5zM41 -404q3 0 3 4.5t-3 4.5t-3 -4.5t3 -4.5z" />
    <glyph glyph-name="g" unicode="g" horiz-adv-x="604" 
d="M-40 -336q0 47 16 88t41.5 73.5t59 54t70 31t72.5 4.5t67 -27l-18 -25q-25 19 -56.5 18.5t-60 -18t-50 -51t-26.5 -81.5q-8 -50 3.5 -99.5t39.5 -85t71 -50.5t99 4q59 20 92 62t47.5 97.5t15.5 119.5t-5.5 128.5t-15.5 125t-13 108.5q-20 -33 -56.5 -62t-80 -49
t-88.5 -27t-81.5 4.5t-59.5 44.5t-22 94q0 82 28 155.5t69.5 128t91.5 86.5t94.5 31.5t78 -38t43.5 -121.5q2 17 4.5 39.5t7.5 46.5t14 47.5t25 42.5t40.5 31t60.5 14l-2 -44q-26 3 -44 -7.5t-29.5 -31.5t-16.5 -49t-5.5 -58.5t3.5 -62t10 -58.5q1 -8 10.5 -36t22 -71.5
t26.5 -98t23 -115t10.5 -123.5t-9 -122.5t-36.5 -112.5t-72 -93q-42 -34 -94 -54t-106.5 -24t-106.5 7t-94.5 38t-71.5 69.5t-36 101.5zM72 -461q-3 0 -3 -4t3 -4t3 4t-3 4zM12 -405q3 -6 8.5 -15.5t12.5 -18.5t15.5 -15t16.5 -6q0 10 1 17t-0.5 10.5t-7 5t-18.5 1.5
q-1 0 -5 3.5t-9 7.5t-9 7t-5 3zM503 -353q-12 -9 -20.5 -23.5t-13.5 -28.5q6 1 13 5.5t14 10.5t11.5 13t4.5 14q0 2 -3.5 5.5t-5.5 3.5zM-6 -325q0 -18 1 -32t8 -31q1 8 5 29t8 44.5t7.5 44.5t5.5 29v4v5q-11 -6 -18 -16.5t-11 -24t-5 -27t-1 -25.5zM527 -310q0 -11 10 -18
v18h-10zM520 -289q-3 0 -3 -4.5t3 -4.5q4 0 4 4.5t-4 4.5zM520 -198q2 -5 5 -21.5t4 -21.5v60q-6 -3 -7.5 -5t-1.5 -7v-5zM477 -155q-2 3 -3 -4.5t-1 -16.5t1 -16.5t3 -5.5q2 3 3 9t1 13t-1 13t-3 8zM529 -159q-3 0 -3 -4.5t3 -4.5t3 4.5t-3 4.5zM494 -34q0 -3 3.5 -13
t5.5 -13q1 -1 2 -1h2q13 0 13.5 11.5t0.5 19.5q0 51 -6 104t-29 99q0 -3 -0.5 -13t-0.5 -13q0 -14 0.5 -26t8.5 -26v-129zM434 164q0 -27 0.5 -47t8.5 -48v207q-3 -17 -5 -30.5t-3 -26.5t-1 -26v-29zM73 73q0 -8 5 -16.5t12 -13.5q0 1 0.5 4t0.5 5q0 10 -2 16.5t-7 17.5
q-6 -2 -7.5 -5t-1.5 -8zM124 108q0 -10 1.5 -21.5t5.5 -21.5t11.5 -16.5t20.5 -6.5h10.5t7.5 8q-14 1 -25 8.5t-17 21.5t-5.5 33t8.5 42q-12 -8 -15 -20.5t-3 -26.5zM193 204q-3 -46 8.5 -74t30.5 -40t43 -9t47 19.5t42 45.5t28 69q5 21 8 53.5t1.5 68.5t-9.5 71.5t-24 63.5
q-31 20 -56 14.5t-43.5 -27.5t-32 -56t-22.5 -70t-14 -71t-7 -58zM158 354q-4 -5 -8.5 -22t-8 -38t-6 -41.5t-2.5 -32.5v-13l34 155zM79 268q-3 0 -3 -4.5t3 -4.5t3 4.5t-3 4.5zM451 306q-3 0 -3 -4t3 -4q4 0 4 4t-4 4zM88 294q-4 0 -4 -4.5t4 -4.5q3 0 3 4.5t-3 4.5z
M176 449q0 2 -4 -0.5t-7.5 -6t-6 -7.5t-0.5 -4q5 0 11.5 6.5t6.5 11.5z" />
    <glyph glyph-name="Y" unicode="Y" horiz-adv-x="671" 
d="M202 9l145 608q-86 65 -145.5 110.5t-98 75t-59 46t-30 24.5t-11 10l-1.5 2l294 100l163 -269l160 275l35 -25l-176 -300l55 -666zM264 60q18 1 28 20.5t14.5 45t6 50t3.5 35.5q1 1 3 7.5t4.5 14t5 13.5t2.5 8q5 24 12 62.5t13 76t10.5 66t4.5 31.5l-1 17l-107 -420z
M382 127q-9 -2 -9 -11.5v-14.5q0 -2 1 -8.5t1 -8.5q7 8 7.5 14.5t0.5 15.5q-1 2 -1 6.5v6.5zM329 133q15 9 19.5 25.5t3.5 31.5v5zM465 262q-20 -30 -28 -57.5t-6 -65.5l32 2q2 32 4 54t0 49q0 2 -1 9t-1 9zM430 278q-4 0 -3.5 -5.5t3.5 -3.5q4 2 4 5t-4 4zM464 444
q-21 -30 -31 -51t-8 -50q0 -3 1 -11.5t2 -10.5q4 1 11 5.5t14 10t11.5 11.5t4.5 9zM458 564q-19 -20 -25 -50.5t-5 -54.5q1 -1 1 -4v-5q20 18 27.5 36t5.5 44q0 4 -2 17t-2 17zM302 760q1 4 -4.5 4t-4.5 -4q2 -4 5.5 -4t3.5 4zM285 768q1 2 -2 3t-7 1t-6.5 -1t-1.5 -3
q2 -4 8.5 -4t8.5 4zM249 775q2 4 -4 3.5t-4 -3.5q2 -4 5 -4t3 4zM224 783q1 4 -4.5 3.5t-4.5 -4.5t4 -3.5t5 4.5zM197 795q-4 -1 -3.5 -5.5t4.5 -3.5q3 0 2.5 4.5t-3.5 4.5zM179 802q-3 0 -3 -4t3 -4q4 0 4 4t-4 4zM171 807q0 4 -5.5 3.5t-3.5 -4.5q1 -4 4.5 -3.5t4.5 4.5z
M153 814q1 5 -4.5 4.5t-4.5 -5.5q1 -4 4 -3.5t5 4.5zM282 824q-3 0 -3 -4.5t3 -4.5q3 1 3 5.5t-3 3.5zM359 832q-4 1 -4 -4.5t4 -4.5q5 2 5 5t-5 4zM135 822q1 4 -4.5 4t-3.5 -4q1 -4 4 -4t4 4zM140 900q1 -2 4 -4.5t5 -3.5q12 -8 31.5 -18.5t38 -21t32 -17.5t14.5 -7h8
q-6 9 -17 24t-24 30t-26 26t-23 11q-11 0 -24.5 -4t-18.5 -15zM117 834q-3 0 -3 -4.5t3 -4.5t3 4.5t-3 4.5zM275 949q6 -12 14 -27.5t18 -31t20.5 -29t22.5 -20.5v8l-58 101zM90 846q7 -9 14 -8h4q-5 9 -13 8h-5zM63 866q1 -5 5 -9t9 -3q1 0 2.5 0.5t2.5 0.5l-19 16v-5z" />
    <glyph glyph-name="D" unicode="D" horiz-adv-x="836" 
d="M87 20l64 21q-1 13 -3.5 54.5t-5.5 100.5t-7 130.5t-8.5 145t-9.5 144.5t-9.5 129t-9.5 98t-9 51l-73 -19l-9 49q75 25 158.5 40.5t166.5 16.5t161 -14t141.5 -51t109 -96t62.5 -147q2 -118 -22.5 -211t-71 -165t-112 -124.5t-144.5 -90t-169.5 -61t-186.5 -36.5zM183 95
q11 5 18 24.5t11 45t6 53t4 49t4.5 33t7.5 4.5q0 1 -5 -5t-10 -14q-7 -9 -15 -21l-20 -156q-1 -2 -1 -5v-8zM650 615q9 65 -20.5 120.5t-79 96.5t-111 66.5t-118.5 30.5l-56 -890q94 33 158.5 82.5t106 106.5t64.5 117t34.5 113t15 94.5t6.5 62.5zM215 496q-11 -3 -19 -6.5
t-13.5 -10.5t-8 -18.5t-1.5 -29.5l16 -4zM567 176q0 3 -3.5 1.5t-6.5 -5t-5 -7t0 -4.5q5 -2 10 3.5t5 11.5zM220 382q-8 -5 -14 -8.5t-10.5 -8t-7 -12t-1.5 -20.5q0 -2 0.5 -8.5t0.5 -10.5q2 1 4 4t3 5q1 3 5 11.5t8 18t7.5 18t4.5 11.5zM190 568q21 -5 28 15t6 46
q0 2 -0.5 4t-0.5 4q-1 3 -1 6l-33 -58zM703 665q-3 -3 -7.5 -31t-10 -68.5t-11 -87t-11 -87.5t-10 -69.5t-6.5 -32.5q-1 -3 -7 -11.5t-6 -13.5q7 8 15.5 34.5t16.5 63t15.5 79.5t13 83t8.5 74t2 53q-1 2 -1 7.5t-1 6.5zM140 764l15 25l-15 15v-40zM273 883
q-27 -25 -48.5 -55.5t-40.5 -65.5q2 1 8 3.5t8 2.5q3 4 12.5 14t20.5 20.5t20.5 20t14.5 13.5q3 11 4.5 18t0.5 20v9zM726 499q-6 -2 -7 -6.5t0 -11.5v-10q4 6 6 10.5t1 12.5v5zM739 509q-4 2 -3.5 -3.5t4.5 -6.5q2 0 1.5 4.5t-2.5 5.5zM179 919q-5 0 -10 -2.5t-9 -5.5
q-4 -4 -9 -8l-13 -50q2 2 11.5 9.5t20.5 17t20.5 18t11.5 11.5q1 2 -8 4t-10 4q13 9 23 16l22 16zM693 719q-10 3 -14 -9l14 -4v13zM668 800q0 -6 -3 -5.5t-7 2t-8 2.5t-6 -2l20 -37q8 -2 16.5 2.5t8.5 17.5q-1 6 -8.5 12t-12.5 8zM600 861q1 -15 7 -25t13 -24q14 -8 19 -5
t4 12q0 7 -5.5 15t-13 14.5t-14.5 11t-10 6.5v-5z" />
    <glyph glyph-name="q" unicode="q" horiz-adv-x="604" 
d="M577 510q-15 22 -29.5 28t-26 0.5t-19 -19t-8.5 -31.5q13 -79 28 -194t29.5 -249.5t28.5 -281t27 -287.5l-225 -16l57 617q-40 -46 -85.5 -65t-90.5 -17t-86.5 22.5t-74.5 55t-54.5 80t-25.5 97.5q-2 82 25 140t70 93.5t95.5 49t101.5 6.5t88 -34t55 -72q-10 64 2.5 98.5
t36 46t51 2.5t47.5 -33zM302 59q44 1 71 31t39.5 75t12.5 98t-10 100.5t-27.5 82t-40.5 42.5q-42 15 -75.5 4t-57.5 -38.5t-38 -68t-18 -84.5t2.5 -88t24 -78.5t47 -55.5t70.5 -20zM512 -281l-1 8q0 14 8 33.5l16 39t12.5 37t-4.5 26.5l-41 -41q-8 -8 -10 -21.5t0.5 -28.5
t8 -29t11.5 -24zM457 -439q0 9 -2.5 25.5t-5.5 33.5t-6.5 31.5t-7.5 19.5l2 -60q0 -3 2.5 -11t5.5 -17t6.5 -15.5t5.5 -6.5zM494 -4l18 -12l-1 13q0 10 -1.5 26t-4 32.5t-5.5 32t-7 26.5zM122 408q0 -2 0.5 -8.5t0.5 -8.5l34 44q-2 7 -7 6.5t-10 -2.5q-14 -4 -16.5 -12
t-1.5 -19zM449 -255q0 1 0.5 4t0.5 4q0 8 4 22.5t8.5 30.5t7 29.5t-2.5 18.5q0 -2 -5.5 -12.5t-13 -23t-13.5 -23.5t-6 -12q0 -6 0.5 -12.5t2 -12.5t5.5 -9.5t12 -3.5zM62 346q0 -2 1.5 -6.5t3.5 -9t5.5 -8t8.5 -1.5l-2 41q-4 -2 -10.5 -6.5t-6.5 -9.5zM123 145q4 2 3.5 5
t-4.5 4q-4 -1 -3.5 -6t4.5 -3zM512 -472q1 1 5.5 12t8 24.5t6 24t1.5 9.5q-2 0 -6 -11.5t-7.5 -24.5t-6.5 -23.5t-1 -10.5z" />
    <glyph glyph-name="L" unicode="L" horiz-adv-x="661" 
d="M74 2l-3 44q3 1 14 1.5t24 0.5h24t14 1l-121 930l326 6l-71 -930l355 -3l-1 -43zM171 62q2 0 6.5 0.5t6.5 0.5q3 14 5 24.5t2.5 20.5t1 19.5t0.5 22.5q0 2 -0.5 12.5t-0.5 12.5zM226 106q0 -10 1 -18t9 -16l8 26l43 448v9q-5 -8 -10.5 -21.5t-6.5 -21.5l-43 -388
q0 -2 -0.5 -9t-0.5 -9zM201 201q-4 2 -4 -4t4 -4q4 1 4 4t-4 4zM192 279q-12 -8 -19 -23t-7 -29q0 -1 0.5 -4t0.5 -4q13 7 19.5 25t6.5 31q-1 1 -1 2v2zM132 313q-2 1 -3 -1.5t-1 -6.5t1 -7t3 -2q4 2 4 8.5t-4 8.5zM201 300q-3 0 -3 -4t3 -4t3 4t-3 4zM132 348q-7 -2 -8 -7
t-1 -10v-9q5 6 7.5 10.5t2.5 11.5q-1 1 -1 2v2zM227 417q-2 -3 -5.5 -10.5t-8 -15.5t-8 -15.5t-4.5 -10.5v-4v-5q15 8 20.5 24.5t5.5 31.5v5zM210 477q-20 -19 -28.5 -33t-8.5 -36q0 -2 1 -8.5t1 -8.5q2 4 7 15.5t10.5 23.5t10.5 23t7 16v4v4zM115 443q2 0 5 3t3 5
q1 4 2.5 17.5t1.5 17.5h-12v-43zM227 589l-3.5 -7t-7.5 -16.5t-8 -19.5t-7 -17v-4v-5l35 69h-9zM167 546q-5 1 -5 -4.5t5 -4.5q4 2 4 5t-4 4zM106 546v60l-8 -8zM304 753q-12 -13 -18.5 -30.5t-7.5 -36t3.5 -37t14.5 -34.5q4 34 6.5 61.5t2.5 59.5q0 2 -0.5 8.5t-0.5 8.5z
M187 735q-9 -5 -17.5 -16.5t-15.5 -25t-11 -26.5t-4 -22q0 -2 0.5 -6.5t1.5 -6.5q7 4 14.5 18t14 30.5t11 32t6.5 22.5zM230 893q-15 -4 -35 -27t-37.5 -51.5t-30 -55t-12.5 -36.5q0 -1 -1 -2.5t-2 -3.5q-2 -3 -3 -6q39 39 63 76.5t50 79.5q4 7 6.5 11t2.5 11q-1 1 -1 2v2z
M227 723q-3 0 -3 -4.5t3 -4.5t3 4.5t-3 4.5zM87 881q1 -1 8 -5t9 -4q5 1 11 12t11 23.5t8.5 24.5t4.5 16q-8 -3 -17.5 -12t-19 -19.5t-18 -20.5t-15.5 -15h18zM296 808q0 -11 1.5 -19t6.5 -19q6 29 6 64.5v60.5q0 3 -0.5 13t-0.5 13q-15 -47 -18.5 -70.5t-2.5 -32.5
t4.5 -9.5z" />
    <glyph glyph-name="R" unicode="R" horiz-adv-x="745" 
d="M73 0l-58 937l243 45l-8 -122q17 15 40.5 32t51 33t56.5 29t56 19.5t50.5 5t39.5 -14.5q37 -32 46 -77.5t-2.5 -97t-41 -106t-70 -104.5t-89.5 -92t-99 -68q-5 -19 -5 -53t7 -73.5t21.5 -80t38.5 -73.5t58.5 -54.5t82.5 -22.5q35 -1 59 14t38 36.5t20 46t4 43t-10.5 27
t-22.5 -0.5q-9 0 -15 -7t-9.5 -16.5t-4.5 -19.5t-1 -16l-18 -3q-3 10 0.5 28.5t13.5 36t27 31t41 13.5q35 1 56 -13t30 -36.5t8 -50t-10 -54t-24 -49.5t-33 -35q-45 -31 -94.5 -39.5t-96.5 4t-89 45t-73.5 83.5t-48.5 119t-14 152l-34 -13l-41 -388h-76zM103 121q-2 1 -3 -2
t-1 -7.5t1 -8t3 -1.5q4 2 4 9.5t-4 9.5zM639 232q-2 0 -2 -2t2 -2t2 2t-2 2zM673 146q-2 1 -2 -2t2 -2t2 2.5t-2 1.5zM655 237q16 -15 19.5 -38t5.5 -40q2 8 3.5 12.5t1.5 12.5q0 2 -1 10.5t-4 18t-8 17t-13 7.5h-4zM68 520q1 -3 3.5 -15t3.5 -14q6 13 10.5 28.5t4.5 29.5
v11q-3 -4 -11.5 -15t-10.5 -15v-5v-5zM162 453q-4 0 -4 -5.5t4 -5.5q2 0 2 5.5t-2 5.5zM132 566q-11 -22 -17 -37.5t-6 -36.5q0 -2 0.5 -7.5t0.5 -7.5q11 21 17 36.5t6 37.5v7.5t-1 7.5zM461 638q-9 -5 -20.5 -16.5t-23 -25t-22.5 -25.5t-19 -19t-16.5 -12t-16.5 -14
q1 0 3.5 -0.5t4.5 -0.5q15 6 30.5 19t30 29.5t27 33.5t22.5 31zM446 871q-3 14 -16.5 22t-33 9t-42.5 -5.5t-44.5 -22t-39.5 -40.5t-28 -60q-3 -15 -6 -42.5t-6 -60t-5.5 -66.5t-4.5 -63t-3 -49t-1 -24q93 64 142 130t70 122.5t21.5 96.5t-3.5 53zM212 774
q-15 -21 -34 -50.5t-36 -59t-30 -53t-16 -32.5q6 2 17 16.5t24 35t26.5 44t24.5 44.5t17.5 36t6.5 19zM47 639q0 -1 1 -1h2h2q1 0 1 1q5 3 9 12.5t7 19.5t4.5 18.5l1.5 8.5h-3h-4zM591 249q1 -5 7 -5h10q8 0 14.5 0.5t15.5 4.5q-6 4 -11.5 4h-13.5h-11.5t-10.5 -4zM649 245
q1 2 -3 2t-3 -2t3 -2t3 2zM140 763q-2 0 -4.5 -3.5t-3.5 -5.5q-4 -9 -10 -24t-12 -29t-10 -24.5t-4 -11.5v-20l44 99v19zM99 913q-14 2 -22.5 -6.5t-13.5 -22t-6.5 -29t-2 -28.5t-0.5 -21t-1 -5q2 6 4 11t3 8.5t2 3.5q9 0 11.5 5.5t2.5 13t-1 16t2 15.5q0 1 3.5 5.5t7 9.5
t7 9t4.5 6v2q0 1 0.5 1t0.5 1q-1 0 -1 1v2v2zM477 735q-5 0 -7.5 -6.5t-3.5 -14.5l15 21h-4zM104 821q11 10 21 26t10 33h-9zM213 878q-6 -4 -21.5 -16.5t-30.5 -27t-24.5 -27.5t-3.5 -16q6 0 19 10t26.5 24t24 29t10.5 24zM448 916q0 -10 6 -15t9 -3l35 -14q1 0 1 5
q0 4 -1 4q-9 12 -25.5 17.5t-24.5 5.5zM476 953q23 -9 41.5 -24.5t38.5 -35.5q0 1 0.5 3t0.5 3q0 15 -7 25.5t-17.5 16.5t-22 9t-19.5 3h-15zM422 944q-7 0 -11 -11q1 -1 2 -1h2q7 0 11 10q-1 0 -2 1q-1 0 -2 1zM454 957q-2 0 -2 -4.5t2 -4.5q3 0 3 4.5t-3 4.5z" />
    <glyph glyph-name="h" unicode="h" horiz-adv-x="579" 
d="M400 3q17 113 29 198.5t15 144.5t-5 91.5t-32 39.5q-27 8 -64 -12t-74 -53t-69 -71t-50 -66l-35 -277h-59l-53 989h221l-57 -604v-5q32 32 61 63t60 55t65.5 38t77.5 13q36 -3 56.5 -27t31.5 -64.5t15 -93t6 -112t4.5 -123.5t11.5 -125zM66 531q0 -43 -1 -88t0 -90
t5 -89.5t14 -86.5q0 8 0.5 28t0.5 43v43v28v37.5v46.5t-0.5 40t-0.5 19q0 7 -1 19t-2.5 23t-2.5 19t-2 8h-10zM190 959q-7 -2 -9 -2.5t-2.5 -1.5t-2 -2.5t-7.5 -4.5q3 -14 2.5 -34t-2.5 -38.5t-4 -31.5t-1 -14l9 8q1 1 3 11t5 23.5t5.5 28t3.5 23.5q0 1 0.5 7.5t0.5 10.5
q0 2 -0.5 8.5t-0.5 8.5zM68 779q0 -14 -1.5 -39.5t-2 -53.5t-0.5 -54t3 -41q4 7 8 29.5t6.5 48.5t4 49t1.5 31q0 17 -0.5 35t-17.5 29q0 -4 -0.5 -17t-0.5 -17zM449 510q0 -11 5.5 -21t12.5 -19.5t14 -18t10 -16.5q1 0 1 4.5v6.5q0 23 -11.5 40.5t-31.5 23.5zM83 88
q-4 0 -4 -9t1.5 -18t2.5 -14.5t0 1.5l20 21q3 0 0.5 -0.5t-7 0.5t-8.5 4t-4 11l-1 2v2zM94 210q-2 4 -3 -9t-1 -29.5t1 -30t3 -9.5t3 15.5t1 23.5t-1 23t-3 16zM367 495q1 -2 8.5 -0.5t18 4.5t20.5 6.5t16 7.5q-7 0 -21 -1.5t-14 -11.5l-4.5 -1t-9.5 -1.5t-9.5 -1.5z
M156 786q-2 2 -3.5 -3.5t-1.5 -13t1.5 -13.5t3.5 -4q4 4 4 17t-4 17zM504 224q-1 -1 -4 -26t-7 -54.5t-7 -54t-3 -25.5l15 32zM133 415q-2 1 -3 -2.5t0 -7t2.5 -6.5t3.5 -2q4 2 2.5 9t-5.5 9zM69 865q-5 1 -5 -4.5t5 -4.5q4 2 4 5t-4 4zM164 808q-3 0 -3 -4.5t3 -4.5
q4 0 4 4.5t-4 4.5z" />
    <glyph glyph-name="r" unicode="r" horiz-adv-x="444" 
d="M13 512l250 25l-20 -60q36 36 69.5 44.5t59 -1t41 -33t16.5 -53t-15.5 -60t-54.5 -54.5l-25 11q38 43 46.5 74t-2.5 48t-35.5 20t-52 -10t-52.5 -41.5t-36 -74.5q-14 -49 -20.5 -87.5t-9 -75t-1 -75t3.5 -88.5l-112 -17zM102 176q-2 1 -3.5 -10.5t-2 -25t0 -24.5t2.5 -10
t3.5 11.5t2 23.5t0 23.5t-2.5 11.5zM142 201q-2 1 -7 -19t-9.5 -45t-7.5 -45t-1 -19t7 21t9.5 43.5t7.5 43t1 20.5zM145 390q-5 -15 -8.5 -32t-6.5 -34t-4.5 -33t-1.5 -29q0 -2 0.5 -9t0.5 -9q16 19 16.5 45.5t0.5 49.5q0 1 0.5 9t1 17t1 16.5t0.5 8.5zM88 425
q0 -9 -0.5 -35t0 -55t2 -55t4.5 -34q3 8 6 34t5 55t3.5 55t1.5 35h-22zM185 469q0 -12 2 -21t7 -23l17 69q-1 1 -4 1.5t-5 0.5q-11 0 -14 -9t-3 -18zM116 460q8 3 9.5 13t1.5 15q-5 0 -15 -1.5t-13 -9.5z" />
    <glyph glyph-name="Z" unicode="Z" horiz-adv-x="877" 
d="M220 90q6 -14 38 -25t78 -17t101.5 -4.5t109.5 11t101.5 28.5t77.5 50t37.5 74.5t-17.5 102.5q-21 14 -46.5 14t-48 -13.5t-37.5 -39t-15 -61.5q-19 36 -15.5 64.5t22 48t47 30.5t60.5 11t62 -10.5t51 -33.5t29 -58.5t-6 -85.5q-16 -51 -55.5 -85t-94.5 -55t-121.5 -30.5
t-136 -12.5t-138 -1t-128 5t-105 5t-69.5 -2l529 918q-58 10 -123 4.5t-128.5 -23.5t-121.5 -47t-103 -66l27 182l748 19zM141 150l-8.5 -8t-19.5 -19t-22.5 -23t-18.5 -19q-5 -7 -13 -20.5t-13 -23.5h32v26t12 18q5 3 17 11.5t26 18.5t26 18.5t17 11.5v9h-35zM228 201
q12 3 28 11t31 19t25.5 24.5t10.5 27.5l-1 2v2zM548 791q4 -9 13 -9h4q7 8 22.5 26.5t20.5 34.5q-22 -2 -36 -18t-24 -34zM488 621l-11.5 -11.5l-18.5 -18.5l-18.5 -18.5t-11.5 -12.5q-2 -2 -5 -8.5t-3 -8.5h4q8 0 19.5 8.5t21.5 20.5t17 24t7 20q0 1 -0.5 2.5t-0.5 2.5z
M359 552h9l95 103v9zM185 900q-5 -1 -12.5 -2t-14 -2.5t-11.5 -3l-5 -1.5v-19q2 0 5 0.5t4 1.5q3 1 10.5 4.5t15.5 7.5t15.5 8t10.5 6h-18zM799 296q5 -16 13 -29t14 -26q11 17 6 28t-17 20q-2 1 -7.5 3.5t-8.5 3.5zM633 920q0 -7 3 -16.5t11 -9.5t14 10t8 16h-36zM716 99
q19 8 30 18.5t19 23.5q-14 -8 -26.5 -17t-20.5 -21zM626 860l8 17h-4q-9 0 -13 -9zM699 90q-8 0 -15.5 -3.5t-13.5 -8.5q8 -1 16 3t13 9zM657 72q-3 1 -5.5 -2.5t0.5 -5.5q2 -2 4.5 2t0.5 6zM220 913q-3 0 -3 -4.5t3 -4.5t3 4.5t-3 4.5zM107 50q-3 0 -3 -4t3 -4t3 4t-3 4z
" />
    <glyph glyph-name="E" unicode="E" horiz-adv-x="681" 
d="M15 966l630 12l13 -121q-48 27 -97.5 39t-99 16t-99 3t-97.5 1l-45 -408l246 14l-4 -63l-241 -13l-54 -371q78 -3 140.5 5t112.5 23t87.5 34.5t65.5 39t47.5 37t32.5 28.5l-9 -215l-606 -18zM92 368q-11 0 -16.5 -14.5t-7 -36.5t0 -49.5t4.5 -52.5t6.5 -45.5t6.5 -29.5
q1 -2 3 -7.5t3 -8.5q2 18 1.5 46t-1 61t-1 68.5t0.5 68.5zM140 923q5 -18 1 -32t-10 -26.5t-10.5 -25.5t-0.5 -29q0 -1 1 -2q0 -1 1 -2q17 23 39.5 54t32.5 62zM89 677q-20 0 -26.5 -21t-5 -49t7 -55t8.5 -39q0 -3 2.5 -11t2.5 -10q5 7 4 31.5t-2.5 54t0.5 57t13 39.5
q-1 0 -2 1zM594 123q-14 -14 -40.5 -24t-57 -16.5t-59 -9.5t-45.5 -4q-4 0 -10.5 -3.5t-7.5 -5.5q2 0 12 -0.5t12 -0.5q50 -2 93.5 9t90.5 23q5 5 8 14t4 18zM64 913l-1.5 -11t-2.5 -27t-2 -32.5t-1 -27.5q1 -2 1 -4q0 -4 1 -5q0 -3 2 -7t2 -5q6 19 7.5 32.5t4.5 26
t9.5 26.5t21.5 34h-42zM136 308q1 7 5 27t8.5 42t8 42t4.5 28q2 5 2.5 17t0.5 17h-6q-10 0 -14 -12l-12 -151zM153 784q-9 0 -14 -7t-7.5 -16.5t-2 -19.5t2.5 -17q1 -2 2 -8t2 -8l23 75h-3q-1 0 -3 1zM172 535q-8 -6 -10 -15.5t-3 -18.5q5 6 8 15.5t5 18.5zM143 124q5 4 7 7
t0 9q0 2 -1 3.5t-1 2.5zM226 842q-4 0 -2.5 -6t4.5 -6q5 0 3.5 6t-5.5 6zM161 810q-3 0 -2 -5.5t5 -5.5q5 0 3.5 5.5t-6.5 5.5zM184 604q-5 0 -3.5 -5t5.5 -5q5 0 4 5t-6 5zM151 172q-5 1 -3 -4.5t5 -6.5q4 0 3 5.5t-5 5.5zM174 561q-4 0 -2 -5t5 -5q5 0 3 5t-6 5zM73 475
q-4 1 -3 -4t5 -7q4 0 2.5 5.5t-4.5 5.5zM179 583q-3 0 -2 -5.5t5 -5.5q3 0 2 5.5t-5 5.5z" />
    <glyph glyph-name="i" unicode="i" horiz-adv-x="262" 
d="M104 0q-2 20 -8.5 57.5t-18 100.5t-27.5 155.5t-36 222.5q92 2 138.5 3.5t65 2l18.5 0.5v0l-82 -542h-50zM127 87q3 35 2 69.5t-5 68.5l-11 -3zM154 247q-2 1 -2.5 -3.5t0 -9.5t2 -9.5t3.5 -2.5q3 3 2 13t-5 12zM95 227q5 11 11 26t4 28l-20 -4zM160 278q-3 -1 -2.5 -4.5
t3.5 -3.5q3 1 2.5 5t-3.5 3zM49 502q0 -3 1 -10t2 -15.5t2 -15.5t1 -10l5 -32.5t6.5 -38t6 -32l2.5 -13.5l10 -7q1 3 4 9.5t6.5 14t6.5 14.5t5 10v3q-2 12 -7 19t-10.5 12.5t-10.5 12t-6 17.5q-2 17 1.5 33.5t1.5 33.5zM189 431q-3 -1 -2.5 -5.5t3.5 -3.5t2.5 5.5t-3.5 3.5z
M148 496h4q5 2 7.5 4t4.5 8zM114 674q-42 -1 -61 22t-19.5 54.5t15 63t42.5 47.5q36 10 61 2.5t39 -25.5t16 -43t-7.5 -49t-31 -44t-54.5 -28zM144 747q-8 2 -15.5 -4t-14.5 -14q-8 -10 -15 -22l2 -9q14 3 28.5 9.5t26 16.5t18 23t3.5 28q0 1 -1 3.5t-1 3.5zM130 833
q-21 -5 -31.5 -20.5t-6.5 -36.5l1 -1v-1l17 31q0 1 2 1.5t4 1.5q2 0 5 0.5t4 0.5q3 -2 7 -3l8 -2q2 1 6 7.5t6 9.5v4q-2 8 -9 9t-13 -1z" />
    <glyph glyph-name="s" unicode="s" horiz-adv-x="426" 
d="M141 5q-42 4 -76 25t-50.5 52t-11.5 68t41 73l17 -22q-6 -5 -15 -23.5t-8 -40.5t18 -43t61 -31q30 0 61.5 4.5t57.5 17t42.5 35.5t16.5 60q5 26 -14.5 40t-51.5 22.5t-71 14.5t-72.5 16.5t-55.5 28t-21 49.5q-8 40 11.5 78t54 66.5t79 44t88.5 10.5q45 -2 72.5 -15
t42 -33t17 -43.5t-2.5 -46.5h-27q4 14 0 32.5t-15 35.5t-28.5 29t-41.5 13q-26 0 -49.5 -16.5t-41.5 -40.5t-29.5 -52t-13.5 -52.5t6.5 -41.5t29.5 -19q90 -8 140.5 -27.5t75.5 -44t31 -50t6 -44.5q-17 -50 -51 -77t-74 -40t-80 -14t-68 2zM203 53q-23 0 -46.5 -4.5
t-43.5 -9.5q3 0 14 -0.5t14 -0.5q22 0 37 1.5t35 12.5q-1 0 -4.5 0.5t-5.5 0.5zM314 98q-3 0 -3 -3t3 -3q2 0 2 3t-2 3zM335 175h7v7zM335 225q-3 0 -3 -3.5t3 -3.5t3 3.5t-3 3.5zM328 232q-3 0 -3 -3.5t3 -3.5q2 0 2 3.5t-2 3.5zM83 346v-15.5t8 -14.5q0 4 1.5 19.5t3 33.5
t3 33t1.5 20v3v4q-4 -6 -7 -17.5t-5.5 -23.5t-3.5 -23.5t-1 -18.5z" />
    <glyph glyph-name="S" unicode="S" horiz-adv-x="709" 
d="M199 -14q-76 1 -120 27.5t-60.5 63t-8.5 74.5t35 62t70 26t96 -34q-30 10 -56 5.5t-45 -17.5t-28.5 -31t-7.5 -36.5t18 -33.5t49 -21q42 -15 86 -7t84.5 31.5t73.5 60t54 78t25.5 85.5t-13 84t-60 72t-116.5 49q-43 12 -85 27.5t-75.5 39.5t-54.5 59t-21 85
q1 75 40 127.5t96.5 83t124 39t123.5 -4.5t94.5 -48.5t37.5 -92.5q-3 -35 -26.5 -62t-51 -36.5t-51.5 3.5t-28 58l32 9q6 -21 18 -28t24.5 -2.5t23.5 20t16 38.5q0 10 -4.5 23.5t-12 25.5t-18 20.5t-22.5 8.5h-4q-41 -21 -84 -45t-76.5 -54t-50 -68.5t-3.5 -87.5
q8 -33 32 -53.5t58.5 -34t75 -23t82 -20t80 -24.5t68 -37.5t46.5 -58.5t15 -87q-3 -64 -26 -114t-59 -88t-84 -64t-101.5 -42.5t-111 -23.5t-113.5 -6zM92 51q0 -6 5 -9t11.5 -4t13 -1h9.5t11.5 0.5t10.5 0.5l-61 17v-4zM479 104q-3 -1 0.5 -5.5t0.5 -6.5q-7 -3 -23 -11
t-34 -16t-34 -16l-22 -11q1 0 4 -0.5t4 -0.5q10 0 27.5 7.5t34.5 17.5t29.5 20.5t12.5 16.5v5zM287 45q-20 0 -41 4t-41 -3h8q18 0 38 -3.5t36 2.5zM84 68q-3 0 -3 -4.5t3 -4.5t3 4.5t-3 4.5zM411 114q-4 0 -4 -4.5t4 -4.5q3 0 3 4.5t-3 4.5zM504 216q-11 1 -18 -7
t-11 -18.5t-7 -21.5t-6 -17q20 7 28.5 24t13.5 40zM547 380q-6 -7 -9 -18.5t-4.5 -23.5t-2.5 -22.5t-1 -13.5q1 0 2.5 -0.5t2.5 -0.5q11 0 20.5 10t9.5 21t-5.5 24t-12.5 24zM573 324q-3 0 -3 -4.5t3 -4.5q4 0 4 4.5t-4 4.5zM642 319h9v9h-9v-9zM616 362l18 9
q-5 14 -19 28.5t-29 14.5h-4zM168 594q-3 0 -3 -4.5t3 -4.5q4 0 4 4.5t-4 4.5zM151 598h10q0 27 -13 42.5t-40 15.5v-15zM145 730q-11 0 -20 -10.5t-9 -22.5v-2q0 -1 1 -2q6 5 17 15t11 22zM194 710q-2 1 -3 -2t-1 -6.5t1 -6.5t3 -2q4 2 4 8.5t-4 8.5zM253 908
q-24 -8 -52.5 -26t-54 -42t-43.5 -51t-21 -53l1 -4t2 -9.5t2 -9.5t2 -3q-2 16 16.5 46t45 61.5t55.5 57.5t47 33zM304 856q-19 -12 -44.5 -30.5t-41.5 -38.5h4q11 0 24 7t25 17.5t21 22.5t12 22zM106 809q-3 0 -3 -4.5t3 -4.5t3 4.5t-3 4.5zM368 937q0 -9 -3.5 -14t-7.5 -9
t-7.5 -8t-3.5 -11v-2q0 -1 1 -2l61 34q-1 5 -7 7.5t-13 3.5t-13 1h-7z" />
    <glyph glyph-name="M" unicode="M" horiz-adv-x="1412" 
d="M152 -16q-58 3 -89 25t-42 52.5t-4.5 62.5t24.5 55q10 12 26 18.5t32.5 5.5t31.5 -8.5t23 -22.5t6 -38t-19 -53l-25 15q13 33 8 50.5t-17.5 22.5t-27.5 -0.5t-23 -18.5q-10 -16 -12 -37.5t9.5 -42t38 -36.5t73.5 -20q53 11 94.5 57t73 112.5t54 145.5t37 155t21.5 142
t9 106q-3 44 -18.5 85t-37.5 72.5t-48.5 49t-51.5 15.5t-46 -27.5t-32 -81.5l-30 10q9 55 31.5 86t53 40.5t65 -2t67.5 -41t60.5 -75t44.5 -104.5l149 -515q48 165 100.5 288.5t107.5 212.5t110 147t109 92l44 -63q-61 -77 -110.5 -167t-82 -181.5t-47 -179.5t-5.5 -160
t42 -123.5t96 -70.5q40 -10 82.5 11t78.5 59t63 87t37 96t-1.5 84.5t-51.5 52.5q-26 0 -45.5 -10.5t-30.5 -32t-11.5 -53t13.5 -72.5q-32 28 -41 58.5t-1 59t29 53t48.5 40t58.5 20t58.5 -6t49 -38t29.5 -77.5q0 -75 -25.5 -141t-69 -117t-101.5 -84.5t-123 -43.5
q-49 -5 -92 11.5t-79 49t-63 77.5t-43 96t-20.5 105.5t5.5 105.5l-131 -362l-79 3l-112 283q-17 -38 -32.5 -80t-32.5 -83t-37.5 -78t-48.5 -65t-65.5 -45t-88.5 -18zM627 225q-8 -13 -8.5 -25t-0.5 -26v-26q4 12 11 25.5t7 26.5q0 8 -1.5 12.5t-7.5 12.5zM843 260
q-2 1 -3.5 -2t-1.5 -7t1.5 -6.5t3.5 -1.5q4 2 4 8.5t-4 8.5zM575 294h5q13 0 13 13q0 6 -2.5 11t-6.5 11zM1268 158q-3 0 -3 -4.5t3 -4.5t3 4.5t-3 4.5zM1294 197q-7 -5 -11 -12t-6 -14q6 4 10.5 11.5t6.5 14.5zM487 419q2 -4 5.5 -16t8 -25.5l8.5 -25.5t6 -15v156
q-11 -5 -16.5 -14t-8 -20t-3 -22.5t-0.5 -21.5v4zM825 415q-10 -2 -9.5 -14t0.5 -16v-11.5t1 -10.5q0 3 1.5 9t2.5 13t2.5 13t1.5 8v5v4zM1329 342q0 -16 -4 -31.5t-9.5 -30.5t-9.5 -30.5t-4 -31.5v-4q22 33 29 70.5t7 75.5v10.5t-0.5 15.5t-0.5 15.5v10.5q2 23 -8.5 30
t-26.5 7q-2 0 -8.5 -0.5t-8.5 -1.5q26 -21 35 -46.5t9 -58.5zM782 493q-4 1 -4 -4.5t4 -4.5t4 4t-4 5zM843 553l-3.5 -10.5t-5.5 -15.5t-5.5 -15.5l-3.5 -10.5v-4v-4q12 5 15 20.5t3 26.5v13zM911 678q-3 0 -3 -4.5t3 -4.5q4 0 4 4.5t-4 4.5zM920 708q-4 1 -4 -4.5t4 -3.5
q4 1 4 4t-4 4zM963 812q-20 -10 -27.5 -34.5t-7.5 -43.5q0 -1 0.5 -4t0.5 -5q2 4 7 15.5t10 23.5t10 23t7 16v2q0 1 0.5 1t0.5 1t-0.5 2.5t-0.5 2.5z" />
    <glyph glyph-name="j" unicode="j" horiz-adv-x="369" 
d="M-171 -542q-70 1 -116.5 35t-68.5 84.5t-20.5 110t26 112.5t72 91.5t117.5 47.5q34 2 57.5 -9.5t36.5 -30.5t15.5 -42t-5.5 -43.5t-27 -35.5t-48 -19l-20 28q34 7 51.5 22t21 32t-5.5 32.5t-26 24.5t-41.5 8.5t-51.5 -16.5q-39 -24 -59 -80.5t-20 -128.5q0 -27 8 -60
t24.5 -61.5t41 -47.5t57.5 -19q51 3 101 38t90 92t65.5 130t27.5 151q4 117 -4 217.5t-20 178.5t-25.5 129.5t-21.5 70.5l255 27q-1 -27 -2 -87t-6 -140.5t-16.5 -174.5t-33.5 -188t-56.5 -181t-86 -153.5t-122 -106t-164.5 -38.5zM-239 -502q-3 0 -3 -4.5t3 -4.5q4 0 4 4.5
t-4 4.5zM-334 -322q0 -14 5.5 -43.5t16 -59t25.5 -52t35 -22.5q1 0 2.5 0.5t2.5 0.5q-21 21 -34.5 41t-21.5 40.5t-11 43.5t-3 52t4.5 56t4.5 56v4q-18 -26 -22 -55.5t-4 -61.5zM3 -463q1 -1 2 -1h2q8 0 19 5t21.5 13.5t18 18.5t7.5 20q0 2 -0.5 6.5t-0.5 6.5zM166 -202
l-51 -132q-1 -1 -1 -7v-9zM-299 -183q-3 0 -3 -4.5t3 -4.5t3 4.5t-3 4.5zM210 80q-19 7 -26.5 18.5t-8 17.5t2.5 2t5.5 -26.5t1.5 -68.5t-10 -124zM166 312q-20 -44 -18.5 -79.5t9.5 -58.5q3 6 4.5 23.5t3 37.5t2 39.5t0.5 29.5q0 1 -0.5 4t-0.5 4zM192 243q15 33 30 59.5
t28 52.5t23.5 54.5t16.5 65.5q0 1 0.5 5.5t0.5 5.5q-10 0 -15 -4.5l-15 -13.5q6 -8 7.5 -13.5t1.5 -13.5v-8l-78 -181v-9zM136 363q-11 -5 -14.5 -11t-3.5 -15v-5t1 -4q7 5 12.5 13.5t5.5 16.5q0 1 -0.5 2.5t-0.5 2.5zM218 442q-8 -9 -18.5 -23.5t-15.5 -28.5q4 3 10 9
t11.5 12.5t9.5 13t4 12.5q0 1 -0.5 2.5t-0.5 2.5zM106 433q8 -6 13.5 -7.5t13.5 -1.5q11 0 19 8t8 19q-14 0 -28 -5t-26 -13zM244 468q1 4 -4.5 4t-4.5 -4q2 -5 5 -5t4 5zM131 646q-29 1 -47.5 15t-27 34t-8.5 44t8.5 45.5t24 38t37.5 22.5q42 8 72 -3t46.5 -32.5t18.5 -49
t-10.5 -52t-41 -42.5t-72.5 -20zM222 750q-5 -3 -11 -9t-11 -12.5t-9 -13t-4 -12.5v-4q12 8 24 18t12 25q0 1 -0.5 4t-0.5 4zM197 813q-11 0 -18 -11q-5 -8 -12.5 -21t-14 -25t-11.5 -21.5l-5 -9.5v-9q10 7 20.5 18.5t19.5 24.5t15 27t6 27zM127 794q-7 -5 -12.5 -13.5
t-5.5 -17.5v-2q0 -1 1 -2z" />
    <glyph glyph-name="F" unicode="F" horiz-adv-x="665" 
d="M287 936l-46 -291l216 8l3 -54l-228 -15l-86 -586l-81 -16l-49 1000l539 -1q32 1 55 -11.5t35.5 -32.5t14.5 -44t-8 -45t-32.5 -36t-58.5 -17q-29 0 -43 12.5t-16 29t6 34t22 28t33 9.5t39 -20q0 -8 -5.5 -13.5t-11.5 -5.5h-4q-14 12 -26.5 8t-18.5 -14.5t-1.5 -22
t25.5 -13.5q39 7 54 26.5t10.5 39.5t-27 35t-57.5 14zM104 73q2 -2 10.5 17.5t20.5 72t26.5 145t29.5 238.5v26q-10 -32 -18.5 -77t-16 -94.5t-14 -100t-13 -95.5t-13 -79.5t-12.5 -52.5zM131 666q-9 -15 -15.5 -45t-11 -68t-6.5 -80t-3 -81t-1 -71v-49v-14t1 -18q0 25 3 60
t7.5 74t9 79t8.5 75t6.5 62.5t2.5 41.5q0 4 -0.5 17t-0.5 17zM79 675q0 -8 1.5 -13t7.5 -13q2 6 7 20.5t10.5 31t10 31.5t6.5 21v2q0 1 0.5 1t0.5 1l-1 2v2q-20 -11 -31.5 -37t-11.5 -49zM98 926q-5 0 -16 -2.5t-11 -7.5v-69q11 17 19 38t8 41zM209 761q-17 -19 -27 -35.5
t-10 -41.5h11l3.5 8t7.5 19t8 22.5t7 19.5v8zM183 770q11 14 11 34h-11v-34zM209 649q-2 -3 -5 -13t-4 -13v-8q8 2 9 9t1 12q0 2 -0.5 6.5t-0.5 6.5zM206 853q14 0 24.5 9.5t21.5 18.5zM131 847q-4 2 -4 -3.5t4 -4.5t4 4t-4 4zM131 783q-3 0 -3 -4.5t3 -4.5t3 4.5t-3 4.5z
" />
    <glyph glyph-name="T" unicode="T" horiz-adv-x="683" 
d="M296 -5l-82 912q-77 4 -116.5 -7t-56.5 -24.5t-18 -24t-1 -6.5l-1 137l642 6v-131q-23 15 -40 26.5t-38 18.5t-50 9t-75 -2l-79 -914h-85zM326 96l8 9q1 0 4 13t7.5 31t8.5 37t6 31q0 1 0.5 6t0.5 7t-0.5 6.5t-0.5 6.5q-1 -4 -4.5 -14t-7.5 -21t-8 -20.5t-6 -13.5
q-1 -2 -4 -5l-4 -4v-69zM326 348q-2 1 -3.5 -1.5t-1.5 -6.5t1.5 -7t3.5 -2q4 2 4 8.5t-4 8.5zM320 543q-2 5 -3 -9.5t-1 -33.5t1 -33.5t3 -9.5t3 17t1 26t-1 26t-3 17zM377 560q-3 0 -3 -4.5t3 -4.5q4 0 4 4.5t-4 4.5zM343 598q-5 -6 -7 -10.5t-2 -10.5v-4q5 6 7 10.5
t2 10.5v4zM386 581q-4 2 -4 -4t4 -4q4 1 4 4t-4 4zM274 633q14 7 16 24t2 29v8t-1.5 9.5t-5.5 7t-11 0.5v-78zM360 702q33 42 52 77.5t19 86.5h-28q4 -3 11.5 -12.5t5.5 -13.5l-60 -129v-9zM284 870q0 -12 -3.5 -30t-7 -37t-6.5 -35t-2 -23q11 5 18.5 18.5t12 30.5t7.5 34
t5 29l-14 86zM68 928q-3 0 -3 -4t3 -4q4 0 4 4t-4 4zM38 940q-3 0 5 -0.5t18.5 -1t19 -2t5.5 -3.5q1 -1 2 -1h2q7 -2 24 -1.5t34 3t30 7t12 11.5l-76 -6zM393 928q-6 0 -13 -14.5t-13 -33.5t-10.5 -36t-5.5 -21q4 3 10 9.5t11 13.5t9 12.5t5 7.5l1 9.5t2.5 21.5t3 21.5
t0.5 9.5zM614 922q-5 -3 -1.5 -6.5t10.5 -5.5t15 -3.5t11 -1.5h9q-5 1 -7.5 6t-3.5 11t-1 11v7h-92zM502 931l9 9h-9v-9z" />
    <glyph glyph-name="t" unicode="t" horiz-adv-x="440" 
d="M193 -4l-56 534q-6 -2 -23.5 -2.5t-37 -0.5t-37 -0.5t-23.5 -1.5v39l120 2l-56 409l217 8l-21 -408l150 4l-3 -37l-146 -6l-26 -541zM197 528q5 0 9 4t7.5 17t6.5 39t7.5 69.5t10.5 108t14 155.5v4q-1 4 -5.5 11t-5.5 2zM209 214q4 27 5 62.5t1 69t-0.5 61t0.5 37.5l-4 3
q-2 0 -4.5 -6t-4 -13.5t-2.5 -15.5t-1 -14zM134 938q1 -26 2.5 -57l3 -62t4 -59.5t5.5 -50.5l7 -44q0 21 -0.5 57.5t-1.5 77t-3 78.5t-6 61zM218 73q5 0 6 6.5t0 15.5t-3 18t-3 13q-2 11 -10 17t-13 16zM151 648q-3 3 -3 -5.5t2 -20t4 -20.5t4 -6t2 10.5t-1.5 15.5
t-3.5 15.5t-4 10.5zM155 562q-2 1 -2.5 -2t0 -6.5t2 -6.5t3.5 -2q4 2 3 8.5t-6 8.5zM194 943q-2 0 -4.5 -19.5t-5 -43t-4 -42.5t0.5 -19t5 19.5t5.5 43t3.5 42.5t-1 19zM245 512q-3 0 -2 -4.5t4 -4.5q4 0 3 4.5t-5 4.5zM246 460q-4 0 -4 -4t4 -4q3 0 3 4t-3 4z" />
    <glyph glyph-name="a" unicode="a" horiz-adv-x="681" 
d="M494 -16q-30 -1 -45.5 14.5t-23 38t-9.5 48.5t-5 47q-48 -63 -124.5 -99t-169.5 -33q-49 9 -72 42t-25 80t14.5 102t46.5 106.5t71.5 94.5t88.5 65.5t97 19.5t99 -43l20 72l155 -15q-12 -32 -30.5 -75.5t-37.5 -91.5t-36.5 -97t-27 -92t-9 -76t17.5 -50q24 -11 47.5 -5
t43.5 21.5t34.5 38t20.5 44.5l25 -38q-7 -26 -25.5 -47.5t-42.5 -37.5t-50 -25t-48 -9zM99 132q0 -6 7.5 -22t18 -32.5t21.5 -29t19 -12.5q2 0 8 1t13 2.5t13.5 3t9.5 2.5q2 0 4.5 3.5t3.5 4.5q-22 6 -44 14.5t-42 20.5q0 -1 -5 6.5t-11 15.5zM67 148q-2 1 -1 -11t4 -26.5
t7 -26.5t6 -11t0.5 12.5t-4.5 25t-6.5 25t-5.5 12.5zM139 190q0 -51 27.5 -77t77.5 -26q45 0 76.5 18.5t60.5 51.5q-2 6 0 24.5t6 43t9.5 53t10 55.5t8 50t3.5 36q-23 41 -54.5 51.5t-64.5 -1t-65 -40.5t-55 -68.5t-35 -84t-5 -86.5zM79 204q0 -7 4.5 -9t12.5 -4
q5 14 7.5 22.5t2.5 20.5q0 2 -0.5 5t-0.5 4q-9 -7 -17.5 -17.5t-8.5 -21.5zM493 423q-7 0 -14 -12t-13.5 -31t-12.5 -41.5t-10.5 -42.5t-7 -36t-2.5 -21l5.5 18t11.5 39.5t11.5 39.5t5.5 17l35 69q-1 0 -4 0.5t-5 0.5zM493 457q1 0 2.5 -0.5t2.5 -0.5q16 6 30 13.5t21 14.5
t5.5 11t-15.5 2zM488 507q-2 0 -6.5 -4t-9 -8.5t-7.5 -8t-1 -3.5q1 0 5.5 3.5t9 8t7.5 8.5t2 4z" />
    <glyph glyph-name="G" unicode="G" horiz-adv-x="741" 
d="M577 169q-49 -86 -108 -129t-119 -49.5t-116.5 19t-101.5 75t-73 120t-31 153.5q1 88 26 181t67.5 176t100 148.5t123 98t136.5 24.5t141 -71l-22 -17q-52 38 -96.5 44.5t-82.5 -9.5t-69 -50.5t-55.5 -78.5t-42 -93.5t-28.5 -96t-15.5 -86t-2.5 -62.5q-3 -45 3.5 -102
t21.5 -111t38.5 -99.5t54 -68t68 -16.5t81 55.5t91.5 148t101 259.5l-222 -18l-3 48l279 18q-10 -52 -25.5 -106.5t-35 -107.5t-41 -103.5t-42.5 -93.5zM197 121v47.5t-1.5 53.5t-4.5 52.5t-9 45.5zM169 552q-2 -1 -4.5 -5t-3.5 -6q-26 -48 -50.5 -92t-38.5 -85q2 1 6.5 6.5
t10 12.5t10.5 13t7 8q1 1 4 6t9.5 21t18.5 44.5t31 76.5zM161 205q-2 -6 -1.5 -16t1.5 -22.5t0.5 -25t-3.5 -22.5q9 -15 10 -26t13 -20q-9 28 -12 64.5t-8 67.5zM214 46q11 -4 16 5.5t6.5 24t2 29t2.5 20.5zM169 699q-9 -9 -22 -32.5t-25 -51t-20.5 -53t-8.5 -37.5v-4l8 11z
M132 289q-18 -4 -24 -20.5t-5.5 -37.5t5.5 -41t8 -31q-1 15 -0.5 28t0.5 18q0 21 5.5 45t10.5 39zM83 322q-8 0 -11 -8.5t-3 -16.5q4 0 11 7t14 16t12.5 18t5.5 14zM236 716q-2 0 -12.5 -15.5t-22.5 -33.5t-21.5 -33.5t-7.5 -15.5q1 0 11.5 15.5t22.5 33.5t21.5 33.5
t8.5 15.5z" />
    <glyph glyph-name="k" unicode="k" horiz-adv-x="542" 
d="M43 982h222l-102 -613l250 180l17 -25l-231 -178l338 -279l-67 -64l-323 302l-59 -305h-53zM76 30q12 28 14 53t0.5 42t-2.5 26t5 6h-8l-9 -103v-24zM59 119l8 17q1 2 3 13.5t4.5 28t5 34l4.5 31.5q0 1 0.5 7.5t0.5 10.5q0 2 -0.5 8.5t-0.5 8.5l-23 -48zM368 183
q0 -6 13.5 -24.5t31.5 -39t35 -36.5t25 -16q16 0 15.5 4.5t-0.5 18.5q0 2 -4 3t-4 2l-60 35l-8 8t-18 18.5t-18 18.5zM232 275q3 -4 10 -13t15.5 -18t17.5 -16t16 -7q3 0 8 -6t11 -13t11 -12t8 -3q-5 4 -16 18t-24 30t-26 28.5t-23 12.5h-4t-4 -1zM67 485q-11 -11 -12 -18.5
t2 -15t7.5 -17t4.5 -24.5q0 -4 0.5 -15.5t0.5 -14.5q8 13 8.5 22.5t-1.5 19t-5.5 20t-3.5 26.5v8.5t-1 8.5zM69 621q0 -3 1.5 -11.5t3 -18.5t2.5 -18.5t2 -11.5q12 15 12 24.5t-4.5 18.5t-10 19t-5.5 26q0 4 -1 17t-2 17q-9 -6 -10 -11t2 -10t6.5 -12.5t3.5 -18.5v-10z
M145 692q-2 -5 -8 -14.5t-12 -22t-10.5 -26t-4.5 -24.5q0 -1 0.5 -4t0.5 -4q12 18 23 38.5t11 43.5v13zM143 608q-2 1 -3.5 -2t-1.5 -6.5t1.5 -6.5t3.5 -2q4 2 4 8.5t-4 8.5zM192 739q-8 -5 -15.5 -18t-13 -28t-9 -30.5t-3.5 -24.5v-13l35 95zM111 713q-4 0 -4 -4t4 -4
q3 0 3 4t-3 4zM128 743q-9 -4 -9 -13v-4zM58 735q9 4 9 13v4zM153 752q-4 0 -4 -4.5t4 -4.5q3 0 3 4.5t-3 4.5zM161 799q-2 1 -3 -3t-1 -10t1 -10.5t3 -2.5q5 3 5 13t-5 13zM194 784q5 34 6.5 58.5t2 41.5t2 28.5t5.5 21.5q-1 0 -5.5 0.5t-9 0.5t-8 -1.5t-3.5 -5.5l4 -139z
M162 956q-7 0 -14.5 -22t-14 -50t-10.5 -53.5t-4 -31.5v-4l56 160q-2 0 -6.5 0.5t-6.5 0.5zM67 838q-4 2 -4 -4t4 -4q5 1 5 4t-5 4zM70 940l-13 -15q0 -7 4.5 -15t9 -15.5t6.5 -14t-3 -10.5zM132 942q-7 2 -11 -0.5t-5.5 -7t-2 -9.5t-0.5 -8q0 -2 1 -9t1 -9l3.5 7t5.5 10.5
t5 10.5t3 7v2q0 1 0.5 1t0.5 1l-1 2v2z" />
    <glyph glyph-name="u" unicode="u" 
d="M404 -2l-20 303q-8 -45 -25.5 -98.5t-45.5 -100t-66.5 -77.5t-89.5 -31q-17 -2 -35.5 0t-36 18t-32 50t-22.5 94t-8 150.5t11 220.5l176 2q-32 -131 -48.5 -218.5t-22 -141.5t-2 -81.5t10.5 -39t15.5 -12.5t14.5 -4q45 5 75.5 34t51 73.5t31 98.5t16 107.5t6 102
t0.5 81.5l124 3l-26 -531zM78 141q-2 -11 1.5 -26t9.5 -29.5t14.5 -27.5t17.5 -20q0 1 0.5 4t0.5 4q-22 19 -25.5 40t2.5 42.5t16 43t15 42.5v5q-2 -1 -10 -12.5t-17 -25.5t-17 -26t-8 -14zM420 95q-2 1 -3 -3.5t-1 -10t1 -10t3 -2.5q4 3 4 13t-4 13zM428 466
q-3 -38 -3.5 -79t0 -82.5t2 -83t1.5 -79.5q0 -4 0.5 -15.5t0.5 -14.5q1 2 1.5 12t0.5 22v22v13q1 10 1.5 33t1 52.5t0.5 62.5t0.5 64t1 56t2.5 39zM104 348q-19 -24 -27.5 -46t-8.5 -53q0 -5 0.5 -19.5t0.5 -19.5q20 26 27.5 61.5t7.5 67.5v9zM67 438q0 -7 -2 -12.5
t-3.5 -10.5t-2.5 -11t2 -13q7 14 16.5 32t9.5 37v9q-5 0 -10.5 -8t-8.5 -13q-1 -2 -1 -4v-6zM454 439q-4 1 -4 -4.5t4 -4.5q5 1 5 4t-5 5zM132 415q0 -8 0.5 -16.5t12.5 -8.5q7 13 9 26.5t2 27.5q-14 0 -19 -8.5t-5 -20.5zM138 486q-10 -7 -10 -17h10v17zM463 465v44l-9 9z
" />
    <glyph glyph-name="U" unicode="U" horiz-adv-x="896" 
d="M25 935l-3 40l336 -1l-4 -36l-64 -3q-4 -55 -8.5 -136.5t-6 -173t1.5 -185t13.5 -171.5t30 -133t51.5 -70q32 -16 63 -1.5t59.5 52.5t53.5 95.5t46 127t37 147t25 156t11.5 153.5t-3.5 139h-70v40l282 3v-43l-48 3q-8 -61 -14 -141t-10 -168t-7 -177t-5 -167.5t-3 -140
t-2 -93.5l44 6q8 -13 6 -25.5t-2 -26.5l-206 -6v45l104 5l-45 412q-15 -51 -30 -105.5t-35 -106.5t-46.5 -98.5t-63.5 -80.5t-86.5 -53.5t-115.5 -16.5q-73 11 -116.5 60.5t-67 125t-30.5 170t-7 195t2.5 200.5t-0.5 187zM150 364q0 -2 0.5 -5t0.5 -4q4 -18 8 -43t10 -51.5
t14 -51.5t20 -44v35q-2 18 -6.5 46t-8.5 54.5t-7.5 45l-3.5 18.5h-27zM271 135q0 -17 0.5 -35t5.5 -33t16 -24.5t31 -9.5v20l-52 104q0 -2 -0.5 -10.5t-0.5 -11.5zM246 903q-3 -2 -6.5 -18t-6 -38.5t-5 -49t-4.5 -50t-3 -40t-1 -20.5v-13q4 2 7.5 18t6.5 40t5 51.5t3.5 52
t2.5 42t1 20.5v5zM125 709q4 1 7.5 17t6.5 39.5t5.5 50.5t4 51t2.5 41t1 21l-12 -31zM133 480q0 -11 0.5 -21t9.5 -18q9 17 14.5 34.5t5.5 36.5q-15 0 -29 -10q0 -2 -0.5 -10.5t-0.5 -11.5zM185 898q-1 0 -2.5 -13.5t-2.5 -34.5t-2 -44.5t-1.5 -44.5t-0.5 -34.5t1 -13.5
t2.5 13.5t2.5 34.5t2 44.5t1.5 44.5t0.5 34.5t-1 13.5zM755 717q-8 -2 -12 -10.5t-5 -18.5t-0.5 -20t0.5 -16v-4q9 13 13 31.5t4 33.5v4zM737 801q11 24 14.5 51t3.5 54v1q-3 -16 -6 -33t-6 -32t-4.5 -26t-1.5 -15zM134 614q-8 -2 -8.5 -9.5t-0.5 -12.5v-13q7 8 8.5 13
t1.5 13q0 1 -0.5 4t-0.5 5zM220 519q-7 -2 -8 -7t-1 -10q0 -2 0.5 -5t0.5 -4q7 2 8 7t1 10q0 2 -0.5 5t-0.5 4zM212 157q-2 1 -3.5 -2t-1.5 -7t1.5 -6.5t3.5 -1.5q4 2 4 8.5t-4 8.5zM263 174q-4 1 -4 -4.5t4 -4.5q5 2 5 5t-5 4zM212 661q-4 0 -4 -4.5t4 -4.5q3 0 3 4.5
t-3 4.5z" />
    <glyph glyph-name="v" unicode="v" horiz-adv-x="590" 
d="M3 515l178 22l112 -421l145 428l136 -32q-50 -18 -86.5 -56t-63 -86t-45 -102t-31.5 -104.5t-22 -93.5t-18 -68l-68 -2zM206 213q0 -13 5 -22t13 -21q0 1 0.5 4t0.5 4q0 11 -3.5 24.5t-14.5 18.5q0 -1 -0.5 -4t-0.5 -4zM249 91q-4 1 -4 -4.5t4 -4.5q4 2 4 5t-4 4z
M240 108q-4 2 -4 -4t4 -4q5 1 5 4t-5 4zM232 125q-4 2 -4 -3.5t4 -4.5t4 4t-4 4zM223 138q-3 0 -3 -4t3 -4t3 4t-3 4zM128 341q0 -9 1.5 -20t5 -22t9 -20.5t14.5 -14.5q0 1 4 2.5t4 2.5v9q-2 7 -4.5 17t-5 19.5t-5 16.5l-2.5 7zM186 321q1 -14 1.5 -18t1.5 -4t1 4
q4 -10 5.5 -22.5t1 -22t-1.5 -14.5t-1 1q0 15 1.5 26.5t3 22t0.5 21t-5 24.5q-6 -4 -7 -5.5t-1 -6.5v-6zM125 403h17q-8 3 -13.5 14t-10 24t-8 24.5t-7.5 15.5q-1 -1 -2 -1h-2q-5 -3 -11.5 -9.5t-5.5 -7.5zM435 456q0 -12 -9 -21.5t-9 -21.5v-4l44 60v4q0 13 -0.5 23
t-12.5 10q0 -14 -2 -20.5t-4.5 -10.5t-4.5 -8t-2 -11zM186 399q-2 3 -3 -4.5t-1 -17t1 -17t3 -4.5q4 5 4 21.5t-4 21.5z" />
    <glyph glyph-name="eight" unicode="8" horiz-adv-x="570" 
d="M267 1q-79 -5 -129 18t-74.5 64.5t-26.5 96.5t15.5 113t52.5 114t83 99q-66 27 -101.5 72.5t-46 97.5t2 105.5t42.5 97.5t74.5 73.5t99.5 32.5q69 -3 114.5 -23t71 -52t32 -72.5t-2 -84.5t-30.5 -88t-54 -82q60 -40 99.5 -95.5t55.5 -116t8.5 -121.5t-41 -112.5
t-94.5 -88t-151 -48.5zM91 254q2 2 2 11t-1 18t-1 16t2 4t0.5 -11.5l-3 -17t-2 -15t2.5 -5.5zM71 213q-1 -33 14.5 -64t38.5 -53.5t49.5 -33t47.5 -1.5l-1 2q-1 1 -1 2q-115 38 -142 171q0 -2 -3 -11.5t-3 -11.5zM115 180q-3 1 -4 -2t2 -5q3 0 4 3.5t-2 3.5zM251 84
q2 -1 6 -2t6 -1q25 -5 50.5 8t42.5 28zM98 227q-5 -23 9 -39q0 1 1 2q0 1 0.5 1t0.5 1v2v2q0 3 -1 8.5t-2.5 12t-3 12t-2.5 8.5q0 -1 -0.5 -5t-1.5 -5zM239 473q-32 -12 -55 -40.5t-36.5 -65t-17 -76.5t4 -76t26 -63t49.5 -37.5t74.5 -0.5t100.5 50q30 28 39 58.5t2.5 61.5
t-26 60t-46 54t-57 44.5t-58.5 30.5zM512 259q-16 -6 -25.5 -11.5t-15.5 -13t-9.5 -19t-6.5 -27.5l-11 2q2 2 9.5 3.5t9.5 1.5t5 -4.5t1 -7.5q6 7 13 18t13 23t10.5 21.5t6.5 13.5zM514 313q-2 4 -4 -2t3 -6q4 1 4.5 4t-3.5 4zM508 329q-3 2 -4 -2t2 -6q5 0 6 4t-4 4z
M470 400q1 -2 3.5 -9t6 -15t7.5 -16t7 -13q0 1 1.5 4.5t1.5 4.5q2 13 -4 27t-19 17h-4zM464 414q-3 2 -4 -2.5t2 -4.5q3 -1 4 3t-2 4zM457 426q-3 1 -4 -3.5t2 -4.5q4 -2 5 2.5t-3 5.5zM344 485q0 -1 2 -5.5t4 -6.5q2 -1 6.5 -4.5t9.5 -7.5t9.5 -7.5t5.5 -4.5l2 3
q1 4 -0.5 11.5t-5 15.5t-8 14t-10.5 8q-5 2 -9 -3t-6 -13zM450 437q-3 1 -3.5 -3.5t2.5 -5.5t3.5 3.5t-2.5 5.5zM444 447q-3 2 -4 -2.5t2 -6.5q3 0 4 4.5t-2 4.5zM437 459q-3 1 -4 -3.5t2 -5.5q4 0 5 4.5t-3 4.5zM335 556q-12 2 -23 -4t-13 -19q0 -1 -1 -4.5t0 -4.5
q8 4 21.5 11.5t15.5 20.5zM254 617q-11 -3 -18 -17t-10 -26q14 -2 18.5 6.5t6.5 19.5q1 2 2 8.5t1 8.5zM132 649q-3 -13 6 -26t14 -19q1 1 1 2t1 2q2 12 -4 25t-18 16zM299 574q-3 1 -3.5 -2.5t2.5 -5.5q4 0 4.5 4t-3.5 4zM208 699q-2 -11 -3.5 -19.5t-2.5 -17t-1 -18.5v-23
q8 1 13.5 7.5t8.5 15.5t5 19t4 18q2 13 -1 20t-18 19q-1 -2 -3 -10t-2 -11zM298 613q-4 0 -4.5 -4.5t3.5 -4.5q3 -2 3.5 2.5t-2.5 6.5zM96 673q-4 2 -5 -3.5t3 -4.5q5 -1 5 2.5t-3 5.5zM94 752q-5 -20 -7 -34.5t2 -34.5l12 17l26 124q-14 -16 -21 -32.5t-12 -39.5zM256 930
q-30 -10 -39.5 -34.5t-4.5 -56t21 -66t36 -65.5t41 -54t36 -30q27 24 40.5 58t14.5 70t-9 70.5t-29 60.5t-46.5 39.5t-60.5 7.5zM163 741l7 36l-8 1zM391 867q11 -32 17.5 -67t9.5 -69q7 13 11.5 21.5t6.5 20.5q2 10 1 25t-6 29.5t-13.5 25.5t-20.5 14h-6zM195 847
q-8 -1 -10 -5.5t-4 -10.5v-4.5t-2 -4.5q6 5 10 9t5 10v3t1 3zM206 903q-14 1 -26.5 -3t-22.5 -14q3 0 9.5 1t14 3t14.5 5t11 8zM386 883q-3 0 -3.5 -4.5t2.5 -4.5q3 -1 3.5 3.5t-2.5 5.5z" />
    <glyph glyph-name="ampersand" unicode="&#x26;" horiz-adv-x="783" 
d="M693 39q-3 4 -20.5 15.5t-37.5 24t-37.5 23.5t-21.5 15q-14 -15 -46 -36t-75.5 -40t-94.5 -31.5t-103 -12t-100.5 18.5t-87.5 61q-33 43 -43.5 100t-2 122t32.5 135t59 141q-25 57 -30.5 119t5 117.5t34.5 99t56.5 62.5t71.5 8t80 -63q12 -31 12 -67.5t-7.5 -73.5
t-21 -72t-28 -63.5t-28 -48t-22.5 -24.5q31 -58 66.5 -112t77 -101.5t90 -87.5t105.5 -70q20 15 35 52t24 81.5t12.5 87t1.5 67.5l-90 -9l-2 40l197 5l4 -38l-82 5q5 -32 4.5 -70t-8 -78.5t-22 -81.5t-36.5 -79q0 -1 9.5 -7t24 -15t31 -20t30.5 -20t23.5 -15.5t9.5 -7.5z
M551 174q15 -22 31.5 -27.5t33 -8t31.5 -9.5t26 -31l16 -20l1 17l16 -10v2v2q1 10 -8 22q-15 19 -31 26t-33.5 10.5t-36 8t-37.5 18.5h-5h-4zM70 295q3 -29 5 -58.5t9 -59t22 -56.5t42 -49q5 -1 21.5 -2.5t21.5 -1.5q9 -1 21.5 -6t25 -8.5t23.5 -3.5t17 9q-71 -8 -113 20.5
t-59.5 81.5t-13 123.5t26.5 147.5q-18 -27 -33 -63t-16 -69v-3v-2zM443 66q1 1 -12.5 -1t-34.5 -6t-45.5 -9t-45.5 -9.5t-35 -8.5t-14 -5q3 -5 17.5 -5t35 3t44 8t43 11t33 12t14.5 10zM192 474q-12 -22 -19 -53.5t-6 -67t10.5 -72t29.5 -68t52 -55t78 -33.5q4 -3 20.5 -7
t40.5 -3t52.5 10.5t54.5 32.5q-66 45 -116 86t-87.5 79.5t-64 75.5t-45.5 75zM533 173q-3 1 -3.5 -3.5t2.5 -4.5q5 -1 5 3.5t-4 4.5zM376 339q-2 0 -2.5 -4.5t2.5 -5.5q3 0 3 4.5t-3 5.5zM317 404q0 -5 5.5 -15t13 -20t15.5 -18t13 -8h2q1 0 1.5 0.5t1.5 0.5
q-9 18 -22.5 34.5t-27.5 30.5q-1 -2 -1 -3t-1 -2zM310 422q-3 0 -3 -4t3 -5q4 0 4 4t-4 5zM147 639q-5 -2 -5.5 -7t0.5 -11t2.5 -11.5t2.5 -6.5l19 84zM259 923q-30 -22 -45 -64t-17.5 -87t5.5 -84t25 -55q14 14 26 41t21 59.5t13.5 66.5t3.5 61.5t-9 44.5t-23 17zM264 423
q6 5 9 10t5 23q-1 0 -1 2v2l-70 64zM195 892q-4 8 -16.5 -8t-24.5 -44t-20 -62.5t-3 -63.5l15 -27q-2 2 -2 16t2 35t6 45.5t10 47t14 39t19 22.5z" />
    <glyph glyph-name="underscore" unicode="_" horiz-adv-x="533" 
d="M502 119l2 -99l-474 -24l-2 169zM59 29h86q-17 7 -30 8t-31 1h-25v-9zM420 63q13 -2 24 -4t24 -4h9l1 18h-20.5t-9 -1t-9 -3t-19.5 -6zM394 68q-3 0 -3 -4.5t3 -4.5t3 4.5t-3 4.5zM67 81h86q-10 4 -21 12.5t-13 21.5h-52v-34zM171 85q-4 0 -4 -4.5t4 -4.5q3 0 3 4.5
t-3 4.5zM219 85q1 0 8 -0.5t16 -0.5t18.5 -0.5t15.5 -0.5q31 0 46 1t21.5 3t9 4.5t9 5t22 4.5t47.5 3l-231 2zM450 108q-4 0 -4 -4.5t4 -4.5q3 0 3 4.5t-3 4.5z" />
    <glyph glyph-name="zero" unicode="0" horiz-adv-x="647" 
d="M299 2q-53 -6 -97 19.5t-78.5 73t-59 112t-37 138t-13 151t12.5 150.5t40 137t70 109.5t101.5 68.5t134.5 15q63 -9 109.5 -43t77.5 -85t47 -115t19.5 -134.5t-5 -143t-28 -140.5t-49 -127t-67 -101.5t-82.5 -65.5t-96 -19zM221 47q-4 0 -4 -4t4 -4q3 0 3 4t-3 4zM169 78
q6 -8 17 -17.5t22 -9.5h2q1 0 2 1q-2 17 -10 22t-20 5q-2 0 -6.5 -0.5t-6.5 -0.5zM315 82q-3 0 -3 -4.5t3 -4.5q4 0 4 4.5t-4 4.5zM272 108q0 -9 11.5 -15.5t19.5 -6.5h4q-6 8 -17 15t-18 11v-4zM107 178q0 -10 5 -21t12.5 -21t16.5 -18.5t17 -14.5q-10 13 -15.5 27.5
t-8 28.5t-2.5 26.5t2 21.5q-17 -3 -22 -10t-5 -19zM303 925q-21 6 -40 -24.5t-33.5 -85t-23.5 -126t-9.5 -148.5t8.5 -151.5t29.5 -135t54.5 -99.5t84 -44q47 12 77.5 53.5t47 102t19.5 133.5t-5 147t-26.5 143.5t-45.5 122.5t-62 84t-75 28zM264 125q-4 0 -4 -4.5t4 -4.5
q3 0 3 4.5t-3 4.5zM255 138q-4 1 -4 -4.5t4 -4.5q4 2 4 5t-4 4zM247 155q-5 1 -5 -4.5t5 -3.5q4 1 4 4t-4 4zM238 172q-4 2 -4 -3.5t4 -4.5t4 4t-4 4zM229 194q-3 0 -3 -4.5t3 -4.5q4 0 4 4.5t-4 4.5zM221 220q-4 0 -4 -4.5t4 -4.5q3 0 3 4.5t-3 4.5zM117 276
q-7 -8 -8 -14.5t-1 -15.5q0 -2 0.5 -7t0.5 -6q3 1 9.5 7.5t7.5 9.5q1 4 -2.5 14t-6.5 12zM74 293q17 8 21.5 30t4.5 39v9l-26 -18v-60zM195 315q-4 0 -4 -4.5t4 -4.5q3 0 3 4.5t-3 4.5zM152 323q-4 0 -4 -4t4 -4q3 0 3 4t-3 4zM540 353q-5 2 -5 -3.5t5 -4.5q4 1 4 4t-4 4z
M412 915q30 -21 54 -58.5t41.5 -85.5t28.5 -102t15.5 -108t2 -103t-12.5 -87h7l1.5 7t3 16.5t2.5 19.5t2 17q2 48 5 86q1 16 1.5 31.5t1.5 28t1.5 20.5l0.5 8q0 68 -24.5 137.5t-70.5 120.5q-5 6 -13.5 15t-17 17t-14.5 14t-7 6h-8zM110 639q-2 -5 -5 -23t-5.5 -42t-5 -51.5
t-5 -51.5t-4 -42.5t-2.5 -23.5q1 -1 2 -1h2q4 0 7.5 15t6 38t4.5 49.5t3.5 49.5t2 39t0.5 18q0 3 -0.5 13t-0.5 13zM231 915q-34 -6 -61 -29.5t-46 -55.5t-29.5 -68t-10.5 -67v-13q3 8 10 27.5t15.5 41.5t16 41.5t10.5 27.5q3 7 9.5 22t16.5 21q15 11 36.5 23.5t32.5 28.5z
M543 253q-20 -39 -36.5 -74t-29.5 -54q-3 1 9 16.5t26.5 36.5t25.5 43t6 36q0 -1 -0.5 -1t-0.5 -1v-2zM548 315q-2 0 -4.5 -8.5t-5 -18.5t-4 -18.5t0.5 -8.5q1 0 4 8.5t5.5 18.5t3.5 18.5t0 8.5zM507 893q-4 0 -4 -4t4 -4q3 0 3 4t-3 4zM403 924q0 1 0.5 4t0.5 4
q0 15 -9.5 16.5t-21.5 1.5h-11.5t-10.5 -1z" />
    <glyph glyph-name="at" unicode="@" horiz-adv-x="1055" 
d="M58 378q-6 123 26.5 211t89 148.5t130 96t149.5 52.5t147.5 19.5t124.5 -3.5q85 -11 147.5 -47t101.5 -90t53.5 -122.5t5.5 -144.5q-17 -73 -56.5 -130t-89.5 -92.5t-103.5 -48t-99.5 3.5t-77.5 63t-36.5 130q-9 -30 -33 -53.5t-55.5 -37.5t-66 -17t-63.5 7.5t-48.5 35
t-20.5 65.5q-3 41 5 83.5t29 77.5t56 57.5t85 22.5q29 0 58 -16.5t50 -34.5v4l-4 66l73 -17q-21 -106 -24.5 -178t6 -116t29 -63t44 -18t51 18.5t49 47t39.5 67.5t22 79q6 87 -19 155t-74 113t-118.5 66t-153.5 14q-85 -25 -145 -75t-97 -113.5t-50.5 -135.5t-5.5 -141.5
t38 -131t80 -103.5t120.5 -59.5t159.5 0.5l-7 -34q-51 -9 -108 -8.5t-112.5 12.5t-107 36.5t-92.5 63t-68 92t-33 123.5zM170 205q1 -3 6.5 -15t14.5 -12q1 0 2.5 0.5t2.5 0.5q-2 6 -8 16.5t-14 10.5q-1 0 -1 -0.5t-1 -0.5h-2zM108 326q0 -1 0.5 -4t0.5 -5q1 -3 5 -11.5
t8 -18.5t7.5 -18.5t5.5 -11.5v69h-27zM850 336q-20 -22 -44.5 -39.5t-50.5 -28.5q13 3 29 8t30.5 12.5t24 19t11.5 28.5zM344 347q-6 31 -7 71t3 78.5t14 71t27 49.5q-23 -15 -36 -41.5t-17.5 -62t0 -78t16.5 -88.5zM448 628q-14 -11 -26 -35.5t-20 -55t-11.5 -62.5t0 -57.5
t14.5 -41t32 -12.5q32 4 56 25.5t39 50.5t18.5 61.5t-5.5 60.5t-33 46.5t-64 19.5zM118 490q-19 -11 -22.5 -30t-3.5 -39v-26q1 5 5 17t8.5 26t8 26t4.5 17v4v5zM936 431l17 18h-4q-6 0 -10.5 -2t-10.5 -7zM149 503q-4 1 -4 -4.5t4 -4.5q4 2 4 5t-4 4zM962 492q1 -1 4 -1.5
t5 -0.5q9 0 13 7t4 16v5zM192 658q-2 -4 -7.5 -17t-11.5 -29.5t-10.5 -34.5t-4.5 -31v-17q9 25 18 51t14 47t4.5 34.5t-10.5 13.5q2 -1 5 -7.5t3 -9.5zM962 535q-6 -2 -12 -4.5t-6 -8.5q0 -4 1 -4q6 1 12 3.5t6 8.5q0 1 -0.5 2.5t-0.5 2.5zM607 641q-2 4 -2.5 -2.5t0 -15
t1.5 -15t3 -3.5q4 7 3 18t-5 18zM876 612q-4 2 -4 -4t4 -4q4 1 4 4t-4 4zM867 638q-4 2 -4 -4t4 -4q4 1 4 4t-4 4zM962 630q1 -1 4 -1h5q14 0 21.5 11t7.5 24h-12zM902 673q-5 1 -5 -4.5t5 -4.5q4 1 4 4t-4 5zM936 699q1 -4 4 -14t5 -12q0 -1 4 -1q13 0 13 14q0 8 -5.5 10.5
t-11.5 2.5h-9zM893 681v9h-9zM850 737q-3 0 -3 -4t3 -4t3 4t-3 4zM902 742q2 -8 9 -9t12 -1q2 0 6.5 0.5t6.5 0.5q-8 6 -13 7.5t-13 1.5h-8zM712 854q27 -20 37.5 -31.5t18.5 -17t20.5 -7t42.5 -1.5h4q-18 18 -48 34.5t-75 22.5zM641 871q6 -3 10 -6.5t7.5 -7t7.5 -5.5
t11 -2v11l-25 33z" />
    <glyph glyph-name="nine" unicode="9" horiz-adv-x="627" 
d="M192 11l176 497q-21 -7 -55 -16.5t-72.5 -15.5t-77 -5t-70 15.5t-51 45.5t-19.5 84q0 59 23 115.5t62.5 103.5t91 82t108 50.5t114.5 8t110 -44.5l11 49l67 -18l-183 -957zM211 672q6 -59 27 -90t73 -31q33 0 61 22t48.5 53.5t32 67.5t11.5 63q0 22 -7.5 51t-21.5 54.5
t-35.5 43t-48.5 17.5q-39 0 -66 -24.5t-44 -62t-24.5 -81.5t-5.5 -83zM420 957q19 -15 32.5 -30t23 -31.5t17 -35.5t13.5 -41q1 2 4.5 8.5t3.5 8.5v4q0 19 -4.5 39.5t-14 38t-25.5 28.5t-38 11h-12zM514 733q-5 -3 -13.5 -16.5t-18.5 -34t-20.5 -44.5t-20.5 -47t-18 -43
t-12 -31q9 8 19 20t15 23q8 17 19.5 44.5t22.5 53.5t19 45.5t8 20.5v9zM142 569q0 -32 20 -42t46 -10h13q-1 2 -4 5l-4 4q-7 5 -17 12.5t-20 14t-17 11.5l-7 5h-10zM592 922q-11 -5 -19 -16t-13.5 -24.5t-8.5 -28t-3 -25.5q0 -2 0.5 -5t0.5 -4l17 17zM307 147
q-21 -17 -31.5 -38t-22.5 -38q22 8 38.5 23t16.5 48q0 1 -0.5 2.5t-0.5 2.5zM351 336q0 1 3 4.5t6.5 7.5t8 6t7.5 -1q6 14 16.5 36t10.5 42q0 1 -0.5 4t-0.5 5l-51 -95v-9zM316 284q-9 -4 -15.5 -13t-11 -19.5t-6.5 -21.5t-2 -19v-2q0 -1 1 -2q16 9 25.5 30t9.5 39v4t-1 4z
M437 353q-16 -22 -25.5 -52.5t-9.5 -54.5v-5l9 9l3.5 11t7.5 26t8 31t7 27v8zM204 819q-12 -8 -20 -23t-8 -29h11zM376 147q-7 -17 -10.5 -35t-6.5 -34h9l1.5 6t2.5 14t2.5 16.5t1.5 14.5q0 1 0.5 4t0.5 5q0 1 -0.5 4t-0.5 5zM135 793q-9 -6 -13.5 -17t-4.5 -22q11 0 15 13
t4 22l-1 2v2zM169 625q0 -9 1 -15.5t8 -14.5q0 2 0.5 6.5t0.5 6.5q0 9 -1 15.5t-8 14.5q0 -2 -0.5 -6.5t-0.5 -6.5zM514 595q-7 -8 -8 -14.5t-1 -15.5q0 -2 0.5 -7t0.5 -6q5 11 7 17.5t2 16.5q0 2 -0.5 5t-0.5 4zM213 836q4 6 6.5 11t2.5 11l-1 2v2l-17 -9zM411 78h9l-9 51
v-51zM118 681q-2 2 -3 -4t-1 -13.5t1 -13t3 -3.5q4 4 4 17t-4 17zM463 448q-2 1 -3.5 -2t-1.5 -6.5t1.5 -6.5t3.5 -2q4 2 4 8.5t-4 8.5zM325 207q-9 -5 -9 -13v-4q9 4 9 13v4zM101 578q-5 1 -5 -4.5t5 -4.5q4 1 4 4t-4 5zM376 267q-4 2 -4 -4t4 -4q5 1 5 4t-5 4zM480 500
q-4 1 -4 -4.5t4 -4.5q4 2 4 5t-4 4zM368 241q-4 2 -4 -4t4 -4q4 1 4 4t-4 4zM66 560q-4 2 -4 -4t4 -4q4 1 4 4t-4 4zM471 474q-4 1 -4 -4.5t4 -3.5q4 1 4 4t-4 4zM325 82q-4 0 -4 -4.5t4 -4.5q3 0 3 4.5t-3 4.5zM489 522q-4 0 -4 -4.5t4 -4.5q3 0 3 4.5t-3 4.5zM540 901
q-3 0 -3 -4.5t3 -4.5q4 0 4 4.5t-4 4.5zM540 806q-3 0 -3 -4.5t3 -4.5q4 0 4 4.5t-4 4.5zM57 573q-3 0 -3 -4t3 -4q4 0 4 4t-4 4zM402 504q-3 0 -3 -4t3 -4q4 0 4 4t-4 4zM411 461q-3 0 -3 -4t3 -4t3 4t-3 4zM92 530q-3 0 -3 -4t3 -4t3 4t-3 4zM75 534h8l-8 9v-9z" />
    <glyph glyph-name="ellipsis" unicode="&#x2026;" horiz-adv-x="752" 
d="M543 70q0 19 7 39t19.5 36t30 26.5t38.5 10.5q15 0 29 -7t25 -18.5t17.5 -26.5t6.5 -30q0 -19 -10.5 -37t-27 -32t-36 -22.5t-38.5 -8.5q-34 0 -47.5 20.5t-13.5 49.5zM284 83q0 19 6.5 37t18.5 31.5t29 22t38 8.5q28 0 46.5 -17t18.5 -48q0 -22 -9.5 -41.5t-25 -34.5
t-36 -24t-41.5 -9q-18 0 -27 5.5t-13 15.5t-4.5 24t-0.5 30zM34 81q0 19 6 40t18 38.5t29 28.5t38 11q38 0 60.5 -20t22.5 -58q0 -21 -9.5 -40t-25.5 -33.5t-35.5 -23t-40.5 -8.5q-29 0 -46 18.5t-17 46.5zM673 129q0 -24 -9.5 -46t-25.5 -40q21 6 32.5 23t11.5 38v14t-9 11
zM182 129q-2 -1 -5 -4l-4 -4l-26 -52q12 8 23.5 25t11.5 31v4zM587 95q-4 1 -4 -4.5t4 -4.5q4 2 4 5t-4 4zM69 99q-3 0 -3 -4t3 -4q4 0 4 4t-4 4zM95 147q-7 -5 -12 -13.5t-5 -17.5v-4zM634 156q-10 0 -16 -9t-6 -18v-4t1 -4l34 26q-5 9 -13 9zM130 134q-3 0 -3 -4.5t3 -4.5
t3 4.5t-3 4.5zM138 147q2 2 5.5 8.5t3.5 8.5t-3.5 5t-5.5 3t-8.5 -3t-8.5 -5zM354 151q-3 0 -3 -4.5t3 -4.5t3 4.5t-3 4.5z" />
    <glyph glyph-name="one" unicode="1" horiz-adv-x="435" 
d="M117 1l197 843q-19 -20 -45.5 -50t-61 -61t-77 -58t-93.5 -39l-6 30q52 15 102 49t93.5 78t77 94t53.5 95h38l-3 -980zM195 103q-9 -4 -9 -12v-5l18 9zM298 95q2 4 -3.5 4t-4.5 -4t4 -4t4 4zM342 112h17v9h-17v-9zM204 138l34 17v9l-34 -9v-17zM350 177q-3 0 -3 -4.5
t3 -4.5q4 0 4 4.5t-4 4.5zM350 259q-7 -8 -8 -14.5t-1 -16.5q0 -2 0.5 -6.5t0.5 -5.5q9 2 9 11v14v9t-1 9zM230 319q-1 -3 -2 -11.5t-2.5 -18.5t-3 -18.5t-1.5 -11.5v-9v-9l34 69q-6 5 -10.5 7t-10.5 2h-4zM298 310q-2 1 -3 -1.5t-1 -6.5t1 -7t3 -2q5 2 5 8.5t-5 8.5z
M350 405q-5 -17 -7.5 -34.5t-2.5 -34.5h10l1.5 5t3 11.5t2.5 14t2 12.5v10q0 5 -0.5 9.5t-8.5 6.5zM264 379q-4 2 -4 -4t4 -4q4 1 4 4t-4 4zM273 414q-2 1 -3.5 -2t-1.5 -7t1.5 -6.5t3.5 -1.5q4 2 4 8.5t-4 8.5zM338 715v-52t1 -74t3.5 -75.5t7.5 -56.5q7 8 8 12t1 12v10
q0 10 -1 35t-2 58.5t-2 70t-2.5 70t-2.5 58.5t-1 35l-8 -17q0 -2 -0.5 -12.5t-1 -24.5t-0.5 -27.5v-21.5zM288 641q-3 0 -3 -4t3 -4t3 4t-3 4z" />
    <glyph glyph-name="w" unicode="w" horiz-adv-x="795" 
d="M505 100q1 37 10 80.5t23.5 89t32.5 89.5t37 81.5t37 65.5t33 41l118 -16q-23 -18 -59 -58t-72.5 -105t-68 -156t-46.5 -210l-63 -3l-72 233l-104 -145l6 -84l-76 -8l-228 529l220 28l70 -429l98 133l-45 143l67 28l20 -116l73 106l19 -20l-80 -121zM205 212q1 -3 3 -12
t2 -11q2 -7 8 -23t12 -33.5t12 -33.5t8 -23q1 2 1.5 5.5t0.5 5.5q1 12 -2 30.5t-9.5 38t-15.5 37t-19 25.5q-1 0 -1 -1v-2v-3zM559 217q1 2 4.5 8t6.5 12.5t5.5 12.5t2.5 8q3 9 10.5 32t15.5 49t15 48.5t10 31.5l-8 -6l-61 -174zM89 465q0 -2 1 -3q1 -3 5 -9.5t8 -14
t7.5 -14t5.5 -9.5l10 50l-37 4v-4zM705 508q-8 -3 -14.5 -13t-11.5 -22t-8 -24t-4 -20q0 -2 -0.5 -4.5t-0.5 -3.5q2 3 8 14t13 24t12 25.5t6 19.5v4zM120 408q1 -3 5 -10.5t7.5 -16t7 -16.5t5.5 -11q1 -1 3.5 -4t3.5 -4q0 1 0.5 3.5t0.5 3.5q0 5 -2 14t-5.5 18t-9 16
t-11.5 8q-1 -1 -2 -1h-3zM248 235q-1 -17 -0.5 -30.5t12.5 -27.5v7v4q0 1 1 3q0 4 -1.5 14.5t-2.5 22t-2.5 22t-1.5 14.5q-2 -4 -3 -15t-2 -14zM408 362q-1 -11 1 -21t10 -17q0 1 0.5 3.5t0.5 3.5q1 13 0 25t-2 26q-8 -1 -8.5 -8t-1.5 -12zM232 433q7 1 8 4.5t2 8.5
q0 4 -1 8t-6 7zM247 366q-6 -2 -7.5 -6t-1.5 -8v-8q6 2 7.5 5.5t1.5 8.5q1 1 0.5 4t-0.5 4zM195 421q-4 2 -4.5 -6.5t3.5 -8.5q4 2 4.5 7.5t-3.5 7.5zM190 372q-4 1 -4.5 -7.5t3.5 -6.5q4 1 4.5 6.5t-3.5 7.5zM678 494q-3 1 -3.5 -4t3.5 -3q4 0 4 2.5t-4 4.5zM258 68
q-4 1 -4.5 -3.5t3.5 -3.5q3 1 3.5 3.5t-2.5 3.5zM199 232q-3 2 -3.5 -2t2.5 -4q4 1 4.5 3.5t-3.5 2.5zM552 206q-3 1 -3.5 -2t2.5 -4q2 0 2.5 3t-1.5 3zM230 493q-3 1 -3 -2t3 -4q2 0 2 3t-2 3z" />
    <glyph glyph-name="asciicircum" unicode="^" horiz-adv-x="415" 
d="M100 533l-95 64l185 223l159 -258l-22 -17l-130 216zM140 708q-2 0 -2 -2.5t2 -2.5t2 2.5t-2 2.5zM77 589q0 -5 10 -7q0 1 0.5 2.5t0.5 2.5q0 8 -5 10q-6 -2 -6 -8zM108 618q-1 2 -4 -1.5t-1 -4.5t4 1.5t1 4.5zM139 664q-5 -5 -12 -11.5t-9 -14.5q6 5 12.5 14.5t8.5 11.5
z" />
    <glyph glyph-name="exclam" unicode="!" horiz-adv-x="348" 
d="M13 917l307 71l-73 -745l-77 -6zM177 0q-27 0 -37 25t-4.5 55t27 54.5t58.5 23.5q23 -1 34.5 -13t14 -29.5t-3.5 -37.5t-18.5 -37.5t-31 -29t-39.5 -11.5zM117 887q0 12 -5 6.5t-11 -17.5t-12.5 -26t-9.5 -20q23 10 30.5 23.5t7.5 33.5zM178 681q0 -4 1.5 -13.5t3 -21
t3 -21t1.5 -13.5l8 9q1 1 4.5 13t7.5 28.5t8 33.5t6 28q1 1 1 7.5v9.5v9t-1 9l-43 -69v-9zM213 560q-8 -18 -12 -35.5t-5.5 -34.5t-1.5 -35v-37v-14.5t0.5 -22t0.5 -22v-14.5q6 27 10 47t6 38t2.5 36.5t0.5 42.5v10t-0.5 15.5t-0.5 15.5v10zM270 872q0 -15 -3.5 -24
t-8 -17.5t-8 -18.5t-3.5 -26h14l3.5 11.5t7.5 28.5t8 36.5t7 34.5q0 2 0.5 10t0.5 10q-16 0 -23.5 -7t-12.5 -22q12 1 15 -3.5t3 -12.5zM74 862q0 -13 5.5 -27t12.5 -25q13 9 16.5 23.5t3.5 28.5h-38zM107 767q0 -17 2 -34.5t9 -34.5l8 9v60h-19zM226 942q-18 -5 -31 -20.5
t-21 -31.5q7 2 16 7t17.5 12t14 14.5t5.5 14.5l-1 2v2zM217 121q-8 0 -14 -8t-10 -19t-5.5 -21.5t-1.5 -16.5q0 -2 0.5 -6.5t0.5 -6.5l34 78h-4zM217 856q-7 -6 -15.5 -4t-16.5 5t-14.5 4t-9.5 -8q5 4 14.5 2t18.5 -5t16 -4t7 5v5zM187 767q14 10 24.5 27t10.5 34v4t-1 4z
M143 612q0 -17 2 -28.5t7 -31.5v69l-8 8q0 -2 -0.5 -8.5t-0.5 -8.5zM170 810q-9 -4 -9 -13v-4q9 5 9 13v4zM204 319q-4 1 -4 -4.5t4 -4.5q4 2 4 5t-4 4zM178 754q-3 0 -3 -4t3 -4t3 4t-3 4z" />
    <glyph glyph-name="two" unicode="2" horiz-adv-x="795" 
d="M791 84q-16 -30 -36 -48t-53.5 -27t-86.5 -11t-133.5 -1t-194.5 4t-271 3q131 219 224 375.5t138 258t38 151.5t-76 56q-34 -1 -69 -11t-66 -28t-55 -44.5t-35 -59t-6.5 -71t31.5 -82.5l-24 -22q-42 63 -39.5 124t35 115t88 98.5t119 74t129 41.5t117.5 0.5t84.5 -48.5
t30.5 -105q0 -8 -2.5 -33.5t-15.5 -69t-41 -104t-79.5 -139.5t-131 -176t-195.5 -212q115 -36 208 -53t161.5 -16t111.5 18t57 49q9 55 -7.5 86.5t-41 39.5t-47.5 -7.5t-26 -55.5q0 -13 8.5 -20.5t18.5 -8t18.5 5t8.5 18.5l27 -2q2 -31 -15.5 -46t-40 -14.5t-42.5 16.5
t-22 47q-1 36 16 60.5t41.5 35.5t52.5 7.5t50.5 -23t34.5 -56t4 -90.5zM152 133q-9 0 -17.5 -1t-15 -5t-11.5 -13t-6 -24q5 2 25.5 17t44 34t43.5 37.5t25 27.5q-2 1 -15.5 -10.5t-29 -25.5t-29 -25.5t-14.5 -11.5zM459 853q0 -8 5.5 -17t12.5 -16.5t13 -13l6 -5.5q9 6 9 15
q0 8 -5 14.5t-12.5 11.5t-15 8t-13.5 3zM295 347q-8 -8 -16.5 -19t-16.5 -22t-15 -21.5l-11 -16.5q13 6 29.5 21.5t29.5 57.5zM588 905q0 -9 5 -13l29 18l-9 13.5t-11 7.5q-8 0 -11 -9t-3 -17zM403 886q0 -7 6 -13t11 -2q5 2 14.5 13t11.5 16h-9q-4 0 -16.5 -4t-16.5 -6
q0 -1 -0.5 -1t-0.5 -1v-2zM555 831q1 -4 7 -11t9 -9v44q-5 0 -11.5 -8.5t-4.5 -15.5zM446 574q-1 -1 -3.5 -5t-5.5 -9t-5 -9.5t-3 -6.5q-1 -1 -1 -2v-2l-5 -12t-12 -26.5t-13 -27.5t-7 -16q2 3 10.5 19.5t18 35t17.5 34t9 17.5v10zM488 910l67 10h-59zM471 623q7 5 12.5 15
t5.5 20q0 1 -0.5 2.5t-0.5 3.5zM471 752l9 10l-9 9v-19zM193 219q-1 1 -3 0t-3.5 -3t-2 -4.5t1.5 -3.5q4 -2 6.5 2t0.5 9zM462 604q-1 2 -3 1t-3.5 -3t-2.5 -4.5t1 -3.5q3 -2 6.5 1.5t1.5 8.5zM522 871l7 9h-16zM295 268q1 5 -4.5 5t-4.5 -5q2 -5 5 -5t4 5zM496 688
q-3 0 -3 -5t3 -5t3 5t-3 5zM580 717q-3 0 -3 -5t3 -5t3 5t-3 5zM303 371q-3 0 -3 -4.5t3 -4.5t3 4.5t-3 4.5zM303 292q-3 0 -3 -4.5t3 -4.5t3 4.5t-3 4.5z" />
    <glyph glyph-name="x" unicode="x" horiz-adv-x="508" 
d="M37 -2l154 244l-181 237l145 63l97 -220l116 220l78 -47l-162 -247q34 -93 64 -142t53 -67t39 -11.5t22.5 24.5t2 40t-21.5 36q1 -1 5 1.5t8.5 5.5t8.5 5.5t4 1.5q31 -41 31 -73.5t-18 -51t-46.5 -21.5t-55.5 15q-42 29 -72 72t-59 95l-94 -180h-118zM183 144
q-23 -11 -33.5 -37.5t-10.5 -50.5l9 2zM333 134q3 1 4 -3.5t-3 -4.5q-4 -2 -4.5 3t3.5 5zM309 151q2 -11 14 -14l-3 16zM301 162q-4 0 -3 -4t5 -3q2 1 1.5 5t-3.5 2zM290 170q-2 -1 -1.5 -5.5t3.5 -3.5t2 5.5t-4 3.5zM274 209q-4 0 -3 -5t4 -4q5 2 4.5 5.5t-5.5 3.5z
M185 310q2 -14 7 -22.5t19 -20.5q8 3 7.5 10t-2.5 13q-2 11 -7.5 25t-19.5 18q-7 -3 -6.5 -10t2.5 -13zM161 390q0 -2 -2 -7t-4 -9.5t-2 -8.5t4 -5q4 12 3.5 20t-2.5 19q-1 2 1 -2t2 -2q-3 -3 -4 -2.5t-0.5 2t2 1t2.5 -5.5zM186 433q-11 -33 -5 -67q1 -2 -0.5 -1.5
t-1.5 -2.5q9 17 12 29.5t-2 29.5q0 2 -1 6t-2 6zM91 399q1 -8 8 -16t15 -11q5 16 7.5 32.5t-1.5 33.5q-11 -2 -21.5 -14.5t-7.5 -24.5zM376 498q-6 -7 -10.5 -15t-2.5 -17q10 2 15 9t8 15zM151 446q6 5 9.5 14.5t1.5 18.5q0 3 -1 4z" />
    <glyph glyph-name="parenleft" unicode="(" horiz-adv-x="479" 
d="M7 337q-4 53 8.5 123.5t39 146t64 151.5t83 140.5t96.5 111.5t105 66l12 -27q-19 -6 -44.5 -37t-52.5 -78.5t-53.5 -108.5t-47.5 -127.5t-34 -135.5t-12 -133q1 -74 21 -138.5t53 -119t74.5 -97.5t84 -73.5t82.5 -48.5t70 -21q-7 -7 -19 -24q-11 -14 -29.5 -39t-47.5 -63
q-89 10 -171.5 51t-145.5 109.5t-100.5 162t-35.5 209.5zM478 -97q1 4 -4.5 4t-4.5 -3q2 -4 5.5 -4.5t3.5 3.5zM306 -1q-3 0 -3 -4t3 -4q3 -1 3 3t-3 5zM374 -75q10 0 18.5 2t16.5 10q-3 1 -13 3.5t-13 3.5q-1 1 -2 1q-2 0 -2 1q-1 0 -2.5 -1t-2.5 -1v-19zM426 -58
q-3 -1 -3 -5.5t3 -3.5q3 -1 3 3.5t-3 5.5zM41 321q0 -39 11 -76t31.5 -68.5t49.5 -55.5t67 -37q2 3 5 13.5t3 13.5q0 11 -11.5 20t-26 16.5t-29 14.5t-21.5 15q-3 6 -9.5 21.5t-13.5 33t-13 33.5t-8 23v5.5t-0.5 12.5t-0.5 14v11q-1 123 41 244q-2 -1 -5 -4.5t-3 -5.5
q-29 -60 -48.5 -119t-18.5 -125zM272 33q-4 -1 -4 -5.5t4 -3.5q3 0 3 4.5t-3 4.5zM263 40q-3 1 -3 -3t3 -5q3 0 3 4t-3 4zM271 80q1 -6 5.5 -13t10 -14t11.5 -11.5t12 -4.5q11 1 21 10q-2 2 -9.5 7t-16 10t-16 9.5t-10.5 6.5h-2q-1 0 -2 1q-1 0 -1 -0.5t-1 -0.5h-2zM173 218
q-4 0 -4.5 -4.5t3.5 -4.5q3 0 3.5 4.5t-2.5 4.5zM162 248q-2 1 -2.5 -2.5t-0.5 -7t1 -6.5t3 -1q3 2 3.5 8.5t-4.5 8.5zM126 372q0 -18 1 -31.5t4 -26.5t8.5 -26.5t15.5 -30.5v13v12q-2 7 -6 25.5t-8.5 38.5t-8.5 38.5t-5 26.5q-1 -5 -1.5 -19.5t0.5 -19.5zM159 577
q-6 -8 -7 -13.5t-2 -13.5q0 -2 1 -5t1 -4q5 8 7 13.5t1 13.5q0 1 -0.5 4t-0.5 5zM187 716q-2 1 -6.5 -7.5t-8.5 -18.5t-6.5 -18.5t-0.5 -8.5t6.5 8.5t8.5 18t6.5 18t0.5 8.5z" />
    <glyph glyph-name="hyphen" unicode="-" horiz-adv-x="462" 
d="M420 362l2 -101l-379 -49l-5 180zM86 268h57q-12 6 -20.5 7t-20.5 1h-16v-8zM325 301q4 -1 14.5 -1.5t22 -1t22 -1.5t14.5 -2h6l1 17q-20 0 -40.5 -2t-39.5 -9zM308 305q-2 0 -2 -4t2 -4t2 4t-2 4zM91 318h57q-7 4 -14 12t-9 21h-34v-33zM160 322q-2 0 -2 -4.5t2 -4.5
t2 4.5t-2 4.5zM192 322q1 0 15.5 -1t22.5 -1q31 0 45.5 2.5t26 6.5t26.5 7.5t47 5.5h-195zM387 346q-3 0 -3 -4.5t3 -4.5q2 0 2 4.5t-2 4.5z" />
    <glyph glyph-name="hyphen" unicode="&#xad;" horiz-adv-x="462" 
d="M420 362l2 -101l-379 -49l-5 180zM86 268h57q-12 6 -20.5 7t-20.5 1h-16v-8zM325 301q4 -1 14.5 -1.5t22 -1t22 -1.5t14.5 -2h6l1 17q-20 0 -40.5 -2t-39.5 -9zM308 305q-2 0 -2 -4t2 -4t2 4t-2 4zM91 318h57q-7 4 -14 12t-9 21h-34v-33zM160 322q-2 0 -2 -4.5t2 -4.5
t2 4.5t-2 4.5zM192 322q1 0 15.5 -1t22.5 -1q31 0 45.5 2.5t26 6.5t26.5 7.5t47 5.5h-195zM387 346q-3 0 -3 -4.5t3 -4.5q2 0 2 4.5t-2 4.5z" />
    <glyph glyph-name="sterling" unicode="&#xa3;" horiz-adv-x="690" 
d="M582 34q3 2 -5.5 3t-20 1t-20 -1t-5.5 -3t10 -3.5t15.5 -1.5t15.5 1.5t10 3.5zM423 103q1 2 -17 1.5t-39 -2.5t-38.5 -4.5t-16.5 -4.5t18 -1.5t37 2.5t37.5 4.5t18.5 4.5zM177 113q-7 -15 -27 -31.5t-42 -22.5h4q32 0 45 14.5t20 39.5zM464 87q-20 0 -33 -2t-36 -8h21
q19 0 31.5 1.5t33.5 7.5q-2 0 -8.5 0.5t-8.5 0.5zM574 77q-5 -1 -18 -4t-17 -5q2 0 8.5 -0.5t8.5 -0.5q5 0 14.5 0.5t11.5 9.5h-4h-4zM190 76q7 3 17 33.5t20 72t19 86t14.5 76t6.5 41.5t-5 -18l-76 -290q1 -1 2 -1h2zM55 367q2 0 8.5 -0.5t8.5 -0.5q24 0 41.5 4.5
t44.5 13.5q-3 2 -13 5t-13 4q-6 1 -17.5 -1t-22.5 -5t-19 -6l-8 -3zM125 409q-3 0 -3 -4.5t3 -4.5q4 0 4 4.5t-4 4.5zM194 413q-15 0 -25 -1.5t-26 -7.5h60l9 9h-18zM272 404h9v9h-9v-9zM358 404q1 2 -3 3t-10 1t-10.5 -1t-2.5 -3q3 -4 13 -4t13 4zM303 600q-2 -6 -6 -26
t-7.5 -44t-6.5 -46.5t-3 -32.5q8 0 12 7t5.5 16.5t1.5 19v14.5q0 1 0.5 15t1.5 30.5t1.5 30.5t0.5 16zM444 430l-5 -57l-132 -2q-10 -117 -22.5 -180t-23.5 -80q62 19 116.5 26t104 0.5t95 -26t90.5 -52.5l-63 -98q-29 12 -58 29t-63.5 31.5t-75 25t-93 11t-117.5 -12.5
t-148 -45l-24 30q52 31 84 68t51 78.5t29 87t20 93.5l-197 -16l31 126l170 -23q-6 44 -4.5 101t11.5 116.5t29.5 116.5t50 102t72.5 72.5t98 27.5q54 0 90 -20.5t56 -52.5t24 -71t-8 -75t-39 -65.5t-69 -41.5q-2 0 -5 3.5t-6 8t-4.5 8.5t-0.5 5q18 12 31.5 33.5t22 46
t11 49.5t-1.5 43q-8 31 -29.5 44t-49 5t-58 -38t-55.5 -85.5t-41 -138.5t-16 -196zM311 625q-4 2 -4 -3.5t4 -4.5q5 1 5 4t-5 4zM320 815q-15 -9 -24 -28.5t-13.5 -41.5t-5.5 -44t-1 -37q0 -2 0.5 -10.5t0.5 -10.5l43 155v17zM585 729q0 -3 -5 -8.5t-10.5 -12t-8.5 -11.5
t0 -6q9 8 18 21.5t16.5 28t12.5 28.5t5 25q0 12 -2 34.5t-8 45t-17.5 39t-30.5 16.5h-2q-1 0 -2 -1q22 -26 33 -61t11 -68q0 -18 -5 -35t-5 -35z" />
    <glyph glyph-name="quotedbl" unicode="&#x22;" horiz-adv-x="500" 
d="M109 513q-26 0 -41 17t-20.5 42.5t-1.5 56t16 57.5t32 46.5t47 22.5q34 0 54 -12t28 -29.5t4.5 -38.5t-17 -39.5t-35.5 -31.5t-51 -14q-14 0 -21 2t-20 10q0 -31 12 -42.5t30.5 -12.5t41 4t43.5 6q0 -14 -12.5 -22.5t-29.5 -13.5t-33.5 -6.5t-25.5 -1.5zM368 513
q-33 5 -54 28t-30 53.5t-6 64t17.5 59.5t41.5 40t66 5q26 -5 39.5 -20t16.5 -34t-3 -39.5t-18.5 -37t-30.5 -26.5t-40 -8q-8 0 -14 3t-11.5 7t-12 6.5t-13.5 1.5q5 -27 13 -41.5t21.5 -21t33.5 -8t47 -1.5q0 -8 -8.5 -13.5t-19.5 -9.5t-21.5 -6t-13.5 -2zM420 694
q-5 -3 -9.5 -9t-8 -13t-5.5 -13t-3 -8h4q6 0 10 4.5t7 11t4 13t1 10.5v4zM140 677q-14 0 -14 -13v-2q0 -1 1 -2l17 17h-4zM187 664q-3 0 -3 -4.5t3 -4.5t3 4.5t-3 4.5zM368 685q-4 2 -4 -3.5t4 -4.5t4 4t-4 4zM377 707q-3 0 -3 -4.5t3 -4.5t3 4.5t-3 4.5zM144 720
q2 -2 8.5 -5.5t8.5 -3.5t5.5 3.5t3.5 5.5h-26zM403 733q-4 0 -4 -4.5t4 -4.5q3 0 3 4.5t-3 4.5z" />
    <glyph glyph-name="parenright" unicode=")" horiz-adv-x="488" 
d="M474 612q4 -53 -8.5 -123.5t-39 -146t-64 -151.5t-83 -140.5t-97 -111.5t-104.5 -66l-12 27q19 6 44.5 37t52.5 78.5t53.5 108.5t47.5 127.5t33.5 135.5t12.5 133q0 74 -20.5 138.5t-53.5 119t-74.5 97.5t-84 73.5t-82.5 48.5t-70 21q7 7 19 24q11 14 29.5 38.5
t47.5 63.5q89 -10 171.5 -51t145.5 -109.5t100 -162.5t36 -209zM3 1046q-1 -4 4.5 -4t4.5 3q-2 4 -5.5 4.5t-3.5 -3.5zM175 950q3 0 3 4t-3 4q-3 1 -3 -3t3 -5zM107 1024q-10 0 -18.5 -2t-16.5 -10q3 -1 13 -3.5t13 -3.5q1 -1 2 -1t1 -0.5t1 -0.5t2.5 1t2.5 1v19zM55 1007
q3 1 3 5.5t-3 3.5q-3 1 -3 -3.5t3 -5.5zM440 628q0 39 -11 75.5t-31.5 68t-50 56t-66.5 37.5q-2 -3 -5 -13.5t-3 -13.5q0 -11 11.5 -20t26 -16.5t29 -14.5t21.5 -15q3 -6 9.5 -21.5t13.5 -33t13 -33.5t8 -23v-5.5t0.5 -12.5t0.5 -14v-11q1 -123 -41 -244q2 1 5 4.5t3 5.5
q29 60 48.5 119t18.5 125zM209 916q4 1 4 5.5t-4 3.5q-3 0 -3 -4.5t3 -4.5zM218 909q3 -1 3 3t-3 5q-3 0 -3 -4t3 -4zM210 869q-2 6 -6 13t-9.5 14t-11.5 11.5t-12 4.5q-11 -1 -21 -10q2 -2 9.5 -7t16 -10t16 -9.5t10.5 -6.5q1 -1 2 -1h2h2q1 0 2 1zM308 731q4 0 4.5 4.5
t-3.5 4.5q-3 0 -3.5 -4.5t2.5 -4.5zM319 701q1 -1 2 2t1 7t-1 6.5t-3 1.5q-3 -2 -3.5 -8.5t4.5 -8.5zM355 577q0 18 -1 31.5t-4 26.5t-8.5 26.5t-15.5 30.5v-13v-12q2 -8 6 -26t8.5 -38t8 -38.5t5.5 -26.5q1 5 1.5 19.5t-0.5 19.5zM322 372q6 8 7 13.5t2 13.5q0 2 -1 5t-1 4
q-5 -8 -7 -13.5t-1 -13.5q0 -1 0.5 -4t0.5 -5zM294 233q2 -1 6.5 7.5t8.5 18.5t6.5 18.5t0.5 8.5t-6.5 -8.5t-8.5 -18t-6.5 -18t-0.5 -8.5z" />
    <glyph glyph-name="three" unicode="3" horiz-adv-x="807" 
d="M24 117q-3 59 11.5 100.5t42.5 68.5t66 41t81 17t88.5 -2.5t88.5 -18t81 -29.5t66 -36q51 88 59.5 160t-15 125t-75 85.5t-120 42t-149 -6.5t-162.5 -60q-5 0 -10.5 9t-7.5 17q62 28 104 48.5t71.5 37t49.5 29.5t38 27q51 44 59.5 69t-9.5 35t-54.5 6.5t-77 -16
t-77 -32.5t-53.5 -43h-46l55 178l47 -7l-7 -41q39 9 87 21t97.5 22.5t97 16.5t86 2t63 -20t29.5 -49q0 -30 -20.5 -57t-48.5 -48.5t-57 -36.5t-46 -22q94 14 162 -9.5t109.5 -70t55.5 -110t-1 -129.5t-59 -128.5t-118 -106.5q1 -2 7 -10t12.5 -20t12 -27t5.5 -29l-24 -13
q-2 11 -5.5 24t-10 26t-15.5 23.5t-21 15.5q-143 -96 -240.5 -142.5t-160 -51.5t-95.5 28.5t-47 96.5zM116 86q0 -12 5.5 -26.5t11.5 -14.5h12.5t8.5 1q3 0 6.5 3t2.5 5l-26 52l-20 -16q-1 -1 -1 -2v-2zM541 217q-30 25 -72.5 39.5t-85.5 17t-82.5 -7t-64 -33t-29 -62
t22.5 -93.5q9 -14 29.5 -14.5t48 9t59.5 25.5t63.5 36.5t60 42t50.5 40.5zM120 167q-11 -7 -18.5 -21.5t-7.5 -26.5v-4q11 8 18.5 18.5t7.5 24.5v9zM197 236q-12 -9 -15 -21.5t-3 -26.5q0 -2 0.5 -10.5t0.5 -10.5q7 15 12.5 29t5.5 31q0 1 -0.5 4t-0.5 5zM163 261
q-6 -1 -12 -3.5t-6 -9.5v-2q0 -2 1 -2zM640 344q-7 -2 -13.5 -11t-11.5 -20t-8 -22.5t-3 -19.5v-4l36 68v9zM666 301q-2 4 -7 -1.5t-2 -7.5q4 -2 7.5 1.5t1.5 7.5zM744 473q-6 -12 -10.5 -26.5t-8 -30.5t-5.5 -31t-2 -28v-5q22 17 29 40t7 48q0 5 -0.5 14t-0.5 10zM651 573
q-6 0 -8 -23.5t-3 -53t-0.5 -56t0.5 -31.5v-5q7 0 9.5 24.5t3 55t-0.5 57.5t-1 32zM620 630q-4 1 -4 -4.5t4 -4.5q5 1 5 4t-5 5zM692 486q-4 0 -4 -4t4 -4q3 0 3 4t-3 4zM683 495q-3 0 -3 -4.5t3 -4.5t3 4.5t-3 4.5zM738 568q3 -4 0 -18t-7 -29.5t-5.5 -27.5t5.5 -12
q1 0 2.5 0.5t2.5 0.5q-3 4 0 18t6.5 29.5t5 27.5t-5.5 12q-1 0 -1 -0.5t-1 -0.5h-2zM603 638h9q-9 10 -21.5 21.5t-26.5 21t-28.5 17t-27.5 9.5q-3 1 -9 0t-13 -2.5t-13 -3t-8 -2.5zM729 577q2 4 -4 4t-4 -4q1 -4 4 -4t4 4zM712 590q-3 0 -3 -4.5t3 -4.5t3 4.5t-3 4.5z
M586 707q11 -14 22 -16t25 -2q3 0 11.5 0.5t10.5 0.5q-16 7 -30 12.5t-30 5.5q-2 0 -5 -0.5t-4 -0.5zM327 737q-3 0 -3 -4t3 -4q4 0 4 4t-4 4zM504 828q-14 0 -29.5 -8.5t-30 -20.5t-27 -25.5t-21.5 -23.5h9q1 0 9.5 5t19.5 11.5t22.5 14t17.5 12.5l7 7l10.5 10.5t10 10.5
t6.5 7h-4zM120 819q7 2 14.5 6.5t11.5 11.5h-26v-18zM439 854q11 5 11 17h-11v-17zM146 914q-5 -10 -9.5 -21t-7.5 -22h26q-4 6 -6.5 10.5t-2.5 11.5q0 8 9 12zM566 921q0 -8 0.5 -14.5t-1.5 -13t-9.5 -12.5t-23.5 -12q24 0 43.5 10t19.5 39q0 7 -7 13t-16.5 10t-19 6
t-13.5 2h-5q2 -3 8.5 -13t8.5 -13q0 -1 7.5 -0.5t7.5 -1.5zM462 932q-74 0 -142.5 -15t-138.5 -37q1 0 4 -0.5t4 -0.5q25 0 50.5 7t51 15t50.5 15t50 7t44 -5.5t44 -5.5q9 0 19.5 -2t10.5 8q0 1 -0.5 2.5t-0.5 2.5q-17 5 -24.5 7t-21.5 2z" />
    <glyph glyph-name="y" unicode="y" horiz-adv-x="645" 
d="M336 -549l-242 75q15 21 38 59.5t49.5 86.5t54 100.5t50 102t38 91.5t19.5 68l-328 418l235 79l130 -460l206 463l49 -5q-23 -52 -51.5 -133.5t-59 -179t-61 -204t-56.5 -209t-46 -195t-30 -160.5zM286 -316q0 -8 3 -11t7 -5.5t8.5 -4.5t8.5 -8q8 23 13 41.5t5 40.5
q0 2 -0.5 6.5t-0.5 6.5q-23 -7 -33.5 -25.5t-10.5 -40.5zM330 -233q14 23 20 50t6 53v18q-15 -9 -22.5 -31t-11.5 -38q-2 -5 -3 -12t-3 -14q-2 -8 -3 -17zM228 378q-3 -13 -4 -21.5t-1 -16t0.5 -16t0.5 -21.5l4 -29l2.5 7t5 16.5t5 20t4.5 17.5v3q0 2 0.5 3t0.5 2v10
t-1.5 12t-4.5 10t-8 4q-1 0 -1 -0.5t-1 -0.5h-2zM517 294q-12 -8 -25 -34t-24.5 -57t-18.5 -60.5t-7 -43.5v-4zM91 430q4 -5 13.5 -1.5t17.5 3.5q12 0 17.5 8.5t5.5 16.5q-14 0 -30 -7.5t-24 -19.5zM198 -401q0 -1 3.5 -4t5.5 -4t10 -2t10 -1q0 11 -1.5 24t-9.5 22z
M181 -461h30q0 9 -9 13t-16 4h-5v-17zM174 359q0 -10 19 -12v28q-7 0 -13 -4.5t-6 -11.5zM373 -9l-8.5 -17l-8.5 -17v-9q10 10 14 16.5t4 17.5v5t-1 4zM173 417q1 -1 2 -1h2q9 0 11.5 10t2.5 17q0 1 -0.5 4t-0.5 5zM258 -388q0 -8 7.5 -12t12.5 -5v17h-20zM263 274
q-2 1 0.5 -2.5t6.5 -8t8.5 -8t6.5 -2.5q2 0 0 3.5t-6.5 7l-9 7t-6.5 3.5zM261 -233h9v17zM277 214q-4 0 -4 -4.5t4 -4.5q3 0 4.5 2.5t-4.5 6.5zM459 185q-3 0 -3 -4.5t3 -4.5q4 0 4 4.5t-4 4.5zM268 223q-3 0 -3 -4.5t3 -4.5t3 4.5t-3 4.5zM339 -74q-4 0 -4 -4t4 -4q3 0 3 4
t-3 4z" />
    <glyph glyph-name="colon" unicode=":" horiz-adv-x="223" 
d="M95 309q-27 8 -38.5 23t-12 33.5t9 37t25 32.5t35 21t39.5 2q29 -9 41 -25t11.5 -34t-11.5 -35.5t-27 -31t-35.5 -20.5t-36.5 -3zM87 74q-27 8 -38.5 23t-12 33.5t9 37t25 32.5t35 21t39.5 2q29 -9 41 -25t11.5 -34t-11.5 -35.5t-27 -31t-35.5 -20.5t-36.5 -3zM97 107
l39 16l38 53zM77 355l20 26l-12 22zM149 399q1 -8 3 -15q2 -6 2.5 -12.5t1.5 -11.5l10 35l-21 38z" />
    <glyph glyph-name="four" unicode="4" horiz-adv-x="579" 
d="M31 493l-16 459l187 26l-102 -423l254 69l-32 356l245 -2l-108 -980l-62 -3l-38 598zM430 43q-4 1 -4 -4.5t4 -4.5q4 2 4 5t-4 4zM430 86q-7 -2 -8 -7t-1 -10q0 -1 0.5 -4t0.5 -5zM447 250q-2 1 -3 -3t-1 -10t1 -10.5t3 -2.5q5 3 5 13t-5 13zM475 581q-1 0 -2 -9
t-2.5 -21.5t-3 -25.5t-1.5 -21v-26q0 -1 -0.5 -16t-2 -37t-2.5 -48t-2.5 -48t-2 -37t-0.5 -16q2 11 5 34.5t6 53t6 62t5.5 61.5t4 52t1.5 34q0 2 -0.5 8.5t-0.5 8.5zM492 659q-8 -3 -9.5 -11.5t-1.5 -14.5h11v26zM397 702q-2 3 -3 -7t-1 -23t1 -23.5t3 -6.5q2 3 3 11.5
t1 18.5t-1 18.5t-3 11.5zM79 779q-2 4 -3 -7.5t-1 -26.5t1 -27t3 -8t3 14t1 21t-1 20.5t-3 13.5zM501 749q-4 0 -4 -4t4 -4q3 0 3 4t-3 4zM122 771l9 26h-9v-26zM369 874q0 -4 1 -17t1 -17q1 -7 2 -17.5t2.5 -20t3 -16.5l1.5 -7h11q0 4 -0.5 12.5t-1 18.5t-1 18.5t-0.5 11.5
q0 8 -3 21t-5 13h-11zM518 814q-8 -2 -9 -7t-1 -10q0 -2 0.5 -5t0.5 -4q8 2 9 7t1 10q0 2 -0.5 5t-0.5 4zM432 814l8 78h-8v-78zM79 827q-3 0 -3 -4.5t3 -4.5t3 4.5t-3 4.5zM131 883q0 -14 -6 -25.5t-6 -28.5q13 0 19.5 13.5t10 31t4 34.5t1.5 23h-37q0 -10 7 -24t7 -24z
M466 900q13 -11 22 -10t15 -0.5t9.5 -10.5t5.5 -39h8q1 0 3 8.5t3.5 20.5t2.5 23.5t1 17.5q-17 0 -37 -3.5t-33 -6.5z" />
    <glyph glyph-name="slash" unicode="/" horiz-adv-x="769" 
d="M9 25q3 2 11.5 18t31 56t63.5 109t109 177t168 260t241 358l161 -77q-159 -205 -273 -354t-192.5 -253t-126 -168t-73 -99.5t-34.5 -48l-9 -12.5zM627 847q-7 -6 -16 -16t-18 -20.5t-16 -19.5t-10 -13l-291 -486q12 10 21.5 23t17.5 26t17.5 25t21.5 21zM632 798l116 109
q-5 11 -18.5 14.5t-24.5 3.5v-18zM636 942q-2 -12 -5.5 -26.5t-11.5 -25.5q1 -1 2 -1h2q16 0 30.5 15.5t25.5 28.5q-4 2 -17 5t-18 4h-8zM69 42q5 -2 14.5 3.5t20.5 13.5q-1 2 -1 9q0 17 9 32t18 29q-9 -6 -19 -19t-18.5 -26.5t-15 -25.5t-8.5 -16zM173 198
q-12 -9 -20.5 -23.5t-14.5 -28.5q12 9 20.5 23.5t14.5 28.5zM216 267q0 -1 4 -1q8 0 11 8t3 14l-1 2v2zM190 224q-2 3 -7 -2t-2 -7q4 -2 7.5 1.5t1.5 7.5zM207 254q-3 0 -3 -4.5t3 -4.5q4 0 4 4.5t-4 4.5zM276 357q-3 0 -3 -4t3 -4q4 0 4 4t-4 4zM285 374q-3 0 -3 -4t3 -4
t3 4t-3 4z" />
    <glyph glyph-name="z" unicode="z" 
d="M13 4l365 461l-366 -78v143h463l-278 -434l287 50l7 -137zM181 54q-1 0 -1 -0.5t-1 -0.5h-2l-6 -3t-8 -5t-7.5 -5.5t-4.5 -3.5q2 0 8.5 -0.5t8.5 -0.5q5 0 14.5 0.5t11.5 9.5q-5 9 -13 9zM416 71q-11 0 -23.5 -0.5t-17.5 -17.5q3 0 14.5 -0.5t15.5 -0.5h25t22 10
q-1 6 -6.5 8t-11.5 2t-11.5 -0.5t-6.5 -0.5zM111 38q2 4 -4 4t-4 -4q1 -4 4 -4t4 4zM220 79q1 -5 6 -7t11 -2.5t11 0t6 0.5t6.5 -0.5t11.5 0t11 2.5t6 7h-69zM409 100q2 -7 7 -8t11 -1q15 7 16.5 14t-4 10.5t-15 0.5t-15.5 -16zM387 98q-12 -5 -20 -4.5t-14.5 0.5
t-12.5 -2.5t-13 -12.5q1 0 4 -0.5t4 -0.5q24 0 33 4.5t19 15.5zM188 155q-10 1 -21 -6t-19 -16.5t-10.5 -20t5.5 -15.5q5 3 11 11t12 16.5t11.5 17t10.5 13.5zM208 200v-20q8 0 15.5 7.5t10.5 12.5h-26zM372 407q-2 4 -7 -1.5t-1 -7.5q3 -2 6.5 1.5t1.5 7.5zM63 422l171 45
q-1 0 -4 0.5t-4 0.5q-21 0 -28.5 -2t-12 -4t-12.5 -4t-29 -2zM251 480q-3 0 -3 -4t3 -4q4 0 4 4t-4 4zM297 507q-3 0 -3 -4t3 -4t3 4t-3 4zM314 507q-3 0 -3 -4t3 -4q4 0 4 4t-4 4zM357 512q1 2 -2 3t-6.5 1t-6.5 -1t-2 -3q2 -4 8.5 -4t8.5 4zM400 513q1 4 -4.5 4t-3.5 -4
q1 -4 4 -4t4 4z" />
    <glyph glyph-name="semicolon" unicode=";" horiz-adv-x="223" 
d="M79 193q-27 8 -39 24.5t-12.5 36.5t8 40.5t23.5 36t34.5 24t39.5 3.5q31 -10 45 -28t14.5 -38.5t-10 -40.5t-27 -34.5t-36.5 -22t-40 -1.5zM89 226l39 16l38 53zM53 -93q8 5 24.5 11t32.5 15t26 21t6 30q-12 -9 -29.5 -10.5t-33 4.5t-27 21t-12.5 39q-1 19 6 36.5
t18.5 30.5t27 19.5t32.5 5.5q35 -3 53.5 -24t23.5 -49t-3.5 -58.5t-28 -54t-49 -35.5t-67.5 -2zM93 42l3 -6q2 -5 4 -15l26 4l-21 38zM150 36q0 3 4 11t7 16t3 13.5t-7 3.5q-2 0 -3 -8t-2 -16.5t-1.5 -15t-0.5 -4.5z" />
    <glyph glyph-name="bracketleft" unicode="[" horiz-adv-x="342" 
d="M41 978l274 4l3 -29h-53l-148 -921l199 4l-2 -27l-295 -4zM83 56q-3 0 -3 -4t3 -4q4 0 4 4t-4 4zM122 189q-15 0 -23 -11.5t-11.5 -27.5t-4 -32.5t-0.5 -26.5v-22q14 27 26.5 57.5t12.5 62.5zM66 212q-3 0 -3 -4.5t3 -4.5t3 4.5t-3 4.5zM83 345l-1.5 -7t-2.5 -16.5
t-2.5 -19.5t-1.5 -17q0 -1 -0.5 -11t-0.5 -15q0 -3 0.5 -13t0.5 -13q1 6 3 20.5t5 31t5.5 31.5l3.5 21q0 1 0.5 4t0.5 4h-10zM148 372q-8 0 -12.5 -6t-6.5 -14.5t-2.5 -17.5t-0.5 -15v-8l26 60h-2q-1 0 -2 1zM146 474q-8 -14 -17 -28.5t-9 -31.5v-4.5t1 -4.5q14 11 20 23
t6 29q0 2 -0.5 8.5t-0.5 8.5zM86 483q-5 -1 -7 -6t-2.5 -11t0 -11.5t0.5 -6.5v-26q5 16 7.5 27t2.5 25q0 1 -0.5 4t-0.5 5zM189 785q-6 -4 -10 -22.5t-7 -44t-4.5 -55t-2.5 -56t-1.5 -46.5t-0.5 -27q0 -4 0.5 -15.5t0.5 -15.5q2 4 4 23.5t5 47.5t6 60.5t5 62t3.5 51.5
t1.5 29v8zM94 765q0 9 1.5 30.5t2.5 46.5t2.5 47t1.5 31q0 1 0.5 4t0.5 4h-9v-163zM154 782q-9 -5 -9 -13v-4zM228 932q-9 0 -20 -11.5t-21 -26.5t-17 -30.5t-7 -22.5v-4q19 17 30.5 22t18.5 10.5t11 18t9 44.5h-4zM145 877q-7 -8 -8 -14.5t-1 -16.5q0 -2 0.5 -6.5t0.5 -5.5
q9 2 9 11v14v9t-1 9zM145 921q7 0 7.5 0.5t0 0.5t0 0.5t6.5 0.5q7 0 9 3.5t4 13.5l-27 -12v-7z" />
    <glyph glyph-name="numbersign" unicode="#" horiz-adv-x="883" 
d="M296 64q-1 8 -5 40.5t-8.5 70.5t-8.5 70.5t-5 40.5l-180 -55l-4 61l175 51l-11 138l-160 -55l-15 54l157 54l-20 251l186 23l-16 -225q8 0 30 6t47.5 14t50 16t38.5 13l-1 197l175 37l-33 -191l118 30l-4 -61l-127 -33l-17 -124q23 0 37 2.5t26 6t26.5 7.5t38.5 7l2 -66
l-126 -36q-1 -9 -4 -31.5t-7 -53t-8.5 -64t-8.5 -63.5t-7 -53t-4 -31l-35 -9l-19 277l-200 -56l-11 -257zM329 334q-2 0 -3.5 -9.5t-3.5 -22t-3 -24t-1 -14.5v-138q5 18 7.5 46t3 57.5t0.5 57.5v47zM614 372q-1 0 -4 -13.5t-4 -21.5q-1 -5 -0.5 -25.5t1 -45.5t0.5 -49.5
t-1 -37.5v-9v-9l9 9l0.5 21.5t1 50.5t2 60.5t4.5 52.5q0 1 2.5 7.5t5 14.5t5 15t2.5 8zM300 425q-2 0 -5 -3t-3 -5q-1 -3 -1.5 -10.5t-1 -15.5t-1 -15.5t-0.5 -10.5h12v60zM586 364q-4 1 -4 -4.5t4 -4.5t4 4t-4 5zM562 430q-2 0 -9.5 -3t-16 -6t-15.5 -5.5t-9 -3.5
q-13 -4 -35 -12t-43 -16t-36.5 -14t-16.5 -7l-8 -8l180 58q9 3 9 13v4zM323 480q-2 0 -3 -16.5t-1 -36v-35.5t2 -16q13 19 18.5 38t5 33.5t-6.5 23.5t-15 9zM373 398l185 67l-7 104l-175 -56zM580 424q-4 1 -4 -4.5t4 -4.5t4 4t-4 5zM623 424h8v17h-8v-17zM623 493
q0 -5 4.5 -7.5t8.5 -2.5h2q1 0 2 1q6 16 7.5 26t1.5 26v17q-2 -2 -6 -10t-8.5 -17.5t-8 -19t-3.5 -13.5zM309 589q-1 2 -3 1t-4 -2.5t-3 -4t1 -3.5q4 -2 7.5 1.5t1.5 7.5zM310 720q-23 0 -30 -12.5t-7 -32.5q0 -3 0.5 -13t0.5 -13q17 10 26.5 31t9.5 40zM321 686q-3 0 -3 -4
t3 -4t3 4t-3 4zM623 730q3 0 3 -4.5t-3 -4.5t-3 4.5t3 4.5zM650 790q-12 0 -17.5 -8t-8 -19.5t-2.5 -24v-21.5q12 0 17.5 8.5t8 20t2.5 24v20.5z" />
    <glyph glyph-name="five" unicode="5" horiz-adv-x="699" 
d="M495 344q5 67 -10.5 106.5t-45 58t-70 19t-84 -10t-87 -28.5t-80 -37.5t-62 -36.5t-33.5 -25l-11 587l452 15q47 -4 75 -19.5t41 -36.5t13 -44.5t-8.5 -43.5t-23.5 -33.5t-32.5 -14t-34 14.5t-29.5 52l21 14q3 -26 16 -36t27.5 -7.5t26 16t11.5 35.5q-6 38 -30.5 54.5
t-71 20t-118.5 -3t-172 -15.5q0 -41 3.5 -88t7.5 -96t7 -99.5t2 -99.5q33 17 81 32.5t100.5 23.5t104.5 5.5t94.5 -22.5t69 -60t28.5 -106q-4 -48 -35.5 -103.5t-80.5 -108.5t-109.5 -100.5t-121.5 -80t-118 -46t-98 1.5q-55 26 -72.5 67.5t-6 86t46 83.5t82.5 60.5
t103.5 17t109.5 -47.5q-23 7 -53.5 6.5t-62.5 -9.5t-62.5 -26.5t-52 -44t-31.5 -61.5t-1 -80q18 -20 50.5 -18t72 19.5t82 48.5t79 70t64 84t37.5 90zM454 224q1 5 -4.5 5t-4.5 -5t4 -5t5 5zM170 244l-16 -8t-20 -11.5t-19 -15t-15 -17.5q4 2 12.5 7.5t18.5 12.5t18.5 13
t11.5 8q2 1 5 5t4 6zM488 260q-3 0 -3 -4.5t3 -4.5q4 0 4 4.5t-4 4.5zM187 260q-3 0 -3 -5.5t3 -5.5q4 0 4 5.5t-4 5.5zM514 339q9 5 9 16v5zM619 386q-2 0 -5.5 -11t-7 -23.5t-5.5 -23.5t0 -11q1 0 5 11t7 23.5t5 23.5t1 11zM565 443q0 -3 -1.5 -19t-3 -34.5t-2 -34
t1.5 -16.5l15 104h-10zM619 486q0 -2 3.5 -8.5t7.5 -15t7 -17.5t2 -15q0 4 0.5 15.5t-0.5 25t-3.5 26.5t-8.5 19q-5 -4 -6.5 -14.5t-1.5 -15.5zM80 454q11 9 14.5 23t3.5 29q0 2 -0.5 10t-0.5 11q-6 -11 -7.5 -17.5l-3 -13t-4.5 -13.5t-12 -19zM536 545q-2 0 -1 -7.5
t3.5 -17.5t5.5 -17.5t6 -7.5q2 1 0.5 8.5t-4 16.5t-5.5 17t-5 8zM158 516q3 16 5 28.5t3 24.5t1 24.5v27.5q0 5 -0.5 21t-0.5 21l-8 -21v-126zM497 532q-3 0 -3 -5t3 -5t3 5t-3 5zM584 543q-3 0 -3 -5.5t3 -5.5t3 5.5t-3 5.5zM480 558q5 -13 17 -13v13h-17zM101 624
q-17 0 -24.5 -14t-7.5 -31q0 -2 0.5 -10.5t0.5 -10.5q14 11 22.5 28.5t8.5 37.5zM315 558q1 5 -5 5t-5 -5q2 -5 5.5 -5t4.5 5zM93 875q-2 0 -6 -19t-8 -42t-6.5 -43.5t-2.5 -24.5v-52q4 6 8.5 31.5t9 56t8 58t6.5 35.5h-9zM157 757q0 -10 1.5 -16t7.5 -15v63
q-6 -10 -7.5 -16.5t-1.5 -15.5z" />
    <glyph glyph-name="asterisk" unicode="*" horiz-adv-x="672" 
d="M282 386l-216 47l57 123l184 -114l-16 213l164 -14l-68 -210l207 149l46 -147l-223 -46l177 -120l-135 -137l-110 206l-106 -190l-173 69zM216 211q0 -9 9 -13q2 1 5 4l4 4q3 4 9 15.5t13 23.5t13 23t8 16q-4 -3 -14 -12.5t-20.5 -20.5t-18.5 -22t-8 -18zM173 224
q4 -1 12 6.5t16 18t15 21t9 14.5q-4 -2 -13.5 -8t-20.5 -13t-21 -13t-14 -9q-2 -1 -5 -4t-3 -5zM471 235q-12 2 -20 -2t-8 -15q0 -1 1 -4t1 -5zM471 265q-3 0 -3 -4t3 -4t3 4t-3 4zM435 287q0 -10 7 -14t16 -4h2q1 0 2 1l-26 25q0 -1 -0.5 -4t-0.5 -4zM117 442
q10 -8 23 -9.5t24 -1.5q0 11 -10.5 19.5t-18.5 8.5q-4 0 -11 -6.5t-7 -10.5zM573 469h5q8 0 12 9zM161 485q1 4 -4.5 4t-4.5 -4t4 -4t5 4zM530 495h4q8 0 19.5 6.5t11.5 15.5v4zM402 606q-8 -2 -9 -9t-1 -13q0 -2 0.5 -6.5t0.5 -6.5z" />
    <glyph glyph-name="less" unicode="&#x3c;" horiz-adv-x="604" 
d="M40 356l494 337l29 -187l-345 -137l356 -120l-9 -183zM496 154q7 -10 18 -10v19zM488 163q1 4 -4.5 4t-4.5 -4t4 -4t5 4zM506 162q-4 0 -4 -4.5t4 -4.5q3 0 3 4.5t-3 4.5zM522 180v26h-17zM488 215q1 4 -4.5 4t-4.5 -4t4 -4t5 4zM506 209q1 4 -4.5 4t-4.5 -4t4 -4t5 4z
M480 222q-4 0 -4 -4t4 -4q3 0 3 4t-3 4zM471 231q-3 0 -3 -4.5t3 -4.5t3 4.5t-3 4.5zM126 347q27 -11 57.5 -18.5t59.5 -7.5h13q-17 15 -43 26t-44 17q-11 -2 -22 -6.5t-21 -10.5zM529 562q-29 -17 -42 -25t-22.5 -14.5t-22 -14t-40.5 -23.5h9l125 37zM359 511l-9 -9h9
q2 0 12.5 5.5t25 13.5t31.5 17.5t32 18.5z" />
    <glyph glyph-name="bracketright" unicode="]" horiz-adv-x="346" 
d="M318 5l-295 4l-2 27l199 -4l-148 921h-53l3 29l274 -4zM254 56q-4 0 -4 -4t4 -4q3 0 3 4t-3 4zM215 189q0 -32 12.5 -62.5t26.5 -57.5v22q0 10 -0.5 26.5t-4 32.5t-11.5 27.5t-23 11.5zM271 212q-3 0 -3 -4.5t3 -4.5t3 4.5t-3 4.5zM244 345q0 -1 0.5 -4t0.5 -4l3.5 -21
t5.5 -31.5t5 -31t3 -20.5q0 3 0.5 13t0.5 13q0 5 -0.5 15t-0.5 11q0 7 -1.5 17t-2.5 19.5t-2.5 16.5l-1.5 7h-10zM189 372q-1 0 -1 -0.5t-1 -0.5h-2l26 -60v8q0 6 -0.5 15t-2.5 17.5t-6.5 14.5t-12.5 6zM191 474q0 -2 -0.5 -8.5t-0.5 -8.5q0 -17 6 -29t20 -23q1 1 1 4.5v4.5
q0 17 -9 31.5t-17 28.5zM251 483q0 -2 -0.5 -5t-0.5 -4q0 -14 2.5 -25t7.5 -27v26q0 1 0.5 6.5t0 11.5t-2.5 11t-7 6zM148 785v-8q0 -7 1.5 -29t3.5 -51.5t5 -62t6 -60.5t5 -47.5t4 -23.5q0 4 0.5 15.5t0.5 15.5q0 7 -0.5 27t-1.5 46.5t-2.5 56t-4.5 55t-7 44t-10 22.5z
M243 928h-9q0 -1 0.5 -4t0.5 -4q0 -9 1.5 -31t2.5 -47t2.5 -46.5t1.5 -30.5v163zM183 782l9 -17v4q0 8 -9 13zM109 932h-4q5 -32 9 -44.5t11 -18t18 -10.5t31 -22v4q0 7 -7 22.5t-17 30.5t-21 26.5t-20 11.5zM192 877q-1 -2 -1 -9v-9v-14t9 -11q0 1 0.5 5.5t0.5 6.5
q0 10 -1 16.5t-8 14.5zM192 921v7l-27 12q2 -10 4 -13.5t9 -3.5q6 0 6.5 -0.5t0 -0.5t0 -0.5t7.5 -0.5z" />
    <glyph glyph-name="dollar" unicode="$" horiz-adv-x="820" 
d="M344 -120l8 187q-50 -1 -97.5 5.5t-88 22.5t-73.5 42.5t-54 65.5l91 95q12 -38 41.5 -64.5t65 -41.5t69 -17.5t52.5 9.5l-9 295q-88 -14 -138.5 -1.5t-70 41t-12.5 68.5t33 80.5t67 77t90 59.5l-42 165l164 24l-9 -161q18 4 48 -1t56.5 -22.5t40.5 -49.5t1 -82l-37 3
q5 13 4.5 32t-11.5 35.5t-34.5 28.5t-64.5 12l2 -213q33 0 69.5 -0.5t73 -5.5t71.5 -16t64 -32t51 -54.5t33 -82.5q4 -56 -13 -97.5t-46.5 -72t-66.5 -51t-73.5 -34.5t-68 -22t-48.5 -14l12 -216zM377 -19q-3 -11 -4.5 -15t-2 -6.5t0 -6.5t0.5 -14v-26l17 9zM423 -53
q2 -8 11 -9.5t15 -1.5l-3 122q0 7 -3.5 12.5t-9.5 5.5h-5q-8 -25 -8.5 -49.5t-0.5 -50.5q0 -6 2 -14t2 -15zM342 106q-3 0 -3 -4.5t3 -4.5q4 0 4 4.5t-4 4.5zM134 144q22 -13 41.5 -20t44.5 -7q3 0 13 0.5t13 0.5q-16 21 -32 24t-41 3h-20t-19 -1zM316 142q3 -8 10 -11.5
t16 -5t18 -1.5h16q-14 22 -30 24t-30 -6zM442 504q0 -82 6 -163.5t6 -163.5q22 0 57.5 16.5t68.5 40.5t57 52t24 51q0 44 -21 75.5t-53.5 52t-71 30t-73.5 9.5zM117 187h61q0 7 -6 12t-13.5 9t-14.5 8.5t-8 10.5l-19 -31v-9zM746 373q0 -31 -14 -58.5t-35.5 -51t-47.5 -43
t-50 -33.5q2 0 5 -0.5t4 -0.5q29 0 57 18.5t50 46.5t35.5 61t13.5 61q0 14 -3.5 35.5t-12 42t-22.5 35.5t-34 15q0 -17 8.5 -32t18.5 -30t18.5 -31t8.5 -35zM548 524q24 -11 41 -25.5t32.5 -30.5t30.5 -33t34 -32v8q0 22 -11.5 44t-29.5 39.5t-40.5 28t-44.5 10.5
q-7 0 -12 -9zM686 511q-4 0 -4 -4.5t4 -4.5q3 0 3 4.5t-3 4.5zM193 554q0 -15 9.5 -22.5t26.5 -7.5q4 0 13.5 1t20.5 2.5t21 2.5t14 2l-9 9l-95 26q0 -2 -0.5 -6.5t-0.5 -6.5zM323 748q-20 -24 -35.5 -56.5t-17.5 -61t13.5 -46t58.5 -11.5zM202 617q0 -13 14.5 -20.5
t26.5 -7.5q0 29 6 54.5t6 52.5v9q-21 -14 -37 -38t-16 -50zM379 830h17v120q-2 0 -8.5 -3.5t-8.5 -4.5l-5 -5t-3 -4zM336 899q-2 1 -3 -3t-1 -10t1 -10.5t3 -2.5q4 3 4 13t-4 13z" />
    <glyph glyph-name="six" unicode="6" horiz-adv-x="656" 
d="M177 7q-58 20 -93 55.5t-50.5 90t-14.5 130.5t15.5 178t39.5 232.5t57 293.5l219 -32q-18 -42 -46.5 -111t-58 -150.5t-56 -170.5t-43 -172t-18 -153.5t20.5 -116.5q2 35 17 83.5t40.5 99t60 99t75 84.5t86 54t93.5 9q62 -26 92 -64.5t34.5 -83.5t-13.5 -93t-52 -93
t-81 -83t-100.5 -62t-111 -32t-112.5 8zM160 43q0 -5 4.5 -7t10 -2.5t10.5 0l5 0.5h22q-11 5 -22.5 12t-20.5 14q-2 -1 -5.5 -7.5t-3.5 -9.5zM522 241q-15 -5 -28.5 -23.5t-25.5 -41t-22.5 -43t-18.5 -30.5q-23 -26 -48.5 -38.5t-54.5 -30.5h9q33 0 58.5 17t44.5 44
q10 13 24.5 36t28 45t23.5 38.5t10 18.5v8zM134 52v8h-8zM425 410q-20 2 -46.5 -14.5t-53.5 -44t-53 -63.5t-45.5 -72.5t-31 -71.5t-8.5 -60q1 -13 9 -20t20.5 -10t28.5 -3.5t34 -0.5q36 5 71 33t63.5 67t47.5 83.5t23 83t-9.5 64.5t-49.5 29zM540 181q-23 -17 -39.5 -42
t-38.5 -44l-26 -26q13 4 31 15.5t34.5 27.5t27.5 33t11 32v4zM100 82q-3 0 -3 -4.5t3 -4.5t3 4.5t-3 4.5zM65 147q0 -17 6 -34.5t20 -26.5v5q0 17 -8 37.5t-18 35.5v-17zM82 271q0 -20 0.5 -37t8.5 -36l12 136l31 80q-14 -10 -21.5 -29t-12 -40t-8 -41.5t-10.5 -32.5z
M548 203q-3 0 -3 -4.5t3 -4.5q4 0 4 4.5t-4 4.5zM514 319q4 3 8.5 9t8 13t6 13t3.5 8q-2 8 -9.5 9t-12.5 1q-2 0 -6.5 -0.5t-6.5 -0.5zM591 366q0 -8 5.5 -16.5t12.5 -13.5v45q-7 0 -12.5 -4t-5.5 -11zM479 405h9v9zM532 485q-18 0 -41 -4t-45.5 -11.5t-41.5 -19.5t-28 -28
h4q15 7 28 17t28.5 17.5t36 9t49.5 -8.5q10 13 10 28zM574 466q-8 -6 -13 -16t-5 -20q9 0 18.5 3t9.5 14q0 6 -1.5 11.5t-8.5 7.5zM143 474q-7 -4 -11 -11.5t-6 -14.5q6 4 12 9t6 13l-1 2v2zM152 500q-4 1 -4 -4.5t4 -4.5q4 2 4 5t-4 4zM143 616q-3 0 -3 -4t3 -4t3 4t-3 4z
M221 877q-13 -2 -21.5 -13t-13.5 -22h5q11 0 21 7.5t10 18.5q0 1 -0.5 4.5t-0.5 4.5zM234 947q-6 0 -12.5 -5t-11.5 -11.5t-9.5 -14t-5.5 -13.5l43 43h-2q-1 0 -2 1zM311 947q-19 0 -25 -13.5t-13 -30.5q18 2 32 13.5t19 29.5q-1 0 -6 0.5t-7 0.5z" />
    <glyph glyph-name="greater" unicode="&#x3e;" horiz-adv-x="604" 
d="M49 66l-9 183l356 120l-345 137l29 187l494 -337zM118 154l-18 9v-19q11 0 18 10zM126 163q2 -4 5 -4t4 4t-4.5 4t-4.5 -4zM108 162q-3 0 -3 -4.5t3 -4.5q4 0 4 4.5t-4 4.5zM109 206h-17v-26zM126 215q2 -4 5 -4t4 4t-4.5 4t-4.5 -4zM108 209q2 -4 5 -4t4 4t-4.5 4
t-4.5 -4zM134 222q-3 0 -3 -4t3 -4q4 0 4 4t-4 4zM143 231q-3 0 -3 -4.5t3 -4.5t3 4.5t-3 4.5zM488 347q-10 6 -21 10.5t-22 6.5q-18 -6 -44 -17t-43 -26h13q29 0 59.5 7.5t57.5 18.5zM85 562l-7 -40l125 -37h9q-29 16 -41 23.5t-21.5 14t-22.5 14.5t-42 25zM154 557
q15 -9 32 -18.5t31.5 -17.5t25 -13.5t12.5 -5.5h9l-9 9z" />
    <glyph glyph-name="asciitilde" unicode="~" horiz-adv-x="503" 
d="M47 282q-5 79 19.5 130.5t69 63.5t102.5 -20.5t119 -121.5q19 -19 33 -23.5t23.5 0.5t13.5 17t3.5 26t-6.5 27t-17 20l37 -4q20 -31 17.5 -61.5t-22 -49t-53 -20.5t-74.5 25q-42 45 -74.5 62.5t-57 18t-41.5 -12t-27 -28.5t-14 -30.5t-3 -18.5h-48zM195 419q1 -3 8 -9
t15.5 -13.5t18 -16t17.5 -16.5q-5 24 -17.5 40.5t-26 24t-24.5 6.5t-11 -11q0 -3 3 -3t7 0.5t7 0.5t3 -3zM124 411q3 5 9.5 8t14 3.5t14 -2.5t9.5 -11l-29 38q-5 -6 -10.5 -18t-7.5 -18zM175 446q-2 0 -2 -4.5t2 -4.5t2 4.5t-2 4.5z" />
    <glyph glyph-name="braceleft" unicode="{" horiz-adv-x="508" 
d="M57 147q-2 39 14.5 72t42 60.5t56 49.5t56.5 40t42.5 32t14.5 25q6 13 -5.5 20.5t-34.5 11t-52.5 3.5t-59.5 -1.5t-56.5 -3.5t-41.5 -2v45q40 6 91.5 23t97.5 38.5t76.5 46t27.5 45.5q1 15 -13 23.5t-36 15.5t-47 17t-44 28.5t-28.5 48.5t0.5 79q6 28 32 56.5t64 53.5
t84.5 44.5t93.5 29t89.5 7.5t72.5 -20l-19 -23q-29 12 -60.5 12t-58 -5t-43 -11t-15.5 -5q-48 -36 -68 -72t-21.5 -70.5t9.5 -66.5t23.5 -60t22.5 -51t6 -40q-8 -27 -29.5 -46.5t-48.5 -35t-55 -29.5t-50 -32q14 -6 38.5 -9t48 -9.5t41.5 -19t19 -36.5q-10 -24 -28 -52
t-36.5 -58t-33.5 -63t-21 -68t1.5 -72.5t35.5 -76.5q23 -23 51 -35.5t58 -17t59 -1t53 12.5q2 -7 4 -11q1 -3 3 -7l2 -4q-29 -21 -71 -29t-88.5 -4.5t-93 18.5t-84 41.5t-62 63.5t-26.5 84zM92 155q0 -15 3.5 -32.5t12 -33t21.5 -26t32 -11.5v4q-41 37 -38 92.5t38 131.5v4
q-15 -10 -27.5 -24.5t-21.5 -32t-14.5 -36t-5.5 -36.5zM239 345q-15 -8 -30.5 -33t-27.5 -55.5t-19.5 -59t-7.5 -42.5q1 5 9 28.5t20 52.5t26.5 56.5t29.5 39.5v13zM212 796q0 -10 4.5 -20t12 -18.5t17.5 -13.5t21 -5q0 21 -6 35.5t-6 34.5t4.5 38t4.5 37v4
q-21 -18 -36.5 -40.5t-15.5 -51.5zM291 920q-3 0 -3 -4t3 -4t3 4t-3 4zM334 985q-12 -9 -20.5 -23.5t-13.5 -28.5q12 9 20.5 23.5t13.5 28.5z" />
    <glyph glyph-name="plus" unicode="+" horiz-adv-x="386" 
d="M130 292l-91 -16l-1 29l91 17q1 0 -0.5 18.5t-4 44t-5 52t-3.5 43.5l147 14l-14 -154l108 13l2 -28l-110 -15l-12 -199l-96 -5zM188 286q3 14 6 29t2 26l6 78l-5 19q-7 -2 -10 -3t-3.5 -3t0 -6t-0.5 -11q-1 -19 1.5 -41t2.5 -41l4 3zM192 140q3 1 4.5 -6.5t3 -4.5t2.5 24
t2 79l-19 8v-4zM222 441q-2 -50 -5 -91.5t-4.5 -71t-1 -45.5t5.5 -15q3 1 4.5 17t1.5 39.5t-1 51t-1.5 52t-0.5 42t2 21.5zM191 336l5 5q-3 11 -4 12z" />
    <glyph glyph-name="seven" unicode="7" horiz-adv-x="713" 
d="M453 808q-76 37 -133 48t-95 2.5t-56.5 -31.5t-18.5 -54q0 -26 10 -40t25 -20t33.5 -7t36.5 -1q-13 -10 -35 -15.5t-48 -6t-52 5t-48 17t-36.5 30t-16.5 44.5q-3 33 7.5 66.5t30 60.5t47 44t57.5 17q45 3 90.5 -12.5t86.5 -37.5t75 -44t57 -31q12 33 33.5 67t49 58.5
t60 33t66.5 -10.5q21 -26 25 -52t-4.5 -50t-26 -44.5t-38.5 -35t-43 -21.5t-39 -4l-177 -784l-188 3zM359 71q-8 0 -13.5 -5.5t-5.5 -13.5h19v19zM351 147q1 -1 2 -1h2q11 0 21 7.5t10 18.5v5t-1 4zM372 233q-11 0 -19 -6.5t-13.5 -16t-9 -20t-5.5 -18.5q29 26 51 61h-4z
M342 328q-6 -10 -10 -21.5t-7 -22.5q10 5 13.5 17.5t3.5 21.5v5zM389 337q-13 0 -13 -14v-4l18 17q-1 0 -2.5 0.5t-2.5 0.5zM445 457q-6 -5 -15 -13.5t-17.5 -18.5t-14 -20.5t-5.5 -20.5q0 -1 0.5 -2.5t0.5 -2.5q25 5 38.5 24t13.5 45q0 2 -0.5 5t-0.5 4zM427 627
q-6 -10 -15 -37.5t-17.5 -59t-16 -60t-10.5 -39.5q5 3 11.5 17.5t13 34.5t13 43t11.5 43t8 35t3 19l-1 2v2zM453 670q9 5 9 13l-1 2v2zM125 731q2 4 -4 4t-4 -4q1 -5 4 -5t4 5zM64 764q0 -9 7.5 -18t16.5 -9q0 35 8.5 61t28.5 53q0 1 -4 1q-11 0 -21 -10t-18 -24t-13 -29
t-5 -25zM479 744q-4 0 -4 -4.5t4 -4.5q3 0 3 4.5t-3 4.5zM508 809q-8 0 -10.5 -11t-2.5 -18q9 0 15.5 6.5t11.5 13.5q-6 9 -14 9zM522 843q1 -1 2 -1h2q8 0 15 7t7 15v5zM660 955q-17 0 -33.5 -14t-29.5 -34.5t-20.5 -43t-7.5 -40.5q5 -6 17 -3t26 13.5t28 25.5t22.5 31.5
t9 33.5t-11.5 31zM186 877q-2 4 -7.5 -1t-1.5 -7t7.5 1t1.5 7z" />
    <glyph glyph-name="percent" unicode="%" horiz-adv-x="816" 
d="M9 25q3 2 11.5 18t31 56t63.5 109t109 177t168 260t241 358l161 -77q-159 -205 -273 -354t-192.5 -253t-126 -168t-73 -99.5t-34.5 -48l-9 -12.5zM160 732q-41 10 -62.5 32.5t-26 50t4.5 56t29 51.5t48 36.5t61 9.5q43 -5 68 -27.5t33 -52t1 -61.5t-27.5 -56.5t-53 -36.5
t-75.5 -2zM576 26q-38 13 -53 39t-12.5 56t19.5 59.5t42 50t55.5 27.5t60.5 -7q43 -26 59 -56t13 -58t-22 -52.5t-45.5 -41t-57.5 -22t-59 4.5zM627 847q-7 -6 -16 -16t-18 -20.5t-16 -19.5t-10 -13l-291 -486q12 10 21.5 23t17.5 26t17.5 25t21.5 21zM666 182
q-6 -12 -20 -17.5t-29 -12.5t-26.5 -18t-11.5 -34v-6.5t1 -6.5q6 5 20.5 18.5t31 29t31 29t20.5 18.5q7 6 12.5 8.5t8.5 4t4.5 3.5t1.5 9q0 14 -8 16.5t-20 2.5q-17 0 -26.5 -4.5t-23.5 -22.5q6 -2 18 -5.5t16 -11.5zM632 798l116 109q-5 11 -18.5 14.5t-24.5 3.5v-18z
M636 942q-2 -12 -5.5 -26.5t-11.5 -25.5q1 -1 2 -1h2q16 0 30.5 15.5t25.5 28.5q-4 2 -17 5t-18 4h-8zM248 882q-1 -3 -3 -10.5t-5 -15.5t-5.5 -15.5l-3.5 -10.5q-5 -11 -15.5 -23.5t-10.5 -23.5v-4q10 3 20.5 8t19 14t14 22.5t5.5 33.5q0 3 -7.5 12.5t-8.5 12.5zM69 42
q5 -2 14.5 3.5t20.5 13.5q-1 2 -1 9q0 17 9 32t18 29q-9 -6 -19 -19t-18.5 -26.5t-15 -25.5t-8.5 -16zM701 104q7 11 12 24.5t5 27.5v8q-13 -8 -21.5 -22.5t-13.5 -28.5zM173 198q-12 -9 -20.5 -23.5t-14.5 -28.5q12 9 20.5 23.5t14.5 28.5zM216 267q0 -1 4 -1q8 0 11 8
t3 14l-1 2v2zM205 897l35 20l-29 19zM190 224q-2 3 -7 -2t-2 -7q4 -2 7.5 1.5t1.5 7.5zM175 839q-11 0 -21 -10t-15.5 -22.5t-5 -22.5t11.5 -10q1 0 6.5 10t11.5 22.5t9.5 22.5t2.5 10zM207 254q-3 0 -3 -4.5t3 -4.5q4 0 4 4.5t-4 4.5zM276 357q-3 0 -3 -4t3 -4q4 0 4 4
t-4 4zM285 374q-3 0 -3 -4t3 -4t3 4t-3 4z" />
    <glyph glyph-name="period" unicode="." horiz-adv-x="231" 
d="M101 5q-25 5 -37.5 19.5t-15 32t3 36t17 32.5t27.5 21.5t34 2.5q42 -9 57 -36t8.5 -54t-31.5 -45t-63 -9zM88 39l16 -10l-24 58zM117 112q0 -2 3.5 -5.5t5.5 -3.5q3 0 13 3.5t13 5.5h-35z" />
    <glyph glyph-name="comma" unicode="," horiz-adv-x="203" 
d="M43 -71q8 5 24.5 11t32.5 15t26 21t6 30q-12 -9 -29.5 -10.5t-33 4.5t-27 21t-12.5 39q-1 19 6 36.5t18.5 30.5t27 19.5t32.5 5.5q35 -3 53.5 -24t23.5 -49t-3.5 -58.5t-28 -54t-49 -35.5t-67.5 -2zM83 64l3 -6q2 -5 4 -15l26 4l-21 38zM140 58q0 3 4 11t7 16t3 13.5
t-7 3.5q-2 0 -3 -8t-2 -16.5t-1.5 -15t-0.5 -4.5z" />
    <glyph glyph-name="question" unicode="?" horiz-adv-x="684" 
d="M120 5q-26 10 -37.5 27.5t-12.5 37t7 39t23.5 33.5t36 20t44.5 0q40 -21 48 -52t-4.5 -58t-41.5 -42.5t-63 -4.5zM102 91q25 23 44 26t31.5 -1.5t18 -10t2.5 -0.5q0 11 -6.5 20t-19.5 9q-23 0 -42 -11.5t-28 -31.5zM121 212l-40 319q38 -9 85 -1.5t95 26t93 47.5
t79.5 63.5t53.5 72.5t15 77q-2 24 -22 46t-51.5 38t-70.5 25.5t-78.5 9t-76.5 -12t-63 -37.5t-38.5 -68t-3.5 -103l-49 -6q-11 81 9.5 135t62.5 86t99.5 43t118.5 5t120.5 -27t106 -53.5t74.5 -74t26 -88.5q-3 -58 -21.5 -101.5t-48 -76t-67 -55.5t-78 -39.5t-82 -29
t-78.5 -22.5l-105 -198h-65zM177 289q-3 0 -3 -4t3 -4q4 0 4 4t-4 4zM186 315q-3 0 -3 -4.5t3 -4.5t3 4.5t-3 4.5zM143 328l17 60h-17v-60zM212 388q-7 -11 -12.5 -24.5t-5.5 -26.5q0 -2 0.5 -5t0.5 -4l3.5 10.5t5.5 15.5t5 15.5t3 10.5v4v4zM246 384q-3 0 -3 -4.5t3 -4.5
q4 0 4 4.5t-4 4.5zM255 401q-3 0 -3 -4t3 -4t3 4t-3 4zM151 423h44q-5 2 -18 5t-17 3h-4h-5v-8zM143 444q-4 0 -4 -4t4 -4q3 0 3 4t-3 4zM134 475l9 8h-9v-8zM376 479q-4 0 -4 -4.5t4 -4.5q3 0 3 4.5t-3 4.5zM393 488q-4 0 -4 -4.5t4 -4.5q3 0 3 4.5t-3 4.5zM419 492
q1 4 -4.5 4t-4.5 -4t4 -4t5 4zM272 500q3 2 -5.5 3t-20 1t-20.5 -1t-6 -3t10.5 -3t15.5 -1t15.5 1t10.5 3zM483 561q-6 0 -10.5 -2t-10.5 -7h4q6 0 10.5 2t11.5 7h-5zM350 561h17v8zM453 621q-23 -9 -34.5 -16.5t-11.5 -32.5q20 0 30 16.5t16 32.5zM485 608v-4
q0 -6 0.5 -6.5t1.5 1t1.5 3.5t-0.5 2q2 7 -1.5 8.5t-6.5 1t-3 -3t8 -2.5zM597 815q-7 -14 -6.5 -27.5t3 -27t5 -29t1.5 -34.5q0 -3 -4.5 -16t-9.5 -28.5t-9.5 -28.5t-5.5 -16v-4v-4q24 26 42.5 57t18.5 67q0 26 -7 50.5t-28 40.5zM493 643q2 4 -4 4t-4 -4q1 -4 4 -4t4 4z
M510 682q0 -8 6 -11t13 -3q13 0 15 12.5t2 23.5q0 8 -1.5 12.5t-8.5 12.5q-11 -7 -18.5 -21.5t-7.5 -25.5zM536 850q1 -4 4 -17.5t5 -17.5q2 3 5 13t4 13v5q0 11 -18 12v-4v-4z" />
    <glyph glyph-name="braceright" unicode="}" horiz-adv-x="440" 
d="M393 146q-2 -47 -26.5 -84t-62 -63.5t-84 -41.5t-93 -18.5t-88.5 4.5t-71 29q0 2 1 4q2 4 3 7q2 4 5 11q24 -9 53 -12.5t59 1t58 17t51 35.5q28 39 35.5 76.5t1.5 72.5t-21 68t-33.5 63t-36.5 58t-28 52q1 24 19 36.5t41.5 19t48 9.5t38.5 9q-22 18 -50 32t-55 29.5
t-48.5 35t-29.5 46.5q-4 17 6 40t22.5 51t23.5 60t9.5 66.5t-21.5 70.5t-68 72q1 -1 -15.5 5t-43 11t-58 5t-60.5 -12l-19 23q30 18 72.5 20t89.5 -7.5t93.5 -29t84.5 -44.5t64 -53.5t32 -56.5q9 -49 0 -79t-28 -48.5t-44 -28.5t-47 -17t-36 -15.5t-13 -23.5
q-2 -14 11.5 -30t37.5 -31.5t55 -30t64 -27t65.5 -21.5t59.5 -13v-45q-16 0 -42 2t-56 3.5t-59.5 1.5t-52.5 -3.5t-34.5 -11t-5.5 -20.5q-2 -11 14.5 -25t42.5 -32t56.5 -40t56 -49.5t42 -60.5t14.5 -72zM358 154q0 18 -5.5 36.5t-14.5 36t-21.5 32t-27.5 24.5v-4
q34 -76 37.5 -131.5t-37.5 -92.5v-4q19 1 32 11.5t21 26t12 33t4 32.5zM211 344v-13q15 -12 29.5 -39.5t26.5 -56.5t19.5 -52.5t9.5 -28.5q0 14 -7.5 42.5t-19.5 59t-27.5 55.5t-30.5 33zM238 795q0 29 -15.5 51.5t-36.5 40.5v-4q0 -19 4.5 -37t4.5 -38t-6 -34.5t-6 -35.5
q11 0 21 5t17.5 13.5t12 18.5t4.5 20zM159 919q-3 0 -3 -4t3 -4t3 4t-3 4zM116 984q5 -14 13.5 -28.5t20.5 -23.5q-5 14 -13.5 28.5t-20.5 23.5z" />
    <glyph glyph-name="l" unicode="l" horiz-adv-x="259" 
d="M12 976l221 4l-55 -978q0 -3 -5.5 -4t-13 -0.5t-14.5 1.5t-10 1zM144 26h9l-9 26v-26zM127 119q-2 0 -1.5 -7t2 -16t3.5 -16t4 -7t1.5 7t-2 16t-3.5 16t-4 7zM135 414q-3 0 -3 -4.5t3 -4.5q4 0 4 4.5t-4 4.5zM135 444q-2 1 -3 -2t-1 -6.5t1 -6.5t3 -2q5 2 5 8.5t-5 8.5z
M187 660q-6 -9 -11.5 -26t-5.5 -26v-181q4 31 7.5 56t5.5 48t3.5 45.5t1.5 48.5q0 4 -0.5 17t-0.5 18zM111 503q-2 1 -3 -1.5t-1 -6.5t1 -7t3 -2q4 2 4 8.5t-4 8.5zM102 564q-2 1 -3 -3t-1 -10t1 -10.5t3 -2.5q4 3 4 13t-4 13zM118 617q-2 2 -3 -4t-1 -13.5t1 -13.5t3 -4
q4 4 4 17t-4 18zM79 708q0 -46 19 -89v78q0 5 -7.5 8t-11.5 3zM46 896q0 -1 0.5 -5.5t0.5 -5.5q1 -7 5 -29.5t7.5 -48t7 -47.5t5.5 -29q5 3 12 12t5 14l-16 128q-2 8 -12 9.5t-15 1.5zM128 753q-4 2 -4 -3.5t4 -4.5t4 4t-4 4zM189 887q0 -1 -0.5 -2.5t-0.5 -2.5
q-1 -3 -6.5 -22t-11.5 -41.5t-11 -41.5t-6 -23q-1 -1 -1 -2v-2v-2q0 -1 1 -2q7 10 17.5 31.5t20 47t16.5 50.5t7 42h-13q-8 0 -19.5 0.5t-22.5 0t-19.5 -4.5t-11.5 -13q0 -2 3 -5.5t5 -3.5t9 4t9 5h13q8 0 15 -1.5t7 -11.5zM111 805q2 1 5 4t3 5q1 3 1.5 15.5t1.5 27t1.5 27
t0.5 15.5h-12z" />
    <glyph glyph-name="V" unicode="V" horiz-adv-x="999" 
d="M13 930q106 24 164.5 36.5t85.5 18.5t32.5 7l5.5 1l223 -777q3 52 13 126t27.5 155t44.5 162.5t65 148.5t88.5 112t115.5 53q58 -3 84 -26t29.5 -53.5t-11.5 -62t-41 -51t-58 -20.5t-62 30q0 7 5 19t13 12q17 -26 38.5 -28t41 10t32 34t11.5 43.5t-20.5 38t-63.5 17.5
q-47 -9 -86.5 -44t-71 -88t-55.5 -120.5t-41.5 -141.5t-28.5 -149.5t-16 -145t-4.5 -129t6.5 -100.5l-43 -18zM481 228q-3 0 -3 -4t3 -4q4 0 4 4t-4 4zM473 237q-4 0 -4 -4.5t4 -4.5q3 0 3 4.5t-3 4.5zM447 280q-4 0 -4 -4t4 -4q3 0 3 4t-3 4zM421 302q2 -2 8.5 -9t8.5 -9
v35q0 3 -5 23l-11.5 46t-14 52.5t-12.5 42.5q-1 3 -4.5 11.5t-7.5 18.5t-8 18.5t-6 11.5zM256 662q0 -5 6.5 -13.5t11.5 -11.5v77q-9 57 -14 76.5t-7 14.5t-1.5 -26.5t1.5 -46.5t2 -46t1 -24zM198 687q0 -10 8.5 -24t20.5 -19l-42 228q-3 -4 -3 -18t1 -33t4 -40.5t5 -40.5
t4 -33.5t2 -19.5zM335 629q-2 1 -3 -2t-1 -6.5t1 -6.5t3 -2q4 2 4 8.5t-4 8.5zM80 903q0 -7 13 -29.5t27.5 -47.5t25 -47t5.5 -28q0 1 -4 19.5t-9.5 40.5t-9.5 41t-4 20q1 2 4.5 13t4.5 13q5 10 16.5 13t17.5 13h-8q-3 0 -15.5 -1.5t-27 -4t-25.5 -6.5t-11 -9zM236 881
q4 17 6.5 30.5t2.5 29.5v9l-9 -9v-60z" />
    <glyph glyph-name="b" unicode="b" horiz-adv-x="592" 
d="M82 6q-24 11 -36.5 30t-16 40.5t0.5 43t13.5 39t23 28t29.5 9.5l16 -35q-13 3 -25 -8t-19 -28t-7.5 -36t10 -31t33 -14.5t61.5 14.5l-130 920l249 -14q-10 -110 -16 -189t-9.5 -133t-4 -87t-0.5 -52t0.5 -27t0.5 -11q28 22 51.5 40.5t47.5 31t52 18t65 1.5q51 -5 79 -37
t22 -83q-1 -30 -15.5 -75t-42.5 -94t-69 -97.5t-95 -86t-121.5 -59.5t-146.5 -18zM228 78q39 0 79.5 28.5t75 70.5t59.5 91t34 90q8 45 -2 73t-31 40.5t-50 10t-58 -18.5t-55 -45t-42 -70zM167 314q-4 -32 -5 -58.5t10 -59.5q2 7 5.5 25.5t7 39t7 38.5t4.5 25q0 1 1 9t1 11
q0 5 1 8q0 3 1 6q-2 4 -11.5 8.5t-13.5 3.5q-1 -3 -2 -11t-2.5 -17t-2.5 -17t-1 -11zM214 486q-2 -5 -6 -16.5t-8.5 -25l-8.5 -25.5t-5 -16v-4v-4q17 8 20 25t5 32q1 4 1.5 17t1.5 17zM152 482q-2 -14 -1 -24.5t4 -25.5q2 3 6.5 12.5t4.5 12.5q3 7 8.5 23.5t12 35t12 35.5
t7.5 24q-12 -5 -21 -15t-16 -23.5t-11.5 -28t-5.5 -26.5zM497 487q-3 -1 -7 5.5t-8 13.5t-6.5 12t-2.5 2q-4 1 -2 -11t7 -30t13 -39t15 -37.5t12 -25t5 -2.5t-5.5 30t-20.5 73v9zM529 436l11 -1q1 11 0.5 23t-7.5 21zM409 534q3 -2 2 -7.5l-2 -11t-1.5 -10t2.5 -4.5
q4 -1 7 2t5 7t3.5 9t1.5 8q-10 1 -20 -3t-18 -12zM162 649q-13 -13 -17.5 -22.5t-6.5 -23.5v-13q1 3 4.5 10l7.5 15t7 15t4 10v2q0 1 0.5 1t0.5 1v5zM193 619q7 4 11.5 11t8.5 14.5t8 14.5t11 12l14 154l-52 -198zM158 789q-3 -3 -8.5 -17t-11.5 -30.5t-10.5 -31.5t-4.5 -18
q0 -1 -0.5 -1t-0.5 -1v-2q5 5 8.5 9t4.5 11q6 22 11 40q5 15 8.5 27.5t3.5 13.5zM206 851q-3 1 -3.5 -3.5t2.5 -5.5q3 0 3.5 4.5t-2.5 4.5zM186 910q-3 1 -4 -4t3 -5t4.5 3.5t-3.5 5.5zM248 938q-12 2 -17 -6.5t-6 -18.5l20 -3z" />
    <glyph glyph-name="H" unicode="H" horiz-adv-x="713" 
d="M11 976l312 6l-34 -507l259 -1l3 508l149 -3l-51 -979l-98 -3v49t-1 75t-2 87.5t-1 87.5v76t1 51h-261l-9 -429h-97zM195 80q-2 -14 -1.5 -19t4.5 -6t12 1t20 2q0 16 2 28t3.5 23.5t2.5 22.5t0 26q-1 -4 -4.5 -12.5t-7.5 -18.5t-8 -18.5t-5 -11.5q-2 -2 -9.5 -8.5
t-8.5 -8.5zM238 339q-1 -5 -3.5 -16t-5.5 -23t-5 -23.5t-3 -15.5q0 -1 -0.5 -4t-0.5 -4h18v86zM160 318q0 -11 1.5 -19.5t7.5 -20.5l9 9l-9 52q-8 -2 -8.5 -9t-0.5 -12zM583 181q-2 3 -3 -5.5t-1 -20t1 -20t3 -5.5t3 10t1 15.5t-1 15.5t-3 10zM230 503q-18 -26 -22.5 -57
t-4.5 -60v-19.5t1 -19.5q14 32 20.5 66t6.5 68q0 3 -0.5 11.5t-0.5 10.5zM592 268q-2 2 -3.5 -4t-1.5 -13.5t1.5 -13.5t3.5 -4q4 4 4 17t-4 18zM169 520q-9 -7 -14 -19t-7 -25.5t-2 -26.5v-20q11 0 16 7t7 16.5t1.5 20t-0.5 17.5q0 3 -0.5 15t-0.5 15zM566 319q-2 3 -3 -4.5
t-1 -16.5t1 -16.5t3 -5.5q2 3 3 9t1 13t-1 13t-3 8zM600 328q-2 1 -3 -2t-1 -7t1 -6.5t3 -1.5q4 2 4 8.5t-4 8.5zM238 524q-3 0 -3 -4t3 -4q4 0 4 4t-4 4zM574 397q-2 2 -3 -5.5t-1 -16.5t1 -16.5t3 -4.5q2 2 3 8t1 13t-1 13t-3 9zM264 692q-2 -6 -7 -22t-10 -34t-10 -34
t-7 -22q-1 -1 -1 -3v-5q0 -2 0.5 -5t0.5 -4l26 26q1 18 3 34q2 14 3 28t2 24v9v8zM609 397q-2 1 -3 -2t-1 -7t1 -6.5t3 -1.5q4 2 4 8.5t-4 8.5zM126 650q0 -18 4.5 -35t4.5 -35h9q1 0 3 6t5 14t5.5 17t3.5 15q0 1 0.5 10.5t0.5 14.5q0 14 -1 26.5t-9 26.5q-13 -21 -19.5 -32
t-6.5 -28zM221 675q-11 -19 -14.5 -30.5t-3.5 -29.5v-9t1 -9q5 16 11.5 34t6.5 35q0 2 -0.5 5t-0.5 4zM583 440q-2 1 -3 -3t-1 -10t1 -10.5t3 -2.5q4 3 4 13t-4 13zM617 492q-2 3 -3 -7t-1 -23.5t1 -23.5t3 -7t3 12t1 18.5t-1 18.5t-3 12zM583 492q-2 1 -3 -2t-1 -7t1 -7
t3 -2q4 2 4 9t-4 9zM230 697q-4 0 -4 -4.5t4 -4.5q3 0 3 4.5t-3 4.5zM626 612q-2 4 -3 -9t-1 -29.5t1 -30t3 -8.5q2 4 3 15t1 23.5t-1 23.5t-3 15zM592 561q-5 1 -5 -4.5t5 -4.5q4 1 4 4t-4 5zM126 804q-8 -8 -14 -19t-6 -24h12q1 7 3 13q3 11 5 22v4v4zM187 778
q-1 -2 2.5 -8.5t5.5 -8.5q6 12 7.5 20t1.5 19v13q-3 -3 -9.5 -16.5t-7.5 -18.5zM592 582q-4 0 -4 -4t4 -4q3 0 3 4t-3 4zM238 778h-8q10 6 21 10.5t22 7.5q3 17 5 30t2.5 25t1 24.5t0.5 27.5v8.5t-0.5 11.5t-0.5 11.5v7.5l-43 -155v-9zM135 826q-3 0 -3 -4.5t3 -4.5t3 4.5
t-3 4.5zM635 630q3 23 7 64t7.5 87t6.5 90t3 73h-19zM213 835q-4 0 -4 -4.5t4 -4.5q3 0 3 4.5t-3 4.5zM106 909v-5q2 -5 5 -21.5t4 -21.5l26 69h-5q-7 0 -18.5 -6.5t-11.5 -14.5zM226 954q-17 -10 -26 -30.5t-9 -38.5v-4.5t1 -4.5q2 4 8 13t12 20t10.5 21t3.5 15v4v5z" />
    <glyph glyph-name="quotesingle" unicode="'" horiz-adv-x="294" 
d="M51 608q10 6 32 14.5t43 19.5t35.5 26t9.5 34q-17 -11 -39.5 -15t-43 1t-34.5 19.5t-14 41.5q0 21 9.5 41t25.5 35t36.5 24t42.5 9q45 0 68.5 -20.5t28.5 -50.5t-7 -64t-38.5 -62t-66 -44t-88.5 -9zM145 771q-8 -6 -14 -12q-5 -5 -9.5 -11t-4.5 -11l35 7l9 60zM184 759
q1 4 2.5 14t1.5 20.5t-3.5 17.5t-13.5 4q-2 -1 -0.5 -10.5t4.5 -20.5t6 -19t3 -6z" />
    <glyph glyph-name="equal" unicode="=" horiz-adv-x="481" 
d="M440 339l5 -87l-401 -17l-6 157zM89 269h61q-12 6 -21 7t-22 1h-18v-8zM345 301q4 -1 14.5 -5t21.5 -9t21 -9.5t15 -5.5h6l1 18q-11 0 -20.5 3t-19.5 6t-19.5 4.5t-19.5 -2.5zM327 306q-2 0 -2 -4.5t2 -4.5t2 4.5t-2 4.5zM95 318h61q-8 4 -15 12.5t-9 20.5h-37v-33z
M168 322q-2 0 -2 -4t2 -4t2 4t-2 4zM203 322q1 0 16.5 -1t24.5 -1q33 0 47.5 -0.5t25 -1.5t25.5 -1t49 2l-201 23zM404 323q-3 0 -3 -4t3 -4q2 0 2 4t-2 4zM450 556l-1 -161l-407 67l2 83zM402 459h-17q-13 0 -22 -1t-21 -7h60v8zM146 483q-20 8 -42.5 10t-42.5 2v-18h7
q4 1 15.5 2t23.5 1.5t23 1t16 1.5zM165 488q-2 0 -2 -4.5t2 -4.5t2 4.5t-2 4.5zM397 533h-37q-2 -12 -9.5 -20.5t-14.5 -12.5h61v33zM323 504q-2 0 -2 -4t2 -4q3 0 3 4t-3 4zM302 524h-209q34 -2 50.5 -5.5t28.5 -7t27.5 -6.5t48.5 -3q4 0 11 0.5t13.5 0.5t11.5 0.5l5 0.5z
M81 528q-2 0 -2 -4t2 -4t2 4t-2 4z" />
    <glyph glyph-name="backslash" unicode="\" horiz-adv-x="769" 
d="M717 -9q-1 0 -9.5 12.5t-34 48t-73 99.5t-126 168t-192.5 253t-273 354l161 77q140 -206 240.5 -358t168.5 -260t109 -177t63.5 -109t31 -56t11.5 -18zM176 847l273 -460q12 -9 21.5 -21t17.5 -25t17.5 -26t21.5 -23l-291 486q-3 4 -10 13t-16 19.5t-18 20.5t-16 16z
M98 907v18q-11 0 -24.5 -3.5t-18.5 -14.5l116 -109zM167 942h-8q-5 -1 -18 -4t-17 -5q11 -13 25.5 -28.5t30.5 -15.5h2q1 0 2 1q-8 11 -11.5 25.5t-5.5 26.5zM734 42q-2 4 -8.5 16t-15 25.5t-18.5 26.5t-19 19q9 -14 18 -29t9 -32q0 -7 -1 -9q11 -8 20.5 -13.5t14.5 -3.5z
M630 198q6 -14 14.5 -28.5t20.5 -23.5q-6 14 -14.5 28.5t-20.5 23.5zM570 292q-1 -1 -1 -2v-2q0 -6 3 -14t11 -8q4 0 4 1zM613 224q-2 -4 1.5 -7.5t7.5 -1.5q3 2 -2 7t-7 2zM596 254q-4 0 -4 -4.5t4 -4.5q3 0 3 4.5t-3 4.5zM527 357q-4 0 -4 -4t4 -4q3 0 3 4t-3 4zM518 374
q-3 0 -3 -4t3 -4t3 4t-3 4z" />
    <glyph glyph-name="circumflex" unicode="&#x2c6;" horiz-adv-x="415" 
d="M100 533l-95 64l185 223l159 -258l-22 -17l-130 216zM140 708q-2 0 -2 -2.5t2 -2.5t2 2.5t-2 2.5zM77 589q0 -5 10 -7q0 1 0.5 2.5t0.5 2.5q0 8 -5 10q-6 -2 -6 -8zM108 618q-1 2 -4 -1.5t-1 -4.5t4 1.5t1 4.5zM139 664q-5 -5 -12 -11.5t-9 -14.5q6 5 12.5 14.5t8.5 11.5
z" />
    <glyph glyph-name="grave" unicode="`" horiz-adv-x="335" 
d="M22 627l71 115l213 -209zM55 664v-26l118 -51h9q-29 16 -41 23.5t-21.5 14t-22.5 14.5t-42 25zM124 659q15 -9 30 -20t28 -21t22 -17t11 -7h9l-9 9z" />
    <glyph glyph-name="acute" unicode="&#xb4;" horiz-adv-x="330" 
d="M22 533l213 209l71 -115zM273 664q-29 -17 -42 -25t-22.5 -14.5t-22 -14t-40.5 -23.5h9l118 51v26zM113 603l-9 -9h9q2 0 11 7t21.5 17t28 21t30.5 20z" />
    <glyph glyph-name="quoteright" unicode="&#x2019;" horiz-adv-x="294" 
d="M51 608q10 6 32 14.5t43 19.5t35.5 26t9.5 34q-17 -11 -39.5 -15t-43 1t-34.5 19.5t-14 41.5q0 21 9.5 41t25.5 35t36.5 24t42.5 9q45 0 68.5 -20.5t28.5 -50.5t-7 -64t-38.5 -62t-66 -44t-88.5 -9zM145 771q-8 -6 -14 -12q-5 -5 -9.5 -11t-4.5 -11l35 7l9 60zM184 759
q1 4 2.5 14t1.5 20.5t-3.5 17.5t-13.5 4q-2 -1 -0.5 -10.5t4.5 -20.5t6 -19t3 -6z" />
    <glyph glyph-name="quoteleft" unicode="&#x2018;" horiz-adv-x="294" 
d="M242 608q-49 -7 -88.5 9t-66 44t-38.5 62t-7 64t28.5 50.5t68.5 20.5q22 0 42.5 -9t36.5 -24t25.5 -35t9.5 -41q0 -27 -14 -41.5t-34.5 -19.5t-43 -1t-39.5 15q-5 -19 9.5 -34t35.5 -26t42.5 -19.5t32.5 -14.5zM132 804l9 -60l35 -7q0 5 -4.5 11t-9.5 11q-6 6 -14 12z
M109 759q0 -2 3 6t6 19t4.5 20.5t-0.5 10.5q-10 3 -13.5 -4t-3.5 -17.5t1.5 -20.5t2.5 -14z" />
    <glyph glyph-name="quotesinglbase" unicode="&#x201a;" horiz-adv-x="294" 
d="M57 -58q10 6 32 14.5t43 19.5t35.5 26t9.5 34q-17 -11 -39.5 -15t-43 1t-34.5 19.5t-14 41.5q0 21 9.5 41t25.5 35t36.5 24t42.5 9q45 0 68.5 -20.5t28.5 -50.5t-7 -64t-38.5 -62t-66 -44t-88.5 -9zM151 105q-8 -6 -14 -12q-5 -5 -9.5 -11t-4.5 -11l35 7l9 60zM190 93
q1 4 2.5 14t1.5 20.5t-3.5 17.5t-13.5 4q-2 -1 -0.5 -10.5t4.5 -20.5t6 -19t3 -6z" />
    <glyph glyph-name="quotedblleft" unicode="&#x201c;" horiz-adv-x="500" 
d="M109 513q-26 0 -41 17t-20.5 42.5t-1.5 56t16 57.5t32 46.5t47 22.5q34 0 54 -12t28 -29.5t4.5 -38.5t-17 -39.5t-35.5 -31.5t-51 -14q-14 0 -21 2t-20 10q0 -31 12 -42.5t30.5 -12.5t41 4t43.5 6q0 -14 -12.5 -22.5t-29.5 -13.5t-33.5 -6.5t-25.5 -1.5zM368 513
q-33 5 -54 28t-30 53.5t-6 64t17.5 59.5t41.5 40t66 5q26 -5 39.5 -20t16.5 -34t-3 -39.5t-18.5 -37t-30.5 -26.5t-40 -8q-8 0 -14 3t-11.5 7t-12 6.5t-13.5 1.5q5 -27 13 -41.5t21.5 -21t33.5 -8t47 -1.5q0 -8 -8.5 -13.5t-19.5 -9.5t-21.5 -6t-13.5 -2zM420 694
q-5 -3 -9.5 -9t-8 -13t-5.5 -13t-3 -8h4q6 0 10 4.5t7 11t4 13t1 10.5v4zM140 677q-14 0 -14 -13v-2q0 -1 1 -2l17 17h-4zM187 664q-3 0 -3 -4.5t3 -4.5t3 4.5t-3 4.5zM368 685q-4 2 -4 -3.5t4 -4.5t4 4t-4 4zM377 707q-3 0 -3 -4.5t3 -4.5t3 4.5t-3 4.5zM144 720
q2 -2 8.5 -5.5t8.5 -3.5t5.5 3.5t3.5 5.5h-26zM403 733q-4 0 -4 -4.5t4 -4.5q3 0 3 4.5t-3 4.5z" />
    <glyph glyph-name="quotedblright" unicode="&#x201d;" horiz-adv-x="500" 
d="M395 513q-9 0 -25.5 1.5t-33.5 6.5t-29.5 13.5t-12.5 22.5q21 -1 43.5 -6t41 -4t30.5 12.5t12 42.5q-13 -8 -20 -10t-21 -2q-29 1 -51 14t-35.5 31.5t-17 39.5t4.5 38.5t28 29.5t54 12q27 -3 47 -22.5t32 -46.5t16 -57.5t-1.5 -56t-20.5 -42.5t-41 -17zM136 513
q-3 0 -13.5 2t-21.5 6t-19.5 9.5t-8.5 13.5q27 0 46.5 1.5t33 8t22 21t13.5 41.5q-8 1 -14 -1.5t-11.5 -6.5t-12 -7t-13.5 -3q-22 -2 -40 8t-30.5 26.5t-18.5 37t-3 39.5t16.5 34t39.5 20q39 9 66 -5t41.5 -40t17.5 -59.5t-6 -64t-30 -53.5t-54 -28zM84 694v-4q0 -4 1 -10.5
t4 -13t7 -11t10 -4.5h4q-1 2 -3 8t-5.5 13t-8 13t-9.5 9zM364 677h-4l17 -17v2q0 1 0.5 1t0.5 1q0 13 -14 13zM317 664q-3 0 -3 -4.5t3 -4.5t3 4.5t-3 4.5zM136 685q-4 -1 -4 -4t4 -4t4 4.5t-4 3.5zM127 707q-3 0 -3 -4.5t3 -4.5t3 4.5t-3 4.5zM360 720h-26q0 -2 3.5 -5.5
t5.5 -3.5t8.5 3.5t8.5 5.5zM101 733q-3 0 -3 -4.5t3 -4.5q4 0 4 4.5t-4 4.5z" />
    <glyph glyph-name="quotedblbase" unicode="&#x201e;" horiz-adv-x="500" 
d="M413 -34q-9 0 -25.5 1.5t-33.5 6.5t-29.5 13.5t-12.5 22.5q21 -1 43.5 -6t41 -4t30.5 12.5t12 42.5q-13 -8 -20 -10t-21 -2q-29 1 -51 14t-35.5 31.5t-17 39.5t4.5 38.5t28 29.5t54 12q27 -3 47 -22.5t32 -46.5t16 -57.5t-1.5 -56t-20.5 -42.5t-41 -17zM154 -34
q-3 0 -13.5 2t-21.5 6t-19.5 9.5t-8.5 13.5q27 0 46.5 1.5t33 8t22 21t13.5 41.5q-8 1 -14 -1.5t-11.5 -6.5t-12 -7t-13.5 -3q-22 -2 -40 8t-30.5 26.5t-18.5 37t-3 39.5t16.5 34t39.5 20q39 9 66 -5t41.5 -40t17.5 -59.5t-6 -64t-30 -53.5t-54 -28zM102 147v-4
q0 -4 1 -10.5t4 -13t7 -11t10 -4.5h4q-1 2 -3 8t-5.5 13t-8 13t-9.5 9zM382 130h-4l17 -17v2q0 1 0.5 1t0.5 1q0 13 -14 13zM335 117q-3 0 -3 -4.5t3 -4.5t3 4.5t-3 4.5zM154 138q-4 -1 -4 -4t4 -4t4 4.5t-4 3.5zM145 160q-3 0 -3 -4.5t3 -4.5t3 4.5t-3 4.5zM378 173h-26
q0 -2 3.5 -5.5t5.5 -3.5t8.5 3.5t8.5 5.5zM119 186q-3 0 -3 -4.5t3 -4.5q4 0 4 4.5t-4 4.5z" />
    <glyph glyph-name="dieresis" unicode="&#xa8;" horiz-adv-x="403" 
d="M77 555q-27 8 -38.5 23t-12 33.5t9 37t25 32.5t35 21t39.5 2q29 -9 41 -25t11.5 -34t-11.5 -35.5t-27 -31t-35.5 -20.5t-36.5 -3zM59 601l20 26l-12 22zM131 645q1 -8 3 -15q2 -6 2.5 -12.5t1.5 -11.5l10 35l-21 38zM267 553q-27 8 -38.5 23t-12 33.5t9 37t25 32.5t35 21
t39.5 2q29 -9 41 -25t11.5 -34t-11.5 -35.5t-27 -31t-35.5 -20.5t-36.5 -3zM249 599l20 26l-12 22zM321 643q1 -8 3 -15q2 -6 2.5 -12.5t1.5 -11.5l10 35l-21 38z" />
    <glyph glyph-name="bar" unicode="|" horiz-adv-x="259" 
d="M19 1037l225 3l-70 -1086q0 -3 -5.5 -4t-13 -0.5t-14.5 1.5t-10 1zM140 -22h9l-9 26v-26zM127 119q-2 0 -1.5 -7t2 -16t3.5 -16t4 -7t1.5 7t-2 16t-3.5 16t-4 7zM135 414q-3 0 -3 -4.5t3 -4.5q4 0 4 4.5t-4 4.5zM135 444q-2 1 -3 -2t-1 -6.5t1 -6.5t3 -2q5 2 5 8.5
t-5 8.5zM187 660q-6 -9 -11.5 -26t-5.5 -26v-181q4 31 7.5 56t5.5 48t3.5 45.5t1.5 48.5q0 4 -0.5 17t-0.5 18zM111 503q-2 1 -3 -1.5t-1 -6.5t1 -7t3 -2q4 2 4 8.5t-4 8.5zM102 564q-2 1 -3 -3t-1 -10t1 -10.5t3 -2.5q4 3 4 13t-4 13zM118 617q-2 2 -3 -4t-1 -13.5t1 -13.5
t3 -4q4 4 4 17t-4 18zM79 708q0 -46 19 -89v78q0 5 -7.5 8t-11.5 3zM46 986q0 -1 0.5 -5.5t0.5 -5.5q1 -5 3 -23.5t4.5 -44t5 -54.5t5 -54.5t4.5 -44.5t3 -23q5 3 12 12t5 14l-16 218q-2 8 -12 9.5t-15 1.5zM128 753q-4 2 -4 -3.5t4 -4.5t4 4t-4 4zM189 977q0 -1 -0.5 -2.5
t-0.5 -2.5q-1 -2 -3.5 -18.5t-6 -40t-8 -50.5t-8 -50.5t-6 -40t-3.5 -18.5q-1 -1 -1 -2v-2v-2q0 -1 1 -2q5 7 11 25.5t13 44t13.5 54t12 55.5t8.5 48.5t3 33.5h-13q-8 0 -19.5 0.5t-22.5 0t-19.5 -4.5t-11.5 -13q0 -2 3 -5.5t5 -3.5t9 4t9 5h13q8 0 15 -1.5t7 -11.5z
M111 805q2 1 5 4t3 5q1 3 1.5 29.5t1.5 58t1.5 58t0.5 29.5h-12z" />
    <glyph glyph-name="Euro" unicode="&#x20ac;" horiz-adv-x="791" 
d="M197 577q33 74 80 138t100 114.5t107.5 85t102.5 48.5t86 5.5t57 -43.5l-33 -23q-20 23 -48 24t-60 -15.5t-66 -49t-65.5 -76t-59 -95.5t-46.5 -109l199 12l-1 -161l-228 12q-2 -11 -2 -20.5v-19.5v-21l221 -7l5 -87l-210 -14q23 -66 70 -93t103 -19t112.5 48t98.5 108
l46 -12q-11 -31 -38.5 -70t-65.5 -78t-84.5 -73t-95.5 -56t-98.5 -27t-93.5 15t-80.5 69t-60.5 135q-2 11 -3.5 22.5t-3.5 22.5l-96 -4l-6 157l106 -14q2 17 5.5 32.5t7.5 32.5l-115 19l2 83zM460 92q-3 -4 -8 -6.5t-11 -4.5t-11 -4.5t-7 -6.5v-5q0 -1 -0.5 -2.5t-0.5 -2.5
q52 18 99 43.5t88 64.5q-18 -6 -36 -19t-37 -26.5t-38 -23t-38 -7.5zM331 253q-7 -9 -16 -19.5t-18 -21.5t-17 -21.5t-12 -17.5q0 -2 0.5 -5.5t0.5 -5.5l71 70zM498 570l-136 -9q-2 -12 -9.5 -20.5t-14.5 -12.5l160 9v33zM97 346h43q0 9 1 14q-5 7 -7 19h-37v-33zM390 170
q-2 0 -12 -9.5t-22 -21.5t-22.5 -24t-13.5 -16l88 65q-3 6 -8 5t-10 1zM148 511q-20 8 -42.5 10t-42.5 2v-18h7q4 1 15.5 2t23.5 1.5t23 1t16 1.5zM347 329q4 -1 30 -3.5t55.5 -6t55 -6.5t30.5 -4h6l1 18q-11 0 -36 1.5t-53.5 3t-53.5 1.5t-35 -4zM223 173q10 4 14.5 16.5
t4.5 23.5v5q-3 -1 -8 -5.5t-9.5 -10t-7.5 -10t-2 -5.5zM380 91q-12 -8 -24 -21t-21 -26q1 0 2.5 -1t2.5 -1q7 -2 13.5 4.5t12 15.5t9.5 17.5t5 11.5zM249 456q-7 -13 -14.5 -28t-14.5 -32l12 -2l24 61zM95 552q20 -1 33 -2.5t22.5 -3.5t16.5 -4.5t14 -4.5q2 4 2.5 7.5
t2.5 7.5h-91zM503 496l-116 -9q-13 0 -22 -1t-21 -7l159 9v8zM274 115q-10 -4 -14.5 -9t-4.5 -16q0 -1 0.5 -4.5t0.5 -4.5q7 3 12.5 11t6.5 18q-1 0 -1 1v2v2zM91 297h49v5q-8 2 -15 2.5t-16 0.5h-18v-8zM321 355q0 -7 1 -10h24.5t46.5 2zM276 348q2 8 2 12l-17 2
q-2 -4 -2.5 -7t-2.5 -7h20zM220 246q5 2 10.5 9t11.5 16l-14 -1q-3 -8 -5 -14t-3 -10zM210 368q-1 -5 -2 -9t-2 -9q1 0 3 -0.5t6 -0.5l6 17zM285 418q-2 -3 -5.5 -9.5t-4.5 -8.5t-2 -5l-2 -6l9 -1q2 8 3.5 16.5t1.5 13.5zM505 360q-3 0 -3 -4t3 -4q2 0 2 4t-2 4zM167 516
q-2 0 -2 -4.5t2 -4.5t2 4.5t-2 4.5zM83 556q-2 0 -2 -4t2 -4t2 4t-2 4zM329 334q-2 0 -2 -4.5t2 -4.5t2 4.5t-2 4.5z" />
    <glyph glyph-name="fraction" unicode="&#x2044;" horiz-adv-x="769" 
d="M9 25q3 2 11.5 18t31 56t63.5 109t109 177t168 260t241 358l161 -77q-159 -205 -273 -354t-192.5 -253t-126 -168t-73 -99.5t-34.5 -48l-9 -12.5zM627 847q-7 -6 -16 -16t-18 -20.5t-16 -19.5t-10 -13l-291 -486q12 10 21.5 23t17.5 26t17.5 25t21.5 21zM632 798l116 109
q-5 11 -18.5 14.5t-24.5 3.5v-18zM636 942q-2 -12 -5.5 -26.5t-11.5 -25.5q1 -1 2 -1h2q16 0 30.5 15.5t25.5 28.5q-4 2 -17 5t-18 4h-8zM69 42q5 -2 14.5 3.5t20.5 13.5q-1 2 -1 9q0 17 9 32t18 29q-9 -6 -19 -19t-18.5 -26.5t-15 -25.5t-8.5 -16zM173 198
q-12 -9 -20.5 -23.5t-14.5 -28.5q12 9 20.5 23.5t14.5 28.5zM216 267q0 -1 4 -1q8 0 11 8t3 14l-1 2v2zM190 224q-2 3 -7 -2t-2 -7q4 -2 7.5 1.5t1.5 7.5zM207 254q-3 0 -3 -4.5t3 -4.5q4 0 4 4.5t-4 4.5zM276 357q-3 0 -3 -4t3 -4q4 0 4 4t-4 4zM285 374q-3 0 -3 -4t3 -4
t3 4t-3 4z" />
    <glyph glyph-name="exclamdown" unicode="&#xa1;" horiz-adv-x="348" 
d="M337.001 50.0557l-306.981 -70.9951l72.9951 744.954l76.9961 6zM173.011 967q26.998 0 36.998 -24.998q9.99902 -24.999 4.49902 -54.9971q-5.49902 -29.998 -26.998 -54.4971q-21.498 -24.498 -58.4961 -23.498q-22.999 1 -34.498 12.999t-13.999 29.498t3.5 37.498
q5.99902 19.999 18.498 37.4971q12.5 17.499 30.999 28.999q18.498 11.499 39.4971 11.499zM233.007 80.0537q0 -11.999 5 -6.49902t10.999 17.499q6 11.999 12.5 25.998q6.49902 13.999 9.49902 19.999q-22.999 -10 -30.498 -23.499q-7.5 -13.499 -7.5 -33.498z
M172.011 286.042q0 3.99902 -1.5 13.499q-1.5 9.49902 -3 20.998q-1.49902 11.5 -2.99902 20.999t-1.5 13.499l-8 -8.99902q-1 -1 -4.5 -12.999q-3.49902 -12 -7.49902 -28.499t-8 -33.4971q-3.99902 -16.999 -5.99902 -27.999q-1 -1 -1 -7.49902v-9.5v-8.99902q0 -7 1 -9
l42.9971 68.9961v9zM137.013 407.034q8 17.999 12 35.498q3.99902 17.499 5.49902 34.498t1.5 34.9971v36.998v14.499q0 10.5 -0.5 21.999t-0.5 21.998v14.5q-5.99902 -26.999 -9.99902 -46.998q-4 -19.998 -6 -37.9971t-2.5 -36.498t-0.5 -42.4971v-10
q0 -6.99902 0.5 -15.499q0.5 -8.49902 0.5 -15.499v-9.99902zM80.0166 95.0527q0 15 3.5 23.999q3.49902 8.99902 7.99902 17.499q4.5 8.49902 8 18.499q3.49902 9.99902 3.49902 25.998h-13.999l-3.49902 -11.499q-3.5 -11.499 -7.5 -28.498t-7.99902 -36.498
q-4 -19.499 -7 -34.498q0 -2 -0.5 -9.99902q-0.5 -8 -0.5 -10q15.999 0 23.499 7q7.49902 6.99902 12.499 21.999q-12 -1 -14.999 3.49902q-3 4.5 -3 12.499zM276.005 105.053q0 12.999 -5.5 26.998t-12.499 24.999q-12.999 -9 -16.499 -23.499t-3.5 -28.498h37.998z
M243.007 200.047q0 16.999 -2 34.498t-9 34.498l-7.99902 -9v-59.9961h18.999zM124.014 25.0576q17.999 5 30.998 20.499t20.999 31.498q-7 -2 -15.999 -7q-9 -5 -17.499 -11.999q-8.49902 -7 -13.999 -14.499q-5.5 -7.5 -5.5 -14.499l1 -2v-2zM133.014 846.008
q7.99902 0 13.999 7.99902q5.99902 8 9.99902 18.999t5.5 21.498q1.5 10.5 1.5 16.5q0 1.99902 -0.5 6.49902t-0.5 6.5l-33.998 -77.9951h4zM133.014 111.053q6.99902 5.99902 15.499 3.99902q8.49902 -2 16.499 -4.99902q7.99902 -3 14.499 -4q6.49902 -1 9.49902 7.99902
q-5 -3.99902 -14.499 -2q-9.49902 2 -18.499 5q-8.99902 3 -15.999 4q-6.99902 1 -6.99902 -5v-4.99902zM163.012 200.047q-13.999 -9.99902 -24.499 -26.998q-10.499 -16.999 -10.499 -33.998v-4t1 -4zM207.009 355.037q0 16.999 -2 28.498q-2 11.5 -6.99902 31.498
v-68.9951l7.99902 -8q0 2 0.5 8.5q0.5 6.49902 0.5 8.49902zM180.011 157.05q8.99902 3.99902 8.99902 12.999v4q-8.99902 -5 -8.99902 -13v-3.99902zM146.013 648.02q3.99902 -1 3.99902 4.5q0 5.49902 -3.99902 4.49902q-4 -1.99902 -4 -4.99902t4 -4zM172.011 213.046
q3 0 3 4t-3 4t-3 -4t3 -4z" />
    <glyph glyph-name="questiondown" unicode="&#xbf;" horiz-adv-x="684" 
d="M577.008 957q25.998 -9.99902 37.4971 -27.498t12.499 -36.998q1 -19.498 -6.99902 -38.9971q-8 -19.499 -23.499 -33.498t-35.998 -19.999q-20.498 -6 -44.4971 0q-39.9971 20.999 -47.9971 51.9971q-7.99902 30.998 4.5 57.9961q12.499 26.999 41.4971 42.498
q28.999 15.499 62.9971 4.49902zM595.006 871.006q-24.998 -22.999 -43.9971 -25.999q-18.999 -2.99902 -31.498 1.5q-12.499 4.5 -17.999 10q-5.49902 5.49902 -2.5 0.5q0 -11 6.5 -19.999q6.5 -9 19.499 -9q22.998 0 41.9971 11.5q18.999 11.499 27.998 31.498z
M576.008 750.013l39.9971 -318.98q-37.998 9 -84.9951 1.5q-46.9971 -7.49902 -94.9941 -25.998t-92.9941 -47.4971t-79.4951 -63.4961t-53.4971 -72.4961q-18.998 -37.9971 -14.999 -76.9951q2 -23.999 21.999 -45.9971q19.999 -21.999 51.4971 -37.998t70.4951 -25.498
q38.998 -9.5 78.4951 -9q39.498 0.5 76.4961 12q36.9971 11.499 62.9961 37.4971q25.998 25.999 38.4971 67.9961q12.5 41.9971 3.5 102.994l48.9971 5.99902q10.999 -80.9951 -9.49902 -134.991q-20.499 -53.9971 -62.4961 -85.9951q-41.998 -31.998 -99.4941 -42.9971
q-57.4971 -11 -118.493 -5t-120.492 26.998q-59.4971 20.999 -105.994 53.4971t-74.4951 73.9951q-27.998 41.498 -25.998 88.4951q2.99902 57.9961 21.498 101.494q18.499 43.4971 47.9971 75.9951t66.9961 55.4961q37.498 22.999 77.9951 39.498
q40.498 16.499 81.9951 28.998t78.4951 22.499l104.994 197.987h64.9961zM520.011 673.018q3 0 3 4t-3 4q-4 0 -4 -4t4 -4zM511.012 647.02q2.99902 0 2.99902 4.49902q0 4.5 -2.99902 4.5q-3 0 -3 -4.5q0 -4.49902 3 -4.49902zM554.009 634.02l-16.999 -59.9961h16.999
v59.9961zM485.013 574.023q7 11 12.499 24.499q5.5 13.499 5.5 26.498q0 2 -0.5 5t-0.5 3.99902q-1 -2.99902 -3.5 -10.499q-2.49902 -7.49902 -5.49902 -15.499q-3 -7.99902 -5 -15.499q-2 -7.49902 -3 -10.499v-4v-4zM451.015 578.023q3 0 3 4.5q0 4.49902 -3 4.49902
q-3.99902 0 -3.99902 -4.49902q0 -4.5 3.99902 -4.5zM442.016 561.024q3 0 3 4t-3 4t-3 -4t3 -4zM546.009 539.025h-43.9971q5 -1.99902 17.999 -4.99902t16.999 -3h4h4.99902v7.99902zM554.009 518.027q4 0 4 4q0 3.99902 -4 3.99902q-3 0 -3 -3.99902q0 -4 3 -4z
M563.008 487.029l-8.99902 -8h8.99902v8zM321.023 483.029q3.99902 0 3.99902 4.5q0 4.49902 -3.99902 4.49902q-3 0 -3 -4.49902q0 -4.5 3 -4.5zM304.024 474.029q3.99902 0 3.99902 4.5t-3.99902 4.5q-3 0 -3 -4.5t3 -4.5zM278.025 470.03q-1 -4 4.5 -4t4.5 4
q-1 3.99902 -4 3.99902t-5 -3.99902zM425.017 462.03q-3 -2 5.5 -3q8.49902 -0.999023 19.998 -0.999023q11.5 0 20.499 0.999023q9 1 6 3t-10.5 3q-7.49902 1 -15.499 1q-7.99902 0 -15.499 -1q-7.49902 -1 -10.499 -3zM214.029 401.034q6 0 10.5 2
q4.49902 2 10.499 6.99902h-4q-5.99902 0 -10.499 -1.99902q-4.5 -2 -11.5 -7h5zM347.021 401.034h-16.999v-7.99902zM244.027 341.038q22.999 8.99902 34.498 16.499q11.499 7.49902 11.499 32.498q-19.998 0 -29.998 -16.499q-9.99902 -16.499 -15.999 -32.498z
M212.029 354.037v4q0 5.99902 -0.5 6.49902t-1.5 -1q-1 -1.49902 -1.49902 -3.49902q-0.5 -2 0.499023 -2q-1.99902 -7 1.5 -8.5q3.5 -1.5 6.5 -1t3 3t-8 2.5zM100.036 147.05q7 13.999 6.5 27.498t-3 26.999q-2.5 13.499 -5 28.998q-2.49902 15.499 -1.49902 34.498
q0 2.99902 4.49902 15.999q4.5 12.999 9.5 28.498q4.99902 15.499 9.49902 28.498t5.5 15.999v4v4q-23.999 -25.999 -42.498 -56.9971q-18.498 -30.998 -18.498 -66.9961q0 -25.998 6.99902 -50.4971q7 -24.498 27.998 -40.4971zM204.03 319.039q-2 -4 4 -4
q5.99902 0 3.99902 4q-1 4 -3.99902 4q-3 0 -4 -4zM187.031 280.042q0 7.99902 -6 10.999q-5.99902 3 -12.999 3q-12.999 0 -14.999 -12.5q-2 -12.499 -2 -23.498q0 -8 1.5 -12.499q1.5 -4.5 8.5 -12.499q10.999 6.99902 18.498 21.498q7.5 14.499 7.5 25.499z
M161.033 112.052q-1 4 -4 17.499t-5 17.499q-2 -3 -5 -12.999q-2.99902 -10 -3.99902 -12.999v-5q0 -10.999 17.999 -11.999v3.99902v4z" />
    <glyph glyph-name="dotlessi" unicode="&#x131;" horiz-adv-x="262" 
d="M104 0q-2 20 -8.5 57.5t-18 100.5t-27.5 155.5t-36 222.5q92 2 138.5 3.5t65 2l18.5 0.5v0l-82 -542h-50zM127 87q3 35 2 69.5t-5 68.5l-11 -3zM154 247q-2 1 -2.5 -3.5t0 -9.5t2 -9.5t3.5 -2.5q3 3 2 13t-5 12zM95 227q5 11 11 26t4 28l-20 -4zM160 278q-3 -1 -2.5 -4.5
t3.5 -3.5q3 1 2.5 5t-3.5 3zM49 502q0 -3 1 -10t2 -15.5t2 -15.5t1 -10l5 -32.5t6.5 -38t6 -32l2.5 -13.5l10 -7q1 3 4 9.5t6.5 14t6.5 14.5t5 10v3q-2 12 -7 19t-10.5 12.5t-10.5 12t-6 17.5q-2 17 1.5 33.5t1.5 33.5zM189 431q-3 -1 -2.5 -5.5t3.5 -3.5t2.5 5.5t-3.5 3.5z
M148 496h4q5 2 7.5 4t4.5 8z" />
    <glyph glyph-name="caron" unicode="&#x2c7;" horiz-adv-x="367" 
d="M197 592l130 216l22 -17l-159 -258l-185 223l95 64zM140 645q2 0 2 2.5t-2 2.5t-2 -2.5t2 -2.5zM77 764q0 -6 6 -8q5 2 5 10q0 1 -0.5 2.5t-0.5 2.5q-10 -2 -10 -7zM108 735q1 2 -1 4.5t-4 1.5t1 -4.5t4 -1.5zM139 689q-2 2 -8.5 11.5t-12.5 14.5q2 -8 9 -14.5t12 -11.5z
" />
    <glyph glyph-name="hungarumlaut" unicode="&#x2dd;" horiz-adv-x="544" 
d="M22 533l213 209l71 -115zM273 664q-29 -17 -42 -25t-22.5 -14.5t-22 -14t-40.5 -23.5h9l118 51v26zM113 603l-9 -9h9q2 0 11 7t21.5 17t28 21t30.5 20zM242 530l213 209l71 -115zM493 661q-29 -17 -42 -25t-22.5 -14.5t-22 -14t-40.5 -23.5h9l118 51v26zM333 600l-9 -9h9
q2 0 11 7t21.5 17t28 21t30.5 20z" />
    <glyph glyph-name="ring" unicode="&#x2da;" horiz-adv-x="298" 
d="M81 550q-39 14 -55 39.5t-15 55t17 58.5t41 50.5t56.5 30.5t64.5 -2q43 -26 59.5 -56.5t13.5 -59.5t-21.5 -54.5t-45 -42.5t-57 -23t-58.5 4zM165 748q-9 7 -23.5 4t-29.5 -13t-27.5 -25.5t-18 -33t-2 -35.5t22.5 -34q9 -5 30.5 7t39.5 33t24 47t-16 50zM185 618
q17 12 24.5 28t9 33t0 32.5t-1.5 25.5q-4 -11 -7 -31.5t-6.5 -40.5t-8 -34.5t-10.5 -12.5z" />
    <glyph glyph-name="ogonek" unicode="&#x2db;" horiz-adv-x="246" 
d="M217 -136q-34 -38 -64 -47.5t-53.5 0t-40.5 34t-24.5 55t-5 62.5t17.5 58l25 -8q-7 -18 -2.5 -46t19.5 -50.5t39.5 -33t59.5 5.5zM74 -79q9 -19 21 -32.5t25 -22.5t25.5 -14t22.5 -7q-10 6 -27 16.5t-32.5 22t-26.5 22t-8 15.5z" />
    <glyph glyph-name="breve" unicode="&#x2d8;" horiz-adv-x="289" 
d="M266 670q-7 -43 -28 -68t-49 -34.5t-58.5 -6t-55.5 17.5t-41.5 37t-15.5 51l45 3q6 -19 26 -33t44.5 -17t49 9t41.5 46zM65 617q10 -18 27.5 -27.5t37 -11t38 5.5t32.5 22q-17 -11 -41.5 -14t-46 -0.5t-36 9.5t-11.5 16z" />
    <glyph glyph-name="dotaccent" unicode="&#x2d9;" horiz-adv-x="187" 
d="M70 549q-25 5 -37.5 19.5t-15 32t3 36t17 32.5t27.5 21.5t34 2.5q42 -9 57 -36t8.5 -54t-31.5 -45t-63 -9zM57 583l16 -10l-24 58zM86 656q0 -2 3.5 -5.5t5.5 -3.5q3 0 13 3.5t13 5.5h-35z" />
    <glyph glyph-name="tilde" unicode="&#x2dc;" horiz-adv-x="476" 
d="M39 543q-5 79 18 132t64 66.5t95.5 -19t112.5 -123.5q23 -37 44 -41t33 11t11.5 42t-18.5 51h35q20 -31 16.5 -63.5t-23.5 -53.5t-53 -22.5t-70 29.5q-47 39 -81.5 55t-59 16t-40 -11t-24 -25t-11 -27t-1.5 -17h-48zM187 680q1 -3 8 -9t15.5 -13.5t18 -16t17.5 -16.5
q-5 24 -17.5 40.5t-26 24t-24.5 6.5t-11 -11q0 -3 3 -3t7 0.5t7 0.5t3 -3zM116 672q3 5 9.5 8t14 3.5t14 -2.5t9.5 -11l-29 38q-5 -6 -10.5 -18t-7.5 -18zM167 707q-2 0 -2 -4.5t2 -4.5t2 4.5t-2 4.5z" />
    <glyph glyph-name="yen" unicode="&#xa5;" horiz-adv-x="668" 
d="M339 577l10 40q-86 65 -145.5 110.5t-98 75t-59 46t-30 24.5t-11 10l-1.5 2l294 100l163 -269l160 275l35 -25l-176 -300l7 -85l95 3l-1 -161l-82 13l5 -60l68 -9l5 -87l-65 -3l23 -277l-331 9l61 258l-89 -4l-6 157l128 -17l15 64l-139 23l2 83zM384 348q1 4 1.5 7
t1.5 7l-31 4l-22 -97h-10l-59 -182l1 -27q18 1 34 25t28 54.5t19.5 59.5t9.5 40q1 2 4.5 12.5l6.5 19.5l-24 -1q4 12 9 25.5t9.5 25.5t8 19.5t5.5 7.5h8zM142 900q1 -2 4 -4.5t5 -3.5q12 -8 31.5 -18.5t38 -21t32 -17.5t14.5 -7h8q-6 9 -17 24t-24 30t-26 26t-23 11
q-11 0 -24.5 -4t-18.5 -15zM465 141q2 23 6.5 52.5t7.5 56.5q-18 -26 -33 -55.5t-13 -55.5zM392 390q2 17 5 32.5t5 29.5l4 79l-41 -137zM277 949q6 -12 14 -27.5t18 -31t20.5 -29t22.5 -20.5v8l-58 101zM227 346h57l1 2q-8 4 -13.5 12t-7.5 19h-37v-33zM529 561h-37
q-1 -4 -3 -10l2 -23h38v33zM278 511q-20 8 -42.5 10t-42.5 2v-18h7q4 1 15.5 2t23.5 1.5t23 1t16 1.5zM230 552q23 -2 37 -4t23.5 -4.5t18 -5.5t20.5 -5l4 19h-103zM556 318q-13 0 -25 4.5t-24 7.5l1 -13q13 -5 24.5 -10.5t16.5 -6.5h6zM221 297h51l1 4q-8 3 -16 3.5
t-18 0.5h-18v-8zM384 127q-9 -2 -9 -11.5v-14.5q0 -2 1 -8.5t1 -8.5q7 8 7.5 14.5t0.5 15.5q-1 2 -1 6.5v6.5zM534 487h-17h-12t-10 -1v-7h39v8zM443 606q-9 -9 -7 -26h17q-4 8 -7 16t-3 10zM327 237l7 32l10 1q-6 -14 -10.5 -24t-6.5 -9zM65 866q1 -5 5 -9t9 -3
q1 0 2.5 0.5t2.5 0.5l-19 16v-5zM287 768q1 2 -2 3t-7 1t-6.5 -1t-1.5 -3q2 -4 8.5 -4t8.5 4zM92 846q7 -9 14 -8h4q-5 9 -13 8h-5zM331 133q16 10 21 30zM469 408q-3 -14 -3 -27l6 -1q-2 10 -2 12zM155 814q1 5 -4.5 4.5t-4.5 -5.5q1 -4 4 -3.5t5 4.5zM361 832
q-4 1 -4 -4.5t4 -4.5q5 2 5 5t-5 4zM173 807q0 4 -5.5 3.5t-3.5 -4.5q1 -4 4.5 -3.5t4.5 4.5zM226 783q1 4 -4.5 3.5t-4.5 -4.5t4 -3.5t5 4.5zM304 760q1 4 -4.5 4t-4.5 -4q2 -4 5.5 -4t3.5 4zM199 795q-4 -1 -3.5 -5.5t4.5 -3.5q3 0 2.5 4.5t-3.5 4.5zM137 822q1 4 -4.5 4
t-3.5 -4q1 -4 4 -4t4 4zM251 775q2 4 -4 3.5t-4 -3.5q2 -4 5 -4t3 4zM284 824q-3 0 -3 -4.5t3 -4.5q3 1 3 5.5t-3 3.5zM181 802q-3 0 -3 -4t3 -4q4 0 4 4t-4 4zM119 834q-3 0 -3 -4.5t3 -4.5t3 4.5t-3 4.5zM536 351q-3 0 -3 -4t3 -4q2 0 2 4t-2 4zM297 516q-2 0 -2 -4.5
t2 -4.5t2 4.5t-2 4.5zM506 349v-3h8t9 1zM213 556q-2 0 -2 -4t2 -4t2 4t-2 4zM455 532q-1 0 -1 -1l3 -6q2 2 1 4.5t-3 2.5zM469 349q2 0 4 4h-5q0 -3 1 -4zM409 531h2v4zM473 481q-1 -1 -3 -1v-2zM470 529q-1 0 -2 -1h3z" />
    <glyph glyph-name="cedilla" unicode="&#xb8;" horiz-adv-x="383" 
d="M97 23h73l-5 -38q67 6 107.5 -17t57 -59t10.5 -78.5t-33 -75t-73.5 -48.5t-110.5 1q-19 11 -32 28.5t-19 36.5t-5 37.5t9 30.5t24 16t39 -5q-20 -2 -27.5 -16t-5 -30.5t13 -32t25.5 -21.5q29 2 48 15.5t26.5 32t4 40.5t-19 41t-43.5 33t-69 17zM252 -118
q-1 -11 -0.5 -25.5t0.5 -29.5t-2.5 -30t-8.5 -27q26 20 31 39.5t0 51.5q0 3 -9.5 10t-10.5 11zM188 -45q11 -9 29 -22.5t36 -13.5q1 0 4 0.5t5 0.5q-12 14 -31 24.5t-36 11.5q-1 0 -3.5 -0.5t-3.5 -0.5zM271 -89q3 -7 8.5 -14t11.5 -11v2q0 1 0.5 1t0.5 1q-1 6 -5 14t-12 8
h-2q-1 0 -2 -1z" />
    <glyph glyph-name="macron" unicode="&#xaf;" horiz-adv-x="431" 
d="M396 673l2 -101l-384 -24l-2 134zM62 579h57q-12 6 -20.5 7t-20.5 1h-16v-8zM301 612q4 -1 14.5 -1.5t22 -1t22 -1.5t14.5 -2h6l1 17q-20 0 -40.5 -2t-39.5 -9zM284 616q-2 0 -2 -4t2 -4t2 4t-2 4zM67 629h57q-7 4 -14 12t-9 21h-34v-33zM136 633q-2 0 -2 -4.5t2 -4.5
t2 4.5t-2 4.5zM168 633q1 0 15.5 -1t22.5 -1q31 0 45.5 2.5t26 6.5t26.5 7.5t47 5.5h-195zM363 657q-3 0 -3 -4.5t3 -4.5q2 0 2 4.5t-2 4.5z" />
    <glyph glyph-name="germandbls" unicode="&#xdf;" horiz-adv-x="661" 
d="M206 -59l-60 8q-23 153 -43.5 275t-35 218.5t-22.5 170t-7 129.5t13 97.5t37 74.5q15 19 45.5 37t71.5 31.5t88 20.5t94 4.5t90.5 -17.5t77.5 -45t54 -77t21 -115q0 -45 -17 -86.5t-41.5 -75t-51 -58t-44.5 -35.5q61 12 93.5 3.5t47.5 -25.5t18 -36t4 -27q1 -7 1 -26.5
t-8 -47t-27.5 -61.5t-58 -70.5t-99.5 -74t-151 -72.5l-9 34q27 9 60 24t66.5 35.5t65 47.5t55 60.5t36 74t9.5 88.5q-12 24 -25.5 34.5t-37.5 6.5t-62.5 -22.5t-99.5 -51.5l-26 43q93 53 143 105.5t72.5 95.5t25.5 71t3 33q-2 32 -19.5 64.5t-44.5 58t-61.5 40.5t-69.5 13
t-68.5 -24.5t-59.5 -73.5q-24 -46 -37 -111t-18 -140t-4.5 -157t4 -163t8 -156.5t6.5 -138.5zM138 200q3 -38 7 -40t8 18t7.5 55.5t6 72.5t3 69t-0.5 46l-22 -171zM214 807q-16 -8 -25.5 -28.5t-9.5 -35.5l-10.5 -15t-23 -33t-23 -33l-10.5 -15q11 2 28.5 22.5t34 46t28 50
t11.5 33.5v8zM130 797q7 4 25 22.5t37 41.5t34 44.5t15 30.5h-10zM112 483q-7 -31 -8 -43t2 -9.5t9 16.5t14 33t16 41t15 42zM137 847q-9 -11 -18.5 -16.5t-18 -10.5t-14 -13.5t-5.5 -26.5q18 3 22.5 4.5t7 7t6.5 18t20 37.5zM570 476q6 -1 11 -15.5t8.5 -32.5t5.5 -34
t3 -20q3 0 4 6.5t0.5 14.5t-1.5 15t-1 9q0 8 -1.5 18t-5 18.5t-8.5 14.5t-12 6h-3zM539 873q0 -1 8 -14.5t17.5 -28.5t17.5 -26t8 -7q3 6 -4.5 19.5t-18 27t-19.5 23t-9 6.5zM67 678q-2 -12 4.5 -8.5t15.5 14t19 23.5t16 19l-44 -36zM599 737q-4 0 -4 -4.5t4 -4.5q3 0 3 4.5
t-3 4.5z" />
    <glyph glyph-name="thorn" unicode="&#xfe;" horiz-adv-x="570" 
d="M23 988l249 -14q-10 -110 -16.5 -179t-10.5 -109t-5.5 -56.5t-2 -20.5t-0.5 -2.5t0 -1.5q28 22 51.5 40.5t47.5 31t52 18t65 1.5q51 -5 79 -37t22 -83q-1 -26 -11.5 -62t-30 -76.5t-49 -82t-67.5 -79t-86 -67.5t-104 -47l8 -168h-55zM210 218q39 0 79.5 28.5t75 70.5
t59.5 91t34 90q8 45 -2 73t-31 40.5t-50 10t-58 -18.5t-55 -45t-42 -70zM149 454q3 -19 6 -50t5.5 -67.5t5 -74.5t4 -69.5t2.5 -53t1 -24.5q1 5 0.5 28.5t-1.5 56.5t-3 70.5t-3.5 70.5t-2.5 56.5t0 28.5l2.5 8.5t6 19t6 19.5t2.5 11q0 5 1 8q0 3 1 6q-2 4 -11.5 8.5
t-13.5 3.5q-1 -3 -2 -11t-2.5 -17t-2.5 -17t-1 -11zM134 622q-2 -14 -1 -24.5t4 -25.5q2 3 6.5 12.5t4.5 12.5q3 7 8.5 23.5t12 35t12 35.5t7.5 24q-12 -5 -21 -15t-16 -23.5t-11.5 -28t-5.5 -26.5zM479 627q-3 -1 -7 5.5t-8 13.5t-6.5 12t-2.5 2q-4 1 -2 -11t7 -30t13 -39
t15 -37.5t12 -25t5 -2.5t-5.5 30t-20.5 73v9zM196 626q-2 -5 -6 -16.5t-8.5 -25l-8.5 -25.5t-5 -16v-8q17 8 20 25t5 32q1 4 1.5 17t1.5 17zM236 948q-12 2 -17 -6.5t-6 -18.5l20 -3zM120 897q-3 -3 -5.5 -12t-4.5 -19.5t-3.5 -20.5t-1.5 -13q0 -1 -0.5 -1t-0.5 -1v-2
q5 5 8.5 9t4.5 11q0 13 1 24q1 9 1.5 16.5t0.5 8.5zM144 789q-13 -13 -17.5 -22.5t-6.5 -23.5v-13q1 3 4.5 10l7.5 15t7 15t4 10v2q0 1 0.5 1t0.5 1v5zM409 667h-8t-8 -2q-1 -8 -3.5 -16t2.5 -8q4 -1 7 2t5 7t3.5 9t1.5 8zM511 576l11 -1q1 11 0.5 23t-7.5 21zM175 759
q10 5 14.5 15.5t10.5 20.5l-24 -28zM174 920q-3 1 -4 -4t3 -5t4.5 3.5t-3.5 5.5zM194 861q-3 1 -3.5 -3.5t2.5 -5.5q3 0 3.5 4.5t-2.5 4.5zM212 810q1 0 2 1l20 24z" />
    <glyph glyph-name="Thorn" unicode="&#xde;" horiz-adv-x="613" 
d="M165 661l-18 -264q16 38 54.5 69t87.5 49t101.5 20t96 -17t71.5 -63.5t28 -118.5q-3 -79 -38.5 -145.5t-92.5 -111t-131 -63.5t-154 -2l27 -395l-212 -7l82 1028zM234 39q40 0 73.5 23.5t59 61t43 84t25 93t4.5 87.5t-18.5 67t-43.5 32t-70 -17q-12 -6 -35 -21t-46 -52
t-40 -102.5t-17 -172.5q0 -39 12 -61t53 -22zM58 -270q6 11 12 26.5t11 31.5t8.5 31t3.5 27v4q-17 -23 -26 -53t-9 -59v-8zM108 -257q0 9 3 1.5t7.5 -18t9 -19.5t8.5 -3l1 49q0 -3 -4 -4.5t-9 -3t-9.5 -2t-6.5 -0.5zM90 545q-2 -8 -4 -30.5t-3 -52t-1.5 -63t-1 -63
t-0.5 -51.5v-29v-13l17 17zM480 465q0 11 -2.5 18.5t-16.5 7.5q-5 0 -10 -0.5t-7 -8.5l35 -34q0 2 0.5 8.5t0.5 8.5zM119 -227q16 4 17 18t1 25q0 3 -0.5 13t-0.5 13q-9 -13 -13.5 -29t-4.5 -32q0 -1 0.5 -4t0.5 -4zM541 420q0 5 -6.5 8t-10.5 3v-41q5 0 8 4t5 9.5t3 10
t1 6.5zM489 204q4 -1 4 4.5t-4 4.5q-4 -2 -4 -5t4 -4zM67 -9q5 0 10 12t9.5 30t7.5 39t5 39t1.5 30t-3.5 12q-1 0 -4 -12t-7 -30t-8 -39t-6.5 -39t-4 -30t-0.5 -12zM42 -295q3 0 3 4.5t-3 4.5t-3 -4.5t3 -4.5z" />
    <glyph glyph-name="commaaccent" horiz-adv-x="237" 
d="M73 -250q8 5 24.5 11t32.5 15t26 21t6 30q-12 -9 -29.5 -10.5t-33 4.5t-27 21t-12.5 39q-1 19 6 36.5t18.5 30.5t27 19.5t32.5 5.5q35 -3 53.5 -24t23.5 -49t-3.5 -58.5t-28 -54t-49 -35.5t-67.5 -2zM113 -115l3 -6q2 -5 4 -15l26 4l-21 38zM170 -121q0 3 4 11t7 16
t3 13.5t-7 3.5q-2 0 -3 -8t-2 -16.5t-1.5 -15t-0.5 -4.5z" />
    <glyph glyph-name="Aacute" unicode="&#xc1;" horiz-adv-x="1415" 
d="M30 184q0 57 29.5 111t76 95.5t103.5 66.5t112 25q40 3 67.5 -12.5t41.5 -39.5t14.5 -53.5t-13.5 -54.5t-43 -41.5t-73 -15.5q-29 0 -43 12.5t-16 29t6 34t22 28t33 9.5t39 -20q0 -7 -5.5 -13t-15.5 -6q-14 12 -26.5 8t-18.5 -14.5t-1.5 -22t25.5 -13.5q32 0 52.5 13
t30 32t9 40t-10.5 38t-29 26t-45 3q-50 0 -101 -22t-92.5 -59t-68 -85.5t-26.5 -100.5q0 -42 11 -81.5t33.5 -70t56 -49t78.5 -18.5q49 4 96.5 43.5t90 107.5t79.5 161.5t67.5 206t52 240.5t33.5 266h29q6 -20 15.5 -57t21.5 -83.5t26 -96.5t28 -95.5t27 -81t23 -52.5
l353 242l44 -49l-377 -242q8 -29 35.5 -70t66.5 -85t84.5 -85.5t89 -71.5t81 -44t59.5 -1q27 7 45.5 20.5t30 30.5t16.5 37.5t6 40.5q-3 39 -20.5 70t-42.5 51.5t-54.5 31t-56.5 8.5t-48.5 -16.5t-30.5 -42.5q0 -13 11 -19.5t23.5 -6t23.5 7t11 19.5l27 -2q2 -31 -18 -47
t-45 -16.5t-47.5 14.5t-24.5 46q6 39 30.5 63.5t59 33.5t74 2t74.5 -30.5t61 -63.5t33 -97q0 -56 -23.5 -105t-63 -86.5t-91 -59t-106.5 -21.5q-48 9 -85.5 35.5t-67 64.5t-53 84t-43.5 94.5t-38.5 95.5t-38.5 88l-97 -65q-9 -36 -21 -83.5t-30 -98t-43 -100.5t-60 -90.5
t-82 -69t-108 -35.5q-30 -6 -66.5 -1.5t-72.5 18.5t-70 38t-59.5 58t-41 77t-14.5 95zM306 -61q-4 1 -4 -4t4 -4q3 2 3 4.5t-3 3.5zM475 20q-7 -4 -24 -15.5t-36.5 -24.5t-36.5 -25t-24 -16q-5 -3 -8 -8h24q15 0 33 7t34.5 18.5t27.5 27t11 32.5l-1 2v2zM1073 28
q0 -2 3.5 -5t5.5 -3q6 0 14.5 4.5t16.5 11t14.5 13t10.5 11.5q-3 -1 -11.5 -4t-17.5 -7t-16.5 -7.5t-10.5 -4.5q-2 -1 -5 -4t-4 -5zM1242 78q-29 0 -48 -25l65 7l8 9q-2 8 -11 8.5t-14 0.5zM1033 69l16 16h-2q-1 0 -2 1q-5 0 -9.5 -2.5t-11.5 -6.5zM500 105q-3 0 -3 -4t3 -4
q2 0 2 4t-2 4zM1158 110q-8 0 -12 -9l16 8h-2q-1 0 -2 1zM524 117q-2 4 -6.5 -1t-1.5 -7t6.5 1.5t1.5 6.5zM1005 133q-9 0 -12 -8h3q9 0 13 8h-4zM605 190q-21 -9 -28.5 -23t-12.5 -34q1 0 4 -1t5 -1q7 0 12.5 7t9 17t6 19.5t4.5 15.5zM1073 133h4q8 0 18.5 1.5t10.5 11.5
q0 7 -8 12zM1017 182q1 -1 2 -1h2h2q1 0 1 1q3 1 12.5 4t12.5 4l-25 24zM573 303l-3 -8.5t-7 -20t-8 -24t-7 -20.5q-1 -1 -1 -2v-2v-2q0 -1 1 -2q8 5 14 15t9.5 22t5.5 23.5t3 20.5h-7zM984 250q-3 0 -3 -4t3 -4q4 0 4 4t-4 4zM944 254l16 17l-8 8zM968 266q-3 0 -3 -3.5
t3 -3.5t3 3.5t-3 3.5zM612 298q0 -6 2 -12.5t11 -6.5t14.5 7.5t8.5 18t4 21t1 17.5v9q-25 -4 -33 -18.5t-8 -35.5zM879 347q0 -8 2 -18t6 -20t10.5 -18t14.5 -12h-8l32 16l-57 57v-5zM637 416q0 -1 4 -1q18 0 27.5 22t13.5 50.5t4 56v37.5v9.5t-0.5 13.5t-0.5 13.5v8.5z
M718 473l58 44q0 1 -2 5t-7.5 18t-15.5 42t-26 76zM678 820q0 6 0 -8t0.5 -40t2 -60.5t4.5 -69.5l9 16v8t0.5 15.5t0.5 17v13.5v18.5t-0.5 24.5t-0.5 21.5v11.5q-1 8 -4 20t-5 12h-7zM1178 723q-26 -11 -53 -26t-43 -39q5 3 17.5 10t27 14.5t27 14.5t17.5 10q8 6 8 12l-1 2
v2zM565 992l213 209l71 -115zM816 1123q-29 -17 -42 -25t-22.5 -14.5t-22 -14t-40.5 -23.5h9l118 51v26zM656 1062l-9 -9h9q2 0 11 7t21.5 17t28 21t30.5 20z" />
    <glyph glyph-name="Abreve" unicode="&#x102;" horiz-adv-x="1415" 
d="M30 184q0 57 29.5 111t76 95.5t103.5 66.5t112 25q40 3 67.5 -12.5t41.5 -39.5t14.5 -53.5t-13.5 -54.5t-43 -41.5t-73 -15.5q-29 0 -43 12.5t-16 29t6 34t22 28t33 9.5t39 -20q0 -7 -5.5 -13t-15.5 -6q-14 12 -26.5 8t-18.5 -14.5t-1.5 -22t25.5 -13.5q32 0 52.5 13
t30 32t9 40t-10.5 38t-29 26t-45 3q-50 0 -101 -22t-92.5 -59t-68 -85.5t-26.5 -100.5q0 -42 11 -81.5t33.5 -70t56 -49t78.5 -18.5q49 4 96.5 43.5t90 107.5t79.5 161.5t67.5 206t52 240.5t33.5 266h29q6 -20 15.5 -57t21.5 -83.5t26 -96.5t28 -95.5t27 -81t23 -52.5
l353 242l44 -49l-377 -242q8 -29 35.5 -70t66.5 -85t84.5 -85.5t89 -71.5t81 -44t59.5 -1q27 7 45.5 20.5t30 30.5t16.5 37.5t6 40.5q-3 39 -20.5 70t-42.5 51.5t-54.5 31t-56.5 8.5t-48.5 -16.5t-30.5 -42.5q0 -13 11 -19.5t23.5 -6t23.5 7t11 19.5l27 -2q2 -31 -18 -47
t-45 -16.5t-47.5 14.5t-24.5 46q6 39 30.5 63.5t59 33.5t74 2t74.5 -30.5t61 -63.5t33 -97q0 -56 -23.5 -105t-63 -86.5t-91 -59t-106.5 -21.5q-48 9 -85.5 35.5t-67 64.5t-53 84t-43.5 94.5t-38.5 95.5t-38.5 88l-97 -65q-9 -36 -21 -83.5t-30 -98t-43 -100.5t-60 -90.5
t-82 -69t-108 -35.5q-30 -6 -66.5 -1.5t-72.5 18.5t-70 38t-59.5 58t-41 77t-14.5 95zM306 -61q-4 1 -4 -4t4 -4q3 2 3 4.5t-3 3.5zM475 20q-7 -4 -24 -15.5t-36.5 -24.5t-36.5 -25t-24 -16q-5 -3 -8 -8h24q15 0 33 7t34.5 18.5t27.5 27t11 32.5l-1 2v2zM1073 28
q0 -2 3.5 -5t5.5 -3q6 0 14.5 4.5t16.5 11t14.5 13t10.5 11.5q-3 -1 -11.5 -4t-17.5 -7t-16.5 -7.5t-10.5 -4.5q-2 -1 -5 -4t-4 -5zM1242 78q-29 0 -48 -25l65 7l8 9q-2 8 -11 8.5t-14 0.5zM1033 69l16 16h-2q-1 0 -2 1q-5 0 -9.5 -2.5t-11.5 -6.5zM500 105q-3 0 -3 -4t3 -4
q2 0 2 4t-2 4zM1158 110q-8 0 -12 -9l16 8h-2q-1 0 -2 1zM524 117q-2 4 -6.5 -1t-1.5 -7t6.5 1.5t1.5 6.5zM1005 133q-9 0 -12 -8h3q9 0 13 8h-4zM605 190q-21 -9 -28.5 -23t-12.5 -34q1 0 4 -1t5 -1q7 0 12.5 7t9 17t6 19.5t4.5 15.5zM1073 133h4q8 0 18.5 1.5t10.5 11.5
q0 7 -8 12zM1017 182q1 -1 2 -1h2h2q1 0 1 1q3 1 12.5 4t12.5 4l-25 24zM573 303l-3 -8.5t-7 -20t-8 -24t-7 -20.5q-1 -1 -1 -2v-2v-2q0 -1 1 -2q8 5 14 15t9.5 22t5.5 23.5t3 20.5h-7zM984 250q-3 0 -3 -4t3 -4q4 0 4 4t-4 4zM944 254l16 17l-8 8zM968 266q-3 0 -3 -3.5
t3 -3.5t3 3.5t-3 3.5zM612 298q0 -6 2 -12.5t11 -6.5t14.5 7.5t8.5 18t4 21t1 17.5v9q-25 -4 -33 -18.5t-8 -35.5zM879 347q0 -8 2 -18t6 -20t10.5 -18t14.5 -12h-8l32 16l-57 57v-5zM637 416q0 -1 4 -1q18 0 27.5 22t13.5 50.5t4 56v37.5v9.5t-0.5 13.5t-0.5 13.5v8.5z
M718 473l58 44q0 1 -2 5t-7.5 18t-15.5 42t-26 76zM678 820q0 6 0 -8t0.5 -40t2 -60.5t4.5 -69.5l9 16v8t0.5 15.5t0.5 17v13.5v18.5t-0.5 24.5t-0.5 21.5v11.5q-1 8 -4 20t-5 12h-7zM1178 723q-26 -11 -53 -26t-43 -39q5 3 17.5 10t27 14.5t27 14.5t17.5 10q8 6 8 12l-1 2
v2zM833 1129q-7 -43 -28 -68t-49 -34.5t-58.5 -6t-55.5 17.5t-41.5 37t-15.5 51l45 3q6 -19 26 -33t44.5 -17t49 9t41.5 46zM632 1076q10 -18 27.5 -27.5t37 -11t38 5.5t32.5 22q-17 -11 -41.5 -14t-46 -0.5t-36 9.5t-11.5 16z" />
    <glyph glyph-name="Acircumflex" unicode="&#xc2;" horiz-adv-x="1415" 
d="M30 184q0 57 29.5 111t76 95.5t103.5 66.5t112 25q40 3 67.5 -12.5t41.5 -39.5t14.5 -53.5t-13.5 -54.5t-43 -41.5t-73 -15.5q-29 0 -43 12.5t-16 29t6 34t22 28t33 9.5t39 -20q0 -7 -5.5 -13t-15.5 -6q-14 12 -26.5 8t-18.5 -14.5t-1.5 -22t25.5 -13.5q32 0 52.5 13
t30 32t9 40t-10.5 38t-29 26t-45 3q-50 0 -101 -22t-92.5 -59t-68 -85.5t-26.5 -100.5q0 -42 11 -81.5t33.5 -70t56 -49t78.5 -18.5q49 4 96.5 43.5t90 107.5t79.5 161.5t67.5 206t52 240.5t33.5 266h29q6 -20 15.5 -57t21.5 -83.5t26 -96.5t28 -95.5t27 -81t23 -52.5
l353 242l44 -49l-377 -242q8 -29 35.5 -70t66.5 -85t84.5 -85.5t89 -71.5t81 -44t59.5 -1q27 7 45.5 20.5t30 30.5t16.5 37.5t6 40.5q-3 39 -20.5 70t-42.5 51.5t-54.5 31t-56.5 8.5t-48.5 -16.5t-30.5 -42.5q0 -13 11 -19.5t23.5 -6t23.5 7t11 19.5l27 -2q2 -31 -18 -47
t-45 -16.5t-47.5 14.5t-24.5 46q6 39 30.5 63.5t59 33.5t74 2t74.5 -30.5t61 -63.5t33 -97q0 -56 -23.5 -105t-63 -86.5t-91 -59t-106.5 -21.5q-48 9 -85.5 35.5t-67 64.5t-53 84t-43.5 94.5t-38.5 95.5t-38.5 88l-97 -65q-9 -36 -21 -83.5t-30 -98t-43 -100.5t-60 -90.5
t-82 -69t-108 -35.5q-30 -6 -66.5 -1.5t-72.5 18.5t-70 38t-59.5 58t-41 77t-14.5 95zM306 -61q-4 1 -4 -4t4 -4q3 2 3 4.5t-3 3.5zM475 20q-7 -4 -24 -15.5t-36.5 -24.5t-36.5 -25t-24 -16q-5 -3 -8 -8h24q15 0 33 7t34.5 18.5t27.5 27t11 32.5l-1 2v2zM1073 28
q0 -2 3.5 -5t5.5 -3q6 0 14.5 4.5t16.5 11t14.5 13t10.5 11.5q-3 -1 -11.5 -4t-17.5 -7t-16.5 -7.5t-10.5 -4.5q-2 -1 -5 -4t-4 -5zM1242 78q-29 0 -48 -25l65 7l8 9q-2 8 -11 8.5t-14 0.5zM1033 69l16 16h-2q-1 0 -2 1q-5 0 -9.5 -2.5t-11.5 -6.5zM500 105q-3 0 -3 -4t3 -4
q2 0 2 4t-2 4zM1158 110q-8 0 -12 -9l16 8h-2q-1 0 -2 1zM524 117q-2 4 -6.5 -1t-1.5 -7t6.5 1.5t1.5 6.5zM1005 133q-9 0 -12 -8h3q9 0 13 8h-4zM605 190q-21 -9 -28.5 -23t-12.5 -34q1 0 4 -1t5 -1q7 0 12.5 7t9 17t6 19.5t4.5 15.5zM1073 133h4q8 0 18.5 1.5t10.5 11.5
q0 7 -8 12zM1017 182q1 -1 2 -1h2h2q1 0 1 1q3 1 12.5 4t12.5 4l-25 24zM573 303l-3 -8.5t-7 -20t-8 -24t-7 -20.5q-1 -1 -1 -2v-2v-2q0 -1 1 -2q8 5 14 15t9.5 22t5.5 23.5t3 20.5h-7zM984 250q-3 0 -3 -4t3 -4q4 0 4 4t-4 4zM944 254l16 17l-8 8zM968 266q-3 0 -3 -3.5
t3 -3.5t3 3.5t-3 3.5zM612 298q0 -6 2 -12.5t11 -6.5t14.5 7.5t8.5 18t4 21t1 17.5v9q-25 -4 -33 -18.5t-8 -35.5zM879 347q0 -8 2 -18t6 -20t10.5 -18t14.5 -12h-8l32 16l-57 57v-5zM637 416q0 -1 4 -1q18 0 27.5 22t13.5 50.5t4 56v37.5v9.5t-0.5 13.5t-0.5 13.5v8.5z
M718 473l58 44q0 1 -2 5t-7.5 18t-15.5 42t-26 76zM678 820q0 6 0 -8t0.5 -40t2 -60.5t4.5 -69.5l9 16v8t0.5 15.5t0.5 17v13.5v18.5t-0.5 24.5t-0.5 21.5v11.5q-1 8 -4 20t-5 12h-7zM1178 723q-26 -11 -53 -26t-43 -39q5 3 17.5 10t27 14.5t27 14.5t17.5 10q8 6 8 12l-1 2
v2zM553 992l-95 64l185 223l159 -258l-22 -17l-130 216zM593 1167q-2 0 -2 -2.5t2 -2.5t2 2.5t-2 2.5zM530 1048q0 -5 10 -7q0 1 0.5 2.5t0.5 2.5q0 8 -5 10q-6 -2 -6 -8zM561 1077q-1 2 -4 -1.5t-1 -4.5t4 1.5t1 4.5zM592 1123q-5 -5 -12 -11.5t-9 -14.5q6 5 12.5 14.5
t8.5 11.5z" />
    <glyph glyph-name="Agrave" unicode="&#xc0;" horiz-adv-x="1415" 
d="M30 184q0 57 29.5 111t76 95.5t103.5 66.5t112 25q40 3 67.5 -12.5t41.5 -39.5t14.5 -53.5t-13.5 -54.5t-43 -41.5t-73 -15.5q-29 0 -43 12.5t-16 29t6 34t22 28t33 9.5t39 -20q0 -7 -5.5 -13t-15.5 -6q-14 12 -26.5 8t-18.5 -14.5t-1.5 -22t25.5 -13.5q32 0 52.5 13
t30 32t9 40t-10.5 38t-29 26t-45 3q-50 0 -101 -22t-92.5 -59t-68 -85.5t-26.5 -100.5q0 -42 11 -81.5t33.5 -70t56 -49t78.5 -18.5q49 4 96.5 43.5t90 107.5t79.5 161.5t67.5 206t52 240.5t33.5 266h29q6 -20 15.5 -57t21.5 -83.5t26 -96.5t28 -95.5t27 -81t23 -52.5
l353 242l44 -49l-377 -242q8 -29 35.5 -70t66.5 -85t84.5 -85.5t89 -71.5t81 -44t59.5 -1q27 7 45.5 20.5t30 30.5t16.5 37.5t6 40.5q-3 39 -20.5 70t-42.5 51.5t-54.5 31t-56.5 8.5t-48.5 -16.5t-30.5 -42.5q0 -13 11 -19.5t23.5 -6t23.5 7t11 19.5l27 -2q2 -31 -18 -47
t-45 -16.5t-47.5 14.5t-24.5 46q6 39 30.5 63.5t59 33.5t74 2t74.5 -30.5t61 -63.5t33 -97q0 -56 -23.5 -105t-63 -86.5t-91 -59t-106.5 -21.5q-48 9 -85.5 35.5t-67 64.5t-53 84t-43.5 94.5t-38.5 95.5t-38.5 88l-97 -65q-9 -36 -21 -83.5t-30 -98t-43 -100.5t-60 -90.5
t-82 -69t-108 -35.5q-30 -6 -66.5 -1.5t-72.5 18.5t-70 38t-59.5 58t-41 77t-14.5 95zM306 -61q-4 1 -4 -4t4 -4q3 2 3 4.5t-3 3.5zM475 20q-7 -4 -24 -15.5t-36.5 -24.5t-36.5 -25t-24 -16q-5 -3 -8 -8h24q15 0 33 7t34.5 18.5t27.5 27t11 32.5l-1 2v2zM1073 28
q0 -2 3.5 -5t5.5 -3q6 0 14.5 4.5t16.5 11t14.5 13t10.5 11.5q-3 -1 -11.5 -4t-17.5 -7t-16.5 -7.5t-10.5 -4.5q-2 -1 -5 -4t-4 -5zM1242 78q-29 0 -48 -25l65 7l8 9q-2 8 -11 8.5t-14 0.5zM1033 69l16 16h-2q-1 0 -2 1q-5 0 -9.5 -2.5t-11.5 -6.5zM500 105q-3 0 -3 -4t3 -4
q2 0 2 4t-2 4zM1158 110q-8 0 -12 -9l16 8h-2q-1 0 -2 1zM524 117q-2 4 -6.5 -1t-1.5 -7t6.5 1.5t1.5 6.5zM1005 133q-9 0 -12 -8h3q9 0 13 8h-4zM605 190q-21 -9 -28.5 -23t-12.5 -34q1 0 4 -1t5 -1q7 0 12.5 7t9 17t6 19.5t4.5 15.5zM1073 133h4q8 0 18.5 1.5t10.5 11.5
q0 7 -8 12zM1017 182q1 -1 2 -1h2h2q1 0 1 1q3 1 12.5 4t12.5 4l-25 24zM573 303l-3 -8.5t-7 -20t-8 -24t-7 -20.5q-1 -1 -1 -2v-2v-2q0 -1 1 -2q8 5 14 15t9.5 22t5.5 23.5t3 20.5h-7zM984 250q-3 0 -3 -4t3 -4q4 0 4 4t-4 4zM944 254l16 17l-8 8zM968 266q-3 0 -3 -3.5
t3 -3.5t3 3.5t-3 3.5zM612 298q0 -6 2 -12.5t11 -6.5t14.5 7.5t8.5 18t4 21t1 17.5v9q-25 -4 -33 -18.5t-8 -35.5zM879 347q0 -8 2 -18t6 -20t10.5 -18t14.5 -12h-8l32 16l-57 57v-5zM637 416q0 -1 4 -1q18 0 27.5 22t13.5 50.5t4 56v37.5v9.5t-0.5 13.5t-0.5 13.5v8.5z
M718 473l58 44q0 1 -2 5t-7.5 18t-15.5 42t-26 76zM678 820q0 6 0 -8t0.5 -40t2 -60.5t4.5 -69.5l9 16v8t0.5 15.5t0.5 17v13.5v18.5t-0.5 24.5t-0.5 21.5v11.5q-1 8 -4 20t-5 12h-7zM1178 723q-26 -11 -53 -26t-43 -39q5 3 17.5 10t27 14.5t27 14.5t17.5 10q8 6 8 12l-1 2
v2zM565 1086l71 115l213 -209zM598 1123v-26l118 -51h9q-29 16 -41 23.5t-21.5 14t-22.5 14.5t-42 25zM667 1118q15 -9 30 -20t28 -21t22 -17t11 -7h9l-9 9z" />
    <glyph glyph-name="Adieresis" unicode="&#xc4;" horiz-adv-x="1415" 
d="M30 184q0 57 29.5 111t76 95.5t103.5 66.5t112 25q40 3 67.5 -12.5t41.5 -39.5t14.5 -53.5t-13.5 -54.5t-43 -41.5t-73 -15.5q-29 0 -43 12.5t-16 29t6 34t22 28t33 9.5t39 -20q0 -7 -5.5 -13t-15.5 -6q-14 12 -26.5 8t-18.5 -14.5t-1.5 -22t25.5 -13.5q32 0 52.5 13
t30 32t9 40t-10.5 38t-29 26t-45 3q-50 0 -101 -22t-92.5 -59t-68 -85.5t-26.5 -100.5q0 -42 11 -81.5t33.5 -70t56 -49t78.5 -18.5q49 4 96.5 43.5t90 107.5t79.5 161.5t67.5 206t52 240.5t33.5 266h29q6 -20 15.5 -57t21.5 -83.5t26 -96.5t28 -95.5t27 -81t23 -52.5
l353 242l44 -49l-377 -242q8 -29 35.5 -70t66.5 -85t84.5 -85.5t89 -71.5t81 -44t59.5 -1q27 7 45.5 20.5t30 30.5t16.5 37.5t6 40.5q-3 39 -20.5 70t-42.5 51.5t-54.5 31t-56.5 8.5t-48.5 -16.5t-30.5 -42.5q0 -13 11 -19.5t23.5 -6t23.5 7t11 19.5l27 -2q2 -31 -18 -47
t-45 -16.5t-47.5 14.5t-24.5 46q6 39 30.5 63.5t59 33.5t74 2t74.5 -30.5t61 -63.5t33 -97q0 -56 -23.5 -105t-63 -86.5t-91 -59t-106.5 -21.5q-48 9 -85.5 35.5t-67 64.5t-53 84t-43.5 94.5t-38.5 95.5t-38.5 88l-97 -65q-9 -36 -21 -83.5t-30 -98t-43 -100.5t-60 -90.5
t-82 -69t-108 -35.5q-30 -6 -66.5 -1.5t-72.5 18.5t-70 38t-59.5 58t-41 77t-14.5 95zM306 -61q-4 1 -4 -4t4 -4q3 2 3 4.5t-3 3.5zM475 20q-7 -4 -24 -15.5t-36.5 -24.5t-36.5 -25t-24 -16q-5 -3 -8 -8h24q15 0 33 7t34.5 18.5t27.5 27t11 32.5l-1 2v2zM1073 28
q0 -2 3.5 -5t5.5 -3q6 0 14.5 4.5t16.5 11t14.5 13t10.5 11.5q-3 -1 -11.5 -4t-17.5 -7t-16.5 -7.5t-10.5 -4.5q-2 -1 -5 -4t-4 -5zM1242 78q-29 0 -48 -25l65 7l8 9q-2 8 -11 8.5t-14 0.5zM1033 69l16 16h-2q-1 0 -2 1q-5 0 -9.5 -2.5t-11.5 -6.5zM500 105q-3 0 -3 -4t3 -4
q2 0 2 4t-2 4zM1158 110q-8 0 -12 -9l16 8h-2q-1 0 -2 1zM524 117q-2 4 -6.5 -1t-1.5 -7t6.5 1.5t1.5 6.5zM1005 133q-9 0 -12 -8h3q9 0 13 8h-4zM605 190q-21 -9 -28.5 -23t-12.5 -34q1 0 4 -1t5 -1q7 0 12.5 7t9 17t6 19.5t4.5 15.5zM1073 133h4q8 0 18.5 1.5t10.5 11.5
q0 7 -8 12zM1017 182q1 -1 2 -1h2h2q1 0 1 1q3 1 12.5 4t12.5 4l-25 24zM573 303l-3 -8.5t-7 -20t-8 -24t-7 -20.5q-1 -1 -1 -2v-2v-2q0 -1 1 -2q8 5 14 15t9.5 22t5.5 23.5t3 20.5h-7zM984 250q-3 0 -3 -4t3 -4q4 0 4 4t-4 4zM944 254l16 17l-8 8zM968 266q-3 0 -3 -3.5
t3 -3.5t3 3.5t-3 3.5zM612 298q0 -6 2 -12.5t11 -6.5t14.5 7.5t8.5 18t4 21t1 17.5v9q-25 -4 -33 -18.5t-8 -35.5zM879 347q0 -8 2 -18t6 -20t10.5 -18t14.5 -12h-8l32 16l-57 57v-5zM637 416q0 -1 4 -1q18 0 27.5 22t13.5 50.5t4 56v37.5v9.5t-0.5 13.5t-0.5 13.5v8.5z
M718 473l58 44q0 1 -2 5t-7.5 18t-15.5 42t-26 76zM678 820q0 6 0 -8t0.5 -40t2 -60.5t4.5 -69.5l9 16v8t0.5 15.5t0.5 17v13.5v18.5t-0.5 24.5t-0.5 21.5v11.5q-1 8 -4 20t-5 12h-7zM1178 723q-26 -11 -53 -26t-43 -39q5 3 17.5 10t27 14.5t27 14.5t17.5 10q8 6 8 12l-1 2
v2zM578 1014q-27 8 -38.5 23t-12 33.5t9 37t25 32.5t35 21t39.5 2q29 -9 41 -25t11.5 -34t-11.5 -35.5t-27 -31t-35.5 -20.5t-36.5 -3zM560 1060l20 26l-12 22zM632 1104q1 -8 3 -15q2 -6 2.5 -12.5t1.5 -11.5l10 35l-21 38zM768 1012q-27 8 -38.5 23t-12 33.5t9 37t25 32.5
t35 21t39.5 2q29 -9 41 -25t11.5 -34t-11.5 -35.5t-27 -31t-35.5 -20.5t-36.5 -3zM750 1058l20 26l-12 22zM822 1102q1 -8 3 -15q2 -6 2.5 -12.5t1.5 -11.5l10 35l-21 38z" />
    <glyph glyph-name="Amacron" unicode="&#x100;" horiz-adv-x="1415" 
d="M30 184q0 57 29.5 111t76 95.5t103.5 66.5t112 25q40 3 67.5 -12.5t41.5 -39.5t14.5 -53.5t-13.5 -54.5t-43 -41.5t-73 -15.5q-29 0 -43 12.5t-16 29t6 34t22 28t33 9.5t39 -20q0 -7 -5.5 -13t-15.5 -6q-14 12 -26.5 8t-18.5 -14.5t-1.5 -22t25.5 -13.5q32 0 52.5 13
t30 32t9 40t-10.5 38t-29 26t-45 3q-50 0 -101 -22t-92.5 -59t-68 -85.5t-26.5 -100.5q0 -42 11 -81.5t33.5 -70t56 -49t78.5 -18.5q49 4 96.5 43.5t90 107.5t79.5 161.5t67.5 206t52 240.5t33.5 266h29q6 -20 15.5 -57t21.5 -83.5t26 -96.5t28 -95.5t27 -81t23 -52.5
l353 242l44 -49l-377 -242q8 -29 35.5 -70t66.5 -85t84.5 -85.5t89 -71.5t81 -44t59.5 -1q27 7 45.5 20.5t30 30.5t16.5 37.5t6 40.5q-3 39 -20.5 70t-42.5 51.5t-54.5 31t-56.5 8.5t-48.5 -16.5t-30.5 -42.5q0 -13 11 -19.5t23.5 -6t23.5 7t11 19.5l27 -2q2 -31 -18 -47
t-45 -16.5t-47.5 14.5t-24.5 46q6 39 30.5 63.5t59 33.5t74 2t74.5 -30.5t61 -63.5t33 -97q0 -56 -23.5 -105t-63 -86.5t-91 -59t-106.5 -21.5q-48 9 -85.5 35.5t-67 64.5t-53 84t-43.5 94.5t-38.5 95.5t-38.5 88l-97 -65q-9 -36 -21 -83.5t-30 -98t-43 -100.5t-60 -90.5
t-82 -69t-108 -35.5q-30 -6 -66.5 -1.5t-72.5 18.5t-70 38t-59.5 58t-41 77t-14.5 95zM306 -61q-4 1 -4 -4t4 -4q3 2 3 4.5t-3 3.5zM475 20q-7 -4 -24 -15.5t-36.5 -24.5t-36.5 -25t-24 -16q-5 -3 -8 -8h24q15 0 33 7t34.5 18.5t27.5 27t11 32.5l-1 2v2zM1073 28
q0 -2 3.5 -5t5.5 -3q6 0 14.5 4.5t16.5 11t14.5 13t10.5 11.5q-3 -1 -11.5 -4t-17.5 -7t-16.5 -7.5t-10.5 -4.5q-2 -1 -5 -4t-4 -5zM1242 78q-29 0 -48 -25l65 7l8 9q-2 8 -11 8.5t-14 0.5zM1033 69l16 16h-2q-1 0 -2 1q-5 0 -9.5 -2.5t-11.5 -6.5zM500 105q-3 0 -3 -4t3 -4
q2 0 2 4t-2 4zM1158 110q-8 0 -12 -9l16 8h-2q-1 0 -2 1zM524 117q-2 4 -6.5 -1t-1.5 -7t6.5 1.5t1.5 6.5zM1005 133q-9 0 -12 -8h3q9 0 13 8h-4zM605 190q-21 -9 -28.5 -23t-12.5 -34q1 0 4 -1t5 -1q7 0 12.5 7t9 17t6 19.5t4.5 15.5zM1073 133h4q8 0 18.5 1.5t10.5 11.5
q0 7 -8 12zM1017 182q1 -1 2 -1h2h2q1 0 1 1q3 1 12.5 4t12.5 4l-25 24zM573 303l-3 -8.5t-7 -20t-8 -24t-7 -20.5q-1 -1 -1 -2v-2v-2q0 -1 1 -2q8 5 14 15t9.5 22t5.5 23.5t3 20.5h-7zM984 250q-3 0 -3 -4t3 -4q4 0 4 4t-4 4zM944 254l16 17l-8 8zM968 266q-3 0 -3 -3.5
t3 -3.5t3 3.5t-3 3.5zM612 298q0 -6 2 -12.5t11 -6.5t14.5 7.5t8.5 18t4 21t1 17.5v9q-25 -4 -33 -18.5t-8 -35.5zM879 347q0 -8 2 -18t6 -20t10.5 -18t14.5 -12h-8l32 16l-57 57v-5zM637 416q0 -1 4 -1q18 0 27.5 22t13.5 50.5t4 56v37.5v9.5t-0.5 13.5t-0.5 13.5v8.5z
M718 473l58 44q0 1 -2 5t-7.5 18t-15.5 42t-26 76zM678 820q0 6 0 -8t0.5 -40t2 -60.5t4.5 -69.5l9 16v8t0.5 15.5t0.5 17v13.5v18.5t-0.5 24.5t-0.5 21.5v11.5q-1 8 -4 20t-5 12h-7zM1178 723q-26 -11 -53 -26t-43 -39q5 3 17.5 10t27 14.5t27 14.5t17.5 10q8 6 8 12l-1 2
v2zM898 1132l2 -101l-384 -24l-2 134zM564 1038h57q-12 6 -20.5 7t-20.5 1h-16v-8zM803 1071q4 -1 14.5 -1.5t22 -1t22 -1.5t14.5 -2h6l1 17q-20 0 -40.5 -2t-39.5 -9zM786 1075q-2 0 -2 -4t2 -4t2 4t-2 4zM569 1088h57q-7 4 -14 12t-9 21h-34v-33zM638 1092q-2 0 -2 -4.5
t2 -4.5t2 4.5t-2 4.5zM670 1092q1 0 15.5 -1t22.5 -1q31 0 45.5 2.5t26 6.5t26.5 7.5t47 5.5h-195zM865 1116q-3 0 -3 -4.5t3 -4.5q2 0 2 4.5t-2 4.5z" />
    <glyph glyph-name="Aogonek" unicode="&#x104;" horiz-adv-x="1415" 
d="M30 184q0 57 29.5 111t76 95.5t103.5 66.5t112 25q40 3 67.5 -12.5t41.5 -39.5t14.5 -53.5t-13.5 -54.5t-43 -41.5t-73 -15.5q-29 0 -43 12.5t-16 29t6 34t22 28t33 9.5t39 -20q0 -7 -5.5 -13t-15.5 -6q-14 12 -26.5 8t-18.5 -14.5t-1.5 -22t25.5 -13.5q32 0 52.5 13
t30 32t9 40t-10.5 38t-29 26t-45 3q-50 0 -101 -22t-92.5 -59t-68 -85.5t-26.5 -100.5q0 -42 11 -81.5t33.5 -70t56 -49t78.5 -18.5q49 4 96.5 43.5t90 107.5t79.5 161.5t67.5 206t52 240.5t33.5 266h29q6 -20 15.5 -57t21.5 -83.5t26 -96.5t28 -95.5t27 -81t23 -52.5
l353 242l44 -49l-377 -242q8 -29 35.5 -70t66.5 -85t84.5 -85.5t89 -71.5t81 -44t59.5 -1q27 7 45.5 20.5t30 30.5t16.5 37.5t6 40.5q-3 39 -20.5 70t-42.5 51.5t-54.5 31t-56.5 8.5t-48.5 -16.5t-30.5 -42.5q0 -13 11 -19.5t23.5 -6t23.5 7t11 19.5l27 -2q2 -31 -18 -47
t-45 -16.5t-47.5 14.5t-24.5 46q6 39 30.5 63.5t59 33.5t74 2t74.5 -30.5t61 -63.5t33 -97q0 -56 -23.5 -105t-63 -86.5t-91 -59t-106.5 -21.5q-48 9 -85.5 35.5t-67 64.5t-53 84t-43.5 94.5t-38.5 95.5t-38.5 88l-97 -65q-9 -36 -21 -83.5t-30 -98t-43 -100.5t-60 -90.5
t-82 -69t-108 -35.5q-30 -6 -66.5 -1.5t-72.5 18.5t-70 38t-59.5 58t-41 77t-14.5 95zM306 -61q-4 1 -4 -4t4 -4q3 2 3 4.5t-3 3.5zM475 20q-7 -4 -24 -15.5t-36.5 -24.5t-36.5 -25t-24 -16q-5 -3 -8 -8h24q15 0 33 7t34.5 18.5t27.5 27t11 32.5l-1 2v2zM1073 28
q0 -2 3.5 -5t5.5 -3q6 0 14.5 4.5t16.5 11t14.5 13t10.5 11.5q-3 -1 -11.5 -4t-17.5 -7t-16.5 -7.5t-10.5 -4.5q-2 -1 -5 -4t-4 -5zM1242 78q-29 0 -48 -25l65 7l8 9q-2 8 -11 8.5t-14 0.5zM1033 69l16 16h-2q-1 0 -2 1q-5 0 -9.5 -2.5t-11.5 -6.5zM500 105q-3 0 -3 -4t3 -4
q2 0 2 4t-2 4zM1158 110q-8 0 -12 -9l16 8h-2q-1 0 -2 1zM524 117q-2 4 -6.5 -1t-1.5 -7t6.5 1.5t1.5 6.5zM1005 133q-9 0 -12 -8h3q9 0 13 8h-4zM605 190q-21 -9 -28.5 -23t-12.5 -34q1 0 4 -1t5 -1q7 0 12.5 7t9 17t6 19.5t4.5 15.5zM1073 133h4q8 0 18.5 1.5t10.5 11.5
q0 7 -8 12zM1017 182q1 -1 2 -1h2h2q1 0 1 1q3 1 12.5 4t12.5 4l-25 24zM573 303l-3 -8.5t-7 -20t-8 -24t-7 -20.5q-1 -1 -1 -2v-2v-2q0 -1 1 -2q8 5 14 15t9.5 22t5.5 23.5t3 20.5h-7zM984 250q-3 0 -3 -4t3 -4q4 0 4 4t-4 4zM944 254l16 17l-8 8zM968 266q-3 0 -3 -3.5
t3 -3.5t3 3.5t-3 3.5zM612 298q0 -6 2 -12.5t11 -6.5t14.5 7.5t8.5 18t4 21t1 17.5v9q-25 -4 -33 -18.5t-8 -35.5zM879 347q0 -8 2 -18t6 -20t10.5 -18t14.5 -12h-8l32 16l-57 57v-5zM637 416q0 -1 4 -1q18 0 27.5 22t13.5 50.5t4 56v37.5v9.5t-0.5 13.5t-0.5 13.5v8.5z
M718 473l58 44q0 1 -2 5t-7.5 18t-15.5 42t-26 76zM678 820q0 6 0 -8t0.5 -40t2 -60.5t4.5 -69.5l9 16v8t0.5 15.5t0.5 17v13.5v18.5t-0.5 24.5t-0.5 21.5v11.5q-1 8 -4 20t-5 12h-7zM1178 723q-26 -11 -53 -26t-43 -39q5 3 17.5 10t27 14.5t27 14.5t17.5 10q8 6 8 12l-1 2
v2zM1345 -140q-34 -38 -64 -47.5t-53.5 0t-40.5 34t-24.5 55t-5 62.5t17.5 58l25 -8q-7 -18 -2.5 -46t19.5 -50.5t39.5 -33t59.5 5.5zM1202 -83q9 -19 21 -32.5t25 -22.5t25.5 -14t22.5 -7q-10 6 -27 16.5t-32.5 22t-26.5 22t-8 15.5z" />
    <glyph glyph-name="Aring" unicode="&#xc5;" horiz-adv-x="1415" 
d="M30 184q0 57 29.5 111t76 95.5t103.5 66.5t112 25q40 3 67.5 -12.5t41.5 -39.5t14.5 -53.5t-13.5 -54.5t-43 -41.5t-73 -15.5q-29 0 -43 12.5t-16 29t6 34t22 28t33 9.5t39 -20q0 -7 -5.5 -13t-15.5 -6q-14 12 -26.5 8t-18.5 -14.5t-1.5 -22t25.5 -13.5q32 0 52.5 13
t30 32t9 40t-10.5 38t-29 26t-45 3q-50 0 -101 -22t-92.5 -59t-68 -85.5t-26.5 -100.5q0 -42 11 -81.5t33.5 -70t56 -49t78.5 -18.5q49 4 96.5 43.5t90 107.5t79.5 161.5t67.5 206t52 240.5t33.5 266h29q6 -20 15.5 -57t21.5 -83.5t26 -96.5t28 -95.5t27 -81t23 -52.5
l353 242l44 -49l-377 -242q8 -29 35.5 -70t66.5 -85t84.5 -85.5t89 -71.5t81 -44t59.5 -1q27 7 45.5 20.5t30 30.5t16.5 37.5t6 40.5q-3 39 -20.5 70t-42.5 51.5t-54.5 31t-56.5 8.5t-48.5 -16.5t-30.5 -42.5q0 -13 11 -19.5t23.5 -6t23.5 7t11 19.5l27 -2q2 -31 -18 -47
t-45 -16.5t-47.5 14.5t-24.5 46q6 39 30.5 63.5t59 33.5t74 2t74.5 -30.5t61 -63.5t33 -97q0 -56 -23.5 -105t-63 -86.5t-91 -59t-106.5 -21.5q-48 9 -85.5 35.5t-67 64.5t-53 84t-43.5 94.5t-38.5 95.5t-38.5 88l-97 -65q-9 -36 -21 -83.5t-30 -98t-43 -100.5t-60 -90.5
t-82 -69t-108 -35.5q-30 -6 -66.5 -1.5t-72.5 18.5t-70 38t-59.5 58t-41 77t-14.5 95zM306 -61q-4 1 -4 -4t4 -4q3 2 3 4.5t-3 3.5zM475 20q-7 -4 -24 -15.5t-36.5 -24.5t-36.5 -25t-24 -16q-5 -3 -8 -8h24q15 0 33 7t34.5 18.5t27.5 27t11 32.5l-1 2v2zM1073 28
q0 -2 3.5 -5t5.5 -3q6 0 14.5 4.5t16.5 11t14.5 13t10.5 11.5q-3 -1 -11.5 -4t-17.5 -7t-16.5 -7.5t-10.5 -4.5q-2 -1 -5 -4t-4 -5zM1242 78q-29 0 -48 -25l65 7l8 9q-2 8 -11 8.5t-14 0.5zM1033 69l16 16h-2q-1 0 -2 1q-5 0 -9.5 -2.5t-11.5 -6.5zM500 105q-3 0 -3 -4t3 -4
q2 0 2 4t-2 4zM1158 110q-8 0 -12 -9l16 8h-2q-1 0 -2 1zM524 117q-2 4 -6.5 -1t-1.5 -7t6.5 1.5t1.5 6.5zM1005 133q-9 0 -12 -8h3q9 0 13 8h-4zM605 190q-21 -9 -28.5 -23t-12.5 -34q1 0 4 -1t5 -1q7 0 12.5 7t9 17t6 19.5t4.5 15.5zM1073 133h4q8 0 18.5 1.5t10.5 11.5
q0 7 -8 12zM1017 182q1 -1 2 -1h2h2q1 0 1 1q3 1 12.5 4t12.5 4l-25 24zM573 303l-3 -8.5t-7 -20t-8 -24t-7 -20.5q-1 -1 -1 -2v-2v-2q0 -1 1 -2q8 5 14 15t9.5 22t5.5 23.5t3 20.5h-7zM984 250q-3 0 -3 -4t3 -4q4 0 4 4t-4 4zM944 254l16 17l-8 8zM968 266q-3 0 -3 -3.5
t3 -3.5t3 3.5t-3 3.5zM612 298q0 -6 2 -12.5t11 -6.5t14.5 7.5t8.5 18t4 21t1 17.5v9q-25 -4 -33 -18.5t-8 -35.5zM879 347q0 -8 2 -18t6 -20t10.5 -18t14.5 -12h-8l32 16l-57 57v-5zM637 416q0 -1 4 -1q18 0 27.5 22t13.5 50.5t4 56v37.5v9.5t-0.5 13.5t-0.5 13.5v8.5z
M718 473l58 44q0 1 -2 5t-7.5 18t-15.5 42t-26 76zM678 820q0 6 0 -8t0.5 -40t2 -60.5t4.5 -69.5l9 16v8t0.5 15.5t0.5 17v13.5v18.5t-0.5 24.5t-0.5 21.5v11.5q-1 8 -4 20t-5 12h-7zM1178 723q-26 -11 -53 -26t-43 -39q5 3 17.5 10t27 14.5t27 14.5t17.5 10q8 6 8 12l-1 2
v2zM644 1009q-39 14 -55 39.5t-15 55t17 58.5t41 50.5t56.5 30.5t64.5 -2q43 -26 59.5 -56.5t13.5 -59.5t-21.5 -54.5t-45 -42.5t-57 -23t-58.5 4zM728 1207q-9 7 -23.5 4t-29.5 -13t-27.5 -25.5t-18 -33t-2 -35.5t22.5 -34q9 -5 30.5 7t39.5 33t24 47t-16 50zM748 1077
q17 12 24.5 28t9 33t0 32.5t-1.5 25.5q-4 -11 -7 -31.5t-6.5 -40.5t-8 -34.5t-10.5 -12.5z" />
    <glyph glyph-name="Atilde" unicode="&#xc3;" horiz-adv-x="1415" 
d="M30 184q0 57 29.5 111t76 95.5t103.5 66.5t112 25q40 3 67.5 -12.5t41.5 -39.5t14.5 -53.5t-13.5 -54.5t-43 -41.5t-73 -15.5q-29 0 -43 12.5t-16 29t6 34t22 28t33 9.5t39 -20q0 -7 -5.5 -13t-15.5 -6q-14 12 -26.5 8t-18.5 -14.5t-1.5 -22t25.5 -13.5q32 0 52.5 13
t30 32t9 40t-10.5 38t-29 26t-45 3q-50 0 -101 -22t-92.5 -59t-68 -85.5t-26.5 -100.5q0 -42 11 -81.5t33.5 -70t56 -49t78.5 -18.5q49 4 96.5 43.5t90 107.5t79.5 161.5t67.5 206t52 240.5t33.5 266h29q6 -20 15.5 -57t21.5 -83.5t26 -96.5t28 -95.5t27 -81t23 -52.5
l353 242l44 -49l-377 -242q8 -29 35.5 -70t66.5 -85t84.5 -85.5t89 -71.5t81 -44t59.5 -1q27 7 45.5 20.5t30 30.5t16.5 37.5t6 40.5q-3 39 -20.5 70t-42.5 51.5t-54.5 31t-56.5 8.5t-48.5 -16.5t-30.5 -42.5q0 -13 11 -19.5t23.5 -6t23.5 7t11 19.5l27 -2q2 -31 -18 -47
t-45 -16.5t-47.5 14.5t-24.5 46q6 39 30.5 63.5t59 33.5t74 2t74.5 -30.5t61 -63.5t33 -97q0 -56 -23.5 -105t-63 -86.5t-91 -59t-106.5 -21.5q-48 9 -85.5 35.5t-67 64.5t-53 84t-43.5 94.5t-38.5 95.5t-38.5 88l-97 -65q-9 -36 -21 -83.5t-30 -98t-43 -100.5t-60 -90.5
t-82 -69t-108 -35.5q-30 -6 -66.5 -1.5t-72.5 18.5t-70 38t-59.5 58t-41 77t-14.5 95zM306 -61q-4 1 -4 -4t4 -4q3 2 3 4.5t-3 3.5zM475 20q-7 -4 -24 -15.5t-36.5 -24.5t-36.5 -25t-24 -16q-5 -3 -8 -8h24q15 0 33 7t34.5 18.5t27.5 27t11 32.5l-1 2v2zM1073 28
q0 -2 3.5 -5t5.5 -3q6 0 14.5 4.5t16.5 11t14.5 13t10.5 11.5q-3 -1 -11.5 -4t-17.5 -7t-16.5 -7.5t-10.5 -4.5q-2 -1 -5 -4t-4 -5zM1242 78q-29 0 -48 -25l65 7l8 9q-2 8 -11 8.5t-14 0.5zM1033 69l16 16h-2q-1 0 -2 1q-5 0 -9.5 -2.5t-11.5 -6.5zM500 105q-3 0 -3 -4t3 -4
q2 0 2 4t-2 4zM1158 110q-8 0 -12 -9l16 8h-2q-1 0 -2 1zM524 117q-2 4 -6.5 -1t-1.5 -7t6.5 1.5t1.5 6.5zM1005 133q-9 0 -12 -8h3q9 0 13 8h-4zM605 190q-21 -9 -28.5 -23t-12.5 -34q1 0 4 -1t5 -1q7 0 12.5 7t9 17t6 19.5t4.5 15.5zM1073 133h4q8 0 18.5 1.5t10.5 11.5
q0 7 -8 12zM1017 182q1 -1 2 -1h2h2q1 0 1 1q3 1 12.5 4t12.5 4l-25 24zM573 303l-3 -8.5t-7 -20t-8 -24t-7 -20.5q-1 -1 -1 -2v-2v-2q0 -1 1 -2q8 5 14 15t9.5 22t5.5 23.5t3 20.5h-7zM984 250q-3 0 -3 -4t3 -4q4 0 4 4t-4 4zM944 254l16 17l-8 8zM968 266q-3 0 -3 -3.5
t3 -3.5t3 3.5t-3 3.5zM612 298q0 -6 2 -12.5t11 -6.5t14.5 7.5t8.5 18t4 21t1 17.5v9q-25 -4 -33 -18.5t-8 -35.5zM879 347q0 -8 2 -18t6 -20t10.5 -18t14.5 -12h-8l32 16l-57 57v-5zM637 416q0 -1 4 -1q18 0 27.5 22t13.5 50.5t4 56v37.5v9.5t-0.5 13.5t-0.5 13.5v8.5z
M718 473l58 44q0 1 -2 5t-7.5 18t-15.5 42t-26 76zM678 820q0 6 0 -8t0.5 -40t2 -60.5t4.5 -69.5l9 16v8t0.5 15.5t0.5 17v13.5v18.5t-0.5 24.5t-0.5 21.5v11.5q-1 8 -4 20t-5 12h-7zM1178 723q-26 -11 -53 -26t-43 -39q5 3 17.5 10t27 14.5t27 14.5t17.5 10q8 6 8 12l-1 2
v2zM489 1002q-5 79 18 132t64 66.5t95.5 -19t112.5 -123.5q23 -37 44 -41t33 11t11.5 42t-18.5 51h35q20 -31 16.5 -63.5t-23.5 -53.5t-53 -22.5t-70 29.5q-47 39 -81.5 55t-59 16t-40 -11t-24 -25t-11 -27t-1.5 -17h-48zM637 1139q1 -3 8 -9t15.5 -13.5t18 -16t17.5 -16.5
q-5 24 -17.5 40.5t-26 24t-24.5 6.5t-11 -11q0 -3 3 -3t7 0.5t7 0.5t3 -3zM566 1131q3 5 9.5 8t14 3.5t14 -2.5t9.5 -11l-29 38q-5 -6 -10.5 -18t-7.5 -18zM617 1166q-2 0 -2 -4.5t2 -4.5t2 4.5t-2 4.5z" />
    <glyph glyph-name="AE" unicode="&#xc6;" horiz-adv-x="1493" 
d="M847 456l-149 -80q-9 -36 -21 -83.5t-30 -98t-43 -100.5t-60 -90.5t-82 -69t-108 -35.5q-30 -6 -66.5 -1.5t-72.5 18.5t-70 38t-59.5 58t-41 77t-14.5 95q0 57 29.5 111t76 95.5t103.5 66.5t112 25q40 3 67.5 -12.5t41.5 -39.5t14.5 -53.5t-13.5 -54.5t-43 -41.5
t-73 -15.5q-29 0 -43 12.5t-16 29t6 34t22 28t33 9.5t39 -20q0 -7 -5.5 -13t-15.5 -6q-14 12 -26.5 8t-18.5 -14.5t-1.5 -22t25.5 -13.5q32 0 52.5 13t30 32t9 40t-10.5 38t-29 26t-45 3q-50 0 -101 -22t-92.5 -59t-68 -85.5t-26.5 -100.5q0 -42 11 -81.5t33.5 -70t56 -49
t78.5 -18.5q39 3 80.5 28.5t84 69t84.5 104t80 135.5q-2 -3 -4.5 -12t-6 -19.5l-7 -21t-5.5 -17.5q-1 -1 -1 -2v-2v-2q0 -1 1 -2q8 5 14 15t9.5 22t5.5 23.5t3 20.5h-7q35 68 68 150t60.5 172t47.5 187t29 195l677 9l13 -124q-47 28 -96 40t-97.5 16t-97.5 3t-96 1l-44 -420
l242 15l-4 -65l-237 -14l-54 -382q115 -5 197.5 15.5t138.5 49.5t90 59.5t53 47.5l-9 -221l-597 -19zM831 492q-1 17 0 47t1.5 64.5t1 69.5t-0.5 61.5t-3.5 41t-7.5 8.5l-104 -311zM911 388q-11 0 -16.5 -15t-7 -38t0 -51t4.5 -54t6.5 -47t6.5 -30q1 -2 3 -7t3 -9
q2 18 1.5 47t-1 62.5t-1 70t0.5 71.5zM958 960q5 -19 1 -33t-10 -27t-10.5 -26.5t-0.5 -30.5q0 -1 1 -2q0 -1 1 -2q17 23 39 55.5t32 64.5zM475 20q-7 -4 -24 -15.5t-36.5 -24.5t-36.5 -25t-24 -16q-5 -3 -8 -8h24q15 0 33 7t34.5 18.5t27.5 27t11 32.5l-1 2v2zM769 850
q0 -3 -2.5 -19t-5.5 -40t-4.5 -53.5t1.5 -60.5l9 16q9 9 13 26t5 35.5t0.5 36t-0.5 27.5q-1 8 -4 20t-5 12h-7zM908 706q-20 0 -26.5 -22t-5 -50.5t7 -56.5t8.5 -40q0 -3 2.5 -11t2.5 -10q5 7 4 32t-2.5 55.5t0.5 58.5t13 41q-1 0 -2 1zM1405 136q-14 -14 -40.5 -24.5
t-56 -17t-58 -10t-44.5 -4.5q-4 0 -10.5 -3.5t-7.5 -5.5q2 0 12 -0.5t12 -0.5q49 -2 92 9t89 24q5 5 8 14t4 19zM883 949l-1.5 -11.5t-2.5 -27.5t-2 -33.5t-1 -28.5q1 -2 1 -4q0 -4 1 -5q0 -3 2 -7t2 -5q6 19 7.5 33t4.5 27t9.5 27.5t20.5 34.5h-41zM954 326q1 8 5 28.5
t8 43t7.5 43t4.5 28.5q2 5 2.5 17.5t0.5 17.5h-5q-10 0 -14 -12l-12 -155zM612 298q0 -6 2 -12.5t11 -6.5t14.5 7.5t8.5 18t4 21t1 17.5v9q-25 -4 -33 -18.5t-8 -35.5zM641 415q11 0 18.5 8.5t12.5 22.5t8 31.5t4 34.5l-47 -96q0 -1 4 -1zM971 816q-9 0 -14 -7t-7.5 -17
t-2 -20t2.5 -17q1 -2 2 -8.5t2 -8.5l23 77h-3q-1 0 -3 1zM605 190q-21 -9 -28.5 -23t-12.5 -34q1 0 4 -1t5 -1q7 0 12.5 7t9 17t6 19.5t4.5 15.5zM989 560q-8 -6 -9.5 -16t-2.5 -19q5 6 7.5 16t4.5 19zM961 137q5 4 7 7t0 9q0 2 -1 3.5t-1 2.5zM1001 631q-5 0 -3.5 -5
t5.5 -5q5 0 4 5t-6 5zM991 587q-4 0 -2 -5.5t5 -5.5q5 0 3 5.5t-6 5.5zM1043 876q-4 0 -2.5 -6t3.5 -6q5 0 3.5 6t-4.5 6zM969 186q-5 1 -3 -4.5t5 -6.5q4 0 3 5.5t-5 5.5zM979 843q-3 0 -2 -5.5t4 -5.5q5 0 3.5 5.5t-5.5 5.5zM524 117q-2 4 -6.5 -1t-1.5 -7t6.5 1.5
t1.5 6.5zM892 498q-4 1 -3 -4t5 -7q4 0 2.5 5.5t-4.5 5.5zM996 609q-3 0 -2 -5.5t5 -5.5q3 0 2 5.5t-5 5.5zM306 -61q-4 1 -4 -4t4 -4q3 2 3 4.5t-3 3.5zM500 105q-3 0 -3 -4t3 -4q2 0 2 4t-2 4zM758 661l-2 -4zM573 303q-1 -1 -1 -1.5t-1 -1.5q1 1 1 2t1 1z" />
    <glyph glyph-name="AEacute" unicode="&#x1fc;" horiz-adv-x="1493" 
d="M847 456l-149 -80q-9 -36 -21 -83.5t-30 -98t-43 -100.5t-60 -90.5t-82 -69t-108 -35.5q-30 -6 -66.5 -1.5t-72.5 18.5t-70 38t-59.5 58t-41 77t-14.5 95q0 57 29.5 111t76 95.5t103.5 66.5t112 25q40 3 67.5 -12.5t41.5 -39.5t14.5 -53.5t-13.5 -54.5t-43 -41.5
t-73 -15.5q-29 0 -43 12.5t-16 29t6 34t22 28t33 9.5t39 -20q0 -7 -5.5 -13t-15.5 -6q-14 12 -26.5 8t-18.5 -14.5t-1.5 -22t25.5 -13.5q32 0 52.5 13t30 32t9 40t-10.5 38t-29 26t-45 3q-50 0 -101 -22t-92.5 -59t-68 -85.5t-26.5 -100.5q0 -42 11 -81.5t33.5 -70t56 -49
t78.5 -18.5q39 3 80.5 28.5t84 69t84.5 104t80 135.5q-2 -3 -4.5 -12t-6 -19.5l-7 -21t-5.5 -17.5q-1 -1 -1 -2v-2v-2q0 -1 1 -2q8 5 14 15t9.5 22t5.5 23.5t3 20.5h-7q35 68 68 150t60.5 172t47.5 187t29 195l677 9l13 -124q-47 28 -96 40t-97.5 16t-97.5 3t-96 1l-44 -420
l242 15l-4 -65l-237 -14l-54 -382q115 -5 197.5 15.5t138.5 49.5t90 59.5t53 47.5l-9 -221l-597 -19zM831 492q-1 17 0 47t1.5 64.5t1 69.5t-0.5 61.5t-3.5 41t-7.5 8.5l-104 -311zM911 388q-11 0 -16.5 -15t-7 -38t0 -51t4.5 -54t6.5 -47t6.5 -30q1 -2 3 -7t3 -9
q2 18 1.5 47t-1 62.5t-1 70t0.5 71.5zM958 960q5 -19 1 -33t-10 -27t-10.5 -26.5t-0.5 -30.5q0 -1 1 -2q0 -1 1 -2q17 23 39 55.5t32 64.5zM475 20q-7 -4 -24 -15.5t-36.5 -24.5t-36.5 -25t-24 -16q-5 -3 -8 -8h24q15 0 33 7t34.5 18.5t27.5 27t11 32.5l-1 2v2zM769 850
q0 -3 -2.5 -19t-5.5 -40t-4.5 -53.5t1.5 -60.5l9 16q9 9 13 26t5 35.5t0.5 36t-0.5 27.5q-1 8 -4 20t-5 12h-7zM908 706q-20 0 -26.5 -22t-5 -50.5t7 -56.5t8.5 -40q0 -3 2.5 -11t2.5 -10q5 7 4 32t-2.5 55.5t0.5 58.5t13 41q-1 0 -2 1zM1405 136q-14 -14 -40.5 -24.5
t-56 -17t-58 -10t-44.5 -4.5q-4 0 -10.5 -3.5t-7.5 -5.5q2 0 12 -0.5t12 -0.5q49 -2 92 9t89 24q5 5 8 14t4 19zM883 949l-1.5 -11.5t-2.5 -27.5t-2 -33.5t-1 -28.5q1 -2 1 -4q0 -4 1 -5q0 -3 2 -7t2 -5q6 19 7.5 33t4.5 27t9.5 27.5t20.5 34.5h-41zM954 326q1 8 5 28.5
t8 43t7.5 43t4.5 28.5q2 5 2.5 17.5t0.5 17.5h-5q-10 0 -14 -12l-12 -155zM612 298q0 -6 2 -12.5t11 -6.5t14.5 7.5t8.5 18t4 21t1 17.5v9q-25 -4 -33 -18.5t-8 -35.5zM641 415q11 0 18.5 8.5t12.5 22.5t8 31.5t4 34.5l-47 -96q0 -1 4 -1zM971 816q-9 0 -14 -7t-7.5 -17
t-2 -20t2.5 -17q1 -2 2 -8.5t2 -8.5l23 77h-3q-1 0 -3 1zM605 190q-21 -9 -28.5 -23t-12.5 -34q1 0 4 -1t5 -1q7 0 12.5 7t9 17t6 19.5t4.5 15.5zM989 560q-8 -6 -9.5 -16t-2.5 -19q5 6 7.5 16t4.5 19zM961 137q5 4 7 7t0 9q0 2 -1 3.5t-1 2.5zM1001 631q-5 0 -3.5 -5
t5.5 -5q5 0 4 5t-6 5zM991 587q-4 0 -2 -5.5t5 -5.5q5 0 3 5.5t-6 5.5zM1043 876q-4 0 -2.5 -6t3.5 -6q5 0 3.5 6t-4.5 6zM969 186q-5 1 -3 -4.5t5 -6.5q4 0 3 5.5t-5 5.5zM979 843q-3 0 -2 -5.5t4 -5.5q5 0 3.5 5.5t-5.5 5.5zM524 117q-2 4 -6.5 -1t-1.5 -7t6.5 1.5
t1.5 6.5zM892 498q-4 1 -3 -4t5 -7q4 0 2.5 5.5t-4.5 5.5zM996 609q-3 0 -2 -5.5t5 -5.5q3 0 2 5.5t-5 5.5zM306 -61q-4 1 -4 -4t4 -4q3 2 3 4.5t-3 3.5zM500 105q-3 0 -3 -4t3 -4q2 0 2 4t-2 4zM758 661l-2 -4zM573 303q-1 -1 -1 -1.5t-1 -1.5q1 1 1 2t1 1zM873 1069
l213 209l71 -115zM1124 1200q-29 -17 -42 -25t-22.5 -14.5t-22 -14t-40.5 -23.5h9l118 51v26zM964 1139l-9 -9h9q2 0 11 7t21.5 17t28 21t30.5 20z" />
    <glyph glyph-name="Cacute" unicode="&#x106;" horiz-adv-x="654" 
d="M32 227q-17 87 -5 171.5t43.5 161.5t78.5 144.5t100.5 120.5t110 89.5t106 52t88.5 7.5t59 -44l-33 -23q-25 29 -62 24t-78.5 -36t-83.5 -83.5t-75.5 -117.5t-55 -138.5t-22.5 -146.5q-3 -79 16.5 -131t53 -79t77 -31.5t88.5 12.5t88.5 53.5t76.5 90.5l46 -12
q-11 -31 -38.5 -70t-65.5 -78t-84.5 -73t-95.5 -56t-98.5 -27t-93.5 15t-80.5 69t-60.5 135zM157 120q-10 -4 -14.5 -9t-4.5 -16q0 -1 0.5 -4.5t0.5 -4.5q7 3 12.5 11t6.5 18q-1 0 -1 1v2v2zM263 96q-12 -8 -24 -21t-21 -26q1 0 2.5 -1t2.5 -1q7 -2 13.5 4.5t12 15.5
t9.5 17.5t5 11.5zM106 178q10 4 14.5 16.5t4.5 23.5v5q-3 -1 -8 -5.5t-9.5 -10t-7.5 -10t-2 -5.5zM343 97q-3 -4 -8 -6.5t-11 -4.5t-11 -4.5t-7 -6.5v-5q0 -1 -0.5 -2.5t-0.5 -2.5q52 18 99 43.5t88 64.5q-18 -6 -36 -19t-37 -26.5t-38 -23t-38 -7.5zM273 175q-2 0 -12 -9.5
t-22 -21.5t-22.5 -24t-13.5 -16l88 65q-3 6 -8 5t-10 1zM214 258q-7 -9 -16 -19.5t-18 -21.5t-17 -21.5t-12 -17.5q0 -2 0.5 -5.5t0.5 -5.5l71 70zM168 423q-2 -3 -5.5 -9.5t-4.5 -8.5q-3 -8 -11 -30t-17 -46.5t-16.5 -46.5t-10.5 -31q9 4 19 19t18.5 33t14.5 35.5t6 27.5v6
q0 4 1 11t2.5 14.5t2.5 14.5t1 11zM78 307q-4 4 -4 -2.5t4 -6.5t4 3.5t-4 5.5zM143 479q-6 -10 -15 -26.5t-18 -36.5t-16 -41t-7 -40v-9l56 144v9zM153 497q1 -1 4 -2t4 -2q8 -2 13 5t8 17.5t4.5 21t1.5 15.5v5zM185 992l213 209l71 -115zM436 1123q-29 -17 -42 -25
t-22.5 -14.5t-22 -14t-40.5 -23.5h9l118 51v26zM276 1062l-9 -9h9q2 0 11 7t21.5 17t28 21t30.5 20z" />
    <glyph glyph-name="Ccaron" unicode="&#x10c;" horiz-adv-x="654" 
d="M32 227q-17 87 -5 171.5t43.5 161.5t78.5 144.5t100.5 120.5t110 89.5t106 52t88.5 7.5t59 -44l-33 -23q-25 29 -62 24t-78.5 -36t-83.5 -83.5t-75.5 -117.5t-55 -138.5t-22.5 -146.5q-3 -79 16.5 -131t53 -79t77 -31.5t88.5 12.5t88.5 53.5t76.5 90.5l46 -12
q-11 -31 -38.5 -70t-65.5 -78t-84.5 -73t-95.5 -56t-98.5 -27t-93.5 15t-80.5 69t-60.5 135zM157 120q-10 -4 -14.5 -9t-4.5 -16q0 -1 0.5 -4.5t0.5 -4.5q7 3 12.5 11t6.5 18q-1 0 -1 1v2v2zM263 96q-12 -8 -24 -21t-21 -26q1 0 2.5 -1t2.5 -1q7 -2 13.5 4.5t12 15.5
t9.5 17.5t5 11.5zM106 178q10 4 14.5 16.5t4.5 23.5v5q-3 -1 -8 -5.5t-9.5 -10t-7.5 -10t-2 -5.5zM343 97q-3 -4 -8 -6.5t-11 -4.5t-11 -4.5t-7 -6.5v-5q0 -1 -0.5 -2.5t-0.5 -2.5q52 18 99 43.5t88 64.5q-18 -6 -36 -19t-37 -26.5t-38 -23t-38 -7.5zM273 175q-2 0 -12 -9.5
t-22 -21.5t-22.5 -24t-13.5 -16l88 65q-3 6 -8 5t-10 1zM214 258q-7 -9 -16 -19.5t-18 -21.5t-17 -21.5t-12 -17.5q0 -2 0.5 -5.5t0.5 -5.5l71 70zM168 423q-2 -3 -5.5 -9.5t-4.5 -8.5q-3 -8 -11 -30t-17 -46.5t-16.5 -46.5t-10.5 -31q9 4 19 19t18.5 33t14.5 35.5t6 27.5v6
q0 4 1 11t2.5 14.5t2.5 14.5t1 11zM78 307q-4 4 -4 -2.5t4 -6.5t4 3.5t-4 5.5zM143 479q-6 -10 -15 -26.5t-18 -36.5t-16 -41t-7 -40v-9l56 144v9zM153 497q1 -1 4 -2t4 -2q8 -2 13 5t8 17.5t4.5 21t1.5 15.5v5zM347 1051l130 216l22 -17l-159 -258l-185 223l95 64z
M290 1104q2 0 2 2.5t-2 2.5t-2 -2.5t2 -2.5zM227 1223q0 -6 6 -8q5 2 5 10q0 1 -0.5 2.5t-0.5 2.5q-10 -2 -10 -7zM258 1194q1 2 -1 4.5t-4 1.5t1 -4.5t4 -1.5zM289 1148q-2 2 -8.5 11.5t-12.5 14.5q2 -8 9 -14.5t12 -11.5z" />
    <glyph glyph-name="Ccedilla" unicode="&#xc7;" horiz-adv-x="654" 
d="M32 227q-17 87 -5 171.5t43.5 161.5t78.5 144.5t100.5 120.5t110 89.5t106 52t88.5 7.5t59 -44l-33 -23q-25 29 -62 24t-78.5 -36t-83.5 -83.5t-75.5 -117.5t-55 -138.5t-22.5 -146.5q-3 -79 16.5 -131t53 -79t77 -31.5t88.5 12.5t88.5 53.5t76.5 90.5l46 -12
q-11 -31 -38.5 -70t-65.5 -78t-84.5 -73t-95.5 -56t-98.5 -27t-93.5 15t-80.5 69t-60.5 135zM157 120q-10 -4 -14.5 -9t-4.5 -16q0 -1 0.5 -4.5t0.5 -4.5q7 3 12.5 11t6.5 18q-1 0 -1 1v2v2zM263 96q-12 -8 -24 -21t-21 -26q1 0 2.5 -1t2.5 -1q7 -2 13.5 4.5t12 15.5
t9.5 17.5t5 11.5zM106 178q10 4 14.5 16.5t4.5 23.5v5q-3 -1 -8 -5.5t-9.5 -10t-7.5 -10t-2 -5.5zM343 97q-3 -4 -8 -6.5t-11 -4.5t-11 -4.5t-7 -6.5v-5q0 -1 -0.5 -2.5t-0.5 -2.5q52 18 99 43.5t88 64.5q-18 -6 -36 -19t-37 -26.5t-38 -23t-38 -7.5zM273 175q-2 0 -12 -9.5
t-22 -21.5t-22.5 -24t-13.5 -16l88 65q-3 6 -8 5t-10 1zM214 258q-7 -9 -16 -19.5t-18 -21.5t-17 -21.5t-12 -17.5q0 -2 0.5 -5.5t0.5 -5.5l71 70zM168 423q-2 -3 -5.5 -9.5t-4.5 -8.5q-3 -8 -11 -30t-17 -46.5t-16.5 -46.5t-10.5 -31q9 4 19 19t18.5 33t14.5 35.5t6 27.5v6
q0 4 1 11t2.5 14.5t2.5 14.5t1 11zM78 307q-4 4 -4 -2.5t4 -6.5t4 3.5t-4 5.5zM143 479q-6 -10 -15 -26.5t-18 -36.5t-16 -41t-7 -40v-9l56 144v9zM153 497q1 -1 4 -2t4 -2q8 -2 13 5t8 17.5t4.5 21t1.5 15.5v5zM268 37h73l-5 -38q67 6 107.5 -17t57 -59t10.5 -78.5t-33 -75
t-73.5 -48.5t-110.5 1q-19 11 -32 28.5t-19 36.5t-5 37.5t9 30.5t24 16t39 -5q-20 -2 -27.5 -16t-5 -30.5t13 -32t25.5 -21.5q29 2 48 15.5t26.5 32t4 40.5t-19 41t-43.5 33t-69 17zM423 -104q-1 -11 -0.5 -25.5t0.5 -29.5t-2.5 -30t-8.5 -27q26 20 31 39.5t0 51.5
q0 3 -9.5 10t-10.5 11zM359 -31q11 -9 29 -22.5t36 -13.5q1 0 4 0.5t5 0.5q-12 14 -31 24.5t-36 11.5q-1 0 -3.5 -0.5t-3.5 -0.5zM442 -75q3 -7 8.5 -14t11.5 -11v2q0 1 0.5 1t0.5 1q-1 6 -5 14t-12 8h-2q-1 0 -2 -1z" />
    <glyph glyph-name="Ccircumflex" unicode="&#x108;" horiz-adv-x="654" 
d="M32 227q-17 87 -5 171.5t43.5 161.5t78.5 144.5t100.5 120.5t110 89.5t106 52t88.5 7.5t59 -44l-33 -23q-25 29 -62 24t-78.5 -36t-83.5 -83.5t-75.5 -117.5t-55 -138.5t-22.5 -146.5q-3 -79 16.5 -131t53 -79t77 -31.5t88.5 12.5t88.5 53.5t76.5 90.5l46 -12
q-11 -31 -38.5 -70t-65.5 -78t-84.5 -73t-95.5 -56t-98.5 -27t-93.5 15t-80.5 69t-60.5 135zM157 120q-10 -4 -14.5 -9t-4.5 -16q0 -1 0.5 -4.5t0.5 -4.5q7 3 12.5 11t6.5 18q-1 0 -1 1v2v2zM263 96q-12 -8 -24 -21t-21 -26q1 0 2.5 -1t2.5 -1q7 -2 13.5 4.5t12 15.5
t9.5 17.5t5 11.5zM106 178q10 4 14.5 16.5t4.5 23.5v5q-3 -1 -8 -5.5t-9.5 -10t-7.5 -10t-2 -5.5zM343 97q-3 -4 -8 -6.5t-11 -4.5t-11 -4.5t-7 -6.5v-5q0 -1 -0.5 -2.5t-0.5 -2.5q52 18 99 43.5t88 64.5q-18 -6 -36 -19t-37 -26.5t-38 -23t-38 -7.5zM273 175q-2 0 -12 -9.5
t-22 -21.5t-22.5 -24t-13.5 -16l88 65q-3 6 -8 5t-10 1zM214 258q-7 -9 -16 -19.5t-18 -21.5t-17 -21.5t-12 -17.5q0 -2 0.5 -5.5t0.5 -5.5l71 70zM168 423q-2 -3 -5.5 -9.5t-4.5 -8.5q-3 -8 -11 -30t-17 -46.5t-16.5 -46.5t-10.5 -31q9 4 19 19t18.5 33t14.5 35.5t6 27.5v6
q0 4 1 11t2.5 14.5t2.5 14.5t1 11zM78 307q-4 4 -4 -2.5t4 -6.5t4 3.5t-4 5.5zM143 479q-6 -10 -15 -26.5t-18 -36.5t-16 -41t-7 -40v-9l56 144v9zM153 497q1 -1 4 -2t4 -2q8 -2 13 5t8 17.5t4.5 21t1.5 15.5v5zM360 1029l-95 64l185 223l159 -258l-22 -17l-130 216z
M400 1204q-2 0 -2 -2.5t2 -2.5t2 2.5t-2 2.5zM337 1085q0 -5 10 -7q0 1 0.5 2.5t0.5 2.5q0 8 -5 10q-6 -2 -6 -8zM368 1114q-1 2 -4 -1.5t-1 -4.5t4 1.5t1 4.5zM399 1160q-5 -5 -12 -11.5t-9 -14.5q6 5 12.5 14.5t8.5 11.5z" />
    <glyph glyph-name="Cdotaccent" unicode="&#x10a;" horiz-adv-x="654" 
d="M32 227q-17 87 -5 171.5t43.5 161.5t78.5 144.5t100.5 120.5t110 89.5t106 52t88.5 7.5t59 -44l-33 -23q-25 29 -62 24t-78.5 -36t-83.5 -83.5t-75.5 -117.5t-55 -138.5t-22.5 -146.5q-3 -79 16.5 -131t53 -79t77 -31.5t88.5 12.5t88.5 53.5t76.5 90.5l46 -12
q-11 -31 -38.5 -70t-65.5 -78t-84.5 -73t-95.5 -56t-98.5 -27t-93.5 15t-80.5 69t-60.5 135zM157 120q-10 -4 -14.5 -9t-4.5 -16q0 -1 0.5 -4.5t0.5 -4.5q7 3 12.5 11t6.5 18q-1 0 -1 1v2v2zM263 96q-12 -8 -24 -21t-21 -26q1 0 2.5 -1t2.5 -1q7 -2 13.5 4.5t12 15.5
t9.5 17.5t5 11.5zM106 178q10 4 14.5 16.5t4.5 23.5v5q-3 -1 -8 -5.5t-9.5 -10t-7.5 -10t-2 -5.5zM343 97q-3 -4 -8 -6.5t-11 -4.5t-11 -4.5t-7 -6.5v-5q0 -1 -0.5 -2.5t-0.5 -2.5q52 18 99 43.5t88 64.5q-18 -6 -36 -19t-37 -26.5t-38 -23t-38 -7.5zM273 175q-2 0 -12 -9.5
t-22 -21.5t-22.5 -24t-13.5 -16l88 65q-3 6 -8 5t-10 1zM214 258q-7 -9 -16 -19.5t-18 -21.5t-17 -21.5t-12 -17.5q0 -2 0.5 -5.5t0.5 -5.5l71 70zM168 423q-2 -3 -5.5 -9.5t-4.5 -8.5q-3 -8 -11 -30t-17 -46.5t-16.5 -46.5t-10.5 -31q9 4 19 19t18.5 33t14.5 35.5t6 27.5v6
q0 4 1 11t2.5 14.5t2.5 14.5t1 11zM78 307q-4 4 -4 -2.5t4 -6.5t4 3.5t-4 5.5zM143 479q-6 -10 -15 -26.5t-18 -36.5t-16 -41t-7 -40v-9l56 144v9zM153 497q1 -1 4 -2t4 -2q8 -2 13 5t8 17.5t4.5 21t1.5 15.5v5zM383 1022q-25 5 -37.5 19.5t-15 32t3 36t17 32.5t27.5 21.5
t34 2.5q42 -9 57 -36t8.5 -54t-31.5 -45t-63 -9zM370 1056l16 -10l-24 58zM399 1129q0 -2 3.5 -5.5t5.5 -3.5q3 0 13 3.5t13 5.5h-35z" />
    <glyph glyph-name="Dcaron" unicode="&#x10e;" horiz-adv-x="836" 
d="M87 20l64 21q-1 13 -3.5 54.5t-5.5 100.5t-7 130.5t-8.5 145t-9.5 144.5t-9.5 129t-9.5 98t-9 51l-73 -19l-9 49q75 25 158.5 40.5t166.5 16.5t161 -14t141.5 -51t109 -96t62.5 -147q2 -118 -22.5 -211t-71 -165t-112 -124.5t-144.5 -90t-169.5 -61t-186.5 -36.5zM183 95
q11 5 18 24.5t11 45t6 53t4 49t4.5 33t7.5 4.5q0 1 -5 -5t-10 -14q-7 -9 -15 -21l-20 -156q-1 -2 -1 -5v-8zM650 615q9 65 -20.5 120.5t-79 96.5t-111 66.5t-118.5 30.5l-56 -890q94 33 158.5 82.5t106 106.5t64.5 117t34.5 113t15 94.5t6.5 62.5zM215 496q-11 -3 -19 -6.5
t-13.5 -10.5t-8 -18.5t-1.5 -29.5l16 -4zM567 176q0 3 -3.5 1.5t-6.5 -5t-5 -7t0 -4.5q5 -2 10 3.5t5 11.5zM220 382q-8 -5 -14 -8.5t-10.5 -8t-7 -12t-1.5 -20.5q0 -2 0.5 -8.5t0.5 -10.5q2 1 4 4t3 5q1 3 5 11.5t8 18t7.5 18t4.5 11.5zM190 568q21 -5 28 15t6 46
q0 2 -0.5 4t-0.5 4q-1 3 -1 6l-33 -58zM703 665q-3 -3 -7.5 -31t-10 -68.5t-11 -87t-11 -87.5t-10 -69.5t-6.5 -32.5q-1 -3 -7 -11.5t-6 -13.5q7 8 15.5 34.5t16.5 63t15.5 79.5t13 83t8.5 74t2 53q-1 2 -1 7.5t-1 6.5zM140 764l15 25l-15 15v-40zM273 883
q-27 -25 -48.5 -55.5t-40.5 -65.5q2 1 8 3.5t8 2.5q3 4 12.5 14t20.5 20.5t20.5 20t14.5 13.5q3 11 4.5 18t0.5 20v9zM726 499q-6 -2 -7 -6.5t0 -11.5v-10q4 6 6 10.5t1 12.5v5zM739 509q-4 2 -3.5 -3.5t4.5 -6.5q2 0 1.5 4.5t-2.5 5.5zM179 919q-5 0 -10 -2.5t-9 -5.5
q-4 -4 -9 -8l-13 -50q2 2 11.5 9.5t20.5 17t20.5 18t11.5 11.5q1 2 -8 4t-10 4q13 9 23 16l22 16zM693 719q-10 3 -14 -9l14 -4v13zM668 800q0 -6 -3 -5.5t-7 2t-8 2.5t-6 -2l20 -37q8 -2 16.5 2.5t8.5 17.5q-1 6 -8.5 12t-12.5 8zM600 861q1 -15 7 -25t13 -24q14 -8 19 -5
t4 12q0 7 -5.5 15t-13 14.5t-14.5 11t-10 6.5v-5zM438 1051l130 216l22 -17l-159 -258l-185 223l95 64zM381 1104q2 0 2 2.5t-2 2.5t-2 -2.5t2 -2.5zM318 1223q0 -6 6 -8q5 2 5 10q0 1 -0.5 2.5t-0.5 2.5q-10 -2 -10 -7zM349 1194q1 2 -1 4.5t-4 1.5t1 -4.5t4 -1.5z
M380 1148q-2 2 -8.5 11.5t-12.5 14.5q2 -8 9 -14.5t12 -11.5z" />
    <glyph glyph-name="Dcroat" unicode="&#x110;" horiz-adv-x="836" 
d="M87 20l64 21q-1 13 -3.5 54.5t-5.5 100.5t-7 130.5t-8.5 145t-9.5 144.5t-9.5 129t-9.5 98t-9 51l-73 -19l-9 49q75 25 158.5 40.5t166.5 16.5t161 -14t141.5 -51t109 -96t62.5 -147q2 -118 -22.5 -211t-71 -165t-112 -124.5t-144.5 -90t-169.5 -61t-186.5 -36.5zM183 95
q11 5 18 24.5t11 45t6 53t4 49t4.5 33t7.5 4.5q0 1 -5 -5t-10 -14q-7 -9 -15 -21l-20 -156q-1 -2 -1 -5v-8zM650 615q9 65 -20.5 120.5t-79 96.5t-111 66.5t-118.5 30.5l-56 -890q94 33 158.5 82.5t106 106.5t64.5 117t34.5 113t15 94.5t6.5 62.5zM215 496q-11 -3 -19 -6.5
t-13.5 -10.5t-8 -18.5t-1.5 -29.5l16 -4zM567 176q0 3 -3.5 1.5t-6.5 -5t-5 -7t0 -4.5q5 -2 10 3.5t5 11.5zM220 382q-8 -5 -14 -8.5t-10.5 -8t-7 -12t-1.5 -20.5q0 -2 0.5 -8.5t0.5 -10.5q2 1 4 4t3 5q1 3 5 11.5t8 18t7.5 18t4.5 11.5zM190 568q21 -5 28 15t6 46
q0 2 -0.5 4t-0.5 4q-1 3 -1 6l-33 -58zM703 665q-3 -3 -7.5 -31t-10 -68.5t-11 -87t-11 -87.5t-10 -69.5t-6.5 -32.5q-1 -3 -7 -11.5t-6 -13.5q7 8 15.5 34.5t16.5 63t15.5 79.5t13 83t8.5 74t2 53q-1 2 -1 7.5t-1 6.5zM140 764l15 25l-15 15v-40zM273 883
q-27 -25 -48.5 -55.5t-40.5 -65.5q2 1 8 3.5t8 2.5q3 4 12.5 14t20.5 20.5t20.5 20t14.5 13.5q3 11 4.5 18t0.5 20v9zM726 499q-6 -2 -7 -6.5t0 -11.5v-10q4 6 6 10.5t1 12.5v5zM739 509q-4 2 -3.5 -3.5t4.5 -6.5q2 0 1.5 4.5t-2.5 5.5zM179 919q-5 0 -10 -2.5t-9 -5.5
q-4 -4 -9 -8l-13 -50q2 2 11.5 9.5t20.5 17t20.5 18t11.5 11.5q1 2 -8 4t-10 4q13 9 23 16l22 16zM693 719q-10 3 -14 -9l14 -4v13zM668 800q0 -6 -3 -5.5t-7 2t-8 2.5t-6 -2l20 -37q8 -2 16.5 2.5t8.5 17.5q-1 6 -8.5 12t-12.5 8zM600 861q1 -15 7 -25t13 -24q14 -8 19 -5
t4 12q0 7 -5.5 15t-13 14.5t-14.5 11t-10 6.5v-5zM399 536l2 -101l-384 -24l-2 134zM65 442h57q-12 6 -20.5 7t-20.5 1h-16v-8zM304 475q4 -1 14.5 -1.5t22 -1t22 -1.5t14.5 -2h6l1 17q-20 0 -40.5 -2t-39.5 -9zM287 479q-2 0 -2 -4t2 -4t2 4t-2 4zM70 492h57q-7 4 -14 12
t-9 21h-34v-33zM139 496q-2 0 -2 -4.5t2 -4.5t2 4.5t-2 4.5zM171 496q1 0 15.5 -1t22.5 -1q31 0 45.5 2.5t26 6.5t26.5 7.5t47 5.5h-195zM366 520q-3 0 -3 -4.5t3 -4.5q2 0 2 4.5t-2 4.5z" />
    <glyph glyph-name="Eacute" unicode="&#xc9;" horiz-adv-x="681" 
d="M15 966l630 12l13 -121q-48 27 -97.5 39t-99 16t-99 3t-97.5 1l-45 -408l246 14l-4 -63l-241 -13l-54 -371q78 -3 140.5 5t112.5 23t87.5 34.5t65.5 39t47.5 37t32.5 28.5l-9 -215l-606 -18zM92 368q-11 0 -16.5 -14.5t-7 -36.5t0 -49.5t4.5 -52.5t6.5 -45.5t6.5 -29.5
q1 -2 3 -7.5t3 -8.5q2 18 1.5 46t-1 61t-1 68.5t0.5 68.5zM140 923q5 -18 1 -32t-10 -26.5t-10.5 -25.5t-0.5 -29q0 -1 1 -2q0 -1 1 -2q17 23 39.5 54t32.5 62zM89 677q-20 0 -26.5 -21t-5 -49t7 -55t8.5 -39q0 -3 2.5 -11t2.5 -10q5 7 4 31.5t-2.5 54t0.5 57t13 39.5
q-1 0 -2 1zM594 123q-14 -14 -40.5 -24t-57 -16.5t-59 -9.5t-45.5 -4q-4 0 -10.5 -3.5t-7.5 -5.5q2 0 12 -0.5t12 -0.5q50 -2 93.5 9t90.5 23q5 5 8 14t4 18zM64 913l-1.5 -11t-2.5 -27t-2 -32.5t-1 -27.5q1 -2 1 -4q0 -4 1 -5q0 -3 2 -7t2 -5q6 19 7.5 32.5t4.5 26
t9.5 26.5t21.5 34h-42zM136 308q1 7 5 27t8.5 42t8 42t4.5 28q2 5 2.5 17t0.5 17h-6q-10 0 -14 -12l-12 -151zM153 784q-9 0 -14 -7t-7.5 -16.5t-2 -19.5t2.5 -17q1 -2 2 -8t2 -8l23 75h-3q-1 0 -3 1zM172 535q-8 -6 -10 -15.5t-3 -18.5q5 6 8 15.5t5 18.5zM143 124q5 4 7 7
t0 9q0 2 -1 3.5t-1 2.5zM226 842q-4 0 -2.5 -6t4.5 -6q5 0 3.5 6t-5.5 6zM161 810q-3 0 -2 -5.5t5 -5.5q5 0 3.5 5.5t-6.5 5.5zM184 604q-5 0 -3.5 -5t5.5 -5q5 0 4 5t-6 5zM151 172q-5 1 -3 -4.5t5 -6.5q4 0 3 5.5t-5 5.5zM174 561q-4 0 -2 -5t5 -5q5 0 3 5t-6 5zM73 475
q-4 1 -3 -4t5 -7q4 0 2.5 5.5t-4.5 5.5zM179 583q-3 0 -2 -5.5t5 -5.5q3 0 2 5.5t-5 5.5zM198 992l213 209l71 -115zM449 1123q-29 -17 -42 -25t-22.5 -14.5t-22 -14t-40.5 -23.5h9l118 51v26zM289 1062l-9 -9h9q2 0 11 7t21.5 17t28 21t30.5 20z" />
    <glyph glyph-name="Ebreve" unicode="&#x114;" horiz-adv-x="681" 
d="M15 966l630 12l13 -121q-48 27 -97.5 39t-99 16t-99 3t-97.5 1l-45 -408l246 14l-4 -63l-241 -13l-54 -371q78 -3 140.5 5t112.5 23t87.5 34.5t65.5 39t47.5 37t32.5 28.5l-9 -215l-606 -18zM92 368q-11 0 -16.5 -14.5t-7 -36.5t0 -49.5t4.5 -52.5t6.5 -45.5t6.5 -29.5
q1 -2 3 -7.5t3 -8.5q2 18 1.5 46t-1 61t-1 68.5t0.5 68.5zM140 923q5 -18 1 -32t-10 -26.5t-10.5 -25.5t-0.5 -29q0 -1 1 -2q0 -1 1 -2q17 23 39.5 54t32.5 62zM89 677q-20 0 -26.5 -21t-5 -49t7 -55t8.5 -39q0 -3 2.5 -11t2.5 -10q5 7 4 31.5t-2.5 54t0.5 57t13 39.5
q-1 0 -2 1zM594 123q-14 -14 -40.5 -24t-57 -16.5t-59 -9.5t-45.5 -4q-4 0 -10.5 -3.5t-7.5 -5.5q2 0 12 -0.5t12 -0.5q50 -2 93.5 9t90.5 23q5 5 8 14t4 18zM64 913l-1.5 -11t-2.5 -27t-2 -32.5t-1 -27.5q1 -2 1 -4q0 -4 1 -5q0 -3 2 -7t2 -5q6 19 7.5 32.5t4.5 26
t9.5 26.5t21.5 34h-42zM136 308q1 7 5 27t8.5 42t8 42t4.5 28q2 5 2.5 17t0.5 17h-6q-10 0 -14 -12l-12 -151zM153 784q-9 0 -14 -7t-7.5 -16.5t-2 -19.5t2.5 -17q1 -2 2 -8t2 -8l23 75h-3q-1 0 -3 1zM172 535q-8 -6 -10 -15.5t-3 -18.5q5 6 8 15.5t5 18.5zM143 124q5 4 7 7
t0 9q0 2 -1 3.5t-1 2.5zM226 842q-4 0 -2.5 -6t4.5 -6q5 0 3.5 6t-5.5 6zM161 810q-3 0 -2 -5.5t5 -5.5q5 0 3.5 5.5t-6.5 5.5zM184 604q-5 0 -3.5 -5t5.5 -5q5 0 4 5t-6 5zM151 172q-5 1 -3 -4.5t5 -6.5q4 0 3 5.5t-5 5.5zM174 561q-4 0 -2 -5t5 -5q5 0 3 5t-6 5zM73 475
q-4 1 -3 -4t5 -7q4 0 2.5 5.5t-4.5 5.5zM179 583q-3 0 -2 -5.5t5 -5.5q3 0 2 5.5t-5 5.5zM466 1129q-7 -43 -28 -68t-49 -34.5t-58.5 -6t-55.5 17.5t-41.5 37t-15.5 51l45 3q6 -19 26 -33t44.5 -17t49 9t41.5 46zM265 1076q10 -18 27.5 -27.5t37 -11t38 5.5t32.5 22
q-17 -11 -41.5 -14t-46 -0.5t-36 9.5t-11.5 16z" />
    <glyph glyph-name="Ecaron" unicode="&#x11a;" horiz-adv-x="681" 
d="M15 966l630 12l13 -121q-48 27 -97.5 39t-99 16t-99 3t-97.5 1l-45 -408l246 14l-4 -63l-241 -13l-54 -371q78 -3 140.5 5t112.5 23t87.5 34.5t65.5 39t47.5 37t32.5 28.5l-9 -215l-606 -18zM92 368q-11 0 -16.5 -14.5t-7 -36.5t0 -49.5t4.5 -52.5t6.5 -45.5t6.5 -29.5
q1 -2 3 -7.5t3 -8.5q2 18 1.5 46t-1 61t-1 68.5t0.5 68.5zM140 923q5 -18 1 -32t-10 -26.5t-10.5 -25.5t-0.5 -29q0 -1 1 -2q0 -1 1 -2q17 23 39.5 54t32.5 62zM89 677q-20 0 -26.5 -21t-5 -49t7 -55t8.5 -39q0 -3 2.5 -11t2.5 -10q5 7 4 31.5t-2.5 54t0.5 57t13 39.5
q-1 0 -2 1zM594 123q-14 -14 -40.5 -24t-57 -16.5t-59 -9.5t-45.5 -4q-4 0 -10.5 -3.5t-7.5 -5.5q2 0 12 -0.5t12 -0.5q50 -2 93.5 9t90.5 23q5 5 8 14t4 18zM64 913l-1.5 -11t-2.5 -27t-2 -32.5t-1 -27.5q1 -2 1 -4q0 -4 1 -5q0 -3 2 -7t2 -5q6 19 7.5 32.5t4.5 26
t9.5 26.5t21.5 34h-42zM136 308q1 7 5 27t8.5 42t8 42t4.5 28q2 5 2.5 17t0.5 17h-6q-10 0 -14 -12l-12 -151zM153 784q-9 0 -14 -7t-7.5 -16.5t-2 -19.5t2.5 -17q1 -2 2 -8t2 -8l23 75h-3q-1 0 -3 1zM172 535q-8 -6 -10 -15.5t-3 -18.5q5 6 8 15.5t5 18.5zM143 124q5 4 7 7
t0 9q0 2 -1 3.5t-1 2.5zM226 842q-4 0 -2.5 -6t4.5 -6q5 0 3.5 6t-5.5 6zM161 810q-3 0 -2 -5.5t5 -5.5q5 0 3.5 5.5t-6.5 5.5zM184 604q-5 0 -3.5 -5t5.5 -5q5 0 4 5t-6 5zM151 172q-5 1 -3 -4.5t5 -6.5q4 0 3 5.5t-5 5.5zM174 561q-4 0 -2 -5t5 -5q5 0 3 5t-6 5zM73 475
q-4 1 -3 -4t5 -7q4 0 2.5 5.5t-4.5 5.5zM179 583q-3 0 -2 -5.5t5 -5.5q3 0 2 5.5t-5 5.5zM360 1051l130 216l22 -17l-159 -258l-185 223l95 64zM303 1104q2 0 2 2.5t-2 2.5t-2 -2.5t2 -2.5zM240 1223q0 -6 6 -8q5 2 5 10q0 1 -0.5 2.5t-0.5 2.5q-10 -2 -10 -7zM271 1194
q1 2 -1 4.5t-4 1.5t1 -4.5t4 -1.5zM302 1148q-2 2 -8.5 11.5t-12.5 14.5q2 -8 9 -14.5t12 -11.5z" />
    </font>
</defs>
</svg>
