<?xml version="1.0" standalone="no"?>
<!DOCTYPE svg PUBLIC "-//W3C//DTD SVG 1.1//EN" "http://www.w3.org/Graphics/SVG/1.1/DTD/svg11.dtd" >
<svg>
<metadata>
Created by FontForge 20120731 at Fri Oct 18 13:57:10 2019
 By www-data
Created by User's name with Font.My (http://font.my)
</metadata>
<defs>
<font id="HomegirlHarvest" horiz-adv-x="404" >
  <font-face 
    font-family="HomegirlHarvest"
    font-weight="500"
    font-stretch="normal"
    units-per-em="1000"
    panose-1="2 0 6 3 0 0 0 0 0 0"
    ascent="800"
    descent="-200"
    x-height="513.5"
    cap-height="713"
    bbox="9.22222 -220 637.5 773.538"
    underline-thickness="50"
    underline-position="-100"
    unicode-range="U+0020-201D"
  />
<missing-glyph horiz-adv-x="364" 
d="M33 0v666h265v-666h-265zM66 33h199v600h-199v-600z" />
    <glyph glyph-name=".notdef" horiz-adv-x="364" 
d="M33 0v666h265v-666h-265zM66 33h199v600h-199v-600z" />
    <glyph glyph-name=".null" horiz-adv-x="0" 
 />
    <glyph glyph-name="nonmarkingreturn" horiz-adv-x="333" 
 />
    <glyph glyph-name="space" unicode=" " horiz-adv-x="410" 
 />
    <glyph glyph-name="exclam" unicode="!" horiz-adv-x="81" 
d="M26 40q6 6 15 6t16 -6l3 -3q6 -7 6 -15.5t-6.5 -15t-15 -6.5t-15.5 6l-3 3q-6 7 -6 16t6 15zM52.5 709.5q8.5 -1.5 14 -8.5t4.5 -16l-2 -11q-1 -11 -7 -86q-5 -74 -7 -198q-2 -123 -2 -159v-37q0 -9 -6 -15.5t-15 -6.5t-15.5 6.5t-6.5 15.5v36q0 37 2 161.5t8 199.5
q5 77 7 89l1 11q2 9 9 14.5t15.5 4z" />
    <glyph glyph-name="quotedbl" unicode="&#x22;" horiz-adv-x="173" 
d="M120.5 633q7.5 4 16 1t12.5 -11l7 -13q9 -18 6 -77q-3 -56 -10 -83l-7 -25q-3 -9 -10.5 -13.5t-16 -2t-13 10.5t-2.5 16l7 25q6 23 9 74q2 46 -2 56l-6 13q-4 8 -1 16.5t10.5 12.5zM24 641.5q8 3.5 16 0.5t12 -11l4 -10q6 -12 11 -54q6 -43 -5 -90l-10 -44
q-1 -9 -9 -13.5t-16.5 -3t-13 9.5t-3.5 16l10 44q9 40 5 76q-5 34 -8 42l-4 9q-4 8 -0.5 16.5t11.5 12z" />
    <glyph glyph-name="numbersign" unicode="#" horiz-adv-x="437" 
d="M33.5 424.5q-2.5 8.5 2 16t13.5 9.5l37 10q19 5 53 10v2.5v2.5q-2 48 -3 87q-13 -3 -26 -5l-75 -13q-8 -2 -15.5 3t-9 13.5t3.5 16t14 9.5l74 13q16 3 33 6q0 17 1 31l1 59q0 9 6.5 15.5t15.5 6t15 -7t6 -15.5l-1 -59q-1 -12 -1 -25q41 5 84 6h7q-1 38 1 54l2 25
q1 9 8 14.5t15.5 5t14.5 -7.5t5 -16l-2 -25q-2 -12 -1 -48q40 1 53 0l18 -1q9 0 14.5 -7t5.5 -15.5t-7 -14.5t-16 -6l-18 1q-10 1 -49 0q1 -20 1 -43q1 -23 2 -42q41 3 60 2l31 -2q9 0 15 -7t5.5 -15.5t-7 -14.5t-15.5 -6l-31 2q-16 1 -56 -2q2 -46 3 -71l2 -44q1 -9 -5 -16
t-15 -7.5t-15.5 6t-7.5 14.5l-2 45q-1 24 -3 69q-17 -2 -37 -4q-29 -3 -54 -6q2 -60 2 -72v-14q0 -9 -6 -15.5t-15 -6.5t-15.5 6.5t-6.5 15.5v14q0 10 -2 66q-29 -4 -44 -8l-37 -10q-9 -2 -16.5 2.5t-10 13zM270 573h-6q-44 -1 -85 -6q1 -40 3 -90v-1q23 3 52 6q21 2 39 4
q-1 20 -2 44q0 24 -1 43z" />
    <glyph glyph-name="dollar" unicode="$" horiz-adv-x="354" 
d="M213 752q9 0 15 -6.5t6 -15.5l-1 -48v-28q19 -8 33 -19l19 -16q7 -6 7.5 -15t-5 -15.5t-14.5 -7.5t-16 5l-19 16q-2 2 -5 3q1 -46 3 -114q1 -55 3 -108q12 -7 23 -15q26 -20 47 -54q22 -34 31 -72q10 -41 -1.5 -79.5t-46.5 -69.5q-14 -13 -29 -22q2 -12 4 -18l7 -35
q2 -9 -3 -16.5t-13.5 -9.5t-16 3t-9.5 14l-7 35q-1 3 -2 7q-2 -1 -4 -1q-9 -3 -18 -5q1 -7 1 -11l3 -20q1 -9 -5 -16t-14.5 -8t-15.5 4.5t-8 14.5l-2 21q-1 4 -2 14q-16 1 -34 5q-57 14 -85 66q-25 49 -25 69v15q0 8 6 14.5t15 6.5t15.5 -6.5t6.5 -14.5v-15q0 -11 20 -49
q19 -35 57 -44l20 -4q-3 25 -6 61q-9 98 -14 226v12q-10 5 -21 10q-42 20 -68 47q-28 29 -33 70q-6 40 6 70q11 32 44 55q30 21 68 28v57l-1 18q0 9 6 15.5t14.5 7t15.5 -5.5t7 -15l1 -18v-56q9 -1 17 -2v16l1 48q0 9 6.5 15t15.5 6zM177 366q5 -121 14 -214q3 -38 6 -64
q4 1 8 3l12 4q-5 42 -11 118q-5 70 -9 144q-6 3 -13 6q-3 1 -7 3zM242 328q3 -57 7 -111q5 -57 9 -97l5 5q26 23 34 50q9 27 1 57q-7 31 -25 59q-15 23 -31 37zM176 414q9 -4 19 -9q-1 42 -2 85q-2 82 -3 133q-8 2 -17 3v-22q-1 -86 3 -190zM132 435q-3 92 -2 169v18
q-24 -6 -44 -20q-21 -15 -28 -34q-8 -20 -4 -49q4 -28 22 -47q20 -20 55 -37h1z" />
    <glyph glyph-name="percent" unicode="%" horiz-adv-x="467" 
d="M382 164l-5 -4q-5 -4 -18 -22q-12 -17 -16 -36q-3 -17 3 -35q6 -16 19 -23q12 -6 20 -2q10 4 17 17q9 15 11 32t-1 32q-4 15 -13 27q-9 11 -17 14zM354 197q3 8 11 11.5t16 0.5l15 -5q20 -7 36 -27t22 -44q5 -22 2 -47q-3 -26 -16 -48q-15 -26 -38 -36q-27 -11 -56 4
q-29 14 -40 46q-11 30 -5 59q6 27 23 52q17 23 27 31zM76 667l-3 -3q-5 -6 -12 -24q-10 -25 -8 -55q2 -28 11 -38q7 -7 16 -6q10 1 18 14q11 17 12 37q2 21 -4 36q-7 15 -18 27zM78 702q15 10 27 -3l14 -14q17 -18 27 -41q9 -24 7 -55q-2 -32 -19 -57q-19 -29 -48 -34
q-32 -4 -54 20q-19 22 -22 64q-2 40 11 74q1 2 3.5 9t3.5 9l3.5 7t4.5 7l5 5l6 6l6 4q12 8 25 -1zM392 734q8 -4 11 -13t-1 -16l-29 -56q-28 -56 -80 -161.5t-99 -214.5q-48 -110 -71 -168q-24 -60 -28 -68l-4 -7q-4 -8 -12.5 -11t-16.5 1t-11 12.5t1 16.5l4 7q3 7 27 65
q24 59 71 169q48 110 100 216t81 162l28 56q4 8 12.5 11t16.5 -1z" />
    <glyph glyph-name="ampersand" unicode="&#x26;" horiz-adv-x="281" 
d="M187.5 773.5q8.5 -0.5 14.5 -7.5t6 -16l-2 -25q-2 -26 -3 -34v-8q-1 -9 -8 -14.5t-16 -4.5t-14.5 8t-4.5 15l1 8q0 8 2 33l2 25q0 9 7 15t15.5 5.5zM160 90q9 -1 15 -7.5t5 -15.5l-5 -66q0 -9 -7 -15t-15.5 -5.5t-14.5 7.5t-6 16l5 66q1 9 7.5 15t15.5 5zM166 381
q-10 -2 -30 -10q-26 -11 -46 -25q-17 -13 -27.5 -35t-9.5 -48q1 -25 10 -39q11 -16 30 -32q15 -12 34 -11q22 0 45.5 15t35.5 36l14 27q4 8 12.5 10.5t16.5 -1.5t10.5 -12.5t-1.5 -16.5l-14 -27q-17 -31 -51 -52.5t-66 -21.5q-35 -1 -63 21q-25 20 -39 42q-15 24 -17 60
q-1 37 14 69t41 51q11 8 24 15q-10 6 -21 16q-31 29 -38 77t18 87q24 38 56 51q29 12 68 11q38 -2 62 -17q23 -14 30 -25l4 -7q4 -7 2.5 -16t-9 -13.5t-16.5 -2.5t-14 9l-4 7q-3 4 -16 12q-14 8 -41 10q-29 1 -50 -8q-19 -8 -36 -34q-16 -25 -11.5 -58t24.5 -51t39 -19
q17 -1 26 -1h2q3 0 7.5 -10.5t5.5 -20t-6 -12.5h-5z" />
    <glyph glyph-name="quotesingle" unicode="'" horiz-adv-x="75" 
d="M35.5 680.5q8.5 1.5 16 -3.5t9.5 -14l2 -12q3 -15 1 -71t-7 -79l-5 -22q-1 -9 -8.5 -14t-16.5 -3t-13.5 9.5t-3.5 16.5l5 22q5 20 6 71q2 51 0 62l-3 12q-1 9 4 16.5t13.5 9z" />
    <glyph glyph-name="parenleft" unicode="(" horiz-adv-x="215" 
d="M196 733.5q7 -5.5 8.5 -14t-3.5 -15.5l-30 -42q-28 -40 -60 -117q-31 -77 -45 -142t-13 -141q1 -77 14.5 -147.5t33.5 -126.5q21 -56 49 -98l29 -44q5 -7 3 -16t-9.5 -14t-16 -3t-13.5 9l-29 44q-30 47 -53 107q-22 60 -36 134t-15 154q-1 82 14 151t48 149q33 81 64 125
l30 42q5 8 14 9.5t16 -4z" />
    <glyph glyph-name="parenright" unicode=")" horiz-adv-x="238" 
d="M14.5 740.5q5.5 6.5 14.5 8t16 -4.5l7 -5q9 -7 32 -38q22 -29 50 -72t48 -94q21 -50 30 -94q10 -43 14 -96t0 -104q-5 -52 -17 -101q-11 -47 -25 -96q-13 -51 -35 -101q-21 -49 -37 -76l-15 -27q-4 -8 -12.5 -10.5t-16.5 2t-10 13t2 16.5l15 27q14 25 35 73q20 47 33 94
q13 48 25 95q11 46 15 95q4 48 0 97q-3 50 -13 90q-9 40 -28 87t-44 87q-27 42 -48 69q-19 25 -25 30l-7 5q-7 6 -8 15t4.5 15.5z" />
    <glyph glyph-name="asterisk" unicode="*" horiz-adv-x="284" 
d="M19 616.5q6 6.5 15 7t15 -5.5l11 -10q11 -10 70 -74q0 -1 1.5 -2.5l2.5 -2.5q2 62 5 77l3 15q2 8 9.5 13.5t16 3.5t13.5 -9.5t3 -15.5l-2 -15q-2 -8 -4 -45l58 56q7 7 16 6.5t15 -6.5t6 -15t-7 -15l-67 -66l-7 -7q34 4 44 5l14 2q9 1 16 -4.5t8 -14t-4.5 -16t-13.5 -8.5
l-14 -2q-11 -1 -49 -5q12 -13 19 -22l23 -29q6 -6 5 -15t-7.5 -14.5t-15.5 -5t-15 7.5l-23 28l-6 8q-1 -16 -1 -29l-2 -46q0 -9 -6.5 -15t-15.5 -5.5t-15 7t-6 14.5l2 46q1 23 2 53q-19 -18 -33 -31l-33 -33q-6 -7 -15 -6.5t-15.5 6.5t-6 15t6.5 15l33 33l6 6q-10 -1 -17 -1
l-24 -1q-9 -1 -16 5.5t-7 15t6 15t14 7.5l25 1q15 1 50 4q-2 3 -7 8q-58 63 -67 72l-11 9q-6 6 -6.5 15t5.5 15.5z" />
    <glyph glyph-name="plus" unicode="+" horiz-adv-x="432" 
d="M10.5 285.5q-2.5 8.5 2 16t12.5 10.5l10 3q12 3 67 8q52 4 103 5h1q-1 70 0 109l1 42q0 9 6.5 15t15.5 6t15 -6.5t6 -15.5l-1 -42q-1 -38 0 -108q31 0 65 -1q58 -3 76 -7l15 -3q9 -1 14 -8.5t3 -16.5t-9.5 -14t-15.5 -3l-16 3q-14 3 -69 6q-32 1 -62 1q0 -59 2 -117
l1 -73q0 -8 -6 -14.5t-15 -7t-15.5 6t-6.5 14.5l-1 73q-2 58 -2 118h-1q-49 0 -101 -5q-49 -4 -58 -6l-9 -3q-9 -3 -17 1.5t-10.5 13z" />
    <glyph glyph-name="comma" unicode="," horiz-adv-x="79" 
d="M35 124q9 1 16 -4.5t8 -13.5l7 -46q7 -49 -1 -91q-8 -40 -11 -48l-2 -7q-3 -9 -11 -13t-16.5 -1t-12.5 11t-1 16l2 7q2 6 10 43q6 35 0 77l-6 46q-2 8 3.5 15.5t14.5 8.5z" />
    <glyph glyph-name="hyphen" unicode="-" horiz-adv-x="341" 
d="M10.5 265.5q-1.5 8.5 4 16t13.5 8.5l36 5q36 6 82 10q47 3 85 2q37 -1 58 -1h21q9 0 15 -6t6 -15t-6 -15.5t-15 -6.5h-21q-22 0 -59 1q-36 1 -80 -2q-45 -4 -80 -9l-35 -6q-9 -1 -16 4.5t-8.5 14z" />
    <glyph glyph-name="period" unicode="." horiz-adv-x="65" 
d="M16 64q6 6 15 6t16 -6l3 -3q6 -6 6 -15t-6.5 -15.5t-15.5 -6.5t-15 7l-3 3q-6 6 -6 15t6 15z" />
    <glyph glyph-name="slash" unicode="/" horiz-adv-x="372" 
d="M348 704q8 -3 12 -11t1 -17l-2 -7q-3 -8 -28 -58q-23 -48 -53 -120q-31 -72 -71 -176t-81 -215q-42 -111 -58 -155l-16 -43q-3 -9 -11.5 -12.5t-16.5 -0.5t-12 11t-1 17l17 43q16 44 57.5 155t81.5 215q41 105 71 177q30 73 55 123q22 47 25 54l3 7q2 8 10.5 12t16.5 1z
" />
    <glyph glyph-name="zero" unicode="0" horiz-adv-x="481" 
d="M295 633l-3 1q-20 2 -42 -1q-20 -3 -47 -17t-54 -41q-26 -26 -47 -63q-20 -39 -31 -78q-11 -40 -16 -96q-5 -55 2 -105q6 -49 22 -86q15 -37 35 -57q21 -22 38 -31.5t39 -15.5q23 -7 47 -6q25 1 45 6q17 4 39 20q23 17 38 37q16 20 31 53t23 71q8 39 10 69q3 30 4 74
t0 71t-4 51q-3 23 -10 42q-8 20 -17 35.5t-15 23t-15 15.5q-8 7 -19 12q-11 6 -26 9l-17 3q-5 1 -10 4zM332 667q19 -4 34 -11q17 -7 30 -19q11 -10 19.5 -20t19 -29t19.5 -42q9 -24 13 -51q3 -27 4 -56q1 -28 0 -73t-4 -77t-11 -73q-9 -43 -26 -80q-16 -38 -36 -63
q-19 -25 -47 -45t-54 -27q-24 -6 -53 -7q-31 -1 -60 7q-28 8 -50 20.5t-47 38.5t-43 70q-18 42 -26 97q-7 55 -2 115t17 103q13 44 35 87q24 44 55 74q31 31 64 48.5t62 21.5q27 3 51 0l23 -2q7 -1 13 -7z" />
    <glyph glyph-name="one" unicode="1" horiz-adv-x="273" 
d="M10.5 -9q-0.5 9 5.5 15.5t14 6.5l31 2q23 1 60 2v2l-2 16q-1 16 -4.5 78t-2.5 128q1 67 5 161.5t10 171.5q2 35 4 58q-10 -14 -23 -31l-25 -33q-5 -7 -14 -8t-16 4t-8.5 14t4.5 16l25 33q25 33 39 54l15 23q4 7 13 8.5t16 -3.5q6 -3 9 -10q11 -7 11 -20l-1 -15
q-1 -16 -6 -93q-6 -77 -10 -171t-5 -159t2 -126t5 -76l2 -15q0 -4 -1 -7q45 -1 64 -5l19 -4q9 -2 13.5 -9.5t3 -16t-9 -13.5t-16.5 -3l-19 4q-16 4 -70 4q-55 0 -85 -2l-30 -1q-9 -1 -15.5 5t-7 15z" />
    <glyph glyph-name="two" unicode="2" horiz-adv-x="391" 
d="M91 543.5q-9 0.5 -15 7t-5 15.5v14q1 19 19.5 54t52 61t65.5 32q37 7 72 -19q34 -26 43 -74q8 -46 -16 -100q-23 -50 -86 -122q-59 -69 -89.5 -123.5t-45.5 -99.5q-15 -46 -23 -85l-1 -5q16 7 36 10q40 7 93 2q50 -5 92 -6q44 0 62 -3l18 -3q8 -1 13.5 -8t4.5 -16
t-8.5 -14.5t-15.5 -3.5l-18 2q-16 3 -57 3q-43 1 -95 6q-47 4 -82 -1q-30 -6 -42 -19q-1 -1 -2.5 -3.5t-6.5 -7.5t-10 -7t-12.5 -1t-14.5 8q-8 9 -6 23q2 13 10 53q9 41 24 89q16 50 48.5 108t95.5 130q58 67 78 112q19 42 13 74q-5 32 -26 47q-20 15 -38 12q-22 -4 -47 -24
q-27 -20 -40.5 -46.5t-14.5 -36.5v-14q-1 -9 -7.5 -15t-15.5 -5.5z" />
    <glyph glyph-name="three" unicode="3" horiz-adv-x="437" 
d="M94 594q-8 4 -11 12.5t1 16.5l11 23q14 28 39 48.5t55 28.5q29 7 59 4q32 -2 53 -12.5t41 -31.5q21 -22 28 -58q7 -34 0 -68q-8 -33 -30 -67q-17 -25 -36 -44q5 0 9 -1q26 -6 50 -27q23 -19 38 -44q16 -25 22 -61q6 -34 4 -71t-11 -67q-9 -32 -35 -68t-67 -63
q-42 -28 -101.5 -37.5t-109.5 6.5q-52 19 -75 65q-22 45 -17 77l4 24q2 9 9 14t16 4t14 -8.5t4 -16.5l-5 -24q-2 -18 14 -51q15 -31 50 -43q39 -13 89 -5t84 31q35 22 56.5 52t28.5 54q7 27 9 58q2 32 -3 61q-5 28 -16 47q-12 19 -30 34q-16 13 -31 17q-17 3 -38 0
q-2 1 -5 2t-11.5 3.5t-14 6t-10 8t-2 10.5t11.5 12q8 4 29 23q21 18 40 46q18 28 24 53q5 24 0 49q-5 24 -18 38q-14 15 -28 22t-37 9q-24 2 -45 -4q-21 -5 -39 -19.5t-27 -33.5l-12 -24q-3 -8 -11.5 -11t-16.5 1z" />
    <glyph glyph-name="four" unicode="4" horiz-adv-x="351" 
d="M220.5 742.5q8.5 -0.5 14.5 -7.5t5 -16l-3 -42q-3 -42 -2 -176v-62q15 2 29 2l54 4q9 0 15.5 -6t7.5 -14.5t-5 -15.5t-15 -7l-54 -3q-15 -1 -32 -3q0 -81 -2 -160q-2 -131 -4 -163l-2 -32q0 -9 -7 -15t-15.5 -5t-14.5 7.5t-6 15.5l2 32q2 31 4 161q2 76 2 154
q-23 -3 -48 -7q-76 -12 -98 -9q-15 2 -26.5 13.5t-9.5 27.5q2 15 6 60q5 46 8.5 116t3.5 84v16q0 8 6.5 14.5t15 6.5t15 -6.5t6.5 -14.5v-16q0 -15 -3.5 -86.5t-8.5 -117.5q-4 -37 -5 -54q19 -2 83 9q29 4 55 8v66q-1 135 2 179l3 43q1 8 8 14t15.5 5.5z" />
    <glyph glyph-name="five" unicode="5" horiz-adv-x="434" 
d="M359 684.5q3 -8.5 -0.5 -16.5t-11.5 -11l-7 -3q-9 -3 -49 -10q-39 -7 -72.5 -12.5t-54.5 -7.5q-11 -1 -18 -3q-2 -7 -3 -19q-4 -32 -4 -66q0 -36 -1 -68v-3.5v-2.5q17 10 35 16q28 11 72 10q45 -2 84 -27t67 -80q27 -55 28 -109q2 -53 -9 -95q-12 -43 -43 -89
q-32 -47 -80 -79t-105 -35q-58 -4 -98 22q-40 25 -60 72l-17 41q-4 8 -0.5 16.5t11.5 12t16.5 0t11.5 -11.5l18 -41q15 -35 43 -53q29 -18 72 -15q45 2 85 28q40 27 67 67q28 40 37 76q10 36 9 82q-2 45 -25 92q-22 45 -51 63t-63 20q-35 1 -55 -7q-22 -8 -39 -20
q-3 -2 -6.5 -4t-13 -5.5t-16.5 -3.5t-12.5 5.5t-5.5 18.5v41q1 30 1 66q0 37 4 71q1 2 1.5 9.5t1 11t2 9.5t4 10t7 7.5t10.5 6.5q9 3 32 6q21 2 54 7t71 12q35 6 42 9l7 2q8 3 16 -0.5t11 -12z" />
    <glyph glyph-name="six" unicode="6" horiz-adv-x="422" 
d="M54 265q3 -44 17 -86q17 -47 42 -76t51 -42q27 -12 50 -15q21 -3 49 5q27 8 49 28q22 21 37 53q15 33 19 69t-5.5 70t-27.5 57.5t-40.5 36.5t-38.5 16q-16 2 -38 -1q-23 -3 -47 -12q-24 -8 -47 -23t-37 -33q-15 -19 -17 -26l-4 -9q-3 -8 -12 -12zM59 346q17 19 41 35
q28 18 57 28q27 10 54 14q29 4 52 0q24 -4 53 -21t52.5 -47t35.5 -72.5t7 -85.5q-5 -44 -23 -83q-19 -39 -47 -66t-66 -38q-36 -11 -67 -7q-29 4 -62 20q-35 16 -65.5 52t-49.5 90t-21 109q0 15 1 31q3 47 19 112q22 87 62 149q39 60 78 95q39 34 61 44l19 9q8 4 16.5 1
t12 -11t0.5 -16.5t-11 -12.5l-19 -9q-16 -7 -50.5 -37t-70.5 -86t-56 -137q-8 -32 -13 -60z" />
    <glyph glyph-name="seven" unicode="7" horiz-adv-x="400" 
d="M10 683.5q0 8.5 6.5 15t15.5 6.5h8q8 0 37 1t93.5 3t110.5 3q45 1 63 3q36 3 44 -24q5 -16 -7 -53q-10 -31 -29 -89t-41 -120.5t-44.5 -128t-37.5 -114.5t-30.5 -97.5t-23.5 -76.5l-9 -27q-2 -9 -10 -13t-16.5 -1.5t-12.5 10.5t-2 16l9 28q8 28 23 76q16 49 31 98t38 115
q22 66 44 128.5t41 120.5q19 57 29 88q4 12 6 21q-20 -2 -64 -3q-46 -1 -110 -3q-65 -2 -94 -3t-38 -1h-8q-9 0 -15.5 6.5t-6.5 15z" />
    <glyph glyph-name="eight" unicode="8" horiz-adv-x="418" 
d="M199 350q-9 -14 -23 -11l-9 1q-6 1 -17 -1t-25 -13q-15 -11 -31.5 -33t-26.5 -50t-13 -57.5t2 -56.5q4 -26 13 -44q9 -17 23 -29q16 -12 32 -19q17 -7 40 -11t47 -2q26 2 49 9q22 6 44 20q21 15 36 39q15 25 20.5 50.5t4.5 48.5q-2 24 -7 46q-6 20 -17 37q-12 17 -26 27
t-28 16q-15 7 -43 13l-30 7q-11 3 -15 13zM326 619l-19 17q-13 12 -43 20t-68 4q-36 -5 -61 -25q-26 -21 -37 -46q-12 -26 -12 -65q-1 -38 18 -69q19 -30 52 -42q35 -13 70 -5q36 9 55 26q21 19 38 49q16 30 18 60q2 32 -4 54zM359 645q5 -5 7 -11l8 -25q8 -29 6 -69
q-3 -40 -24 -78q-20 -36 -46 -60q-22 -19 -55 -30q31 -8 48 -15q19 -8 38 -22t35 -37t23 -50q7 -26 9 -54q1 -29 -6 -60q-7 -33 -25 -64q-20 -32 -48 -52q-28 -19 -57 -27q-28 -7 -57 -10q-30 -3 -59 3q-27 5 -48 14q-22 9 -43 25q-21 17 -34 42q-13 24 -18 57q-5 32 -2 67
t16 69q12 34 32 61t40 42q16 11 30 16q-39 19 -61 56q-26 41 -25 91q0 48 16 82q16 35 50 62q34 28 82 34q46 6 85 -4q39 -11 60 -30l17 -16q3 -2 6 -7z" />
    <glyph glyph-name="nine" unicode="9" horiz-adv-x="399" 
d="M370.5 739q8.5 -1 14 -8.5t4.5 -15.5l-4 -31q-5 -31 -13 -100q-8 -68 -14 -164q-5 -96 -7 -162t-3 -131t-1 -115v-49q0 -9 -6.5 -15.5t-15.5 -6.5t-15 6.5t-6 15.5v49q0 50 1 115.5t3 131.5q1 37 3 83q-19 -20 -44 -33q-36 -20 -76 -27q-40 -6 -69 1q-31 7 -60 30
q-29 24 -41 61q-12 34 -11 78q1 43 12.5 77.5t39.5 71.5q29 39 76 60q47 20 98 16q49 -5 75 -19q16 -9 25 -17q3 31 6 49l4 31q2 8 9 13.5t15.5 4.5zM315 412q0 8 1 11q5 95 13 164q-6 2 -10 7l-7 10q-5 6 -22.5 16t-57.5 14q-40 3 -77 -13q-36 -15 -58 -45q-24 -33 -34 -60
q-9 -28 -10 -65q-1 -36 8 -64q9 -24 29 -41q21 -17 41 -21q22 -5 54 0t61 21t49 41z" />
    <glyph glyph-name="colon" unicode=":" horiz-adv-x="69" 
d="M16 46q6 6 15 6t16 -6l3 -3q6 -6 6 -15t-6.5 -15t-15.5 -6t-15 6l-3 3q-6 6 -6 15t6 15zM19.5 430q6.5 6 15.5 6t15 -6l3 -3q6 -6 6 -15t-6 -15t-15 -6t-15 6l-4 3q-6 6 -6 15t6.5 15z" />
    <glyph glyph-name="semicolon" unicode=";" horiz-adv-x="101" 
d="M66 102.5q9 0.5 15.5 -5t7.5 -14.5l2 -45q4 -50 -13 -83q-15 -29 -23 -40l-7 -8q-5 -7 -14 -8t-16 4.5t-8 14.5t5 16l7 8q5 7 18 33q11 22 9 61l-3 44q-1 9 5 15.5t15 7zM50.5 445q6.5 6 15.5 6t15 -6l3 -3q6 -6 6 -15t-6 -15.5t-15 -6.5t-16 6l-3 3q-6 7 -6 16t6.5 15z
" />
    <glyph glyph-name="less" unicode="&#x3c;" horiz-adv-x="427" 
d="M416.5 484.5q3.5 -8.5 -0.5 -16.5t-12 -11l-30 -12q-29 -10 -86 -42q-58 -31 -114 -64q-57 -34 -89 -52q-8 -5 -15 -9q30 -16 86 -47q58 -31 99 -53q42 -22 62 -34l19 -12q7 -4 9.5 -13t-2.5 -16.5t-13.5 -9.5t-16.5 3l-19 11q-18 12 -59 33q-41 22 -99.5 53.5
t-88.5 47.5q-59 32 -25 58q9 6 42 25q31 18 88 52q57 33 115 65q60 33 92 45l30 11q8 3 16 -0.5t11.5 -12z" />
    <glyph glyph-name="equal" unicode="=" horiz-adv-x="323" 
d="M17 210.5q-2 8.5 3 16t14 9.5l13 3q15 3 88 6q70 3 107 2t46 -3l7 -2q8 -1 13 -8.5t3.5 -16.5t-9 -13.5t-16.5 -3.5l-7 2q-6 1 -38 2q-35 1 -105 -2q-68 -3 -80 -5l-14 -3q-8 -2 -15.5 3t-9.5 13.5zM10.5 402.5q1.5 8.5 9 14t16.5 3.5l8 -2q9 -1 64 2q61 2 113 6
q53 5 63 4h9q9 0 15 -6.5t5.5 -15.5t-7 -15t-15.5 -6h-8q-8 1 -59 -3q-52 -5 -114 -7q-63 -3 -74 -1l-9 2q-8 1 -13 8.5t-3.5 16z" />
    <glyph glyph-name="greater" unicode="&#x3e;" horiz-adv-x="436" 
d="M12.5 457.5q4.5 7.5 13 10.5t15.5 -1l24 -13q22 -12 75 -37q53 -26 100 -50.5t93 -48.5q44 -24 65 -33q25 -11 28 -32q2 -12 -4 -25q-9 -16 -24 -27.5t-44 -26.5q-48 -25 -104 -55q-56 -29 -101.5 -52t-62.5 -30l-16 -6q-8 -4 -16 -0.5t-11.5 12t0 16.5t11.5 12l16 6
q15 6 59 28q45 23 101 52.5t105 55.5q37 19 47 32q-24 10 -70 35q-45 24 -91.5 48t-99.5 50t-77 38l-23 13q-7 4 -10 12.5t1.5 16z" />
    <glyph glyph-name="question" unicode="?" horiz-adv-x="304" 
d="M88 51q6 6 15 6t15 -6l3 -3q7 -6 7 -15t-6.5 -15.5t-15.5 -6.5t-15 7l-3 3q-6 6 -6 15t6 15zM26.5 571.5q-8.5 2.5 -13.5 10t-2 16.5l4 17q6 23 37 52q29 28 64 38q36 9 77 -7q40 -16 67 -53q26 -35 33 -71q6 -37 -7 -77q-13 -43 -49 -63q-32 -19 -55 -23q-17 -3 -29 -5
q-1 -3 -1 -6q-3 -20 -5 -61q-3 -41 -5 -65l-1 -24q-1 -9 -7.5 -15t-15.5 -5t-15 7.5t-5 15.5l2 24q1 23 4 66q2 41 5 63q5 37 33 41q13 3 32 6q16 3 41 18q22 12 31 39q9 30 4 56q-4 26 -25 54q-20 26 -48 38q-27 11 -50 5q-24 -7 -45.5 -27.5t-24.5 -31.5l-5 -17
q-2 -9 -9.5 -13.5t-16 -2z" />
    <glyph glyph-name="at" unicode="@" horiz-adv-x="590" 
d="M401 315q-3 4 -4 8l-2 7q-2 6 -12 19q-12 15 -36 31q-21 13 -45 9t-45 -27q-23 -24 -37 -64q-15 -41 -18 -88t3 -81q5 -30 25 -52q18 -20 40 -23q22 -2 45 12q25 16 43 50q19 35 28 76q8 42 12 75q3 27 3 48zM437 357q14 -11 8 -15q1 -10 -1 -43q-1 -31 1 -69t6 -67
q3 -27 13 -54q9 -26 20 -40l4 -4h1q8 2 20 21q13 22 21 60q8 41 7 90q-1 50 -13 105q-11 53 -42 106q-30 51 -60 71q-31 21 -66 29q-35 7 -79 -5q-44 -11 -76 -37q-33 -28 -60 -64q-27 -38 -52 -93t-32 -104q-7 -50 -2.5 -98.5t23.5 -105.5q18 -56 41 -85t51 -48
q29 -18 69 -30q39 -11 75 -9q37 3 72 12t61 24l29 16q8 4 16.5 1.5t12.5 -10t1.5 -16.5t-9.5 -13l-29 -16q-31 -17 -71 -28q-39 -10 -81 -13q-43 -2 -89 11t-80 35q-34 23 -61.5 58t-48.5 97t-25.5 115.5t3.5 107.5q7 56 35 116q27 60 56 101q30 41 68 72q39 32 92 46
q54 14 99 5q43 -10 81 -35q39 -26 74 -86q34 -58 47 -118q12 -59 13 -113t-8 -99q-9 -46 -27 -75q-20 -32 -43 -39q-30 -10 -52 19q-15 19 -27 52q-6 18 -10 37q-7 -19 -17 -36q-23 -44 -58 -66q-36 -23 -74 -18t-67 37q-27 31 -35 73q-7 39 -3 91.5t20 98.5q17 49 47 80
q31 33 70 39q39 7 74 -15q30 -19 47 -41q5 -7 9 -13z" />
    <glyph glyph-name="A" unicode="A" horiz-adv-x="513" 
d="M25 -14q-8 3 -12.5 11t-1.5 16l3 9q3 9 18 57t46 146t51 163q19 66 43.5 145t40.5 127t23 66q5 12 14 17q5 3 9.5 4t8 0t7 -2.5t6 -4.5t5 -5.5t4 -6.5t2.5 -6t2 -4.5l1 -2.5q14 -33 31 -112q16 -77 39 -171q22 -94 43 -166.5t47 -148.5q25 -76 36 -105l11 -28
q4 -9 0.5 -17t-12 -11t-16.5 0.5t-12 11.5l-11 29q-12 29 -37 106q-12 35 -22 69h-2h-14q-13 0 -54 -1q-41 0 -91 -4q-49 -4 -89 -12l-41 -8q-2 -1 -3 -1q-16 -50 -25 -80q-15 -48 -18 -57l-3 -9q-3 -8 -11 -12.5t-16 -1.5zM113 193l20 4q43 8 94 12q52 5 94 5q41 1 55 1h2
q-5 19 -11 39q-22 73 -44 168q-23 94 -39 172q-11 52 -20 82q-5 -13 -10 -30q-16 -48 -40 -126q-25 -79 -44.5 -144.5t-50.5 -163.5q-5 -16 -6 -19z" />
    <glyph glyph-name="B" unicode="B" horiz-adv-x="446" 
d="M31 729.5q9 0.5 15.5 -6t6.5 -15.5l1 -31q2 1 9 6q32 20 70 12q41 -7 54 -34q11 -24 2 -58q-8 -32 -41 -61q39 4 76 -1q38 -6 72.5 -25.5t61.5 -53.5q27 -33 47 -74q20 -42 27.5 -87.5t1.5 -89.5q-5 -43 -22 -84q-17 -42 -45 -77t-63 -57.5t-73 -31.5t-75 -5
q-35 3 -66 14l-28 10q-10 3 -13 13q-14 5 -15 19v11q-1 11 -6 84t-9.5 222.5t-6.5 264.5l-2 114q0 8 6 14.5t15 7zM77 20l27 -9q26 -9 56 -12t61 4.5t60 25.5t53 48q24 29 38 66q15 36 20 74q5 37 -2 76.5t-24 75.5q-18 37 -41 66q-22 28 -49.5 43.5t-57.5 19.5q-32 5 -64 1
q-33 -4 -62 -12q-23 -7 -34 -10q1 -68 4 -146q4 -149 9 -221q5 -74 6 -84v-6zM56 530q5 3 12 6q22 13 50 36q24 21 29 41t1 29q-3 7 -23 11q-22 4 -39 -7q-17 -10 -22 -16l-4 -7q-2 -4 -5 -7v-22q1 -30 1 -64z" />
    <glyph glyph-name="C" unicode="C" horiz-adv-x="423" 
d="M351.5 619q-7.5 -4 -16.5 -1.5t-13 10.5l-5 10q-4 7 -14 16q-12 10 -34 20q-21 10 -44.5 10.5t-41.5 -7.5t-38 -28q-21 -20 -37 -52q-17 -33 -27 -66q-10 -34 -17.5 -82t-9.5 -97t1 -95t11 -83q8 -35 22 -59q14 -25 29 -41q15 -15 35 -27t41.5 -18t44 -5.5t42.5 6.5
q19 5 33.5 15t26.5 26t18 32q7 17 10 31l3 17q1 8 8.5 13t16 3.5t13.5 -9t4 -15.5l-3 -17q-4 -18 -12 -38q-8 -22 -24 -43q-16 -22 -36.5 -35.5t-45.5 -21.5q-26 -7 -54 -7q-28 -1 -56 7q-27 7 -52 22t-44 35q-18 19 -35 49t-27 71q-8 40 -12 89q-3 49 -1 100t10 102t19 88
t30 73q19 38 45 63q25 25 51 36q26 12 59 11.5t63 -14.5q27 -13 42 -26q17 -14 24 -28l6 -11q4 -8 1.5 -16.5t-10 -12.5z" />
    <glyph glyph-name="D" unicode="D" horiz-adv-x="329" 
d="M55 2q-2 -1 -5 -1q-9 0 -15.5 6t-7.5 14l-4 75q-4 74 -6 174t-5 226q-3 127 -2 167l1 40q0 9 6.5 15.5t15.5 5.5h5q8 11 21 10l9 -1q12 -1 46 -16q33 -14 72 -41q39 -28 73 -70q35 -42 50 -88q16 -47 8 -113q-8 -65 -39 -130q-31 -62 -68 -124t-77 -113l-40 -49
q-5 -7 -14 -8t-16 4q-8 7 -8 17zM70 28l29 37q39 49 74 108q36 60 66 121q28 59 35 116q7 56 -6 94q-12 39 -42 75q-31 37 -65 62q-35 24 -64 37q-26 11 -34 13h-8h-1l-1 -28q-1 -40 2 -166q3 -125 5 -226q2 -99 6 -173z" />
    <glyph glyph-name="E" unicode="E" horiz-adv-x="331" 
d="M310 692.5q1 -8.5 -4.5 -15.5t-14.5 -8l-38 -5q-38 -4 -73.5 -9.5t-65.5 -11.5q-23 -4 -29 -12q-7 -8 -12 -47q-5 -47 -8 -110q-4 -64 -6 -124q-1 -5 -1 -11q12 1 31 2q35 1 52 0h16q8 -1 14 -7.5t6 -15.5t-7 -15t-16 -5h-15q-15 1 -47 0q-26 -2 -35 -2q-1 -35 -2 -72
q-2 -67 -2 -115v-71q0 -13 4 -20q8 -4 31 -5q36 -3 80 -1q46 2 89 2h43q9 0 15 -6.5t6 -15.5t-6 -15t-15 -6h-43q-43 0 -87 -2q-46 -2 -85 1q-48 3 -63 22q-12 17 -12 46v71q0 49 1.5 116t4 127t6.5 124q3 65 9 112q6 53 21 71q15 19 54 26q31 7 67 12.5t75 9.5l38 4
q9 1 16 -4.5t8 -14z" />
    <glyph glyph-name="F" unicode="F" horiz-adv-x="362" 
d="M21 684q-3 10 3 19q2 7 8.5 11.5t14.5 3.5l6 -2l3 1q24 7 67 8q39 1 101 2q61 1 84 0l24 -1q9 0 15 -6.5t5.5 -15.5t-7 -15t-15.5 -6l-23 1q-23 1 -83 0t-100 -2q-37 -1 -55 -6l-5 -2v-53q0 -43 -1 -102h3l29 2q29 2 45 3h16q8 1 15 -5t7.5 -15t-5.5 -15.5t-15 -7.5h-15
q-16 -1 -45 -3l-30 -1q-3 -1 -7 0q-3 -84 -6.5 -172.5t0.5 -181.5q3 -94 4 -125v-30q1 -9 -5.5 -15.5t-15 -6.5t-15 6t-7.5 15v30q-1 30 -4.5 125t0.5 184q3 91 6 174q3 85 3 141v61v2z" />
    <glyph glyph-name="G" unicode="G" horiz-adv-x="444" 
d="M247 386q0 9 6.5 15t15.5 6h30q32 0 60 -5q15 -2 26 -4q3 1 7 1q4 -1 8 -3h1l15 -2q9 -1 14.5 -8t4.5 -16t-8.5 -14.5t-15.5 -4.5l-2 1q0 -6 -1 -13q0 -21 -2 -55q-2 -35 -6 -71q-4 -38 -13 -73t-24 -67q-16 -34 -34 -54q-19 -21 -46 -33q-28 -12 -59 -11q-29 2 -58 14
q-28 13 -54 37q-25 23 -42.5 50t-33.5 79q-17 51 -23 105q-5 54 -2 108t10 97q6 43 19 91q13 49 32 86q20 40 41 58q23 19 60 25q36 5 64 -4q25 -7 51 -24t43 -36l16 -17q6 -6 5.5 -15t-7 -15t-15.5 -5.5t-15 6.5l-15 17q-14 15 -35 28.5t-41 19.5q-18 6 -45 2
q-25 -3 -38 -15q-14 -12 -30 -44q-17 -34 -30 -78q-12 -46 -18 -86q-6 -41 -9 -93q-3 -51 2 -101t20 -97q16 -47 30 -69t35 -41t43 -29q21 -10 42 -11t39 7q19 9 32 23q14 15 27 43t21 60q9 32 12 67q4 35 6 68q2 34 2 55q1 10 1 17q-6 1 -14 2q-25 4 -53 4h-30
q-9 0 -15.5 6.5t-6.5 15.5z" />
    <glyph glyph-name="H" unicode="H" horiz-adv-x="300" 
d="M273.5 745.5q8.5 -1.5 13.5 -9t3 -16.5l-3 -15q-2 -13 -9 -122t-18.5 -251t-18.5 -229q-7 -86 -9 -114l-2 -28q0 -8 -7 -14t-15.5 -5.5t-14.5 7t-5 15.5l1 28q2 28 9 115q6 68 14 171l-31 -1q-34 -1 -72 -6q-35 -4 -49 -4q0 -30 2 -58q3 -89 6 -123l3 -34q1 -8 -5 -15
t-15 -8t-15.5 5t-7.5 15l-3 34q-3 35 -6.5 124.5t-5.5 208.5q-1 118 -2 198l-1 81q0 8 6 14.5t15 6.5t15.5 -6t6.5 -15l1 -80q1 -81 2 -199q1 -56 2 -106q14 0 46 4q40 5 76 6l34 1h2q0 7 1 14q12 142 18 251q7 111 10 127l3 15q2 9 9.5 14t16 3.5z" />
    <glyph glyph-name="I" unicode="I" horiz-adv-x="295" 
d="M23.5 -12.5q-0.5 8.5 5 15.5t14.5 7l37 3q20 1 41 2l-2 12q-3 16 -2 62q0 45 0.5 138.5t0.5 192.5q1 98 1 150t1 69l1 16q0 8 5 13h-39q-40 -1 -46 -2l-7 -1q-9 -1 -16 5t-8 14.5t5 15.5t14 8l7 1q8 1 49.5 1.5t91.5 2.5q53 1 72 -1l18 -2q8 -1 14 -8t5 -16t-8 -14.5
t-16 -4.5l-18 2q-16 2 -66 1q-10 -1 -20 -1q6 -7 6 -16l-1 -16q-1 -16 -1 -67q0 -52 -0.5 -151t-0.5 -192q-1 -94 -1 -139q-1 -42 1 -54l2 -14q1 -2 1 -4q36 1 55 -1l18 -2q9 0 14.5 -7t5 -16t-7.5 -14.5t-16 -4.5l-18 1q-17 2 -56 1q-40 -1 -76 -3l-37 -3q-9 0 -15.5 6
t-7 14.5z" />
    <glyph glyph-name="J" unicode="J" horiz-adv-x="492" 
d="M222.5 669q-0.5 9 5 15.5t14.5 7.5l20 1q20 1 65 5q46 4 90 4h44q8 0 14.5 -6t6.5 -15t-6 -15.5t-15 -6.5h-43q-14 0 -28 -1l2 -51q2 -52 0 -133q-2 -80 -3.5 -149t-3.5 -120q-3 -52 -18 -113q-16 -65 -52 -93q-36 -27 -88 -29q-50 -2 -101 19q-53 22 -85 70
q-33 49 -31 111t21 92l15 25q5 7 14 9t16 -2.5t9 -13.5t-2 -16l-16 -25q-12 -20 -14 -70q-1 -49 24 -86q25 -38 66 -54q42 -18 83 -16q38 1 63 20q24 19 36 70q14 56 17 104q2 50 4 119q1 69 3 148.5t0 131.5l-1 50q-8 0 -17 -1q-46 -3 -66 -5l-20 -1q-9 -1 -15.5 5t-7 15z
" />
    <glyph glyph-name="K" unicode="K" horiz-adv-x="467" 
d="M31 731q9 0 15.5 -6t6.5 -15l3 -82q2 -83 1 -165v-2l7 5q36 31 109 103q74 72 120 116q47 45 65 61l18 16q7 5 16 4.5t14.5 -7t5 -15.5t-7.5 -15l-18 -15q-17 -16 -63 -60t-120 -116t-111 -104l-25 -22q10 -1 15 -9l11 -16q11 -14 60 -65q50 -51 117 -124
q66 -72 117 -123q52 -52 59 -61l6 -9q6 -6 5 -15t-8 -14.5t-16 -4.5t-14 8l-7 8q-5 7 -56 57q-51 52 -118 125q-66 72 -116 123q-51 53 -64 70l-2 3q-1 -41 -2 -85q-2 -99 0 -164q3 -68 1 -83l-2 -13q-1 -8 -8 -13.5t-15.5 -4.5t-14.5 8t-4 16l1 13q2 11 -1 75q-2 66 0 167
q3 100 3 182q1 82 -1 164l-3 82q0 9 6 15.5t15 6.5z" />
    <glyph glyph-name="L" unicode="L" horiz-adv-x="485" 
d="M34.5 735.5q8.5 -0.5 14.5 -7t6 -15.5l-1 -14q-1 -13 -1 -90v-155q0 -77 1 -161.5t2 -141.5q2 -57 3 -86t2 -47q1 -7 1 -13q20 -1 49 3q31 4 82 8q50 4 102.5 7t95.5 6q43 2 52 3l9 1q9 1 16 -5t7.5 -14.5t-5 -15.5t-14.5 -8l-9 -1q-10 -1 -53 -3q-44 -2 -96 -5.5
t-101 -7.5q-50 -4 -81 -8q-33 -4 -55 -3h-3.5t-5.5 0.5t-6 1t-6.5 1.5t-6.5 3t-6 4.5t-4 6.5t-2 9q-1 7 -2.5 26t-2.5 49t-3 87q-1 57 -2 142t-1 162v155q0 78 1 93l1 14q0 8 7 14t15.5 5.5z" />
    <glyph glyph-name="M" unicode="M" horiz-adv-x="567" 
d="M530.5 724.5q8.5 0.5 15.5 -5.5t8 -14l2 -30q3 -32 1 -73t-3 -99q-2 -58 -3 -104q0 -47 -4 -101q-3 -53 -4.5 -94.5t-2.5 -86.5q-1 -44 0 -72q1 -29 1 -50v-34q0 -9 -6.5 -15t-15 -6t-15 6t-6.5 15v34q0 20 -1 49t0 74t2.5 87t4.5 96q4 53 4 99q1 46 2.5 104.5t3.5 98.5
t-1 68q-9 -8 -30 -32q-23 -25 -52 -56t-61 -62q-31 -30 -51 -50q-21 -21 -28 -27l-7 -6q-6 -6 -15 -5.5t-15 7.5q-3 3 -4 8q-7 2 -11 8l-6 7q-4 6 -21 23q-17 19 -42 46q-25 28 -49 56t-41 53q-11 16 -19 25q-1 -17 -3 -46q-2 -45 -4 -104.5t-1 -114.5q1 -56 3 -133
q1 -77 1 -142q0 -64 1 -95l1 -32q0 -9 -6 -15.5t-15 -6.5t-15.5 6t-6.5 15l-1 32q-1 31 -1 96t-1 142q-2 77 -3 132q-1 56 1 116q2 62 4 107q3 50 3 62l1 16q1 9 7.5 15t15.5 5q7 0 13 -5q9 2 17 -4l11 -9q14 -11 32 -37q16 -23 39 -50t48 -55q25 -27 42 -46q18 -19 24 -26
l3 -5q7 7 18 17q20 21 51 51t60 60.5t51 55.5q23 26 34 36l11 9q9 8 20 4q6 7 14.5 7.5z" />
    <glyph glyph-name="N" unicode="N" horiz-adv-x="470" 
d="M25 719q8 4 16.5 1t12.5 -11l6 -11q5 -11 23 -45q19 -33 42 -82t47 -102q23 -53 48 -97t55 -95q31 -50 51 -87q21 -36 39 -62q19 -29 32 -51l2 -4l1 2q3 31 5 81t3 101t3 107q1 59 3 112q1 55 2 100t1 73v43q0 15 -1 26l-1 12q0 9 6 15.5t14.5 7t15.5 -5t7 -14.5l1 -12
q1 -13 1 -29v-43q0 -27 -1 -73q-1 -47 -2 -101q-2 -55 -3.5 -111.5t-2.5 -107.5q-1 -52 -3 -102q-2 -51 -6 -83q-4 -39 -17 -52q-10 -10 -25 -8.5t-22 13.5q-6 10 -19 32q-12 21 -30 47q-19 29 -40 66q-20 36 -51 86q-30 51 -56 96q-25 46 -49 100q-24 53 -47 101
q-14 30 -27 55q1 -16 2 -34q3 -58 5.5 -123t4.5 -135.5t4 -125.5q3 -55 5 -104q3 -46 3 -55l-1 -8q0 -9 -6.5 -15t-15.5 -5.5t-15 7t-6 15.5l1 8q0 7 -2 51q-3 48 -6 104q-2 56 -4 127q-2 70 -4.5 134t-5.5 122.5t-6 92.5l-2 34q-1 15 13 21q1 1 2 1z" />
    <glyph glyph-name="O" unicode="O" horiz-adv-x="501" 
d="M317 690q-13 0 -28 -3q-20 -5 -56 -26q-37 -20 -60 -41.5t-45 -56.5q-23 -35 -39 -74q-15 -39 -24 -80.5t-11 -73.5t1 -75q3 -41 12 -75q9 -33 23.5 -56t35.5 -40t43 -27t44 -14t45 -4t40 3q13 2 30 13q19 13 34 28t27 32t22 42q10 26 16 44q5 18 9 43q4 26 7 51t4.5 51
t1.5 52q0 25 -3 50q-2 25 -4 49q-1 19 -4 41q-3 21 -8 34q-6 15 -12 28t-12 25q-5 10 -9 14.5t-17 13.5q-14 10 -20.5 13.5t-12.5 6.5q-5 2 -8 3l-8 1q-8 0 -14 8zM364 718q9 -4 17.5 -9t23.5 -16q17 -12 24 -20.5t15 -22.5q7 -13 13 -27q7 -14 13 -31q7 -18 10 -43
q4 -23 5 -44q1 -23 4 -48q3 -27 3 -54q0 -28 -1.5 -55t-4.5 -52.5t-7 -52.5q-5 -28 -11 -49t-17 -48q-12 -29 -27 -50q-14 -21 -32 -39t-40 -32q-25 -17 -47 -20q-20 -4 -46.5 -4t-53.5 5q-27 4 -54 16.5t-52 33.5q-26 21 -45 50q-18 28 -28 68q-11 38 -14 83.5t-1 80.5
t12 79.5t26 87.5q18 43 43 82t52 64t68 48q42 23 67 29q26 7 49 4l20 -3q10 -1 16 -11z" />
    <glyph glyph-name="P" unicode="P" 
d="M30 701.5q9 0.5 15.5 -5.5t7.5 -14v-9q23 18 55 31q33 13 64 17q31 5 57 2q27 -3 58 -16q31 -14 56 -37q25 -24 39 -59q15 -35 12 -78q-3 -42 -20 -80q-18 -38 -46 -66q-27 -27 -53 -42t-63 -28q-36 -12 -70 -13q-32 -2 -59 2q-17 3 -28 5q0 -65 1 -111q2 -58 4 -108
q1 -50 1 -73v-22q0 -9 -6.5 -15.5t-15 -6.5t-15 6.5t-6.5 15.5v22q0 22 -1 72q-2 52 -4 108q-1 59 -1 148q1 90 1 186t-1 120l-2 26q-1 9 5 15.5t15 7zM56 356l2 -1q8 -3 31 -6q23 -4 51 -2q28 1 59 11q32 11 54 24t45 36q23 22 36 53q15 31 17 65q2 33 -8 59q-11 26 -30 44
t-43 28q-25 11 -45 13q-21 3 -47 -1t-54 -15t-46 -26l-21 -18l-1 -1v-86v-177z" />
    <glyph glyph-name="Q" unicode="Q" horiz-adv-x="515" 
d="M317.5 184q7.5 5 16 3t13.5 -9l15 -22q12 -18 33 -49q4 6 9 11q15 21 25 46q11 27 17 53q6 25 8 54t3 58t1 52t-3 49q-2 26 -5 51q-4 25 -6 45q-2 19 -6 36q-3 16 -8 24q-6 11 -9 19q-3 5 -7 11q-5 8 -10 15l-4 5q-3 2 -5 4l-12 10q-10 8 -45 22q-33 14 -64 10
q-32 -4 -65 -26q-35 -24 -69 -71t-61 -150q-27 -104 -26 -150q1 -48 9 -85t19 -60q10 -21 27 -39q17 -19 40 -32.5t47.5 -20.5t55.5 -7t49 3q16 2 34 12q16 8 30 20q-24 35 -38 56l-14 22q-5 7 -3.5 16t9 14zM426 669q6 -3 9 -7l4 -7q5 -6 10 -14q7 -9 11 -18q3 -7 9 -18
q7 -13 11 -33t7 -41q2 -20 5 -45q4 -25 6 -52q3 -28 3 -53q0 -24 -1 -53.5t-3 -59.5q-2 -32 -9 -61t-19 -59q-13 -30 -31 -55q-9 -12 -18 -22q18 -27 36 -52q25 -37 35 -51l10 -14q5 -7 3.5 -16t-8.5 -14t-16 -3.5t-14 8.5l-10 14q-10 14 -36 51q-16 24 -31 46
q-17 -13 -35 -22q-24 -13 -47 -17q-21 -3 -56 -3q-37 0 -67 8.5t-58 25t-50 39.5q-21 24 -34 51t-22 68.5t-10 93.5q-1 53 28 162q29 111 67 164.5t80 80.5q42 29 84 34t86 -13q41 -16 56 -29l12 -11z" />
    <glyph glyph-name="R" unicode="R" horiz-adv-x="416" 
d="M29.5 711.5q8.5 0.5 15.5 -5.5t8 -14l1 -10v-5q6 5 16 13q23 19 48 28q26 9 51 6q27 -3 49 -19t32 -37q10 -20 12 -49q1 -30 -13 -59q-14 -28 -42 -50q-27 -22 -68 -33q-32 -10 -51 -13l4 -6q13 -20 43 -63q31 -42 62 -86q31 -45 62 -96q31 -50 59 -93q29 -43 46 -71
t28 -41l10 -15q6 -7 4.5 -16t-8.5 -14t-16 -4t-14 8l-11 15q-11 15 -29 44q-18 28 -46 71t-60 95q-30 49 -60 92q-31 44 -61 86q-31 43 -45 65l-1 1q0 -58 2 -120q3 -97 3.5 -154t0.5 -95v-65q0 -9 -6.5 -15.5t-15 -6.5t-15 6.5t-6.5 15.5v65q0 38 -0.5 94.5t-3.5 153.5
q-2 97 -2 184v129q0 41 -1 50l-1 10q-1 9 5 16t14.5 7.5zM55 501q8 4 22 5q16 2 50 12q33 9 54 26q20 16 30 35q9 19 8 38q-2 20 -7 32q-6 11 -20 21q-13 10 -28 12q-16 1 -32 -4q-17 -6 -35 -21q-19 -17 -26 -24l-7 -8q-4 -4 -9 -6v-118z" />
    <glyph glyph-name="S" unicode="S" horiz-adv-x="481" 
d="M408.5 622q-8.5 -2 -16 3t-9.5 13l-3 11q-1 5 -9 16t-20 19q-11 7 -35 10q-27 4 -46 2q-18 -1 -38 -11q-21 -11 -40 -28q-17 -15 -27 -36q-9 -18 -7 -35t10 -29t27 -24q19 -13 41 -20q25 -9 51 -21t46 -24q22 -13 46 -36.5t42 -51t31 -61.5q12 -35 17 -73q5 -39 0 -78
q-5 -40 -19 -74q-14 -37 -42 -63q-27 -26 -63 -44q-37 -18 -80 -22q-43 -5 -86 8q-44 12 -82 38q-39 27 -61 65t-25 74q-4 38 14 74l16 30q4 8 12.5 10.5t16.5 -1.5t10.5 -12.5t-1.5 -16.5l-15 -30q-13 -24 -11 -49q3 -27 20 -57t49 -52t68 -32t71 -6q35 3 65 18
q31 14 53 35q21 21 31 48q12 30 16 64q5 34 0 67q-4 34 -15 64t-26 53.5t-35.5 43.5t-38.5 30t-42.5 21.5t-46.5 19.5q-27 9 -51 25q-25 16 -39 36t-17 49q-2 28 12 58q13 28 37 49q22 21 49 34q27 15 54 16q24 2 55 -2q33 -5 52 -18q18 -11 31 -28q14 -18 17 -33l3 -11
q2 -8 -3 -15.5t-13.5 -9.5z" />
    <glyph glyph-name="T" unicode="T" horiz-adv-x="543" 
d="M10 688.5q0 8.5 6.5 15t15.5 6.5l32 -1q32 0 187 8q158 9 211 6l51 -3q9 -1 15 -7.5t5.5 -15.5t-7.5 -15t-16 -5l-51 3q-44 3 -168 -4l-1 -16q-1 -18 0 -70q1 -53 1 -130v-132q0 -55 -1 -108t-1 -96v-133q0 -9 -6.5 -15.5t-15 -6.5t-15 6.5t-6.5 15.5v133q0 43 1 96.5
t1 107.5v132q0 77 -1 130q-1 54 0 72v12q-151 -8 -183 -8l-33 1q-9 0 -15 6.5t-6 15z" />
    <glyph glyph-name="U" unicode="U" horiz-adv-x="495" 
d="M44 713q9 0 15 -6.5t6 -14.5v-27q0 -27 -1 -63q-2 -36 -6 -100q-4 -63 -5 -104t3 -91q3 -49 12 -90q10 -41 24 -72q13 -29 31.5 -48.5t36.5 -28.5q20 -10 45 -15q25 -6 53 -6q26 0 48 7q22 8 41 24q18 16 30 36q13 20 26 55t20 74q7 40 10 90q3 51 4 91t3 87q2 46 2 77.5
v61.5l-1 30q0 9 6 15.5t14.5 6.5t15.5 -6t7 -15l1 -30v-62.5t-2 -79.5t-3 -86q-1 -40 -4 -92q-4 -53 -11 -95q-7 -43 -22 -82t-29 -62q-15 -25 -39 -47q-25 -21 -55 -32q-30 -10 -63 -9q-32 0 -61 7q-30 6 -55 18q-25 13 -48.5 38t-40.5 61q-15 35 -25 79q-11 44 -14 97
q-4 52 -3 94q1 43 5 107t6 99q1 35 1 61v27q0 8 6.5 14.5t15.5 6.5z" />
    <glyph glyph-name="V" unicode="V" horiz-adv-x="507" 
d="M24.5 704q8.5 3 16.5 -1t11 -13l7 -22q8 -24 23 -82q14 -57 34 -131q19 -73 37 -128q18 -56 35.5 -104.5t29.5 -79.5q13 -31 24 -63q5 -15 10 -27q12 30 26 72q17 54 32 103.5t28 93.5q14 43 29 98q16 57 32 106q16 50 30 90q13 41 20 59l7 18q3 8 11 11.5t16.5 0.5
t12 -11t0.5 -17l-7 -17q-6 -18 -20 -57q-13 -41 -28.5 -90t-31.5 -104q-16 -56 -30 -100q-13 -43 -28 -93t-32 -104q-18 -55 -34 -91q-1 -2 -3.5 -5t-8.5 -11.5t-12 -14t-12.5 -9.5t-12 0.5t-8.5 16.5q-2 4 -8 19q-7 17 -19 49q-11 31 -23 62t-29.5 80t-36.5 105
q-18 57 -38 131q-20 75 -34 132q-14 56 -21 78l-8 23q-3 8 1 16t12.5 11z" />
    <glyph glyph-name="W" unicode="W" horiz-adv-x="647" 
d="M27.5 714.5q8.5 1.5 16 -3.5t9.5 -14l4 -21q4 -21 14.5 -80.5t26.5 -137.5t29 -143q14 -63 22.5 -104t15.5 -81q6 -28 9 -50q10 29 21 76q11 48 23 92q11 42 21 76q9 34 14 59q5 28 8 40q5 16 23 17.5t26 -10.5q9 -13 20 -45q10 -29 20 -67q10 -36 21.5 -77t21.5 -76.5
t23 -70.5q8 -22 14 -38q5 19 10 42q8 33 15 63q8 29 16 68q9 40 18 78q9 39 18 79q9 41 17 78q7 38 14 69q7 32 16 64q9 34 16 53q6 18 9 33q4 16 7 27q3 12 7 21l3 7q4 8 12.5 11t16.5 -0.5t11 -12t0 -16.5l-4 -7q-2 -6 -4 -14q-3 -10 -7 -26q-4 -17 -11 -37
q-6 -18 -15 -50t-15 -62q-7 -31 -14 -68q-8 -38 -17 -79t-18 -80q-9 -38 -18 -77q-8 -40 -16 -70t-15 -61q-7 -33 -13 -58q-7 -28 -11 -37q-9 -17 -25.5 -13t-21.5 14q-3 9 -13 28q-10 20 -23 57q-13 36 -23 73l-22 77q-11 40 -21 77q-9 30 -17 55q-5 -23 -12 -49
q-9 -34 -21 -77q-12 -42 -22 -89q-11 -50 -22 -80.5t-21 -51.5q-1 -1 -1.5 -3.5t-4 -8t-7.5 -8t-11 -4.5t-15 3q-11 6 -14 21t-7 42q-4 26 -11 65.5t-16 79.5q-8 40 -21.5 104.5t-29.5 143t-27 138.5q-11 59 -15 80l-4 21q-1 9 4 16.5t13.5 9z" />
    <glyph glyph-name="X" unicode="X" horiz-adv-x="478" 
d="M428.5 740.5q7.5 -4.5 9.5 -13.5t-2 -16l-28 -44q-27 -43 -68 -117q-40 -71 -80 -148q19 -35 38 -68q45 -79 78 -135q34 -56 62 -103l28 -47q4 -8 1.5 -16.5t-10 -13t-16 -2t-13.5 9.5l-27 47q-28 47 -61 103q-34 57 -79 135q-13 22 -25 44q-30 -59 -58 -117
q-37 -78 -67 -136t-45 -93l-15 -35q-3 -8 -11.5 -11t-16.5 0.5t-11.5 11.5t0.5 16l15 35q15 36 45 95t68 136q34 70 71 143q-20 35 -39 71q-44 81 -70 126q-26 46 -37 69l-11 22q-3 8 0 16.5t10.5 12t16 0.5t12.5 -11l11 -21q10 -22 36 -67q26 -46 69 -126l26 -46
q33 64 67 124q42 75 70 119l27 44q5 7 13.5 9t16 -2.5z" />
    <glyph glyph-name="Y" unicode="Y" 
d="M386 723.5q7 -5.5 8.5 -14.5t-3.5 -16l-7 -9q-6 -8 -27 -43q-22 -37 -50.5 -85t-54.5 -92t-37 -62l-1 -3l-2 -7q-1 -8 2 -38q3 -37 3 -97q0 -58 2 -117t2 -85l1 -25q1 -9 -5.5 -15.5t-15 -6.5t-15 6t-7.5 15l-1 25q0 25 -2 84.5t-2 118.5q0 58 -3 93q-2 26 -2 33
q-9 12 -1 24l-25 42q-27 46 -54 95q-25 48 -47 91q-23 43 -27 54l-4 10q-3 8 1 16t12 11t16.5 -0.5t11.5 -11.5l3 -10q3 -9 25 -50q22 -42 47 -90q26 -48 53 -93l13 -23q10 16 22 38q26 44 55 92t50 84q22 38 29 48l7 9q6 7 14.5 8.5t15.5 -4z" />
    <glyph glyph-name="Z" unicode="Z" horiz-adv-x="513" 
d="M62 642q1 9 8 14.5t15 4.5l23 -3q21 -2 61 1q42 2 90 4q48 1 91 4q43 2 67 3.5t31 1.5q15 1 20.5 -9t5 -19t-2.5 -13q-7 -13 -29 -40q-20 -24 -56 -72q-36 -49 -79.5 -109.5t-92.5 -131.5q-48 -70 -72 -111q-24 -43 -46 -81t-32 -61q-2 -5 -4 -9q19 0 52 2q45 2 103 6
t118 7q59 2 104 2h45q8 0 14.5 -6.5t6.5 -15.5t-6.5 -15t-15.5 -6h-44q-44 0 -103 -2.5t-116.5 -6.5t-102.5 -6q-46 -3 -66 -2q-8 0 -16 1.5t-17 10t-5 23.5q3 10 14 35q11 24 33 64q23 39 47 81q25 43 74 114q48 71 92 132t80 110q37 50 58 75q4 4 7 8q-24 -1 -64 -3
q-44 -3 -91 -4q-48 -2 -90 -4q-43 -3 -68 0l-22 2q-9 1 -14.5 8t-4.5 16z" />
    <glyph glyph-name="bracketleft" unicode="[" horiz-adv-x="213" 
d="M204 720q1 -9 -5 -16t-14 -8l-9 -1q-7 0 -30 -6q-27 -7 -55 -9q-22 -3 -32 -6q-1 -3 -1 -8q-2 -19 -3 -77q0 -59 -1 -141q-1 -81 -0.5 -140t4 -122.5t5.5 -116.5q3 -54 4 -88q2 -35 3 -63q0 -14 2 -23q5 -1 12 -1q26 -1 51 -1h38q8 0 14.5 -6.5t6.5 -15t-6.5 -15
t-14.5 -6.5h-38q-25 0 -52 1h-5.5h-6t-6 0.5t-6.5 1t-5.5 1.5t-5.5 2.5t-5 3.5t-5 5l-4 6q-6 12 -7 45q-1 28 -2.5 62.5t-4.5 87.5q-2 52 -5 117q-4 64 -5 124q0 60 1 142q1 81 1 140q1 61 3 81q3 33 27 43q15 6 45 9q25 3 47 8q28 7 38 8l8 1q9 1 16 -4.5t8 -14.5z" />
    <glyph glyph-name="backslash" unicode="\" horiz-adv-x="362" 
d="M22 701q8 4 16.5 1t12.5 -11l9 -19q11 -20 54 -128q43 -107 90 -237q47 -128 86 -217q40 -89 50 -114l11 -24q3 -8 0 -16.5t-11 -12t-16.5 0t-12.5 11.5l-10 24q-11 24 -50 114q-40 90 -87 220q-47 128 -90 235q-43 106 -52 125l-10 19q-4 8 -1 16.5t11 12.5z" />
    <glyph glyph-name="bracketright" unicode="]" horiz-adv-x="228" 
d="M10 716q1 9 7.5 14.5t15.5 5.5l11 -1q9 -1 39 0q32 1 62 0t38 -2q10 -1 16.5 -6t9.5 -14.5t4 -17t1.5 -20t0.5 -16.5q5 -55 3 -107q-2 -51 -4 -118.5t-3 -131.5q-2 -65 -4 -112q-3 -46 -4 -102q-2 -55 -1 -95t2.5 -59.5t2.5 -30.5q1 -13 -7.5 -23t-20.5 -14
q-16 -5 -51 -6q-32 -1 -51 0l-18 2q-8 0 -14 7t-5.5 15.5t7 14.5t15.5 5l18 -1q17 -1 47 0q25 1 36 3q0 10 -1 25q-1 20 -3 61q-1 41 1 97q1 56 4 104q2 46 4 110q1 64 3 132t4 119q2 49 -3 102q-2 23 -4 35q-10 1 -25 1q-28 1 -59 0q-32 -1 -44 0l-10 1q-9 1 -15 7.5
t-5 15.5z" />
    <glyph glyph-name="asciicircum" unicode="^" horiz-adv-x="289" 
d="M21 427q-8 4 -10.5 13t2.5 16l23 43l48 86q23 42 31 59q8 18 14 30q9 18 23 24q26 13 46 -25q11 -22 27 -64t29 -79.5t19 -57.5l6 -20q2 -8 -2 -16t-12.5 -10.5t-16.5 2t-10 12.5l-6 20q-6 19 -19 56q-12 36 -28 78q-13 34 -22 52q-4 -9 -9 -20q-8 -18 -32 -62l-48 -86
l-24 -43q-4 -7 -12.5 -9.5t-16.5 1.5z" />
    <glyph glyph-name="underscore" unicode="_" horiz-adv-x="463" 
d="M10 8q1 9 8.5 14t15.5 4l10 -1q9 -1 24 -1q17 -1 35 -1t34 1q18 1 35 1t27 1q12 1 27 1h27q14 1 25 2q12 1 28 1h50q17 0 29 -1q11 -1 17 -1h30q8 0 14.5 -6.5t6.5 -15t-6.5 -15t-14.5 -6.5h-30q-7 0 -20 1q-11 1 -26 1h-50q-14 0 -25 -1t-26 -1.5t-29 -0.5q-13 0 -24 -1
q-12 -1 -30 -1q-16 0 -33 -1t-36 -1t-35 1q-18 0 -29 1l-10 2q-9 1 -14.5 8t-4.5 16z" />
    <glyph glyph-name="grave" unicode="`" horiz-adv-x="147" 
d="M18 677.5q7 5.5 16 4.5t14 -8l15 -18q15 -19 43 -54l27 -35q5 -7 4 -16t-8 -14.5t-15.5 -4.5t-14.5 8l-27 35q-28 35 -43 54l-14 18q-6 7 -5 16t8 14.5z" />
    <glyph glyph-name="a" unicode="a" horiz-adv-x="263" 
d="M88.5 604q-7.5 5 -9.5 13.5t3 16.5l12 17q14 20 36 41q23 21 44 32q27 13 46 8q24 -7 30 -42q4 -24 4 -62t-3 -79q-2 -41 -4.5 -83t-6.5 -84q-3 -41 -5 -81q-3 -40 -6 -77q-2 -32 -5 -69q11 -13 0 -27l-3 -4q-2 -28 -4 -49q-3 -31 -6 -41l-3 -6q-3 -8 -11.5 -11.5
t-16.5 -0.5t-11.5 11.5t-0.5 16.5l2 6q2 6 4 28q-2 -1 -4 -3q-16 -11 -30 -19l-26 -12q-15 -7 -29 -10q-16 -4 -30 -1q-19 4 -29 21q-7 11 -12 28q-6 19 -3 43q2 23 10 54q8 32 21 57q12 25 28 45q16 22 38 35t43 14q24 0 42 -14q2 34 5 70q3 41 5 83q3 42 5 83q3 39 3 75
q0 35 -4 56q0 4 -1 7q-6 -1 -12 -4q-16 -9 -35 -26t-29 -33l-12 -17q-5 -8 -13.5 -9.5t-16 3.5zM190 268q-7 1 -12 5l-12 9q-6 5 -14 5q-10 -1 -22 -8q-14 -8 -26 -23q-13 -18 -24 -39q-10 -21 -17 -49q-8 -28 -10 -46q-1 -17 2 -27q4 -12 8 -19l1 -1q5 -1 11 1q10 2 21 7
q13 5 25 11q10 6 23 16t23 19l12 12q1 2 1 4.5v3.5q4 42 7 78q1 20 3 41z" />
    <glyph glyph-name="b" unicode="b" horiz-adv-x="221" 
d="M56 140l5 -14q3 -11 7 -21q6 -14 13 -27q12 -20 25 -28q7 -4 9 -3q6 3 12 17q8 18 15 51q8 35 14.5 75t9.5 73q4 32 2 73q-2 39 -13 66q-7 18 -16 19q-8 1 -21 -16q-18 -25 -32 -70q-14 -46 -22 -87q-1 -7 -2 -15q-5 -36 -6 -93zM12 136l-1 3q-3 8 1 16v24v32q0 47 -1 94
q-1 64 -1 151q0 88 1 150t3 81l1 18q1 9 8 14.5t15.5 5t14.5 -7.5t5 -16l-2 -18q-1 -17 -2 -78t-1 -149v-84q14 35 30 58q27 38 61 34q34 -3 51 -46q14 -34 16 -80q2 -44 -2 -79q-3 -34 -10 -75.5t-15 -77.5q-7 -37 -17 -60q-12 -27 -32 -37q-24 -12 -52 5q-15 9 -27 25
q1 -16 1 -25q1 -7 0 -9q-2 -6 -11.5 -2.5t-20.5 10.5l-12 8q-1 18 -1 62v53z" />
    <glyph glyph-name="c" unicode="c" horiz-adv-x="303" 
d="M270 432.5q-8 -3.5 -16.5 0t-11.5 12.5l-5 11q-4 10 -14 29q-8 15 -31 27q-20 11 -39 2q-24 -11 -40 -29q-16 -19 -30 -56q-14 -39 -22.5 -83t-7.5 -93t6 -80q6 -31 17 -58q10 -26 23.5 -41t25.5 -21q10 -6 27 -7t33 4q16 6 30 20q16 15 25 37q10 22 10 33v15q0 9 6.5 15
t15.5 6t15 -6.5t6 -15.5v-15q-1 -20 -13 -49q-13 -29 -34 -50q-22 -22 -47 -30q-24 -8 -50 -7q-24 2 -44 12q-19 10 -37 30q-19 21 -32 54q-13 32 -19 66q-6 35 -7 87q-1 53 8 101.5t25 90.5q17 45 38 69q21 25 54 40q38 18 77 -3q35 -18 49 -44q12 -22 16 -34l5 -12
q3 -8 -0.5 -16t-11.5 -11.5z" />
    <glyph glyph-name="d" unicode="d" horiz-adv-x="312" 
d="M282.5 736q8.5 -1 14.5 -8t5 -15l-1 -10q0 -9 -2 -72q-2 -65 -5.5 -155.5t-4.5 -172.5t-1 -137v-94q9 -12 1 -25q0 -31 -3 -48l-3 -19q-1 -9 -8 -14.5t-16 -4t-14 9t-4 15.5l3 19v2q-11 -5 -24 -9q-19 -6 -34 -8q-16 -3 -38 -1q-24 2 -46 14t-43 35.5t-33.5 55.5
t-14.5 75q-2 41 3 86q5 46 19 88q15 44 40 75q27 34 60 45q35 11 69 -5q28 -14 46 -37l2 56q4 91 6 155t3 75v9q1 9 8 15t15.5 5zM246 338q-8 4 -10 13l-3 12q-3 8 -16 28q-12 18 -33 28q-19 9 -38 3q-21 -7 -39 -30q-21 -26 -33 -62q-13 -38 -18 -79q-4 -42 -2 -80
q1 -36 11.5 -61t26 -42.5t30.5 -26.5q15 -8 30 -9q16 -2 27 0q12 2 29 7q13 4 24 11q8 6 14 12v3q-1 45 -1 101t1 138v34z" />
    <glyph glyph-name="e" unicode="e" horiz-adv-x="224" 
d="M213.5 617.5q1.5 -8.5 -3.5 -16t-14 -9.5l-14 -2q-15 -3 -44 -8t-54 -8q-16 -2 -25 -4q-1 -4 -2 -9q-2 -22 -3 -69q-1 -48 -1 -94v-102v-71l3 1q8 1 41 1h42h10q9 -1 15 -7.5t6 -15t-6.5 -15t-15.5 -5.5h-10h-41q-30 0 -36 -1l-7 -1q1 -36 1 -68q1 -32 1 -58q0 -12 1 -21
q6 -2 14 -3q26 -5 55 -5q30 1 45 3l16 3q8 1 15.5 -4.5t9 -14t-4 -15.5t-14.5 -9l-16 -2q-18 -3 -50 -4q-34 -1 -65 6q-1 0 -7.5 1t-9.5 2t-8.5 3t-8.5 4.5t-6.5 7t-5.5 9.5q-3 12 -3 39q0 25 -1 57q0 33 -1 80.5t-1 102.5v102q0 46 1 94q1 50 4 74q4 37 26 44q11 3 37 6
q24 4 53 9q29 4 43 7l15 3q9 1 16 -4t8.5 -13.5z" />
    <glyph glyph-name="f" unicode="f" horiz-adv-x="338" 
d="M11 461.5q-2 8.5 2.5 16.5t12.5 10l30 7q31 8 80 14q3 33 9 64q10 50 29 81q21 33 47 44q29 13 60 -4q27 -15 38 -39q9 -21 9 -32v-6q0 -9 -6.5 -15.5t-15 -6.5t-15 6.5t-6.5 15.5v6q-1 4 -6 15q-4 10 -19 18q-12 7 -23 3q-13 -6 -26 -28q-15 -24 -24 -66q-5 -25 -7 -51
q21 3 39 4q31 1 43 1h10q9 0 15.5 -6t6.5 -15t-6.5 -15.5t-15.5 -6.5h-10q-10 0 -41 -1q-18 -1 -43 -4q0 -45 3 -102q4 -61 7 -117t6 -93t5 -74q2 -36 4 -55q1 -16 3 -21l2 -7q3 -8 -1 -16t-12 -11t-16.5 1t-11.5 12l-2 7q-3 10 -5 31q-2 20 -4 57t-5 73q-2 37 -6 93
q-3 56 -7 117q-3 56 -3 100q-42 -6 -69 -12l-29 -8q-9 -2 -16.5 2.5t-9.5 13z" />
    <glyph glyph-name="g" unicode="g" 
d="M373.5 612q8.5 0 15 -6t6.5 -15v-15q0 -14 -1 -57t-2 -91t-3 -92q-3 -47 -5 -87t-2 -73q0 -34 -2 -75t-8 -80q-5 -39 -16 -72q-12 -34 -32 -63t-49 -49q-30 -21 -69 -25q-37 -5 -75 5q-40 10 -69 39t-42 61q-13 33 -9 77l2 39q1 8 8 14t15.5 5.5t14.5 -7.5t5 -15l-3 -39
q-2 -34 7 -58q10 -24 32 -46q21 -21 49 -28q31 -8 60 -4q28 3 49 18q23 15 39 38q17 23 26 51q10 30 15 65q5 37 7 76q2 40 2 73q0 32 2 69q-8 -9 -19 -22q-30 -33 -63 -46q-34 -13 -64 -5q-29 7 -56 32q-28 27 -37 73q-8 45 5 94q13 48 35 81q23 36 63.5 54t78.5 12
q38 -5 62 -24l5 -3v29q1 42 1 56v15q0 9 6.5 15t15 6zM345 322q0 8 1 16q2 44 3 91q0 6 1 12q-6 1 -11 4l-19 15q-16 12 -42 16q-26 3 -55 -10t-45 -38q-18 -27 -29 -68q-11 -40 -4 -75q5 -33 23 -49q19 -18 37 -23q17 -4 39 4q23 9 46 35q25 27 32 42l8 16q4 10 15 12z" />
    <glyph glyph-name="h" unicode="h" horiz-adv-x="261" 
d="M38 749q9 -1 14.5 -8t4.5 -16l-2 -22q-3 -21 -2 -93q1 -73 2 -145t2 -153q0 -9 1 -17q12 29 27 51q24 32 52 42q29 11 52 1q21 -9 37 -39q14 -27 19 -67q4 -38 5 -80q1 -41 1 -81v-122q0 -9 -6.5 -15.5t-15 -6.5t-15 6.5t-6.5 15.5v122q0 40 -1 80t-5 75q-4 33 -14 53
q-9 16 -17 20q-6 3 -20 -2q-15 -6 -31 -28q-17 -24 -30 -61q-13 -38 -17 -72q-4 -35 -4 -77q0 -43 2 -73q-1 -2 -2.5 -4l-6 -8t-9 -10.5t-9 -8t-8 -3.5t-5.5 5q-1 3 -2 13q-2 20 -5 68.5t-6 93.5q-2 46 -4 128q-1 82 -2 153q-1 68 -2 145q-1 75 2 99l2 22q1 8 8 14t16 5z
" />
    <glyph glyph-name="i" unicode="i" horiz-adv-x="74" 
d="M16 425.5q6 6.5 15 6.5t16 -7l3 -3q6 -6 6 -15t-6.5 -15t-15.5 -6t-15 6l-3 3q-6 6 -6 15t6 15.5zM37.5 314.5q8.5 0.5 15 -6t6.5 -15.5l1 -42q1 -43 1 -90t1 -76t1 -49l1 -20q1 -8 -5.5 -15t-15 -7t-15 6t-7.5 15v19q-1 20 -2 50t-1 77t-1 89l-1 43q0 8 6.5 14.5t15 7z
" />
    <glyph glyph-name="j" unicode="j" horiz-adv-x="260" 
d="M211 668q6 6 15 6t15 -6l3 -3q6 -6 6 -15t-6 -15.5t-15 -6.5t-15 6l-3 3q-6 7 -6 16t6 15zM226 549q9 0 15 -6.5t6 -15.5v-47q0 -47 -2 -127q-3 -79 -5 -205q-1 -126 -5 -175q-4 -52 -16 -80t-32 -48q-21 -20 -44 -27q-24 -9 -54 -2q-32 8 -53 35t-25 74q-4 44 5 80l8 33
q2 8 10 13t16.5 2.5t13 -10t2.5 -15.5l-8 -33q-7 -29 -4 -67q3 -34 16 -50q12 -16 29 -20q18 -4 30 0q14 5 28 18q14 14 23 34q9 21 12 66q4 48 5 173q2 126 5 205q2 79 2 126v47q0 9 6.5 15.5t15.5 6.5z" />
    <glyph glyph-name="k" unicode="k" horiz-adv-x="241" 
d="M221.5 586q7.5 -5 9.5 -13.5t-3 -16.5l-19 -30q-20 -31 -58 -91q-39 -62 -62 -93q-22 -30 -29 -40q-1 -2 -2 -3q3 -7 10 -22q10 -23 26 -52q17 -30 38.5 -68.5t41.5 -73.5t35 -61q15 -27 18 -35l3 -6q3 -8 -0.5 -16.5t-11.5 -12t-16 0t-12 11.5l-2 7q-3 5 -17 30
q-14 26 -34 61t-42 73q-22 39 -38 69q-2 3 -3 6v-19q2 -66 3 -97q1 -32 2 -53l2 -22q0 -9 -6 -15.5t-15 -7t-15.5 5.5t-6.5 15l-1 22q-2 21 -3 53t-3 97.5t-1 147.5t6 169q4 86 7 129q3 42 2 51l-1 10q0 9 5.5 16t14.5 7.5t15.5 -5t7.5 -14.5l1 -11q1 -12 -2 -57
q-3 -43 -8 -129q-3 -70 -4 -137v1q22 30 60 90q39 62 58 92l20 31q5 7 13.5 9t16 -3z" />
    <glyph glyph-name="l" unicode="l" horiz-adv-x="149" 
d="M54 687q9 -1 14.5 -7.5t5.5 -15.5l-4 -44q-4 -44 -9 -135t-7 -171t-1 -139t2 -93q2 -35 1 -58v-16q9 -1 23 0q22 1 32 0l9 -1q9 -1 14.5 -8t4.5 -15.5t-8 -14.5t-15 -5l-9 1q-7 1 -26 0q-23 -1 -37 2q-23 5 -29 23q-2 10 -2 35q1 22 -1 56q-1 34 -2 93.5t1 140t7 172.5
t9 136l4 44q0 9 7 15t16 5z" />
    <glyph glyph-name="m" unicode="m" horiz-adv-x="376" 
d="M40 530.5q9 -0.5 15 -7t5 -15.5l-1 -14v-55q3 6 5 11q30 54 58 64q12 4 23 2q23 -5 33 -34q5 -12 8 -27q7 15 17 30q22 34 48 53q31 22 60 15q30 -7 44 -45q12 -31 11 -82q0 -49 -4 -114q-3 -64 -7 -134q-3 -68 -4 -131t-1 -101v-37q0 -9 -6.5 -15.5t-15 -6.5t-15 6.5
t-6.5 15.5v37q0 38 1 102t4.5 132.5t6.5 133.5q4 65 4 112q1 44 -8 67q-6 16 -14 18q-10 3 -25 -8q-19 -14 -37 -42q-19 -28 -28 -56q-10 -28 -14 -48q1 -2 1 -5t-1 -10.5t-4.5 -10.5t-10 -6t-18.5 3q-11 5 -14.5 11.5t-1.5 10.5l3 4q0 15 -3 55q-2 36 -10 59q-1 3 -3 5
q-12 -7 -33 -44q-20 -36 -32 -112q-3 -13 -5 -28q-6 -50 -9 -95q-2 -100 -2 -130q0 -13 -1 -16q-7 -27 -32 31q-11 25 -11 30q0 41 3 87v25q1 60 2 108t1 82q0 70 1 85v15q1 8 7.5 14t15.5 5.5z" />
    <glyph glyph-name="n" unicode="n" horiz-adv-x="258" 
d="M47 524q9 -1 14.5 -8t4.5 -16l-1 -6q0 -2 -1 -15q4 5 8 9q14 14 28 24q17 11 35 14.5t36 -0.5q16 -4 31 -13q18 -11 29 -37q10 -23 14 -54t3 -70q0 -39 -1 -84q-2 -46 -4.5 -94.5t-4.5 -91.5q-1 -44 0 -75v-52v-20q0 -9 -6 -15t-15 -6t-15.5 6t-6.5 15v20v51q-1 33 0 77
q2 44 5 93q2 48 3.5 93t1.5 83q1 37 -3 65q-3 25 -10 42q-6 13 -12 17q-9 5 -19 8q-9 2 -18 0t-18 -8q-11 -8 -22 -18.5t-19 -23.5q-9 -13 -17 -26l-5 -10q-2 -49 -5 -108q-4 -78 -4 -132.5t0.5 -91t2.5 -62.5l1 -26q0 -8 -6 -15t-14.5 -7.5t-15.5 5.5t-7 15l-1 26
q-2 27 -2.5 63.5t-0.5 92t4 134.5q4 78 6 138q1 62 2 69l1 7q1 8 8 13.5t16 4.5z" />
    <glyph glyph-name="o" unicode="o" horiz-adv-x="329" 
d="M252 446q-3 1 -5 3l-9 5q-6 5 -20 11q-11 5 -36 5.5t-49 -9.5q-23 -10 -35 -27q-14 -17 -25 -53q-12 -36 -17 -78q-4 -43 -3 -87q2 -44 6 -76q4 -29 22 -65q17 -33 32 -41q15 -9 26 -10q11 0 24 6q15 7 30 19.5t26 27.5t21 40q11 26 18 54t11 54.5t6 55.5q2 27 1 50
q-2 23 -4 40q-2 16 -6 33q-4 18 -8 30q-3 7 -6 12zM260 492q12 1 19 -9l6 -8q8 -11 14 -27q5 -15 9 -35q4 -19 6 -37t4 -41q3 -26 0 -57q-2 -30 -6.5 -59t-11.5 -59q-8 -30 -20 -59q-12 -30 -26 -49.5t-33.5 -35.5t-39.5 -25q-23 -11 -45 -10q-20 2 -45 15q-25 15 -48 60
q-22 42 -27 79q-4 33 -5.5 79.5t3.5 92.5q5 47 18 88q13 42 32 66q19 25 52 39q32 14 66.5 13.5t53.5 -9.5q15 -7 24 -12z" />
    <glyph glyph-name="p" unicode="p" horiz-adv-x="267" 
d="M31 537.5q9 0.5 15.5 -6t6.5 -15.5v-14q16 13 32 21q22 10 42 11q20 0 43 -12q21 -11 38 -30.5t27 -48.5q10 -27 17 -60q6 -34 5 -63q-1 -30 -11 -59q-11 -30 -32 -56q-22 -26 -47 -39q-27 -12 -53 -11q-26 2 -48 13q-3 3 -7 5q0 -14 1 -26q1 -73 4 -150q2 -78 4 -124
q1 -46 1 -59v-12q0 -9 -6 -15.5t-15 -6.5t-15.5 6.5t-6.5 15.5v12q0 12 -1 58q-2 46 -4.5 123.5t-3.5 150.5q-1 42 -2 91l-1 7q-1 5 1 11q-1 28 -1 58q-1 93 -2 148l-2 54q0 9 6 15.5t15 7zM58 241v-2q2 -7 8 -16q8 -10 21 -17t29 -8q16 0 32 7q17 8 33 27q17 20 24 43
q9 23 9 46q1 24 -5 54q-5 30 -14 53q-8 22 -19.5 35.5t-25.5 20.5q-13 7 -22 7q-11 0 -24 -7q-15 -7 -31 -22l-18 -17q1 -51 2 -132q0 -38 1 -72z" />
    <glyph glyph-name="q" unicode="q" horiz-adv-x="408" 
d="M258 634.5q9 2.5 16.5 -2.5t9.5 -13l2 -7q2 -9 1 -46q-1 -35 -3 -74t-6 -89q-5 -49 -7 -94q-2 -42 -5 -88q-2 -41 -4 -78.5t-3 -74.5q-1 -36 -1 -71q1 -33 3 -59q3 -22 11 -43q7 -18 20 -27q10 -7 21 -5q10 2 19 17q12 20 18 52q6 34 5 63q-1 32 -1 40v7q0 9 6.5 15.5
t15 6.5t15 -6.5t6.5 -14.5v-8q0 -7 1 -39q1 -33 -6 -72q-7 -40 -23 -66q-19 -31 -48 -37t-54 12q-23 16 -35 46q-10 26 -13 55q-3 27 -4 63q0 35 1 73q1 37 3 74.5t4 79.5q1 11 2 40l-13 -12q-32 -28 -70 -34q-41 -6 -72 17q-28 21 -42 49t-17.5 66.5t7.5 75.5q10 37 27 62
q16 26 45 47t77 27q50 5 73 -9l4 -2v16q1 28 0 35l-1 6q-3 9 1.5 16.5t13.5 10zM228 314q3 44 7 93t6 88q0 4 1 8q-5 1 -8 3l-17 10q-10 7 -45 3q-37 -4 -57 -19q-22 -16 -34 -35q-13 -20 -22 -50q-8 -30 -5.5 -60.5t13.5 -51.5q9 -19 29 -33q17 -13 40 -9q25 3 48 24l27 24
q7 6 17 5z" />
    <glyph glyph-name="r" unicode="r" horiz-adv-x="342" 
d="M33 627q9 0 15.5 -6.5t6.5 -15.5v-19q25 18 50 22q27 5 52 -2q27 -7 47 -29q22 -24 21 -55q0 -30 -18 -52q-16 -18 -45 -33q-28 -15 -55 -20q-10 -1 -18 -3q13 -16 35 -43q35 -41 73 -90.5t65 -86.5t47 -64l20 -27q5 -7 3.5 -15.5t-8.5 -14t-16 -4t-14 8.5l-20 27
q-19 27 -46 63q-27 37 -65 86t-72 90q-24 29 -38 46q0 -76 1 -141q1 -77 1 -95l1 -18q1 -9 -5.5 -15.5t-15 -7t-15 5.5t-7.5 15l-1 18q0 18 -1.5 97t0.5 173q1 95 1 139v44q0 9 6 15.5t15 6.5zM54 454h1q7 0 14.5 1t30.5 5q21 3 42 14.5t32 24.5q8 9 8 24q1 13 -10 25
t-26 16q-16 5 -34 2q-17 -3 -35 -17l-23 -16v-79z" />
    <glyph glyph-name="s" unicode="s" horiz-adv-x="259" 
d="M233.5 485.5q-8.5 -2.5 -16 2t-10.5 12.5l-4 15q-2 6 -16 15q-12 8 -34 2q-20 -5 -27 -24q-9 -23 -4 -48q6 -27 22 -48q19 -26 34 -49q17 -25 28 -58q12 -32 19 -66q8 -34 11 -64q2 -29 -1 -65q-4 -37 -18 -64q-16 -30 -41 -42q-24 -11 -58 -7q-35 3 -64 28
q-28 24 -37 55q-10 29 -6 60l3 26q1 8 8.5 13.5t16 4.5t14 -8t4.5 -16l-3 -26q-3 -21 4 -42q6 -19 24 -35q19 -15 40 -17q23 -3 36 3q12 6 21 23q10 19 13 48q3 32 1 58q-2 27 -10 58q-7 31 -17 60t-24 49q-14 23 -32 47q-22 29 -30 65q-8 37 6 73q15 40 57 50q39 10 68 -8
q27 -17 33 -39l4 -15q3 -8 -1.5 -16t-13 -10.5z" />
    <glyph glyph-name="t" unicode="t" horiz-adv-x="358" 
d="M10 707q0 9 6 15.5t15 6.5l23 1q23 1 54 3q31 3 59 4q27 2 59 2q30 0 56 -1h35h10q9 0 15.5 -6.5t6.5 -15.5t-6.5 -15t-15.5 -6h-10h-37q-24 1 -54 1h-30l-2 -12q-1 -11 -2 -39t-1 -56v-67q-1 -37 -1 -79t0.5 -82t1.5 -73.5t1 -78.5q0 -43 -1 -79q-1 -38 -1 -62
q-1 -24 0 -34v-22v-10q0 -8 -6 -14.5t-15 -6.5t-15.5 6.5t-6.5 14.5v10v19q-1 12 0 39q0 25 1 60.5t1 78.5q0 44 -1 77q-1 35 -1 74q-1 41 -1 83t1 77v69t1 57q1 30 3 44v3q-19 -1 -41 -2q-32 -3 -56 -4l-23 -1q-9 0 -15.5 6t-6.5 15z" />
    <glyph glyph-name="u" unicode="u" horiz-adv-x="315" 
d="M39 516q9 0 15 -6.5t6 -15.5l-1 -36q-1 -37 -3 -105q-3 -68 -3 -114t6 -81q5 -35 14 -62q9 -25 22 -44q12 -18 23 -24q12 -6 24 -6q11 -1 22 4q13 6 24 17q12 11 22 29t17 39q7 23 11 44q4 22 7 50q3 30 6 62q4 32 5 64q2 32 4 59q1 27 2 66l1 39q0 9 6.5 15t15 6
t15 -6.5t6.5 -15.5l-1 -39q-1 -40 -3 -68q-1 -27 -3 -59q-1 -32 -5 -65q-3 -33 -6 -62q-4 -30 -8 -54t-12 -49q-8 -26 -21 -48t-29 -38q-17 -16 -36 -25q-20 -9 -42 -8q-21 1 -42 11q-20 11 -38 37q-17 24 -28 55q-10 30 -16 69t-6 87t3 117q2 68 3 104l1 36q0 9 6.5 15
t15.5 6z" />
    <glyph glyph-name="v" unicode="v" horiz-adv-x="303" 
d="M75 423q13 -53 27 -110q15 -58 30 -109q15 -53 25 -90q1 -4 2 -6q2 7 3 13q7 28 17 72t19 88t17.5 89t16.5 83q7 39 14 59l6 20q3 8 10.5 12.5t16 2t13 -10.5t1.5 -17l-6 -19q-6 -19 -13 -56q-8 -37 -16 -82t-17.5 -90t-19.5 -89q-11 -44 -17 -72q-7 -28 -15 -64
q-3 -5 -6.5 -11.5t-14.5 -20.5t-17.5 -11t-13.5 17q-3 10 -7 27t-14 54.5t-25 89.5t-30 110t-27 107t-17 69l-6 21q-3 8 1.5 16t13 10.5t16.5 -2t10 -13.5l6 -20q6 -21 17 -67z" />
    <glyph glyph-name="w" unicode="w" horiz-adv-x="396" 
d="M31 529q9 0 15.5 -6t6.5 -15v-15q1 -15 4 -65q3 -51 7 -115t8 -123q5 -51 8 -88q3 10 6 21q14 40 26.5 81t17.5 61q7 23 13 34q8 16 19.5 14t19.5 -8.5t11 -11.5q8 -16 19 -49q10 -31 17 -62q7 -29 17 -64q9 -31 16 -53q6 23 9 44q5 35 13 86q9 51 16 105q8 55 16 102
t17 89q8 41 10 49l1 8q2 8 9.5 13t16 3.5t13.5 -9t3 -16.5l-1 -7q-2 -8 -10 -49.5t-16.5 -87.5t-15.5 -101q-8 -55 -16 -106t-14 -86q-5 -37 -18 -78l-1 -6t-2.5 -10.5t-4.5 -11.5t-7.5 -10t-11.5 -6t-15 2q-11 4 -16 17q-5 15 -13 43q-8 27 -19 64q-11 36 -18 66
q-7 29 -16 59q-2 4 -3 9q-6 -20 -15 -49q-12 -41 -25.5 -82t-23.5 -71q-9 -30 -12 -38q-1 -1 -2 -3t-4.5 -6t-7 -6t-9.5 -1.5t-12 5.5q-6 4 -8.5 8.5t-3 7.5t-0.5 8v7q-4 23 -7 65t-8 102t-9 124t-7 114q-3 51 -4 67v15q0 9 6 15.5t15 6.5z" />
    <glyph glyph-name="x" unicode="x" horiz-adv-x="323" 
d="M287.5 549.5q7.5 -4.5 10 -13t-1.5 -16.5l-7 -13q-7 -13 -35 -68q-29 -55 -64 -137q-1 -1 -6 -14q37 -82 68 -150q39 -82 49 -103l10 -21q4 -8 1 -16.5t-11 -12t-16.5 -0.5t-11.5 11l-10 20q-10 21 -49 104q-26 53 -54 115q-19 -45 -37 -87q-31 -70 -45 -112
q-15 -43 -21 -59l-5 -16q-3 -9 -11 -13t-16.5 -1t-12.5 11t-1 17l6 16q5 16 20 59q15 44 46 116q25 57 54 122q-5 10 -9 21q-47 106 -66 155l-18 49q-3 8 0.5 16.5t12 11.5t16.5 -0.5t11 -12.5l19 -49q16 -44 57 -137q31 68 55 116q29 56 36 70l7 13q5 8 13.5 10.5t16 -2z
" />
    <glyph glyph-name="y" unicode="y" horiz-adv-x="406" 
d="M377.5 682q8.5 -1 14 -8t4.5 -16l-2 -14q-2 -16 -12 -59q-10 -41 -28 -110.5t-41 -146t-46 -149.5q-24 -76 -51 -119q-31 -51 -80 -56q-50 -6 -89 45l-32 40q-6 7 -5 16t8 14.5t16 4.5t14 -8l32 -41q25 -31 51 -28q28 3 49 35q24 39 46 109q23 73 46 150q0 1 0.5 2.5
l0.5 1.5q-11 1 -16 11l-15 26q-14 27 -44 86q-31 60 -48 108l-17 47q-3 8 1 16t12.5 11t16.5 -1t11 -12l16 -47q16 -45 46 -102q30 -59 44 -85l7 -12q14 48 25 94q18 69 28 110t12 54l2 14q1 9 8 14.5t15.5 4.5z" />
    <glyph glyph-name="z" unicode="z" horiz-adv-x="390" 
d="M44 484q-1 9 5 16t14 8l7 1q8 1 40 2q30 0 67 2q38 2 75 2q37 1 62 2q26 1 40 1q16 0 22.5 -8.5t3.5 -20.5t-6 -20t-6 -13q-19 -30 -43 -61q-23 -30 -55.5 -74t-64.5 -93q-33 -49 -57.5 -86.5t-49.5 -72.5q-21 -29 -32 -45q13 1 27 3q31 4 68 6t71 2q34 1 67 -0.5
t42 -2.5l7 -1q9 -1 14.5 -8t4.5 -15.5t-8 -14t-15 -4.5h-8q-7 1 -39 3q-32 1 -64 0q-33 0 -70 -2q-35 -2 -64 -5q-30 -5 -50 -5q-3 0 -6 0.5t-11.5 2t-12.5 5t-8 10.5t1 17q3 9 15 27q10 17 33 49q27 38 52 74q25 38 57 87q33 49 66 94t56 75q21 28 37 53h-12
q-26 -1 -63 -1.5t-74 -2.5t-68 -2q-29 -1 -36 -2l-7 -1q-8 -1 -15.5 4.5t-8.5 14.5z" />
    <glyph glyph-name="braceleft" unicode="{" horiz-adv-x="330" 
d="M292 686.5q-3 -8.5 -11 -12.5t-16 -1l-17 5q-13 4 -37 6q-20 0 -43 -12q-20 -12 -29 -44q-10 -35 -1 -71q10 -40 18 -73q8 -37 2 -75q-7 -40 -35 -70q-13 -15 -25 -25q22 -5 43 -18q34 -22 47 -59q12 -35 10 -78q-1 -40 -6 -75q-4 -34 -11 -82q-7 -46 -4 -77
q2 -30 15 -53q13 -22 35 -32q19 -8 36 1l27 13q7 4 16 1t12.5 -11t1 -16.5t-10.5 -12.5l-26 -13q-35 -18 -73 -1q-36 15 -55 50q-18 32 -21 70q-3 37 4 87q8 48 12 82q4 32 5 71q2 35 -7 62q-9 23 -30 36q-23 14 -45 16q-26 1 -33 0q-1 0 -3.5 -1t-8 -1t-9.5 1.5t-7 7.5
t-2 16q2 20 16 21q10 5 28 16q16 9 38 33q19 21 24 48q5 29 -2 58q-8 33 -18 73q-11 46 2 92q14 49 49 70q33 19 66 17q29 -1 48 -7l17 -5q8 -3 12.5 -11t1.5 -16.5z" />
    <glyph glyph-name="bar" unicode="|" horiz-adv-x="77" 
d="M43.5 744q8.5 1 15.5 -5t8 -15v-11q1 -13 -3 -107q-5 -91 -7.5 -215.5t-3 -217.5t1.5 -183l2 -90q0 -9 -6 -15.5t-15 -6.5t-15.5 6t-6.5 15l-2 90q-2 91 -1.5 184.5t3 218t7.5 217.5q4 90 4 100l-1 12q-1 9 5 15.5t14.5 7.5z" />
    <glyph glyph-name="braceright" unicode="}" horiz-adv-x="304" 
d="M31 655q-5 7 -3.5 16t8.5 14l25 17q29 19 54 24t56 1q39 -5 64 -58t2 -94q-17 -32 -32 -57q-14 -23 -26 -57q-11 -31 -6 -55q4 -25 17 -44q12 -17 28 -25q18 -9 40 -14q9 -3 17.5 -7t15 -14t2.5 -24q-6 -18 -32 -34q-13 -8 -21 -22q-9 -16 -11 -31q-2 -16 2 -37
q4 -24 10 -51q6 -28 11 -57q5 -32 3 -63q-3 -34 -15 -57q-11 -24 -37 -48q-27 -25 -63 -34q-40 -10 -83 13l-36 19q-7 4 -10 12.5t1.5 16.5t13 10.5t16.5 -1.5l35 -19q28 -15 52 -9q26 7 45 24q20 18 28 35q8 16 10 41q2 26 -2 53q-5 28 -11 55t-11 52q-4 28 -2 50
q3 23 16 46q14 25 37 39l2 2q-23 6 -42 16q-25 12 -44 39q-18 26 -25 60q-6 35 9 77q13 38 29 65q14 25 32 56q12 21 -4 55q-15 32 -30 34q-25 3 -42 -1q-17 -3 -39 -18l-24 -17q-8 -5 -16.5 -3t-13.5 9z" />
    <glyph glyph-name="asciitilde" unicode="~" horiz-adv-x="461" 
d="M25 280.5q-8 2.5 -12.5 10.5t-1.5 17l7 21q9 28 32 45q22 16 50 18q27 3 49 -5q20 -7 43 -24q21 -16 34 -27q12 -11 33 -27q19 -15 36 -20q18 -5 39 -6q18 0 29 6q12 6 22 16q10 11 16 22q5 10 6 19l2 12q1 9 8 14.5t16 4.5t14.5 -8.5t4.5 -15.5l-2 -13q-2 -16 -11 -33
t-23.5 -32t-32.5 -24q-20 -11 -49 -11q-27 1 -51 8q-25 7 -50 26q-22 18 -35 29q-12 11 -31 25q-18 13 -32 19q-14 4 -31 3q-16 -2 -29 -11q-11 -8 -16 -23l-7 -21q-3 -9 -11 -13t-16 -1.5z" />
    <glyph glyph-name="quoteleft" unicode="&#x2018;" horiz-adv-x="75" 
d="M46.5 649.5q8.5 -1.5 13.5 -9t3 -16.5l-6 -35q-6 -33 -3 -73t7 -57l4 -18q2 -9 -3 -16.5t-13.5 -9.5t-16 3t-9.5 13l-4 18q-4 20 -8 64q-3 45 4 83l6 36q2 9 9.5 14t16 3.5z" />
    <glyph glyph-name="quoteright" unicode="&#x2019;" horiz-adv-x="77" 
d="M27.5 629.5q8.5 2.5 16.5 -2.5t10 -13l8 -33q9 -36 3 -81q-6 -40 -10 -54l-2 -14q-2 -9 -9.5 -14t-16.5 -3t-13.5 9.5t-3.5 16.5l3 13q3 14 9 53q5 35 -2 64l-8 32q-2 9 2.5 16.5t13 10z" />
    <glyph glyph-name="quotedblleft" unicode="&#x201c;" horiz-adv-x="186" 
d="M163.5 644.5q8.5 -3.5 11.5 -12t-1 -16.5l-7 -17q-6 -14 -13 -62q-7 -47 1 -80l8 -37q2 -9 -2.5 -16.5t-13.5 -9.5t-16.5 3t-9.5 13l-8 37q-9 41 -2 96q8 54 17 74l7 17q4 8 12 11t16.5 -0.5zM63 656.5q8 -3.5 12 -11.5t1 -16l-14 -36q-12 -32 -8 -67q3 -37 10 -61l7 -26
q3 -9 -1.5 -16.5t-13 -10t-16.5 2t-10 12.5l-7 26q-8 28 -12 69q-4 45 11 86l13 36q3 8 11.5 12t16.5 0.5z" />
    <glyph glyph-name="quotedblright" unicode="&#x201d;" horiz-adv-x="195" 
d="M129.5 653.5q7.5 4.5 16.5 2t13 -10.5l6 -10q9 -14 16 -56q7 -41 3 -85l-5 -42q0 -8 -7 -14t-16 -5t-14.5 8t-4.5 16l4 41q4 39 -2 73q-6 35 -11 42l-6 11q-4 7 -2 16t9.5 13.5zM24 642q8 3 16.5 -1t11.5 -12l8 -23q10 -27 10 -89q-1 -60 -7 -80l-4 -17q-3 -8 -11 -12.5
t-16 -2t-12.5 10.5t-2.5 16l5 17q4 14 5 69q0 53 -7 73l-9 23q-3 8 1 16.5t12 11.5z" />
  </font>
</defs>
</svg>
