<?xml version="1.0" standalone="no"?>
<!DOCTYPE svg PUBLIC "-//W3C//DTD SVG 1.1//EN" "http://www.w3.org/Graphics/SVG/1.1/DTD/svg11.dtd" >
<svg xmlns="http://www.w3.org/2000/svg" xmlns:xlink="http://www.w3.org/1999/xlink" version="1.1">
<metadata>
Created by FontForge 20170924 at Thu Dec 16 04:53:32 1999
 By www-data
1999  D. Herring
</metadata>
<defs>
<font id="HolLeighCaps" horiz-adv-x="1000" >
  <font-face 
    font-family="HolLeigh Caps"
    font-weight="400"
    font-variant="small-caps"
    font-stretch="normal"
    units-per-em="1000"
    panose-1="0 0 4 0 0 0 0 0 0 0"
    ascent="800"
    descent="-200"
    cap-height="647"
    bbox="13 -153 926 800"
    underline-thickness="20"
    underline-position="-143"
    unicode-range="U+0020-005A"
  />
<missing-glyph 
d="M125 0v800h750v-800h-750zM250 125h500v550h-500v-550z" />
    <glyph glyph-name=".notdef" 
d="M125 0v800h750v-800h-750zM250 125h500v550h-500v-550z" />
    <glyph glyph-name=".null" horiz-adv-x="0" 
 />
    <glyph glyph-name="nonmarkingreturn" 
 />
    <glyph glyph-name="space" unicode=" " 
 />
    <glyph glyph-name="A" unicode="A" 
d="M753 143q-30 -23 -46 -23q-30 0 -54 23q40 37 40 90q0 32 -19 168l1 2q0 4 -12 4q-66 0 -176 -53t-147 -105l20 -19q-1 -2 -8 -36q-5 -27 -15 -27q-7 0 -7 3.5t-7 2.5l-30 -18q37 -218 199 -218q19 0 40 2l7 -37q-44 -15 -59 -15q-111 0 -185 127q-17 -6 -17 -19
q0 -1 6 -27q-25 -27 -26 -48q-12 21 -34 21q-10 0 -17 -6l2 13q0 35 -36 41l18 29l-9 25q12 28 5 41q31 11 60 54l-4 15q-29 -14 -46 -40q-10 14 -27 14q-13 0 -34 -20q-9 14 -33 35q-27 24 -36 35q24 12 83 56q10 -20 27 -20q2 0 17.5 10.5t47.5 9.5q5 11 5 22l-4 25
l-27 -13q-11 26 -43 42q1 2 18 24q11 14 11 27q4 -7 21 -7l35 12q30 119 82 215q75 140 157 140q97 0 155 -127q39 -87 66 -255q29 -178 35 -195zM659 448q-90 232 -166 232q-89 0 -186 -311q15 -9 30 -19q20 -13 25 -23q127 97 297 121zM286 217v12h-18v-12h18z" />
    <glyph glyph-name="B" unicode="B" 
d="M807 243q0 -155 -114 -254q-109 -96 -266 -96q-111 0 -164 36q-62 42 -62 143q17 7 38 7v-12q-5 -134 184 -134q142 0 237 83q100 87 100 227q0 61 -38 125q-42 72 -99 72q-20 0 -63.5 -14t-65.5 -12l-3 14q9 30 66 38q84 10 99 17q51 21 51 87q0 73 -68 95
q-33 10 -128 10q-25 0 -58 -27l-1 -8q0 -13 21 -23q-2 -2 -13 -44q-8 -28 -27 -28q-12 0 -29 8q-7 -18 -7 -60q0 -57 10 -90l-12 -14q10 -13 10 -43q0 -15 -3.5 -50.5t-3.5 -53.5q0 -68 42 -84q-7 -25 -57 -25q-18 0 -62 15l37 43q1 40 9 118q-7 18 -29 18q-11 0 -17 -6
l2 15q0 39 -36 39q17 23 17 31t-9 24q13 28 5 41q32 11 60 53l-4 16q-28 -14 -46 -40q-10 13 -27 13q-12 0 -33 -20q-10 15 -34 36q-27 24 -36 35q24 12 84 56q9 -20 26 -20q1 0 20.5 10t45.5 10l4 4v26q0 11 -16 11q-7 0 -7 -7q0 -1 -7 -1q-10 0 -23 18q-15 22 -20 25
q9 11 18 24t10 26q24 -6 73 -6q23 0 28 20q25 -18 67 -53q52 6 70 6q101 0 142 -28q52 -35 52 -129q0 -58 -54 -93q114 -103 114 -220zM460 672h-25q-3 -5 -3 -13q0 -4 2 -12.5t2 -13.5q13 27 24 39zM416 664l-10 3l-8 -17l9 -4zM399 604v12h-18v-12h18z" />
    <glyph glyph-name="C" unicode="C" 
d="M794 642q-13 -13 -41 -34l-1 -8q0 -13 21 -23q-2 -3 -9 -36q-6 -28 -14 -28q-17 0 -18 8q-2 -7 -26 -58q-19 -43 -19 -53q0 -21 26 -47q-15 -7 -17 -20q-1 -6 1 -29q-24 -24 -26 -47q-11 20 -34 20q-10 0 -16 -6l1 8q0 16 -10 30t-25 16q16 20 16 32q0 10 -8 22
q13 28 5 42q32 11 60 53l-4 16q-28 -14 -46 -40q-10 13 -27 13q-14 0 -33 -20q-10 15 -34 36q-27 24 -36 35q25 12 84 56q9 -20 26 -20q19 0 32 26q17 -8 52 -8q-5 9 -18 49l-27 -14q-17 40 -42 40q-131 0 -235 -125q-99 -118 -99 -251q0 -142 99.5 -246t240.5 -104
q40 0 85 17q4 1 78 36l30 -7v-32q-37 -25 -93 -39.5t-103 -14.5q-162 0 -272.5 113.5t-110.5 276.5t109 274q100 102 267 137q9 2 61 18q43 14 56 14q26 0 49 -23q18 -21 37 -42q-22 -10 -32 -16q-18 -10 -27 -22l10 -24q13 14 26 27t31 22zM699 564v12h-18v-12h18z" />
    <glyph glyph-name="D" unicode="D" 
d="M867 283q0 -150 -96 -229q-88 -74 -241 -74q-77 0 -123 15q2 6 17.5 28t15.5 27l-6 238q-20 0 -24 12q-23 -23 -23 -53q0 -10 9 -19.5t17 -17.5q-13 -10 -13 -27q0 -21 27 -47q-16 -3 -17 -14q0 -12 1 -24l-1 -10q-24 -25 -25 -48q-12 21 -34 21q-10 0 -17 -6l1 16
q2 16 -8.5 27t-26.5 11l18 29l-10 25q13 28 6 41q31 11 59 54l-4 15q-28 -14 -45 -40q-10 14 -27 14q-15 0 -34 -20q-5 9 -22.5 23.5t-23.5 22.5l-5 -12q-85 24 -85 116q0 120 119 190q101 60 231 60q166 0 274 -87q116 -94 116 -257zM827 283q0 143 -108 227
q-99 77 -246 77q-111 0 -200 -49q-106 -59 -106 -161q0 -24 9 -44q11 -26 31 -26q11 0 35 19q17 14 34 27q10 -20 27 -20q9 0 18 13.5t16 13.5q12 0 36 -7.5t37 -7.5l16 4q0 3 -5.5 12t-5.5 13q0 8 18 25h-24l-17 -13q-1 14 -19 14q-17 0 -29 -13q-10 16 -44 50q10 14 31 43
q28 -7 76 -7q7 0 28.5 13.5t24.5 13.5q19 0 25 -27q8 -35 15 -43l-11 -23l24 10q-27 -14 -26 -34l7 -362q10 0 29.5 -4t29.5 -4q115 0 194.5 78t79.5 192z" />
    <glyph glyph-name="E" unicode="E" 
d="M807 20q0 -69 -68 -105q-54 -28 -129 -28q-31 0 -218.5 61t-198.5 74q1 10 34.5 23.5t33.5 37.5q0 39 -3 102q-3 84 -3 102q-13 -7 -17 -40q-12 21 -34 21q-10 0 -17 -7l2 14q0 38 -35 40l17 30l-9 25q6 14 5 41q31 11 60 53l-4 16q-29 -14 -46 -40q-10 13 -27 13
q-13 0 -34 -20q-9 15 -33 36q-27 24 -36 35q24 11 83 56q10 -20 27 -20l32 26q57 -14 78 -14q-6 18 -27 22q-9 1 -38 -1q-15 46 -49 63q1 1 18 23q10 15 10 27q24 -6 79 -6q17 0 23 20q14 -12 42 -23l12 -24q107 74 213 74q55 0 92 -23q45 -26 45 -77q0 -80 -77 -80
q-23 0 -56 21l19 25q7 0 18.5 -6.5t18.5 -6.5q16 0 26.5 13t10.5 30q0 64 -97 64q-96 0 -231 -99v-6q0 -15 21 -25q-3 -3 -10 -36q-5 -28 -13 -28q-16 0 -17 2v-111l5 -7q82 -5 80 -5q16 0 50 8t50 6q3 -7 13 -59q6 -34 28 -56v-24h-31q-7 7 -30 55q-16 34 -46 34
q-52 0 -65 -2q-41 -5 -54 -25v-253q0 -30 138 -82q129 -47 172 -47q55 0 99 18q59 24 59 72q0 16 -14 32v30h30q23 -15 23 -59zM316 590l-10 4l-8 -17l9 -4zM258 427v73q-18 -34 -18 -47q0 -10 6 -15.5t12 -10.5zM276 330l-10 4l-8 -17l9 -4z" />
    <glyph glyph-name="F" unicode="F" 
d="M753 507q0 -32 -25.5 -56t-57.5 -24q-23 0 -56 21q4 25 19 25q8 0 20.5 -6.5t19.5 -6.5q16 0 28 15t12 32q0 32 -41 48q-30 12 -69 12q-51 0 -129 -23q-88 -25 -115 -55v-161h177l20 25q21 -18 28 -56q6 -42 22 -59v-24h-24q-12 11 -26 37.5t-21 35.5h-176v-218
q0 -16 21 -28q16 -9 33 -17q-8 -8 -30 -16t-33 -8q-39 0 -63 9q2 7 19 31q14 20 14 31v304q-22 9 -31 25q-22 -23 -22 -53q0 -10 9 -19.5t17 -17.5q-13 -10 -13 -27q0 -20 27 -47q-21 -12 -21 -18q0 -2 2 -8.5t2 -13.5v-8q-25 -16 -25 -48q-12 21 -34 21q-10 0 -17 -7l1 16
q3 34 -35 39l18 29l-10 25q13 28 6 41q31 11 59 54l-4 15q-28 -14 -45 -40q-11 14 -27 14q-14 0 -34 -20q-10 14 -34 35q-27 24 -36 35q25 12 84 56q9 -20 26 -20q19 0 32 27q59 -20 68 -20q21 0 21 11q0 2 -1.5 9t-1.5 11q0 10 12 26h-5q-1 0 -14 -5t-21 -5q-7 0 -10 6.5
t-10 6.5q-16 0 -30 -13q-11 26 -43 42q1 2 17 24q11 14 11 26q24 -6 79 -6q16 0 23 20q21 -10 54 -40q125 54 239 54q56 0 98 -23q52 -27 52 -77z" />
    <glyph glyph-name="G" unicode="G" 
d="M725 547q-21 11 -52 50.5t-56 55.5q-43 27 -110 27q-106 0 -172 -78q-62 -74 -62 -182t71 -186q72 -81 179 -81q22 0 34 7l15 -39q-6 -1 -23 -4.5t-26 -3.5q-124 0 -211 92q-85 89 -85 215q0 118 76 207q81 93 197 93q50 0 105 -23.5t65 -23.5q8 0 22 6t20 7
q4 -46 13 -139zM780 403q-1 -118 -1 -237q-2 -131 -15 -193q-16 -79 -55 -79h-108v31q14 5 55 5q35 0 49 9q22 13 22 51l-5 230q-15 -24 -21 -32q-13 -17 -27 -26v-4q0 -15 14 -33q-28 -53 -37 -98q-21 22 -34 22q-8 0 -16 -8q1 5 1 12q0 14 -10.5 27t-24.5 16q9 8 17 40
l-9 13q10 26 5 42q13 4 37 26t24 33q0 5 -5 10q-27 -12 -46 -40q-13 13 -27 13t-33 -20q-10 15 -34 36q-27 24 -36 35q24 11 84 56q5 -7 11 -13.5t15 -6.5q19 0 32 26q59 -19 68 -19q21 0 21 11q0 2 -2 9.5t-2 11.5q0 9 13 25l-8 1q-6 0 -16 -6t-16 -6q-7 0 -10 7t-10 7
q-18 0 -31 -14q-11 27 -42 43q1 2 17 23q11 15 11 27q24 -6 78 -6q10 0 14.5 6.5t9.5 13.5q20 -19 42 -23q3 -8 22 -26t19 -28zM723 354v38h-12v-38h12zM712 279l-20 -13q-4 1 -9 8.5t-5 11.5q-25 -24 -25 -53q0 -10 17 -26q17 23 42 72z" />
    <glyph glyph-name="H" unicode="H" 
d="M827 143l-23 -16l-104 8q5 9 20 22t20 21v304q-3 5 -20 5q-64 0 -165 -72t-127 -133l7 -19q-4 -7 -5 -48q-4 -7 -24 -14q0 -127 -1 -146q-7 -77 -40 -115q-42 -47 -132 -47q-33 0 -59 9q8 22 36 26q3 1 47 1q51 0 76 28q-6 17 -28 17q-11 0 -18 -6l2 15q0 34 -36 39
l18 29l-9 25q12 29 5 42q31 11 60 53l-4 16q-29 -15 -46 -40q-10 13 -27 13q-13 0 -34 -20q-9 14 -33 36q-27 23 -36 35q24 11 83 56q10 -20 27 -20q4 0 16.5 11t15.5 15q17 -6 73 -20l11 11q-2 17 -10 49q1 -13 -16 -13q-7 0 -10.5 6.5t-9.5 6.5q-17 0 -31 -13
q-11 26 -43 42q2 2 18 24q10 14 10 27q13 -4 32 -4h20q18 0 29 -3q5 17 5 276q0 4 -47 27q8 8 28.5 16t31.5 8q35 0 59 -8q-19 -29 -33 -43v-270q20 -10 31 -32q45 66 133.5 116t164.5 50l5 5v125q-14 11 -40 33q9 24 57 24q33 0 56 -15q-38 -36 -38 -219q0 -35 1.5 -91
t1.5 -70q0 -111 10 -147q3 -9 17 -16q18 -8 22 -12zM372 127q-7 31 -7 86q-25 -25 -25 -53q0 -20 32 -33zM369 74v45h-12v-45h12zM376 37l-10 3l-8 -17l9 -4z" />
    <glyph glyph-name="I" unicode="I" 
d="M573 569q-8 -3 -24 -17t-23 -17l-1 -7q0 -14 22 -25q-12 -6 -12 -15q0 -3 1.5 -10.5t1.5 -12.5l-1 -10q-17 -1 -17 -18v-361q0 -14 47 -45q-13 -24 -74 -24q-35 0 -60 16q3 3 29 23q19 14 19 30q0 -7 -12 204q-5 -8 2 -38q-26 -16 -26 -48q-22 21 -34 21q-9 0 -17 -7
l2 18q0 34 -36 36q18 23 18 32t-10 22q12 30 6 42q11 3 35.5 25t24.5 32q0 7 -5 12q-27 -12 -45 -40q-13 13 -27 13t-34 -20q-10 14 -34 36q-27 23 -36 35q25 11 84 56q5 -7 11 -13.5t15 -6.5q19 0 32 26q18 -6 74 -20l18 17q-5 5 -7 26q-2 17 -10 17q-7 0 -8 -6.5t-9 -6.5
q-7 0 -10 6.5t-10 6.5q-17 0 -30 -13q-11 26 -43 42q1 3 17 24q11 14 11 27q24 -6 79 -6q9 0 13.5 6.5t9.5 13.5q6 -6 24.5 -14.5t22.5 -14.5q11 -17 36 -49zM478 360q0 36 -3 63q-2 10 -4 30q-24 -25 -24 -53q0 -11 10.5 -21t20.5 -19z" />
    <glyph glyph-name="J" unicode="J" 
d="M926 577q-37 -37 -62 -70q-9 6 -18.5 13t-18.5 7q-17 0 -30 -14q-14 36 -39 36l-12 -3q26 -43 55 -61q4 -10 4 -50q0 -32 15 -46q-37 -14 -37 -51q0 -6 2 -11q-5 13 -22 13t-28 -20q-8 35 -26 50v9q0 21 -16 37q27 36 27 50l-13 24q26 25 26 37q0 26 -18 53
q-1 -20 -21 -20q-16 0 -9 7l-5 -464q-1 -82 -66 -146t-147 -64q-70 0 -123 40q-57 43 -57 110q0 49 35.5 86.5t84.5 37.5q7 0 23.5 -8.5t22.5 -13.5v-24q-9 -3 -55 -3q-32 0 -51.5 -21t-19.5 -54q0 -51 44 -82q39 -28 92 -28q60 0 115 49.5t55 108.5v572q0 7 -40 37
q20 10 49 36q33 28 48 37q3 -20 20 -20q16 0 42 13l5 -19q21 5 35 12l-1 -8q0 -16 35 -42q-12 0 -27 -16l-22 -26q-10 13 -27 13q-6 0 -11.5 -6.5t-11.5 -6.5t-16 5.5t-16 5.5q-5 0 -8 -2l19 -10l-13 -41q7 -5 24 -5q11 0 33 10t33 10q9 0 17 -13.5t17 -13.5q16 0 26 20
q46 -45 83 -56z" />
    <glyph glyph-name="K" unicode="K" 
d="M813 -85q-31 -22 -76 -22q-74 0 -114 72q-12 22 -48 135q-31 -8 -31 -36q0 -8 2 -16q-6 5 -23 5t-28 -19q-9 36 -27 48q5 11 5 22q0 21 -19 25q26 35 26 50q0 13 -13 24q26 25 26 37q0 7 -2.5 20.5t-2.5 20.5l-18 12l-13 -20q-27 14 -41 7q-7 10 -11.5 32t-11.5 32l20 14
q-3 14 -38 49q-19 -14 -25 -16q-9 -4 -29 -4q-8 0 -8 16q0 20 33 35q8 3 51 17q63 20 90 79q1 2 33 107q18 60 56 79l63 -8v-25q-35 -7 -54 -9q-17 -25 -34 -96q-16 -63 -51 -99q9 -18 34 -18q12 0 17 8q2 -14 29 -43q-15 -29 -20 -33q-11 -12 -36 -12l-4 -2q13 -16 27 -32
q20 -24 30 -24q16 0 26 20q26 -22 84 -56q-18 -17 -35 -33q-19 -20 -28 -38q-24 16 -44 16q21 -17 36 -99q20 -103 33 -135q29 -69 88 -69q12 0 37.5 6t38.5 7v-31zM299 158q-7 -17 -15 -24l-104 8q14 10 31 35q10 41 10 164q0 8 2 109q0 68 -1 112q-3 61 -11 107
q-17 12 -31 19q6 32 57 32q32 0 56 -16q-2 -5 -17.5 -17.5t-15.5 -22.5v-480q0 -6 39 -26zM500 343q-19 21 -53 49q20 -20 20 -27q-13 -13 -13 -23q9 -5 21 -5q15 0 25 6zM440 383q-7 11 -22 29h-38q20 -14 29 -23q17 -15 21 -29q0 14 10 23zM569 174v18h-12v-18h12z" />
    <glyph glyph-name="L" unicode="L" 
d="M733 0q0 -50 -39 -80q-35 -27 -87 -27q-39 0 -164 50q-88 36 -176 73q7 11 25 22q22 14 28 20l-5 282q-10 -12 -17 -46q-12 20 -34 20q-10 0 -17 -6l3 17q0 36 -36 37q15 30 15 31q0 7 -7 23q12 29 5 42q31 10 60 53l-4 16q-29 -15 -46 -40q-10 13 -27 13q-13 0 -33 -20
q-46 46 -77 70q10 4 48 32q34 25 42 25q7 0 13 -10t14 -10q4 0 16.5 11t15.5 15q58 -15 78 -15q-3 17 -11 49q-16 6 -33 6q-16 0 -27 -13q-14 33 -42 42q9 12 18.5 25t9.5 26q18 -13 35 -13t5 19q25 -12 38 -12q17 0 23 20q12 -12 34 -23q29 -15 36 -19v-24q-29 -6 -38 -12
q-15 -11 -15 -36q0 -13 2 -13h1q15 18 57 49q-19 -20 -40 -34q4 -16 19 -23l-11 -22q5 -10 5 -20q0 -26 -27 -35v-490q39 -34 113 -71q83 -41 124 -41q31 0 60.5 17.5t29.5 46.5q-26 43 -26 68q0 8 20 8t34 -27q12 -23 12 -46zM332 559q-32 -32 -32 -59q0 -14 18 -23
q1 21 3 42.5t11 39.5zM322 428v18h-11v-18h11zM336 377l-10 3l-8 -17l9 -4z" />
    <glyph glyph-name="M" unicode="M" 
d="M860 145q-1 -13 -24 -20q-17 -5 -33 -5q-19 0 -49 15q29 38 38 73q8 28 8 82q0 94 -43 223q-52 160 -124 160q-25 0 -42.5 -38t-34.5 -75q-24 -40 -63 -40q-38 0 -63 36q-3 3 -36 68q-20 38 -43 43l-18 -11q5 -17 20 -25q-9 -12 -7 -56q-8 -8 -26 -12q-23 -6 -29 -10
l-9 27q-16 -13 -29 -60l27 -37q-13 -9 -13 -26q0 -21 26 -48q-19 -7 -19 -21q0 2 3 -24q-25 -29 -26 -50q-11 20 -34 20q-9 0 -16 -6q-4 46 -12 46q-2 0 -2 -7q0 -164 31 -271q50 -169 172 -169q13 0 48 17.5t60 15.5l8 -8v-24q-49 -41 -109 -41q-131 0 -198 140
q-52 109 -52 256q0 52 19 144l11 -27q12 13 10 19l-14 27l3 21l7 -14q3 7 3.5 24t6.5 26q-13 17 -30 17q-14 0 -33 -20q-46 46 -77 70q10 4 48 32q34 25 42 25t14 -10.5t13 -9.5l32 26q32 -6 47 -13q9 20 38 50q-10 -10 -27 -10q-6 0 -11.5 6.5t-11.5 6.5q-17 0 -28 -13
q-13 33 -42 42q9 12 18.5 25t9.5 26q18 -13 35 -13q18 0 5 19q25 -12 38 -12q17 0 24 20l41 -23q7 -17 19 -30l28 -4q1 -1 50 -86q37 -64 55 -64q25 0 48 41q19 39 38 77q25 42 54 42q120 0 174 -219q36 -143 36 -324q0 -12 20 -32zM279 611v11h-18v-11h18zM236 530l-10 4
l-15 -31l9 -4z" />
    <glyph glyph-name="N" unicode="N" 
d="M773 714q-58 -17 -79 -48q-15 -24 -15 -71v-31q1 -21 1 -33v-295q0 -23 -22 -77q-24 -59 -41 -59q-32 0 -64 108q-18 71 -35 141q-30 103 -42 138q-25 77 -54 133l-22 -11q4 -17 20 -25q-10 -12 -7 -55q-8 -8 -27 -13q-22 -6 -29 -9q-2 12 -8 26q-7 -5 -18 -28t-11 -32
t9 -18.5t18 -18.5q-14 -9 -14 -26q0 -21 27 -47q-19 -10 -19 -24q0 -5 3 -22q-25 -29 -26 -50l-28 20l-24 -6v-139q0 -47 35 -123q38 -82 77 -98q30 -7 88 -30q-14 -31 -39 -31q-110 0 -166 148q-41 109 -41 243q0 67 31 119q-5 15 -5 30q0 35 21 56q-30 17 -37 17
q-14 0 -33 -20q-46 46 -77 71q10 4 48 31q34 25 42 25q7 0 13 -10t14 -10l32 26q16 -3 47 -13q4 17 17 31q-11 23 -30 23q-17 0 -27 -14q-14 33 -42 42q9 12 18.5 25t9.5 26q18 -13 35 -13t5 20q24 -13 38 -13q17 0 24 20q8 -13 40 -23q14 -17 21 -31l7 8q41 -50 80 -173
q8 -24 58 -207q29 -106 47 -121q26 21 26 180q0 66 -5 153q-2 40 -5 81q-2 107 96 160l44 -8v-25zM396 610l-10 4l-8 -17l9 -4zM346 564v12h-18v-12h18zM302 484l-9 3l-15 -30l9 -4zM268 318l-10 10l-6 -7l9 -9z" />
    <glyph glyph-name="O" unicode="O" 
d="M843 457q-36 -31 -39 -34q-22 -21 -33 -40q10 -40 10 -82q0 -117 -74 -206q-79 -95 -194 -95q-132 0 -212.5 83.5t-80.5 216.5q0 129 71 215q76 92 202 92q39 0 50 -7l18 30q33 6 42 23q5 -20 24 -20q14 0 38 13l5 -19q19 5 35 13q3 -16 28 -44q-14 -6 -43 -49
q-12 6 -20 6h-10l34 -34q27 -26 36 -26q7 0 13 10t14 10q6 0 40.5 -26t45.5 -30zM760 400l-26 9v-10l23 -8zM647 510q-31 16 -39 16q0 -12 14 -26q14 0 25 10zM589 528l-8 26l-10 -4l8 -22h10zM740 300q0 45 -18 80q-21 43 -61 49q13 -30 54 -67v-6q0 -3 9 -32l-9 -22
q5 -12 18 -32q-21 -9 -27 -23q-6 -17 -11 -34q-1 7 -18 7q-9 0 -27 -20q-3 6 -10 25q-5 12 -18 26q3 10 2 20v14l-17 12q26 26 26 46q0 15 -13 27l17.5 17.5t9.5 19.5q0 30 -32 59q3 -8 3 -14q0 -9 -3 -12q-32 0 -46 7.5t-14 29.5q0 9 2 21l-11 17q13 8 14 15.5t6 13.5
q-7 2 -35 14q-22 9 -38 9q-99 0 -165 -82q-61 -77 -61 -178q0 -112 66 -188q70 -79 180 -79q93 0 162 85q65 81 65 175z" />
    <glyph glyph-name="P" unicode="P" 
d="M707 557q0 -109 -98 -198q-41 -37 -189 -130q5 -17 20 -25q-11 -14 -11 -21q0 -3 2 -10.5t2 -15.5q0 -25 -19 -25q-7 0 -7 6q0 2 -7 2q-40 0 -40 -77q0 -44 46 -87t91 -43q8 0 37 14q25 12 35 19h29l8 -8v-24q-30 -23 -47 -31q-23 -10 -56 -10q-34 0 -74 14
q-47 16 -59 40l-22.5 -22.5t-11.5 -23.5q0 -7 2 -14q-12 21 -34 21q-10 0 -17 -7l2 17q0 31 -36 38l18 35l-9 19q11 29 5 41q37 13 60 58l-11 11q-10 -4 -21 -18l-18 -22q-10 13 -27 13q-14 0 -33 -20q-46 46 -77 71q10 4 48 31q34 25 42 25q7 0 13 -10t14 -10q2 0 17.5 10
t47.5 10q5 10 5 22l-4 25l-27 -14q-17 34 -42 42q9 12 18.5 25t9.5 26l33 -13q12 29 14 118q0 -15 0 127q0 114 -42 123l16 32q20 -8 55 -8q30 0 90 6.5t90 6.5q169 0 169 -161zM667 560q0 35 -22 71q-24 42 -56 42h-222v-343q1 -2 3 -2t13 12q29 -18 68 -53v9
q102 70 141 109q75 75 75 155zM366 184v12h-18v-12h18zM374 146l-4 10l-16 -8v-10zM349 81v25h-12v-25h12zM375 -28h-9l-8 -22l9 -4z" />
    <glyph glyph-name="Q" unicode="Q" 
d="M840 13q0 -58 -37.5 -92t-95.5 -34q-63 0 -150 53q-68 46 -135 91q-32 20 -80 36q-41 14 -81 28l8 22q161 55 243 114q128 92 128 219q0 95 -63 162.5t-157 67.5q-87 0 -120 -36l13 -6q-10 -13 -7 -56q-8 -8 -26 -13q-23 -5 -29 -9l-9 27q-16 -13 -29 -60l27 -37
q-13 -10 -13 -27q0 -9 20 -47q-14 -2 -14 -19q0 -37 61 -56q44 -14 93 -14q4 0 32 15t52 11l9 -8v-24q-51 -34 -117 -34q-101 0 -147 60l-5 -27q-11 21 -34 21q-9 0 -16 -7l1 15q0 39 -35 39q16 34 16 37q0 9 -8 18q11 27 5 42q50 15 49 45v10q-2 -27 -19 -27q-7 0 -9 5
q-2 4 2 9l-13 -14q-10 14 -27 14q-12 0 -33 -20q-46 45 -77 70q10 4 48 32q34 24 42 24t14 -10t13 -10l32 27q26 -13 48 -13q15 18 50 50q-7 2 -21 -4t-19 -6q-6 0 -11.5 6.5t-11.5 6.5q-17 0 -28 -13q-13 32 -42 42q9 12 18 23q10 15 10 28q18 -13 35 -13q18 0 5 19
q25 -13 38 -13q17 0 24 20l42 -23q9 -19 25 -57q32 27 75 27q127 0 203 -70q78 -73 78 -200q0 -209 -307 -335l5 -14q15 -7 169 -101q120 -73 160 -73q33 0 62.5 21t29.5 53l-1 15q-19 19 -18 70h38q22 -32 22 -73zM301 693l-4 9l-16 -8v-10zM239 617v12h-18v-12h18z" />
    <glyph glyph-name="R" unicode="R" 
d="M820 -79q-31 -28 -73 -28q-31 0 -72.5 23.5t-37.5 23.5q-17 0 -28 -20v6q0 10 -12.5 24t-14.5 21q4 10 4 21q0 20 -19 23q26 40 26 65l-6 8l-9 67q-14 6 -27 12q-17 7 -30 7q0 34 -14 55l20 15v19q-15 12 -47 34q41 -21 63 -50q4 0 4 16q0 45 -54 46q20 14 20 31
q0 32 -50 60q-24 -12 -49 -23q-29 -12 -53 -10q-2 6 -2 14q0 31 64 47q101 23 119 32q65 31 65 100q0 42 -28 77.5t-69 35.5q-235 0 -244 1v-485q28 -25 41 -39l-16 -16h-96l-15 16q50 44 50 96q0 8 -1 29.5t-1 36.5q0 267 -4 331q-23 25 -44 39l16 31q13 -6 55 -6
q33 0 99.5 4.5t79.5 4.5q217 0 217 -156q0 -55 -35 -93q-26 -28 -85 -58q18 -17 51 -55h-1q0 -1 10 -1q13 0 38 13l5 -19q21 6 35 13l28 -44q-14 -6 -43 -49q-10 13 -27 13l-30 -17l6 -31q5 -2 11 -2q8 0 23.5 5t23.5 5t16 -13.5t17 -13.5q7 0 13 10t14 10q6 0 40.5 -26
t45.5 -30q-39 -35 -66 -70q-34 20 -40 20q-17 0 -27 -14q-2 2 -13 22q-8 15 -20 15q-9 0 -17 -4q25 -43 54 -61q5 -12 5 -34q-1 -26 0 -34q3 -18 14 -28q-19 -5 -33 -18q10 -3 43 -21q30 -17 40 -17q13 0 34 6q26 6 34 8l9 -9v-17zM599 217v12h-18v-12h18zM594 180l-18 9
l-3 -10l17 -8zM609 114v25h-12v-25h12z" />
    <glyph glyph-name="S" unicode="S" 
d="M773 117q0 -110 -89 -174q-80 -56 -194 -56q-106 0 -168 47h-17q-10 -17 1 -38q-31 -15 -28 -49q-12 21 -34 21q-10 0 -17 -7l2 16q0 30 -36 39l18 35l-9 19q11 28 5 41q49 16 49 46v10q-2 -27 -19 -27q-7 0 -9 4q-3 5 2 9l-14 -13q-9 13 -26 13q-12 0 -33 -20
q-46 46 -77 71q10 4 48 31q34 25 42 25q7 0 13 -10t14 -10q15 0 33 27q7 1 7 -6q0 -1 6 -1q9 0 21 15l16 22q1 10 -17 10q-17 0 -27 -14q-16 33 -42 42q1 2 17 24q11 15 11 27q18 -13 35 -13t5 20q24 -13 38 -13q17 0 23 20q21 -16 41 -33q17 -15 27 -47q1 13 19 13
t65 -23.5t58 -38.5v-23q0 -8 -20 -8q-12 0 -57.5 27t-90.5 27v-9q0 -14 15 -21q-12 -19 -7 -55q-8 -8 -27 -13q-22 -6 -29 -9l-8 26q-7 -5 -18 -28t-11 -32q0 -55 84 -94q71 -32 133 -32q97 0 163 48q73 55 73 148q0 102 -117 166q-109 49 -219 98q-117 63 -117 160
q0 79 72 129q65 44 148 44q96 0 167 -53q6 0 19 2.5t19 2.5q5 -41 21 -124l-31 -7q-13 62 -75 102q-57 37 -123 37q-65 0 -115 -36q-55 -39 -55 -101q0 -78 115 -131q108 -48 215 -96q116 -73 116 -199zM322 160l-7 9l-23 -15l6 -10z" />
    <glyph glyph-name="T" unicode="T" 
d="M813 574q-56 -39 -147 -39q-23 0 -69.5 2.5t-70.5 2.5v-478q0 -13 16 -24t31 -13q-13 -32 -76 -32q-32 0 -56 8v24q12 5 29 20t17 25l-5 263q-16 -17 -45 -53q-34 20 -40 20q-17 0 -27 -13q-10 11 -21 23.5t-24 16.5l-3 1q-2 0 -2 -11q0 -25 54 -58q4 -11 4 -51
q1 -31 15 -46q-35 -9 -35 -43q0 -5 1 -11q-6 5 -22 5q-17 0 -28 -19v4q0 11 -12.5 25t-14.5 21q4 10 4 21q0 20 -19 24q26 35 26 50q0 13 -13 24q27 25 27 37q0 10 -11 32t-19 28l2 -26q-12 -7 -29 -7q-45 0 -59 60l-16 92l22 -12q-4 3 -4 20q0 52 119 80q83 20 158 20
q29 0 88 -7t89 -7q91 0 135 40l31 -7v-32zM359 524v12h-31v-12h31zM485 360v179q-136 0 -124 0q3 -10 33 -55q-20 -5 -44 -44q-13 13 -27 13q-8 0 -11.5 -6.5t-11.5 -6.5q-7 0 -20 5.5t-20 5.5q16 -15 16 -25q0 -1 -9 -24q6 -4 16 -4q13 0 37.5 7.5t36.5 7.5q6 0 15.5 -13
t17.5 -13t13.5 10t13.5 10t33 -20q29 -24 35 -27zM253 443q-4 8 -15 23q-7 0 -18 -9q8 -14 25 -37q0 15 8 23zM229 421v18h-12v-18h12z" />
    <glyph glyph-name="U" unicode="U" 
d="M890 117q-40 -35 -66 -70q-35 20 -41 20q-17 0 -26 -14q-2 2 -15 23q-8 14 -21 14q-6 0 -15 -4q26 -43 55 -61q4 -12 4 -34q0 -26 1 -35q3 -17 14 -27q-37 -10 -34 -55q-6 6 -23 6t-28 -20v6q1 11 -12 24.5t-15 20.5q4 10 4 21q0 20 -19 24q5 4 16.5 24t11.5 23
q0 4 -11 4q-7 0 -39 -19q-41 -24 -69 -36q-48 -19 -92 -19q-106 0 -163 65q-54 62 -54 169q0 59 33.5 173t33.5 173q0 40 -14 76q-22 53 -26 68q10 16 27 16q28 0 46 -64q14 -48 14 -89q0 -60 -33.5 -175.5t-33.5 -177.5q0 -87 43 -139q45 -55 130 -55q52 0 117 30
q77 36 77 80q0 28 -59 31q-4 7 -6 26t-9 29l21 15v19q-15 12 -47 34q41 -21 63 -50q10 6 10 23q0 23 -60 39q15 14 28 41q33 6 41 23l13 -13q10 74 0 166h37q7 -26 5 -90q-1 -58 13 -89q20 6 34 13q3 -15 29 -44q-14 -6 -43 -49l-31 7v-37q0 -8 11 -8t25 6q18 -22 35 -22
q7 0 13 10t13 10t41 -26t46 -30zM686 157v12h-18v-12h18zM669 184l-10 3l-8 -17l9 -4zM681 120l-18 9l-4 -10l17 -8zM696 54v25h-12v-25h12z" />
    <glyph glyph-name="V" unicode="V" 
d="M870 497q-40 -35 -66 -70q-12 7 -25 15q-10 5 -29 5q-23 0 -23 -14q0 -10 10 -31q12 -25 14 -31q-8 -14 -8 -28q0 -2 16 -35q-19 -4 -32 -18l12 -4q-4 -94 -69 -215q-74 -138 -157 -138q-59 0 -128 90q-60 78 -77 146q-9 38 -18 135q-7 85 -23 133q11 23 46 23
q26 0 53 -15q-22 -32 -28 -58q-5 -19 -5 -64q0 -95 47 -208q56 -135 133 -135q59 0 114 105q19 34 66 158l-18 -2v5q1 11 -12 24.5t-15 20.5q5 10 5 21q0 20 -19 23q26 35 26 50q0 14 -13 25q26 24 26 37q0 10 -10.5 31.5t-18.5 28.5l2 -26q-19 6 -58 13q-3 7 -5.5 26
t-9.5 29l21 15v19q-30 19 -87 59v23q6 8 23 8q6 0 46 -20q7 11 27 22.5t27 17.5q5 -20 23 -20q14 0 39 13l5 -19q20 6 35 13q2 -15 28 -44q-14 -6 -43 -49q-10 13 -27 13q-6 0 -11.5 -6.5t-11.5 -6.5q-18 0 -19 13l-8 -3q13 -13 37 -51q27 14 46 14q9 0 17 -13.5t17 -13.5
q7 0 13 10t13 10t41 -26t46 -30zM666 537v12h-18v-12h18zM715 428l-15 33l-9 -4l15 -29h9z" />
    <glyph glyph-name="W" unicode="W" 
d="M910 531q-40 -36 -66 -71l-39 21q2 -18 17 -83q11 -52 11 -81q0 -92 -51 -222q-61 -155 -135 -155q-35 0 -82 100l-56 134q-17 -5 -42 -68q-37 -98 -45 -113q-30 -60 -62 -60q-58 0 -118 108q-50 90 -60 162q-5 30 -5 69q0 24 1.5 70.5t1.5 67.5l-13 27q12 23 40 23
q26 0 60 -23q-37 -56 -41 -66q-6 -19 -6 -81q0 -97 29 -178q36 -102 107 -139q41 33 77 134q45 126 62 152h24q26 -73 52 -147q36 -97 79 -125q48 28 93 121q44 89 44 149l-5 77q-21 -22 -16 -46q-6 5 -23 5t-28 -19v7q1 9 -12 22.5t-15 20.5q5 10 5 21q0 19 -19 24
q26 34 26 50l-13 24q26 24 26 37q0 11 -10.5 32t-18.5 28l2 -26q-19 7 -58 13q-2 19 -15 55l21 15v18q-31 12 -54 27v23q18 7 90 62q4 -20 23 -20q14 0 39 12l5 -19q20 6 34 13l29 -44q-14 -6 -43 -49q-9 13 -27 13l-30 -17q24 -25 34 -25q1 0 10.5 1t18.5 1t17 -13t17 -13
q7 0 13 10t13 10t41.5 -26t45.5 -30zM706 571v11h-18v-11h18zM762 455l-28 52l-10 -4l28 -48h10zM789 414v18h-12v-18h12zM798 400l-18 -19q5 -5 10 -18q0 7 4 19.5t4 17.5z" />
    <glyph glyph-name="X" unicode="X" 
d="M739 81q-13 0 -38 -1.5t-36 -1.5l-30 3l-8 16q26 25 26 40q0 12 -67 96q-42 50 -83 100l-77 -78l20 -10q-10 -15 -10 -22q0 -2 2 -9.5t2 -16.5v-9q-8 -7 -27 -12q-22 -6 -29 -9q-2 12 -8 26q-8 -5 -18.5 -27.5t-10.5 -32.5q0 -9 9 -18.5t17 -18.5q-13 -9 -13 -26
q0 -21 27 -47q-20 -8 -20 -23q0 -4 4 -23q-26 -30 -26 -50l-33 14q3 -26 35 -41q27 -11 64 -11q20 0 34 4l8 -31q-25 -15 -50 -15q-51 0 -98 34q-52 38 -52 89l11 70l6 -27q11 13 11 21l-21 29q0 27 27 54q-13 16 -30 16q-14 0 -34 -20q-45 46 -76 71q9 4 48 31q34 25 42 25
q7 0 13 -10t13 -10l32 26q18 -6 74 -19l-9 8q6 6 15 26q8 17 18 23q-6 2 -20.5 -4.5t-19.5 -6.5q-6 0 -11.5 7t-11.5 7q-17 0 -27 -14q-14 33 -43 42q9 12 19 25t10 26q18 -13 34 -13q18 0 5 20q25 -13 39 -13q17 0 23 20q8 -13 41 -23q4 -17 21 -31q1 3 21 44l-166 200
q8 7 30 15t33 8q22 0 63 -15q-3 -5 -18 -18t-15 -23q0 -16 103 -137q98 94 131 155q39 75 39 193l10 18h22q15 -12 15 -59q0 -87 -48 -169q-30 -52 -90 -114q-48 -51 -49 -61q126 -164 206 -252v-30zM329 144l-10 3l-15 -30l10 -4zM282 68v18h-11v-18h11zM295 -22l-10 10
l-7 -6l10 -10z" />
    <glyph glyph-name="Y" unicode="Y" 
d="M887 543q0 -23 -15 -49h-31q-2 5 -2 11q0 7 4 21t4 21q0 53 -82 53q-92 0 -118 -43l19 -6q-9 -11 -6 -56q-8 -7 -27 -12q-22 -6 -29 -10q-2 13 -8 27q-7 -5 -18 -28t-11 -32q0 -10 9 -19.5t17 -17.5q-13 -10 -13 -26q0 -21 27 -48q-17 -7 -18 -15l2 -22l-1 -9
q-25 -29 -25 -49q-12 20 -34 20q-10 0 -17 -6l1 14q2 18 -12 31q-23 -24 -29 -104q-2 -23 -2 -113q0 -63 41 -77l-15 -32h-83l-15 17q34 35 34 84q0 140 -35 237q-50 142 -162 142q-27 0 -52 -19t-25 -45q0 -37 20 -45q7 -3 50 -3q9 0 16 -3v-24q-26 -15 -43 -15
q-36 0 -59.5 27t-23.5 63q0 46 38 73q35 24 82 24q85 0 136 -58q35 -39 74 -135q17 65 50 142q-6 11 -23 11q-14 0 -34 -20q-45 46 -76 70q9 4 48 32q34 25 42 25q7 0 13 -10t13 -10q19 0 33 26q26 -13 47 -13q7 0 25 22q21 26 25 29h-5q-1 0 -14.5 -5.5t-20.5 -5.5
q-6 0 -11.5 6.5t-11.5 6.5q-17 0 -27 -13q-14 33 -43 42q9 12 19 25t10 26q17 -13 34 -13t5 19q25 -12 39 -12q17 0 23 20q19 -18 37 -35q29 -25 40 -25q13 0 38 6.5t38 6.5q48 0 83 -24q41 -27 41 -73zM654 606l-4 10l-16 -9v-9zM592 531v11h-18v-11h18zM549 450l-10 4
l-15 -31l10 -4zM502 374v18h-11v-18h11z" />
    <glyph glyph-name="Z" unicode="Z" 
d="M800 -3q0 -56 -53 -86q-43 -24 -104 -24q-84 0 -223 79q-107 65 -213 130l306 381q-13 16 -30 16q-13 0 -33 -20q-46 46 -77 71q10 4 48 31q35 25 42 25q8 0 14 -10t13 -10q19 0 32 26q18 -6 74 -20l11 25q-8 18 -24 18q-5 0 -16 -2t-18 -2q-21 0 -33 28l4 -18
q-21 3 -86 18q-54 14 -84 14q-18 0 -31 -52q-11 -42 -11 -70q0 -8 5.5 -25t5.5 -26q0 -7 -19 -7q-13 0 -24 25q-9 22 -9 38q0 27 3.5 83t3.5 85q6 9 23 9q28 0 86.5 -23.5t86.5 -23.5q12 0 27.5 17t18.5 29q17 -13 34 -13t5 20q25 -13 38 -13q17 0 24 20q10 -19 41 -23
q8 -18 20 -31l20 14q9 -3 9 -20q0 -10 -20 -33q-24 -29 -26 -32l10 -13q-5 -33 -5 -53q-2 -3 -54 -16q-39 -10 -39 -40q0 -9 9.5 -18.5t17.5 -18.5q-13 -9 -13 -26q0 -21 26 -47q-19 -12 -19 -17q0 -1 2 -7.5t1 -13.5v-8q-25 -30 -26 -50q-11 21 -34 21q-9 0 -16 -7l2 20
q0 34 -36 34q12 20 20 46l-17 12l3 -16l-213 -281q23 -36 168 -112.5t195 -76.5q42 0 75 14q42 19 42 56q0 14 -16 32t-31 18q-4 0 -57 -14l-9 9v24q21 21 56 21q39 0 68 -26t29 -64zM607 546l-4 10l-15 -9v-9zM556 504l-10 3l-15 -30l9 -4zM509 428v18h-12v-18h12z" />
    </font>
</defs>
</svg>
