<?xml version="1.0" standalone="no"?>
<!DOCTYPE svg PUBLIC "-//W3C//DTD SVG 1.1//EN" "http://www.w3.org/Graphics/SVG/1.1/DTD/svg11.dtd" >
<svg xmlns="http://www.w3.org/2000/svg" xmlns:xlink="http://www.w3.org/1999/xlink" version="1.1">
<metadata>
Created by FontForge 20170924 at Thu Nov  4 16:01:15 1999
 By www-data
Melle DERIEPPE Claude --- http://www.multimania.com/clo
</metadata>
<defs>
<font id="HalloweenSpider" horiz-adv-x="500" >
  <font-face 
    font-family="Halloween Spider"
    font-weight="400"
    font-stretch="normal"
    units-per-em="1000"
    panose-1="0 0 4 0 0 0 0 0 0 0"
    ascent="800"
    descent="-200"
    x-height="595"
    cap-height="627"
    bbox="-33 -296 1088 800"
    underline-thickness="20"
    underline-position="-143"
    unicode-range="U+0020-007A"
  />
<missing-glyph 
d="M63 0v800h375v-800h-375zM125 63h250v675h-250v-675z" />
    <glyph glyph-name=".notdef" 
d="M63 0v800h375v-800h-375zM125 63h250v675h-250v-675z" />
    <glyph glyph-name=".null" horiz-adv-x="0" 
 />
    <glyph glyph-name="nonmarkingreturn" 
 />
    <glyph glyph-name="space" unicode=" " 
 />
    <glyph glyph-name="exclam" unicode="!" horiz-adv-x="334" 
d="M317 503q0 -3 -6 -12.5t-6 -14.5q0 -9 6 -24q-4 -4 -55 -28q25 -24 50 -31v-58q-71 -57 -92 -57q-10 0 -32 22q-11 -32 -17 -116l-10 -139h-109l-39 532h187q0 -12 4 -16q35 22 44 22q8 0 41.5 -36t33.5 -44zM212 -97q0 -27 -39.5 -65t-66.5 -38q-29 0 -67.5 37.5
t-38.5 65.5q0 24 40.5 63.5t65.5 39.5q27 0 66.5 -38t39.5 -65zM294 495q-43 72 -57 72q-10 0 -40 -26q-2 -3 -1 -12q7 0 21.5 2t21.5 2q21 0 24 -1q23 -30 31 -37zM294 451q0 5 -7 16l-20 -21q5 0 13.5 2.5t13.5 2.5zM278 474q-12 48 -30 48q-9 0 -26 -3t-26 -3
q0 -5 -6 -15q5 0 18 5t20 5q17 0 39 -25q-9 -9 -9 -25q5 10 20 13zM250 487q-3 0 -12.5 6.5t-12.5 6.5l-18 -9q-12 -6 -17 -9q0 -21 19 -21q2 0 17 2q8 1 12 -2q0 13 12 26zM291 379l-7 16l-8 -3l7 -13h8zM183 543q-17 -8 -20 -28v-34q0 -6 -2.5 -18t-2.5 -18q11 12 11 27
q0 4 -1 12.5t-1 12.5q0 22 16 46zM244 401v26q-8 -10 -21 -26h21zM122 514v10h-37v-10h37zM273 370q-9 10 -27 29q6 -13 6 -24q0 -16 -14 -26q-2 -2 -26 -14q11 0 18 -7q19 6 43 42zM239 369q-16 8 -33 20l-3 5q-13 -12 -19 -12l16 -18q8 -9 17 -9q8 0 22 14zM245 308
q-18 8 -66 24q3 -8 17 -23t21 -15q6 0 16.5 7t11.5 7zM192 455q0 -18 -12 -38q-22 -17 -27 -46q0 -2 -5 -51l-7 -73q0 -98 -17 -170q-16 1 -46 -14q18 4 33 4q18 0 33 -5q-4 95 13 296q0 4 21 40q18 34 14 57z" />
    <glyph glyph-name="period" unicode="." horiz-adv-x="272" 
d="M257 -72q0 -38 -45 -83t-83 -45q-39 0 -83.5 42.5t-44.5 81.5q0 38 45 84.5t83 46.5q36 0 82 -45.5t46 -81.5zM236 -78l-14 4q-58 -68 -96 -96q29 -5 110 92z" />
    <glyph glyph-name="one" unicode="1" horiz-adv-x="918" 
 />
    <glyph glyph-name="question" unicode="?" horiz-adv-x="668" 
d="M628 485q-3 -13 -19 -84q-18 -5 -57 -22q3 -12 3 -25q0 -83 -73 -174q-66 -81 -149 -123q-33 -2 -106 -17h-20q19 19 63 82q53 76 53 100q0 21 -25 34q-21 11 -44 11q-47 0 -83 -24q-12 -8 -43 -54q23 63 23 69q0 35 -22.5 76t-53.5 53q-25 10 -74 10q43 6 66 17
q31 15 68 55q-4 2 -11 2q-15 0 -42 -9h-19l34 79q97 42 193 42q55 0 92 -16q10 5 14 25l9 41q70 -8 112 -6q-1 -5 -1 -9q0 -25 35 -30v-19q0 -8 -9 -20l-13 -18q3 -1 6 -1q5 0 17.5 4.5t18.5 3.5h24q2 -39 33 -33v-20zM379 -97q0 -29 -36 -66t-64 -37q-31 0 -68.5 36
t-37.5 67q0 25 40.5 64t65.5 39q27 0 63.5 -37.5t36.5 -65.5zM531 556v26h-10v-26h10zM585 517l-22 7v-8l19 -7zM614 493h-9l-6 -37h9zM505 556v32q-8 0 -23.5 3t-23.5 3q0 -9 -12 -21q11 5 30 5q15 0 29 -22zM506 615h-93q0 -10 -2 -29.5t-2 -29.5q17 27 51 53h5
q11 -2 34 -6zM590 452l-6 47q-6 0 -19 2.5t-19 2.5q8 -10 28 -25q0 -6 -5.5 -20t-5.5 -19q15 0 27 12zM490 547q-6 6 -6 19h-20q-10 -16 -10 -29q0 -8 5 -15q12 6 31 25zM550 450q5 10 5 18q0 9 -6 15q-25 -8 -25 -26zM600 438q-19 -10 -54 -37h29q15 0 21 15zM557 433l-3 8
l-13 -7v-8zM328 520v10h-20v-10h20zM409 329v31h-10v-31h10zM262 454q-13 3 -49 11q14 -26 27 -26q22 0 22 15zM270 414l-8 3l-7 -14l8 -4zM318 388h-19q-26 0 -26 -27q0 -13 9 -22q11 30 36 49zM184 496l-16 9q-15 0 -44 -14q10 0 30 2.5t30 2.5zM346 350q0 5 -3.5 14
t-3.5 13q-17 -1 -30 -19t-13 -36q0 -16 14 -39q2 6 22 37q14 22 14 30zM412 300q0 6 -4 14l-4 8q-5 -73 -40 -150q48 90 48 128zM526 383q1 -12 -3 -23l-5 -13q9 -59 -91 -165q-92 -98 -145 -112q19 0 50 10q108 95 129 120q66 78 66 158q0 12 -1 25zM212 433q0 6 -3 14
l-4 8q-15 -28 -43 -48h32q18 15 18 26zM230 387l-8 9l-5 -6l7 -8zM267 329q-6 13 -24 32q-20 -9 -30 -32q14 5 27 5q14 0 27 -5zM184 452v19h-37q-17 -34 -57 -65h47q10 0 28.5 18t18.5 28zM212 345v25q-3 5 -24 23h-31q32 -33 41 -60q12 12 14 12zM295 279q-5 17 -23 27.5
t-37 10.5q-26 0 -37 -14q-2 -2 -18 -41q44 18 91 18q12 0 24 -1zM185 303q-29 90 -59 90h-30q55 -30 69 -121q1 3 10.5 13.5t9.5 17.5z" />
    <glyph glyph-name="A" unicode="A" horiz-adv-x="896" 
d="M888 -64l-181 -136q-45 72 -145 239q-17 -14 -30 -61q-11 -40 -11 -70q0 -28 33 -55q-1 -4 -8 -14q-25 31 -47 37q-7 2 -42 2q-45 0 -71 -19q-22 -17 -44 -59q7 27 -1 58q-5 19 -47 50t-62 31q-52 0 -84 -57l-46 -82q-86 86 -86 108q0 5 46 59q63 74 80 98q34 48 113 167
q94 143 94 154q0 8 -24 41l-43 60q91 57 159 174q16 -30 50 -89q8 14 26 44q32 -10 102 -22q7 -5 7 -13q0 -7 -5 -17q8 -7 28 -15v-19q0 -7 -12 -21q-14 -17 -16 -22q3 -3 16 -2q35 3 45 3q-2 -5 -2 -10q0 -28 29 -29q-7 -39 -27 -97q-17 -3 -55 -11zM629 523v20h-10v-20h10
zM610 574q-39 16 -87 26q-9 -18 -17 -55q52 38 60 38t22 -4.5t22 -4.5zM670 464v9l-26 7v-10zM604 554q-4 0 -16.5 6.5t-19.5 6.5q-5 0 -11 -5.5t-6 -9.5q0 -2 1 -2q8 2 15 2q30 0 30 -29q0 -6 -1 -12zM665 401v48q-13 5 -37 17q1 -2 11 -16.5t10 -19.5q0 -8 -16 -34
q5 0 16 2.5t16 2.5zM582 526q-5 5 -6 12h-20q-14 -14 -23 -36l25 -7q24 27 24 31zM616 458l-15 14l-19 -21h26zM537 544q-8 0 -21 -14q5 -5 8 -13q13 13 13 27zM632 437q-3 2 -9 2q-5 0 -16.5 -3t-17.5 -3v-21h37q0 4 3 12.5t3 12.5zM562 462l-7 16l-8 -3l7 -13h8zM675 394
q-13 -7 -65 -24q6 -6 7 -14q19 6 53 6q0 5 2.5 16t2.5 16zM631 387v9h-31v-9h31zM568 443h-10l-6 -31h10zM412 390v15h-10v-15h10zM865 -63q-5 0 -13 7q-64 -39 -135 -96v-20q49 51 148 109zM548 62q-17 40 -36 102l-32 103q-31 -77 -31 -95q0 -23 37 -62t62 -48zM466 280
q0 8 -9.5 25t-9.5 23l-142 -205h41q14 0 46 19.5t38 31.5q36 75 36 106zM538 54q-17 -1 -55 36q-36 34 -43 54q0 -5 -4 -17.5t-4 -18.5q0 -23 22 -46t45 -23q15 0 39 15zM471 31q-30 20 -48 47q0 -5 -3.5 -15.5t-3.5 -15.5q0 -10 11 -17.5t22 -7.5q14 0 22 9zM425 144
q-26 -25 -69 -32q-12 -2 -62 -3q21 -22 28 -27q14 -10 35 -10q32 0 48 21q11 15 20 51zM538 32h-20q-58 -37 -58 -65q0 -31 49 -64q-2 8 -2 18q0 58 31 111zM459 10q-27 -13 -27 -29q0 -6 8 -20q8 16 19 49zM403 72q-19 -13 -59 -13q11 -11 11 -20h37q11 11 11 33zM431 361
q-96 -122 -156 -235q-8 -16 -97 -144q-79 -114 -79 -132q0 -7 9 -17q4 25 23 58.5t38 48.5q5 30 49 92q37 52 68 82q-1 25 55 107q73 107 90 140zM443 -59q-11 11 -11 19h-32q-12 -23 -11 -32q19 13 54 13zM355 14q0 15 -21 36q0 -39 -17 -72q38 18 38 36zM493 -109
q-11 11 -31 23q-23 14 -35 14q-18 0 -36.5 -17.5t-18.5 -35.5q0 -4 1 -8q36 25 120 24zM316 36q0 26 -27 53q2 -8 2 -17q0 -44 -33 -110q24 5 41 27t17 47zM376 -35q-13 5 -49 5q12 -6 42 -36q0 5 3.5 15.5t3.5 15.5zM360 -110q0 21 -17.5 46t-37.5 25q-7 0 -24 -7
q-20 -8 -26 -9q25 -14 51 -27q30 -19 45 -46q9 9 9 18zM274 34q1 3 1 4v0q0 -1 -1 -2v4q1 5 4 19q-5 20 -7 20q-6 -15 -27 -53q-33 -54 -38 -64q22 5 51 42q4 5 17 30z" />
    <glyph glyph-name="B" unicode="B" horiz-adv-x="741" 
d="M718 30q0 -129 -131 -189q-89 -41 -201 -41h-347q-1 1 -37 38v737q10 11 20.5 22.5t24.5 13.5q18 3 57 4q34 1 69 -1l38 -2q22 -1 55 0l56 2q127 5 202 -31q93 -44 93 -162q0 -55 -19 -81q-27 -36 -113 -65q127 -60 172 -101q61 -56 61 -144zM509 403q0 10 -4 30t-4 30
l-10 -15q0 -7 1.5 -22t1.5 -22q-1 -10 -10 -29l-9 -19q34 10 34 47zM596 390q0 10 -3.5 32.5t-2.5 34.5q0 -111 -68 -137q-33 -13 -43 -17q-26 -14 -28 -31q15 21 72 43q73 28 73 75zM404 452v22h-11v-22h11zM436 392v35l-16 -15q5 -7 16 -20zM269 562v11h-34v-11h34z
M342 429l-15 16q-6 -5 -8 -16h23zM425 366q-21 -6 -53 -22q8 -12 22 -12zM419 489q-47 36 -73 43q-76 20 -121 20h-19v-262q29 9 64 8q-23 14 -48 37q1 11 20 58q21 52 34 52q4 0 9.5 -3t8.5 -3q5 0 15 12t12 12q9 0 26 -16q24 -23 29 -26q1 6 1 13q0 6 -1.5 17t-1.5 17
q0 17 18 25q4 -4 27 -4zM360 353q-6 5 -19 32h-28v-28q3 -3 16.5 -11t16.5 -8zM348 317q-36 17 -44 29q-4 6 -4 27q0 26 1 28q6 8 41 5q-4 0 -34 15q-26 -39 -26 -45q0 -9 15 -34l24 -40q3 3 13.5 7.5t13.5 7.5zM126 550v11h-40v-11h40zM408 265l-3 9l-38 -13v-9zM306 303
q-42 55 -42 73q0 6 23 51q-25 -33 -46 -87q23 -17 65 -37zM204 569q-9 -1 -20.5 -9t-11.5 -16q2 -37 0 -66l-2 -41q-1 -12 -1 -7q0 -74 10 -134v253q12 11 25 20zM467 113q-44 49 -112 62q8 -25 17 -49q15 -27 48 -27q22 0 47 14zM319 218l-4 8l-14 -7v-9zM560 63l-8 -54
q-5 -35 -20 -55q-23 -25 -57 -70q9 11 33.5 27t33.5 28q20 28 20 88q0 17 -2 36zM475 98q-55 -17 -55 -68q0 -30 40 -62q-6 15 -6 32q0 20 8 48q12 42 13 50zM402 84q-27 13 -46 32q1 -12 10.5 -26.5t20.5 -14.5q14 0 15 9zM413 74q-24 -11 -35 -32q13 -26 29 -29
q-2 8 -2 18q0 18 8 43zM342 173q0 14 -7 15h-26q-80 -31 -98 -31q18 -29 59 -29q22 0 45 12q27 14 27 33zM282 191q-27 9 -48 9q-16 0 -29 -6v-23q57 11 77 20zM273 227q-10 0 -31 4.5t-31 4.5q-41 0 -41 -39q0 -9 2 -21q12 54 39 54q10 0 31 -1.5t31 -1.5zM694 18
q0 8 -4 22.5t-4 22.5q2 -19 2 -36q0 -161 -248 -191q-54 -7 -164 -15h15q40 0 65 1l50 2q12 3 47 9q241 28 241 185zM335 106v28q-23 -10 -65 -26q4 -2 19 -12q11 -9 20 -9q8 0 26 19zM337 74l-4 9l-14 -8v-8zM396 -7q-13 12 -13 21h-27q-12 -11 -12 -41q29 20 52 20z
M294 60q0 8 -7.5 17t-15.5 9q0 -10 -2.5 -29.5t-2.5 -29.5q28 15 28 33zM438 -69l-4 8l-55 -31v-9zM449 -42q-35 21 -44 21q-19 0 -39 -13q-30 -19 -30 -56q0 -10 2 -20q46 44 111 68zM198 145q-3 0 -10.5 -2.5t-10.5 -2.5v-26q0 10 21 31zM258 75q0 14 -52 65v-137
q20 8 36 29.5t16 42.5zM330 -5q-13 26 -36 26q-5 0 -36 -15q39 -13 64 -39q0 4 4 14t4 14zM79 -36l-9 559q-1 -19 1 -88l2 -65v-292q0 -103 -9 -206q3 15 7.5 46t7.5 46zM324 -71q-7 19 -40 43.5t-53 24.5q-8 0 -26 -19q24 0 62.5 -29.5t47.5 -53.5zM305 -127q-4 25 -37 53
q-29 25 -57 35v-89q24 -6 43 -6q9 0 25.5 3.5t25.5 3.5zM183 -139v105h-11v-105h11zM233 -191v11h-27v-11h27zM198 -180q-22 16 -32 16q-17 0 -51 -4.5t-51 -4.5q86 0 134 -7z" />
    <glyph glyph-name="C" unicode="C" horiz-adv-x="635" 
d="M637 231q-5 1 -50 1q-43 0 -85 -33q-45 -35 -45 -77q0 -23 58 -161q4 -10 35 -10q32 0 53 5v-25q0 -13 -31 -112q-81 -19 -165 -19q-175 0 -285 106q-113 107 -113 281q0 153 73 244q-11 13 -50 26q7 59 17 111q5 -1 9 -1q13 0 24 8.5t12 20.5q20 -11 57 -28q3 8 1 28
t-2 33q5 -1 9 -1q12 0 21.5 8.5t8.5 20.5h18q7 1 40 -15q42 -20 51 -24q-2 6 -2 -29q0 -21 18 -21q15 0 45 5.5t45 5.5q111 0 171 -105q-13 3 -40 -32t-27 -50q0 -36 30 -91q26 -47 36 -51q20 -5 63 -19zM637 231q-30 6 -63 19q-10 4 -36 51q-30 55 -30 91q0 15 27 50t40 32
q-60 105 -171 105q-15 0 -45 -5.5t-45 -5.5q-18 0 -18 21q0 35 2 29q-86 40 -91 39h-18q1 -12 -8.5 -20.5t-21.5 -8.5q-4 0 -9 1q0 -13 2 -33t-1 -28q-19 11 -57 28q-1 -12 -12 -20.5t-24 -8.5q-4 0 -9 1q-10 -52 -17 -111q39 -13 50 -26q-73 -91 -73 -244q0 -174 113 -281
q110 -106 285 -106q84 0 165 19q31 99 31 112v25q-21 -5 -53 -5q-31 0 -35 10q-58 138 -58 161q0 42 45 77q42 33 85 33q45 0 50 -1zM637 231q-5 1 -50 1q-43 0 -85 -33q-45 -35 -45 -77q0 -23 58 -161q4 -10 35 -10q32 0 53 5v-25q0 -13 -31 -112q-81 -19 -165 -19
q-175 0 -285 106q-113 107 -113 281q0 153 73 244q-11 13 -50 26q7 59 17 111q5 -1 9 -1q13 0 24 8.5t12 20.5q20 -11 57 -28q3 8 1 28t-2 33q5 -1 9 -1q12 0 21.5 8.5t8.5 20.5h18q7 1 40 -15q42 -20 51 -24q-2 6 -2 -29q0 -21 18 -21q15 0 45 5.5t45 5.5q111 0 171 -105
q-13 3 -40 -32t-27 -50q0 -36 30 -91q26 -47 36 -51q20 -5 63 -19zM547 477q-14 0 -40.5 3.5t-40.5 3.5q-84 0 -126 -28q35 -32 66 -41q14 -4 49 -4h14q8 -1 10 -1q11 0 22 11q7 7 46 56zM283 612q-22 11 -33 11q10 -18 25 -66zM239 630l-38 13v-8l35 -13zM547 256
q-49 64 -52 127q-32 -29 -32 -67q0 -61 84 -60zM258 552v21h-10v-21h10zM249 580q-5 11 -5 32h-55q0 -18 -11 -38q5 5 15 14t15 14q26 -13 41 -22zM482 399q-86 -3 -130 23q26 -67 80 -67q16 0 30.5 14t19.5 30zM514 499q-54 13 -73 13q-174 0 -246 -173q51 86 102 124
q61 44 152 44q37 0 65 -8zM514 499q-54 13 -73 13q-174 0 -246 -173q51 86 102 124q61 44 152 44q37 0 65 -8zM179 618h-8l-7 -19l8 -3zM233 541v31q-7 4 -19 13l-14 -14q12 -26 12 -36q7 6 21 6zM457 272q-13 40 -13 49l-9 -37q12 -12 22 -12zM440 343q-31 0 -66 11
q19 -38 33 -38q20 0 33 27zM245 484l-3 8l-13 -7v-8zM409 302l-8 3l-7 -14l8 -4zM536 242q-6 0 -17 3.5t-17 3.5q-23 0 -45 -23.5t-22 -46.5q0 -7 14 -31q5 28 87 94zM124 565q-3 0 -17 14l-8 -14h25zM469 252q-7 0 -22 1t-22 1q-3 -10 -1 -25t2 -20q21 32 43 43zM417 255
q0 14 -7 22q-13 -14 -13 -22h20zM328 425v25q-31 -6 -66 -51.5t-30 -76.5q28 4 62 39.5t34 63.5zM385 287l-3 8l-13 -6v-9zM373 319q0 6 -3 13l-4 6q-31 -31 -49 -43q4 0 13.5 -3.5t14.5 -3.5q11 0 19.5 10t8.5 21zM357 369q0 7 -21 42q-1 -28 -31.5 -60.5t-60.5 -43.5
q8 0 22.5 -4t22.5 -4q20 0 44 25t24 45zM149 498q-15 30 -33 30l-6 -3q-6 -4 -6 -10q0 -18 31 -31zM127 543l-7 4q-7 4 -13 4q-10 0 -20.5 -14t-10.5 -25t16 -19q-2 8 -2 16q0 36 26 36q5 0 11 -2zM127 543l-7 4q-7 4 -13 4q-10 0 -20.5 -14t-10.5 -25t16 -19q-2 8 -2 16
q0 36 26 36q5 0 11 -2zM412 205q-7 13 -25 32q-2 -1 -30 -26q34 2 55 -6zM121 476q-3 0 -10 2.5t-10 2.5q6 0 5 -13q5 0 15 8zM362 249q0 14 -19 24q-15 8 -31 8q15 -21 30 -66q20 30 20 34zM98 449q-2 4 -23 32q-15 20 -15 28v6q10 19 10 25q0 9 -9 17q-6 -41 -18 -88
q30 -20 55 -20zM435 143q-6 6 -6 14q-3 11 -27.5 26t-36.5 15q-27 0 -53 -49q13 4 56 4q35 0 67 -10zM323 198q0 27 -14 58q-16 37 -40 37h-19q47 -45 47 -113q0 -8 -1 -15q27 26 27 33zM203 478q-4 -8 -31 -32q-95 -84 -100 -194l-4 -93q5 63 10 94q9 56 27 92q11 22 46 58
l52 54v21zM284 170q0 39 -16 72q-18 39 -51 51v-114q0 -22 30 -82q27 29 33 41q4 8 4 32zM502 -48l-26 82q-21 65 -34 81q-23 27 -80 27q-49 0 -70 -14q-36 -24 -36 -48q0 -41 92 -85q77 -37 130 -43h24zM514 -105l-3 8l-19 -7v-8zM479 -107v10h-37v-10h37zM586 -78
q-18 -4 -26 -30q-2 -7 -9 -38q-6 -13 -58 -18q-33 -1 -66 -3q-20 -3 -65 -8h20q30 0 90.5 2t90.5 2q-3 21 3.5 50.5t19.5 42.5zM201 137v15h-9v-15h9zM78 115v43h-10v-43h10zM350 -174v10h-21v-10h21zM547 477q-39 -49 -46 -56q-11 -11 -22 -11q-2 0 -10 1h-14q-35 0 -49 4
q-31 9 -66 41q42 28 126 28q14 0 40.5 -3.5t40.5 -3.5zM283 612l-8 -55q-6 22 -25 66q11 0 33 -11zM239 630l-3 -8l-35 13v8zM547 256q-84 -1 -84 60q0 38 32 67q3 -63 52 -127zM258 552h-10v21h10v-21zM249 580q-15 9 -41 22q-5 -5 -15 -14t-15 -14q11 20 11 38h55
q0 -21 5 -32zM482 399q-5 -16 -19.5 -30t-30.5 -14q-54 0 -80 67q44 -26 130 -23zM514 499q-28 8 -65 8q-91 0 -152 -44q-51 -38 -102 -124q72 173 246 173q19 0 73 -13zM179 618l-7 -22l-8 3l7 19h8zM233 541q-14 0 -21 -6q0 10 -12 36l14 14q6 -4 19 -13v-31zM457 272
q-10 0 -22 12l9 37q0 -9 13 -49zM440 343q-13 -27 -33 -27q-14 0 -33 38q35 -11 66 -11zM245 484l-16 -7v8l13 7zM409 302l-7 -15l-8 4l7 14zM536 242q-40 -32 -51 -43q-33 -32 -36 -51l-7 12q-7 12 -7 19q0 23 22 46.5t45 23.5q6 0 17 -3.5t17 -3.5zM124 565h-25l8 14
q5 -7 17 -14zM469 252q-22 -11 -43 -43q-3 14 -1 45q7 0 22 -1t22 -1zM417 255h-20q0 8 13 22q7 -8 7 -22zM328 425q0 -28 -34 -63.5t-62 -39.5q-5 31 30 76.5t66 51.5v-25zM385 287l-16 -7v9l13 6zM373 319q0 -11 -8.5 -21t-19.5 -10q-5 0 -14.5 3.5t-13.5 3.5q18 12 49 43
l4 -6q3 -7 3 -13zM357 369q0 -20 -24 -45t-44 -25q-8 0 -22.5 4t-22.5 4q30 11 60.5 43.5t31.5 60.5q21 -35 21 -42zM149 498l-14 -14q-31 13 -31 31q0 6 6 10l6 3q18 0 33 -30zM127 543q-6 2 -11 2q-26 0 -26 -36q0 -8 2 -16q-16 8 -16 19t10.5 25t20.5 14q6 0 13 -4z
M412 205q-21 8 -55 6q9 10 30 26q11 -5 25 -32zM121 476q-10 -8 -15 -8q1 13 -5 13q3 0 10 -2.5t10 -2.5zM362 249q0 -4 -20 -34q-6 22 -30 66q16 0 31 -8q19 -10 19 -24zM98 449q-25 0 -55 20q12 47 18 88q9 -8 9 -17q0 -6 -10 -25v-6q0 -8 15 -28q21 -28 23 -32zM435 143
q-32 10 -67 10q-43 0 -56 -4q26 49 53 49q12 0 36.5 -15t27.5 -26q0 -4 6 -14zM323 198q0 -7 -27 -33q1 7 1 15q0 68 -47 113h19q24 0 40 -37q14 -31 14 -58zM203 478v-21q-10 -11 -52 -54q-35 -36 -46 -58q-26 -52 -37 -186l4 95q5 107 100 192q17 15 31 32zM284 170
q0 -24 -4 -32q-6 -12 -33 -41q-30 60 -30 82v114q33 -12 51 -51q16 -33 16 -72zM502 -48h-24l-72 20q-33 9 -69 29q-81 45 -81 79q0 24 36 48q21 14 70 14q57 0 80 -27q13 -16 34 -81zM514 -105l-22 -7v8l19 7zM479 -107h-37v10h37v-10zM586 -78q-13 -13 -19.5 -42.5
t-3.5 -50.5q-30 0 -90.5 -2t-90.5 -2h-20q19 1 64 8q41 6 65 6q32 0 35 1q19 2 25 14q6 29 11 40q9 25 24 28zM201 137h-9v15h9v-15zM78 115h-10v43h10v-43zM350 -174h-21v10h21v-10zM547 477q-14 0 -40.5 3.5t-40.5 3.5q-84 0 -126 -28q35 -32 66 -41q14 -4 49 -4h14
q8 -1 10 -1q11 0 22 11q7 7 46 56zM283 612q-22 11 -33 11q10 -18 25 -66zM239 630l-38 13v-8l35 -13zM547 256q-49 64 -52 127q-32 -29 -32 -67q0 -61 84 -60zM258 552v21h-10v-21h10zM249 580q-5 11 -5 32h-55q0 -18 -11 -38q5 5 15 14t15 14q26 -13 41 -22zM482 399
q-86 -3 -130 23q26 -67 80 -67q16 0 30.5 14t19.5 30zM179 618h-8l-7 -19l8 -3zM233 541v31q-7 4 -19 13l-14 -14q12 -26 12 -36q7 6 21 6zM457 272q-13 40 -13 49l-9 -37q12 -12 22 -12zM440 343q-31 0 -66 11q19 -38 33 -38q20 0 33 27zM245 484l-3 8l-13 -7v-8zM409 302
l-8 3l-7 -14l8 -4zM536 242q-6 0 -17 3.5t-17 3.5q-23 0 -45 -23.5t-22 -46.5q0 -7 14 -31q5 28 87 94zM124 565q-3 0 -17 14l-8 -14h25zM469 252q-7 0 -22 1t-22 1q-3 -10 -1 -25t2 -20q21 32 43 43zM417 255q0 14 -7 22q-13 -14 -13 -22h20zM328 425v25q-31 -6 -66 -51.5
t-30 -76.5q28 4 62 39.5t34 63.5zM385 287l-3 8l-13 -6v-9zM373 319q0 6 -3 13l-4 6q-31 -31 -49 -43q4 0 13.5 -3.5t14.5 -3.5q11 0 19.5 10t8.5 21zM357 369q0 7 -21 42q-1 -28 -31.5 -60.5t-60.5 -43.5q8 0 22.5 -4t22.5 -4q20 0 44 25t24 45zM149 498q-15 30 -33 30
l-6 -3q-6 -4 -6 -10q0 -18 31 -31zM412 205q-7 13 -25 32q-2 -1 -30 -26q34 2 55 -6zM121 476q-3 0 -10 2.5t-10 2.5q6 0 5 -13q5 0 15 8zM362 249q0 14 -19 24q-15 8 -31 8q15 -21 30 -66q20 30 20 34zM98 449q-2 4 -23 32q-15 20 -15 28v6q10 19 10 25q0 9 -9 17
q-6 -41 -18 -88q30 -20 55 -20zM435 143q-6 6 -6 14q-3 11 -27.5 26t-36.5 15q-27 0 -53 -49q13 4 56 4q35 0 67 -10zM323 198q0 27 -14 58q-16 37 -40 37h-19q47 -45 47 -113q0 -8 -1 -15q27 26 27 33zM203 478q-4 -8 -31 -32q-95 -84 -100 -194l-4 -93q5 63 10 94
q9 56 27 92q11 22 46 58l52 54v21zM284 170q0 39 -16 72q-18 39 -51 51v-114q0 -22 30 -82q27 29 33 41q4 8 4 32zM502 -48l-26 82q-21 65 -34 81q-23 27 -80 27q-49 0 -70 -14q-36 -24 -36 -48q0 -41 92 -85q77 -37 130 -43h24zM514 -105l-3 8l-19 -7v-8zM479 -107v10h-37
v-10h37zM586 -78q-18 -4 -26 -30q-2 -7 -9 -38q-6 -13 -58 -18q-33 -1 -66 -3q-20 -3 -65 -8h20q30 0 90.5 2t90.5 2q-3 21 3.5 50.5t19.5 42.5zM201 137v15h-9v-15h9zM78 115v43h-10v-43h10zM350 -174v10h-21v-10h21z" />
    <glyph glyph-name="D" unicode="D" horiz-adv-x="739" 
d="M731 185q0 -300 -305 -365q-94 -20 -128 -20h-265q-1 1 -34 35v679l34 34h220q4 -4 4 9q0 5 -11 22t-11 22q0 12 34 43t46 31q3 0 11.5 -8t13.5 -8q6 0 16 5l10 5q6 -6 13 -23q11 -27 14 -32q8 6 37 50l11 -8q11 -8 17 -8q4 0 10 5.5t10 5.5q10 0 38 -33.5t28 -44.5
q0 -3 -34 -53q0 -4 10 -12q211 -91 211 -331zM527 579q-7 9 -20 24q-12 -25 -22 -76q23 23 42 52zM440 638l-5 5l-14 -13l6 -6zM488 602q-13 7 -35 29q-15 -15 -36 -25q6 0 16.5 1.5t16.5 1.5q11 0 19 -19q6 -15 6 -28q0 6 6.5 20.5t6.5 19.5zM455 561v24q-6 7 -20 7
q-12 -25 -12 -33q0 -6 13 -16zM371 626q0 4 -2 13t-2 13q-5 0 -16 -7zM416 581q-3 0 -10.5 -3.5t-10.5 -3.5q5 -5 8 -14q13 13 13 21zM700 258v14h-10v-14h10zM416 541v9l-59 6v-10zM367 610l-14 18q-7 9 -16 9q-38 0 -38 -45q0 -26 11 -43q1 3 -2.5 16.5t-3.5 16.5
q0 21 28 44q12 -5 35 -16zM356 568q-4 5 -8 22q-3 13 -16 19q-14 0 -14 -22q0 -7 7 -18l13 -20zM323 658q-3 -2 -71 -51q10 -29 31 -56q0 24 3 70q32 25 37 37zM590 267h-10l-6 -31h10zM525 238q-17 113 -52 145v-35q0 -18 52 -110zM467 397q-24 32 -74 58.5t-89 26.5h-18
q22 -99 131 -99q30 0 50 14zM306 497v9h-15v-9h15zM268 502v10h-21v-10h21zM510 231q-19 23 -34 59q-18 41 -17 66q-31 -36 -31 -63q0 -35 25 -49q18 -10 57 -13zM447 371q-91 -3 -127 23q-6 -30 27 -50q26 -16 48 -16q18 0 31 13q5 5 21 30zM428 247q-19 28 -19 48l-8 -36
q11 -12 27 -12zM406 316q-32 0 -65 11q20 -37 32 -37q20 0 33 26zM375 276l-8 3l-7 -14l8 -3zM505 216q-6 0 -18.5 4t-19.5 4q-22 0 -41.5 -21t-19.5 -43q0 -6 4 -18t4 -17q3 21 37 53q31 30 54 38zM290 408q0 26 -11 52q-14 33 -36 33h-60v-208q46 13 76.5 45.5t30.5 77.5z
M433 227l-7 4q-7 4 -14 4q-24 0 -20 -50q20 32 41 42zM383 230q0 3 -3 10.5t-3 10.5q-14 -14 -14 -21h20zM340 293q0 5 -3 12l-4 7q-8 -12 -42 -49h25q24 10 24 30zM113 491v10h-25v-10h25zM318 337q0 18 -14 46q-1 -28 -32 -61t-59 -41q6 0 19.5 -4t19.5 -4q24 0 45 20
t21 44zM527 116v91q-99 -36 -99 -104q0 -26 47 -127q8 17 27 65q25 62 25 75zM378 181q-6 13 -18 32q-22 -11 -31 -26q8 0 24.5 -3t24.5 -3zM329 224q0 10 -18 26h-26q24 -48 24 -65l13 20q7 11 7 19zM67 412v58h-10v-58h10zM399 120q-4 20 -24.5 37t-40.5 17q-12 0 -54 -48
h24q23 3 60 2q12 0 35 -8zM290 182q0 23 -10 40q-4 7 -30 39h-25q39 -40 45 -125q20 30 20 46zM709 182q0 11 -4 32t-4 32q3 -23 3 -49q0 -86 -32 -160q-35 -82 -100 -126q-60 -41 -168 -66q-98 -23 -182 -23q-22 0 -65 4t-65 4q25 0 80 -7l55 -7q212 0 333 75
q149 92 149 291zM161 477q-14 -181 -14 -218q0 -224 10 -233q0 53 -4 69zM257 138q0 78 -75 129v-241q8 10 44 53q31 37 31 59zM461 -45q-20 82 -46 130q-5 9 -35 21.5t-43 12.5t-42 -6.5t-36 -12.5q-63 -71 -72 -89q-7 -14 -7 -57q0 11 3 -42q2 -34 -2 -51h34q50 0 145 34
q45 16 101 60zM65 -129v175q0 -6 -2 -17t-2 -17q0 -101 4 -141zM160 -133v147h-9v-147h9zM80 -174v9l-25 -6v-9z" />
    <glyph glyph-name="E" unicode="E" horiz-adv-x="588" 
d="M576 321q-23 -12 -59 -41q-12 -15 -12 -72q0 -66 17 -88q21 -13 48 -36q-27 18 -43 21h-33q-24 0 -70 -20q-50 -22 -50 -42v-87q4 -2 27 -2q27 0 81 3l45 -157h-494q-10 4 -35 28v684q20 28 42 32q37 1 73 1l-33 48q59 79 79 79q9 0 22 -16q8 5 22 16q11 -16 38 -54
q7 18 26 54l11 -5q10 -6 17 -6q11 0 22 17l74 -74q-24 -36 -28 -59q18 -4 51 -4q32 0 80 4l-34 -80h-76q-4 -11 -4 -44q0 -36 1 -40q6 -26 52 -56q43 -29 72 -29q5 0 33 11q33 13 38 14zM369 598q0 9 -8 16q-6 4 -12 9q-11 -55 -11 -82q31 46 31 57zM331 604q0 11 -12.5 23
t-23.5 12q-14 0 -28 -32q10 11 26 11q9 0 18 -11.5t9 -21.5q0 -3 -22 -43h21q0 11 6 31t6 31zM309 582q-4 7 -13 19h-19q1 -24 -6 -37q20 -1 38 18zM264 590q-25 -13 -25 -21h19q6 5 6 21zM466 519q-13 -8 -30 -27h-240q-18 -18 -18 -30q0 -13 9 -13q-3 20 7 29.5t30 8.5
l208 -6q19 -1 34 38zM265 549l-53 8v-15zM167 648l-12 4q-10 -4 -22 -28q14 9 34 24zM208 615q-5 2 -27 24q-12 -8 -35 -22q0 -13 3 -37.5t3 -37.5h20q-20 40 -21 43q0 11 8.5 24.5t18.5 13.5q14 0 30 -8zM205 564q-6 12 -6 36q-4 0 -13 3t-13 3l-3 -6q-3 -6 -3 -12
q0 -8 19 -36q12 12 19 12zM492 282q-25 10 -72 35q-12 -25 -12 -42q35 -17 43 -17q7 0 41 24zM407 319q-7 14 -26 31v-31h26zM138 542q-7 41 -7 52q0 19 7 28l-42 -29q24 -35 42 -51zM362 319v23q-1 -2 -20 -23h20zM369 385v79h-157v-146h106q51 50 51 67zM499 132v136
q-21 -4 -40 -27.5t-19 -45.5q0 -30 59 -63zM434 243q-9 9 -31 20l-6 -26q13 0 25 3zM395 290q-13 -20 -42 -56v-19l4 5q3 5 9 5t16 -3q6 -2 9 1q-17 8 -15 31q7 8 19 36zM139 485v9l-53 -5v-10zM191 324v118h-10v-118h10zM308 250v9h-15v-9h15zM429 156q-12 11 -12 14h-24
q-17 -8 -17 -38q35 24 53 24zM489 118q-38 25 -52 25q-62 0 -61 -76q47 48 113 51zM286 255v10h-31v-10h31zM331 198q0 11 -10.5 21t-21.5 10v-64q32 19 32 33zM363 132v26q-12 12 -21 12q-6 0 -16.5 -6.5t-11.5 -6.5q19 -9 49 -25zM287 206q0 5 -3 14.5t-3 13.5h-37
q13 -12 13 -36q0 -15 -10 -65q9 5 17 7q23 36 23 66zM362 67v30q-7 14 -27 30t-34 16q-17 0 -46 -31q75 -7 107 -45zM244 200q0 29 -26 41l-5 -125q31 41 31 84zM363 -46v78q0 29 -56 53q-46 20 -69 20q-17 0 -25 -13v-138h150zM233 265l-22 3q-10 0 -21.5 -12.5
t-11.5 -22.5l8 -281v149q0 72 10 148q1 9 14 13.5t23 2.5zM505 -177q-10 10 -13 10q-2 0 -2 -2q-41 4 -75 1l-35 -3q85 0 125 -6zM64 391q-5 29 -15 79q9 -69 9 -134v-304q0 -84 -8 -156zM429 -103l-169 -2zM369 -165l-327 -8h193q118 0 118 8h16z" />
    <glyph glyph-name="F" unicode="F" horiz-adv-x="523" 
d="M516 401q-30 -9 -54 -19q-20 -8 -37 -55q-15 -40 -15 -68q0 -18 4 -24l34 -40q-61 -61 -75 -61q-23 0 -69.5 -2t-69.5 -2q0 -45 9 -166l8 -108v-55q-22 2 -66 2q9 0 -75 -2l-42 -1q-40 -1 -40 74q0 5 3 46l2 27v434q0 14 -3 42t-3 42q-21 12 -57 49l54 93l10 -5
q9 -6 15 -6q9 0 15 9q5 6 9 13q11 -14 37 -43q6 6 11 22.5t3 23.5q3 2 34 2q7 0 11 6l10 15q31 -25 83 -71q-6 -15 -17 -47h266q-7 -14 -33 -78q-28 1 -84 -4q14 -14 27 -29q22 -20 40 -20q-5 0 55 6zM483 495q-18 -12 -46 -30h31zM209 607l-30 18l-3 -8l30 -17zM432 392
q-15 11 -60 55h-30v-17q-1 -10 21.5 -30.5t33.5 -20.5q9 0 35 13zM246 570q0 7 -9 13.5t-16 6.5v-68q25 36 25 48zM426 472q-4 0 -188 -5q-6 0 -16 -14t-11 -21q-1 25 6 34q6 2 67 1q52 -1 52 5h90zM208 554v30q-33 18 -39 18q-15 0 -29 -32q12 6 34 16zM373 375l-46 46
q0 -2 -3.5 -10.5t-3.5 -13.5q0 -10 9.5 -19.5t19.5 -9.5q5 0 13.5 3.5t10.5 3.5zM142 592v19h-9v-19h9zM206 548h-9l-7 -25h9zM187 549q0 6 -5 13l-6 7q-3 0 -10 -2.5t-10 -2.5v-36q12 0 18 -6q13 13 13 27zM320 446h-79v-19h55q8 0 15 7q4 6 9 12zM431 373h-19
q-19 -13 -37 -26q-18 -17 -18 -40q0 -27 12 -34q17 -10 23 -27q2 60 39 127zM314 420q-23 -6 -63 -6q25 -25 32 -25q12 0 31 31zM357 357q-26 -13 -26 -29q0 -10 8 -18q6 18 18 47zM86 582q-5 5 -6 14q-5 0 -15 -7q7 -7 21 -7zM284 356l-8 8l-5 -5l8 -8zM176 462v9h-14v-9
h14zM262 365q-8 23 -25 40v-58q10 5 25 18zM330 294q0 9 -11 21h-24q-11 -11 -11 -26q17 5 46 5zM84 529q-3 1 -3 19h-20l-6 -19h29zM84 562l-7 7q-8 6 -14 6q-10 0 -22.5 -12t-12.5 -22q0 -7 8 -24q4 24 5 27q4 12 17 20q5 -2 26 -2zM120 486l-6 5l-18 -18l5 -5zM373 247
q-34 36 -58 36q-6 0 -25 -14.5t-23 -21.5h106zM272 324q-15 8 -25 8q-7 0 -12 -3q11 -13 30 -41q0 5 3.5 17.5t3.5 18.5zM32 591q-18 -28 -46 -78q15 -11 41 -28v19q-5 15 -13 47q18 32 18 40zM230 297q-5 0 -15 7q0 -3 -5.5 -13t-5.5 -12q7 0 26 18zM216 272h-9l-6 -30h9z
M426 191q-5 0 -14 7q-20 -33 -101 -37q-88 -5 -106 -23q0 -48 7 -138q9 -116 10 -142q-12 201 -12 268q0 13 18 22q18 1 68 7l48 6q5 0 16 -2.5t16 -2.5t50 35zM92 -91l-7 539v-443q0 -32 -7 -136q14 28 14 40zM240 -183q-12 24 -12 36q-11 -21 -22 -21q-12 0 -37 2.5
t-37 2.5q-34 0 -56 -14q13 4 74 4q65 0 90 -10z" />
    <glyph glyph-name="G" unicode="G" horiz-adv-x="779" 
d="M759 212l-28 -16q-17 -12 -22 -24l-175 -372h-177q-24 0 -96 21q-261 76 -261 382q0 199 123 306q116 102 318 102q86 0 123 -8q18 -30 53 -90q-16 0 -48 2t-48 2q-18 0 -22 -1q-70 -115 -70 -128q0 -18 13 -50.5t25 -43.5q2 5 2 12q0 16 -10 45q37 15 109 49
q17 -30 26 -30l28 6q6 -18 6 -34q0 -14 -4 -27l9 -9q27 29 46 41q4 -2 14 -13t19 -11q4 0 12 3t10 3q11 -33 25 -117zM684 325l-6 6l-15 -15l6 -6zM718 261q0 18 -26 44q-15 -5 -39 -18q7 1 12 1q33 0 33 -39q0 -12 -2 -20q7 8 14.5 16.5t7.5 15.5zM614 330v28h-10v-28h10z
M747 219q-8 15 -8 33q-20 -19 -50 -63q9 5 34 18zM682 243q0 4 -3 13t-3 13h-22l-6 -9q-7 -10 -7 -16q0 -9 5 -13l10 -8q4 4 13 10t13 10zM593 318q-3 14 -12 34h-19q-24 4 -34 -28l-8 -48q8 15 11 37q17 20 36 28zM582 303l-20 20q-13 -12 -20 -12q0 -4 3 -14t3 -14h22
q0 7 12 20zM570 365q0 6 -7 17q-62 -25 -86 -37q15 -57 13 -75q7 10 13.5 39t16.5 39q16 17 50 17zM476 517h-43q-48 0 -104 -38q-60 -39 -70 -84q42 -19 71 -19q54 0 84 33q21 23 62 108zM570 215v10h-28v-10h28zM529 544q-11 0 -32 4.5t-32 4.5q-80 0 -150 -42
q-79 -46 -93 -119q-5 -6 -14 -18q0 -14 -6.5 -42t-6.5 -42v-26q3 5 11 52l3 19q7 41 23 44q16 85 96 129q68 38 161 38q21 0 40 -2zM465 273q0 6 -22 45q-25 44 -28 52q-21 -34 -21 -50q0 -39 43 -73h21q-2 10 -2 16q0 7 7 8q2 1 2 2zM549 165v16h-10v-16h10zM399 375
q-75 -16 -69 -16q-12 0 -77 16q44 -58 79 -58q42 0 67 58zM412 248q-22 34 -32 63q-15 -29 -15 -38q0 -15 20 -25h27zM358 304q-44 0 -63 6q17 -34 35 -34q15 0 28 28zM471 214q0 7 -3 14l-4 6h-20q-22 -6 -42 -27t-20 -43q0 -23 33 -52q1 2 35 59q21 35 21 43zM356 249
l-9 5l-6 -10l10 -4zM400 228h-22q-19 -18 -19 -31q0 -14 9 -15q12 25 32 46zM488 120q0 25 -14 68q-45 -74 -45 -100q0 -15 21 -35q38 43 38 67zM686 152h-6q-3 3 -6 3t-7 -3q-54 -114 -167 -327q4 0 14 -3.5t14 -3.5q64 192 158 334zM265 314q0 8 -21 50q-13 -74 -13 -105
q34 33 34 55zM337 210l-9 9l-6 -6l8 -9zM294 253q1 31 -22 52q4 -19 -12 -45l-18 -24q20 6 52 17zM552 73v74q3 -11 3 -22q0 -59 -65 -118q-57 -52 -105 -52q-7 0 -14 1h6q15 -3 62 4q12 2 60 42q53 45 53 71zM358 165q-14 29 -28 29q-12 0 -29 -28q13 4 27 4q15 0 30 -5z
M264 528q-205 -100 -205 -288q0 -15 1.5 -43.5t1.5 -43.5q-2 18 -2 37q0 109 54 198t150 140zM300 196q0 15 -13 26h-34q21 -22 33 -46q0 6 14 20zM399 98q-2 16 -29 38.5t-43 22.5q-15 0 -37 -19t-24 -34q22 11 46 11q21 0 87 -19zM265 156q0 15 -11 37t-24 23
q12 -58 26 -93q9 22 9 33zM435 37q-2 2 -12 20q-5 9 -29 24q-31 19 -39 18h-78q6 -33 36 -57.5t64 -24.5q5 0 58 20zM494 -167q-68 -8 -106 -7h15q59 0 91 7zM376 -173v10h-16v-10h16zM73 118v16h-10v-16h10z" />
    <glyph glyph-name="H" unicode="H" horiz-adv-x="819" 
d="M797 -184q-32 -32 -47 -31l-87 6q-101 7 -129 7q0 4 1 30q1 29 0 36q-3 19 -12 27q-54 6 -101 -16q-54 -25 -63 -75q15 53 15 65q0 20 -30 74q-35 64 -68 64h-33q-4 -8 -4 -100q0 -90 5 -105h-25q-24 0 -72 3q-67 4 -94 9q-7 2 -19 13q-13 15 -17 17q-3 50 4 78l-12 626
q0 18 13 35.5t31 21.5q44 10 203 25v-39q0 -23 -14.5 -67t-14.5 -67q0 -39 10 -97q23 29 34 29q4 0 11.5 -5.5t11.5 -5.5q12 0 24 11q2 -1 36 -53q5 3 20 28t20 25t12.5 -5.5t11.5 -5.5q7 0 24 17q73 -90 73 -94q0 -3 -11 -26t-13 -28h40v347h85h10q32 -1 38 -1h30
q10 0 22 -10.5t14 -19.5q9 -46 -2 -142q-5 -43 -5 -100q0 -107 25 -258q14 -83 49 -243zM649 524v10h-27v-10h27zM714 537q-17 0 -15 -15v-384q0 8 2 219q1 116 13 180zM603 222q0 232 -10 272v-246q-2 -19 -22 -43q14 0 32 17zM497 297q0 8 -21 29q-12 -46 -15 -82
q36 43 36 53zM405 364l-8 5l-14 -21l8 -5zM735 -14v40h-11v-40h11zM456 312q0 11 -12 24.5t-23 13.5q-9 0 -35 -28q5 0 14.5 2t14.5 2q11 0 20 -11.5t9 -23.5q0 -3 -23 -46h23q0 11 6 33.5t6 33.5zM433 288q0 7 -6 17l-7 9q-3 0 -11 -3t-11 -3v-38l15 -14q1 3 10.5 13.5
t9.5 18.5zM238 584q-14 -2 -31 -50q-15 -42 -15 -63q0 -15 4 -46t4 -46q-5 132 38 205zM741 -49v16h-11v-16h11zM168 553q-14 0 -42.5 -3t-42.5 -3h17q49 0 68 6zM331 338q0 5 -2.5 14.5t-2.5 14.5q-5 0 -17 -8zM385 296q-3 0 -14.5 -6.5t-14.5 -6.5q11 -5 21 -8q8 6 8 21z
M531 56l-6 94q-22 -9 -22 -32q0 -21 28 -62zM326 322q-11 9 -31 28q-37 -17 -37 -50q0 -5 1 -9q21 41 33 41q13 0 34 -10zM386 253l-58 8v-16zM780 -170l-17 14v-18q-17 0 -24 -8q5 -6 14 -9q27 13 27 21zM321 269q-4 17 -13 45h-21l-3 -6q-4 -8 -4 -14q0 -8 8 -20l12 -18
q13 13 21 13zM491 142q-93 0 -93 -14q14 -7 41 -7q29 0 52 21zM521 40q-18 18 -34 45v-33q13 -14 34 -12zM291 246q-12 12 -28 39v-33q5 -6 28 -6zM82 410l-6 110h-10l6 -110h10zM732 -188v11h-22v-11h22zM479 114q-23 -12 -49 -12q-10 0 -20 2q24 -30 34 -30q30 0 35 40z
M253 245l-7 69h-10l6 -69h11zM532 26h-27q-19 -18 -19 -26t13 -32q14 20 33 58zM530 -73v76q-15 -31 -15 -38q0 -8 15 -38zM599 -131v21h-10v-21h10zM539 176l-59 3q-23 1 -54 -2q-48 -5 -54 -5q-67 0 -89 -2q-60 -6 -78 -28q1 -52 1 -148q0 104 3 135q2 21 21 25
q118 13 309 22zM691 -182v11h-116v-11h116zM415 59q0 5 -4 15t-4 11q-18 -35 -39 -57h20q11 -1 19 9.5t8 21.5zM485 -43q-14 28 -26 34q-24 -24 -31 -40q25 8 42 8q9 0 15 -2zM386 94q0 23 -28 44q-9 -69 -66 -116h25q22 0 45.5 25t23.5 47zM421 -18q0 12 -17 29l-2 2h-40
q30 -13 50 -63q9 21 9 32zM520 -96q0 18 -12 26q-30 14 -49 14q-26 0 -39 -18q-1 -1 -22 -46q67 30 122 24zM338 117v18q-33 -3 -58 -3q-24 0 -40 3v-120q24 3 61 41t37 61zM397 -96v32q0 14 -21.5 43t-34.5 29h-44q62 -28 85 -117q12 13 15 13zM83 -120v522h-10v-522h10z
M226 -182q-7 32 -12 84l-8 77q3 -66 3 -104q0 -39 -3 -49q-2 2 -2 3q0 2 2 4l1 3q-1 2 -7 2q-13 0 -14 -9q14 -3 40 -11zM173 -170v10h-39v-10h39zM96 -170v11h-27v-11h27z" />
    <glyph glyph-name="I" unicode="I" horiz-adv-x="413" 
d="M389 387q-21 -11 -58 -33q20 -11 58 -33v-55q-81 -65 -89 -65q-5 0 -22 10q-21 14 -22 14v-395q-26 -32 -57 -31l-33 1q-16 1 -63 2t-81 -2l25 370l-43 382q0 23 2 27q7 12 52 48q58 -39 198 -47q-3 -55 4 -91q29 29 46 29q10 0 38 -30q14 -15 45 -47v-54zM372 440
q-60 60 -69 60q-20 0 -46 -39q23 5 54 5q25 0 31 -6l22 -34q0 5 8 14zM349 417q0 13 -25 36h-27q20 -21 40 -31q-2 -11 -8 -34q1 3 10.5 12.5t9.5 16.5zM291 447h-33v-21q24 12 33 21zM320 418q-13 13 -27 13q-16 -16 -36 -26q5 0 19 -14q25 5 28 6q15 6 16 21zM323 360
q-17 -17 -26 -23q5 -6 15 -9q3 13 11 32zM368 279l-8 3l-19 -31l8 -4zM265 329v55h-10v-55h10zM354 297l-33 30q13 -24 9 -35q-19 -22 -39 -31q6 0 17 -4t16 -4q18 18 30 44zM314 295q0 14 -7 21q-22 0 -50 -14l14 -10q14 -10 23 -10q10 0 20 13zM75 495v16h-10v-16h10z
M81 444v27h-10v-27h10zM331 240q-7 0 -79 18q4 -9 22 -24l26 -21q5 5 15.5 13.5t15.5 13.5zM86 386v33h-10v-33h10zM92 352v32h-10v-32h10zM98 306v27h-10v-27h10zM104 248v39h-10v-39h10zM230 -56v320h-10v-320h10zM106 95v141l-26 -362l10 7zM240 -155q0 16 -4.5 49
t-4.5 49q0 -33 -5 -94q-15 -18 -50 -18h-57q-38 0 -63 -13q41 14 73 14q14 0 42.5 -5t42.5 -5q26 0 26 23z" />
    <glyph glyph-name="J" unicode="J" horiz-adv-x="586" 
d="M566 607q0 13 -2 14q-4 0 -20 -76q-23 -110 -23 -136q0 -8 20 -134q14 -89 14 -176q0 -128 -82.5 -213.5t-210.5 -85.5q-75 0 -153 33q-21 5 -32 9q-22 8 -26 17q-11 24 -30 118q2 0 9 -2.5t11 -2.5q33 0 52 45q14 33 14 62q0 41 -33 75q-8 8 -65 53q33 -11 60 -33
q9 10 37 56q22 36 30 36q3 0 9.5 -3t10.5 -3q7 0 11 7q7 12 11 16q12 -12 40 -41q7 19 5 51q3 0 13 -10l4 10q2 7 11 7q3 0 8.5 -3t8.5 -3q5 0 14 8.5t12 8.5q16 0 56 -40q4 11 4 58l-23 261q0 11 13 25.5t24 15.5q22 2 84 0q64 -2 114 2v-26zM485 568v10l-55 -6v-10z
M548 598q-24 -15 -44 -85q-18 -63 -18 -98q0 -9 4.5 -26t4.5 -26q-5 129 53 235zM402 531v15h-10v-15h10zM505 312v22h-10v-22h10zM423 159l-20 371q0 -27 4 -96l4 -69v-205q0 -18 -13 -73q7 35 25 72zM326 277l-33 19l-3 -8l32 -19zM264 282h-9l-7 -20l9 -3zM353 169l-8 91
q1 -5 1 -43q0 -27 -12 -38q-13 8 -11 35q2 33 -1 39q-41 18 -47 18q-5 -13 -18 -39q12 8 31 22q11 -8 30 -27q-2 -19 3 -53q5 0 16 -2.5t16 -2.5zM308 218q-19 18 -28 18q-3 -10 -2 -24q2 -27 2 -20h21q0 4 3.5 13t3.5 13zM342 153q-12 5 -31 15l-12 -12l-12 12
q0 -12 -11 -12q-9 0 -9 2l1 1q5 0 5 19q-4 0 -14 -3t-14 -3q6 -10 25 -24.5t29 -14.5t43 20zM200 241l-20 20l-6 -6l20 -20zM532 84q0 24 -4.5 72t-4.5 72q0 -2 -1 -84l-1 -82q-1 -88 -84.5 -160.5t-172.5 -69.5q-10 -6 -25 -6l37 -3q11 -1 18 2q19 5 35 5q8 2 23 6
q43 6 99.5 62t66.5 100q14 59 14 86zM285 119q-23 12 -51 37v-32q10 -12 25 -12q8 0 26 7zM347 139q-28 -14 -73 -38q12 0 12 -4q0 -3 -5.5 -9t-5.5 -7q-5 6 -5 12q0 -3 -4 -10.5t-4 -10.5q7 -7 15 -19q0 13 5 17q22 -28 25 -31q15 -15 34 -20q0 85 6 120zM193 207h-22
l-6 -21q9 0 28 21zM197 225q-23 12 -30 12q-10 0 -20.5 -15t-10.5 -25q0 -7 8 -18q-2 19 10 34t31 15q7 0 12 -3zM197 185q-7 0 -21 -14l21 -20q0 1 2 19q1 11 -2 15zM410 9v32l-32 -78q-23 -56 -61 -81q42 23 54 38q6 8 28 54q12 26 11 35zM143 248q-32 -35 -53 -79h40
q-9 10 -9 22q0 16 22 57zM181 141l-27 27v-21q7 -9 16 -9q5 0 11 3zM221 138q-20 -8 -57 -19q6 0 20 -14q24 5 37 33zM279 40q-6 0 -19 3.5t-20 3.5q-6 -13 -6 -24q0 -5 1 -10q19 10 44 27zM140 134q0 4 -3.5 12.5t-3.5 12.5q0 -5 -26 -5q24 -12 33 -20zM331 0
q-32 24 -40 24q-19 0 -41 -15.5t-22 -33.5v-19q26 13 51 26q35 17 52 18zM187 76q0 12 -27 28v-62q27 26 27 34zM325 -17h-20q-71 -28 -77 -67q58 -4 97 67zM215 13v27l-26 7q-7 -5 -19 -15q6 0 45 -19zM147 82q0 36 -33 45q1 -11 1 -29q0 -32 -4 -85q9 6 22 14
q1 8 7.5 26.5t6.5 28.5zM215 -50v32l-23 25q-16 17 -33 17q-9 0 -25 -11q-21 -14 -21 -15q37 -11 55 -19q36 -15 47 -29zM215 -90q-5 32 -43 54q-33 20 -68 20q-9 0 -49 -20q108 -54 136 -54h24zM227 -173v9h-22v-9h22z" />
    <glyph glyph-name="K" unicode="K" horiz-adv-x="719" 
d="M700 -74l-136 -113q-20 21 -53 79q-31 55 -53.5 76.5t-71.5 21.5q-103 0 -103 -75q0 -4 -5 -12l-6 -7q-2 10 2 30.5t4 27.5q0 14 -13.5 32t-27.5 27q0 -47 12 -177q-21 -1 -117 -18l-90 -16q-15 0 -28.5 14.5t-13.5 29.5q0 6 10 65l16 94q18 106 18 228v198q0 105 27 132
t132 27h35q-8 -64 -17 -141v-126l90 70q-10 12 -55 21q3 38 12 115q5 -1 9 -1q23 0 30 29h17q5 0 44 -23q0 13 -12 60q15 6 20 9q16 10 19 26h24q-2 0 80 -25q5 -15 16 -47q29 21 65 56q36 -26 109 -75l-267 -212q50 -96 128 -200zM579 536l-6 6l-19 -19l6 -6zM494 595
q-6 0 -17 2.5t-16 2.5q11 -25 31 -65q0 10 1 30t1 30zM551 507l-5 8l-25 -19l5 -8zM449 599v10h-43v-10h43zM460 558q-11 22 -11 31h-48q0 -7 -2 -21.5t-2 -21.5q13 28 25 28q7 0 38 -16zM517 479l-3 8l-13 -7v-8zM449 513v31q-11 13 -25 13l-13 -14q17 -17 17 -30h21z
M385 563v21h-9v-21h9zM661 527q-39 -4 -104 -55q-17 -14 -100 -81q-25 -14 -61 -43q-5 -7 -5 -30q4 15 19 26q143 106 251 183zM377 447q-3 7 -31 49q0 -6 -18 -6v-26q19 -6 49 -17zM350 510l-25 3q-11 0 -20 -16q-5 -13 -11 -26l21 -19q2 31 -4 41q17 17 39 17zM361 432
q-13 8 -44 18q23 -26 30 -26q13 0 14 8zM333 408q-3 4 -31 35q-18 20 -18 28v6q7 27 7 22q0 8 -12 19q0 -40 -6 -99q31 0 60 -11zM365 373q-20 -27 -59 -54h18q12 0 41 54zM155 522v9h-26v-9h26zM447 101h-10l-6 -26h9zM283 236q-18 36 -18 32q-13 -13 -37 -25q20 -7 55 -7z
M672 -72h-20q-56 -45 -84 -87zM310 185q0 5 -17 38h-65q36 -38 48 -38h34zM333 161l-55 11q21 -20 33 -20q13 0 22 9zM385 69l-12 33l-8 -3l12 -30h8zM213 214l-6 25h-10l7 -25h9zM207 210l-8 3l-7 -14l8 -4zM289 127q0 8 -8 19q-11 15 -12 17q-13 -51 -13 -66q10 0 21.5 10
t11.5 20zM372 53q-12 12 -12 20h-25q-19 -18 -17 -32q37 12 54 12zM421 -1q-2 9 -27.5 25t-35.5 16q-19 0 -36 -20t-21 -40q54 22 86 22q28 0 34 -3zM208 114l-6 75h-10l6 -75h10zM304 84h-23q-5 0 -13 -1h-7q18 -12 43 -37q0 6 2 19t-2 19zM294 13q0 11 -24 34t-36 26v-42
q32 -22 53 -46q0 4 3.5 13.5t3.5 14.5zM109 501q0 -9 -9 -208l-9 -199q-5 -118 -31 -220q17 58 29 163l17 145zM233 -153q-6 13 -20 27q0 -3 -3.5 -11t-3.5 -11q5 0 13.5 -2.5t13.5 -2.5z" />
    <glyph glyph-name="L" unicode="L" horiz-adv-x="653" 
d="M639 215q-2 -2 -33 -22q-23 -15 -32 -31q-12 -22 -12 -85q0 -47 2 -56q7 -32 40 -32q13 0 18 5l-67 -194h-430q-36 25 -36 59q0 4 1 8l44 319q2 17 -38 42q-28 14 -56 29l6 10q5 8 5 16q0 5 -22 31q18 12 26 19q15 13 18 24q-20 3 -55 10l-1 32q-3 14 -16 19q67 87 75 87
q11 0 33 -11q3 3 1 9q-4 11 -4 16q0 8 16 34l25 41q63 -2 107 -2q33 0 54 1v-383q45 4 69.5 17t49.5 49q5 7 22 57q-2 -45 3 -57q11 -29 49.5 -58t68.5 -29q16 0 69 26zM239 531v9h-32v-9h32zM551 178q-30 10 -59 30q-34 23 -45 47q0 -4 -3.5 -13.5t-3.5 -14.5
q0 -20 24.5 -46t44.5 -26q14 0 42 23zM181 529l-8 5l-13 -19l7 -6zM175 462v20h-10v-20h10zM299 555q-20 -29 -20 -64l-4 -347l15 236q1 16 1 25q0 13 -1 39.5t-1 39.5q0 45 10 71zM495 148q-12 3 -60 35v-32q17 -18 30 -18q17 0 30 15zM555 160q-60 -26 -60 -71
q0 -25 16 -41q10 -10 39 -26q-6 30 -6 60q0 42 11 78zM426 250q-42 -44 -119 -52q31 -32 44 -32q28 0 53.5 19t25.5 46q0 9 -4 19zM489 126q-27 -10 -27 -32q0 -7 15 -22q0 36 12 54zM111 462q-7 26 -27 26q-16 0 -27 -26h54zM422 177q-16 -10 -60 -25q12 0 12 -13h31
q17 16 17 38zM449 111q-4 -4 -13 -10t-13 -10q5 -5 8 -14q18 27 18 34zM129 414q-14 13 -38 13q-12 -13 -12 -20l13 -13q16 4 37 20zM203 278v60h-10v-60h10zM408 104l-9 8l-5 -6l8 -8zM478 51q-20 21 -30 21q-9 0 -24 -39q25 22 54 18zM118 441l-55 8q-18 -36 -18 -41
q0 -8 12 -16q19 -12 20 -14q-5 12 -15 35q25 31 36 31q3 0 10 -1.5t10 -1.5zM573 -18q-16 12 -44 12q-57 0 -95 -32q89 8 139 20zM534 13q-38 26 -55 26q-26 0 -43 -20t-17 -47q28 23 62 32q9 1 53 9zM384 105q0 11 -31 39v4v-7l-1 -32v-31q9 0 20.5 9t11.5 18zM42 442l-8 2
l-13 -25l8 -3zM406 71q-19 0 -30 -3l-14 -4q21 -10 42 -31q2 2 2 38zM145 308q-7 7 -7 25q-2 -2 -20 -11q-14 -7 -14 -16q0 -7 3 -17h20zM340 116q0 30 -32 61q0 -18 -6 -54.5t-6 -54.5v-18q16 6 30 27.5t14 38.5zM129 269q-32 10 -45 23q3 5 3 33q0 -4 -7 -14t-7 -14
q0 -11 11 -23.5t22 -12.5q7 0 15 4zM406 -9q-12 29 -20 40q-14 19 -38 19q-11 0 -27 -8q-22 -11 -26 -12l56 -23q27 -11 48 -35q0 11 7 19zM139 222v38q-29 -16 -35 -16q-10 0 -40 33q0 -5 -7 -14q55 -34 82 -41zM384 -44q-8 19 -38 36q-26 15 -50 18v-54h88zM594 -46
q-20 -14 -38 -60q-20 -50 -31 -61h-132q-48 0 -124 -2q-114 -3 -124 -7q35 3 192 3q159 0 207 -10q7 68 50 137zM412 -91q-1 0 -9.5 -4.5t-13.5 -4.5q-16 0 -47 -1.5t-47 -1.5t9 -1t83 -2q10 0 25 15z" />
    <glyph glyph-name="M" unicode="M" horiz-adv-x="850" 
d="M65 -160l-14 -14l-5 6l14 13zM826 -145q0 -30 -29 -37q-8 -2 -37 -2q-38 0 -81 20q-6 3 -56 3l-5 149q-78 -75 -78 -132q0 -24 15 -44q-7 2 -17.5 18.5t-14.5 19.5q-38 38 -97 38q-36 0 -59 -18q-10 -10 -29 -26q24 48 24 58q0 27 -27 64.5t-52.5 46t-67.5 8.5h-53
q-8 -50 -12 -148q-59 -38 -129 -73l32 577q2 29 -10 49q-3 4 -34 40q36 13 87 63q44 43 70 83q31 -31 55 -67q5 7 21 55q52 -8 114 -17q-1 -4 -1 -8q0 -12 9 -22.5t20 -8.5q-11 -32 -27 -56l9 -9q17 6 50 16l10 -28q11 -20 29 -16q-11 -36 -33 -104h-33q-2 -1 -10 -9l74 -85
q8 9 122 172q72 103 131 162q12 12 48 19q27 4 54 9q5 1 6 2l-4 -583zM795 573q-22 -108 -18 -235l9 -290v451q0 12 9 74zM679 281v37h-10v-37h10zM685 268h-10l-6 -42h10zM411 466v10h-26v-10h26zM436 445h-9l-6 -37h9zM340 582l-11 -7q17 0 -19 4q-27 3 -57 5
q-16 -49 -16 -60q7 5 32 30q19 19 27 19q15 0 25 -11zM339 507v37q-23 12 -37 12q-9 0 -28 -21q11 5 30 5q18 0 35 -33zM411 403v48q-21 0 -43 10q8 -11 28 -25q-11 -32 -22 -44q19 0 37 11zM790 5v31h-10v-31h10zM318 512q0 9 -7 16h-19q-18 -35 -17 -43q12 0 19 -6
q1 3 12.5 14t11.5 19zM622 255q0 10 -4 29t-4 29l-124 -170h24q8 -1 24.5 5.5t21.5 12.5q14 14 36 45q26 37 26 49zM273 534l-27 -25q5 -5 8 -13q7 13 19 38zM681 39v150q0 -66 -3 -117l-4 -68q9 18 7 35zM378 434q-5 0 -13 6q-18 -11 -41 -37h29q10 -1 17 6q8 16 8 25z
M416 390q-21 -9 -59 -23l13 -15q13 8 41 6q5 11 5 32zM367 383v10h-26v-10h26zM620 21v198q-1 -2 -34 -45q-14 -18 -14 -43q0 -29 15 -59q5 -10 33 -51zM810 -160q-15 68 -25 156q8 -68 8 -110q0 -19 -2 -33q-7 -11 -14 -11q13 -7 22 -7q7 0 11 5zM616 345
q-45 -29 -123 -137q-54 -78 -107 -156q-3 -6 -1 -18q2 -14 1 -16q23 56 91 147q100 133 118 161q8 7 21 19zM611 11q-32 31 -58 114q-25 -37 -25 -46q0 -26 21.5 -47.5t47.5 -21.5q7 0 14 1zM685 -95v76h-10v-76h10zM535 136q-6 -2 -47 -13q-26 -7 -31 -30l12 -3
q12 -3 24 -3q10 6 26 23.5t16 25.5zM776 -158v9h-48v-9h48zM539 17q-10 15 -25 59q-1 -3 -10 -14.5t-9 -18.5q0 -10 12 -19t23 -9q5 0 9 2zM494 75q-31 -3 -54 5q15 -26 27 -26q17 0 27 21zM667 -140l-3 8l-14 -7v-8zM481 18zM605 -2h-40q-21 0 -40 -21t-19 -42
q0 -20 26 -58q0 19 30 61zM528 -4q-5 0 -14 8q-26 -17 -22 -50q9 29 36 42zM484 -2l-3 8l-13 -7v-8zM447 16v15h-10v-15h10zM436 50l-7 5l-19 -25l7 -5zM483 -56q-11 23 -30 32q-2 -1 -30 -26q41 0 60 -6zM428 -29v20q-17 17 -38 17q10 -18 25 -48q0 11 13 11zM329 62
q-51 74 -167 207v-242q14 3 59 1l47 -2q30 -1 61 36zM350 21q0 15 -13 27q-19 -19 -22 -19q19 0 35 -8zM510 -123q2 19 -21.5 40t-43.5 21q-12 0 -28.5 -13t-23.5 -25q76 2 117 -23zM395 -51q0 59 -82 64q36 -43 69 -97q13 27 13 33zM155 289q-5 -2 -15 -18t-10 -22v-148
q0 -98 -12 -209q-33 -18 -50 -48q39 35 67 34q0 164 8 388q1 23 12 23z" />
    <glyph glyph-name="N" unicode="N" horiz-adv-x="753" 
d="M737 -48q-57 -57 -164 -169q-48 74 -79 105q-51 50 -107 50q-101 0 -123 -94q2 8 2 17q0 32 -24.5 62t-55.5 33q-2 -28 -7 -83q-48 -23 -146 -73l4 530q8 57 8 66q0 57 -47 90q78 53 181 147q16 -24 50 -72q5 7 21 55q36 -5 115 -18q-2 -3 -2 -8q0 -12 9 -22.5t20 -7.5
q-8 -20 -22 -57q5 -2 12 -2q15 0 42 9q8 -14 15 -28q11 -14 26 -17q-24 -59 -29 -104q-32 2 -49 -9l185 -214q4 21 -6 131q-17 188 -17 234v56l143 51v-612q14 -15 45 -46zM617 412v48h-10v-48h10zM672 1v564h-9v-564h9zM420 481v10h-21v-10h21zM347 527v32q-3 2 -47 13
l-13 -15q17 -1 33 -1q21 -4 27 -29zM348 583q-17 8 -87 16q-4 -10 -8.5 -30t-8.5 -30q50 49 63 49q4 0 21 -4q13 -3 20 -1zM326 527q0 10 -7 17h-19q-6 -17 -18 -43q13 0 19 -7q2 4 15 16q10 9 10 17zM420 417v48q-16 3 -43 11q8 -11 27 -25q0 -18 -13.5 -35t-30.5 -17
q-6 0 -12 3q25 -3 38 2zM280 549l-26 -24l14 -14q12 23 12 38zM386 449q-5 0 -13 6q-12 -8 -41 -37q8 0 24.5 2.5t24.5 2.5q0 4 2.5 13t2.5 13zM431 404q-25 -8 -66 -22q0 -5 7 -16q31 8 37 10q21 10 22 28zM614 110q-12 -8 -55 -26h26q14 0 29 26zM161 426h-8l-7 -18l8 -3z
M706 -65q2 4 -4 9q-18 -5 -72 -52.5t-54 -61.5q0 -7 8 -19q5 24 51 70.5t71 53.5zM103 278v165h-10v-165h10zM270 185l-95 109v-133h25q23 0 70 24zM354 85q-13 19 -44 48v-37q17 -19 30 -19t14 8zM420 -33q-2 19 -7 48q-7 12 -40 46q-8 -18 -8 -31q0 -38 55 -63zM359 71
q-27 -14 -27 -33q0 -11 15 -19q0 29 12 52zM298 153q-7 10 -19 24q-32 -29 -103 -29q47 -32 58 -32q18 0 39 10q25 11 25 27zM320 64v10h-15v-10h15zM298 120q-22 -6 -55 -24q16 -5 29 -5q11 0 20 4q0 20 6 25zM150 162v114h-9v-114h9zM100 212v20h-9v-20h9zM343 2
q-15 14 -25 14q-12 0 -19 -13t-4 -25zM403 -49q-25 32 -58 32q-58 0 -62 -66q44 35 100 35q11 0 20 -1zM254 55q0 20 -27 33q0 -14 -8 -66q35 15 35 33zM95 189v15h-10v-15h10zM161 149h-8l-12 -36l8 -3zM209 66q0 13 -10.5 33t-20.5 28v-122q31 31 31 61zM275 21
q-20 0 -30 -3l-13 -4q8 -4 42 -31q5 11 5 21q0 8 -4 17zM156 -33v137h-10v-137h10zM270 -84v37q0 14 -20.5 30.5t-34.5 16.5q-22 0 -39 -27q20 -2 50 -21t44 -36zM95 165h-10l-6 -259h10zM164 -122q-13 64 -13 77q5 -18 5 -32q0 -35 -34 -51q-44 -21 -51 -33q77 43 93 39z
" />
    <glyph glyph-name="O" unicode="O" horiz-adv-x="761" 
d="M731 191q0 -162 -98 -275q-102 -117 -262 -117q-150 0 -260.5 117.5t-110.5 268.5q0 171 95 284q101 122 268 122q25 0 50 -3q1 2 1 6q0 5 -4 18t-4 19v30q4 2 56 25q36 16 44 16q28 -23 53 -23q5 -14 5 -28q0 -13 -4 -25l9 -10q14 15 46 40q26 -28 52 -23
q11 -31 24 -113q-19 -6 -45 -32q44 -37 67 -135q18 -77 18 -162zM618 627l-4 9l-13 -7v-9zM651 574q0 7 -18 36q-20 -4 -44 -12q6 1 12 1q31 0 31 -37q0 -11 -2 -19q21 20 21 31zM546 636v29q0 -5 -15 -5q15 -15 15 -24zM680 533q-8 14 -8 32q-33 -34 -43 -62q11 3 26 14
q19 13 25 16zM617 562q0 4 -3 11t-3 8h-22q0 -4 -4 -22q-4 -17 0 -22q32 16 32 25zM530 628q-11 23 -11 34q-19 -4 -50 -13v-21q4 1 14 9t20 8q14 0 27 -17zM520 614q-14 14 -27 14q-13 -13 -13 -20q0 -5 3 -15.5t3 -15.5h22q0 13 12 37zM508 675q-2 3 -9 3q-15 0 -41 -12
q-32 -15 -41 -17q14 -36 17 -61q7 28 27 69q12 13 47 18zM466 583v42q0 -5 -15 -35q6 -5 15 -7zM513 512v9h-21v-9h21zM463 388q-83 32 -119 80v-48q0 -17 21 -36t38 -19t60 23zM331 506q-7 4 -20 13q-44 -42 -62 -73q69 28 82 60zM514 194v95q0 19 -31 82q-32 -51 -32 -95
q0 -38 17 -54q3 -3 46 -28zM465 369q-22 2 -43.5 -21.5t-21.5 -45.5q0 -12 13.5 -30t25.5 -24q-1 15 -1 28q0 63 27 93zM383 358q-14 0 -44 30q7 -40 27 -40q7 0 17 10zM330 473q-13 -8 -94 -48q-7 -18 -7 -25q-6 0 12 -3t36 -3q23 4 38 29t15 50zM393 342q-11 -7 -27 -18
v-27q13 -11 22 -11q0 40 5 56zM324 405q-34 -23 -61 -28q24 -18 31 -18q27 0 30 46zM322 351l-8 3l-8 -15l8 -3zM377 270q-9 7 -26 21q-24 -24 -24 -46q19 10 50 25zM286 331q0 14 -28 28q0 -48 -8 -62l18 12q18 12 18 22zM423 237q-29 14 -37 14q-68 0 -64 -86
q45 38 101 72zM709 182q0 16 -5 47t-5 47v-136q-2 -13 -18 -63q-19 -59 -31 -79q-45 -77 -117 -124q-77 -51 -161 -51q-15 0 -29 2h11q157 0 256 100t99 257zM574 279q-4 -139 -31 -218q-44 -129 -154 -167l20 -9q103 49 141 176q24 80 24 218zM246 342q0 19 -27 46
q-1 -8 -11 -37q-8 -23 -7 -30v-41q12 6 28.5 28t16.5 34zM313 239v32q-8 20 -27 20q-6 0 -17.5 -4t-16.5 -4q21 -13 61 -44zM508 170q-55 46 -74 46q-21 0 -59 -23.5t-48 -42.5q-14 -27 -14 -71q0 -14 1 -42.5t1 -42.5q56 -40 74 -40q26 0 61 50q30 42 40 75q7 21 18 91z
M307 171v38q0 17 -31 38t-50 21q-4 0 -26 -11q77 -46 107 -86zM303 91q0 55 -10 74q-19 35 -92 68v-59q0 -32 33 -87.5t61 -75.5q8 27 8 80z" />
    <glyph glyph-name="P" unicode="P" horiz-adv-x="626" 
d="M610 350q0 -115 -64 -188q14 -15 47 -40l-54 -108l-10 6q-11 5 -18 5q-12 0 -25 -23q-15 14 -47 46q-7 -10 -10 -29l-6 -34q-5 0 -15.5 2.5t-15.5 2.5q-6 0 -12 -7l-4 -5q-5 -9 -7 -11q-30 24 -88 71q-1 5 2 23t3 23h-66q-12 -42 -12 -92q0 -31 6 -93.5t6 -93.5
q-17 1 -40 1q-37 0 -88 -4l-51 -4q-9 -1 -41 31v758q22 28 36 34q5 3 25 3q32 0 94 -10.5t92 -11.5q166 -4 247 -46q116 -59 116 -206zM589 380v16h-10v-16h10zM406 387q-5 18 -21 45.5t-29 33.5q-7 -12 -7 -25q0 -16 17 -35.5t33 -19.5q4 0 7 1zM331 476q-21 6 -63 19
q2 -40 31 -40q15 0 32 21zM348 398q-12 34 -12 56q-6 0 -11 -10.5t-5 -17.5q0 -17 28 -28zM584 374q0 -64 -28 -137q-14 -36 -43 -54q-28 -11 -70 -33q-14 -7 -10 -38q1 24 46 41q54 20 65 37q41 62 41 152q0 16 -1 32zM471 336q0 35 -10 73q4 -26 4 -52q0 -118 -66 -186
q52 37 66 93q6 24 6 72zM162 546v10h-16v-10h16zM254 438q4 12 2 26l-3 20q-5 -11 -26 -31v-20q4 0 13.5 2.5t13.5 2.5zM349 383l-7 4q-7 4 -14 4q-13 0 -25 -13v-33q17 16 46 38zM304 395l-9 9l-6 -6l8 -8zM407 365q-9 9 -21 9q-27 0 -49.5 -20t-22.5 -47q0 -6 4 -16.5
t4 -15.5q9 15 85 90zM127 552v10h-16v-10h16zM575 116q-20 15 -51 36q1 -3 13 -36q9 -24 9 -33q0 -18 -28 -45q37 18 57 78zM406 312v20q-28 -9 -50 -33q-25 -26 -25 -53q0 -7 3.5 -20t3.5 -20q25 9 46.5 44t21.5 62zM515 112q0 5 -2 14t-2 14q-6 0 -17 -7zM240 394
q-3 12 -11 20v-46q8 17 11 26zM289 333q0 7 -2.5 20t-2.5 20h-20q-25 -11 -25 -28q26 0 50 -12zM499 78v26q-5 13 -39 13q11 -24 11 -39h28zM529 86q0 6 -4 15l-5 8q0 -8 -4 -22.5t-4 -22.5q-3 -1 -47 -1q19 -9 32 -21q32 32 32 44zM307 276q-31 57 -49 57h-31q0 -7 -3 -20
t-3 -20q32 -4 86 -17zM488 35q-3 0 -11.5 3t-11.5 3q13 -14 13 -22q6 6 10 16zM325 194q5 21 -17.5 50.5t-43.5 29.5h-42v-97q40 5 103 17zM389 55v39h-20q-3 0 -8.5 -12t-6.5 -13l21 -21q6 6 14 7zM405 48q-13 -6 -30 -17q-29 22 -29 44q0 5 2 13q-5 0 -11 -62
q38 -12 51 -12q16 33 17 34zM414 24h-8l-7 -20l8 -3zM318 25v63q-21 -10 -21 -26v-25q8 0 21 -12zM372 -4l-27 13l-3 -8l27 -13zM381 127q-59 -5 -170 -17q-6 -6 -17 -13q-20 -103 -20 -119q0 -28 11 -28q0 68 12 129q5 25 21 25q108 10 163 23zM69 -125v660h-10v-660h10z
M188 -90v27h-10v-27h10zM194 -137v33h-10v-33h10zM208 -178q-8 19 -11 21t-23 2q-48 0 -122 -21q46 9 90 9q34 0 66 -11z" />
    <glyph glyph-name="Q" unicode="Q" horiz-adv-x="800" 
d="M784 -180l-182 -116q-24 27 -81 87q-15 16 -67 16q-16 0 -47.5 -3t-47.5 -3q-167 0 -264 106q-95 102 -95 270q0 58 2 70q3 17 31 107q-7 3 -59 16v106q21 -1 29 11q2 5 9 28q19 -9 54 -22q1 8 -5 29t-6 29q33 11 33 29q0 5 -1 10h18q22 0 87 -18q5 -17 17 -52
q89 38 194 38q167 0 268.5 -103t101.5 -270q0 -59 -22 -124q-28 -83 -81 -122q38 -51 52 -67q34 -39 62 -52zM748 218v31h-10v-31h10zM459 496v10l-64 5v-9zM743 217q2 -14 2 -30q0 -87 -44 -165q-12 -15 -29 -39q-26 -36 -27 -46q103 104 103 234q0 25 -5 46zM545 148v30
q0 57 -67 158q-24 -72 -24 -75q0 -29 31.5 -66.5t59.5 -46.5zM194 510v19q-1 1 -3 8l-3 11q-4 15 -17 20h-19q17 -36 42 -58zM134 567v9h-36v-9h36zM470 350q0 16 -58 58t-77 42q-25 0 -66 -74q-37 -66 -37 -80q0 -12 17 -34.5t29 -31.5q17 -12 63 -12q27 0 30 1
q52 15 70 49q29 56 29 82zM530 139q-19 7 -51 42t-32 53q-15 -29 -15 -38q0 -10 17 -37q21 -33 43 -33q16 0 38 13zM259 481q-23 -12 -108 -57h16q10 -1 46 24q14 9 46 33zM155 526q0 15 -11 26h-40q-11 -17 -11 -35q0 -6 1 -13q16 32 28 32q13 0 33 -10zM151 484
q-3 12 -12 36h-19q0 -16 12 -43q7 7 19 7zM83 527v19h-9v-19h9zM330 479q-65 -29 -101 -107q-32 -69 -32 -148q0 -32 6 -60q-5 40 -5 71q0 40 9 65q12 21 29 55q9 30 38 70q31 44 56 54zM465 116q-16 18 -41 53q0 -1 -4 -10t-4 -14q0 -20 18 -29h31zM425 234
q-19 -23 -62 -27q-11 -1 -54 -1q10 -37 53 -37q58 0 63 65zM529 119h-19q-20 -7 -38 -26t-18 -38q0 -18 41 -64q6 79 34 128zM603 99q-17 -83 -55 -139q-6 -16 -20 -41q-7 -7 -20.5 -23t-20.5 -23q67 36 67 68q0 4 -1 8q40 30 50 150zM46 484q-10 2 -23 14q0 -5 -6 -14h29z
M405 163q-19 -7 -59 -7q26 -25 32 -25q16 0 27 32zM459 103q-32 -16 -32 -31q0 -6 8 -17q6 16 24 48zM81 419q0 4 -25 36q0 -3 -24 -13q6 -6 6 -18q17 -8 29 -8q8 0 14 3zM380 97l-8 8l-6 -5l8 -8zM49 470h-32q-3 -17 -12 -45l13 -13q5 0 9 8q-6 10 -6 18q0 20 28 32z
M751 -190l-6 4q-6 4 -13 4q-14 0 -61.5 -33t-59.5 -48q45 31 68 44q47 27 72 29zM357 109q0 13 -26 38q0 -35 -17 -69q43 15 43 31zM432 35q0 9 -12 20h-30q-11 -23 -10 -32q17 12 52 12zM281 172q0 22 -53 100v-94q0 -33 26 -85q27 48 27 79zM43 376q-17 16 -47 45
q1 17 0 45q-7 0 -12 -79q3 -5 35 -18zM319 142q0 23 -26 48q1 -5 1 -11q0 -23 -11 -58q-4 -14 -17 -54q18 8 35.5 32t17.5 43zM480 -17q-5 14 -26.5 27t-37.5 13t-34.5 -15.5t-18.5 -31.5q0 -4 1 -7q32 16 75 16q35 0 41 -2zM373 55q0 7 -12 16h-37q32 -23 41 -43q0 2 4 12
t4 15zM141 399q0 12 -9 13q-1 -2 -9 -23q-34 -33 -55 -97q-19 -58 -19 -112q0 -7 4 -21.5t4 -22.5q-5 126 41 202q6 8 26 33q17 21 17 28zM491 -32q-8 0 -25 3t-25 3q-51 0 -84 -30q73 -40 75 -40q12 0 33 26q19 22 26 38zM357 -1q0 18 -19.5 40t-37.5 22q-5 0 -15 -3.5
t-14 -3.5q28 -29 72 -85q14 23 14 30zM323 -174v10h-19v-10h19zM296 -168v9h-14v-9h14z" />
    <glyph glyph-name="R" unicode="R" horiz-adv-x="686" 
d="M669 -47q-8 -10 -69 -76q-57 -61 -66 -87q-13 -2 -24 17q-42 74 -95 162q-85 143 -136 143h-48l-5 -4q-2 -26 3 -137l4 -92v-51q-23 -2 -96 -16q-63 -12 -94 -12q-36 0 -46 35l33 194v198q0 10 5 30t5 30q2 86 1 133q0 14 -3 43t-3 44q0 12 34 45h192q-1 5 -22 47
q80 67 89 67q3 0 9.5 -8.5t11.5 -8.5q11 0 22 11q8 -19 27 -59q9 7 36 48l11 -8q11 -8 17 -8q5 0 15 6l8 5q50 -83 50 -91q0 -7 -13 -22t-14 -18q113 -57 113 -178t-129 -183zM519 555q0 10 -14 24q-3 -9 -12 -25.5t-12 -25.5q5 -5 14 -8q24 24 24 35zM487 577
q0 10 -11.5 22.5t-21.5 12.5q-9 0 -17 -8l-12 -12q7 2 12 2q23 0 42 -41l4 9q4 9 4 15zM459 554q0 12 -13 26q-11 -12 -24 -37q5 0 13 -6q7 0 24 17zM418 566l-7 3l-12 -24l7 -4zM368 603q-17 17 -17 24q-27 -7 -46 -16v-63l9 7q-4 6 -4 16q0 30 28 46q15 -14 30 -14z
M357 554v35q-6 3 -18 12q-14 -13 -14 -21q0 -23 19 -33q5 5 13 7zM336 641q-3 2 -7 2q-15 0 -73 -44q13 -36 30 -46q4 8 5 32.5t7 33.5q11 18 38 22zM472 338v26h-9v-26h9zM599 321q0 7 -3.5 21.5t-3.5 21.5q1 -10 1 -20q0 -121 -121 -165q-18 -11 -18 -21q0 -6 4 -10l4 -4
q-2 6 5 17t13 14q23 9 59 25q28 16 45 53q15 33 15 68zM335 475v10h-73v-10h73zM384 414q-8 13 -33 27t-40 14h-29q27 -32 102 -41zM400 377q0 4 -3 12t-3 12q-6 -1 -14 -1q-64 0 -91 29q19 -65 71 -65q29 0 40 13zM409 284v80q-14 -28 -14 -43q0 -14 14 -37zM395 280
q-18 27 -18 47l-9 -36q12 -11 27 -11zM373 347q-37 0 -63 17q14 -43 29 -43q11 0 34 26zM474 264q6 22 -7 68q1 -8 1 -16q0 -45 -34 -90.5t-77 -58.5h21q16 0 53.5 39.5t42.5 57.5zM266 431v24h-37q2 -69 1 -96q36 48 36 72zM163 491v10h-20v-10h20zM359 298l-7 2l-7 -13
l7 -4zM293 373q0 7 -6.5 21t-6.5 19q-20 -40 -56 -77v-25h18q18 8 34.5 26.5t16.5 35.5zM400 260l-7 4q-7 4 -14 4q-9 0 -18 -7.5t-9 -16.5q0 -5 3.5 -14t3.5 -11q24 35 41 41zM136 491v10h-25v-10h25zM309 324q0 5 -3.5 14t-3.5 10q-18 -26 -47 -47h36q18 7 18 23zM209 444
h-9l-6 -84h9zM346 215q-5 6 -5 31h-19q-2 -1 -29 -25q36 0 53 -6zM298 260q0 10 -10 19.5t-20 8.5h-18q15 -20 29 -63q19 29 19 35zM325 200l-41 8l-7 -8h48zM209 353h-9l-11 -106h9zM260 199v29q0 14 -11.5 33t-23.5 28q0 -12 4.5 -36t4.5 -36q0 -9 -10 -18h36zM653 -51
h-25l-58 -52q-40 -36 -40 -65q0 -5 7 -16q5 36 44 78q34 37 72 55zM214 193v15h-9v-15h9zM314 137q-15 0 -45.5 3.5t-45.5 3.5q-13 0 -21.5 -12t-8.5 -26q0 -5 1 -10q5 47 75 40q20 -2 24 -2q15 0 21 3zM105 338q0 25 -4 66q-5 48 -6 65v-182q0 -8 -6 -25t-6 -25v-159
q0 -53 -24 -213q30 120 30 125v217q0 22 8 65.5t8 65.5zM202 -87v182l-11 -13q0 18 5.5 -20.5t6.5 -58.5q3 -47 -1 -90zM209 -118v19h-9v-19h9zM217 -162q0 11 -13 37l1 -11q2 -7 -2 -10q-83 1 -157 -31h19q68 20 96 20q36 0 56 -5z" />
    <glyph glyph-name="S" unicode="S" horiz-adv-x="618" 
d="M601 379q-45 4 -62 -4q-27 -13 -61 -56q-37 -46 -37 -72q0 -14 13.5 -48t13.5 -50q0 -6 -2 -10q-9 15 -17.5 47.5t-16.5 46.5q-16 27 -47 39q34 -239 34 -227q0 -123 -87 -196q-81 -69 -206 -69q-38 0 -91 13q-10 16 -30 46q56 0 73 -4q4 -4 4 9q0 5 -14 28
q-17 28 -19 32q0 2 9.5 12t10.5 12q2 5 -9 27q22 7 61 17q-1 11 -39 36q-1 7 15 30q2 3 0 12l-4 16q31 14 89 38q-39 183 -39 228q0 142 88 217q82 71 226 71q37 0 97 -25q5 -10 19 -57q-26 2 -68 10q-9 -19 -9 -39q0 -56 54 -120q24 0 51 -10zM524 395q-45 50 -46 119
q-26 -17 -26 -52q0 -25 17 -46.5t41 -21.5q7 0 14 1zM507 567l-18 3q-31 0 -101 -24q-23 -8 -37 -44q-2 -4 -13 -45q3 11 23 31q14 25 34 52q31 8 60 8q4 0 5.5 -3t5.5 -3q6 0 23 12.5t18 12.5zM463 525h-20q-32 -8 -36 -10q-16 -7 -27 -26l42 -7q30 19 41 43zM457 406
q-9 14 -24 59q-20 -20 -20 -33q0 -10 12.5 -19t23.5 -9q4 0 8 2zM419 469q-8 0 -24.5 3t-24.5 3q0 -10 6 -26h24zM404 424l-8 3l-7 -14l8 -4zM388 435l-8 3l-7 -14l7 -4zM518 380q-5 0 -17.5 4t-18.5 4q-22 0 -45.5 -21t-23.5 -43q0 -9 8 -26l12 -26q10 38 85 108zM441 392
h-20q-24 -10 -24 -29q0 -13 8 -14q9 27 36 43zM374 383q0 6 -19 16q-18 -18 -18 -27q23 11 37 11zM391 339q-13 25 -27 32v-20q11 -12 27 -12zM412 272q-1 27 -42 60v-18q0 -25 42 -42zM349 300v32h-10v-32h10zM216 234v15h-9v-15h9zM255 83h-9l-6 -31h9zM266 17h-9l-6 -32
h9zM191 62q0 5 -2.5 13.5t-2.5 13.5q-4 0 -13.5 -3.5t-13.5 -3.5q9 -8 32 -20zM397 31q0 15 -15 86q6 -43 6 -62q0 -42 -15 -89q-23 -72 -109 -120q-65 -36 -138 -47h22q105 17 171 71q78 63 78 161zM203 4l-14 17q-8 8 -16 8q-7 0 -12 -3l-7 -4v-20q4 0 14.5 -6t15.5 -6
q11 0 19 14zM143 67l-3 8l-31 -18l3 -8zM192 42q-3 1 -13.5 10.5t-19.5 9.5q-11 0 -25 -11.5t-14 -21.5q0 -6 8 -16.5t8 -11.5q-2 9 -2 16q0 17 22 22q4 1 36 3zM270 -43q0 6 -4 8l-4 3q2 -17 -13 -53q-9 -21 -22 -49q43 55 43 91zM202 -52v31q-20 -37 -20 -50q0 -3 1 -5
q19 9 19 24zM175 -54v21q-20 -9 -20 -32q12 11 20 11zM116 5l-13 14l-6 -5l14 -14zM182 -97q-18 16 -47 26q-15 0 -15 -19q0 -11 14 -19q39 13 48 12zM104 -51h-25q5 0 5 -14q7 4 20 14zM174 -110q-21 -11 -34 -11q-11 0 -23.5 10t-12.5 21q0 6 5 15l5 9q-27 -13 -27 -19
q9 -15 18 -40q8 0 24.5 -3.5t24.5 -3.5q7 0 13.5 7.5t6.5 14.5zM137 -146q-27 3 -42 17q-4 5 -29 35q12 -24 40 -65q27 13 31 13zM114 -206v10h-15v-10h15z" />
    <glyph glyph-name="T" unicode="T" horiz-adv-x="731" 
d="M726 610q0 -26 -67 -149q-73 -17 -158 -47q-24 -129 -29 -166q-2 -19 -9 -75l2 -115v-258h-106q-38 0 -54 7q-2 1 -36 35v203q0 22 -11.5 79.5t-20.5 77.5q-15 34 -55 62t-76 28q-6 0 -89 -46q24 24 47 50q8 9 8 36q0 48 -29.5 88.5t-75.5 50.5q8 -1 30 -7q19 -5 31 -5
q52 0 52 44q0 17 -14 65h370q-10 9 -34 45q67 84 83 84q4 0 12 -6t12 -6q6 0 15 6l9 6q7 -8 34 -52l33 51l10 -5q12 -6 17 -6q9 0 27 18q72 -88 72 -93zM675 655l-26 26l-6 -6l26 -26zM708 610q0 7 -10 18l-10 11q-14 -56 -13 -69q33 16 33 40zM668 627q0 11 -13.5 23
t-24.5 12q-9 0 -19 -11l-12 -16q4 0 13.5 2t14.5 2q11 0 20 -12t9 -23q0 -8 -6 -22.5t-6 -17.5q24 48 24 63zM639 604q0 5 -3.5 13t-3.5 9q-13 3 -19 -13q-1 -2 -8 -31q13 0 13 -13q1 4 11 15t10 20zM537 657v21h-10v-21h10zM598 594q0 6 -8 16q-5 -6 -16 -13q-6 -4 -3 -4
q4 -4 14 -4q9 1 13 5zM598 565q-16 5 -50 16l-7 -16h57zM540 634q-18 18 -37 28q-32 -27 -32 -46q0 -9 3.5 -25.5t3.5 -25.5h22q-1 1 -14 21q-9 14 -9 21q0 12 7.5 25t18.5 13q16 0 37 -11zM535 589q-7 13 -7 32q-5 0 -13.5 2.5t-13.5 2.5l-3 -6q-4 -6 -4 -13q0 -8 7 -18.5
l13 -19.5zM494 671q-22 -1 -43 -20q-1 -2 -32 -38q25 -37 45 -49q-9 59 -9 54q0 36 39 53zM522 503v10h-15v-10h15zM505 498v10l-230 6v-11zM682 534q-18 -18 -53 -45q-22 -12 -127 -32q-10 -5 -23 -17q-50 -211 -47 -233v-257q3 34 2 109q0 71 4 109q5 48 40 253
q3 16 20 25q88 23 151 33q10 29 33 55zM322 420v15h-10v-15h10zM329 418h-11l-6 -33h10zM221 509v10h-56v-10h56zM259 397v27h-10v-27h10zM248 458q-10 -3 -38 -15l-32 -14q-1 -5 6 -16q24 14 64 45zM328 275v79h-10v-79h10zM263 377h-21q-15 -6 -25 -33q17 13 46 33z
M157 434v10h-27v-10h27zM268 309q0 8 -3.5 23t-3.5 23q-33 -33 -33 -52q0 -18 14 -52q26 40 26 58zM164 394l-19 18h-21q9 -14 16 -51q24 19 24 33zM88 443v21q-13 0 -28 -14q4 0 14 -3.5t14 -3.5zM204 333q-9 34 -25 34q-18 0 -29 -22q29 0 54 -12zM332 102q3 40 1 83
l-4 83v-93q0 -50 -14 -79q6 0 17 6zM118 373q0 35 -18 47q-9 6 -51 15q38 -49 42 -120q27 22 27 58zM221 254q-9 78 -71 78q-27 0 -46 -27q48 2 117 -51zM266 118v139q-21 -22 -21 -41zM444 -147v96h-10v-96h10zM340 36h-10l-6 -131h10zM453 -182q0 6 -3 17t-3 16
q-2 0 -7.5 -11t-6.5 -12q-3 3 -23 3q6 0 21.5 -6.5t21.5 -6.5zM340 -97h-10l-6 -27h9zM401 -174v10h-74v-10h74z" />
    <glyph glyph-name="U" unicode="U" horiz-adv-x="754" 
d="M585 -125h-10v22h10v-22zM728 -159q-15 -15 -19 -18q-10 -10 -18 -11q-67 -7 -124 -7h-54q6 20 6 42q0 19 -4 39q-189 -87 -296 -87q-203 0 -206 241l-6 459q0 6 -1 21q-1 12 -1 20q1 19 11.5 36.5t28.5 18.5l199 12q11 -10 12 -35q0 18 -3 -38q-8 -149 -8 -203
q8 -1 28 -15q3 0 28 24q21 -15 46 -53q7 11 10 30q5 31 6 34q5 0 15.5 -3t15.5 -3q4 0 14 9t15 9q13 0 48.5 -31.5t35.5 -44.5q0 -10 -24 -58q-1 10 3 27t4 25t-9 15l-18 14l-3 -3v-75q11 -9 24 -9t28 12.5t13 25.5l-5 334q5 -1 51 -14q31 -9 41 -9q9 0 26 3t26 3
q26 0 31 -6q17 -19 33 -31v-700zM652 512v10h-45v-10h45zM591 468v16h-11v-16h11zM707 525h-10l-12 -464h10zM585 230v236h-10v-236h10zM387 331l-8 3l-8 -15l8 -3zM522 124v99q-15 -16 -15 -35q0 -20 15 -64zM446 303q-19 19 -48 19q-9 -19 -24 -33q6 0 37 16
q11 -10 30 -33v-4l1 -6q-6 -10 -6 -18q0 -7 7 -12l3 58l-3 -30q2 3 3 6q2 12 2 21q0 10 -2 16zM419 242q3 7 3 13q0 2 -10 32q-3 -3 -10.5 -7t-10.5 -7q9 -18 6 -31h22zM175 529v10h-85v-10h85zM591 77h-10l-7 -45h11zM483 210q-7 0 -21.5 3.5t-21.5 3.5q-11 0 -23 -11
l-13 11q0 -11 -10 -11q-14 0 -9 2q5 0 5 20q-6 0 -17 -3t-16 -3q3 -18 30 -32q24 -13 45 -13q35 0 51 33zM518 55q-24 95 -24 139q-45 -34 -45 -72q0 -42 31 -54q13 -3 38 -13zM711 -152q-6 10 -13 34v167q-3 -6 -1 -123q1 -86 -24 -86h-52q-35 0 -61 -10q38 10 90 10
q6 0 17 -6t17 -6q9 0 17 8zM434 164q-36 0 -66 18v-21q12 -25 32 -25q15 0 34 28zM589 -1q0 16 -11 26q2 -4 2 -10q0 -21 -26 -64q11 6 23 21.5t12 26.5zM321 278q-21 15 -32 15t-24.5 -13.5t-13.5 -24.5q0 -6 5 -13l4 -7q11 34 24 46q8 -5 37 -3zM269 303l-12 3
q-19 -15 -15 -30zM73 439v74h-10v-74h10zM442 78q-10 40 -21 58v-39zM315 231v26l-27 7q-8 -8 -8 -17t21 -30zM227 300q0 5 -8 16q0 -4 -2.5 -13t-2.5 -13q0 10 13 10zM292 203l-28 26q3 -14 13 -41zM524 19h-21q-62 -39 -62 -57q37 12 52 20q27 15 31 37zM449 64
q-1 0 -11 4t-15 4q-26 0 -24 -46q26 26 50 38zM368 112l-3 9l-14 -7v-9zM519 40q-30 15 -41 15q-28 0 -49 -19.5t-21 -47.5q0 -17 10 -26q4 21 42 48q35 26 59 30zM388 81zM354 165q-31 -30 -56 -38q2 0 12.5 -4t16.5 -4q28 0 28 33q0 6 -1 13zM261 177l-26 75v-51
q12 -6 26 -24zM344 193q-4 0 -13.5 3.5t-13.5 3.5q-30 -19 -89 -49q29 -15 44 -15q45 0 72 57zM227 269q-5 0 -14 6q-12 -22 -12 -75q4 18 11 48zM339 78q0 12 -16 22t-30 12q18 -37 18 -63q28 14 28 29zM384 20q0 6 -3 17.5t-3 16.5h-32l-19 -21q31 0 57 -13zM213 193h-10
l-7 -27h10zM207 131v27h-10v-27h10zM396 -44v27q-40 37 -66 37q-37 0 -52 -40q12 1 24 1q52 0 94 -25zM292 55q0 33 -12 47.5t-45 26.5q35 -55 30 -138q27 29 27 64zM81 32v405h-10v-405h10zM240 88h-22q-13 -22 -11 -33q10 13 33 33zM253 27l-6 44h-10l6 -44h10zM247 10
l-6 5l-14 -14l5 -6zM518 -80q-104 -45 -146 -59q-94 -32 -161 -32q-15 0 -29 2q7 0 20 -4.5t20 -4.5q50 0 145 29q70 21 121 43q7 3 30 26zM85 -3v16h-10v-16h10z" />
    <glyph glyph-name="V" unicode="V" horiz-adv-x="727" 
d="M717 504q0 -4 -61 -126q-71 -143 -98 -206q-69 -163 -134 -372h-29q-25 0 -50 33q-9 11 -28 39q-24 -45 -36 -45q-13 0 -99 29q-2 15 5 28q-28 14 -28 23q0 7 16 25t18 24q-5 3 -19 3q-15 0 -41 -4q-1 2 -1 34q-11 3 -28 12l51 102q-6 0 2 -1t27 -2q22 -1 25 4l-210 397
q0 13 8 21q36 23 93 54q21 7 58 19l121 -282q26 11 44 43q16 29 17 60q0 10 -3.5 29.5t-3.5 28.5q20 -83 128 -83q64 0 109 88q22 55 45 111q102 -69 102 -86zM603 427l-8 3l-7 -14l8 -4zM513 344q0 5 -3.5 14t-3.5 11q-32 -43 -32 -69q0 -5 4 -14.5t4 -10.5q31 62 31 69z
M493 378q-96 -4 -128 23q16 -39 35 -52q12 -8 38 -8h11q5 -1 6 -1q9 0 38 38zM452 329q-42 0 -60 6q7 -38 27 -38q11 0 21.5 10.5t11.5 21.5zM695 500q-21 -10 -31 -28q-82 -153 -152 -332q-42 -107 -115 -316q7 -7 21 -7q0 33 2 40q93 302 275 643zM443 262l-9 9l-5 -6
l8 -8zM462 241q-26 -13 -26 -21q0 -5 3.5 -14.5t3.5 -13.5q9 15 19 49zM369 344q0 6 -20 47q5 -14 -24 -53q-10 -13 -38 -50l30 -8q17 7 34.5 27t17.5 37zM386 300q0 10 -9 19q-21 -32 -41 -42l7 -4q7 -4 13 -4q11 0 20.5 10t9.5 21zM430 193q-10 19 -25 27q-24 -15 -24 -27
h49zM114 523q-3 -2 -43 -26h26q17 13 17 26zM380 231q0 13 -18 25q-13 1 -30 7q24 -48 28 -65q20 20 20 33zM436 163q-28 18 -47 18q-18 0 -42 -25q4 -7 13 -19h69zM424 118l-54 7q9 -23 24 -60q9 18 30 53zM431 15l-4 8l-23 -13v-8zM220 86h-59q-12 -10 -12 -26l38 9
q24 6 33 17zM242 29q-7 0 -20.5 4t-20.5 4q-19 0 -19 -26l13 -12q15 12 47 30zM236 44q0 3 -3 10t-3 10q-67 -17 -75 -17q0 -28 -6 -52q13 -4 37 -12q-21 21 -21 29q0 12 13.5 24t25.5 12q5 0 16 -2t16 -2zM298 -82q0 13 -9 14q-4 -10 -18 -38q27 14 27 24zM281 -52
q-17 0 -49 -17v-26h26q8 16 23 43zM135 4v30q-1 -8 -14 -22q5 -5 14 -8zM262 -109q-50 -4 -50 39q0 -6 -4 -18t-4 -17q14 -7 41 -23zM170 -31v10h-26v-10h26zM308 -101q-58 -39 -66 -39t-22 4.5t-22 4.5q30 -10 81 -31q17 26 29 61z" />
    <glyph glyph-name="W" unicode="W" horiz-adv-x="1092" 
d="M1088 537q-153 -333 -279 -737h-90q-9 31 -45 104q-24 -15 -32 -47q-1 -4 -5 -46q-12 92 -130 92q-39 0 -75 -32t-39 -71h-90q-68 174 -223 504q-10 21 -51 95q-34 61 -34 68q0 29 15 37q86 46 186 104q6 -26 23 -81q16 2 32 41h18q15 0 96 -48q-6 -9 -6 -17
q0 -12 24 -36q-15 -14 -41 -45q30 -10 57 -10q3 -7 3 -18q0 -8 -1 -18q8 -7 22 -19q-2 -2 -32 -63q-13 -26 -40 -26q-6 0 -22 2t-22 -3l67 -167l107 274q-2 5 -33 67q-19 38 -19 46q0 32 14 40q32 19 84 42q80 37 85 39q5 -17 47 -122q7 -2 16 -2q39 0 83 33.5t44 71.5
q0 6 -1 11q3 -8 1 -26l-3 -26q0 -23 33 -58.5t56 -42.5q24 38 35 81q6 22 22 86zM891 427q-72 35 -96 89q0 -6 -4 -18.5t-4 -18.5q0 -23 22 -48t45 -25q18 0 37 21zM934 355v16h-10v-16h10zM833 397q-39 26 -56 50v-45q12 -9 25 -9q5 0 15.5 2t15.5 2zM879 400l-40 -32
q-11 -12 -11 -37q0 -10 6.5 -23.5t14.5 -16.5q6 18 15 54.5t15 54.5zM775 484v26q-53 -37 -91 -37q-9 0 -17 2q0 -6 3 -17t3 -16q5 0 16 -3.5t17 -3.5q18 0 40 11q29 15 29 38zM821 377q-28 -15 -28 -31q0 -10 16 -20q0 26 12 51zM781 375v10h-16v-10h16zM763 440
q-27 -18 -62 -18q12 -12 12 -21h32q4 4 18 39zM742 364l-8 9l-6 -6l8 -8zM1061 520q-7 0 -23 -13q-60 -121 -128 -311q-34 -95 -119 -346q-11 -18 -21 -18q11 -11 12 -14h22q0 35 2 41q72 219 110 323q73 200 145 338zM804 304q-12 12 -12 21h-26q-17 -17 -17 -40
q20 22 55 19zM679 404l-8 3l-7 -15l8 -4zM839 257v21q-26 13 -46 13q-21 0 -40 -19q0 -22 14 -33q7 4 72 18zM737 309v21h-10v-21h10zM714 327l-6 6l-15 -14l6 -7zM833 238h-36q-8 0 -17.5 -6.5t-9.5 -13.5q13 -24 32 -66q10 31 31 86zM348 510q-65 41 -78 41q-11 0 -43 -51
q3 1 37 16q27 12 35 12q6 0 24.5 -10t24.5 -8zM356 467l-9 3l-7 -14l8 -4zM336 485q-13 10 -37 31q-15 -14 -23 -14q48 -3 48 -39q0 -8 -3 -16q7 14 15 38zM388 392v10h-27v-10h27zM307 453v21l-26 7q-26 -25 -24 -34q7 0 19 -12q9 18 31 18zM668 93h-10l-6 -27h10zM272 497
q-6 -1 -40 -18q6 -5 8 -15q11 11 32 33zM406 352l-12 3q-16 -23 -15 -47q8 16 27 44zM330 390q0 3 -4 9.5t-4 9.5q0 -4 -4 -12.5t-4 -12.5q6 0 16 6zM568 172q0 8 -10 26t-10 23q-16 -34 -49 -103q14 4 41.5 23t27.5 31zM377 376q-23 11 -40 11q23 -24 23 -29
q-22 -33 -38 -33q-7 0 -32 3q4 0 4 -5q0 -3 -2 -9q13 3 73 6q0 7 12 56zM342 364l-14 13q-28 -18 -49 -25q29 -15 43 -15q8 0 14 9t6 18zM240 425l-6 6l-15 -14l6 -6zM591 120q0 8 -7 20l-7 12q-19 -19 -47 -38l-43 -29l11 -7q11 -7 18 -7q11 0 39 13q36 17 36 36zM602 73
v21q-20 -13 -57 -32q1 0 11.5 -4t16.5 -4q20 0 29 19zM376 307q-54 -6 -73 -6v-12q48 -10 51 -10q10 0 22 28zM269 334l-8 3l-8 -14l9 -4zM765 -172l-4 8l-13 -7v-8zM672 -79q0 6 -14 34q-27 -26 -27 -40q0 -6 4 -16.5t4 -12.5q1 2 17 15t16 20zM573 13q0 15 -39 34
q12 -48 12 -68q27 18 27 34zM613 -50v27l-38 7l-13 -15q37 -12 51 -19zM527 7q0 21 -12.5 40t-32.5 23v-18q-1 -10 8 -19q8 -89 7 -95q30 31 30 69zM619 -114v27q-37 42 -66 42q-20 0 -52 -38q73 1 118 -31zM544 254q-12 0 -26 -7q-55 -128 -74 -179q-24 -92 -58 -189
q-21 -59 -50 -54q35 0 45 -8q0 27 17 43q-3 12 -2 34q14 44 121 335q1 2 27 25zM401 47l-4 9l-28 -13v-9zM481 -19q0 29 -9 55l-54 -161q63 37 63 106z" />
    <glyph glyph-name="X" unicode="X" horiz-adv-x="792" 
d="M771 148q-6 -53 -18 -113q-16 2 -28 -10q2 -6 15.5 -21.5t13.5 -31.5q0 -21 -63 -76l-77 -67q-34 39 -110 113q-48 38 -147 121l-200 -291l-50 72q-33 48 -33 57q0 4 37 73t37 78q0 61 -48 110q-41 42 -86 42q-7 0 -14 -1q58 -6 96 38q35 40 35 100q0 16 -2 21
q-55 89 -55 104q0 26 30 69q7 10 46 64q10 14 41 38q36 28 46 38l228 -309l195 297q24 -44 71 -128l-223 -270q0 -5 20 -24q10 19 10 33h112q13 -44 41 -40q-6 -22 -23 -59l10 -9q17 8 52 23q13 -35 41 -41zM707 537q-75 -75 -219 -242q-13 -15 -12 -37zM725 159v9h-21v-9
h21zM670 201v21h-10v-21h10zM756 104v33h-10v-33h10zM646 255l-96 8q-5 -14 -5 -25q0 -15 9 -26l35 33q17 11 57 10zM644 201v27q-18 3 -49 12q0 -8 -12 -21q6 0 17 2t17 2q11 0 27 -22zM731 93v50q-8 0 -22.5 2t-22.5 2q28 -21 28 -32q0 -8 -13 -24.5t-21 -19.5q20 7 51 22
zM628 192q-5 8 -14 20q-26 -16 -26 -31q0 -12 9 -20q21 10 31 31zM696 93v27q-5 0 -14 6q-25 -25 -25 -33q7 -3 20 -2q25 2 19 2zM747 80q-3 -1 -50 -25l14 -14q16 8 31 6q0 6 2.5 17t2.5 16zM585 214l-8 5l-14 -20l8 -6zM636 104v16h-10v-16h10zM742 -44q0 16 -9 16
q-114 -78 -114 -120q13 29 53.5 64.5t69.5 39.5zM156 370l-15 15l-5 -6l13 -14zM245 253q0 3 -6 13.5t-6 13.5q-27 0 -38 5q6 -13 18 -32h32zM303 192q-6 5 -14 8q-8 0 -17 -7t-9 -15q0 -13 15 -29q0 18 25 43zM200 241q0 7 -15 22q-9 -27 -31 -50h27q19 16 19 28zM219 184
v16h-10v-16h10zM171 278q0 14 -26 54q3 -27 -23 -69q-23 -38 -48 -56h50q8 9 36 37q11 11 11 34zM262 139q-18 27 -32 27q-5 -5 -12 -16.5t-12 -16.5q20 7 40 7q8 0 16 -1zM206 169q0 8 -19 25h-38q29 -31 36 -56q21 21 21 31zM262 119l-13 4q-10 3 -30 3q-15 -11 -47 -61
q43 14 51 18q25 13 39 36zM177 106q0 20 -21 54t-40 34h-36q27 -9 51.5 -49t24.5 -70q21 24 21 31zM351 91q-22 -8 -53 -54l-48 -72q-90 -135 -90 -142q0 -8 9 -17q28 72 82 147zM202 -43l-8 5l-19 -26l7 -5z" />
    <glyph glyph-name="Y" unicode="Y" horiz-adv-x="674" 
d="M657 476q0 -5 -97 -135q-111 -149 -151 -216q-7 -12 -7 -40v-44q0 -23 -3 -78q0 -17 -1 -35q-1 -17 7 -49t8 -47v-32h-191q-18 12 -18 49q0 15 4 44t4 44q-19 15 -100 52q3 14 3 20q0 18 -20 31q17 27 45 46q-12 7 -33 10q-28 4 -34 6q0 2 2.5 9.5t2.5 11.5q0 14 -23 25
q24 43 34 57q26 38 46 38q5 0 11 -2v0q-13 19 -91 126q-57 78 -57 86q0 6 4 16.5t4 13.5q78 55 143 112q35 -59 43 -68q19 -17 65 -17q109 0 135 108q-5 -15 -5 -30q0 -42 37 -76q32 -30 76 -42q29 43 87 125q6 -8 44 -69q26 -41 26 -50zM493 456q-27 6 -62 34
q-38 30 -44 54q0 -6 -4 -18.5t-4 -18.5q0 -20 24 -45.5t44 -25.5q10 0 46 20zM425 428q-22 14 -50 42q0 -3 -3.5 -12t-3.5 -14q0 -10 11.5 -17.5t22.5 -7.5q14 0 23 9zM372 538q-32 -36 -129 -47q33 -32 54 -32q10 0 34.5 11.5t28.5 19.5q3 16 12 48zM418 407
q-28 -14 -28 -31q0 -6 8 -20q9 17 20 51zM355 464q-27 -18 -61 -18q21 -21 34 -21q21 0 27 39zM350 405v10h-15v-10h15zM402 335q-21 21 -29 21q-10 0 -27 -39q27 18 56 18zM311 386v19q-6 11 -27 31v-56q5 -2 9 -2q9 0 18 8zM264 413v26q2 19 -32 36q13 -38 32 -62z
M640 467q-5 6 -14 9l-135 -162q-69 -83 -116 -175q-18 -35 -15 -116q0 -7 1 -21t1 -12q0 -37 15 -108q-5 47 0 117l8 117q1 19 6 26q78 109 120 166q72 97 129 159zM401 321q-10 0 -28 -13t-22 -23l14 -14q23 24 36 50zM339 342q0 19 -33 19q10 -16 25 -44l4 9q4 9 4 16z
M390 212v10h-16v-10h16zM372 206v10h-20v-10h20zM279 33v101h-10v-101h10zM162 204q0 3 -2.5 10.5t-2.5 10.5q-6 0 -16.5 3t-15.5 3q-17 -37 -17 -33q17 6 54 6zM191 162q-7 0 -21.5 3.5t-21.5 3.5q-3 -3 -6.5 -10t-6.5 -10l13 -14l26 10q11 6 17 17zM180 183l-43 8
q-9 -3 -22 -8q-14 -18 -14 -37q0 -9 15 -17l24 -10q-22 22 -22 29q18 38 31 38q5 0 15.5 -1.5t15.5 -1.5zM214 58q0 13 -7 14q-24 -12 -37 -12v-27q4 0 13 -3t13 -3q18 19 18 31zM285 3h-10l-12 -129h10zM396 -182q-14 27 -14 38q-4 -27 -31 -31q8 0 22.5 -3.5t22.5 -3.5z
M206 13q-9 0 -50 13v41q-14 -25 -15 -44q25 -25 39 -25q5 0 16 8zM137 57l-8 5l-13 -20l7 -5zM213 -41v39l-17 -11q-9 -6 -19 -6q-7 0 -24.5 10.5t-23.5 10.5q31 -15 84 -43zM338 -174v10h-49v-10h49z" />
    <glyph glyph-name="Z" unicode="Z" horiz-adv-x="679" 
d="M659 568l-320 -520q12 -8 31 -25q3 3 11.5 8.5t11.5 8.5q13 -12 35 -57q9 8 32 57q14 0 30 -17l17 17q4 0 41 -40.5t37 -45.5q0 -7 -11 -21.5t-12 -19.5q14 -4 37 -4q22 0 54 4q-12 -39 -41 -118l-482 5q-13 4 -75 8q-42 65 -42 89l91.5 155.5t91.5 178.5q0 40 -40.5 70
t-82.5 30q-10 0 -30 -4.5t-30 -4.5q8 3 30 11q32 14 48 72q8 28 8 43q0 73 -43 73q-11 0 -25 -6q15 39 41 113h492q5 0 13.5 1t13.5 1q45 0 68 -62zM379 518h-40q27 -14 33 -14q0 5 7 14zM313 546q-45 0 -71 -7q4 1 34 0q23 -1 23 7h14zM362 489q-2 1 -28 18q-20 13 -27 12
h-48q41 -56 63 -56q17 0 40 26zM641 564q-5 0 -14 7q-203 -291 -315 -519zM305 454q-37 25 -56 43v-38q11 -13 26 -13q10 0 30 8zM442 500q0 6 -4.5 15.5t-4.5 10.5q-3 -43 -38 -93l-60 -86q-13 -32 -43 -85q-15 -19 -39 -31q35 1 63 46q23 37 24 61q23 13 25 18
q77 132 77 144zM228 546h-20q-1 -2 -5 -2q-8 0 -25 2t-25 2q-39 0 -60 -15q6 0 17.5 5t17.5 5q17 0 50 1.5t50 1.5zM298 433q-9 -3 -18.5 -13.5t-9.5 -19.5q0 -7 16 -23q0 37 12 56zM230 519q-48 -6 -114 -6q19 -27 57 -27q21 0 28 3q15 6 29 30zM230 464v21q-20 -6 -57 -16
q24 -18 32 -18q13 0 25 13zM215 415l-9 9l-6 -6l8 -8zM282 362q-16 15 -26 15q-16 0 -31 -33q54 18 57 18zM190 417q0 10 -11.5 23t-21.5 16q2 -12 2 -24q0 -24 -8 -49q39 20 39 34zM275 348q-55 -35 -55 -49v-19q11 6 31 31t24 37zM145 431q0 33 -39 66q8 -41 2 -88
q-1 -7 -7.5 -24.5t-6.5 -23.5q19 2 35 26t16 44zM212 343v33q-21 4 -36 2q-22 -3 -14 -3q26 -9 50 -32zM535 -2l-26 26l-6 -6l25 -25zM568 -51q0 7 -21 28q-7 -25 -15 -68q36 16 36 40zM207 312q-3 6 -22 33q-15 21 -40 21q-12 0 -52 -27q70 -18 107 -59zM533 -25
q-14 11 -43 31q-13 -12 -30 -34q11 11 28 11q10 0 19 -13t9 -24q0 -7 -4.5 -19.5t-4.5 -17.5q12 23 26 66zM505 -54q-10 19 -28 19q-12 -25 -12 -36q0 -7 7 -14l6 -6q11 13 27 37zM400 0q0 16 -7 23q-5 -5 -8 -16q5 0 15 -7zM458 -94v10l-55 6v-10zM402 -21q-10 5 -32 27
q-15 -15 -36 -24q-1 -8 -1 -16q0 -35 21 -63q0 5 -7.5 21.5t-7.5 24.5q0 13 26 40q11 -6 37 -10zM396 -73q-6 12 -6 38q-3 0 -10.5 3t-10.5 3q-13 -13 -13 -22q0 -7 8 -18q11 -15 12 -17q12 13 20 13zM351 13q-63 -35 -63 -62q0 -7 31 -48q2 6 2 12q0 9 -4.5 25.5t-4.5 25.5
q0 28 39 47zM322 18q0 19 -9 28q-40 -58 -45 -64q-28 -45 -30 -68q12 14 30 37q4 15 15 39q14 9 39 28zM630 -121q-21 -13 -44 -52h-430q94 0 291 -2q109 -1 159 -13q0 32 24 67zM258 179v38q-75 -147 -181 -319zM292 -96q0 14 -13 27q-14 -13 -14 -27h27zM99 -166l-3 8
l-13 -7v-8z" />
    <glyph glyph-name="a" unicode="a" horiz-adv-x="896" 
d="M888 -64l-181 -136q-45 72 -145 239q-17 -14 -30 -61q-11 -40 -11 -70q0 -28 33 -55q-1 -4 -8 -14q-25 31 -47 37q-7 2 -42 2q-45 0 -71 -19q-22 -17 -44 -59q7 27 -1 58q-5 19 -47 50t-62 31q-52 0 -84 -57l-46 -82q-86 86 -86 108q0 5 46 59q63 74 80 98q34 48 113 167
q94 143 94 154q0 8 -24 41l-43 60q91 57 159 174q16 -30 50 -89q8 14 26 44q32 -10 102 -22q7 -5 7 -13q0 -7 -5 -17q8 -7 28 -15v-19q0 -7 -12 -21q-14 -17 -16 -22q3 -3 16 -2q35 3 45 3q-2 -5 -2 -10q0 -28 29 -29q-7 -39 -27 -97q-17 -3 -55 -11zM629 523v20h-10v-20h10
zM610 574q-39 16 -87 26q-9 -18 -17 -55q52 38 60 38t22 -4.5t22 -4.5zM670 464v9l-26 7v-10zM604 554q-4 0 -16.5 6.5t-19.5 6.5q-5 0 -11 -5.5t-6 -9.5q0 -2 1 -2q8 2 15 2q30 0 30 -29q0 -6 -1 -12zM665 401v48q-13 5 -37 17q1 -2 11 -16.5t10 -19.5q0 -8 -16 -34
q5 0 16 2.5t16 2.5zM582 526q-5 5 -6 12h-20q-14 -14 -23 -36l25 -7q24 27 24 31zM616 458l-15 14l-19 -21h26zM537 544q-8 0 -21 -14q5 -5 8 -13q13 13 13 27zM632 437q-3 2 -9 2q-5 0 -16.5 -3t-17.5 -3v-21h37q0 4 3 12.5t3 12.5zM562 462l-7 16l-8 -3l7 -13h8zM675 394
q-13 -7 -65 -24q6 -6 7 -14q19 6 53 6q0 5 2.5 16t2.5 16zM631 387v9h-31v-9h31zM568 443h-10l-6 -31h10zM412 390v15h-10v-15h10zM865 -63q-5 0 -13 7q-64 -39 -135 -96v-20q49 51 148 109zM548 62q-17 40 -36 102l-32 103q-31 -77 -31 -95q0 -23 37 -62t62 -48zM466 280
q0 8 -9.5 25t-9.5 23l-142 -205h41q14 0 46 19.5t38 31.5q36 75 36 106zM538 54q-17 -1 -55 36q-36 34 -43 54q0 -5 -4 -17.5t-4 -18.5q0 -23 22 -46t45 -23q15 0 39 15zM471 31q-30 20 -48 47q0 -5 -3.5 -15.5t-3.5 -15.5q0 -10 11 -17.5t22 -7.5q14 0 22 9zM425 144
q-26 -25 -69 -32q-12 -2 -62 -3q21 -22 28 -27q14 -10 35 -10q32 0 48 21q11 15 20 51zM538 32h-20q-58 -37 -58 -65q0 -31 49 -64q-2 8 -2 18q0 58 31 111zM459 10q-27 -13 -27 -29q0 -6 8 -20q8 16 19 49zM403 72q-19 -13 -59 -13q11 -11 11 -20h37q11 11 11 33zM431 361
q-96 -122 -156 -235q-8 -16 -97 -144q-79 -114 -79 -132q0 -7 9 -17q4 25 23 58.5t38 48.5q5 30 49 92q37 52 68 82q-1 25 55 107q73 107 90 140zM443 -59q-11 11 -11 19h-32q-12 -23 -11 -32q19 13 54 13zM355 14q0 15 -21 36q0 -39 -17 -72q38 18 38 36zM493 -109
q-11 11 -31 23q-23 14 -35 14q-18 0 -36.5 -17.5t-18.5 -35.5q0 -4 1 -8q36 25 120 24zM316 36q0 26 -27 53q2 -8 2 -17q0 -44 -33 -110q24 5 41 27t17 47zM376 -35q-13 5 -49 5q12 -6 42 -36q0 5 3.5 15.5t3.5 15.5zM360 -110q0 21 -17.5 46t-37.5 25q-7 0 -24 -7
q-20 -8 -26 -9q25 -14 51 -27q30 -19 45 -46q9 9 9 18zM274 34q1 3 1 4v0q0 -1 -1 -2v4q1 5 4 19q-5 20 -7 20q-6 -15 -27 -53q-33 -54 -38 -64q22 5 51 42q4 5 17 30z" />
    <glyph glyph-name="b" unicode="b" horiz-adv-x="741" 
d="M718 30q0 -129 -131 -189q-89 -41 -201 -41h-347q-1 1 -37 38v737q10 11 20.5 22.5t24.5 13.5q18 3 57 4q34 1 69 -1l38 -2q22 -1 55 0l56 2q127 5 202 -31q93 -44 93 -162q0 -55 -19 -81q-27 -36 -113 -65q127 -60 172 -101q61 -56 61 -144zM509 403q0 10 -4 30t-4 30
l-10 -15q0 -7 1.5 -22t1.5 -22q-1 -10 -10 -29l-9 -19q34 10 34 47zM596 390q0 10 -3.5 32.5t-2.5 34.5q0 -111 -68 -137q-33 -13 -43 -17q-26 -14 -28 -31q15 21 72 43q73 28 73 75zM404 452v22h-11v-22h11zM436 392v35l-16 -15q5 -7 16 -20zM269 562v11h-34v-11h34z
M342 429l-15 16q-6 -5 -8 -16h23zM425 366q-21 -6 -53 -22q8 -12 22 -12zM419 489q-47 36 -73 43q-76 20 -121 20h-19v-262q29 9 64 8q-23 14 -48 37q1 11 20 58q21 52 34 52q4 0 9.5 -3t8.5 -3q5 0 15 12t12 12q9 0 26 -16q24 -23 29 -26q1 6 1 13q0 6 -1.5 17t-1.5 17
q0 17 18 25q4 -4 27 -4zM360 353q-6 5 -19 32h-28v-28q3 -3 16.5 -11t16.5 -8zM348 317q-36 17 -44 29q-4 6 -4 27q0 26 1 28q6 8 41 5q-4 0 -34 15q-26 -39 -26 -45q0 -9 15 -34l24 -40q3 3 13.5 7.5t13.5 7.5zM126 550v11h-40v-11h40zM408 265l-3 9l-38 -13v-9zM306 303
q-42 55 -42 73q0 6 23 51q-25 -33 -46 -87q23 -17 65 -37zM204 569q-9 -1 -20.5 -9t-11.5 -16q2 -37 0 -66l-2 -41q-1 -12 -1 -7q0 -74 10 -134v253q12 11 25 20zM467 113q-44 49 -112 62q8 -25 17 -49q15 -27 48 -27q22 0 47 14zM319 218l-4 8l-14 -7v-9zM560 63l-8 -54
q-5 -35 -20 -55q-23 -25 -57 -70q9 11 33.5 27t33.5 28q20 28 20 88q0 17 -2 36zM475 98q-55 -17 -55 -68q0 -30 40 -62q-6 15 -6 32q0 20 8 48q12 42 13 50zM402 84q-27 13 -46 32q1 -12 10.5 -26.5t20.5 -14.5q14 0 15 9zM413 74q-24 -11 -35 -32q13 -26 29 -29
q-2 8 -2 18q0 18 8 43zM342 173q0 14 -7 15h-26q-80 -31 -98 -31q18 -29 59 -29q22 0 45 12q27 14 27 33zM282 191q-27 9 -48 9q-16 0 -29 -6v-23q57 11 77 20zM273 227q-10 0 -31 4.5t-31 4.5q-41 0 -41 -39q0 -9 2 -21q12 54 39 54q10 0 31 -1.5t31 -1.5zM694 18
q0 8 -4 22.5t-4 22.5q2 -19 2 -36q0 -161 -248 -191q-54 -7 -164 -15h15q40 0 65 1l50 2q12 3 47 9q241 28 241 185zM335 106v28q-23 -10 -65 -26q4 -2 19 -12q11 -9 20 -9q8 0 26 19zM337 74l-4 9l-14 -8v-8zM396 -7q-13 12 -13 21h-27q-12 -11 -12 -41q29 20 52 20z
M294 60q0 8 -7.5 17t-15.5 9q0 -10 -2.5 -29.5t-2.5 -29.5q28 15 28 33zM438 -69l-4 8l-55 -31v-9zM449 -42q-35 21 -44 21q-19 0 -39 -13q-30 -19 -30 -56q0 -10 2 -20q46 44 111 68zM198 145q-3 0 -10.5 -2.5t-10.5 -2.5v-26q0 10 21 31zM258 75q0 14 -52 65v-137
q20 8 36 29.5t16 42.5zM330 -5q-13 26 -36 26q-5 0 -36 -15q39 -13 64 -39q0 4 4 14t4 14zM79 -36l-9 559q-1 -19 1 -88l2 -65v-292q0 -103 -9 -206q3 15 7.5 46t7.5 46zM324 -71q-7 19 -40 43.5t-53 24.5q-8 0 -26 -19q24 0 62.5 -29.5t47.5 -53.5zM305 -127q-4 25 -37 53
q-29 25 -57 35v-89q24 -6 43 -6q9 0 25.5 3.5t25.5 3.5zM183 -139v105h-11v-105h11zM233 -191v11h-27v-11h27zM198 -180q-22 16 -32 16q-17 0 -51 -4.5t-51 -4.5q86 0 134 -7z" />
    <glyph glyph-name="c" unicode="c" horiz-adv-x="635" 
d="M637 231q-5 1 -50 1q-43 0 -85 -33q-45 -35 -45 -77q0 -23 58 -161q4 -10 35 -10q32 0 53 5v-25q0 -13 -31 -112q-81 -19 -165 -19q-175 0 -285 106q-113 107 -113 281q0 153 73 244q-11 13 -50 26q7 59 17 111q5 -1 9 -1q13 0 24 8.5t12 20.5q20 -11 57 -28q3 8 1 28
t-2 33q5 -1 9 -1q12 0 21.5 8.5t8.5 20.5h18q7 1 40 -15q42 -20 51 -24q-2 6 -2 -29q0 -21 18 -21q15 0 45 5.5t45 5.5q111 0 171 -105q-13 3 -40 -32t-27 -50q0 -36 30 -91q26 -47 36 -51q20 -5 63 -19zM637 231q-30 6 -63 19q-10 4 -36 51q-30 55 -30 91q0 15 27 50t40 32
q-60 105 -171 105q-15 0 -45 -5.5t-45 -5.5q-18 0 -18 21q0 35 2 29q-86 40 -91 39h-18q1 -12 -8.5 -20.5t-21.5 -8.5q-4 0 -9 1q0 -13 2 -33t-1 -28q-19 11 -57 28q-1 -12 -12 -20.5t-24 -8.5q-4 0 -9 1q-10 -52 -17 -111q39 -13 50 -26q-73 -91 -73 -244q0 -174 113 -281
q110 -106 285 -106q84 0 165 19q31 99 31 112v25q-21 -5 -53 -5q-31 0 -35 10q-58 138 -58 161q0 42 45 77q42 33 85 33q45 0 50 -1zM637 231q-5 1 -50 1q-43 0 -85 -33q-45 -35 -45 -77q0 -23 58 -161q4 -10 35 -10q32 0 53 5v-25q0 -13 -31 -112q-81 -19 -165 -19
q-175 0 -285 106q-113 107 -113 281q0 153 73 244q-11 13 -50 26q7 59 17 111q5 -1 9 -1q13 0 24 8.5t12 20.5q20 -11 57 -28q3 8 1 28t-2 33q5 -1 9 -1q12 0 21.5 8.5t8.5 20.5h18q7 1 40 -15q42 -20 51 -24q-2 6 -2 -29q0 -21 18 -21q15 0 45 5.5t45 5.5q111 0 171 -105
q-13 3 -40 -32t-27 -50q0 -36 30 -91q26 -47 36 -51q20 -5 63 -19zM547 477q-14 0 -40.5 3.5t-40.5 3.5q-84 0 -126 -28q35 -32 66 -41q14 -4 49 -4h14q8 -1 10 -1q11 0 22 11q7 7 46 56zM283 612q-22 11 -33 11q10 -18 25 -66zM239 630l-38 13v-8l35 -13zM547 256
q-49 64 -52 127q-32 -29 -32 -67q0 -61 84 -60zM258 552v21h-10v-21h10zM249 580q-5 11 -5 32h-55q0 -18 -11 -38q5 5 15 14t15 14q26 -13 41 -22zM482 399q-86 -3 -130 23q26 -67 80 -67q16 0 30.5 14t19.5 30zM514 499q-54 13 -73 13q-174 0 -246 -173q51 86 102 124
q61 44 152 44q37 0 65 -8zM514 499q-54 13 -73 13q-174 0 -246 -173q51 86 102 124q61 44 152 44q37 0 65 -8zM179 618h-8l-7 -19l8 -3zM233 541v31q-7 4 -19 13l-14 -14q12 -26 12 -36q7 6 21 6zM457 272q-13 40 -13 49l-9 -37q12 -12 22 -12zM440 343q-31 0 -66 11
q19 -38 33 -38q20 0 33 27zM245 484l-3 8l-13 -7v-8zM409 302l-8 3l-7 -14l8 -4zM536 242q-6 0 -17 3.5t-17 3.5q-23 0 -45 -23.5t-22 -46.5q0 -7 14 -31q5 28 87 94zM124 565q-3 0 -17 14l-8 -14h25zM469 252q-7 0 -22 1t-22 1q-3 -10 -1 -25t2 -20q21 32 43 43zM417 255
q0 14 -7 22q-13 -14 -13 -22h20zM328 425v25q-31 -6 -66 -51.5t-30 -76.5q28 4 62 39.5t34 63.5zM385 287l-3 8l-13 -6v-9zM373 319q0 6 -3 13l-4 6q-31 -31 -49 -43q4 0 13.5 -3.5t14.5 -3.5q11 0 19.5 10t8.5 21zM357 369q0 7 -21 42q-1 -28 -31.5 -60.5t-60.5 -43.5
q8 0 22.5 -4t22.5 -4q20 0 44 25t24 45zM149 498q-15 30 -33 30l-6 -3q-6 -4 -6 -10q0 -18 31 -31zM127 543l-7 4q-7 4 -13 4q-10 0 -20.5 -14t-10.5 -25t16 -19q-2 8 -2 16q0 36 26 36q5 0 11 -2zM127 543l-7 4q-7 4 -13 4q-10 0 -20.5 -14t-10.5 -25t16 -19q-2 8 -2 16
q0 36 26 36q5 0 11 -2zM412 205q-7 13 -25 32q-2 -1 -30 -26q34 2 55 -6zM121 476q-3 0 -10 2.5t-10 2.5q6 0 5 -13q5 0 15 8zM362 249q0 14 -19 24q-15 8 -31 8q15 -21 30 -66q20 30 20 34zM98 449q-2 4 -23 32q-15 20 -15 28v6q10 19 10 25q0 9 -9 17q-6 -41 -18 -88
q30 -20 55 -20zM435 143q-6 6 -6 14q-3 11 -27.5 26t-36.5 15q-27 0 -53 -49q13 4 56 4q35 0 67 -10zM323 198q0 27 -14 58q-16 37 -40 37h-19q47 -45 47 -113q0 -8 -1 -15q27 26 27 33zM203 478q-4 -8 -31 -32q-95 -84 -100 -194l-4 -93q5 63 10 94q9 56 27 92q11 22 46 58
l52 54v21zM284 170q0 39 -16 72q-18 39 -51 51v-114q0 -22 30 -82q27 29 33 41q4 8 4 32zM502 -48l-26 82q-21 65 -34 81q-23 27 -80 27q-49 0 -70 -14q-36 -24 -36 -48q0 -41 92 -85q77 -37 130 -43h24zM514 -105l-3 8l-19 -7v-8zM479 -107v10h-37v-10h37zM586 -78
q-18 -4 -26 -30q-2 -7 -9 -38q-6 -13 -58 -18q-33 -1 -66 -3q-20 -3 -65 -8h20q30 0 90.5 2t90.5 2q-3 21 3.5 50.5t19.5 42.5zM201 137v15h-9v-15h9zM78 115v43h-10v-43h10zM350 -174v10h-21v-10h21zM547 477q-39 -49 -46 -56q-11 -11 -22 -11q-2 0 -10 1h-14q-35 0 -49 4
q-31 9 -66 41q42 28 126 28q14 0 40.5 -3.5t40.5 -3.5zM283 612l-8 -55q-6 22 -25 66q11 0 33 -11zM239 630l-3 -8l-35 13v8zM547 256q-84 -1 -84 60q0 38 32 67q3 -63 52 -127zM258 552h-10v21h10v-21zM249 580q-15 9 -41 22q-5 -5 -15 -14t-15 -14q11 20 11 38h55
q0 -21 5 -32zM482 399q-5 -16 -19.5 -30t-30.5 -14q-54 0 -80 67q44 -26 130 -23zM514 499q-28 8 -65 8q-91 0 -152 -44q-51 -38 -102 -124q72 173 246 173q19 0 73 -13zM179 618l-7 -22l-8 3l7 19h8zM233 541q-14 0 -21 -6q0 10 -12 36l14 14q6 -4 19 -13v-31zM457 272
q-10 0 -22 12l9 37q0 -9 13 -49zM440 343q-13 -27 -33 -27q-14 0 -33 38q35 -11 66 -11zM245 484l-16 -7v8l13 7zM409 302l-7 -15l-8 4l7 14zM536 242q-40 -32 -51 -43q-33 -32 -36 -51l-7 12q-7 12 -7 19q0 23 22 46.5t45 23.5q6 0 17 -3.5t17 -3.5zM124 565h-25l8 14
q5 -7 17 -14zM469 252q-22 -11 -43 -43q-3 14 -1 45q7 0 22 -1t22 -1zM417 255h-20q0 8 13 22q7 -8 7 -22zM328 425q0 -28 -34 -63.5t-62 -39.5q-5 31 30 76.5t66 51.5v-25zM385 287l-16 -7v9l13 6zM373 319q0 -11 -8.5 -21t-19.5 -10q-5 0 -14.5 3.5t-13.5 3.5q18 12 49 43
l4 -6q3 -7 3 -13zM357 369q0 -20 -24 -45t-44 -25q-8 0 -22.5 4t-22.5 4q30 11 60.5 43.5t31.5 60.5q21 -35 21 -42zM149 498l-14 -14q-31 13 -31 31q0 6 6 10l6 3q18 0 33 -30zM127 543q-6 2 -11 2q-26 0 -26 -36q0 -8 2 -16q-16 8 -16 19t10.5 25t20.5 14q6 0 13 -4z
M412 205q-21 8 -55 6q9 10 30 26q11 -5 25 -32zM121 476q-10 -8 -15 -8q1 13 -5 13q3 0 10 -2.5t10 -2.5zM362 249q0 -4 -20 -34q-6 22 -30 66q16 0 31 -8q19 -10 19 -24zM98 449q-25 0 -55 20q12 47 18 88q9 -8 9 -17q0 -6 -10 -25v-6q0 -8 15 -28q21 -28 23 -32zM435 143
q-32 10 -67 10q-43 0 -56 -4q26 49 53 49q12 0 36.5 -15t27.5 -26q0 -4 6 -14zM323 198q0 -7 -27 -33q1 7 1 15q0 68 -47 113h19q24 0 40 -37q14 -31 14 -58zM203 478v-21q-10 -11 -52 -54q-35 -36 -46 -58q-26 -52 -37 -186l4 95q5 107 100 192q17 15 31 32zM284 170
q0 -24 -4 -32q-6 -12 -33 -41q-30 60 -30 82v114q33 -12 51 -51q16 -33 16 -72zM502 -48h-24l-72 20q-33 9 -69 29q-81 45 -81 79q0 24 36 48q21 14 70 14q57 0 80 -27q13 -16 34 -81zM514 -105l-22 -7v8l19 7zM479 -107h-37v10h37v-10zM586 -78q-13 -13 -19.5 -42.5
t-3.5 -50.5q-30 0 -90.5 -2t-90.5 -2h-20q19 1 64 8q41 6 65 6q32 0 35 1q19 2 25 14q6 29 11 40q9 25 24 28zM201 137h-9v15h9v-15zM78 115h-10v43h10v-43zM350 -174h-21v10h21v-10zM547 477q-14 0 -40.5 3.5t-40.5 3.5q-84 0 -126 -28q35 -32 66 -41q14 -4 49 -4h14
q8 -1 10 -1q11 0 22 11q7 7 46 56zM283 612q-22 11 -33 11q10 -18 25 -66zM239 630l-38 13v-8l35 -13zM547 256q-49 64 -52 127q-32 -29 -32 -67q0 -61 84 -60zM258 552v21h-10v-21h10zM249 580q-5 11 -5 32h-55q0 -18 -11 -38q5 5 15 14t15 14q26 -13 41 -22zM482 399
q-86 -3 -130 23q26 -67 80 -67q16 0 30.5 14t19.5 30zM179 618h-8l-7 -19l8 -3zM233 541v31q-7 4 -19 13l-14 -14q12 -26 12 -36q7 6 21 6zM457 272q-13 40 -13 49l-9 -37q12 -12 22 -12zM440 343q-31 0 -66 11q19 -38 33 -38q20 0 33 27zM245 484l-3 8l-13 -7v-8zM409 302
l-8 3l-7 -14l8 -4zM536 242q-6 0 -17 3.5t-17 3.5q-23 0 -45 -23.5t-22 -46.5q0 -7 14 -31q5 28 87 94zM124 565q-3 0 -17 14l-8 -14h25zM469 252q-7 0 -22 1t-22 1q-3 -10 -1 -25t2 -20q21 32 43 43zM417 255q0 14 -7 22q-13 -14 -13 -22h20zM328 425v25q-31 -6 -66 -51.5
t-30 -76.5q28 4 62 39.5t34 63.5zM385 287l-3 8l-13 -6v-9zM373 319q0 6 -3 13l-4 6q-31 -31 -49 -43q4 0 13.5 -3.5t14.5 -3.5q11 0 19.5 10t8.5 21zM357 369q0 7 -21 42q-1 -28 -31.5 -60.5t-60.5 -43.5q8 0 22.5 -4t22.5 -4q20 0 44 25t24 45zM149 498q-15 30 -33 30
l-6 -3q-6 -4 -6 -10q0 -18 31 -31zM412 205q-7 13 -25 32q-2 -1 -30 -26q34 2 55 -6zM121 476q-3 0 -10 2.5t-10 2.5q6 0 5 -13q5 0 15 8zM362 249q0 14 -19 24q-15 8 -31 8q15 -21 30 -66q20 30 20 34zM98 449q-2 4 -23 32q-15 20 -15 28v6q10 19 10 25q0 9 -9 17
q-6 -41 -18 -88q30 -20 55 -20zM435 143q-6 6 -6 14q-3 11 -27.5 26t-36.5 15q-27 0 -53 -49q13 4 56 4q35 0 67 -10zM323 198q0 27 -14 58q-16 37 -40 37h-19q47 -45 47 -113q0 -8 -1 -15q27 26 27 33zM203 478q-4 -8 -31 -32q-95 -84 -100 -194l-4 -93q5 63 10 94
q9 56 27 92q11 22 46 58l52 54v21zM284 170q0 39 -16 72q-18 39 -51 51v-114q0 -22 30 -82q27 29 33 41q4 8 4 32zM502 -48l-26 82q-21 65 -34 81q-23 27 -80 27q-49 0 -70 -14q-36 -24 -36 -48q0 -41 92 -85q77 -37 130 -43h24zM514 -105l-3 8l-19 -7v-8zM479 -107v10h-37
v-10h37zM586 -78q-18 -4 -26 -30q-2 -7 -9 -38q-6 -13 -58 -18q-33 -1 -66 -3q-20 -3 -65 -8h20q30 0 90.5 2t90.5 2q-3 21 3.5 50.5t19.5 42.5zM201 137v15h-9v-15h9zM78 115v43h-10v-43h10zM350 -174v10h-21v-10h21z" />
    <glyph glyph-name="d" unicode="d" horiz-adv-x="739" 
d="M731 185q0 -300 -305 -365q-94 -20 -128 -20h-265q-1 1 -34 35v679l34 34h220q4 -4 4 9q0 5 -11 22t-11 22q0 12 34 43t46 31q3 0 11.5 -8t13.5 -8q6 0 16 5l10 5q6 -6 13 -23q11 -27 14 -32q8 6 37 50l11 -8q11 -8 17 -8q4 0 10 5.5t10 5.5q10 0 38 -33.5t28 -44.5
q0 -3 -34 -53q0 -4 10 -12q211 -91 211 -331zM527 579q-7 9 -20 24q-12 -25 -22 -76q23 23 42 52zM440 638l-5 5l-14 -13l6 -6zM488 602q-13 7 -35 29q-15 -15 -36 -25q6 0 16.5 1.5t16.5 1.5q11 0 19 -19q6 -15 6 -28q0 6 6.5 20.5t6.5 19.5zM455 561v24q-6 7 -20 7
q-12 -25 -12 -33q0 -6 13 -16zM371 626q0 4 -2 13t-2 13q-5 0 -16 -7zM416 581q-3 0 -10.5 -3.5t-10.5 -3.5q5 -5 8 -14q13 13 13 21zM700 258v14h-10v-14h10zM416 541v9l-59 6v-10zM367 610l-14 18q-7 9 -16 9q-38 0 -38 -45q0 -26 11 -43q1 3 -2.5 16.5t-3.5 16.5
q0 21 28 44q12 -5 35 -16zM356 568q-4 5 -8 22q-3 13 -16 19q-14 0 -14 -22q0 -7 7 -18l13 -20zM323 658q-3 -2 -71 -51q10 -29 31 -56q0 24 3 70q32 25 37 37zM590 267h-10l-6 -31h10zM525 238q-17 113 -52 145v-35q0 -18 52 -110zM467 397q-24 32 -74 58.5t-89 26.5h-18
q22 -99 131 -99q30 0 50 14zM306 497v9h-15v-9h15zM268 502v10h-21v-10h21zM510 231q-19 23 -34 59q-18 41 -17 66q-31 -36 -31 -63q0 -35 25 -49q18 -10 57 -13zM447 371q-91 -3 -127 23q-6 -30 27 -50q26 -16 48 -16q18 0 31 13q5 5 21 30zM428 247q-19 28 -19 48l-8 -36
q11 -12 27 -12zM406 316q-32 0 -65 11q20 -37 32 -37q20 0 33 26zM375 276l-8 3l-7 -14l8 -3zM505 216q-6 0 -18.5 4t-19.5 4q-22 0 -41.5 -21t-19.5 -43q0 -6 4 -18t4 -17q3 21 37 53q31 30 54 38zM290 408q0 26 -11 52q-14 33 -36 33h-60v-208q46 13 76.5 45.5t30.5 77.5z
M433 227l-7 4q-7 4 -14 4q-24 0 -20 -50q20 32 41 42zM383 230q0 3 -3 10.5t-3 10.5q-14 -14 -14 -21h20zM340 293q0 5 -3 12l-4 7q-8 -12 -42 -49h25q24 10 24 30zM113 491v10h-25v-10h25zM318 337q0 18 -14 46q-1 -28 -32 -61t-59 -41q6 0 19.5 -4t19.5 -4q24 0 45 20
t21 44zM527 116v91q-99 -36 -99 -104q0 -26 47 -127q8 17 27 65q25 62 25 75zM378 181q-6 13 -18 32q-22 -11 -31 -26q8 0 24.5 -3t24.5 -3zM329 224q0 10 -18 26h-26q24 -48 24 -65l13 20q7 11 7 19zM67 412v58h-10v-58h10zM399 120q-4 20 -24.5 37t-40.5 17q-12 0 -54 -48
h24q23 3 60 2q12 0 35 -8zM290 182q0 23 -10 40q-4 7 -30 39h-25q39 -40 45 -125q20 30 20 46zM709 182q0 11 -4 32t-4 32q3 -23 3 -49q0 -86 -32 -160q-35 -82 -100 -126q-60 -41 -168 -66q-98 -23 -182 -23q-22 0 -65 4t-65 4q25 0 80 -7l55 -7q212 0 333 75
q149 92 149 291zM161 477q-14 -181 -14 -218q0 -224 10 -233q0 53 -4 69zM257 138q0 78 -75 129v-241q8 10 44 53q31 37 31 59zM461 -45q-20 82 -46 130q-5 9 -35 21.5t-43 12.5t-42 -6.5t-36 -12.5q-63 -71 -72 -89q-7 -14 -7 -57q0 11 3 -42q2 -34 -2 -51h34q50 0 145 34
q45 16 101 60zM65 -129v175q0 -6 -2 -17t-2 -17q0 -101 4 -141zM160 -133v147h-9v-147h9zM80 -174v9l-25 -6v-9z" />
    <glyph glyph-name="e" unicode="e" horiz-adv-x="588" 
d="M576 321q-23 -12 -59 -41q-12 -15 -12 -72q0 -66 17 -88q21 -13 48 -36q-27 18 -43 21h-33q-24 0 -70 -20q-50 -22 -50 -42v-87q4 -2 27 -2q27 0 81 3l45 -157h-494q-10 4 -35 28v684q20 28 42 32q37 1 73 1l-33 48q59 79 79 79q9 0 22 -16q8 5 22 16q11 -16 38 -54
q7 18 26 54l11 -5q10 -6 17 -6q11 0 22 17l74 -74q-24 -36 -28 -59q18 -4 51 -4q32 0 80 4l-34 -80h-76q-4 -11 -4 -44q0 -36 1 -40q6 -26 52 -56q43 -29 72 -29q5 0 33 11q33 13 38 14zM369 598q0 9 -8 16q-6 4 -12 9q-11 -55 -11 -82q31 46 31 57zM331 604q0 11 -12.5 23
t-23.5 12q-14 0 -28 -32q10 11 26 11q9 0 18 -11.5t9 -21.5q0 -3 -22 -43h21q0 11 6 31t6 31zM309 582q-4 7 -13 19h-19q1 -24 -6 -37q20 -1 38 18zM264 590q-25 -13 -25 -21h19q6 5 6 21zM466 519q-13 -8 -30 -27h-240q-18 -18 -18 -30q0 -13 9 -13q-3 20 7 29.5t30 8.5
l208 -6q19 -1 34 38zM265 549l-53 8v-15zM167 648l-12 4q-10 -4 -22 -28q14 9 34 24zM208 615q-5 2 -27 24q-12 -8 -35 -22q0 -13 3 -37.5t3 -37.5h20q-20 40 -21 43q0 11 8.5 24.5t18.5 13.5q14 0 30 -8zM205 564q-6 12 -6 36q-4 0 -13 3t-13 3l-3 -6q-3 -6 -3 -12
q0 -8 19 -36q12 12 19 12zM492 282q-25 10 -72 35q-12 -25 -12 -42q35 -17 43 -17q7 0 41 24zM407 319q-7 14 -26 31v-31h26zM138 542q-7 41 -7 52q0 19 7 28l-42 -29q24 -35 42 -51zM362 319v23q-1 -2 -20 -23h20zM369 385v79h-157v-146h106q51 50 51 67zM499 132v136
q-21 -4 -40 -27.5t-19 -45.5q0 -30 59 -63zM434 243q-9 9 -31 20l-6 -26q13 0 25 3zM395 290q-13 -20 -42 -56v-19l4 5q3 5 9 5t16 -3q6 -2 9 1q-17 8 -15 31q7 8 19 36zM139 485v9l-53 -5v-10zM191 324v118h-10v-118h10zM308 250v9h-15v-9h15zM429 156q-12 11 -12 14h-24
q-17 -8 -17 -38q35 24 53 24zM489 118q-38 25 -52 25q-62 0 -61 -76q47 48 113 51zM286 255v10h-31v-10h31zM331 198q0 11 -10.5 21t-21.5 10v-64q32 19 32 33zM363 132v26q-12 12 -21 12q-6 0 -16.5 -6.5t-11.5 -6.5q19 -9 49 -25zM287 206q0 5 -3 14.5t-3 13.5h-37
q13 -12 13 -36q0 -15 -10 -65q9 5 17 7q23 36 23 66zM362 67v30q-7 14 -27 30t-34 16q-17 0 -46 -31q75 -7 107 -45zM244 200q0 29 -26 41l-5 -125q31 41 31 84zM363 -46v78q0 29 -56 53q-46 20 -69 20q-17 0 -25 -13v-138h150zM233 265l-22 3q-10 0 -21.5 -12.5
t-11.5 -22.5l8 -281v149q0 72 10 148q1 9 14 13.5t23 2.5zM505 -177q-10 10 -13 10q-2 0 -2 -2q-41 4 -75 1l-35 -3q85 0 125 -6zM64 391q-5 29 -15 79q9 -69 9 -134v-304q0 -84 -8 -156zM429 -103l-169 -2zM369 -165l-327 -8h193q118 0 118 8h16z" />
    <glyph glyph-name="f" unicode="f" horiz-adv-x="523" 
d="M516 401q-30 -9 -54 -19q-20 -8 -37 -55q-15 -40 -15 -68q0 -18 4 -24l34 -40q-61 -61 -75 -61q-23 0 -69.5 -2t-69.5 -2q0 -44 9 -166l8 -108v-55q-22 2 -66 2q9 0 -75 -2l-42 -1q-40 -1 -40 74q0 6 3 46l2 27v434q0 14 -3 42t-3 42q-21 12 -57 49l54 93l10 -5
q9 -6 15 -6q9 0 15 9q5 6 9 13q11 -14 37 -43q6 6 11 22.5t3 23.5q3 2 34 2q7 0 11 6l10 15q31 -25 83 -71q-6 -15 -17 -47h266q-7 -14 -33 -78q-28 1 -84 -4q14 -14 27 -29q22 -20 40 -20q-5 0 55 6zM483 495q-18 -12 -46 -30h31zM209 607l-30 18l-3 -8l30 -17zM432 392
q-15 11 -60 55h-30v-17q-1 -10 21.5 -30.5t33.5 -20.5q9 0 35 13zM246 570q0 7 -9 13.5t-16 6.5v-68q25 36 25 48zM426 472q-4 0 -188 -5q-6 0 -16 -14t-11 -21q-1 25 6 34q6 2 67 1q52 -1 52 5h90zM208 554v30q-33 18 -39 18q-15 0 -29 -32q12 6 34 16zM373 375l-46 46
q0 -2 -3.5 -10.5t-3.5 -13.5q0 -10 9.5 -19.5t19.5 -9.5q5 0 13.5 3.5t10.5 3.5zM142 592v19h-9v-19h9zM206 548h-9l-7 -25h9zM187 549q0 6 -5 13l-6 7q-3 0 -10 -2.5t-10 -2.5v-36q12 0 18 -6q13 13 13 27zM320 446h-79v-19h55q8 0 15 7q4 6 9 12zM431 373h-19
q-19 -13 -37 -26q-18 -17 -18 -40q0 -27 12 -34q17 -10 23 -27q2 60 39 127zM314 420q-23 -6 -63 -6q25 -25 32 -25q12 0 31 31zM357 357q-26 -13 -26 -29q0 -10 8 -18q6 18 18 47zM86 582q-5 5 -6 14q-5 0 -15 -7q7 -7 21 -7zM284 356l-8 8l-5 -5l8 -8zM176 462v9h-14v-9
h14zM262 365q-8 23 -25 40v-58q10 5 25 18zM330 294q0 9 -11 21h-24q-11 -11 -11 -26q17 5 46 5zM84 529q-3 1 -3 19h-20l-6 -19h29zM84 562l-7 7q-8 6 -14 6q-10 0 -22.5 -12t-12.5 -22q0 -7 8 -24q4 24 5 27q4 12 17 20q5 -2 26 -2zM120 486l-6 5l-18 -18l5 -5zM373 247
q-34 36 -58 36q-6 0 -25 -14.5t-23 -21.5h106zM272 324q-15 8 -25 8q-7 0 -12 -3q11 -13 30 -41q0 5 3.5 17.5t3.5 18.5zM32 591q-18 -28 -46 -78q15 -11 41 -28v19q-5 15 -13 47q18 32 18 40zM230 297q-5 0 -15 7q0 -3 -5.5 -13t-5.5 -12q7 0 26 18zM216 272h-9l-6 -30h9z
M426 191q-5 0 -14 7q-20 -33 -101 -37q-88 -5 -106 -23q0 -48 7 -138q9 -116 10 -142q-12 201 -12 268q0 13 18 22q18 1 68 7l48 6q5 0 16 -2.5t16 -2.5t50 35zM92 -91l-7 539v-443q0 -32 -7 -136q14 28 14 40zM240 -183q-12 24 -12 36q-11 -21 -22 -21q-12 0 -37 2.5
t-37 2.5q-34 0 -56 -14q13 4 74 4q65 0 90 -10z" />
    <glyph glyph-name="g" unicode="g" horiz-adv-x="779" 
d="M759 212l-28 -16q-17 -12 -22 -24l-175 -372h-177q-24 0 -96 21q-261 76 -261 382q0 199 123 306q116 102 318 102q86 0 123 -8q18 -30 53 -90q-16 0 -48 2t-48 2q-18 0 -22 -1q-70 -115 -70 -128q0 -18 13 -50.5t25 -43.5q2 5 2 12q0 16 -10 45q37 15 109 49
q17 -30 26 -30l28 6q6 -18 6 -34q0 -14 -4 -27l9 -9q27 29 46 41q4 -2 14 -13t19 -11q4 0 12 3t10 3q11 -33 25 -117zM684 325l-6 6l-15 -15l6 -6zM718 261q0 18 -26 44q-15 -5 -39 -18q7 1 12 1q33 0 33 -39q0 -12 -2 -20q7 8 14.5 16.5t7.5 15.5zM614 330v28h-10v-28h10z
M747 219q-8 15 -8 33q-20 -19 -50 -63q9 5 34 18zM682 243q0 4 -3 13t-3 13h-22l-6 -9q-7 -10 -7 -16q0 -9 5 -13l10 -8q4 4 13 10t13 10zM593 318q-3 14 -12 34h-19q-24 4 -34 -28l-8 -48q8 15 11 37q17 20 36 28zM582 303l-20 20q-13 -12 -20 -12q0 -4 3 -14t3 -14h22
q0 7 12 20zM570 365q0 6 -7 17q-62 -25 -86 -37q15 -57 13 -75q7 10 13.5 39t16.5 39q16 17 50 17zM476 517h-43q-48 0 -104 -38q-60 -39 -70 -84q42 -19 71 -19q54 0 84 33q21 23 62 108zM570 215v10h-28v-10h28zM529 544q-11 0 -32 4.5t-32 4.5q-80 0 -150 -42
q-79 -46 -93 -119q-5 -6 -14 -18q0 -14 -6.5 -42t-6.5 -42v-26q3 5 11 52l3 19q7 41 23 44q16 85 96 129q68 38 161 38q21 0 40 -2zM465 273q0 6 -22 45q-25 44 -28 52q-21 -34 -21 -50q0 -39 43 -73h21q-2 10 -2 16q0 7 7 8q2 1 2 2zM549 165v16h-10v-16h10zM399 375
q-75 -16 -69 -16q-12 0 -77 16q44 -58 79 -58q42 0 67 58zM412 248q-22 34 -32 63q-15 -29 -15 -38q0 -15 20 -25h27zM358 304q-44 0 -63 6q17 -34 35 -34q15 0 28 28zM471 214q0 7 -3 14l-4 6h-20q-22 -6 -42 -27t-20 -43q0 -23 33 -52q1 2 35 59q21 35 21 43zM356 249
l-9 5l-6 -10l10 -4zM400 228h-22q-19 -18 -19 -31q0 -14 9 -15q12 25 32 46zM488 120q0 25 -14 68q-45 -74 -45 -100q0 -15 21 -35q38 43 38 67zM686 152h-6q-3 3 -6 3t-7 -3q-54 -114 -167 -327q4 0 14 -3.5t14 -3.5q64 192 158 334zM265 314q0 8 -21 50q-13 -74 -13 -105
q34 33 34 55zM337 210l-9 9l-6 -6l8 -9zM294 253q1 31 -22 52q4 -19 -12 -45l-18 -24q20 6 52 17zM552 73v74q3 -11 3 -22q0 -59 -65 -118q-57 -52 -105 -52q-7 0 -14 1h6q15 -3 62 4q12 2 60 42q53 45 53 71zM358 165q-14 29 -28 29q-12 0 -29 -28q13 4 27 4q15 0 30 -5z
M264 528q-205 -100 -205 -288q0 -15 1.5 -43.5t1.5 -43.5q-2 18 -2 37q0 109 54 198t150 140zM300 196q0 15 -13 26h-34q21 -22 33 -46q0 6 14 20zM399 98q-2 16 -29 38.5t-43 22.5q-15 0 -37 -19t-24 -34q22 11 46 11q21 0 87 -19zM265 156q0 15 -11 37t-24 23
q12 -58 26 -93q9 22 9 33zM435 37q-2 2 -12 20q-5 9 -29 24q-31 19 -39 18h-78q6 -33 36 -57.5t64 -24.5q5 0 58 20zM494 -167q-68 -8 -106 -7h15q59 0 91 7zM376 -173v10h-16v-10h16zM73 118v16h-10v-16h10z" />
    <glyph glyph-name="h" unicode="h" horiz-adv-x="819" 
d="M797 -184q-32 -32 -47 -31l-87 6q-101 7 -129 7q0 4 1 30q1 29 0 36q-3 19 -12 27q-54 6 -101 -16q-54 -25 -63 -75q15 53 15 65q0 20 -30 74q-35 64 -68 64h-33q-4 -8 -4 -100q0 -90 5 -105h-25q-24 0 -72 3q-67 4 -94 9q-7 2 -19 13q-13 15 -17 17q-3 50 4 78l-12 626
q0 18 13 35.5t31 21.5q44 10 203 25v-39q0 -23 -14.5 -67t-14.5 -67q0 -39 10 -97q23 29 34 29q4 0 11.5 -5.5t11.5 -5.5q12 0 24 11q2 -1 36 -53q5 3 20 28t20 25t12.5 -5.5t11.5 -5.5q7 0 24 17q73 -90 73 -94q0 -3 -11 -26t-13 -28h40v347h85h10q32 -1 38 -1h30
q10 0 22 -10.5t14 -19.5q9 -46 -2 -142q-5 -43 -5 -100q0 -107 25 -258q14 -83 49 -243zM649 524v10h-27v-10h27zM714 537q-17 0 -15 -15v-384q0 8 2 219q1 116 13 180zM603 222q0 232 -10 272v-246q-2 -19 -22 -43q14 0 32 17zM497 297q0 8 -21 29q-12 -46 -15 -82
q36 43 36 53zM405 364l-8 5l-14 -21l8 -5zM735 -14v40h-11v-40h11zM456 312q0 11 -12 24.5t-23 13.5q-9 0 -35 -28q5 0 14.5 2t14.5 2q11 0 20 -11.5t9 -23.5q0 -3 -23 -46h23q0 11 6 33.5t6 33.5zM433 288q0 7 -6 17l-7 9q-3 0 -11 -3t-11 -3v-38l15 -14q1 3 10.5 13.5
t9.5 18.5zM238 584q-14 -2 -31 -50q-15 -42 -15 -63q0 -15 4 -46t4 -46q-5 132 38 205zM741 -49v16h-11v-16h11zM168 553q-14 0 -42.5 -3t-42.5 -3h17q49 0 68 6zM331 338q0 5 -2.5 14.5t-2.5 14.5q-5 0 -17 -8zM385 296q-3 0 -14.5 -6.5t-14.5 -6.5q11 -5 21 -8q8 6 8 21z
M531 56l-6 94q-22 -9 -22 -32q0 -21 28 -62zM326 322q-11 9 -31 28q-37 -17 -37 -50q0 -5 1 -9q21 41 33 41q13 0 34 -10zM386 253l-58 8v-16zM780 -170l-17 14v-18q-17 0 -24 -8q5 -6 14 -9q27 13 27 21zM321 269q-4 17 -13 45h-21l-3 -6q-4 -8 -4 -14q0 -8 8 -20l12 -18
q13 13 21 13zM491 142q-93 0 -93 -14q14 -7 41 -7q29 0 52 21zM521 40q-18 18 -34 45v-33q13 -14 34 -12zM291 246q-12 12 -28 39v-33q5 -6 28 -6zM82 410l-6 110h-10l6 -110h10zM732 -188v11h-22v-11h22zM479 114q-23 -12 -49 -12q-10 0 -20 2q24 -30 34 -30q30 0 35 40z
M253 245l-7 69h-10l6 -69h11zM532 26h-27q-19 -18 -19 -26t13 -32q14 20 33 58zM530 -73v76q-15 -31 -15 -38q0 -8 15 -38zM599 -131v21h-10v-21h10zM539 176l-59 3q-23 1 -54 -2q-48 -5 -54 -5q-67 0 -89 -2q-60 -6 -78 -28q1 -52 1 -148q0 104 3 135q2 21 21 25
q118 13 309 22zM691 -182v11h-116v-11h116zM415 59q0 5 -4 15t-4 11q-18 -35 -39 -57h20q11 -1 19 9.5t8 21.5zM485 -43q-14 28 -26 34q-24 -24 -31 -40q25 8 42 8q9 0 15 -2zM386 94q0 23 -28 44q-9 -69 -66 -116h25q22 0 45.5 25t23.5 47zM421 -18q0 12 -17 29l-2 2h-40
q30 -13 50 -63q9 21 9 32zM520 -96q0 18 -12 26q-30 14 -49 14q-26 0 -39 -18q-1 -1 -22 -46q67 30 122 24zM338 117v18q-33 -3 -58 -3q-24 0 -40 3v-120q24 3 61 41t37 61zM397 -96v32q0 14 -21.5 43t-34.5 29h-44q62 -28 85 -117q12 13 15 13zM83 -120v522h-10v-522h10z
M226 -182q-7 32 -12 84l-8 77q3 -66 3 -104q0 -39 -3 -49q-2 2 -2 3q0 2 2 4l1 3q-1 2 -7 2q-13 0 -14 -9q14 -3 40 -11zM173 -170v10h-39v-10h39zM96 -170v11h-27v-11h27z" />
    <glyph glyph-name="i" unicode="i" horiz-adv-x="413" 
d="M389 387q-21 -11 -58 -33q20 -11 58 -33v-55q-81 -65 -89 -65q-5 0 -22 10q-21 14 -22 14v-395q-26 -32 -57 -31l-33 1q-16 1 -63 2t-81 -2l25 370l-43 382q0 23 2 27q7 12 52 48q58 -39 198 -47q-3 -55 4 -91q29 29 46 29q10 0 38 -30q14 -15 45 -47v-54zM372 440
q-60 60 -69 60q-20 0 -46 -39q23 5 54 5q25 0 31 -6l22 -34q0 5 8 14zM349 417q0 13 -25 36h-27q20 -21 40 -31q-2 -11 -8 -34q1 3 10.5 12.5t9.5 16.5zM291 447h-33v-21q24 12 33 21zM320 418q-13 13 -27 13q-16 -16 -36 -26q5 0 19 -14q25 5 28 6q15 6 16 21zM323 360
q-17 -17 -26 -23q5 -6 15 -9q3 13 11 32zM368 279l-8 3l-19 -31l8 -4zM265 329v55h-10v-55h10zM354 297l-33 30q13 -24 9 -35q-19 -22 -39 -31q6 0 17 -4t16 -4q18 18 30 44zM314 295q0 14 -7 21q-22 0 -50 -14l14 -10q14 -10 23 -10q10 0 20 13zM75 495v16h-10v-16h10z
M81 444v27h-10v-27h10zM331 240q-7 0 -79 18q4 -9 22 -24l26 -21q5 5 15.5 13.5t15.5 13.5zM86 386v33h-10v-33h10zM92 352v32h-10v-32h10zM98 306v27h-10v-27h10zM104 248v39h-10v-39h10zM230 -56v320h-10v-320h10zM106 95v141l-26 -362l10 7zM240 -155q0 16 -4.5 49
t-4.5 49q0 -33 -5 -94q-15 -18 -50 -18h-57q-38 0 -63 -13q41 14 73 14q14 0 42.5 -5t42.5 -5q26 0 26 23z" />
    <glyph glyph-name="j" unicode="j" horiz-adv-x="586" 
d="M566 607q0 13 -2 14q-4 0 -20 -76q-23 -110 -23 -136q0 -8 20 -134q14 -89 14 -176q0 -128 -82.5 -213.5t-210.5 -85.5q-75 0 -153 33q-21 5 -32 9q-22 8 -26 17q-11 24 -30 118q2 0 9 -2.5t11 -2.5q33 0 52 45q14 33 14 62q0 41 -33 75q-8 8 -65 53q33 -11 60 -33
q9 10 37 56q22 36 30 36q3 0 9.5 -3t10.5 -3q7 0 11 7q7 12 11 16q12 -12 40 -41q7 19 5 51q3 0 13 -10l4 10q2 7 11 7q3 0 8.5 -3t8.5 -3q5 0 14 8.5t12 8.5q16 0 56 -40q4 11 4 58l-23 261q0 11 13 25.5t24 15.5q22 2 84 0q64 -2 114 2v-26zM485 568v10l-55 -6v-10z
M548 598q-24 -15 -44 -85q-18 -63 -18 -98q0 -9 4.5 -26t4.5 -26q-5 129 53 235zM402 531v15h-10v-15h10zM505 312v22h-10v-22h10zM423 159l-20 371q0 -27 4 -96l4 -69v-205q0 -18 -13 -73q7 35 25 72zM326 277l-33 19l-3 -8l32 -19zM264 282h-9l-7 -20l9 -3zM353 169l-8 91
q1 -5 1 -43q0 -27 -12 -38q-13 8 -11 35q2 33 -1 39q-41 18 -47 18q-5 -13 -18 -39q12 8 31 22q11 -8 30 -27q-2 -19 3 -53q5 0 16 -2.5t16 -2.5zM308 218q-19 18 -28 18q-3 -10 -2 -24q2 -27 2 -20h21q0 4 3.5 13t3.5 13zM342 153q-12 5 -31 15l-12 -12l-12 12
q0 -12 -11 -12q-9 0 -9 2l1 1q5 0 5 19q-4 0 -14 -3t-14 -3q6 -10 25 -24.5t29 -14.5t43 20zM200 241l-20 20l-6 -6l20 -20zM532 84q0 24 -4.5 72t-4.5 72q0 -2 -1 -84l-1 -82q-1 -88 -84.5 -160.5t-172.5 -69.5q-10 -6 -25 -6l37 -3q11 -1 18 2q19 5 35 5q8 2 23 6
q43 6 99.5 62t66.5 100q14 59 14 86zM285 119q-23 12 -51 37v-32q10 -12 25 -12q8 0 26 7zM347 139q-28 -14 -73 -38q12 0 12 -4q0 -3 -5.5 -9t-5.5 -7q-5 6 -5 12q0 -3 -4 -10.5t-4 -10.5q7 -7 15 -19q0 13 5 17q22 -28 25 -31q15 -15 34 -20q0 85 6 120zM193 207h-22
l-6 -21q9 0 28 21zM197 225q-23 12 -30 12q-10 0 -20.5 -15t-10.5 -25q0 -7 8 -18q-2 19 10 34t31 15q7 0 12 -3zM197 185q-7 0 -21 -14l21 -20q0 1 2 19q1 11 -2 15zM410 9v32l-32 -78q-23 -56 -61 -81q42 23 54 38q6 8 28 54q12 26 11 35zM143 248q-32 -35 -53 -79h40
q-9 10 -9 22q0 16 22 57zM181 141l-27 27v-21q7 -9 16 -9q5 0 11 3zM221 138q-20 -8 -57 -19q6 0 20 -14q24 5 37 33zM279 40q-6 0 -19 3.5t-20 3.5q-6 -13 -6 -24q0 -5 1 -10q19 10 44 27zM140 134q0 4 -3.5 12.5t-3.5 12.5q0 -5 -26 -5q24 -12 33 -20zM331 0
q-32 24 -40 24q-19 0 -41 -15.5t-22 -33.5v-19q26 13 51 26q35 17 52 18zM187 76q0 12 -27 28v-62q27 26 27 34zM325 -17h-20q-71 -28 -77 -67q58 -4 97 67zM215 13v27l-26 7q-7 -5 -19 -15q6 0 45 -19zM147 82q0 36 -33 45q1 -11 1 -29q0 -32 -4 -85q9 6 22 14
q1 8 7.5 26.5t6.5 28.5zM215 -50v32l-23 25q-16 17 -33 17q-9 0 -25 -11q-21 -14 -21 -15q37 -11 55 -19q36 -15 47 -29zM215 -90q-5 32 -43 54q-33 20 -68 20q-9 0 -49 -20q108 -54 136 -54h24zM227 -173v9h-22v-9h22z" />
    <glyph glyph-name="k" unicode="k" horiz-adv-x="719" 
d="M700 -74l-136 -113q-20 21 -53 79q-31 55 -53.5 76.5t-71.5 21.5q-103 0 -103 -75q0 -4 -5 -12l-6 -7q-2 10 2 30.5t4 27.5q0 14 -13.5 32t-27.5 27q0 -47 12 -177q-21 -1 -117 -18l-90 -16q-15 0 -28.5 14.5t-13.5 29.5q0 6 10 65l16 94q18 106 18 228v198q0 105 27 132
t132 27h35q-8 -64 -17 -141v-126l90 70q-10 12 -55 21q3 38 12 115q5 -1 9 -1q23 0 30 29h17q5 0 44 -23q0 13 -12 60q15 6 20 9q16 10 19 26h24q-2 0 80 -25q5 -15 16 -47q29 21 65 56q36 -26 109 -75l-267 -212q50 -96 128 -200zM579 536l-6 6l-19 -19l6 -6zM494 595
q-6 0 -17 2.5t-16 2.5q11 -25 31 -65q0 10 1 30t1 30zM551 507l-5 8l-25 -19l5 -8zM449 599v10h-43v-10h43zM460 558q-11 22 -11 31h-48q0 -7 -2 -21.5t-2 -21.5q13 28 25 28q7 0 38 -16zM517 479l-3 8l-13 -7v-8zM449 513v31q-11 13 -25 13l-13 -14q17 -17 17 -30h21z
M385 563v21h-9v-21h9zM661 527q-39 -4 -104 -55q-17 -14 -100 -81q-25 -14 -61 -43q-5 -7 -5 -30q4 15 19 26q143 106 251 183zM377 447q-3 7 -31 49q0 -6 -18 -6v-26q19 -6 49 -17zM350 510l-25 3q-11 0 -20 -16q-5 -13 -11 -26l21 -19q2 31 -4 41q17 17 39 17zM361 432
q-13 8 -44 18q23 -26 30 -26q13 0 14 8zM333 408q-3 4 -31 35q-18 20 -18 28v6q7 27 7 22q0 8 -12 19q0 -40 -6 -99q31 0 60 -11zM365 373q-20 -27 -59 -54h18q12 0 41 54zM155 522v9h-26v-9h26zM447 101h-10l-6 -26h9zM283 236q-18 36 -18 32q-13 -13 -37 -25q20 -7 55 -7z
M672 -72h-20q-56 -45 -84 -87zM310 185q0 5 -17 38h-65q36 -38 48 -38h34zM333 161l-55 11q21 -20 33 -20q13 0 22 9zM385 69l-12 33l-8 -3l12 -30h8zM213 214l-6 25h-10l7 -25h9zM207 210l-8 3l-7 -14l8 -4zM289 127q0 8 -8 19q-11 15 -12 17q-13 -51 -13 -66q10 0 21.5 10
t11.5 20zM372 53q-12 12 -12 20h-25q-19 -18 -17 -32q37 12 54 12zM421 -1q-2 9 -27.5 25t-35.5 16q-19 0 -36 -20t-21 -40q54 22 86 22q28 0 34 -3zM208 114l-6 75h-10l6 -75h10zM304 84h-23q-5 0 -13 -1h-7q18 -12 43 -37q0 6 2 19t-2 19zM294 13q0 11 -24 34t-36 26v-42
q32 -22 53 -46q0 4 3.5 13.5t3.5 14.5zM109 501q0 -9 -9 -208l-9 -199q-5 -118 -31 -220q17 58 29 163l17 145zM233 -153q-6 13 -20 27q0 -3 -3.5 -11t-3.5 -11q5 0 13.5 -2.5t13.5 -2.5z" />
    <glyph glyph-name="l" unicode="l" horiz-adv-x="653" 
d="M639 215q-2 -2 -33 -22q-23 -15 -32 -31q-12 -22 -12 -85q0 -47 2 -56q7 -32 40 -32q13 0 18 5l-67 -194h-430q-36 25 -36 59q0 4 1 8l44 319q2 17 -38 42q-28 14 -56 29l6 10q5 8 5 16q0 5 -22 31q18 12 26 19q15 13 18 24q-20 3 -55 10l-1 32q-3 14 -16 19q67 87 75 87
q11 0 33 -11q3 3 1 9q-4 11 -4 16q0 8 16 34l25 41q63 -2 107 -2q33 0 54 1v-383q45 4 69.5 17t49.5 49q5 7 22 57q-2 -45 3 -57q11 -29 49.5 -58t68.5 -29q16 0 69 26zM239 531v9h-32v-9h32zM551 178q-30 10 -59 30q-34 23 -45 47q0 -4 -3.5 -13.5t-3.5 -14.5
q0 -20 24.5 -46t44.5 -26q14 0 42 23zM181 529l-8 5l-13 -19l7 -6zM175 462v20h-10v-20h10zM299 555q-20 -29 -20 -64l-4 -347l15 236q1 16 1 25q0 13 -1 39.5t-1 39.5q0 45 10 71zM495 148q-12 3 -60 35v-32q17 -18 30 -18q17 0 30 15zM555 160q-60 -26 -60 -71
q0 -25 16 -41q10 -10 39 -26q-6 30 -6 60q0 42 11 78zM426 250q-42 -44 -119 -52q31 -32 44 -32q28 0 53.5 19t25.5 46q0 9 -4 19zM489 126q-27 -10 -27 -32q0 -7 15 -22q0 36 12 54zM111 462q-7 26 -27 26q-16 0 -27 -26h54zM422 177q-16 -10 -60 -25q12 0 12 -13h31
q17 16 17 38zM449 111q-4 -4 -13 -10t-13 -10q5 -5 8 -14q18 27 18 34zM129 414q-14 13 -38 13q-12 -13 -12 -20l13 -13q16 4 37 20zM203 278v60h-10v-60h10zM408 104l-9 8l-5 -6l8 -8zM478 51q-20 21 -30 21q-9 0 -24 -39q25 22 54 18zM118 441l-55 8q-18 -36 -18 -41
q0 -8 12 -16q19 -12 20 -14q-5 12 -15 35q25 31 36 31q3 0 10 -1.5t10 -1.5zM573 -18q-16 12 -44 12q-57 0 -95 -32q89 8 139 20zM534 13q-38 26 -55 26q-26 0 -43 -20t-17 -47q28 23 62 32q9 1 53 9zM384 105q0 11 -31 39v4v-7l-1 -32v-31q9 0 20.5 9t11.5 18zM42 442l-8 2
l-13 -25l8 -3zM406 71q-19 0 -30 -3l-14 -4q21 -10 42 -31q2 2 2 38zM145 308q-7 7 -7 25q-2 -2 -20 -11q-14 -7 -14 -16q0 -7 3 -17h20zM340 116q0 30 -32 61q0 -18 -6 -54.5t-6 -54.5v-18q16 6 30 27.5t14 38.5zM129 269q-32 10 -45 23q3 5 3 33q0 -4 -7 -14t-7 -14
q0 -11 11 -23.5t22 -12.5q7 0 15 4zM406 -9q-12 29 -20 40q-14 19 -38 19q-11 0 -27 -8q-22 -11 -26 -12l56 -23q27 -11 48 -35q0 11 7 19zM139 222v38q-29 -16 -35 -16q-10 0 -40 33q0 -5 -7 -14q55 -34 82 -41zM384 -44q-8 19 -38 36q-26 15 -50 18v-54h88zM594 -46
q-20 -14 -38 -60q-20 -50 -31 -61h-132q-48 0 -124 -2q-114 -3 -124 -7q35 3 192 3q159 0 207 -10q7 68 50 137zM412 -91q-1 0 -9.5 -4.5t-13.5 -4.5q-16 0 -47 -1.5t-47 -1.5t9 -1t83 -2q10 0 25 15z" />
    <glyph glyph-name="m" unicode="m" horiz-adv-x="850" 
d="M65 -160l-14 -14l-5 6l14 13zM826 -145q0 -30 -29 -37q-8 -2 -37 -2q-38 0 -81 20q-6 3 -56 3l-5 149q-78 -75 -78 -132q0 -24 15 -44q-7 2 -17.5 18.5t-14.5 19.5q-38 38 -97 38q-36 0 -59 -18q-10 -10 -29 -26q24 48 24 58q0 27 -27 64.5t-52.5 46t-67.5 8.5h-53
q-8 -50 -12 -148q-59 -38 -129 -73l32 577q2 29 -10 49q-3 4 -34 40q36 13 87 63q44 43 70 83q31 -31 55 -67q5 7 21 55q52 -8 114 -17q-1 -4 -1 -8q0 -12 9 -22.5t20 -8.5q-11 -32 -27 -56l9 -9q17 6 50 16l10 -28q11 -20 29 -16q-11 -36 -33 -104h-33q-2 -1 -10 -9l74 -85
q8 9 122 172q72 103 131 162q12 12 48 19q27 4 54 9q5 1 6 2l-4 -583zM795 573q-22 -108 -18 -235l9 -290v451q0 12 9 74zM679 281v37h-10v-37h10zM685 268h-10l-6 -42h10zM411 466v10h-26v-10h26zM436 445h-9l-6 -37h9zM340 582l-11 -7q17 0 -19 4q-27 3 -57 5
q-16 -49 -16 -60q7 5 32 30q19 19 27 19q15 0 25 -11zM339 507v37q-23 12 -37 12q-9 0 -28 -21q11 5 30 5q18 0 35 -33zM411 403v48q-21 0 -43 10q8 -11 28 -25q-11 -32 -22 -44q19 0 37 11zM790 5v31h-10v-31h10zM318 512q0 9 -7 16h-19q-18 -35 -17 -43q12 0 19 -6
q1 3 12.5 14t11.5 19zM622 255q0 10 -4 29t-4 29l-124 -170h24q8 -1 24.5 5.5t21.5 12.5q14 14 36 45q26 37 26 49zM273 534l-27 -25q5 -5 8 -13q7 13 19 38zM681 39v150q0 -66 -3 -117l-4 -68q9 18 7 35zM378 434q-5 0 -13 6q-18 -11 -41 -37h29q10 -1 17 6q8 16 8 25z
M416 390q-21 -9 -59 -23l13 -15q13 8 41 6q5 11 5 32zM367 383v10h-26v-10h26zM620 21v198q-1 -2 -34 -45q-14 -18 -14 -43q0 -29 15 -59q5 -10 33 -51zM810 -160q-15 68 -25 156q8 -68 8 -110q0 -19 -2 -33q-7 -11 -14 -11q13 -7 22 -7q7 0 11 5zM616 345
q-45 -29 -123 -137q-54 -78 -107 -156q-3 -6 -1 -18q2 -14 1 -16q23 56 91 147q100 133 118 161q8 7 21 19zM611 11q-32 31 -58 114q-25 -37 -25 -46q0 -26 21.5 -47.5t47.5 -21.5q7 0 14 1zM685 -95v76h-10v-76h10zM535 136q-6 -2 -47 -13q-26 -7 -31 -30l12 -3
q12 -3 24 -3q10 6 26 23.5t16 25.5zM776 -158v9h-48v-9h48zM539 17q-10 15 -25 59q-1 -3 -10 -14.5t-9 -18.5q0 -10 12 -19t23 -9q5 0 9 2zM494 75q-31 -3 -54 5q15 -26 27 -26q17 0 27 21zM667 -140l-3 8l-14 -7v-8zM481 18zM605 -2h-40q-21 0 -40 -21t-19 -42
q0 -20 26 -58q0 19 30 61zM528 -4q-5 0 -14 8q-26 -17 -22 -50q9 29 36 42zM484 -2l-3 8l-13 -7v-8zM447 16v15h-10v-15h10zM436 50l-7 5l-19 -25l7 -5zM483 -56q-11 23 -30 32q-2 -1 -30 -26q41 0 60 -6zM428 -29v20q-17 17 -38 17q10 -18 25 -48q0 11 13 11zM329 62
q-51 74 -167 207v-242q14 3 59 1l47 -2q30 -1 61 36zM350 21q0 15 -13 27q-19 -19 -22 -19q19 0 35 -8zM510 -123q2 19 -21.5 40t-43.5 21q-12 0 -28.5 -13t-23.5 -25q76 2 117 -23zM395 -51q0 59 -82 64q36 -43 69 -97q13 27 13 33zM155 289q-5 -2 -15 -18t-10 -22v-148
q0 -98 -12 -209q-33 -18 -50 -48q39 35 67 34q0 164 8 388q1 23 12 23z" />
    <glyph glyph-name="n" unicode="n" horiz-adv-x="753" 
d="M737 -48q-57 -57 -164 -169q-48 74 -79 105q-51 50 -107 50q-101 0 -123 -94q2 8 2 17q0 32 -24.5 62t-55.5 33q-2 -28 -7 -83q-48 -23 -146 -73l4 530q8 57 8 66q0 57 -47 90q78 53 181 147q16 -24 50 -72q5 7 21 55q36 -5 115 -18q-2 -3 -2 -8q0 -12 9 -22.5t20 -7.5
q-8 -20 -22 -57q5 -2 12 -2q15 0 42 9q8 -14 15 -28q11 -14 26 -17q-24 -59 -29 -104q-32 2 -49 -9l185 -214q4 21 -6 131q-17 188 -17 234v56l143 51v-612q14 -15 45 -46zM617 412v48h-10v-48h10zM672 1v564h-9v-564h9zM420 481v10h-21v-10h21zM347 527v32q-3 2 -47 13
l-13 -15q17 -1 33 -1q21 -4 27 -29zM348 583q-17 8 -87 16q-4 -10 -8.5 -30t-8.5 -30q50 49 63 49q4 0 21 -4q13 -3 20 -1zM326 527q0 10 -7 17h-19q-6 -17 -18 -43q13 0 19 -7q2 4 15 16q10 9 10 17zM420 417v48q-16 3 -43 11q8 -11 27 -25q0 -18 -13.5 -35t-30.5 -17
q-6 0 -12 3q25 -3 38 2zM280 549l-26 -24l14 -14q12 23 12 38zM386 449q-5 0 -13 6q-12 -8 -41 -37q8 0 24.5 2.5t24.5 2.5q0 4 2.5 13t2.5 13zM431 404q-25 -8 -66 -22q0 -5 7 -16q31 8 37 10q21 10 22 28zM614 110q-12 -8 -55 -26h26q14 0 29 26zM161 426h-8l-7 -18l8 -3z
M706 -65q2 4 -4 9q-18 -5 -72 -52.5t-54 -61.5q0 -7 8 -19q5 24 51 70.5t71 53.5zM103 278v165h-10v-165h10zM270 185l-95 109v-133h25q23 0 70 24zM354 85q-13 19 -44 48v-37q17 -19 30 -19t14 8zM420 -33q-2 19 -7 48q-7 12 -40 46q-8 -18 -8 -31q0 -38 55 -63zM359 71
q-27 -14 -27 -33q0 -11 15 -19q0 29 12 52zM298 153q-7 10 -19 24q-32 -29 -103 -29q47 -32 58 -32q18 0 39 10q25 11 25 27zM320 64v10h-15v-10h15zM298 120q-22 -6 -55 -24q16 -5 29 -5q11 0 20 4q0 20 6 25zM150 162v114h-9v-114h9zM100 212v20h-9v-20h9zM343 2
q-15 14 -25 14q-12 0 -19 -13t-4 -25zM403 -49q-25 32 -58 32q-58 0 -62 -66q44 35 100 35q11 0 20 -1zM254 55q0 20 -27 33q0 -14 -8 -66q35 15 35 33zM95 189v15h-10v-15h10zM161 149h-8l-12 -36l8 -3zM209 66q0 13 -10.5 33t-20.5 28v-122q31 31 31 61zM275 21
q-20 0 -30 -3l-13 -4q8 -4 42 -31q5 11 5 21q0 8 -4 17zM156 -33v137h-10v-137h10zM270 -84v37q0 14 -20.5 30.5t-34.5 16.5q-22 0 -39 -27q20 -2 50 -21t44 -36zM95 165h-10l-6 -259h10zM164 -122q-13 64 -13 77q5 -18 5 -32q0 -35 -34 -51q-44 -21 -51 -33q77 43 93 39z
" />
    <glyph glyph-name="o" unicode="o" horiz-adv-x="761" 
d="M731 191q0 -162 -98 -275q-102 -117 -262 -117q-150 0 -260.5 117.5t-110.5 268.5q0 171 95 284q101 122 268 122q25 0 50 -3q1 2 1 6q0 5 -4 18t-4 19v30q4 2 56 25q36 16 44 16q28 -23 53 -23q5 -14 5 -28q0 -13 -4 -25l9 -10q14 15 46 40q26 -28 52 -23
q11 -31 24 -113q-19 -6 -45 -32q44 -37 67 -135q18 -77 18 -162zM618 627l-4 9l-13 -7v-9zM651 574q0 7 -18 36q-20 -4 -44 -12q6 1 12 1q31 0 31 -37q0 -11 -2 -19q21 20 21 31zM546 636v29q0 -5 -15 -5q15 -15 15 -24zM680 533q-8 14 -8 32q-33 -34 -43 -62q11 3 26 14
q19 13 25 16zM617 562q0 4 -3 11t-3 8h-22q0 -4 -4 -22q-4 -17 0 -22q32 16 32 25zM530 628q-11 23 -11 34q-19 -4 -50 -13v-21q4 1 14 9t20 8q14 0 27 -17zM520 614q-14 14 -27 14q-13 -13 -13 -20q0 -5 3 -15.5t3 -15.5h22q0 13 12 37zM508 675q-2 3 -9 3q-15 0 -41 -12
q-32 -15 -41 -17q14 -36 17 -61q7 28 27 69q12 13 47 18zM466 583v42q0 -5 -15 -35q6 -5 15 -7zM513 512v9h-21v-9h21zM463 388q-83 32 -119 80v-48q0 -17 21 -36t38 -19t60 23zM331 506q-7 4 -20 13q-44 -42 -62 -73q69 28 82 60zM514 194v95q0 19 -31 82q-32 -51 -32 -95
q0 -38 17 -54q3 -3 46 -28zM465 369q-22 2 -43.5 -21.5t-21.5 -45.5q0 -12 13.5 -30t25.5 -24q-1 15 -1 28q0 63 27 93zM383 358q-14 0 -44 30q7 -40 27 -40q7 0 17 10zM330 473q-13 -8 -94 -48q-7 -18 -7 -25q-6 0 12 -3t36 -3q23 4 38 29t15 50zM393 342q-11 -7 -27 -18
v-27q13 -11 22 -11q0 40 5 56zM324 405q-34 -23 -61 -28q24 -18 31 -18q27 0 30 46zM322 351l-8 3l-8 -15l8 -3zM377 270q-9 7 -26 21q-24 -24 -24 -46q19 10 50 25zM286 331q0 14 -28 28q0 -48 -8 -62l18 12q18 12 18 22zM423 237q-29 14 -37 14q-68 0 -64 -86
q45 38 101 72zM709 182q0 16 -5 47t-5 47v-136q-2 -13 -18 -63q-19 -59 -31 -79q-45 -77 -117 -124q-77 -51 -161 -51q-15 0 -29 2h11q157 0 256 100t99 257zM574 279q-4 -139 -31 -218q-44 -129 -154 -167l20 -9q103 49 141 176q24 80 24 218zM246 342q0 19 -27 46
q-1 -8 -11 -37q-8 -23 -7 -30v-41q12 6 28.5 28t16.5 34zM313 239v32q-8 20 -27 20q-6 0 -17.5 -4t-16.5 -4q21 -13 61 -44zM508 170q-55 46 -74 46q-21 0 -59 -23.5t-48 -42.5q-14 -27 -14 -71q0 -14 1 -42.5t1 -42.5q56 -40 74 -40q26 0 61 50q30 42 40 75q7 21 18 91z
M307 171v38q0 17 -31 38t-50 21q-4 0 -26 -11q77 -46 107 -86zM303 91q0 55 -10 74q-19 35 -92 68v-59q0 -32 33 -87.5t61 -75.5q8 27 8 80z" />
    <glyph glyph-name="p" unicode="p" horiz-adv-x="626" 
d="M610 350q0 -115 -64 -188q14 -15 47 -40l-54 -108l-10 6q-11 5 -18 5q-12 0 -25 -23q-15 14 -47 46q-7 -10 -10 -29l-6 -34q-5 0 -15.5 2.5t-15.5 2.5q-6 0 -12 -7l-4 -5q-5 -9 -7 -11q-30 24 -88 71q-1 5 2 23t3 23h-66q-12 -42 -12 -92q0 -31 6 -93.5t6 -93.5
q-17 1 -40 1q-37 0 -88 -4l-51 -4q-9 -1 -41 31v758q22 28 36 34q5 3 25 3q32 0 94 -10.5t92 -11.5q166 -4 247 -46q116 -59 116 -206zM589 380v16h-10v-16h10zM406 387q-5 18 -21 45.5t-29 33.5q-7 -12 -7 -25q0 -16 17 -35.5t33 -19.5q4 0 7 1zM331 476q-21 6 -63 19
q2 -40 31 -40q15 0 32 21zM348 398q-12 34 -12 56q-6 0 -11 -10.5t-5 -17.5q0 -17 28 -28zM584 374q0 -64 -28 -137q-14 -36 -43 -54q-28 -11 -70 -33q-14 -7 -10 -38q1 24 46 41q54 20 65 37q41 62 41 152q0 16 -1 32zM471 336q0 35 -10 73q4 -26 4 -52q0 -118 -66 -186
q52 37 66 93q6 24 6 72zM162 546v10h-16v-10h16zM254 438q4 12 2 26l-3 20q-5 -11 -26 -31v-20q4 0 13.5 2.5t13.5 2.5zM349 383l-7 4q-7 4 -14 4q-13 0 -25 -13v-33q17 16 46 38zM304 395l-9 9l-6 -6l8 -8zM407 365q-9 9 -21 9q-27 0 -49.5 -20t-22.5 -47q0 -6 4 -16.5
t4 -15.5q9 15 85 90zM127 552v10h-16v-10h16zM575 116q-20 15 -51 36q1 -3 13 -36q9 -24 9 -33q0 -18 -28 -45q37 18 57 78zM406 312v20q-28 -9 -50 -33q-25 -26 -25 -53q0 -7 3.5 -20t3.5 -20q25 9 46.5 44t21.5 62zM515 112q0 5 -2 14t-2 14q-6 0 -17 -7zM240 394
q-3 12 -11 20v-46q8 17 11 26zM289 333q0 7 -2.5 20t-2.5 20h-20q-25 -11 -25 -28q26 0 50 -12zM499 78v26q-5 13 -39 13q11 -24 11 -39h28zM529 86q0 6 -4 15l-5 8q0 -8 -4 -22.5t-4 -22.5q-3 -1 -47 -1q19 -9 32 -21q32 32 32 44zM307 276q-31 57 -49 57h-31q0 -7 -3 -20
t-3 -20q32 -4 86 -17zM488 35q-3 0 -11.5 3t-11.5 3q13 -14 13 -22q6 6 10 16zM325 194q5 21 -17.5 50.5t-43.5 29.5h-42v-97q40 5 103 17zM389 55v39h-20q-3 0 -8.5 -12t-6.5 -13l21 -21q6 6 14 7zM405 48q-13 -6 -30 -17q-29 22 -29 44q0 5 2 13q-5 0 -11 -62
q38 -12 51 -12q16 33 17 34zM414 24h-8l-7 -20l8 -3zM318 25v63q-21 -10 -21 -26v-25q8 0 21 -12zM372 -4l-27 13l-3 -8l27 -13zM381 127q-59 -5 -170 -17q-6 -6 -17 -13q-20 -103 -20 -119q0 -28 11 -28q0 68 12 129q5 25 21 25q108 10 163 23zM69 -125v660h-10v-660h10z
M188 -90v27h-10v-27h10zM194 -137v33h-10v-33h10zM208 -178q-8 19 -11 21t-23 2q-48 0 -122 -21q46 9 90 9q34 0 66 -11z" />
    <glyph glyph-name="q" unicode="q" horiz-adv-x="800" 
d="M784 -180l-182 -116q-24 27 -81 87q-15 16 -67 16q-16 0 -47.5 -3t-47.5 -3q-167 0 -264 106q-95 102 -95 270q0 58 2 70q3 17 31 107q-7 3 -59 16v106q21 -1 29 11q2 5 9 28q19 -9 54 -22q1 8 -5 29t-6 29q33 11 33 29q0 5 -1 10h18q22 0 87 -18q5 -17 17 -52
q89 38 194 38q167 0 268.5 -103t101.5 -270q0 -59 -22 -124q-28 -83 -81 -122q38 -51 52 -67q34 -39 62 -52zM748 218v31h-10v-31h10zM459 496v10l-64 5v-9zM743 217q2 -14 2 -30q0 -87 -44 -165q-12 -15 -29 -39q-26 -36 -27 -46q103 104 103 234q0 25 -5 46zM545 148v30
q0 57 -67 158q-24 -72 -24 -75q0 -29 31.5 -66.5t59.5 -46.5zM194 510v19q-1 1 -3 8l-3 11q-4 15 -17 20h-19q17 -36 42 -58zM134 567v9h-36v-9h36zM470 350q0 16 -58 58t-77 42q-25 0 -66 -74q-37 -66 -37 -80q0 -12 17 -34.5t29 -31.5q17 -12 63 -12q27 0 30 1
q52 15 70 49q29 56 29 82zM530 139q-19 7 -51 42t-32 53q-15 -29 -15 -38q0 -10 17 -37q21 -33 43 -33q16 0 38 13zM259 481q-23 -12 -108 -57h16q10 -1 46 24q14 9 46 33zM155 526q0 15 -11 26h-40q-11 -17 -11 -35q0 -6 1 -13q16 32 28 32q13 0 33 -10zM151 484
q-3 12 -12 36h-19q0 -16 12 -43q7 7 19 7zM83 527v19h-9v-19h9zM330 479q-65 -29 -101 -107q-32 -69 -32 -148q0 -32 6 -60q-5 40 -5 71q0 40 9 65q12 21 29 55q9 30 38 70q31 44 56 54zM465 116q-16 18 -41 53q0 -1 -4 -10t-4 -14q0 -20 18 -29h31zM425 234
q-19 -23 -62 -27q-11 -1 -54 -1q10 -37 53 -37q58 0 63 65zM529 119h-19q-20 -7 -38 -26t-18 -38q0 -18 41 -64q6 79 34 128zM603 99q-17 -83 -55 -139q-6 -16 -20 -41q-7 -7 -20.5 -23t-20.5 -23q67 36 67 68q0 4 -1 8q40 30 50 150zM46 484q-10 2 -23 14q0 -5 -6 -14h29z
M405 163q-19 -7 -59 -7q26 -25 32 -25q16 0 27 32zM459 103q-32 -16 -32 -31q0 -6 8 -17q6 16 24 48zM81 419q0 4 -25 36q0 -3 -24 -13q6 -6 6 -18q17 -8 29 -8q8 0 14 3zM380 97l-8 8l-6 -5l8 -8zM49 470h-32q-3 -17 -12 -45l13 -13q5 0 9 8q-6 10 -6 18q0 20 28 32z
M751 -190l-6 4q-6 4 -13 4q-14 0 -61.5 -33t-59.5 -48q45 31 68 44q47 27 72 29zM357 109q0 13 -26 38q0 -35 -17 -69q43 15 43 31zM432 35q0 9 -12 20h-30q-11 -23 -10 -32q17 12 52 12zM281 172q0 22 -53 100v-94q0 -33 26 -85q27 48 27 79zM43 376q-17 16 -47 45
q1 17 0 45q-7 0 -12 -79q3 -5 35 -18zM319 142q0 23 -26 48q1 -5 1 -11q0 -23 -11 -58q-4 -14 -17 -54q18 8 35.5 32t17.5 43zM480 -17q-5 14 -26.5 27t-37.5 13t-34.5 -15.5t-18.5 -31.5q0 -4 1 -7q32 16 75 16q35 0 41 -2zM373 55q0 7 -12 16h-37q32 -23 41 -43q0 2 4 12
t4 15zM141 399q0 12 -9 13q-1 -2 -9 -23q-34 -33 -55 -97q-19 -58 -19 -112q0 -7 4 -21.5t4 -22.5q-5 126 41 202q6 8 26 33q17 21 17 28zM491 -32q-8 0 -25 3t-25 3q-51 0 -84 -30q73 -40 75 -40q12 0 33 26q19 22 26 38zM357 -1q0 18 -19.5 40t-37.5 22q-5 0 -15 -3.5
t-14 -3.5q28 -29 72 -85q14 23 14 30zM323 -174v10h-19v-10h19zM296 -168v9h-14v-9h14z" />
    <glyph glyph-name="r" unicode="r" horiz-adv-x="686" 
d="M669 -47q-8 -10 -69 -76q-57 -61 -66 -87q-13 -2 -24 17q-42 74 -95 162q-85 143 -136 143h-48l-5 -4q-2 -26 3 -137l4 -92v-51q-23 -2 -96 -16q-63 -12 -94 -12q-36 0 -46 35l33 194v198q0 10 5 30t5 30q2 86 1 133q0 14 -3 43t-3 44q0 12 34 45h192q-1 5 -22 47
q80 67 89 67q3 0 9.5 -8.5t11.5 -8.5q11 0 22 11q8 -19 27 -59q9 7 36 48l11 -8q11 -8 17 -8q5 0 15 6l8 5q50 -83 50 -91q0 -7 -13 -22t-14 -18q113 -57 113 -178t-129 -183zM519 555q0 10 -14 24q-3 -9 -12 -25.5t-12 -25.5q5 -5 14 -8q24 24 24 35zM487 577
q0 10 -11.5 22.5t-21.5 12.5q-9 0 -17 -8l-12 -12q7 2 12 2q23 0 42 -41l4 9q4 9 4 15zM459 554q0 12 -13 26q-11 -12 -24 -37q5 0 13 -6q7 0 24 17zM418 566l-7 3l-12 -24l7 -4zM368 603q-17 17 -17 24q-27 -7 -46 -16v-63l9 7q-4 6 -4 16q0 30 28 46q15 -14 30 -14z
M357 554v35q-6 3 -18 12q-14 -13 -14 -21q0 -23 19 -33q5 5 13 7zM336 641q-3 2 -7 2q-15 0 -73 -44q13 -36 30 -46q4 8 5 32.5t7 33.5q11 18 38 22zM472 338v26h-9v-26h9zM599 321q0 7 -3.5 21.5t-3.5 21.5q1 -10 1 -20q0 -121 -121 -165q-18 -11 -18 -21q0 -6 4 -10l4 -4
q-2 6 5 17t13 14q23 9 59 25q28 16 45 53q15 33 15 68zM335 475v10h-73v-10h73zM384 414q-8 13 -33 27t-40 14h-29q27 -32 102 -41zM400 377q0 4 -3 12t-3 12q-6 -1 -14 -1q-64 0 -91 29q19 -65 71 -65q29 0 40 13zM409 284v80q-14 -28 -14 -43q0 -14 14 -37zM395 280
q-18 27 -18 47l-9 -36q12 -11 27 -11zM373 347q-37 0 -63 17q14 -43 29 -43q11 0 34 26zM474 264q6 22 -7 68q1 -8 1 -16q0 -45 -34 -90.5t-77 -58.5h21q16 0 53.5 39.5t42.5 57.5zM266 431v24h-37q2 -69 1 -96q36 48 36 72zM163 491v10h-20v-10h20zM359 298l-7 2l-7 -13
l7 -4zM293 373q0 7 -6.5 21t-6.5 19q-20 -40 -56 -77v-25h18q18 8 34.5 26.5t16.5 35.5zM400 260l-7 4q-7 4 -14 4q-9 0 -18 -7.5t-9 -16.5q0 -5 3.5 -14t3.5 -11q24 35 41 41zM136 491v10h-25v-10h25zM309 324q0 5 -3.5 14t-3.5 10q-18 -26 -47 -47h36q18 7 18 23zM209 444
h-9l-6 -84h9zM346 215q-5 6 -5 31h-19q-2 -1 -29 -25q36 0 53 -6zM298 260q0 10 -10 19.5t-20 8.5h-18q15 -20 29 -63q19 29 19 35zM325 200l-41 8l-7 -8h48zM209 353h-9l-11 -106h9zM260 199v29q0 14 -11.5 33t-23.5 28q0 -12 4.5 -36t4.5 -36q0 -9 -10 -18h36zM653 -51
h-25l-58 -52q-40 -36 -40 -65q0 -5 7 -16q5 36 44 78q34 37 72 55zM214 193v15h-9v-15h9zM314 137q-15 0 -45.5 3.5t-45.5 3.5q-13 0 -21.5 -12t-8.5 -26q0 -5 1 -10q5 47 75 40q20 -2 24 -2q15 0 21 3zM105 338q0 25 -4 66q-5 48 -6 65v-182q0 -8 -6 -25t-6 -25v-159
q0 -53 -24 -213q30 120 30 125v217q0 22 8 65.5t8 65.5zM202 -87v182l-11 -13q0 18 5.5 -20.5t6.5 -58.5q3 -47 -1 -90zM209 -118v19h-9v-19h9zM217 -162q0 11 -13 37l1 -11q2 -7 -2 -10q-83 1 -157 -31h19q68 20 96 20q36 0 56 -5z" />
    <glyph glyph-name="s" unicode="s" horiz-adv-x="618" 
d="M601 379q-45 4 -62 -4q-27 -13 -61 -56q-37 -46 -37 -72q0 -14 13.5 -48t13.5 -50q0 -6 -2 -10q-9 15 -17.5 47.5t-16.5 46.5q-16 27 -47 39q34 -239 34 -227q0 -123 -87 -196q-81 -69 -206 -69q-38 0 -91 13q-10 16 -30 46q56 0 73 -4q4 -4 4 9q0 5 -14 28
q-17 28 -19 32q0 2 9.5 12t10.5 12q2 5 -9 27q22 7 61 17q-1 11 -39 36q-1 7 15 30q2 3 0 12l-4 16q31 14 89 38q-39 183 -39 228q0 142 88 217q82 71 226 71q37 0 97 -25q5 -10 19 -57q-26 2 -68 10q-9 -19 -9 -39q0 -56 54 -120q24 0 51 -10zM524 395q-45 50 -46 119
q-26 -17 -26 -52q0 -25 17 -46.5t41 -21.5q7 0 14 1zM507 567l-18 3q-31 0 -101 -24q-23 -8 -37 -44q-2 -4 -13 -45q3 11 23 31q14 25 34 52q31 8 60 8q4 0 5.5 -3t5.5 -3q6 0 23 12.5t18 12.5zM463 525h-20q-32 -8 -36 -10q-16 -7 -27 -26l42 -7q30 19 41 43zM457 406
q-9 14 -24 59q-20 -20 -20 -33q0 -10 12.5 -19t23.5 -9q4 0 8 2zM419 469q-8 0 -24.5 3t-24.5 3q0 -10 6 -26h24zM404 424l-8 3l-7 -14l8 -4zM388 435l-8 3l-7 -14l7 -4zM518 380q-5 0 -17.5 4t-18.5 4q-22 0 -45.5 -21t-23.5 -43q0 -9 8 -26l12 -26q10 38 85 108zM441 392
h-20q-24 -10 -24 -29q0 -13 8 -14q9 27 36 43zM374 383q0 6 -19 16q-18 -18 -18 -27q23 11 37 11zM391 339q-13 25 -27 32v-20q11 -12 27 -12zM412 272q-1 27 -42 60v-18q0 -25 42 -42zM349 300v32h-10v-32h10zM216 234v15h-9v-15h9zM255 83h-9l-6 -31h9zM266 17h-9l-6 -32
h9zM191 62q0 5 -2.5 13.5t-2.5 13.5q-4 0 -13.5 -3.5t-13.5 -3.5q9 -8 32 -20zM397 31q0 15 -15 86q6 -43 6 -62q0 -42 -15 -89q-23 -72 -109 -120q-65 -36 -138 -47h22q105 17 171 71q78 63 78 161zM203 4l-14 17q-8 8 -16 8q-7 0 -12 -3l-7 -4v-20q4 0 14.5 -6t15.5 -6
q11 0 19 14zM143 67l-3 8l-31 -18l3 -8zM192 42q-3 1 -13.5 10.5t-19.5 9.5q-11 0 -25 -11.5t-14 -21.5q0 -6 8 -16.5t8 -11.5q-2 9 -2 16q0 17 22 22q4 1 36 3zM270 -43q0 6 -4 8l-4 3q2 -17 -13 -53q-9 -21 -22 -49q43 55 43 91zM202 -52v31q-20 -37 -20 -50q0 -3 1 -5
q19 9 19 24zM175 -54v21q-20 -9 -20 -32q12 11 20 11zM116 5l-13 14l-6 -5l14 -14zM182 -97q-18 16 -47 26q-15 0 -15 -19q0 -11 14 -19q39 13 48 12zM104 -51h-25q5 0 5 -14q7 4 20 14zM174 -110q-21 -11 -34 -11q-11 0 -23.5 10t-12.5 21q0 6 5 15l5 9q-27 -13 -27 -19
q9 -15 18 -40q8 0 24.5 -3.5t24.5 -3.5q7 0 13.5 7.5t6.5 14.5zM137 -146q-27 3 -42 17q-4 5 -29 35q12 -24 40 -65q27 13 31 13zM114 -206v10h-15v-10h15z" />
    <glyph glyph-name="t" unicode="t" horiz-adv-x="731" 
d="M726 610q0 -26 -67 -149q-73 -17 -158 -47q-24 -129 -29 -166q-2 -19 -9 -75l2 -115v-258h-106q-38 0 -54 7q-2 1 -36 35v203q0 22 -11.5 79.5t-20.5 77.5q-15 34 -55 62t-76 28q-6 0 -89 -46q24 24 47 50q8 9 8 36q0 48 -29.5 88.5t-75.5 50.5q8 -1 30 -7q19 -5 31 -5
q52 0 52 44q0 17 -14 65h370q-10 9 -34 45q67 84 83 84q4 0 12 -6t12 -6q6 0 15 6l9 6q7 -8 34 -52l33 51l10 -5q12 -6 17 -6q9 0 27 18q72 -88 72 -93zM675 655l-26 26l-6 -6l26 -26zM708 610q0 7 -10 18l-10 11q-14 -56 -13 -69q33 16 33 40zM668 627q0 11 -13.5 23
t-24.5 12q-9 0 -19 -11l-12 -16q4 0 13.5 2t14.5 2q11 0 20 -12t9 -23q0 -8 -6 -22.5t-6 -17.5q24 48 24 63zM639 604q0 5 -3.5 13t-3.5 9q-13 3 -19 -13q-1 -2 -8 -31q13 0 13 -13q1 4 11 15t10 20zM537 657v21h-10v-21h10zM598 594q0 6 -8 16q-5 -6 -16 -13q-6 -4 -3 -4
q4 -4 14 -4q9 1 13 5zM598 565q-16 5 -50 16l-7 -16h57zM540 634q-18 18 -37 28q-32 -27 -32 -46q0 -9 3.5 -25.5t3.5 -25.5h22q-1 1 -14 21q-9 14 -9 21q0 12 7.5 25t18.5 13q16 0 37 -11zM535 589q-7 13 -7 32q-5 0 -13.5 2.5t-13.5 2.5l-3 -6q-4 -6 -4 -13q0 -8 7 -18.5
l13 -19.5zM494 671q-22 -1 -43 -20q-1 -2 -32 -38q25 -37 45 -49q-9 59 -9 54q0 36 39 53zM522 503v10h-15v-10h15zM505 498v10l-230 6v-11zM682 534q-18 -18 -53 -45q-22 -12 -127 -32q-10 -5 -23 -17q-50 -211 -47 -233v-257q3 34 2 109q0 71 4 109q5 48 40 253
q3 16 20 25q88 23 151 33q10 29 33 55zM322 420v15h-10v-15h10zM329 418h-11l-6 -33h10zM221 509v10h-56v-10h56zM259 397v27h-10v-27h10zM248 458q-10 -3 -38 -15l-32 -14q-1 -5 6 -16q24 14 64 45zM328 275v79h-10v-79h10zM263 377h-21q-15 -6 -25 -33q17 13 46 33z
M157 434v10h-27v-10h27zM268 309q0 8 -3.5 23t-3.5 23q-33 -33 -33 -52q0 -18 14 -52q26 40 26 58zM164 394l-19 18h-21q9 -14 16 -51q24 19 24 33zM88 443v21q-13 0 -28 -14q4 0 14 -3.5t14 -3.5zM204 333q-9 34 -25 34q-18 0 -29 -22q29 0 54 -12zM332 102q3 40 1 83
l-4 83v-93q0 -50 -14 -79q6 0 17 6zM118 373q0 35 -18 47q-9 6 -51 15q38 -49 42 -120q27 22 27 58zM221 254q-9 78 -71 78q-27 0 -46 -27q48 2 117 -51zM266 118v139q-21 -22 -21 -41zM444 -147v96h-10v-96h10zM340 36h-10l-6 -131h10zM453 -182q0 6 -3 17t-3 16
q-2 0 -7.5 -11t-6.5 -12q-3 3 -23 3q6 0 21.5 -6.5t21.5 -6.5zM340 -97h-10l-6 -27h9zM401 -174v10h-74v-10h74z" />
    <glyph glyph-name="u" unicode="u" horiz-adv-x="754" 
d="M585 -125h-10v22h10v-22zM728 -159q-15 -15 -19 -18q-10 -10 -18 -11q-67 -7 -124 -7h-54q6 20 6 42q0 19 -4 39q-189 -87 -296 -87q-203 0 -206 241l-6 459q0 6 -1 21q-1 12 -1 20q1 19 11.5 36.5t28.5 18.5l199 12q11 -10 12 -35q0 18 -3 -38q-8 -149 -8 -203
q8 -1 28 -15q3 0 28 24q21 -15 46 -53q7 11 10 30q5 31 6 34q5 0 15.5 -3t15.5 -3q4 0 14 9t15 9q13 0 48.5 -31.5t35.5 -44.5q0 -10 -24 -58q-1 10 3 27t4 25t-9 15l-18 14l-3 -3v-75q11 -9 24 -9t28 12.5t13 25.5l-5 334q5 -1 51 -14q31 -9 41 -9q9 0 26 3t26 3
q26 0 31 -6q17 -19 33 -31v-700zM652 512v10h-45v-10h45zM591 468v16h-11v-16h11zM707 525h-10l-12 -464h10zM585 230v236h-10v-236h10zM387 331l-8 3l-8 -15l8 -3zM522 124v99q-15 -16 -15 -35q0 -20 15 -64zM446 303q-19 19 -48 19q-9 -19 -24 -33q6 0 37 16
q11 -10 30 -33v-4l1 -6q-6 -10 -6 -18q0 -7 7 -12l3 58l-3 -30q2 3 3 6q2 12 2 21q0 10 -2 16zM419 242q3 7 3 13q0 2 -10 32q-3 -3 -10.5 -7t-10.5 -7q9 -18 6 -31h22zM175 529v10h-85v-10h85zM591 77h-10l-7 -45h11zM483 210q-7 0 -21.5 3.5t-21.5 3.5q-11 0 -23 -11
l-13 11q0 -11 -10 -11q-14 0 -9 2q5 0 5 20q-6 0 -17 -3t-16 -3q3 -18 30 -32q24 -13 45 -13q35 0 51 33zM518 55q-24 95 -24 139q-45 -34 -45 -72q0 -42 31 -54q13 -3 38 -13zM711 -152q-6 10 -13 34v167q-3 -6 -1 -123q1 -86 -24 -86h-52q-35 0 -61 -10q38 10 90 10
q6 0 17 -6t17 -6q9 0 17 8zM434 164q-36 0 -66 18v-21q12 -25 32 -25q15 0 34 28zM589 -1q0 16 -11 26q2 -4 2 -10q0 -21 -26 -64q11 6 23 21.5t12 26.5zM321 278q-21 15 -32 15t-24.5 -13.5t-13.5 -24.5q0 -6 5 -13l4 -7q11 34 24 46q8 -5 37 -3zM269 303l-12 3
q-19 -15 -15 -30zM73 439v74h-10v-74h10zM442 78q-10 40 -21 58v-39zM315 231v26l-27 7q-8 -8 -8 -17t21 -30zM227 300q0 5 -8 16q0 -4 -2.5 -13t-2.5 -13q0 10 13 10zM292 203l-28 26q3 -14 13 -41zM524 19h-21q-62 -39 -62 -57q37 12 52 20q27 15 31 37zM449 64
q-1 0 -11 4t-15 4q-26 0 -24 -46q26 26 50 38zM368 112l-3 9l-14 -7v-9zM519 40q-30 15 -41 15q-28 0 -49 -19.5t-21 -47.5q0 -17 10 -26q4 21 42 48q35 26 59 30zM388 81zM354 165q-31 -30 -56 -38q2 0 12.5 -4t16.5 -4q28 0 28 33q0 6 -1 13zM261 177l-26 75v-51
q12 -6 26 -24zM344 193q-4 0 -13.5 3.5t-13.5 3.5q-30 -19 -89 -49q29 -15 44 -15q45 0 72 57zM227 269q-5 0 -14 6q-12 -22 -12 -75q4 18 11 48zM339 78q0 12 -16 22t-30 12q18 -37 18 -63q28 14 28 29zM384 20q0 6 -3 17.5t-3 16.5h-32l-19 -21q31 0 57 -13zM213 193h-10
l-7 -27h10zM207 131v27h-10v-27h10zM396 -44v27q-40 37 -66 37q-37 0 -52 -40q12 1 24 1q52 0 94 -25zM292 55q0 33 -12 47.5t-45 26.5q35 -55 30 -138q27 29 27 64zM81 32v405h-10v-405h10zM240 88h-22q-13 -22 -11 -33q10 13 33 33zM253 27l-6 44h-10l6 -44h10zM247 10
l-6 5l-14 -14l5 -6zM518 -80q-104 -45 -146 -59q-94 -32 -161 -32q-15 0 -29 2q7 0 20 -4.5t20 -4.5q50 0 145 29q70 21 121 43q7 3 30 26zM85 -3v16h-10v-16h10z" />
    <glyph glyph-name="v" unicode="v" horiz-adv-x="727" 
d="M717 504q0 -4 -61 -126q-71 -143 -98 -206q-69 -163 -134 -372h-29q-25 0 -50 33q-9 11 -28 39q-24 -45 -36 -45q-13 0 -99 29q-2 15 5 28q-28 14 -28 23q0 7 16 25t18 24q-5 3 -19 3q-15 0 -41 -4q-1 2 -1 34q-11 3 -28 12l51 102q-6 0 2 -1t27 -2q22 -1 25 4l-210 397
q0 13 8 21q36 23 93 54q21 7 58 19l121 -282q26 11 44 43q16 29 17 60q0 10 -3.5 29.5t-3.5 28.5q20 -83 128 -83q64 0 109 88q22 55 45 111q102 -69 102 -86zM603 427l-8 3l-7 -14l8 -4zM513 344q0 5 -3.5 14t-3.5 11q-32 -43 -32 -69q0 -5 4 -14.5t4 -10.5q31 62 31 69z
M493 378q-96 -4 -128 23q16 -39 35 -52q12 -8 38 -8h11q5 -1 6 -1q9 0 38 38zM452 329q-42 0 -60 6q7 -38 27 -38q11 0 21.5 10.5t11.5 21.5zM695 500q-21 -10 -31 -28q-82 -153 -152 -332q-42 -107 -115 -316q7 -7 21 -7q0 33 2 40q93 302 275 643zM443 262l-9 9l-5 -6
l8 -8zM462 241q-26 -13 -26 -21q0 -5 3.5 -14.5t3.5 -13.5q9 15 19 49zM369 344q0 6 -20 47q5 -14 -24 -53q-10 -13 -38 -50l30 -8q17 7 34.5 27t17.5 37zM386 300q0 10 -9 19q-21 -32 -41 -42l7 -4q7 -4 13 -4q11 0 20.5 10t9.5 21zM430 193q-10 19 -25 27q-24 -15 -24 -27
h49zM114 523q-3 -2 -43 -26h26q17 13 17 26zM380 231q0 13 -18 25q-13 1 -30 7q24 -48 28 -65q20 20 20 33zM436 163q-28 18 -47 18q-18 0 -42 -25q4 -7 13 -19h69zM424 118l-54 7q9 -23 24 -60q9 18 30 53zM431 15l-4 8l-23 -13v-8zM220 86h-59q-12 -10 -12 -26l38 9
q24 6 33 17zM242 29q-7 0 -20.5 4t-20.5 4q-19 0 -19 -26l13 -12q15 12 47 30zM236 44q0 3 -3 10t-3 10q-67 -17 -75 -17q0 -28 -6 -52q13 -4 37 -12q-21 21 -21 29q0 12 13.5 24t25.5 12q5 0 16 -2t16 -2zM298 -82q0 13 -9 14q-4 -10 -18 -38q27 14 27 24zM281 -52
q-17 0 -49 -17v-26h26q8 16 23 43zM135 4v30q-1 -8 -14 -22q5 -5 14 -8zM262 -109q-50 -4 -50 39q0 -6 -4 -18t-4 -17q14 -7 41 -23zM170 -31v10h-26v-10h26zM308 -101q-58 -39 -66 -39t-22 4.5t-22 4.5q30 -10 81 -31q17 26 29 61z" />
    <glyph glyph-name="w" unicode="w" horiz-adv-x="1092" 
d="M1088 537q-153 -333 -279 -737h-90q-9 31 -45 104q-24 -15 -32 -47q-1 -4 -5 -46q-12 92 -130 92q-39 0 -75 -32t-39 -71h-90q-68 174 -223 504q-10 21 -51 95q-34 61 -34 68q0 29 15 37q86 46 186 104q6 -26 23 -81q16 2 32 41h18q15 0 96 -48q-6 -9 -6 -17
q0 -12 24 -36q-15 -14 -41 -45q30 -10 57 -10q3 -7 3 -18q0 -8 -1 -18q8 -7 22 -19q-2 -2 -32 -63q-13 -26 -40 -26q-6 0 -22 2t-22 -3l67 -167l107 274q-2 5 -33 67q-19 38 -19 46q0 32 14 40q32 19 84 42q80 37 85 39q5 -17 47 -122q7 -2 16 -2q39 0 83 33.5t44 71.5
q0 6 -1 11q3 -8 1 -26l-3 -26q0 -23 33 -58.5t56 -42.5q24 38 35 81q6 22 22 86zM891 427q-72 35 -96 89q0 -6 -4 -18.5t-4 -18.5q0 -23 22 -48t45 -25q18 0 37 21zM934 355v16h-10v-16h10zM833 397q-39 26 -56 50v-45q12 -9 25 -9q5 0 15.5 2t15.5 2zM879 400l-40 -32
q-11 -12 -11 -37q0 -10 6.5 -23.5t14.5 -16.5q6 18 15 54.5t15 54.5zM775 484v26q-53 -37 -91 -37q-9 0 -17 2q0 -6 3 -17t3 -16q5 0 16 -3.5t17 -3.5q18 0 40 11q29 15 29 38zM821 377q-28 -15 -28 -31q0 -10 16 -20q0 26 12 51zM781 375v10h-16v-10h16zM763 440
q-27 -18 -62 -18q12 -12 12 -21h32q4 4 18 39zM742 364l-8 9l-6 -6l8 -8zM1061 520q-7 0 -23 -13q-60 -121 -128 -311q-34 -95 -119 -346q-11 -18 -21 -18q11 -11 12 -14h22q0 35 2 41q72 219 110 323q73 200 145 338zM804 304q-12 12 -12 21h-26q-17 -17 -17 -40
q20 22 55 19zM679 404l-8 3l-7 -15l8 -4zM839 257v21q-26 13 -46 13q-21 0 -40 -19q0 -22 14 -33q7 4 72 18zM737 309v21h-10v-21h10zM714 327l-6 6l-15 -14l6 -7zM833 238h-36q-8 0 -17.5 -6.5t-9.5 -13.5q13 -24 32 -66q10 31 31 86zM348 510q-65 41 -78 41q-11 0 -43 -51
q3 1 37 16q27 12 35 12q6 0 24.5 -10t24.5 -8zM356 467l-9 3l-7 -14l8 -4zM336 485q-13 10 -37 31q-15 -14 -23 -14q48 -3 48 -39q0 -8 -3 -16q7 14 15 38zM388 392v10h-27v-10h27zM307 453v21l-26 7q-26 -25 -24 -34q7 0 19 -12q9 18 31 18zM668 93h-10l-6 -27h10zM272 497
q-6 -1 -40 -18q6 -5 8 -15q11 11 32 33zM406 352l-12 3q-16 -23 -15 -47q8 16 27 44zM330 390q0 3 -4 9.5t-4 9.5q0 -4 -4 -12.5t-4 -12.5q6 0 16 6zM568 172q0 8 -10 26t-10 23q-16 -34 -49 -103q14 4 41.5 23t27.5 31zM377 376q-23 11 -40 11q23 -24 23 -29
q-22 -33 -38 -33q-7 0 -32 3q4 0 4 -5q0 -3 -2 -9q13 3 73 6q0 7 12 56zM342 364l-14 13q-28 -18 -49 -25q29 -15 43 -15q8 0 14 9t6 18zM240 425l-6 6l-15 -14l6 -6zM591 120q0 8 -7 20l-7 12q-19 -19 -47 -38l-43 -29l11 -7q11 -7 18 -7q11 0 39 13q36 17 36 36zM602 73
v21q-20 -13 -57 -32q1 0 11.5 -4t16.5 -4q20 0 29 19zM376 307q-54 -6 -73 -6v-12q48 -10 51 -10q10 0 22 28zM269 334l-8 3l-8 -14l9 -4zM765 -172l-4 8l-13 -7v-8zM672 -79q0 6 -14 34q-27 -26 -27 -40q0 -6 4 -16.5t4 -12.5q1 2 17 15t16 20zM573 13q0 15 -39 34
q12 -48 12 -68q27 18 27 34zM613 -50v27l-38 7l-13 -15q37 -12 51 -19zM527 7q0 21 -12.5 40t-32.5 23v-18q-1 -10 8 -19q8 -89 7 -95q30 31 30 69zM619 -114v27q-37 42 -66 42q-20 0 -52 -38q73 1 118 -31zM544 254q-12 0 -26 -7q-55 -128 -74 -179q-24 -92 -58 -189
q-21 -59 -50 -54q35 0 45 -8q0 27 17 43q-3 12 -2 34q14 44 121 335q1 2 27 25zM401 47l-4 9l-28 -13v-9zM481 -19q0 29 -9 55l-54 -161q63 37 63 106z" />
    <glyph glyph-name="x" unicode="x" horiz-adv-x="792" 
d="M771 148q-6 -53 -18 -113q-16 2 -28 -10q2 -6 15.5 -21.5t13.5 -31.5q0 -21 -63 -76l-77 -67q-34 39 -110 113q-48 38 -147 121l-200 -291l-50 72q-33 48 -33 57q0 4 37 73t37 78q0 61 -48 110q-41 42 -86 42q-7 0 -14 -1q58 -6 96 38q35 40 35 100q0 16 -2 21
q-55 89 -55 104q0 26 30 69q7 10 46 64q10 14 41 38q36 28 46 38l228 -309l195 297q24 -44 71 -128l-223 -270q0 -5 20 -24q10 19 10 33h112q13 -44 41 -40q-6 -22 -23 -59l10 -9q17 8 52 23q13 -35 41 -41zM707 537q-75 -75 -219 -242q-13 -15 -12 -37zM725 159v9h-21v-9
h21zM670 201v21h-10v-21h10zM756 104v33h-10v-33h10zM646 255l-96 8q-5 -14 -5 -25q0 -15 9 -26l35 33q17 11 57 10zM644 201v27q-18 3 -49 12q0 -8 -12 -21q6 0 17 2t17 2q11 0 27 -22zM731 93v50q-8 0 -22.5 2t-22.5 2q28 -21 28 -32q0 -8 -13 -24.5t-21 -19.5q20 7 51 22
zM628 192q-5 8 -14 20q-26 -16 -26 -31q0 -12 9 -20q21 10 31 31zM696 93v27q-5 0 -14 6q-25 -25 -25 -33q7 -3 20 -2q25 2 19 2zM747 80q-3 -1 -50 -25l14 -14q16 8 31 6q0 6 2.5 17t2.5 16zM585 214l-8 5l-14 -20l8 -6zM636 104v16h-10v-16h10zM742 -44q0 16 -9 16
q-114 -78 -114 -120q13 29 53.5 64.5t69.5 39.5zM156 370l-15 15l-5 -6l13 -14zM245 253q0 3 -6 13.5t-6 13.5q-27 0 -38 5q6 -13 18 -32h32zM303 192q-6 5 -14 8q-8 0 -17 -7t-9 -15q0 -13 15 -29q0 18 25 43zM200 241q0 7 -15 22q-9 -27 -31 -50h27q19 16 19 28zM219 184
v16h-10v-16h10zM171 278q0 14 -26 54q3 -27 -23 -69q-23 -38 -48 -56h50q8 9 36 37q11 11 11 34zM262 139q-18 27 -32 27q-5 -5 -12 -16.5t-12 -16.5q20 7 40 7q8 0 16 -1zM206 169q0 8 -19 25h-38q29 -31 36 -56q21 21 21 31zM262 119l-13 4q-10 3 -30 3q-15 -11 -47 -61
q43 14 51 18q25 13 39 36zM177 106q0 20 -21 54t-40 34h-36q27 -9 51.5 -49t24.5 -70q21 24 21 31zM351 91q-22 -8 -53 -54l-48 -72q-90 -135 -90 -142q0 -8 9 -17q28 72 82 147zM202 -43l-8 5l-19 -26l7 -5z" />
    <glyph glyph-name="y" unicode="y" horiz-adv-x="674" 
d="M657 476q0 -5 -97 -135q-111 -149 -151 -216q-7 -12 -7 -40v-44q0 -23 -3 -78q0 -17 -1 -35q-1 -17 7 -49t8 -47v-32h-191q-18 12 -18 49q0 15 4 44t4 44q-19 15 -100 52q3 14 3 20q0 18 -20 31q17 27 45 46q-12 7 -33 10q-28 4 -34 6q0 2 2.5 9.5t2.5 11.5q0 14 -23 25
q27 47 34 57q26 38 46 38q5 0 11 -2v0q-13 19 -91 126q-57 78 -57 86q0 6 4 16.5t4 13.5q78 55 143 112q35 -59 43 -68q19 -17 65 -17q109 0 135 108q-5 -15 -5 -30q0 -42 37 -76q32 -30 76 -42q29 43 87 125q6 -8 44 -69q26 -41 26 -50zM493 456q-27 6 -62 34
q-38 30 -44 54q0 -6 -4 -18.5t-4 -18.5q0 -20 24 -45.5t44 -25.5q10 0 46 20zM425 428q-22 14 -50 42q0 -3 -3.5 -12t-3.5 -14q0 -10 11.5 -17.5t22.5 -7.5q14 0 23 9zM372 538q-32 -36 -129 -47q33 -32 54 -32q10 0 34.5 11.5t28.5 19.5q3 16 12 48zM418 407
q-28 -14 -28 -31q0 -6 8 -20q9 17 20 51zM355 464q-27 -18 -61 -18q21 -21 34 -21q21 0 27 39zM350 405v10h-15v-10h15zM402 335q-21 21 -29 21q-10 0 -27 -39q27 18 56 18zM311 386v19q-6 11 -27 31v-56q5 -2 9 -2q9 0 18 8zM264 413v26q2 19 -32 36q13 -38 32 -62z
M640 467q-5 6 -14 9l-135 -162q-69 -83 -116 -175q-18 -35 -15 -116q0 -7 1 -21t1 -12q0 -37 15 -108q-5 47 0 117l8 117q1 19 6 26q78 109 120 166q72 97 129 159zM401 321q-10 0 -28 -13t-22 -23l14 -14q23 24 36 50zM339 342q0 19 -33 19q10 -16 25 -44l4 9q4 9 4 16z
M390 212v10h-16v-10h16zM372 206v10h-20v-10h20zM279 33v101h-10v-101h10zM162 204q0 3 -2.5 10.5t-2.5 10.5q-6 0 -16.5 3t-15.5 3q-17 -37 -17 -33q17 6 54 6zM191 162q-7 0 -21.5 3.5t-21.5 3.5q-3 -3 -6.5 -10t-6.5 -10l13 -14l26 10q11 6 17 17zM180 183l-43 8
q-9 -3 -22 -8q-14 -18 -14 -37q0 -9 15 -17l24 -10q-22 22 -22 29q18 38 31 38q5 0 15.5 -1.5t15.5 -1.5zM214 58q0 13 -7 14q-24 -12 -37 -12v-27q4 0 13 -3t13 -3q18 19 18 31zM285 3h-10l-12 -129h10zM396 -182q-14 27 -14 38q-4 -27 -31 -31q8 0 22.5 -3.5t22.5 -3.5z
M206 13q-9 0 -50 13v41q-14 -25 -15 -44q25 -25 39 -25q5 0 16 8zM137 57l-8 5l-13 -20l7 -5zM213 -41v39l-17 -11q-9 -6 -19 -6q-7 0 -24.5 10.5t-23.5 10.5q31 -15 84 -43zM338 -174v10h-49v-10h49z" />
    <glyph glyph-name="z" unicode="z" horiz-adv-x="679" 
d="M659 568l-320 -520q12 -8 31 -25q3 3 11.5 8.5t11.5 8.5q13 -12 35 -57q9 8 32 57q14 0 30 -17l17 17q4 0 41 -40.5t37 -45.5q0 -7 -11 -21.5t-12 -19.5q14 -4 37 -4q22 0 54 4q-12 -39 -41 -118l-482 5q-13 4 -75 8q-42 65 -42 89l91.5 155.5t91.5 178.5q0 40 -40.5 70
t-82.5 30q-10 0 -30 -4.5t-30 -4.5q8 3 30 11q32 14 48 72q8 28 8 43q0 73 -43 73q-11 0 -25 -6q15 39 41 113h492q5 0 13.5 1t13.5 1q45 0 68 -62zM379 518h-40q27 -14 33 -14q0 5 7 14zM313 546q-45 0 -71 -7q4 1 34 0q23 -1 23 7h14zM362 489q-2 1 -28 18q-20 13 -27 12
h-48q41 -56 63 -56q17 0 40 26zM641 564q-5 0 -14 7q-203 -291 -315 -519zM305 454q-37 25 -56 43v-38q11 -13 26 -13q10 0 30 8zM442 500q0 6 -4.5 15.5t-4.5 10.5q-3 -43 -38 -93l-60 -86q-13 -32 -43 -85q-15 -19 -39 -31q35 1 63 46q23 37 24 61q23 13 25 18
q77 132 77 144zM228 546h-20q-1 -2 -5 -2q-8 0 -25 2t-25 2q-39 0 -60 -15q6 0 17.5 5t17.5 5q17 0 50 1.5t50 1.5zM298 433q-9 -3 -18.5 -13.5t-9.5 -19.5q0 -7 16 -23q0 37 12 56zM230 519q-48 -6 -114 -6q19 -27 57 -27q21 0 28 3q15 6 29 30zM230 464v21q-20 -6 -57 -16
q24 -18 32 -18q13 0 25 13zM215 415l-9 9l-6 -6l8 -8zM282 362q-16 15 -26 15q-16 0 -31 -33q54 18 57 18zM190 417q0 10 -11.5 23t-21.5 16q2 -12 2 -24q0 -24 -8 -49q39 20 39 34zM275 348q-55 -35 -55 -49v-19q11 6 31 31t24 37zM145 431q0 33 -39 66q8 -41 2 -88
q-1 -7 -7.5 -24.5t-6.5 -23.5q19 2 35 26t16 44zM212 343v33q-21 4 -36 2q-22 -3 -14 -3q26 -9 50 -32zM535 -2l-26 26l-6 -6l25 -25zM568 -51q0 7 -21 28q-7 -25 -15 -68q36 16 36 40zM207 312q-3 6 -22 33q-15 21 -40 21q-12 0 -52 -27q70 -18 107 -59zM533 -25
q-14 11 -43 31q-13 -12 -30 -34q11 11 28 11q10 0 19 -13t9 -24q0 -7 -4.5 -19.5t-4.5 -17.5q12 23 26 66zM505 -54q-10 19 -28 19q-12 -25 -12 -36q0 -7 7 -14l6 -6q11 13 27 37zM400 0q0 16 -7 23q-5 -5 -8 -16q5 0 15 -7zM458 -94v10l-55 6v-10zM402 -21q-10 5 -32 27
q-15 -15 -36 -24q-1 -8 -1 -16q0 -35 21 -63q0 5 -7.5 21.5t-7.5 24.5q0 13 26 40q11 -6 37 -10zM396 -73q-6 12 -6 38q-3 0 -10.5 3t-10.5 3q-13 -13 -13 -22q0 -7 8 -18q11 -15 12 -17q12 13 20 13zM351 13q-63 -35 -63 -62q0 -7 31 -48q2 6 2 12q0 9 -4.5 25.5t-4.5 25.5
q0 28 39 47zM322 18q0 19 -9 28q-40 -58 -45 -64q-28 -45 -30 -68q12 14 30 37q4 15 15 39q14 9 39 28zM630 -121q-21 -13 -44 -52h-430q94 0 291 -2q109 -1 159 -13q0 32 24 67zM258 179v38q-75 -147 -181 -319zM292 -96q0 14 -13 27q-14 -13 -14 -27h27zM99 -166l-3 8
l-13 -7v-8z" />
    <glyph glyph-name="glyph60" 
 />
    <glyph glyph-name="glyph61" 
 />
    <glyph glyph-name="glyph60" 
 />
    <glyph glyph-name="glyph61" 
 />
    <glyph glyph-name="ch254" 
 />
    <glyph glyph-name="ch255" 
 />
    <glyph glyph-name="glyph59" 
 />
    <glyph glyph-name="ch257" 
 />
  </font>
</defs>
</svg>
