<?xml version="1.0" standalone="no"?>
<!DOCTYPE svg PUBLIC "-//W3C//DTD SVG 1.1//EN" "http://www.w3.org/Graphics/SVG/1.1/DTD/svg11.dtd" >
<svg>
<metadata>
Created by FontForge 20120731 at Wed Oct 16 15:56:22 2019
 By www-data
(c) 12 Halloween Signs LT - All Rights Reserved - this font is FREEWARE but not to be sold or used to make money with unless prior permission is granted .. you can contact me: ladytimeless@hotmail.com http://ladytimeless.org/
</metadata>
<defs>
<font id="12HalloweenSignsLT" horiz-adv-x="1139" >
  <font-face 
    font-family="12 Halloween Signs LT"
    font-weight="400"
    font-stretch="normal"
    units-per-em="2048"
    panose-1="2 0 0 0 0 0 0 0 0 0"
    ascent="1638"
    descent="-410"
    bbox="102 0 1360 1280"
    underline-thickness="150"
    underline-position="-142"
    unicode-range="U+0020-F005"
  />
<missing-glyph horiz-adv-x="1536" 
d="M256 0v1280h1024v-1280h-1024zM288 32h960v1216h-960v-1216z" />
    <glyph glyph-name=".notdef" horiz-adv-x="1536" 
d="M256 0v1280h1024v-1280h-1024zM288 32h960v1216h-960v-1216z" />
    <glyph glyph-name=".null" horiz-adv-x="0" 
 />
    <glyph glyph-name="nonmarkingreturn" horiz-adv-x="569" 
 />
    <glyph glyph-name="space" unicode=" " horiz-adv-x="569" 
 />
    <glyph glyph-name="space" unicode="&#xa0;" horiz-adv-x="569" 
 />
    <glyph glyph-name="exclam" unicode="!" horiz-adv-x="569" 
 />
    <glyph glyph-name="quotedbl" unicode="&#x22;" horiz-adv-x="727" 
 />
    <glyph glyph-name="numbersign" unicode="#" 
 />
    <glyph glyph-name="dollar" unicode="$" 
 />
    <glyph glyph-name="percent" unicode="%" horiz-adv-x="1821" 
 />
    <glyph glyph-name="ampersand" unicode="&#x26;" horiz-adv-x="1366" 
 />
    <glyph glyph-name="quotesingle" unicode="'" horiz-adv-x="391" 
 />
    <glyph glyph-name="parenleft" unicode="(" horiz-adv-x="682" 
 />
    <glyph glyph-name="parenright" unicode=")" horiz-adv-x="682" 
 />
    <glyph glyph-name="asterisk" unicode="*" horiz-adv-x="797" 
 />
    <glyph glyph-name="plus" unicode="+" horiz-adv-x="1196" 
 />
    <glyph glyph-name="comma" unicode="," horiz-adv-x="569" 
 />
    <glyph glyph-name="hyphen" unicode="-" horiz-adv-x="682" 
 />
    <glyph glyph-name="hyphen" unicode="&#xad;" horiz-adv-x="682" 
 />
    <glyph glyph-name="period" unicode="." horiz-adv-x="569" 
 />
    <glyph glyph-name="slash" unicode="/" horiz-adv-x="569" 
 />
    <glyph glyph-name="zero" unicode="0" 
 />
    <glyph glyph-name="one" unicode="1" 
 />
    <glyph glyph-name="two" unicode="2" 
 />
    <glyph glyph-name="three" unicode="3" 
 />
    <glyph glyph-name="four" unicode="4" 
 />
    <glyph glyph-name="five" unicode="5" 
 />
    <glyph glyph-name="six" unicode="6" 
 />
    <glyph glyph-name="seven" unicode="7" 
 />
    <glyph glyph-name="eight" unicode="8" 
 />
    <glyph glyph-name="nine" unicode="9" 
 />
    <glyph glyph-name="colon" unicode=":" horiz-adv-x="569" 
 />
    <glyph glyph-name="semicolon" unicode=";" horiz-adv-x="569" 
 />
    <glyph glyph-name="semicolon" unicode="&#x37e;" horiz-adv-x="569" 
 />
    <glyph glyph-name="less" unicode="&#x3c;" horiz-adv-x="1196" 
 />
    <glyph glyph-name="equal" unicode="=" horiz-adv-x="1196" 
 />
    <glyph glyph-name="greater" unicode="&#x3e;" horiz-adv-x="1196" 
 />
    <glyph glyph-name="question" unicode="?" 
 />
    <glyph glyph-name="at" unicode="@" horiz-adv-x="2079" 
 />
    <glyph glyph-name="A" unicode="A" horiz-adv-x="1366" 
 />
    <glyph glyph-name="B" unicode="B" horiz-adv-x="1366" 
 />
    <glyph glyph-name="C" unicode="C" horiz-adv-x="1479" 
 />
    <glyph glyph-name="D" unicode="D" horiz-adv-x="1479" 
 />
    <glyph glyph-name="E" unicode="E" horiz-adv-x="1366" 
 />
    <glyph glyph-name="F" unicode="F" horiz-adv-x="1251" 
 />
    <glyph glyph-name="G" unicode="G" horiz-adv-x="1593" 
 />
    <glyph glyph-name="H" unicode="H" horiz-adv-x="1479" 
 />
    <glyph glyph-name="I" unicode="I" horiz-adv-x="569" 
 />
    <glyph glyph-name="J" unicode="J" horiz-adv-x="1024" 
 />
    <glyph glyph-name="K" unicode="K" horiz-adv-x="1366" 
 />
    <glyph glyph-name="L" unicode="L" 
 />
    <glyph glyph-name="M" unicode="M" horiz-adv-x="1706" 
 />
    <glyph glyph-name="N" unicode="N" horiz-adv-x="1479" 
 />
    <glyph glyph-name="O" unicode="O" horiz-adv-x="1593" 
 />
    <glyph glyph-name="P" unicode="P" horiz-adv-x="1366" 
 />
    <glyph glyph-name="Q" unicode="Q" horiz-adv-x="1593" 
 />
    <glyph glyph-name="R" unicode="R" horiz-adv-x="1479" 
 />
    <glyph glyph-name="S" unicode="S" horiz-adv-x="1366" 
 />
    <glyph glyph-name="T" unicode="T" horiz-adv-x="1251" 
 />
    <glyph glyph-name="U" unicode="U" horiz-adv-x="1479" 
 />
    <glyph glyph-name="V" unicode="V" horiz-adv-x="1366" 
 />
    <glyph glyph-name="W" unicode="W" horiz-adv-x="1933" 
 />
    <glyph glyph-name="X" unicode="X" horiz-adv-x="1366" 
 />
    <glyph glyph-name="Y" unicode="Y" horiz-adv-x="1366" 
 />
    <glyph glyph-name="Z" unicode="Z" horiz-adv-x="1251" 
 />
    <glyph glyph-name="bracketleft" unicode="[" horiz-adv-x="569" 
 />
    <glyph glyph-name="backslash" unicode="\" horiz-adv-x="569" 
 />
    <glyph glyph-name="bracketright" unicode="]" horiz-adv-x="569" 
 />
    <glyph glyph-name="asciicircum" unicode="^" horiz-adv-x="961" 
 />
    <glyph glyph-name="underscore" unicode="_" 
 />
    <glyph glyph-name="grave" unicode="`" horiz-adv-x="682" 
 />
    <glyph glyph-name="a" unicode="a" horiz-adv-x="1040" 
d="M184 880h644q60 0 76 -80v-664q-16 -80 -80 -80h-636q-72 24 -72 72v680q24 72 68 72zM152 792v-640q5 -60 60 -60h596q60 0 60 72v608q0 72 -56 72h-604q-56 -7 -56 -52zM228 828h560q52 0 64 -76v-568q-8 -76 -76 -76h-528q-84 0 -84 72v576q13 72 64 72zM176 756v-576
q5 -60 60 -60h548q56 10 56 64v576q-13 56 -52 56h-560q-44 0 -52 -60zM404 748l16 -4l20 4l8 -52h4q12 52 28 52l12 -48h4q0 30 20 48l4 -4v-4l-28 -96h-8q-9 0 -20 40h-4q-7 -40 -16 -40h-12zM648 748v-8h36q9 0 24 -28l-16 -28l20 -32l-8 -12l-4 4h-4l-12 -4l-20 36h-8
v-28l-8 -8h-8l-4 4l-4 -4h-12v24l-4 16l8 28l-4 4v12q0 24 28 24zM244 744l4 -4l4 4h20q31 0 36 -16v-16l-8 -12v-4q12 0 12 -16h4q0 -31 -48 -36h-40q0 8 12 8l-8 12q0 45 12 80zM364 744h24l8 -8v-4l-32 -4v-24l4 -4v-4l4 4h8l8 -8q-9 -8 -28 -8l4 -4v-8l-4 -20
q24 0 24 -8v-4l-4 4l-4 -4h-8l-40 4l4 20v16l-4 4v4h8v4h-12v4h8v24q0 24 32 24zM564 744h4q0 -16 8 -16v4l-4 12q9 0 32 -88l-4 -4h4l4 4v-12h-12v8h-4v-8h-8q-8 0 -8 16l-4 4h-12q-8 0 -8 -20h-8v8h-4v-8h-4v8l4 12h-20v4l20 12q11 0 16 44zM760 744h24l8 -8v-4l-32 -4
v-24l4 -4v-4l4 4h8l8 -8q-9 -8 -28 -8l4 -4v-8l-4 -20q24 0 24 -8v-4l-4 4l-4 -4h-8l-40 4l4 20v16l-4 4v4h8v4h-12v4h8v24q0 24 32 24zM268 732v-28l8 8v12zM656 728v-8h-4l4 -4v-12l-4 -4v-4l4 -4l-4 -4h8q16 7 16 28v4l-8 8h-12zM268 692v-36h4l8 8v16zM560 692v-12h8
l-4 12h-4zM232 600h20q7 0 24 -48h4q2 25 24 48h8v-60q0 -8 12 -8v-4h-20v52h-4l-20 -52h-8l-16 52h-4v-52h-20v4q12 0 12 8v48q0 8 -12 8v4zM352 600h24q24 -10 24 -32v-16l-24 -24h-16q-32 0 -32 32v16q8 16 24 24zM336 564q3 -32 32 -32q24 8 24 32q-3 32 -32 32
q-24 -8 -24 -32zM412 600h4q23 -19 36 -48h4v48h20v-4q-12 0 -12 -8v-60l-44 52v-52h-20v4q12 0 12 8v60zM492 600h8l20 -4l4 4v-24h-4q0 12 -16 20h-4l-12 -12l40 -32v-12q-4 -12 -24 -12l-20 4l-4 -4v24h4q0 -20 24 -20l12 12q0 6 -40 28v16zM536 600h116v-16l-16 12h-24
v-28h32v-16h-4q0 12 -8 12h-20v-32h16q13 0 28 12v-4l-4 -12h-48v60l-8 8h-28v-68h-8v68h-12q-8 0 -8 -12h-4v16zM660 600h44l12 -12v-12q0 -12 -16 -12v-4q14 -28 32 -28v20h4q0 -20 24 -20l12 12q0 6 -40 28v16l12 12h8l20 -4l4 4v-24h-4q0 12 -16 20h-4l-12 -12l40 -32
v-12q-4 -12 -24 -12l-16 4l-16 -4h-16q0 12 -24 32h-4v-32h-20v4q12 0 12 8v48q0 8 -12 8v4zM680 592v-28h4q20 0 24 16l-4 12h-24zM368 500q8 0 32 -64l12 -4v-4h-20l-8 24h-28l-8 -20h8v-4h-24v4q12 1 36 68zM404 500h20v-32h36v32h72v-16l-16 12h-24v-28h32v-16h-4
q0 12 -8 12h-20v-32h16q13 0 28 12v-4l-4 -12h-48v60l-8 8l-8 -8v-52l4 -4v-4h-12v36h-36v-36h-8v60q0 8 -12 8v4zM576 500q8 0 32 -64l12 -4v-4h-20l-8 24h-28l-8 -20h8v-4h-24v4q12 1 36 68zM612 500h40q32 0 32 -32v-8q0 -32 -32 -32h-28v60q0 8 -12 8v4zM632 488v-48
q0 -8 12 -8q32 0 32 36q-7 28 -36 28zM368 480l-8 -24h20v4l-8 20h-4zM576 480l-8 -24h20v4l-8 20h-4zM584 404h4l-8 -40l44 40h4l-28 -76l40 32h4l-44 -96h4l8 8h8q12 0 12 -16q-4 -16 -16 -16v-4l8 -12v-28h-8l-4 4h-4l4 -20v-12h-12l-4 4h-4v-24l-20 12v-4l4 -4v-4h-4
q-26 32 -44 32h-8v-4l28 -8v-8h-4l-24 8l36 -36v-4h-4q-9 0 -48 36v-4q7 -1 24 -32h-4l-28 24l-24 -12h-8v4l4 28l-4 4h-8l-24 -20h-4v16l4 20l-4 4h-12l-32 -20v4l8 32q-13 52 -48 52h-12l8 8h4q26 0 48 -24h4l-24 28h4l12 -4v4l-12 52h4q9 0 16 -48h4v40h4q0 -16 16 -24
v40q8 0 8 -12q28 20 28 32h8v-8h4l24 24l4 -4l-8 -28h4q28 29 28 44h8v-40zM552 272h4q9 0 16 36h-4q-8 0 -8 -28zM472 304v-8q0 -29 24 -32q-18 40 -24 40zM524 300v-16h4v16h-4zM512 292l-4 -20v-4h4l4 16v8h-4zM392 228h4l12 8l4 -4h4v4l-8 8l4 4h8l4 -4h4l-8 -16h4
l-8 -16h8l12 12v12l-20 20q-15 -4 -24 -28zM448 236l-8 -24q20 -1 20 -12l-4 -4v-4h12l4 20v8q0 8 -24 16zM448 232q18 -8 20 -16l-4 -4h-4l-16 8zM480 216v-4q16 0 24 -16l-4 -4h-4q-12 0 -12 12q-16 -8 -16 -24q8 0 8 12h12l8 -8v-4l-4 -4v-4h4q12 4 12 24q-6 20 -24 20
h-4z" />
    <glyph glyph-name="b" unicode="b" horiz-adv-x="960" 
d="M172 880h672v-4h12v-4h8v-4h4v-4h4v-4h4v-4h4v-4h4v-4h4v-4h4v-8h4v-8h4v-12h4v-696h-4v-12h-4v-8h-4v-4h-4v-8h-4v-4h-4v-4h-4v-4h-4v-4h-4v-4h-8v-4h-8v-4h-12v-4h-664v4h-8v4h-8v4h-8v4h-4v4h-4v4h-4v4h-4v4h-4v4h-4v8h-4v8h-4v8h-4v704h4v8h4v8h4v8h4v4h4v4h4v8h8v4
h4v4h4v4h8v4h8v4zM192 844v-4h-12v-4h-4v-4h-8v-4h-4v-8h-4v-8h-4v-8h-4v-668h4v-12h4v-8h4v-4h4v-4h4v-4h4v-4h8v-4h12v-4h628v4h12v4h8v4h4v4h4v4h4v4h4v8h4v16h4v656h-4v16h-4v8h-4v4h-4v4h-4v4h-4v4h-4v4h-12v4h-636zM216 828h584v-4h8v-4h8v-4h8v-4h4v-4h4v-4h4v-4h4
v-8h4v-12h4v-12h4v-600h-4v-12h-4v-12h-4v-4h-4v-8h-4v-4h-4v-4h-8v-4h-8v-4h-8v-4h-12v-4h-568v4h-16v4h-8v4h-8v4h-4v4h-4v4h-4v4h-4v8h-4v8h-4v12h-4v608h4v12h4v8h4v8h4v4h4v4h4v4h4v4h8v4h8v4h8v4zM216 816v-4h-8v-4h-8v-4h-4v-4h-4v-4h-4v-4h-4v-8h-4v-12h-4v-608h4
v-12h4v-8h4v-4h4v-4h4v-4h4v-4h8v-4h12v-4h576v4h8v4h8v4h8v4h4v8h4v4h4v8h4v12h4v604h-4v8h-4v8h-4v8h-4v4h-4v4h-4v4h-8v4h-8v4h-584zM392 764h4v-4h8v-4h4v-4h8v-4h4v-4h8v-4h4v4h12v4h12v4h16v4h72v-4h20v-4h12v-4h8v-4h8v4h4v4h4v4h8v4h4v4h4v4h8v-40h4v-16h4v-8h4v-8
h4v-12h4v-8h44v-8h-44v-8h-4v-4h24v-4h24v-4h-4v-4h-4v4h-28v4h-12v-8h-4v-8h12v-4h16v-4h12v-4h8v-4h-16v4h-16v4h-12v4h-8v-4h-4v-4h-4v-4h-4v-4h-4v-4h-8v-4h-8v-4h-12v-4h-20v-4h-124v4h-16v4h-12v4h-8v4h-8v4h-4v4h-4v4h-4v8h-16v-4h-12v-4h-12v-4h-16v4h8v4h12v4h12v4
h12v4h4v12h-16v-4h-28v-4h-8v8h24v4h24v12h-48v8h48v16h4v8h4v8h4v4h4v56zM440 708v-4h-12v-4h-4v-4h4v-4h8v-4h12v20h-8zM456 708v-20h16v4h8v4h4v4h-8v4h-12v4h-8zM548 708v-4h-12v-4h-8v-4h4v-4h8v-4h16v16h8v-16h16v4h8v4h4v4h-8v4h-12v4h-24zM496 676v-4h-8v-4h4v-4h4
v-8h4v-4h4v-4h8v4h4v8h4v4h4v8h-12v4h-16zM384 672v-8h84v-4h-4v-4h-8v-4h8v4h12v16h-92zM540 672v-16h8v8h84v8h-92zM432 660v-4h16v4h-16zM568 660v-4h16v4h-16zM396 656v-4h16v4h-16zM552 656v-4h8v4h-8zM604 656v-4h12v4h-12zM440 652v-4h12v4h-12zM564 652v-4h8v4h-8z
M428 648v-4h8v4h-8zM576 648v-4h12v4h-12zM416 644v-4h8v4h-8zM592 644v-4h8v4h-8zM400 640v-4h12v4h-12zM604 640v-4h8v4h-8zM392 636v-4h4v4h-4zM616 636v-4h8v4h-8zM504 632v-8h-4v-4h-4v-4h-4v-8h4v-4h8v-4h8v4h4v4h4v4h4v4h-4v4h-4v4h-4v4h-4v4h-4zM572 556h40v-4h12
v-4h4v-4h4v-4h4v-16h4v-20h-8v8h-4v4h-4v4h-8v-4h-8v4h-8v12h-4v-4h-8v4h-8v-4h-8v-4h-4v-8h-4v-8h-4v-24h4v-8h4v-4h4v-4h4v-4h8v-4h20v4h8v4h4v4h4v4h4v4h8v-8h-4v-12h-4v-8h-4v4h-4v4h-8v-4h-4v-8h-4v-4h-12v4h-4v4h-4v4h-4v4h-8v4h-4v-12h-8v20h-4v8h-4v8h-4v32h4v12h4
v4h4v8h4v4h8v4h4v4zM716 556h4v-4h16v-24h-4v4h-4v-16h-8v8h-4v-8h-4v-4h-4v-16h4v-8h4v-8h4v-12h4v-8h-12v-4h-4v12h-4v8h-4v4h-4v4h-4v8h-4v4h-4v4h-4v-28h-8v-24h-8v12h-4v32h-4v28h-4v16h-4v16h36v-20h-4v-28h4v4h4v4h4v4h4v8h4v8h4v8h4v12h8v4zM280 552h40v-4h24v-4h4
v-4h4v-4h4v-20h-4v-4h-4v-4h-4v-8h4v-8h4v-4h4v-16h-4v-4h-4v-4h-4v-4h-4v-8h-8v4h-8v-8h-4v4h-4v8h-4v-4h-8v-16h-4v4h-4v12h-4v28h-4v24h-4v24h-4v20zM368 552h40v-12h-4v-24h-4v-20h4v-4h-4v-24h32v8h12v-20h-4v-8h-8v4h-4v4h-24v-4h-4v-8h-8v16h-4v8h-4v16h-4v24h-4v20
h-4v8h-4v16zM484 552h20v-4h4v-4h4v-8h4v-8h4v-8h4v-8h4v-8h4v-12h4v-20h-4v-12h-4v-12h-8v24h-4v4h-8v4h-4v4h-4v-4h-8v-4h-8v4h-4v4h-8v-4h-4v-32h-8v24h-4v32h4v8h4v4h4v8h4v8h4v8h4v8h4v4zM316 532v-12h-4v4h-4v-24h4v-4h4v8h16v4h4v8h4v12h-8v-4h-8v4h-4v4h-4zM492 520
v-8h-4v-8h-8v-8h4v-4h8v4h20v4h-4v4h-4v12h-4v4h-8zM320 492v-4h-12v-16h4v-4h8v4h8v4h4v4h4v4h-4v4h-4v4h-8zM356 428h40v-4h12v-4h4v-4h4v-4h4v-16h4v-20h-8v8h-4v4h-4v4h-8v-4h-8v4h-8v12h-4v-4h-8v4h-8v-4h-8v-4h-4v-8h-4v-8h-4v-24h4v-8h4v-4h4v-4h4v-4h8v-4h20v4h8v4
h4v4h4v4h4v4h8v-8h-4v-12h-4v-8h-4v4h-4v4h-8v-4h-4v-8h-4v-4h-12v4h-4v4h-4v4h-4v4h-8v4h-4v-12h-8v20h-4v8h-4v8h-4v32h4v12h4v4h4v8h4v4h8v4h4v4zM464 424h20v-4h4v-4h4v-8h4v-8h4v-8h4v-8h4v-8h4v-12h4v-20h-4v-12h-4v-12h-8v24h-4v4h-8v4h-4v4h-4v-4h-8v-4h-8v4h-4v4
h-8v-4h-4v-32h-8v24h-4v32h4v8h4v4h4v8h4v8h4v8h4v8h4v4zM524 424h76v-28h-8v4h-4v4h-4v-4h-8v-28h-4v-36h-4v-4h-4v-8h-8v8h4v12h-8v56h-8v-8h-4v16h-4v-8h-8v8h-4v16zM620 424h56v-4h4v-44h-8v12h-4v8h-8v-8h-8v8h-4v4h-8v-12h4v-4h4v-4h4v-4h8v-4h4v-4h4v-4h4v-4h4v-4h4
v-20h-4v-4h-8v-4h-8v-4h-4v-4h-8v-4h-4v4h-4v-8h-8v16h-4v4h-4v4h-8v8h-4v16h8v-4h4v-8h4v-4h4v-4h4v-4h12v4h8v12h-4v8h-4v-4h-4v-4h-8v12h-4v8h-4v4h-4v4h-4v4h-4v4h-4v4h-4v16h4v8h4v4h4v4zM472 392v-8h-4v-8h-8v-8h4v-4h8v4h20v4h-4v4h-4v12h-4v4h-8zM592 316h8v-12h-4
v-8h-4v-8h-4v-8h-4v-8h-4v-8h-4v-8h-4v-8h-4v-8h-4v-8h-4v-8h-4v-8h-4v-8h12v8h4v4h4v12h4v4h4v4h12v-8h-4v-8h-4v-8h-4v-8h8v4h4v8h4v8h4v8h4v4h16v-4h-4v-8h-4v-8h-4v-8h-4v-8h-4v-4h-4v-8h-4v-8h-4v-8h-4v-8h-4v-8h-4v-4h-4v-4h-16v8h-4v4h4v12h4v4h4v4h4v-8h-4v-4h-4v-8
h8v4h4v8h4v8h4v4h-4v4h8v8h4v4h-4v-4h-8v-4h-8v4h-4v4h-4v-4h-8v-4h-8v4h-4v4h-4v4h-4v4h4v8h4v4h4v8h4v8h4v8h4v8h4v8h4v8h4v12h4v8h4v8h4v8h4v4h8v4zM448 296h20v-4h4v-4h4v-12h4v-20h-4v-16h-4v-12h-4v-4h16v-4h-20v-4h-4v8h-8v4h-4v4h-4v4h-4v4h-4v12h-4v12h-4v-4h-4v-8
h-4v-16h-4v-8h4v-12h4v-4h4v-4h20v4h8v-4h-4v-4h-4v-4h-8v-4h-24v4h-4v4h-4v4h-4v12h-4v4h4v16h4v8h4v8h4v4h4v4h4v4h8v4h4v12h4v-32h4v-12h4v-4h4v-4h4v-4h8v4h4v12h4v24h-4v12h-4v8h-4v4h-12v4zM444 292h4v-4h-4v4zM440 288h4v-4h-4v4zM524 244h4v-4h4v-12h-4v-4h-4v-8h-4
v-8h12v-4h-4v-4h-8v-4h-8v4h-4v4h-4v8h4v8h4v8h4v4h-4v-4h-8v-8h-4v-4h-4v-8h-4v-8h-16v4h4v8h4v8h4v12h4v4h4v4h12v-4h8v4h8v4zM456 216h4v-4h-4v4zM596 192h4v-4h-4v4zM568 188h8v-4h-8v4z" />
    <glyph glyph-name="c" unicode="c" horiz-adv-x="960" 
d="M352 842h340v-4h4v-4h4v-4h4v-4h4v-4h4v-4h4v-4h4v-4h4v-4h4v-4h4v-4h4v-4h4v-4h4v-4h4v-4h4v-4h4v-4h4v-4h4v-4h4v-4h4v-4h4v-4h4v-4h4v-4h4v-4h4v-4h4v-4h4v-4h4v-4h4v-4h4v-4h4v-4h4v-4h4v-4h4v-4h4v-4h4v-4h4v-4h4v-4h4v-4h4v-4h4v-4h4v-4h4v-4h4v-4h4v-4h4v-4h4v-4
h4v-4h4v-4h4v-4h4v-4h4v-4h4v-4h4v-4h4v-4h4v-4h4v-4h4v-4h4v-332h-4v-4h-4v-4h-4v-4h-4v-4h-4v-4h-4v-4h-4v-4h-4v-4h-4v-4h-4v-4h-4v-4h-4v-4h-4v-4h-4v-4h-4v-4h-4v-4h-4v-4h-4v-4h-4v-4h-4v-4h-4v-4h-4v-4h-4v-4h-4v-4h-4v-4h-4v-4h-4v-4h-4v-4h-4v-4h-4v-4h-4v-4h-4v-4
h-4v-4h-4v-4h-4v-4h-4v-4h-4v-4h-4v-4h-4v-4h-4v-4h-4v-4h-4v-4h-4v-4h-4v-4h-8v-4h-4v-4h-4v-4h-4v-4h-4v-4h-4v-4h-4v-4h-4v-4h-4v-4h-4v-4h-4v-4h-4v-4h-4v-4h-4v-8h-340v4h-4v4h-4v4h-4v4h-4v4h-4v4h-4v4h-4v4h-4v4h-4v4h-4v4h-4v4h-4v4h-4v4h-4v4h-4v4h-4v4h-4v4h-4v4
h-4v4h-4v4h-4v4h-4v4h-4v4h-4v4h-4v4h-4v4h-4v4h-4v4h-4v4h-4v4h-4v4h-4v4h-4v4h-4v4h-4v4h-4v4h-4v4h-4v4h-4v4h-4v4h-4v4h-4v4h-4v4h-4v4h-4v4h-4v4h-4v4h-4v4h-4v4h-4v4h-4v4h-4v4h-4v4h-4v4h-4v4h-4v4h-4v4h-4v4h-4v332h4v4h4v4h4v4h4v4h4v4h4v4h4v4h4v4h4v4h4v4h4v4h4
v4h4v4h4v4h4v4h4v4h4v4h4v4h4v4h4v4h4v4h4v4h4v4h4v4h4v4h4v4h4v4h4v4h4v4h4v4h4v4h4v4h4v4h4v4h4v4h4v4h4v4h4v4h4v4h4v4h4v4h4v4h4v4h4v4h4v4h4v4h4v4h4v4h4v4h4v4h4v4h4v4h4v4h4v4h4v4h4v4h4v4h4v4h4v4zM372 806v-4h-4v-4h-4v-4h-4v-4h-4v-4h-4v-4h-4v-4h-4v-4h-4v-4h-8
v-4h-4v-4h-4v-4h-4v-4h-4v-4h-4v-4h-4v-4h-4v-4h-4v-4h-4v-4h-4v-4h-4v-4h-4v-4h-4v-4h-4v-4h-4v-4h-4v-4h-4v-4h-4v-4h-4v-4h-4v-4h-4v-4h-4v-4h-4v-4h-4v-4h-4v-4h-4v-4h-4v-4h-4v-4h-4v-4h-4v-4h-4v-4h-4v-4h-4v-4h-4v-4h-4v-4h-4v-4h-4v-4h-4v-4h-4v-4h-4v-4h-4v-4h-4
v-4h-4v-4h-4v-4h-4v-300h4v-4h4v-4h4v-4h4v-4h4v-4h4v-4h4v-4h4v-4h4v-4h4v-4h4v-4h4v-4h4v-4h4v-4h4v-4h4v-4h4v-4h4v-4h4v-4h4v-4h4v-4h4v-4h4v-4h4v-4h4v-4h4v-4h8v-4h4v-4h4v-4h4v-4h4v-4h4v-4h4v-4h4v-4h4v-4h4v-4h4v-4h4v-4h4v-4h4v-4h4v-4h4v-4h4v-4h4v-4h4v-4h4v-4
h4v-4h4v-4h4v-4h4v-4h4v-4h4v-4h4v-4h4v-4h300v4h4v4h4v4h4v4h4v4h4v4h4v4h4v4h4v4h4v4h4v4h4v4h4v4h4v4h4v4h4v4h4v4h4v4h4v4h4v4h4v4h4v4h4v4h4v4h4v4h4v4h4v4h4v4h4v4h4v4h4v4h4v4h4v4h4v4h4v4h4v4h4v4h4v4h4v4h4v4h4v4h4v4h4v4h4v4h4v4h4v4h4v4h8v4h4v4h4v4h4v4h4v4h4v4
h4v8h4v296h-4v4h-4v4h-4v4h-4v4h-4v4h-4v4h-4v4h-4v4h-4v4h-4v4h-4v4h-4v4h-4v4h-4v4h-4v4h-4v4h-4v4h-4v4h-4v4h-4v4h-4v4h-4v4h-4v4h-4v4h-4v4h-4v4h-8v4h-4v4h-4v4h-4v4h-4v4h-4v4h-4v4h-4v4h-4v4h-4v4h-4v4h-4v4h-4v4h-4v4h-4v4h-4v4h-4v4h-4v4h-4v4h-4v4h-4v4h-4v4h-4
v4h-4v4h-4v4h-4v4h-4v4h-4v4h-300zM376 786h292v-4h4v-4h4v-4h4v-4h4v-4h4v-4h4v-4h4v-4h4v-4h4v-4h4v-4h4v-4h4v-4h4v-4h4v-4h4v-4h4v-4h4v-4h4v-4h4v-4h4v-4h4v-4h4v-4h4v-4h4v-4h4v-4h4v-4h4v-4h4v-4h4v-4h4v-4h4v-4h4v-4h4v-4h4v-4h4v-4h4v-4h4v-4h4v-4h4v-4h4v-4h4v-4
h4v-4h4v-4h4v-4h4v-4h4v-4h4v-4h4v-4h4v-4h4v-288h-4v-4h-4v-4h-4v-4h-4v-4h-4v-4h-4v-4h-4v-4h-4v-4h-4v-4h-4v-4h-4v-4h-4v-4h-4v-4h-4v-4h-4v-4h-4v-4h-4v-4h-4v-4h-4v-4h-4v-4h-4v-4h-4v-4h-4v-4h-4v-4h-4v-4h-8v-4h-4v-4h-4v-4h-4v-4h-4v-4h-4v-4h-4v-4h-4v-4h-4v-4h-4
v-4h-4v-4h-4v-4h-4v-4h-4v-4h-4v-4h-4v-4h-4v-4h-4v-4h-4v-4h-4v-4h-4v-4h-4v-4h-4v-4h-4v-4h-4v-4h-288v4h-4v4h-4v4h-4v4h-4v4h-4v4h-4v4h-4v4h-4v4h-4v4h-4v4h-4v4h-4v4h-4v4h-4v4h-4v4h-4v4h-4v4h-4v4h-4v4h-4v4h-4v4h-4v4h-4v4h-4v4h-4v4h-4v4h-4v4h-4v4h-4v4h-4v4h-4
v4h-4v4h-4v4h-4v4h-4v4h-4v4h-4v4h-4v4h-4v4h-4v4h-4v4h-4v4h-4v4h-4v4h-4v4h-4v4h-4v4h-4v4h-4v4h-4v288h4v4h4v4h4v4h4v4h4v4h4v4h4v4h4v4h4v4h4v4h4v4h4v4h4v4h4v4h4v4h4v4h4v4h4v4h4v4h4v4h4v4h4v4h4v4h4v4h4v4h4v4h4v4h4v4h4v4h4v4h4v4h4v4h4v4h4v4h4v4h4v4h4v4h4v4h4
v4h4v4h4v4h4v4h4v4h4v4h4v4h4v4h4v4h4v4h4v4h4v4zM388 774v-4h-8v-4h-4v-4h-4v-4h-4v-4h-4v-4h-4v-4h-4v-4h-4v-4h-4v-4h-4v-4h-4v-4h-4v-4h-4v-4h-4v-4h-4v-4h-4v-4h-4v-4h-4v-4h-4v-4h-4v-4h-4v-4h-4v-4h-4v-4h-4v-4h-4v-4h-4v-4h-4v-4h-4v-4h-4v-4h-4v-4h-4v-4h-4v-4h-4
v-4h-4v-4h-4v-4h-4v-4h-4v-4h-4v-4h-4v-4h-4v-4h-4v-4h-4v-4h-4v-4h-4v-4h-4v-4h-4v-4h-4v-4h-4v-4h-4v-272h4v-4h4v-4h4v-4h4v-4h4v-4h4v-4h4v-4h4v-4h4v-4h4v-4h4v-4h4v-4h4v-4h4v-4h4v-4h4v-4h4v-4h4v-4h4v-4h4v-4h4v-4h4v-4h4v-4h4v-4h4v-4h4v-4h4v-4h4v-4h4v-4h4v-4h4
v-4h4v-4h4v-4h4v-4h4v-4h4v-4h8v-4h4v-4h4v-4h4v-4h4v-4h4v-4h4v-4h4v-4h4v-4h4v-4h4v-4h4v-4h4v-4h268v4h4v4h4v4h4v4h4v4h4v4h4v4h4v4h4v4h4v4h4v4h4v4h4v4h4v4h4v4h4v4h4v4h4v4h4v4h4v4h4v4h4v4h4v4h4v4h4v4h4v4h4v4h4v4h4v4h4v4h4v4h4v4h4v4h4v4h4v4h4v4h4v4h4v4h8v4h4
v4h4v4h4v4h4v4h4v4h4v4h4v4h4v4h4v4h4v8h4v268h-4v4h-4v4h-4v4h-4v4h-4v4h-4v4h-4v4h-4v4h-4v4h-4v4h-4v4h-4v4h-4v4h-4v4h-4v4h-4v4h-4v4h-4v4h-4v4h-4v4h-4v4h-4v4h-4v4h-4v4h-4v4h-4v4h-4v4h-4v4h-4v4h-4v4h-4v4h-4v4h-4v4h-4v4h-4v4h-4v4h-8v4h-4v4h-4v4h-4v4h-4v4h-4v4
h-4v4h-4v4h-4v4h-4v4h-4v4h-4v4h-4v4h-268zM616 670h12v-24h-8v8h-4v16zM372 658h36v-4h8v-4h4v-4h4v-4h4v-32h-4v4h-4v8h-16v8h-12v4h-4v-12h-4v12h-12v-4h-4v-4h-4v-8h-4v-24h4v-4h4v-4h4v-4h8v-4h20v4h12v4h4v4h8v-8h-4v-4h-4v-12h-8v4h-8v-4h-4v-4h-16v4h-4v4h-8v4h-4
v-8h-8v12h-4v8h-4v8h-4v32h4v8h4v8h4v4h4v4h4v4h8v4zM468 650h16v-4h4v-8h4v-8h4v-8h4v-8h4v-12h4v-16h-4v-16h-4v-4h-4v12h-4v12h-8v4h-12v-4h-8v4h-8v-28h-8v20h-4v24h4v8h4v8h4v8h4v8h4v4h4v4zM516 650h32v-12h4v-8h4v-4h4v-12h4v-12h4v-4h4v36h-4v16h32v-8h-4v-4h-4v-8
h-4v-28h-4v-20h-4v-12h-4v4h-4v8h-8v4h-4v4h-4v4h-4v8h-4v8h-8v-24h-4v-20h-4v16h-4v-4h-4v28h-4v32h-4v12zM640 650h44v-4h20v-24h-8v12h-4v-4h-8v-20h-4v-32h-4v-4h-4v-4h-4v16h-4v40h-4v4h-4v-4h-4v12h-4v-8h-4v8h-4v12zM476 626v-4h-4v-8h-8v-12h8v4h12v-4h4v8h-4v12h-4
v4h-4zM412 542h20v-4h72v-20h-4v-24h-4v-4h-4v4h-4v20h-4v-4h-4v-4h-8v-20h-4v-24h-4v-52h-4v-8h-4v-4h-4v-8h-8v20h4v4h-4v8h-4v4h-4v80h-4v-4h-4v-8h-8v24h-4v-8h-4v-12h-8v20h-4v20h12v4zM312 538h68v-4h4v-60h-4v-4h-4v8h-4v12h-4v12h-4v-4h-4v-12h-8v12h-4v4h-4v4h-8
v-16h4v-4h4v-8h4v-4h4v-4h4v-4h4v-4h4v-4h4v-4h4v-4h4v-4h4v-32h-4v-4h-4v-4h-8v-4h-4v-4h-4v-4h-4v-4h-8v4h-4v-4h-4v-8h-8v20h-4v4h-4v4h-4v4h-4v4h-4v4h-4v24h8v-8h4v-8h4v-8h4v-4h4v-4h16v4h4v4h4v16h-4v8h-4v-4h-4v-8h-8v12h-4v12h-4v4h-4v4h-4v4h-4v4h-4v8h-4v4h-4v4
h-4v24h4v8h4v8h4v4h4v4zM556 538h36v-4h8v-4h8v-4h4v-4h8v-4h4v-8h4v-8h4v-20h4v-20h-4v-12h-4v-12h-4v-8h4v-12h-16v-8h-4v-8h-4v-4h-8v-4h-8v-4h-12v4h-4v4h-16v4h-4v4h-4v4h-8v-12h-8v4h-4v20h-4v12h-4v8h-4v12h-4v40h4v8h4v8h4v8h4v4h8v4h4v4h8v4h8v4zM660 538h64v-4h8
v-4h8v-4h4v-8h4v-4h4v-12h4v-48h-16v-8h-4v-12h-8v4h-4v4h-4v-12h-4v-4h-8v8h-4v-4h-16v-20h4v-12h-8v-12h4v-4h-12v12h-4v52h-4v4h-4v4h4v12h-4v16h-4v16h-4v16h-4v20h8v4zM576 506v-16h-4v-4h-8v4h-4v8h-12v-4h-4v-4h-4v-4h-4v-12h-4v-36h4v-8h4v-4h8v-4h4v-4h12v-4h24v4
h8v4h8v4h4v4h4v16h4v8h-4v12h-4v4h-4v8h-4v20h-4v-4h-4v-4h-8v16h-8zM692 494v-4h-4v-36h4v-8h12v4h8v4h4v4h4v4h4v4h4v20h-4v8h-8v-4h-4v-8h-8v8h-4v4h-8zM272 366h28v-36h-4v-12h4v-4h8v-4h8v-4h4v4h4v8h-4v28h-4v20h28v-68h-8v-44h-4v-12h-4v12h-4v32h-8v4h-8v-12h-4v12
h-4v-16h-4v-8h-4v-24h-4v4h-4v28h-4v44h-4v32h-4v16zM724 362h24v-4h4v-4h4v-4h4v-40h-4v8h-4v4h-12v8h-4v-4h-4v4h-4v4h-4v-4h-4v-4h-4v-8h-4v-32h4v-8h4v-4h4v-4h12v4h4v4h4v4h-4v4h-4v16h12v-4h12v-8h4v-4h-4v-12h-4v-4h-4v-12h-4v4h-4v-4h-4v-4h-4v-4h-8v4h-4v8h-4v4h-4
v-8h-8v24h-4v12h-4v32h4v12h4v8h4v4h4v8h8v4zM372 358h8v-4h4v-4h4v-12h4v-16h4v-12h4v-16h4v-16h-4v-20h-4v-8h-4v24h-4v8h-4v4h-8v-4h-8v4h-4v-8h-4v-4h4v-4h-4v-16h-4v20h-4v36h4v12h4v12h4v12h4v8h4v4zM412 358h16v-4h4v-24h-4v-24h-4v-8h4v-4h4v-16h12v4h4v60h-4v16h20
v-4h4v-24h-4v-24h-4v-20h-4v-28h-4v4h-4v4h-4v-4h-8v4h-4v4h-8v8h-4v4h-4v44h-4v-4h-4v32h4v4zM476 358h20v-8h4v-16h4v-8h4v-20h4v-8h4v44h-4v8h4v8h20v-4h4v-8h-4v-8h-4v-24h-4v-40h-4v-16h-4v4h-4v12h-8v4h-4v12h-4v8h-4v8h-4v-28h-4v-24h-4v12h-4v20h-4v4h4v8h-4v40h-4
v16h4v4zM548 358h16v-4h8v4h8v-4h4v-4h12v-28h-8v8h-8v-44h-4v-24h-4v-4h-4v16h-4v56h-4v-4h-4v12h-4v-8h-4v12h-4v12h4v4zM600 358h20v-4h4v-8h-4v-68h-4v-20h-8v24h-4v48h-4v28zM632 358h20v-12h4v-12h4v-8h4v-20h4v-12h4v48h-4v12h4v4h20v-4h4v-8h-4v-4h-4v-16h-4v-52h-4
v-16h-8v16h-8v4h-4v12h-4v8h-4v8h-4v-28h-4v-28h-4v20h-8v68h-4v16h4v4zM376 326v-12h-4v-4h-4v-12h4v4h12v-4h4v8h-4v16h-4v4h-4z" />
    <glyph glyph-name="d" unicode="d" horiz-adv-x="960" 
d="M184 904h644q60 0 76 -80v-664q-16 -80 -80 -80h-636q-72 24 -72 72v680q24 72 68 72zM152 816v-640q5 -60 60 -60h596q60 0 60 72v608q0 72 -56 72h-604q-56 -7 -56 -52zM228 852h560q52 0 64 -76v-568q-9 -76 -76 -76h-528q-84 0 -84 72v576q13 72 64 72zM176 780v-576
q5 -60 60 -60h548q56 10 56 64v576q-13 56 -52 56h-560q-44 0 -52 -60zM272 752h20q24 -9 24 -40v-8h-8q0 12 -12 12l-4 -4v16h-4v-12h-4v12q-8 0 -8 -12h-4l-4 12q-12 -1 -24 -28q0 -26 36 -32q10 0 28 16h4v-4l-12 -20l-12 4l-12 -12h-4l-16 12l-12 -4v4l-12 40
q4 48 40 48zM636 752h8q40 -5 40 -40l-8 -32l4 -12h-8v8h-4q0 -17 -28 -24l-24 16v-8h-8l-16 52q11 40 44 40zM352 748h12q28 -34 28 -64l-4 -32h-8v20q0 9 -20 12l-4 -4h-4l-12 4v-4l-4 -28h-8l-4 48q21 48 28 48zM400 748h32l-8 -56q8 0 8 -16h12q12 4 12 24v8l-8 40h32
v-4l-16 -88q-8 0 -8 12l-4 -4h-12q-32 9 -32 40v16l-4 -4h-4v32zM484 748h24l4 -4l4 4h4l28 -4v-24h-8v8l-12 -4q-3 -68 -16 -68l-4 48v20h-4l-4 -4h-4v12h-4v-8h-4l-4 20v4zM560 748h32l-4 -40v-32l-4 4h-4v-8l4 -4l-4 -12q-9 0 -20 92zM696 748h36q0 -17 28 -56l-8 52
l20 4h16v-4q-12 -10 -20 -84h-8q0 12 -12 12l-20 32h-8l4 -40v-12h-8v24l-12 -8zM640 728v-12l-20 4q-12 -2 -12 -32q9 -20 40 -20q18 8 20 16v12l-8 24h-4l-12 -4v12h-4zM360 720q0 -12 -12 -12l-4 -4v-4l4 -4h4l16 4l4 -4v4q-5 20 -12 20zM484 628q0 -8 20 -8l16 -20v-40
l4 -48h20q21 0 24 12q-28 0 -28 12l-16 8v8l4 40h-4q0 9 36 32h8l20 -4l-4 -12l4 -44h-16q0 16 -8 16h-12q0 -24 32 -28l4 -16l-4 -4v-36l4 -4v-4q-40 -3 -40 -16q-17 0 -28 16l-24 -16h-12v8l-4 -4h-12q-16 8 -16 20l4 4l-4 20v60q0 24 20 36zM640 628l28 -4l-4 -4l4 -20
v-28h-24v-20l8 -72l-32 -8l-4 4v96q-24 0 -24 8v36q0 8 48 12zM304 624l40 -8q-3 -32 -8 -32l4 -4v-12q-29 0 -32 12l-12 -4l4 -4v-12l-4 -4v-4l4 -4h4l4 12l48 -8l-4 -4v-76h-12l-4 4l-4 12h-4q-12 0 -12 -12h-4q-35 0 -40 52v12l4 12l-4 20v40zM416 624h4l8 -8l4 4h16
l-4 -20v-100l4 -20h-8l-4 4h-4v-8h-4l-4 4l-4 -4h-12l4 28v16h-20v-16l4 -28l-36 -4v60l4 4l-4 4v8l4 4l-4 4v48h8v4l4 -4h4l12 8h4v-56h16v60zM708 624h8l20 -4l-4 -12l4 -44h-16q0 16 -8 16h-12q0 -24 32 -28l4 -16l-4 -4v-36l4 -4v-4q-40 -3 -40 -16q-21 0 -24 12v28h20
q21 0 24 12q-32 0 -32 16q-12 0 -12 12l4 40h-4q0 9 36 32zM476 568v-4l4 -52h4q12 3 16 16h8l-8 12v4l4 20zM300 540v-24h16v16q-12 0 -12 8h-4zM296 440q7 0 16 -28h4q0 22 16 28h28v-12l-16 -72v-8h-4l-8 8v44h-4l-12 -40h-4l-12 28v8h-4v-52h-8l-4 20l-4 -4h-4l-8 76
l4 4h24zM400 440h12q28 -34 28 -64l-4 -32h-8v20q0 9 -20 12l-4 -4h-4l-12 4v-4l-4 -28h-8l-4 48q21 48 28 48zM668 440h64l4 -20v-4l-8 -8q0 13 -32 16l-4 -4v-8l8 -8l4 4h4l20 -4v-4l-8 -16h-4q0 12 -8 12h-12v-28h32l-8 -16h-8v8l-24 -12l-12 44h4q-12 21 -12 48z
M440 436h20q12 -2 12 -32h12q4 32 12 32h28q-16 -17 -16 -32h-4v8h-4q0 -24 -8 -24l-4 4l-4 -44h-8l-12 60l-4 -4h-8q0 16 -8 16h-4v16zM592 436h52l16 -16v-8l-12 -16v-8q12 0 12 -8v-12q0 -6 -16 -12v-8h-8v8h-4v-8h-8v8q-12 0 -12 -16h-4zM624 420l-4 -28q24 6 24 24h-4z
M408 412q0 -12 -12 -12l-4 -4v-4l4 -4h4l16 4l4 -4v4q-5 20 -12 20zM620 380v-16h4l20 8v4l-8 8zM736 320h8q36 0 36 -40v-8h-4l-16 12l-4 -4v12h-4v-8h-4v12q-8 0 -8 -12h-4l-4 12q-15 -4 -24 -28q6 -32 32 -32l12 4v8l-12 4l4 12h12l24 -8v-16q-12 0 -12 -12h-4l-12 4
l-12 -12h-4l-20 16l-8 -8l-12 44q4 48 40 48zM244 316h36l-8 -60v-16h12l28 4v-12l-12 -12l-8 8h-12l-12 -8q-13 23 -24 96zM324 316h32l-8 -56q8 0 8 -16h12q12 4 12 24v8l-8 40h32v-4l-16 -88q-8 0 -8 12l-4 -4h-12q-32 9 -32 40v16l-4 -4h-4v32zM408 316h40l24 -24
l-4 -36h-4l-4 4h-4l-4 -12l12 -12v-8h-4q-24 13 -24 20h-8l-4 -24h-4zM476 316h32l-4 -44q12 0 24 44h24v-24h-4v8h-4v-20h-4v8h-4l-8 -16q12 -20 12 -40l-12 -4q0 19 -24 40v-28l-4 4h-4l4 -4v-8l-8 -8zM560 316h32l-4 -40v-32h-8v-4l4 -4l-4 -12q-9 0 -20 92zM600 316h36
q0 -17 28 -56l-8 52l20 4h16v-4q-12 -10 -20 -84h-8q0 12 -12 12l-20 32h-8l4 -40v-12h-8v24l-12 -8zM428 288l8 -32q20 6 20 28l-4 4h-4l-8 -8l-8 8h-4z" />
    <glyph glyph-name="e" unicode="e" horiz-adv-x="960" 
d="M176 904h16v4h644v-4h16v-4h8v-4h8v-4h4v-4h4v-4h4v-4h4v-4h4v-4h4v-4h4v-8h4v-8h4v-12h4v-20h4v-656h-4v-20h-4v-12h-4v-8h-4v-8h-4v-4h-4v-4h-4v-4h-4v-4h-4v-4h-4v-4h-8v-4h-8v-4h-8v-4h-668v4h-12v4h-8v4h-4v4h-4v4h-4v4h-4v4h-4v4h-4v4h-4v8h-4v4h-4v12h-4v16h-4
v676h4v12h4v12h4v8h4v4h4v4h4v8h4v4h4v4h8v4h4v4h8v4h8v4zM196 868v-4h-8v-4h-8v-4h-8v-4h-4v-8h-4v-8h-4v-672h-4v-4h4v-12h4v-8h4v-4h4v-4h4v-4h4v-4h8v-4h652v4h8v4h4v4h4v4h4v8h4v8h4v684h-4v8h-4v4h-4v4h-4v4h-4v4h-8v4h-8v4h-636zM220 852h584v-4h8v-4h8v-4h8v-4h4v-4
h4v-4h4v-4h4v-8h4v-8h4v-12h4v-608h-4v-12h-4v-8h-4v-8h-4v-4h-4v-4h-4v-4h-4v-4h-8v-4h-8v-4h-12v-4h-576v4h-12v4h-8v4h-8v4h-4v4h-4v4h-4v4h-4v4h-4v12h-4v8h-4v616h4v8h4v12h4v4h4v4h4v4h4v4h4v4h4v4h8v4h12v4zM220 840v-4h-8v-4h-8v-4h-4v-4h-4v-4h-4v-4h-4v-12h-4v-8
h-4v-608h4v-8h4v-8h4v-8h4v-4h4v-4h8v-4h8v-4h8v-4h220v28h4v4h-8v-4h-8v-4h-4v-4h-4v-4h-8v-8h-8v8h4v4h4v4h4v4h4v4h4v4h4v4h4v8h4v8h4v4h4v4h4v4h-32v-4h-12v-4h-4v-4h-8v-4h-4v-4h-4v-4h-4v-4h-4v-4h-4v-4h-4v-4h-8v-4h-8v8h4v4h4v4h4v4h4v4h4v4h4v4h4v4h4v4h4v12h4v4h4
v4h4v4h-8v-4h-8v-4h-4v-4h-12v4h4v4h4v4h4v4h8v4h4v8h4v4h4v4h-8v-4h-4v-4h-4v-4h-8v-4h-8v-4h-8v-4h-4v-4h-4v-4h-8v-4h-12v-4h-4v-4h-4v-4h-4v-4h-4v-8h-4v-4h-4v-8h-4v-4h-4v12h4v4h4v8h4v4h4v8h4v4h-20v-4h-4v-4h-4v-4h-8v8h4v4h8v4h8v4h20v8h8v4h8v4h4v4h-4v4h-12v8h4
v4h8v-4h12v4h4v-4h4v4h4v4h4v4h4v4h4v4h4v4h-4v-4h-16v4h-4v4h-4v4h-16v-4h-16v4h-8v4h-20v8h12v-4h12v12h-8v8h8v-4h4v-12h4v-8h20v4h8v-4h28v4h8v4h8v4h4v4h4v8h-4v4h-4v4h-4v12h4v-4h4v-4h8v-4h4v-4h4v-4h4v-4h4v-4h4v8h-4v32h12v-12h4v-12h4v-8h4v-4h4v12h4v8h8v-8h4
v-12h4v-8h8v8h4v4h4v8h8v-12h4v4h4v4h4v8h4v12h4v8h4v-4h4v-8h4v8h4v8h4v8h4v20h4v16h8v-8h8v4h4v4h8v-12h-8v-4h-4v-4h-4v-4h-4v-8h-4v-16h4v-12h4v-4h4v-12h8v4h4v-8h12v-4h4v-4h4v4h8v-4h8v4h4v4h4v8h4v4h8v-8h-4v-4h-4v-4h8v4h4v4h4v4h4v4h4v-4h4v-4h-4v-4h-4v-4h-4v-4
h-4v-4h-4v-4h-8v-4h-4v-8h-4v-8h8v-4h8v-4h4v4h16v-32h4v-8h4v-8h4v-16h4v-8h4v-4h-8v4h-4v8h-4v4h-4v4h-8v4h-8v4h-4v4h-8v4h-8v-8h4v-4h4v-12h4v-8h4v-4h4v-8h4v-8h4v-4h4v-8h-8v4h-4v4h-4v4h-4v8h-4v4h-8v4h-4v-4h4v-8h4v-4h4v-8h4v-8h4v-8h-4v-4h-4v4h-4v4h-4v4h-8v4h-8
v4h-4v4h-8v-40h212v4h8v4h8v4h8v8h4v4h4v4h4v8h4v12h4v600h-4v12h-4v8h-4v8h-4v4h-4v4h-4v4h-8v4h-8v4h-584zM304 776h4v-4h-4v4zM580 776h4v-4h-4v4zM680 776h8v-8h40v-4h8v-4h4v-4h4v-4h4v-4h4v-28h-4v-8h-4v-4h-8v-8h4v-4h4v-8h4v-8h4v-4h4v-8h4v-8h-8v-8h-8v4h-4v-4h-16
v4h-4v8h-4v8h-4v8h-4v4h-4v8h-8v-28h-4v-8h-4v4h-4v-8h-12v4h-4v-4h-8v-4h-4v48h-8v8h8v64h4v4h20v4zM308 772h52v-4h4v-8h-4v-4h-36v-36h32v-8h-4v-4h-4v-4h-24v-12h4v-8h-4v-20h20v-4h4v-4h8v-4h-56v4h-16v8h4v40h-4v4h12v4h-16v4h8v44h8v8h12v4zM376 772h4v-4h4v-4h4v8h4
v-8h4v4h4v4h8v-4h4v-8h4v-8h4v-8h4v-4h4v-8h4v-8h8v12h-4v12h4v12h-4v4h4v8h4v-24h4v4h4v-96h-8v8h-4v-12h-12v8h-4v4h-4v8h-4v4h-4v12h-4v8h-4v8h-4v8h-4v8h-4v4h-4v4h-4v-72h-4v4h-4v-4h-4v112h4v4zM448 772h4v-8h-4v8zM464 772h4v-8h-4v8zM472 772h36v-36h4v-4h4v40h28
v-4h-4v-4h12v-4h-4v-4h-12v-4h-4v-68h-4v-28h-36v92h-4v4h-20v8h8v4h4v4h-8v4zM584 772h52v-4h4v-8h-4v-4h-36v-36h32v-8h-4v-4h-4v-4h-24v-12h4v-8h-4v-20h20v-4h4v-4h8v-4h-56v4h-16v8h4v40h-4v4h12v4h-16v4h8v44h8v8h12v4zM396 760v-4h4v4h-4zM696 756v-4h-4v-36h4v-4h-4
v-4h12v4h4v4h4v4h4v32h-8v4h-12zM500 692v-4h4v4h-4zM728 684v-4h4v4h-4zM424 624h4v-12h4v-16h4v8h4v12h4v4h8v-4h4v-16h4v4h4v8h4v8h8v-12h-4v-16h-4v-12h-4v-12h-4v-8h-8v4h-4v4h-4v12h-4v-8h-4v-12h-12v8h-4v8h-4v16h-4v12h-4v16h16v4zM484 620h4v-8h4v8h8v-64h-8v4h-4
v-4h-8v60h4v4zM512 620h16v-16h4v16h16v-4h4v-4h-4v-4h-8v-48h-20v48h-12v8h4v4zM560 620h4v-4h8v-4h4v8h4v-24h8v20h12v4h4v-4h4v-56h-4v-4h-8v4h-8v28h-8v-28h-12v-4h-4v4h-4v28h-8v8h8v24zM356 528h4v-8h4v-8h4v-12h4v-16h4v-12h4v-12h4v-12h4v-8h4v-12h4v-12h4v-12h-8v4
h-16v4h-4v-4h-4v-4h-4v16h-4v8h-20v-8h-4v-12h-8v4h-8v16h4v4h-24v4h8v8h8v4h12v8h4v20h4v16h4v16h4v12h4v4h4v-4h4v8zM412 528h12v-12h4v-4h4v12h12v-88h4v-8h12v8h4v88h8v-12h4v12h4v-96h-4v-8h-4v-4h-4v-4h-8v-4h-12v-4h-4v4h-16v4h-8v20h-8v-4h-4v96h4v4zM256 524h32v-4
h-8v-4h8v-4h-8v-4h-4v-4h-4v-12h-4v-56h4v-12h4v-4h8v-4h4v-4h-4v-4h12v-4h-40v4h-8v4h-4v4h-4v4h-4v4h-4v8h-4v16h-4v28h4v16h4v8h4v8h4v4h4v4h4v4h8v4zM488 524h40v-36h4v36h28v-4h-4v-4h12v-4h-4v-4h-12v-4h-4v-96h-36v92h-4v4h-16v4h-4v4h8v4h4v4h-8v-4h-4v8zM584 524h8
v-4h4v-8h4v8h4v4h8v-124h-8v8h-8v8h-4v-12h-16v112h8v8zM660 524h4v-8h20v4h12v-4h4v-8h4v-8h4v-8h4v-52h-4v-8h-4v-4h-4v-4h-4v-8h-4v-4h-8v-4h-36v4h-4v4h-4v4h-8v4h-4v8h-4v8h-4v52h4v12h4v4h4v4h4v4h8v4h16v4zM728 524h8v-4h4v4h4v-4h8v4h8v-8h4v-4h4v-8h4v-8h4v-4h4v-8
h4v-8h4v16h-4v8h4v12h-4v4h4v8h4v-4h4v4h4v-8h-8v-16h4v4h4v-96h-12v-4h-8v4h-4v4h-4v8h-4v8h-4v8h-4v12h-4v8h-4v8h-4v8h-4v4h-4v-68h-8v4h-8v108h4v4zM356 516v-8h4v8h-4zM748 512v-4h4v4h-4zM668 508v-4h-4v-8h-4v-4h-4v-12h-4v-32h4v-12h4v-8h8v-4h12v4h4v4h4v8h4v28h-4
v12h-4v8h-4v8h-4v4h-4v4h12v-4h4v4h-4v4h-16zM344 456v-8h4v8h-4zM316 412h4v-4h-4v4zM452 284v-28h4v-8h4v-4h4v-4h4v-4h8v-4h8v4h4v4h-12v4h-4v4h-4v4h-4v20h4v8h-8v4h-8zM552 276v-4h-8v-4h-8v-24h-4v-4h-12v-8h16v4h4v4h4v8h4v8h4v12h4v8h-4zM484 264v-4h4v4h-4z
M516 264v-8h4v8h-4zM496 192v-4h-8v-4h-8v-4h-20v-4h-4v-8h-4v-24h48v12h-4v4h-4v-4h-4v-4h-4v-4h-12v8h8v8h4v12h8v4h4v8h8v4h-8zM528 180v-8h-4v-4h-4v-8h-4v-4h-4v-8h-8v-4h32v20h-4v16h-4zM556 172v-24h-4v-4h32v4h-8v4h-4v4h-4v8h-4v4h-4v4h-4z" />
    <glyph glyph-name="f" unicode="f" horiz-adv-x="960" 
d="M124 922h4v4h12v-4h4v4h12v-4h4v4h12v-4h4v4h12v-4h4v4h12v-4h4v4h12v-4h4v4h12v-4h4v4h12v-4h4v4h12v-4h4v4h12v-4h4v4h12v-4h4v4h12v-4h4v4h12v-4h4v4h12v-4h4v4h12v-4h4v4h12v-4h4v4h12v-4h4v4h12v-4h4v4h12v-4h4v4h12v-4h4v4h12v-4h4v4h12v-4h4v4h12v-4h4v4h12v-4h4
v4h12v-4h4v4h12v-4h4v4h12v-4h4v4h12v-4h4v4h12v-4h4v4h12v-4h4v4h12v-4h4v4h12v-4h4v4h12v-4h4v4h12v-4h4v4h12v-4h4v4h12v-4h4v4h12v-4h4v4h12v-4h4v4h12v-4h4v4h12v-4h4v4h12v-4h4v4h12v-4h4v4h12v-4h4v4h12v-4h4v4h12v-4h4v4h12v-4h4v4h12v-4h4v4h12v-4h4v4h12v-4h4v4
h12v-4h4v4h12v-4h4v4h12v-4h4v-4h-4v-8h-4v-8h-4v-8h-4v-8h-4v-12h-4v-8h-4v-8h-4v-8h-4v-8h-4v-8h-4v-8h-4v-8h-4v-8h-4v-8h-4v-12h-4v-8h-4v-8h-4v-8h-4v-8h-4v-8h-4v-8h-4v-12h-4v-8h-4v-8h-4v-8h-4v-8h-4v-8h-4v-8h-4v-8h-4v-12h-4v-8h-4v-8h-4v-8h-4v-8h-4v-8h-4v-8h-4
v-8h-4v-12h-4v-8h-4v-8h-4v-8h-4v-8h-4v-8h-4v-8h-4v-8h-4v-12h-4v-8h-4v-8h-4v-8h-4v-8h-4v-8h-4v-8h-4v-12h-4v-8h-4v-8h-4v-8h-4v-8h-4v-8h-4v-8h-4v-8h-4v-12h-4v-8h-4v-8h-4v-8h-4v-8h-4v-8h-4v-8h-4v-8h-4v-12h-4v-8h-4v-8h-4v-8h-4v-8h-4v-8h-4v-12h-4v-4h-4v-12h-4
v-8h-4v-8h-4v-8h-4v-8h-4v-8h-4v-8h-4v-12h-4v-8h-4v-8h-4v-8h-4v-8h-4v-8h-4v-12h-4v-4h-4v-12h-4v-8h-4v-8h-4v-8h-4v-8h-4v-8h-4v-12h-4v-8h-4v-8h-4v-8h-4v-8h-4v-8h-4v-4h-4v4h-4v8h-4v8h-4v8h-4v12h-4v8h-4v8h-4v8h-4v8h-4v8h-4v8h-4v8h-4v12h-4v8h-4v8h-4v8h-4v8h-4
v8h-4v8h-4v8h-4v12h-4v8h-4v8h-4v8h-4v8h-4v8h-4v8h-4v8h-4v12h-4v8h-4v8h-4v8h-4v8h-4v8h-4v8h-4v8h-4v8h-4v12h-4v8h-4v8h-4v8h-4v8h-4v8h-4v8h-4v8h-4v12h-4v8h-4v8h-4v8h-4v8h-4v8h-4v8h-4v8h-4v12h-4v8h-4v8h-4v8h-4v8h-4v8h-4v8h-4v8h-4v12h-4v8h-4v8h-4v8h-4v8h-4v8
h-4v8h-4v8h-4v12h-4v8h-4v8h-4v8h-4v8h-4v8h-4v8h-4v8h-4v12h-4v8h-4v8h-4v8h-4v8h-4v8h-4v8h-4v8h-4v12h-4v8h-4v8h-4v8h-4v8h-4v8h-4v8h-4v8h-4v12h-4v8h-4v8h-4v8h-4v8h-4v8h-4v8h-4v8h-4v12h-4v8h-4v8h-4v4zM188 886v-12h4v-8h4v-8h4v-8h4v-8h4v-8h4v-8h4v-12h4v-8h4v-8
h4v-8h4v-8h4v-8h4v-8h4v-12h4v-8h4v-8h4v-8h4v-8h4v-8h4v-8h4v-12h4v-8h4v-8h4v-8h4v-8h4v-8h4v-8h4v-8h4v-8h4v-12h4v-8h4v-8h4v-8h4v-8h4v-8h4v-8h4v-8h4v-12h4v-8h4v-8h4v-8h4v-8h4v-8h4v-8h4v-12h4v-8h4v-8h4v-8h4v-8h4v-8h4v-8h4v-12h4v-8h4v-8h4v-8h4v-8h4v-8h4v-8h4
v-8h4v-8h4v-12h4v-8h4v-8h4v-8h4v-8h4v-8h4v-8h4v-8h4v-12h4v-8h4v-8h4v-8h4v-8h4v-8h4v-8h4v-12h4v-8h4v-8h4v-8h4v-8h4v-8h4v-8h4v-12h4v-8h4v-8h4v-8h4v-8h4v-8h4v8h4v8h4v8h4v8h4v12h4v8h4v8h4v8h4v8h4v8h4v8h4v8h4v12h4v8h4v8h4v8h4v8h4v12h4v4h4v12h4v8h4v8h4v8h4v8h4
v8h4v8h4v8h4v12h4v8h4v8h4v8h4v8h4v8h4v8h4v12h4v8h4v8h4v8h4v8h4v8h4v8h4v12h4v8h4v8h4v8h4v8h4v8h4v8h4v8h4v12h4v8h4v8h4v8h4v8h4v8h4v8h4v12h4v8h4v8h4v8h4v8h4v8h4v12h4v4h4v12h4v8h4v8h4v8h4v8h4v8h4v8h4v12h4v8h4v8h4v8h4v8h4v8h4v8h4v8h4v12h4v8h4v8h4v8h4v8h4v8h4
v8h4v12h4v8h4v8h-708zM216 870h8v-4h4v4h12v-4h4v4h12v-4h4v4h12v-4h4v4h12v-4h4v4h12v-4h4v4h12v-4h4v4h12v-4h4v4h12v-4h4v4h12v-4h4v4h12v-4h4v4h12v-4h4v4h12v-4h4v4h12v-4h4v4h12v-4h4v4h12v-4h4v4h12v-4h4v4h12v-4h4v4h12v-4h4v4h12v-4h4v4h12v-4h4v4h12v-4h4v4h12v-4
h4v4h12v-4h4v4h12v-4h4v4h12v-4h4v4h12v-4h4v4h12v-4h4v4h12v-4h4v4h12v-4h4v4h12v-4h4v4h12v-4h4v4h12v-4h4v4h12v-4h4v4h12v-4h4v4h12v-4h4v4h12v-4h4v4h12v-4h4v4h12v-4h4v4h12v-4h4v4h12v-4h4v4h4v-4h4v-4h-4v-12h-4v-8h-4v-8h-4v-8h-4v-8h-4v-8h-4v-8h-4v-8h-4v-8h-4
v-8h-4v-8h-4v-12h-4v-8h-4v-8h-4v-8h-4v-8h-4v-8h-4v-8h-4v-8h-4v-12h-4v-8h-4v-8h-4v-8h-4v-8h-4v-8h-4v-8h-4v-8h-4v-8h-4v-8h-4v-12h-4v-8h-4v-8h-4v-8h-4v-8h-4v-8h-4v-8h-4v-8h-4v-8h-4v-8h-4v-8h-4v-12h-4v-8h-4v-8h-4v-8h-4v-8h-4v-8h-4v-8h-4v-8h-4v-8h-4v-8h-4v-8
h-4v-12h-4v-8h-4v-8h-4v-8h-4v-8h-4v-8h-4v-8h-4v-8h-4v-8h-4v-8h-4v-8h-4v-12h-4v-8h-4v-8h-4v-8h-4v-8h-4v-8h-4v-8h-4v-8h-4v-8h-4v-8h-4v-8h-4v-8h-4v-8h-4v-8h-4v-12h-4v-8h-4v-8h-4v-8h-4v-8h-4v-8h-8v8h-4v8h-4v8h-4v8h-4v8h-4v8h-4v8h-4v8h-4v8h-4v8h-4v8h-4v8h-4
v12h-4v8h-4v8h-4v8h-4v8h-4v8h-4v8h-4v8h-4v8h-4v8h-4v8h-4v12h-4v8h-4v8h-4v8h-4v8h-4v8h-4v8h-4v8h-4v8h-4v8h-4v8h-4v8h-4v8h-4v8h-4v8h-4v12h-4v8h-4v8h-4v8h-4v8h-4v8h-4v8h-4v8h-4v8h-4v8h-4v8h-4v12h-4v8h-4v8h-4v8h-4v8h-4v8h-4v8h-4v12h-4v8h-4v8h-4v8h-4v8h-4v8
h-4v8h-4v8h-4v8h-4v8h-4v8h-4v12h-4v8h-4v8h-4v8h-4v8h-4v8h-4v8h-4v8h-4v12h-4v8h-4v8h-4v8h-4v8h-4v8h-4v8h-4v8h4v4zM236 854v-8h4v-8h4v-8h4v-8h4v-8h4v-8h4v-12h4v-8h4v-8h4v-8h4v-8h4v-8h4v-8h4v-8h4v-8h4v-8h4v-8h4v-8h4v-8h4v-12h4v-8h4v-8h4v-8h4v-8h4v-8h4v-8h4
v-8h4v-8h4v-8h4v-8h4v-8h4v-12h4v-8h4v-8h4v-8h4v-8h4v-8h4v-8h4v-8h4v-8h4v-8h4v-8h4v-12h4v-8h4v-8h4v-8h4v-8h4v-8h4v-8h4v-8h4v-12h4v-4h4v-12h4v-8h4v-8h4v-8h4v-8h4v-8h4v-8h4v-8h4v-8h4v-12h4v-8h4v-8h4v-8h4v-8h4v-8h4v-8h4v-12h4v-8h4v-8h4v-8h4v-8h4v-8h4v-8h4v-8
h4v-8h8v8h4v12h4v8h4v8h4v8h4v8h4v8h4v8h4v8h4v8h4v8h4v12h4v8h4v8h4v8h4v8h4v8h4v8h4v8h4v8h4v12h4v8h4v8h4v8h4v8h4v8h4v8h4v8h4v8h4v8h4v12h4v8h4v8h4v8h4v8h4v8h4v8h4v8h4v8h4v8h4v12h4v8h4v8h4v8h4v8h4v8h4v8h4v8h4v8h4v8h4v8h4v12h4v8h4v8h4v8h4v8h4v8h4v8h4v8h4v8h4
v8h4v8h4v8h4v12h4v8h4v8h4v8h4v8h4v8h4v8h4v8h4v8h4v8h4v8h4v8h4v8h4v8h-616zM328 798h20v-8h4v-8h4v-4h4v-8h4v-4h4v-8h4v-8h4v-4h4v44h-4v8h20v-8h-8v-72h4v-8h-8v8h-4v16h-4v4h-4v8h-4v4h-4v8h-4v8h-4v4h-4v8h-4v-52h8v-4h-28v4h8v20h4v44h-8v4h-4v4zM456 798h8v-4h16v4
h16v-4h8v-4h4v-20h-4v-4h-4v-4h-4v-4h-16v4h-4v-36h8v-4h-16v-12h-4v48h4v28h-4v4h-8v8zM608 798h8v-40h4v4h4v4h4v4h12v-4h-8v-4h-4v-4h-4v-4h-4v-4h4v-16h4v-4h4v-4h-8v4h-4v4h-4v4h-4v-20h-4v-8h-4v72h4v4h-4v4h-4v4h8v4zM476 790v-20h4v4h4v-8h12v20h-4v4h-16zM648 794
h8v-4h4v-4h-8v-4h-4v4h-4v4h4v4zM416 774h8v-4h8v-4h4v-8h4v-24h-4v-4h-4v-4h-4v-4h-8v-4h-8v4h-8v4h-4v4h-4v28h4v8h8v-4h-4v-16h4v-16h4v-4h12v4h4v32h-4v4h-16v4h8v4zM528 774h12v-4h8v-4h4v-24h-4v4h-8v-4h-16v-4h4v-8h4v-4h12v4h4v4h8v-4h-4v-4h-4v-4h-12v-4h-4v4h-8v4
h-4v4h-4v12h-4v8h4v12h4v4h4v4h4v4zM576 774h8v-4h8v-4h4v-16h4v-4h-16v-4h-16v-4h4v-8h4v-4h12v4h4v4h8v-4h-4v-4h-4v-4h-8v-4h-8v4h-8v4h-4v4h-4v12h-4v8h4v12h4v4h4v4h8v4zM672 774h8v-4h4v4h16v-4h4v-4h4v-40h4v-4h-16v40h-4v4h-8v-4h-4v-28h-4v-16h-4v-4h-4v52h-4v4h8
v4zM736 774h12v-4h16v-4h-4v-4h-4v-16h-4v-4h-4v-4h-12v-4h-4v-4h24v-4h8v-20h-4v-8h-8v-4h-8v-4h-8v4h-12v4h-4v20h4v16h4v8h-4v4h-4v12h4v8h4v4h8v4zM528 766v-4h-4v-12h20v12h-4v4h-12zM572 766v-4h-4v-12h20v12h-4v4h-12zM648 770h8v-52h-4v4h-4v40h-4v4h4v4zM732 766
v-20h4v-4h8v4h4v16h-4v4h-12zM632 726h8v-4h-8v4zM736 722v-4h4v-8h-4v4h-8v-12h4v-4h16v4h4v8h4v8h-4v4h-16zM640 722h8v-4h-8v4zM656 718h4v-4h-4v4zM588 702h4v-20h4v-12h4v-12h8v12h-4v4h4v4h4v-12h4v-8h4v-12h4v12h4v8h4v8h-4v4h8v-20h-4v-12h-4v-36h4v8h4v4h4v-4h4v8
h4v-12h-4v-12h-4v-8h4v4h4v-8h-4v-8h4v-4h4v-4h4v-8h4v-16h-4v-8h4v-16h-4v-20h-4v-12h-12v-48h-4v12h-4v-24h-4v56h-8v-16h-4v-24h-4v-36h-8v8h-4v-8h-4v16h4v8h4v12h-4v4h-8v4h-4v-4h-4v-8h-8v-4h-4v-8h-4v-12h-4v-4h-4v20h-4v4h-8v-4h-8v-4h-12v-4h-8v-4h-4v-16h-4v-16
h-8v36h-4v4h-4v4h-4v-16h4v-20h-8v12h-4v32h-4v16h-4v-40h-8v16h4v36h-4v12h-4v4h-4v-44h-4v44h-4v-12h-4v-4h-4v-8h-4v-8h-4v12h4v8h4v8h4v8h-12v8h-4v20h-8v24h4v4h4v4h-4v4h-4v20h4v8h4v4h4v4h4v36h4v-24h4v24h4v24h4v12h4v-20h-4v-36h4v8h4v12h4v12h4v12h4v12h4v8h8v-8
h-4v-24h4v8h4v4h8v4h4v12h4v8h4v-32h4v4h4v4h4v8h4v4h8v-20h-4v-8h4v-12h4v8h4v8h4v8h4v20h-4v4h4v4h4v-16h4v-4h4v-8h4v-8h4v-4h4v-8h4v8h4v28h4v36zM648 630h4v-4h-4v4zM636 614v-4h4v4h-4zM488 610v-32h4v-12h4v-4h4v-4h4v-4h4v-4h4v-4h20v4h16v-4h4v-4h20v4h8v4h4v4h4v4
h4v8h4v12h4v20h4v12h-4v-4h-8v-4h-4v-4h-4v-4h4v-24h-4v-8h-4v-4h-8v-4h-20v4h-4v4h-4v8h-4v-8h-4v-4h-8v-4h-12v4h-8v4h-4v4h-4v4h-4v20h4v8h4v8h-4v4h-12zM632 602v-4h4v4h-4zM444 590v-4h8v-16h-4v-4h12v4h4v16h-12v4h-8zM512 590v-4h4v4h-4zM572 590v-4h4v4h-4zM628 582
v-4h-4v-8h-4v-8h4v-4h8v12h4v4h4v4h-4v4h-8zM432 578v-4h4v-4h8v8h-12zM640 570v-8h-4v-4h8v4h4v8h-8zM456 562v-4h-8v-4h8v-4h4v8h4v-12h-4v-4h-4v-4h12v4h4v12h-4v4h-4v4h-8zM620 554v-4h-4v-12h4v-4h4v8h4v4h4v4h-8v4h-4zM436 550v-12h8v4h4v8h-12zM636 546v-16h8v16h-8z
M464 534v-4h-4v-20h-4v-4h8v4h8v4h4v12h-4v8h-8zM616 530v-4h-4v-12h4v-8h4v-4h4v4h-4v8h4v4h4v4h4v4h-12v4h-4zM440 526v-12h12v4h-4v8h-8zM468 526h4v-12h-4v12zM636 518v-12h8v12h-8zM604 434v-8h4v8h-4z" />
    <glyph glyph-name="g" unicode="g" horiz-adv-x="960" 
d="M216 866h596q78 0 96 -76l4 -36v-604q0 -89 -68 -112h-648q-80 17 -80 88v640q0 61 48 88q20 12 52 12zM160 782v-664q8 -40 40 -40h628q32 0 40 44v652q0 52 -56 52h-604q-48 -11 -48 -44zM228 810h564q51 0 64 -72v-576q-10 -72 -72 -72h-552q-64 17 -64 64v588
q14 68 60 68zM180 742v-584q13 -56 56 -56h544q64 10 64 60v572q0 57 -60 64h-552q-40 0 -52 -56zM380 706h44l20 -36q10 -8 24 -52l4 -4h4l-4 28v36l-4 16l4 12h48l8 -8q-16 0 -36 -140h-8l-16 24q-20 0 -44 52h-8l4 -60v-24h-16v36q-8 0 -8 -12h-12v4q0 77 -12 120z
M588 698h20q45 0 52 -56l-8 -44v-12h-4l-12 4v-4q-14 -24 -36 -24q0 8 -12 8l-20 12h-4v-8h-4q-5 0 -24 60v12q13 52 52 52zM600 650h-8l-12 8h-8q-11 0 -16 -40v-4q21 -28 44 -28q40 4 40 36q-16 22 -16 36h-4l-12 -8v20q-8 0 -8 -20zM256 514h60l8 -8v-40l-8 -8l-8 24h-8
v-12h-8q0 20 -12 20h-4v-8l44 -48v-16q-27 -32 -52 -32q0 11 -24 32v20h4q20 -28 32 -28q16 6 16 12v4l-8 8h-4v-8h-12q0 19 -32 48v12q0 22 16 28zM372 506h20q36 0 36 -40v-12h-8v8l-12 8l-4 -4h-16v16l-12 -8v8h-4q-24 -10 -24 -36q6 -36 32 -36q14 0 36 20h8v-8
q-8 0 -8 -16l-4 -4h-4l-12 8q0 -16 -12 -16h-8q-8 0 -8 12l-4 4h-12v-8h-8l-12 48v12q8 44 40 44zM708 506q24 0 24 -28l4 -4h8q0 32 40 32l12 -4l-24 -104h-4l-4 20v28l4 4l-4 16h-4l-16 -52h-8l-12 40v4h-4v-60h-12v20l-4 -4h-8v4l-8 84l4 4h16zM440 502h48q8 0 28 -32
q-10 -36 -16 -36v8l-8 -8l12 -16v-16h-4q-24 14 -24 28h-12l-4 -32h-8l-8 52l4 4l-8 8v40zM520 502h68l8 -8v-24h-12v12l-16 -4l-4 4h-4l-12 -4v-4q0 -8 40 -12v-4l-8 -16h-8q0 12 -8 12h-12v-24l4 -4v-4l4 4h28v-4l-8 -16h-12v8h-4q0 -12 -8 -12h-16l-12 48h4
q-12 28 -12 52zM636 502h12q36 -41 36 -76l-8 -28h-8q0 27 -16 32l-20 -4l-4 4v4l-12 -4v-32h-8l-4 52q25 52 32 52zM464 466v-16l4 -4v-4q16 0 24 20l-4 12h-4q0 -12 -8 -12l-4 12zM644 470q-7 -16 -16 -16v-4l4 -4v-4l28 4zM456 326h16q44 -9 44 -48l-8 -36v-8h-8v8h-4
q0 -17 -24 -28h-8q0 9 -28 20v-8h-12l-16 56q14 44 48 44zM312 322h88v-12q-23 -15 -48 -60v-8h4l4 4h4l4 -4h4l16 4v-4q0 -8 -24 -16l-4 4h-4l-20 -12h-8v16l24 72h-4l-12 -8l-4 4h-4q0 -12 -8 -12zM524 322h40l24 -56v-4h8l-8 56l4 4h36v-8q-12 -9 -24 -88h-8q0 12 -24 24
l-12 20v4h-8v-56h-8v20l-4 -4h-8zM632 322h68l8 -8v-24h-12v12l-16 -4l-4 4h-4l-12 -4v-4q0 -8 40 -12v-4l-8 -16h-8q0 12 -8 12h-12v-24l4 -4v-4l4 4h28v-4l-8 -16h-12v8h-4q0 -12 -8 -12h-16l-12 48h4q-12 28 -12 52zM460 286h-4l-12 8h-4q-12 0 -12 -36q0 -14 32 -24
q25 0 36 20v12l-16 28l-12 -4v12q-8 0 -8 -16z" />
    <glyph glyph-name="h" unicode="h" horiz-adv-x="960" 
d="M184 880h644q60 0 76 -80v-664q-16 -80 -80 -80h-636q-72 24 -72 72v680q24 72 68 72zM152 792v-640q5 -60 60 -60h596q60 0 60 72v608q0 72 -56 72h-604q-56 -7 -56 -52zM228 828h560q52 0 64 -76v-568q-9 -76 -76 -76h-528q-84 0 -84 72v576q13 72 64 72zM176 756v-576
q5 -60 60 -60h548q56 10 56 64v576q-13 56 -52 56h-560q-44 0 -52 -60zM448 736v-8l-4 -12h12l-8 -12h4l-8 -32v-4q0 -21 12 -36h-8q12 -15 12 -28q-8 0 -8 12q-8 0 -8 -16h-4l-4 20h-8v-8h-4v4l8 36v60l-4 4v4q12 0 12 12l4 4h4zM604 736v-4l-4 -4v-4h16l-4 -4v-4l32 8h8
v-4q-16 0 -16 -8h28v-4q-20 0 -20 -8l-28 8l-20 -4v-20l12 4l32 -4v-4q-20 0 -20 -8h8v-8l-4 4h-28v-40l16 -4l36 8h12l-4 -4v-4l20 -4v-4h-20l4 -4v-4h-4l-12 8q-49 -4 -56 -12l-16 8l4 12l-4 4l12 12v28l-12 -8v4l4 12h-8q0 8 16 8v12l-4 4v4l4 4h-4l-12 -4l16 16l-4 4v8
l12 -8h4q0 12 8 12zM348 732h4v-8h8v8h4q21 -40 52 -40v-4h-8v-8l16 -4v-4q-16 0 -16 -8l-4 4h-4q-36 0 -36 -32l-4 -12l8 -16h-4l-12 4l-4 -12h-4q0 16 -16 16q20 16 20 32v4l-4 -4h-8l8 12l-12 4v4h12l-4 4v4h8q0 24 -16 24v4h12l-12 16q16 0 16 8v4zM716 728
q0 -12 40 -36l-4 -4q16 -6 16 -12h-4l-12 4v-8l-12 8l-12 -16q7 0 28 -28l16 -8l-8 -12l4 -4l-16 -4q0 28 -32 48v-24l8 -12q-12 0 -12 -16h-4q0 16 -16 16l8 40h-4l-8 8q0 12 12 12v20l-8 12h8v4q-12 0 -12 8h8l4 -4h4zM292 724h4v-12h28l8 -8l-20 4h-8l-8 -8q12 0 12 -8
h-4l-12 4q-24 -9 -24 -16l4 -4h12l4 4h4v-8l20 4l4 -4v-4q-12 0 -12 -24q-24 0 -36 -40h-4v8l-20 -4l8 12l-12 16h4l16 -4l24 28l-28 8l-12 -4l4 4v8h-12q0 8 12 8v4l-8 12h4l12 -4q8 0 36 28zM460 724h8l20 -8v8h4q0 -17 56 -44q0 -8 16 -8v-8h-20v-4q12 0 12 -8
q-36 0 -60 -44l-4 4h-8l-12 -8v4l4 12l-8 8q16 0 16 32l4 40l-16 4l4 4v4l-16 8v4zM364 700l-4 -20l4 -4h4q20 5 20 12l-20 12h-4zM720 696v-12l8 8v4h-8zM500 684l-4 -44h4l36 32l-36 16v-4zM248 564l16 -8l4 4q0 -16 24 -16v-4h-8l4 -20l-20 16h-4q-16 -8 -24 -24l24 -36
q16 0 16 24l16 -8l-4 -4v-4l4 -4q-20 -3 -20 -20l-4 4h-4v-8h-12q0 23 -32 44l4 4v4l-4 4v4h4l-4 4v8q23 0 28 24zM408 564h4q14 -2 28 -40l4 -4h4l4 4h4v-8l-4 -4v-4h4l-24 -32l-4 -4v-4l4 -4q-12 0 -12 -12h-4l-28 36l-8 16l-12 -4h-4v4q12 0 12 8l-4 4v4q25 0 44 36z
M624 564h8l4 -12l-4 -20v-36l4 -20h-4l8 -24l-12 8v-8h-4v12h-4l-4 -4h-4v4l8 32v32l-4 4l4 12l-4 12l4 -4h4v12zM752 564h4q0 -24 16 -24h4v-4h-8l12 -16v-4l-12 8h-4v-16h-4q0 18 -16 24q-20 -12 -20 -28l28 -24q0 12 -12 12v4h28l4 -4h4l-24 -44h-4v12h-4l-4 -4h-4
q0 28 -36 52v4q12 0 12 8l-4 4q13 0 28 28l-4 4h8l4 -4h4zM324 560q0 -14 28 -28l8 -16h-4l-4 4h-4l4 -4v-8l-12 8l-8 -12l32 -32q-4 -13 -16 -16l-16 40q-8 0 -8 -12l8 -20h-4l-4 -12h-4q0 13 -8 20l4 28h-8l4 4v4l-4 4l4 4l-4 4h8v16l-8 12l4 4l-4 4zM684 560l4 -4l8 -8h4
l-8 -36l8 -44q-8 0 -8 -12h-4v8l-4 -4h-4v40l-12 12v-44q-12 0 -12 -12h-4q0 12 -8 12q12 15 12 36v20l-8 32q16 0 24 -32l4 -4h4v12l-4 4v4q8 0 8 20zM508 556h8q0 -8 20 -8l4 -4v-4l-20 4h-4v-4l8 -12h-4l-12 4q0 -8 -12 -8v-8l32 -4l-8 -24q-18 0 -24 -36h-4v8h-4l-12 -4
l4 12l-4 12l4 -4h4l20 20h4q0 8 -24 12l-4 -4v12l-4 -4h-4v4l8 8l-4 4v8l4 -4h4q24 10 24 24zM580 556h8q0 -8 20 -8l4 -4v-4h-4l-16 4l-4 -4v-4l8 -8h-4l-12 4q0 -8 -12 -8v-8l32 -4l-8 -24q-16 0 -24 -36h-4v8h-4l-12 -4l4 12l-4 12l4 -4h4l24 24l-24 8l-4 -4v12l-4 -4h-4
v4l8 8l-4 4v8l4 -4h4q24 10 24 24zM416 528q-8 -16 -24 -16q17 -31 28 -36q0 11 20 32q-11 0 -20 20h-4zM424 416q68 -3 68 -8q27 -68 36 -68q27 0 48 -36q60 0 60 -20l20 -56l-24 -20v4l8 24q-14 48 -40 48l-32 4v-16q52 -23 52 -32v-48q0 -19 -24 -32v4l16 24
q-10 57 -32 64l-16 8h-8l28 -24v-68l-20 -4l16 16q-11 64 -36 64h-4v-4q12 0 12 -8v-64q-4 -12 -24 -12l20 16l-12 56l-4 4h-4l-36 -8h-12q0 -16 -24 -16h-12l-16 16v4q0 24 20 24v8l4 40q-64 0 -64 -24l-8 -8v4q0 36 52 36q0 8 20 8l8 -8h4l-20 20h-28q-26 0 -40 -20v8
q0 20 76 32l28 -28v4l-36 36h-52l-20 -20v8q0 21 76 32l48 -48l4 4h4q-16 60 -48 60l-24 4l-20 -12h-4zM436 240v-8h12v8h-12zM452 228v-4l8 -8l4 4v8h-12z" />
    <glyph glyph-name="i" unicode="i" horiz-adv-x="960" 
d="M364 846l4 -4l4 4h8l4 -4l4 4h8l4 -4l4 4h8l4 -4l4 4h8l4 -4l4 4h8l4 -4l4 4h8l4 -4l4 4h8l4 -4l4 4h8l4 -4l4 4h8l4 -4l4 4h8l4 -4l4 4h8l4 -4l4 4h8l4 -4l4 4h8l4 -4l4 4h8l4 -4l4 4h8l4 -4l4 4h8l4 -4l4 4h8l4 -4l4 4h8l4 -4l4 4h8l4 -4l12 4q7 0 244 -236q8 0 8 -20
v-308l-244 -244h-332l-244 244v308q0 25 104 112zM376 806l-216 -216v-300q213 -212 220 -212h8v-4l4 4h8l4 -4l4 4h8l4 -4l4 4h8l4 -4l4 4h8l4 -4l4 4h8l4 -4l4 4h8l4 -4l4 4h8l4 -4l4 4h8l4 -4l4 4h8l4 -4l4 4h8l4 -4l4 4h8l4 -4l4 4h8l4 -4l4 4h8l4 -4l4 4h8l4 -4l4 4h8
l4 -4l4 4h8l4 -4l4 4h8l4 -4q21 0 88 76l144 144v296q-213 212 -220 212h-8v4l-4 -4h-4l-4 4l-4 -4h-4l-4 4l-4 -4h-4l-4 4l-4 -4h-4l-4 4l-4 -4h-4l-4 4l-4 -4h-4l-4 4l-4 -4h-4l-4 4l-4 -4h-4l-4 4l-4 -4h-4l-4 4l-4 -4h-4l-4 4l-4 -4h-4l-4 4l-4 -4h-4l-4 4l-4 -4h-4
l-4 4l-4 -4h-4l-4 4l-4 -4h-4l-4 4l-4 -4h-4l-4 4l-4 -4h-4l-4 4l-4 -4h-4l-4 4l-4 -4h-4l-4 4h-4l-4 -4v4l-4 -4h-4l-4 4h-4l-4 -4v4l-4 -4h-4l-4 4h-4l-4 -4l-4 4l-4 -4zM392 790v-4l4 4h8l4 -4l4 4h8l4 -4l4 4h8l4 -4l4 4h8l4 -4l4 4h8l4 -4l4 4h8l4 -4l4 4h8l4 -4l4 4h8
l4 -4l4 4h8l4 -4l4 4h8l4 -4l4 4h8l4 -4l4 4h8l4 -4l4 4h8l4 -4l4 4h8l4 -4l4 4h8l4 -4l4 4h8l4 -4l12 4q11 0 216 -212v-260q0 -23 -112 -124l-96 -96h-284q-208 199 -208 216v252q0 23 116 128q90 96 100 96zM196 578v-272l200 -196l4 4h8l4 -4l4 4h8l4 -4l4 4h8l4 -4l4 4
h8l4 -4l4 4h8l4 -4l4 4h8l4 -4l4 4h8l4 -4l4 4h8l4 -4l4 4h8l4 -4l4 4h8l4 -4l4 4h8l4 -4l4 4h8l4 -4l4 4h8l4 -4l4 4h8l4 -4l4 4h8l4 -4l4 4h8l4 -4q10 0 204 200v268l-200 196l-4 -4h-4l-4 4l-4 -4h-4l-4 4l-4 -4h-4l-4 4l-4 -4h-4l-4 4l-4 -4h-4l-4 4l-4 -4h-4l-4 4
l-4 -4h-4l-4 4l-4 -4h-4l-4 4l-4 -4h-4l-4 4l-4 -4h-4l-4 4l-4 -4h-4l-4 4l-4 -4h-4l-4 4l-4 -4h-4l-4 4l-4 -4h-4l-4 4l-4 -4h-4l-4 4l-4 -4h-4l-4 4l-4 -4h-4l-4 4l-4 -4h-4l-4 4l-4 -4h-4l-4 4h-4l-4 -4v4l-4 -4h-4l-4 4h-4l-4 -4v4q-13 0 -204 -196zM416 622l48 -4h44
v-4q0 -44 -12 -44l-8 20q-20 0 -20 -104q-10 0 -12 -16h-8v28l-8 12v76q-8 0 -8 -12l-4 -4h-4v28h-4q0 -20 -8 -20h-4l-8 36zM320 618h60l8 -8v-52l-8 -8l-8 28h-8v-12h-8q0 20 -12 20h-4v-12q48 -47 48 -68q0 -10 -36 -36l-4 4h-4q0 -12 -8 -12h-4q0 26 -24 40v24h8
q10 -32 20 -32h8l12 12v8l-8 8l-8 -8h-4q0 19 -36 60v4q0 31 20 40zM576 618h4q60 0 60 -68q-9 -56 -16 -56l-4 4q-9 -19 -28 -28h-8l-40 20v-12h-12v12l-16 60v8q6 60 60 60zM716 618q44 -7 44 -44v-40q-20 0 -20 -20h-4l-12 8v-16h-12v8q-20 -5 -20 -12l8 -24l-12 -4
l4 -12h-8l-8 8v40q0 20 -8 20l4 4v4q-16 53 -16 76l4 4h56zM580 586v-20h-8l-16 12q-14 0 -20 -44q0 -33 48 -40q32 6 32 32v4l-12 44h-4l-12 -8l-4 20h-4zM696 574v-40l8 -8q13 0 28 28l-4 20h-8q0 -12 -8 -12h-4q0 12 -8 12h-4zM280 454h60l8 -8v-24h-4q-8 0 -8 16l-4 -4
h-12l-4 4l-12 -4v-8q0 -7 36 -12v-4l-8 -16h-4q0 12 -8 12h-8l-4 -4h-4l8 -32l-12 -8l-12 44l4 4q-12 0 -12 44zM528 450h16q22 0 28 -16v-24l-16 12l-4 -4v8l-4 -4h-4l-4 4v-4l-4 4h-8q-12 -4 -12 -24q0 -17 20 -24l16 4v8q-12 0 -12 8l12 4l24 -8l-12 -24h-4l-12 8
q0 -12 -8 -12h-4l-16 12v-8h-8l-8 36v8q0 22 24 36zM720 450h16q22 0 28 -16v-24l-16 12l-4 -4v8l-4 -4h-4l-4 4v-4l-4 4h-8q-12 -4 -12 -24q0 -17 20 -24l16 4v8q-12 0 -12 8l12 4l24 -8l-12 -24h-4l-12 8q0 -12 -8 -12h-4l-16 12v-8h-8l-8 36v8q0 22 24 36zM384 446h8
q8 0 28 -52l-8 -28h-8v24h-8v4l-12 -4l-12 4v-4l-4 -24h-4l-4 40q18 40 24 40zM420 446h28q21 -48 28 -48l-8 44h4l16 4h8v-4q-8 -8 -16 -68h-4v8q-18 0 -24 24l-4 4h-4l-4 -44h-4q0 12 -8 12zM580 446h28l-4 -20v-40q-8 0 -8 -16q-9 0 -16 76zM612 446h28q21 -48 28 -48
l-8 44h4l16 4h8v-4q-8 -8 -16 -68h-4v8q-18 0 -24 24l-4 4h-4l-4 -44h-4q0 12 -8 12zM388 422l-8 -20l4 4h8l4 -4h4q-5 20 -12 20zM476 346h16q24 -14 24 -28l-4 -44l-4 4h-8q0 -16 -20 -16l-4 4l-12 4v4l-4 -4h-8l-12 40q5 36 36 36zM340 342h8q8 0 28 -52l-8 -28h-8v24h-8
v4l-12 -4l-12 4v-4l-4 -24h-4l-4 40q18 40 24 40zM380 342h24q28 0 28 -28l-4 -24l-4 4h-4l-4 -4v-4l12 -12v-8h-8q0 8 -12 8q0 12 -8 12h-4v-4l4 -4v-4h-8v-4l4 -4v-4h-8v16l-8 44v20zM524 342h28l-8 -44q8 0 8 -16h8l8 8v24l-4 28h28l-16 -76q-44 0 -44 44v12h-4v-8h-4v28
zM596 342h28q21 -48 28 -48l-8 44h4l16 4h8v-4q-8 -8 -16 -68h-4v8q-18 0 -24 24l-4 4h-4l-4 -44h-4q0 12 -8 12zM680 342h40q16 -6 16 -28v-4l-8 -36l-4 4h-4q-8 0 -8 -12h-4v8q-8 0 -8 -12q-20 8 -20 80zM480 322v-8l-20 4l-8 -24q0 -14 32 -20q20 7 20 24q-8 0 -8 20
l-4 -4h-8v8h-4zM344 318l-8 -20l4 4h8l4 -4h4q-5 20 -12 20zM400 318v-16l4 -4v-4q16 4 16 20l-4 4h-4v-8zM700 306v-20l8 -8q16 22 16 40h-8v-8h-4v8z" />
    <glyph glyph-name="j" unicode="j" horiz-adv-x="960" 
d="M178 862h640q52 0 72 -80v-660q-15 -84 -80 -84h-628q-80 18 -80 72v680q21 72 76 72zM138 770v-644q0 -45 60 -52h596q60 0 60 72v608q0 72 -56 72h-604q-56 0 -56 -56zM214 810h552q64 0 72 -76v-556q0 -67 -60 -88h-544q-84 0 -84 72v576q13 72 64 72zM162 746v-584
q8 -60 52 -60h552q60 8 60 56v584q-11 56 -52 56h-560q-52 -13 -52 -52zM534 786l4 -4v-12q-12 0 -12 -16h-4q0 -16 16 -16q32 -13 44 -28l-4 -12h4l36 4l8 -12l-20 4h-12v-4h12l-4 -4v-4l24 -16h4v-4h-12l-16 12v-8l-8 8l4 4l-28 4v-4q0 -8 16 -8v-4l-12 -4l-4 4l12 -36h4
q56 -3 56 -20h-12l8 -20h-4l-16 4h-24l-32 -16v-16l20 -8v-8q0 -8 -12 -8t-12 12l-4 -4h-20l-8 8h8v4h-8v-4l-20 8v-8h-4l-28 28l-12 -12h-8v8h8v4q-26 0 -36 52h4q10 -12 20 -12l-8 -12l12 -12h8v16h4q0 -9 24 -32v-4h4v8q-9 0 -12 20l20 -16l-16 28h4l20 -16v12
q-12 0 -12 8v4l28 -16v4l-4 4l12 4h4v-4h-8v-4l12 -4v4l-4 4h4l4 -4h4v4q0 8 -36 16v8l16 4l12 -4h4v4l-28 8v4q36 2 36 12h-4l-24 -8h-4v4q32 10 32 24l-16 16h4l-8 12q-16 -6 -16 -12q28 -9 28 -16q-29 -24 -40 -24l4 4v4l-4 4h-4v-4h4q-6 -16 -12 -16h-4l8 12v4l-4 -4h-4
v4l24 32h-4v-4l-4 4h-12q0 -16 -8 -16v16h-4q0 -8 -12 -8v-8q8 0 16 -20v-4l-28 32q-28 0 -40 20l4 4v4q36 -4 64 -16q24 8 24 16h-4l-4 -4q0 16 -12 16l8 20h-4q17 28 40 28zM506 762v-4l4 -4v-4l-4 -16h12v4q-4 24 -12 24zM490 762v-4l-8 -28h-4v12q5 20 12 20zM362 710
h12l-4 -4v-4l76 -60h-8q-52 33 -76 60v8zM510 682l8 -8l4 4v8zM398 686h4l8 -8h-4zM450 654h4l16 -4l12 4q0 -7 -20 -12v-20l-28 12v4l24 4v8h-8v4zM446 614l12 -4v-8h-4l-8 8v4zM586 554h4l16 -4v-4h-16l-4 4v4zM610 546l56 -4v-4q-16 0 -16 -12h12q0 -12 -12 -12l4 -4v-4
q-16 -2 -16 -12h8v-8h-4l-24 20l4 4l-36 20v8l52 -24h4v4h-8l4 4v4l-32 8v4h8l-4 4v4zM538 534q32 -7 32 -16h-4q-24 7 -24 12q-105 0 -132 -176q-5 0 -16 -56h-12l-28 128h-8l-28 -128h-12q-48 196 -68 196l-20 24l68 -8v-4h-8v-8q11 -60 24 -60l8 -8v-4h-8v-4l12 -44h8
l20 88q-11 40 -24 40l-16 -12h-4l-8 8v8q0 10 16 12l36 -8h4l56 8l8 -12v-8l-8 -8h-4l-16 12q-24 -14 -24 -48q18 -84 28 -84l12 52h-8v4q0 8 16 8l16 60v8h-8v4q35 0 120 24h4zM574 534h4q47 -44 56 -44v-8h-4l-12 8l4 -4v-8l-48 52v4zM574 514q12 0 20 -36v-20
q0 -48 -60 -48l-20 4v-4q0 -8 24 -8v-8h-24v-4l-4 -60l12 -8l8 8v36l8 8l4 -24q0 -23 -20 -40h-12q-24 0 -24 76v4q-20 0 -20 8l20 4v32l-24 4l-4 -32h-4l-8 16v4q5 40 28 40h4l4 -4h4v12h20q8 0 8 -24q16 0 16 -8v-4h-8v-4l12 -12h28q28 17 28 52q0 13 -16 36v4zM618 454h4
v-52l28 12v-4l8 -52h4q0 21 24 40h4q20 -10 20 -32l-24 -28v-4h8q12 0 12 16l16 -32h4l16 12v8q0 7 -28 24l20 36l24 -4l-20 -24q20 0 20 -28v-12l-20 -20h-4q-16 0 -32 20q-6 -20 -24 -20l-24 20q0 -40 -44 -76h-4q24 26 24 76v56h-4l-8 -36l8 -40h-28v4l4 56l-4 72z
M574 410h8l8 -8v-16l-12 8l-8 -28q0 -32 20 -32v-8q-6 -16 -28 -16q-10 0 -16 32v12q0 32 28 56zM458 402v-84l4 -4v-4h-28l4 28v32l-4 20zM682 378l-4 -20v-4h4q8 0 8 12l-4 12h-4zM458 298v-140l4 -4v-4h-28v124l-4 4v4zM494 250h8l8 -8v-16l-12 8l-8 -28q0 -32 20 -32v-8
q-6 -16 -28 -16q-10 0 -16 32v12q0 32 28 56zM326 242l12 -44h4q0 40 32 40l4 -4v-4q-11 -2 -36 -80h-4l-16 60h-4l-16 -60q-5 0 -32 76l-8 8l4 4l28 -4l-4 -4v-4l8 -24h8q0 28 20 40zM538 242h16q20 -14 20 -52h4l-12 -40h-32q-12 0 -16 44zM610 242l4 -4v-4l20 4h8v-8
l28 8v-4l4 -16v-40q0 -38 -32 -60h-8q20 23 20 40v56l-8 8l-4 -4v-60l4 -4v-4h-20l-4 4h-4l4 4v64l-8 -8v-64h-24v76zM406 238h4q20 -10 20 -32l-24 -28v-4h8l16 12v-8q-16 -28 -32 -28q-20 6 -20 28v4q0 34 28 56zM706 238h4q20 -10 20 -32l-24 -28v-4h8l16 12v-8
q-16 -28 -32 -28q-20 6 -20 28v4q0 34 28 56zM542 222v-24l4 -20l8 8v24l-4 20zM402 218l-4 -20v-4h4q8 0 8 12l-4 12h-4zM702 218l-4 -20v-4h4q8 0 8 12l-4 12h-4z" />
    <glyph glyph-name="k" unicode="k" horiz-adv-x="960" 
d="M116 926h828l4 -4h4l-412 -884h-4q-28 42 -156 324zM180 886l252 -544l104 -212l352 756h-708zM204 870h656l8 -8l-328 -688h-8q-285 589 -328 696zM228 854v-4q224 -460 304 -640q38 62 144 296l168 348h-616zM704 818q27 0 40 -20v-16q-12 -15 -12 -28l-4 4h-8l-16 -24
h40v-4q-12 0 -12 -8l-4 4h-12l-4 -4h-4v8h-12l-20 -4l-4 4v4q12 3 56 56v4l-12 12l-4 -12h-4q0 16 -8 16q-12 -15 -12 -28l12 -12v-4q-16 0 -16 -8h-4l-8 36v4q11 20 32 20zM336 802l8 -32h8q0 32 32 32l4 -4v-4q-12 -13 -12 -24l-4 4h-4q0 -16 -12 -16v-8l-4 -28h-8
q0 25 -20 56l-12 4v16zM396 802h32l-8 -36l4 -4v-4l-8 -36h-8zM432 802h60l4 -20l-4 -4h-8v8h-4l-4 -4h-4l-12 4l-4 -4v-8h12l20 -4l-8 -16l-12 8h-12v-16l8 -8h12l4 4h4l4 -4v-4q-8 0 -8 -12h-8v8h-4v-8h-20zM496 802h32l-8 -36l4 -4l-4 -4h4l-4 -4v-12l4 -4v-4l32 8l4 -4
l-8 -20h-8v8h-16l-12 -8zM568 802h20q40 0 40 -32v-8l-8 -32l-4 4h-4q-8 0 -8 -12l-4 4h-4l-12 -8q-16 28 -16 84zM588 738l4 -4h4q11 0 20 36h-4l-8 8q-16 0 -16 -40zM472 658h12l-4 -4v-8l8 -8v8h8q0 -8 12 -8v-8h-12v-12h8v-4l4 4h8v-12q0 -21 -12 -24h-4v24l-20 -8l4 4
v8l-8 8l-12 -4v24h-24v4q0 10 32 16zM592 654h4v-24h8q12 0 12 20h16q28 -23 28 -44h-4l-32 20l-4 -4v-8l4 -20h-4q-14 16 -28 16l-4 -32q-21 24 -32 24q-16 -18 -16 -36l-8 8v28q0 31 16 36q0 -12 8 -12h12l8 8h-8v8l8 8l8 -8q0 12 8 12zM488 562l-4 -20l24 -12l12 4l-4 4
v12l8 8h4q8 0 8 -16l12 8h12v-16l-16 -4v-16l20 -4l28 16h4q20 -14 20 -48l-4 -28h-4q-8 0 -16 32l-12 8h-4q-20 -9 -20 -36q-8 0 -8 20l-16 20q-32 0 -32 -36q-6 0 -16 48l-4 4h-12q-16 0 -44 -28v4q26 76 64 76z" />
    <glyph glyph-name="l" unicode="l" horiz-adv-x="960" 
d="M116 922l4 4h824l4 -4h4l-416 -884h-4zM180 886l252 -544l100 -216h4l352 760h-708zM204 870h656l4 -4h4l-328 -692h-8q-312 649 -328 696zM228 854v-4l304 -640h8l304 644h-616zM692 802q44 -7 44 -20v-16q-12 -15 -12 -28h-4v8q-18 -24 -28 -24v-4h44v-4q-12 0 -12 -8
l-4 4h-12l-4 -4h-4v8h-20l-4 -4l-12 4l56 60v4l-12 12l-4 -12h-4q0 16 -8 16h-4l-8 -28l12 -12v-4q-16 0 -16 -8h-4l-8 36v4q2 10 28 20zM336 782l8 -32h8q0 32 32 32l4 -4v-4q-12 -13 -12 -24l-4 4h-4q0 -16 -12 -16v-8l-4 -28h-8q0 25 -20 56l-12 4v16zM396 782h28l-4 -36
l4 -4v-4l-8 -36h-8zM432 782h60l4 -20l-4 -4h-8v8h-4l-4 -4h-4l-12 4l-4 -4v-4l4 -4v-4l4 4h4l20 -4l-8 -16l-12 12l-12 -4v-16q0 -8 32 -8l-8 -16h-8v8l-12 -8h-12zM496 782h32l-8 -36l4 -4l-4 -4h4l-4 -4v-12l4 -4v-4l32 8v-4l-4 -20h-8v8h-16l-12 -8zM568 782h20
q40 0 40 -32v-8l-8 -32l-4 4h-4q-8 0 -8 -12l-4 4h-12v-8q-15 0 -20 84zM600 762q-12 -24 -12 -44l4 -4h4q11 0 20 36h-4q-8 0 -8 12h-4zM656 686l8 -28l-4 -4v-4l4 -4q0 -75 -72 -156q0 -28 -28 -56q-3 -36 -12 -36h-8l-8 8l28 60q-11 0 -20 36l8 24l-4 4v4q-29 0 -32 -108
v-20l-8 -8h-8l-8 8l8 12v32l-20 72h-12l-44 8l4 4v4h-16v4h8v4h-16v4h20v12q1 20 8 20l-4 20l4 16h4q16 -8 16 -20l4 4h16l20 -4q4 12 24 12v-8h4l24 16v-4l16 8l12 -4v4q31 0 36 -56h4v16h-4l8 24l-4 4v4q26 62 44 72zM448 578l-8 -12v-4h4v8h8v-8h4v12l-4 4h-4zM476 566
v-8h4v12q8 0 8 -12h4v8l-4 12zM456 542v-4h16v4h-16z" />
    <glyph glyph-name="m" unicode="m" horiz-adv-x="1440" 
d="M239 612q53 0 81 -67v-222h98q65 -22 65 -65v-17q0 -53 -62 -73h-208q-66 0 -88 73v286q0 64 75 85h39zM730 609q84 -9 84 -76v-14q-9 -55 -71 -68h-39v-198q0 -63 -65 -88h-59q-71 24 -71 73v213h-23q-57 0 -81 53l-4 35q20 70 78 70h251zM141 536v-292q0 -55 85 -64
h175q58 0 69 67q-14 64 -69 64h-87l-7 6v199q-7 84 -81 84h-7q-78 -14 -78 -64zM418 542v-21q0 -39 55 -55h45l7 -6v-222q0 -51 75 -61h22q47 0 65 61v219l7 6h29q75 7 75 56v26q-19 49 -62 49h-257q-61 -14 -61 -52zM226 589q68 -12 68 -62v-228h111q52 -13 52 -52
q-10 -56 -52 -56h-179q-49 0 -68 38l-7 35v252q0 62 65 73h10zM502 586h215q71 0 71 -62q0 -37 -58 -49h-52v-211q0 -50 -36 -70l-23 -6h-26q-51 0 -58 73v214h-46q-52 0 -62 58q12 53 75 53zM1009 548q12 0 26 -12q5 12 23 12h6q17 0 59 -44q0 44 32 44h7q16 0 39 -27
q25 27 75 27q64 0 78 -47l-4 -18l10 -8v-27q0 -56 -88 -64q-47 0 -74 26q-11 -26 -36 -26q-26 0 -62 41q0 -41 -36 -41q-17 0 -29 9q-12 -9 -29 -9h-3q-33 6 -33 29q-26 -26 -65 -26h-62q-15 7 -22 20v112q4 26 29 26h52q40 0 68 -26q0 26 39 29zM827 513v-94q4 -26 29 -26
h39q55 0 75 35h7v-12q0 -23 26 -23h16l16 12l16 -12h23l16 14v38h4q44 -52 61 -52h17l16 14v24h6q0 -29 72 -38h19q59 0 69 67v3q-5 20 -13 20l3 15v12q-25 29 -59 29h-26q-39 0 -65 -38h-6v15q0 23 -26 23h-7q-26 0 -26 -23v-27h-3q-45 50 -62 50h-6q-11 0 -23 -9h-3l-13 9
h-16q-26 0 -26 -23v-12h-7q-17 35 -81 35h-33q-29 -4 -29 -26zM1009 536q23 -9 23 -26v-85q0 -29 -29 -29q-14 4 -20 14v111q9 15 26 15zM1064 536q9 -1 69 -61h3v46q9 15 26 15q23 -9 23 -26v-88q0 -18 -23 -26q-18 0 -75 64v-38q0 -18 -23 -26q-26 2 -26 23v102
q9 15 26 15zM1276 536q50 0 61 -35v-6l-13 -12h-6l-46 15q-33 0 -35 -35q0 -23 35 -29l23 6v3q-32 0 -32 14v3q0 21 22 21h49l13 -12v-15q0 -48 -71 -58q-88 6 -88 73q15 67 88 67zM856 533h39q82 0 82 -70v-3q0 -54 -78 -61h-43q-22 0 -22 20v94q0 20 22 20zM882 495v-58
h10q36 0 36 26v3q0 29 -39 29h-7zM1272 492h7v-3q-23 -16 -23 -26l10 -20h-7q-16 7 -16 23q4 26 29 26zM892 489h3q26 0 26 -23v-9q-8 -14 -26 -14h-3l-6 5v35zM895 483v-35q20 5 20 18q0 9 -20 17zM1029 378q48 -8 48 -32h4q0 16 22 29h108l16 -11q24 14 58 14
q59 -5 59 -35v-9q0 -9 -10 -20q20 -19 20 -32v-18q0 -42 -78 -49q-57 0 -72 26v26l16 18q-16 8 -16 29h-10v-67q0 -24 -35 -32q-39 1 -39 32h-4q0 -28 -32 -32h-10q-29 5 -29 20h-33q0 -15 -29 -20h-10q-17 0 -22 11l-26 -8h-75q-29 3 -29 26v111l22 20h52q65 0 65 -58
l-3 -12v-3h3q21 76 69 76zM827 343v-93q4 -27 29 -27h56q18 0 35 12q14 -12 26 -12h17l22 21h33q14 -21 29 -21h10q26 0 26 27q-39 120 -75 120h-13q-33 0 -58 -79h-7q0 11 -10 11l4 15v15q0 30 -56 38h-39q-29 -4 -29 -27zM1090 355v-12q0 -23 36 -23v-73q0 -24 26 -24h7
q17 0 26 15v76q0 5 22 9q14 -38 30 -38v-6q-26 0 -26 -23v-3q0 -30 45 -30h33q58 8 58 53q-9 35 -29 35v6q15 0 19 23q-6 30 -45 30h-23l-49 -15q0 15 -22 15h-82q-17 0 -26 -15zM1032 367q33 0 71 -117v-9q-8 -15 -29 -15q-19 7 -19 21h-52q0 -18 -26 -21q-22 0 -23 24h-3
q0 -15 -33 -21h-62q-22 0 -22 21v99l16 15h45q52 -6 52 -41l-6 -24q5 0 23 -26q26 94 68 94zM1285 367q46 -6 46 -30v-3l-16 -14l-46 9l-3 -3v-3q75 -14 75 -47v-6q0 -37 -65 -44q-59 6 -59 21v14q7 12 16 12q43 -5 43 -9q16 4 16 9q-75 12 -75 44v6q0 36 68 44zM1110 364
h94l13 -12v-15q-5 -11 -23 -11h-13v-73q0 -18 -22 -27q-17 0 -26 15v85h-13q-26 3 -26 20q4 12 16 18zM882 326v-9h10l7 6l-4 3h-13zM1090 323v-3l26 -64h4v58q-19 0 -30 9zM1025 314l-6 -26h19l-6 26h-7zM882 279v-12h26v12h-26z" />
    <glyph glyph-name="n" unicode="n" 
 />
    <glyph glyph-name="o" unicode="o" 
 />
    <glyph glyph-name="p" unicode="p" 
 />
    <glyph glyph-name="q" unicode="q" 
 />
    <glyph glyph-name="r" unicode="r" horiz-adv-x="682" 
 />
    <glyph glyph-name="s" unicode="s" horiz-adv-x="1024" 
 />
    <glyph glyph-name="t" unicode="t" horiz-adv-x="569" 
 />
    <glyph glyph-name="u" unicode="u" 
 />
    <glyph glyph-name="v" unicode="v" horiz-adv-x="1024" 
 />
    <glyph glyph-name="w" unicode="w" horiz-adv-x="1479" 
 />
    <glyph glyph-name="x" unicode="x" horiz-adv-x="1024" 
 />
    <glyph glyph-name="y" unicode="y" horiz-adv-x="1024" 
 />
    <glyph glyph-name="z" unicode="z" horiz-adv-x="1024" 
 />
    <glyph glyph-name="braceleft" unicode="{" horiz-adv-x="684" 
 />
    <glyph glyph-name="bar" unicode="|" horiz-adv-x="532" 
 />
    <glyph glyph-name="braceright" unicode="}" horiz-adv-x="684" 
 />
    <glyph glyph-name="asciitilde" unicode="~" horiz-adv-x="1196" 
 />
    <glyph glyph-name="Adieresis" unicode="&#xc4;" horiz-adv-x="1366" 
 />
    <glyph glyph-name="Aring" unicode="&#xc5;" horiz-adv-x="1366" 
 />
    <glyph glyph-name="Ccedilla" unicode="&#xc7;" horiz-adv-x="1479" 
 />
    <glyph glyph-name="Eacute" unicode="&#xc9;" horiz-adv-x="1366" 
 />
    <glyph glyph-name="Ntilde" unicode="&#xd1;" horiz-adv-x="1479" 
 />
    <glyph glyph-name="Odieresis" unicode="&#xd6;" horiz-adv-x="1593" 
 />
    <glyph glyph-name="Udieresis" unicode="&#xdc;" horiz-adv-x="1479" 
 />
    <glyph glyph-name="aacute" unicode="&#xe1;" 
 />
    <glyph glyph-name="agrave" unicode="&#xe0;" 
 />
    <glyph glyph-name="acircumflex" unicode="&#xe2;" 
 />
    <glyph glyph-name="adieresis" unicode="&#xe4;" 
 />
    <glyph glyph-name="atilde" unicode="&#xe3;" 
 />
    <glyph glyph-name="aring" unicode="&#xe5;" 
 />
    <glyph glyph-name="ccedilla" unicode="&#xe7;" horiz-adv-x="1024" 
 />
    <glyph glyph-name="eacute" unicode="&#xe9;" 
 />
    <glyph glyph-name="egrave" unicode="&#xe8;" 
 />
    <glyph glyph-name="ecircumflex" unicode="&#xea;" 
 />
    <glyph glyph-name="edieresis" unicode="&#xeb;" 
 />
    <glyph glyph-name="iacute" unicode="&#xed;" horiz-adv-x="569" 
 />
    <glyph glyph-name="igrave" unicode="&#xec;" horiz-adv-x="569" 
 />
    <glyph glyph-name="icircumflex" unicode="&#xee;" horiz-adv-x="569" 
 />
    <glyph glyph-name="idieresis" unicode="&#xef;" horiz-adv-x="569" 
 />
    <glyph glyph-name="ntilde" unicode="&#xf1;" 
 />
    <glyph glyph-name="oacute" unicode="&#xf3;" 
 />
    <glyph glyph-name="ograve" unicode="&#xf2;" 
 />
    <glyph glyph-name="ocircumflex" unicode="&#xf4;" 
 />
    <glyph glyph-name="odieresis" unicode="&#xf6;" 
 />
    <glyph glyph-name="otilde" unicode="&#xf5;" 
 />
    <glyph glyph-name="uacute" unicode="&#xfa;" 
 />
    <glyph glyph-name="ugrave" unicode="&#xf9;" 
 />
    <glyph glyph-name="ucircumflex" unicode="&#xfb;" 
 />
    <glyph glyph-name="udieresis" unicode="&#xfc;" 
 />
    <glyph glyph-name="dagger" unicode="&#x2020;" 
 />
    <glyph glyph-name="degree" unicode="&#xb0;" horiz-adv-x="819" 
 />
    <glyph glyph-name="cent" unicode="&#xa2;" 
 />
    <glyph glyph-name="sterling" unicode="&#xa3;" 
 />
    <glyph glyph-name="section" unicode="&#xa7;" 
 />
    <glyph glyph-name="bullet" unicode="&#x2022;" horiz-adv-x="717" 
 />
    <glyph glyph-name="paragraph" unicode="&#xb6;" horiz-adv-x="1100" 
 />
    <glyph glyph-name="germandbls" unicode="&#xdf;" horiz-adv-x="1251" 
 />
    <glyph glyph-name="registered" unicode="&#xae;" horiz-adv-x="1509" 
 />
    <glyph glyph-name="copyright" unicode="&#xa9;" horiz-adv-x="1509" 
 />
    <glyph glyph-name="trademark" unicode="&#x2122;" horiz-adv-x="2048" 
 />
    <glyph glyph-name="acute" unicode="&#xb4;" horiz-adv-x="682" 
 />
    <glyph glyph-name="dieresis" unicode="&#xa8;" horiz-adv-x="682" 
 />
    <glyph glyph-name="notequal" unicode="&#x2260;" horiz-adv-x="1124" 
 />
    <glyph glyph-name="AE" unicode="&#xc6;" horiz-adv-x="2048" 
 />
    <glyph glyph-name="Oslash" unicode="&#xd8;" horiz-adv-x="1593" 
 />
    <glyph glyph-name="infinity" unicode="&#x221e;" horiz-adv-x="1460" 
 />
    <glyph glyph-name="plusminus" unicode="&#xb1;" horiz-adv-x="1124" 
 />
    <glyph glyph-name="lessequal" unicode="&#x2264;" horiz-adv-x="1124" 
 />
    <glyph glyph-name="greaterequal" unicode="&#x2265;" horiz-adv-x="1124" 
 />
    <glyph glyph-name="yen" unicode="&#xa5;" 
 />
    <glyph glyph-name="mu" unicode="&#xb5;" horiz-adv-x="1180" 
 />
    <glyph glyph-name="partialdiff" unicode="&#x2202;" horiz-adv-x="1012" 
 />
    <glyph glyph-name="summation" unicode="&#x2211;" horiz-adv-x="1460" 
 />
    <glyph glyph-name="product" unicode="&#x220f;" horiz-adv-x="1686" 
 />
    <glyph glyph-name="glyph155" horiz-adv-x="1124" 
 />
    <glyph glyph-name="integral" unicode="&#x222b;" horiz-adv-x="561" 
 />
    <glyph glyph-name="ordfeminine" unicode="&#xaa;" horiz-adv-x="758" 
 />
    <glyph glyph-name="ordmasculine" unicode="&#xba;" horiz-adv-x="748" 
 />
    <glyph glyph-name="Omega" unicode="&#x2126;" horiz-adv-x="1573" 
 />
    <glyph glyph-name="ae" unicode="&#xe6;" horiz-adv-x="1821" 
 />
    <glyph glyph-name="oslash" unicode="&#xf8;" horiz-adv-x="1251" 
 />
    <glyph glyph-name="questiondown" unicode="&#xbf;" horiz-adv-x="1251" 
 />
    <glyph glyph-name="exclamdown" unicode="&#xa1;" horiz-adv-x="682" 
 />
    <glyph glyph-name="logicalnot" unicode="&#xac;" horiz-adv-x="1196" 
 />
    <glyph glyph-name="radical" unicode="&#x221a;" horiz-adv-x="1124" 
 />
    <glyph glyph-name="florin" unicode="&#x192;" 
 />
    <glyph glyph-name="approxequal" unicode="&#x2248;" horiz-adv-x="1124" 
 />
    <glyph glyph-name="Delta" unicode="&#x2206;" horiz-adv-x="1253" 
 />
    <glyph glyph-name="guillemotleft" unicode="&#xab;" 
 />
    <glyph glyph-name="guillemotright" unicode="&#xbb;" 
 />
    <glyph glyph-name="ellipsis" unicode="&#x2026;" horiz-adv-x="2048" 
 />
    <glyph glyph-name="Agrave" unicode="&#xc0;" horiz-adv-x="1366" 
 />
    <glyph glyph-name="Atilde" unicode="&#xc3;" horiz-adv-x="1366" 
 />
    <glyph glyph-name="Otilde" unicode="&#xd5;" horiz-adv-x="1593" 
 />
    <glyph glyph-name="OE" unicode="&#x152;" horiz-adv-x="2048" 
 />
    <glyph glyph-name="oe" unicode="&#x153;" horiz-adv-x="1933" 
 />
    <glyph glyph-name="endash" unicode="&#x2013;" 
 />
    <glyph glyph-name="emdash" unicode="&#x2014;" horiz-adv-x="2048" 
 />
    <glyph glyph-name="quotedblleft" unicode="&#x201c;" horiz-adv-x="682" 
 />
    <glyph glyph-name="quotedblright" unicode="&#x201d;" horiz-adv-x="682" 
 />
    <glyph glyph-name="quoteleft" unicode="&#x2018;" horiz-adv-x="455" 
 />
    <glyph glyph-name="quoteright" unicode="&#x2019;" horiz-adv-x="455" 
 />
    <glyph glyph-name="divide" unicode="&#xf7;" horiz-adv-x="1124" 
 />
    <glyph glyph-name="lozenge" unicode="&#x25ca;" horiz-adv-x="1012" 
 />
    <glyph glyph-name="ydieresis" unicode="&#xff;" horiz-adv-x="1024" 
 />
    <glyph glyph-name="Ydieresis" unicode="&#x178;" horiz-adv-x="1366" 
 />
    <glyph glyph-name="fraction" unicode="&#x2044;" horiz-adv-x="342" 
 />
    <glyph glyph-name="fraction" unicode="&#x2215;" horiz-adv-x="342" 
 />
    <glyph glyph-name="Euro" unicode="&#x20ac;" 
 />
    <glyph glyph-name="guilsinglleft" unicode="&#x2039;" horiz-adv-x="682" 
 />
    <glyph glyph-name="guilsinglright" unicode="&#x203a;" horiz-adv-x="682" 
 />
    <glyph glyph-name="uniF001" unicode="&#xf001;" horiz-adv-x="1024" 
 />
    <glyph glyph-name="uniF001" unicode="&#xfb01;" horiz-adv-x="1024" 
 />
    <glyph glyph-name="uniF002" unicode="&#xf002;" horiz-adv-x="1024" 
 />
    <glyph glyph-name="uniF002" unicode="&#xfb02;" horiz-adv-x="1024" 
 />
    <glyph glyph-name="daggerdbl" unicode="&#x2021;" 
 />
    <glyph glyph-name="periodcentered" unicode="&#xb7;" horiz-adv-x="569" 
 />
    <glyph glyph-name="periodcentered" unicode="&#x2219;" horiz-adv-x="569" 
 />
    <glyph glyph-name="quotesinglbase" unicode="&#x201a;" horiz-adv-x="455" 
 />
    <glyph glyph-name="quotedblbase" unicode="&#x201e;" horiz-adv-x="682" 
 />
    <glyph glyph-name="perthousand" unicode="&#x2030;" horiz-adv-x="2048" 
 />
    <glyph glyph-name="Acircumflex" unicode="&#xc2;" horiz-adv-x="1366" 
 />
    <glyph glyph-name="Ecircumflex" unicode="&#xca;" horiz-adv-x="1366" 
 />
    <glyph glyph-name="Aacute" unicode="&#xc1;" horiz-adv-x="1366" 
 />
    <glyph glyph-name="Edieresis" unicode="&#xcb;" horiz-adv-x="1366" 
 />
    <glyph glyph-name="Egrave" unicode="&#xc8;" horiz-adv-x="1366" 
 />
    <glyph glyph-name="Iacute" unicode="&#xcd;" horiz-adv-x="569" 
 />
    <glyph glyph-name="Icircumflex" unicode="&#xce;" horiz-adv-x="569" 
 />
    <glyph glyph-name="Idieresis" unicode="&#xcf;" horiz-adv-x="569" 
 />
    <glyph glyph-name="Igrave" unicode="&#xcc;" horiz-adv-x="569" 
 />
    <glyph glyph-name="Oacute" unicode="&#xd3;" horiz-adv-x="1593" 
 />
    <glyph glyph-name="Ocircumflex" unicode="&#xd4;" horiz-adv-x="1593" 
 />
    <glyph glyph-name="Ograve" unicode="&#xd2;" horiz-adv-x="1593" 
 />
    <glyph glyph-name="Uacute" unicode="&#xda;" horiz-adv-x="1479" 
 />
    <glyph glyph-name="Ucircumflex" unicode="&#xdb;" horiz-adv-x="1479" 
 />
    <glyph glyph-name="Ugrave" unicode="&#xd9;" horiz-adv-x="1479" 
 />
    <glyph glyph-name="dotlessi" unicode="&#x131;" horiz-adv-x="569" 
 />
    <glyph glyph-name="circumflex" unicode="&#x2c6;" horiz-adv-x="682" 
 />
    <glyph glyph-name="tilde" unicode="&#x2dc;" horiz-adv-x="682" 
 />
    <glyph glyph-name="uni02C9" unicode="&#x2c9;" horiz-adv-x="682" 
 />
    <glyph glyph-name="breve" unicode="&#x2d8;" horiz-adv-x="682" 
 />
    <glyph glyph-name="dotaccent" unicode="&#x2d9;" horiz-adv-x="682" 
 />
    <glyph glyph-name="ring" unicode="&#x2da;" horiz-adv-x="682" 
 />
    <glyph glyph-name="cedilla" unicode="&#xb8;" horiz-adv-x="682" 
 />
    <glyph glyph-name="hungarumlaut" unicode="&#x2dd;" horiz-adv-x="682" 
 />
    <glyph glyph-name="ogonek" unicode="&#x2db;" horiz-adv-x="682" 
 />
    <glyph glyph-name="caron" unicode="&#x2c7;" horiz-adv-x="682" 
 />
    <glyph glyph-name="Lslash" unicode="&#x141;" 
 />
    <glyph glyph-name="lslash" unicode="&#x142;" horiz-adv-x="455" 
 />
    <glyph glyph-name="Scaron" unicode="&#x160;" horiz-adv-x="1366" 
 />
    <glyph glyph-name="scaron" unicode="&#x161;" horiz-adv-x="1024" 
 />
    <glyph glyph-name="Zcaron" unicode="&#x17d;" horiz-adv-x="1251" 
 />
    <glyph glyph-name="zcaron" unicode="&#x17e;" horiz-adv-x="1024" 
 />
    <glyph glyph-name="brokenbar" unicode="&#xa6;" horiz-adv-x="532" 
 />
    <glyph glyph-name="Eth" unicode="&#xd0;" horiz-adv-x="1479" 
 />
    <glyph glyph-name="eth" unicode="&#xf0;" 
 />
    <glyph glyph-name="Yacute" unicode="&#xdd;" horiz-adv-x="1366" 
 />
    <glyph glyph-name="yacute" unicode="&#xfd;" horiz-adv-x="1024" 
 />
    <glyph glyph-name="Thorn" unicode="&#xde;" horiz-adv-x="1366" 
 />
    <glyph glyph-name="thorn" unicode="&#xfe;" 
 />
    <glyph glyph-name="minus" unicode="&#x2212;" horiz-adv-x="1196" 
 />
    <glyph glyph-name="multiply" unicode="&#xd7;" horiz-adv-x="1196" 
 />
    <glyph glyph-name="uni00B9" unicode="&#xb9;" horiz-adv-x="682" 
 />
    <glyph glyph-name="uni00B2" unicode="&#xb2;" horiz-adv-x="682" 
 />
    <glyph glyph-name="uni00B3" unicode="&#xb3;" horiz-adv-x="682" 
 />
    <glyph glyph-name="onehalf" unicode="&#xbd;" horiz-adv-x="1708" 
 />
    <glyph glyph-name="onequarter" unicode="&#xbc;" horiz-adv-x="1708" 
 />
    <glyph glyph-name="threequarters" unicode="&#xbe;" horiz-adv-x="1708" 
 />
    <glyph glyph-name="franc" unicode="&#x20a3;" 
 />
    <glyph glyph-name="Gbreve" unicode="&#x11e;" horiz-adv-x="1593" 
 />
    <glyph glyph-name="gbreve" unicode="&#x11f;" 
 />
    <glyph glyph-name="Idotaccent" unicode="&#x130;" horiz-adv-x="569" 
 />
    <glyph glyph-name="Scedilla" unicode="&#x15e;" horiz-adv-x="1366" 
 />
    <glyph glyph-name="scedilla" unicode="&#x15f;" horiz-adv-x="1024" 
 />
    <glyph glyph-name="Cacute" unicode="&#x106;" horiz-adv-x="1479" 
 />
    <glyph glyph-name="cacute" unicode="&#x107;" horiz-adv-x="1024" 
 />
    <glyph glyph-name="Ccaron" unicode="&#x10c;" horiz-adv-x="1479" 
 />
    <glyph glyph-name="ccaron" unicode="&#x10d;" horiz-adv-x="1024" 
 />
    <glyph glyph-name="dcroat" unicode="&#x111;" 
 />
    <glyph glyph-name="currency" unicode="&#xa4;" 
 />
    <glyph glyph-name="macron" unicode="&#xaf;" horiz-adv-x="1131" 
 />
    <glyph glyph-name="Amacron" unicode="&#x100;" horiz-adv-x="1366" 
 />
    <glyph glyph-name="amacron" unicode="&#x101;" 
 />
    <glyph glyph-name="Abreve" unicode="&#x102;" horiz-adv-x="1366" 
 />
    <glyph glyph-name="abreve" unicode="&#x103;" 
 />
    <glyph glyph-name="Aogonek" unicode="&#x104;" horiz-adv-x="1366" 
 />
    <glyph glyph-name="aogonek" unicode="&#x105;" 
 />
    <glyph glyph-name="Ccircumflex" unicode="&#x108;" horiz-adv-x="1479" 
 />
    <glyph glyph-name="ccircumflex" unicode="&#x109;" horiz-adv-x="1024" 
 />
    <glyph glyph-name="Cdotaccent" unicode="&#x10a;" horiz-adv-x="1479" 
 />
    <glyph glyph-name="cdotaccent" unicode="&#x10b;" horiz-adv-x="1024" 
 />
    <glyph glyph-name="Dcaron" unicode="&#x10e;" horiz-adv-x="1479" 
 />
    <glyph glyph-name="dcaron" unicode="&#x10f;" horiz-adv-x="1259" 
 />
    <glyph glyph-name="Dcroat" unicode="&#x110;" horiz-adv-x="1479" 
 />
    <glyph glyph-name="Emacron" unicode="&#x112;" horiz-adv-x="1366" 
 />
    <glyph glyph-name="emacron" unicode="&#x113;" 
 />
    <glyph glyph-name="Ebreve" unicode="&#x114;" horiz-adv-x="1366" 
 />
    <glyph glyph-name="ebreve" unicode="&#x115;" 
 />
    <glyph glyph-name="Edotaccent" unicode="&#x116;" horiz-adv-x="1366" 
 />
    <glyph glyph-name="edotaccent" unicode="&#x117;" 
 />
    <glyph glyph-name="Eogonek" unicode="&#x118;" horiz-adv-x="1366" 
 />
    <glyph glyph-name="eogonek" unicode="&#x119;" 
 />
    <glyph glyph-name="Ecaron" unicode="&#x11a;" horiz-adv-x="1366" 
 />
    <glyph glyph-name="ecaron" unicode="&#x11b;" 
 />
    <glyph glyph-name="Gcircumflex" unicode="&#x11c;" horiz-adv-x="1593" 
 />
    <glyph glyph-name="gcircumflex" unicode="&#x11d;" 
 />
    <glyph glyph-name="Gdotaccent" unicode="&#x120;" horiz-adv-x="1593" 
 />
    <glyph glyph-name="gdotaccent" unicode="&#x121;" 
 />
    <glyph glyph-name="Gcommaaccent" unicode="&#x122;" horiz-adv-x="1593" 
 />
    <glyph glyph-name="gcommaaccent" unicode="&#x123;" 
 />
    <glyph glyph-name="Hcircumflex" unicode="&#x124;" horiz-adv-x="1479" 
 />
    <glyph glyph-name="hcircumflex" unicode="&#x125;" 
 />
    <glyph glyph-name="Hbar" unicode="&#x126;" horiz-adv-x="1479" 
 />
    <glyph glyph-name="hbar" unicode="&#x127;" 
 />
    <glyph glyph-name="Itilde" unicode="&#x128;" horiz-adv-x="569" 
 />
    <glyph glyph-name="itilde" unicode="&#x129;" horiz-adv-x="569" 
 />
    <glyph glyph-name="Imacron" unicode="&#x12a;" horiz-adv-x="569" 
 />
    <glyph glyph-name="imacron" unicode="&#x12b;" horiz-adv-x="569" 
 />
    <glyph glyph-name="Ibreve" unicode="&#x12c;" horiz-adv-x="569" 
 />
    <glyph glyph-name="ibreve" unicode="&#x12d;" horiz-adv-x="569" 
 />
    <glyph glyph-name="Iogonek" unicode="&#x12e;" horiz-adv-x="569" 
 />
    <glyph glyph-name="iogonek" unicode="&#x12f;" horiz-adv-x="455" 
 />
    <glyph glyph-name="IJ" unicode="&#x132;" horiz-adv-x="1505" 
 />
    <glyph glyph-name="ij" unicode="&#x133;" horiz-adv-x="909" 
 />
    <glyph glyph-name="Jcircumflex" unicode="&#x134;" horiz-adv-x="1024" 
 />
    <glyph glyph-name="jcircumflex" unicode="&#x135;" horiz-adv-x="455" 
 />
    <glyph glyph-name="Kcommaaccent" unicode="&#x136;" horiz-adv-x="1366" 
 />
    <glyph glyph-name="kcommaaccent" unicode="&#x137;" horiz-adv-x="1024" 
 />
    <glyph glyph-name="kgreenlandic" unicode="&#x138;" horiz-adv-x="1024" 
 />
    <glyph glyph-name="Lacute" unicode="&#x139;" 
 />
    <glyph glyph-name="lacute" unicode="&#x13a;" horiz-adv-x="455" 
 />
    <glyph glyph-name="Lcommaaccent" unicode="&#x13b;" 
 />
    <glyph glyph-name="lcommaaccent" unicode="&#x13c;" horiz-adv-x="455" 
 />
    <glyph glyph-name="Lcaron" unicode="&#x13d;" 
 />
    <glyph glyph-name="lcaron" unicode="&#x13e;" horiz-adv-x="597" 
 />
    <glyph glyph-name="Ldot" unicode="&#x13f;" 
 />
    <glyph glyph-name="ldot" unicode="&#x140;" horiz-adv-x="684" 
 />
    <glyph glyph-name="Nacute" unicode="&#x143;" horiz-adv-x="1479" 
 />
    <glyph glyph-name="nacute" unicode="&#x144;" 
 />
    <glyph glyph-name="Ncommaaccent" unicode="&#x145;" horiz-adv-x="1479" 
 />
    <glyph glyph-name="ncommaaccent" unicode="&#x146;" 
 />
    <glyph glyph-name="Ncaron" unicode="&#x147;" horiz-adv-x="1479" 
 />
    <glyph glyph-name="ncaron" unicode="&#x148;" 
 />
    <glyph glyph-name="napostrophe" unicode="&#x149;" horiz-adv-x="1237" 
 />
    <glyph glyph-name="Eng" unicode="&#x14a;" horiz-adv-x="1481" 
 />
    <glyph glyph-name="eng" unicode="&#x14b;" 
 />
    <glyph glyph-name="Omacron" unicode="&#x14c;" horiz-adv-x="1593" 
 />
    <glyph glyph-name="omacron" unicode="&#x14d;" 
 />
    <glyph glyph-name="Obreve" unicode="&#x14e;" horiz-adv-x="1593" 
 />
    <glyph glyph-name="obreve" unicode="&#x14f;" 
 />
    <glyph glyph-name="Ohungarumlaut" unicode="&#x150;" horiz-adv-x="1593" 
 />
    <glyph glyph-name="ohungarumlaut" unicode="&#x151;" 
 />
    <glyph glyph-name="Racute" unicode="&#x154;" horiz-adv-x="1479" 
 />
    <glyph glyph-name="racute" unicode="&#x155;" horiz-adv-x="682" 
 />
    <glyph glyph-name="Rcommaaccent" unicode="&#x156;" horiz-adv-x="1479" 
 />
    <glyph glyph-name="rcommaaccent" unicode="&#x157;" horiz-adv-x="682" 
 />
    <glyph glyph-name="Rcaron" unicode="&#x158;" horiz-adv-x="1479" 
 />
    <glyph glyph-name="rcaron" unicode="&#x159;" horiz-adv-x="682" 
 />
    <glyph glyph-name="Sacute" unicode="&#x15a;" horiz-adv-x="1366" 
 />
    <glyph glyph-name="sacute" unicode="&#x15b;" horiz-adv-x="1024" 
 />
    <glyph glyph-name="Scircumflex" unicode="&#x15c;" horiz-adv-x="1366" 
 />
    <glyph glyph-name="scircumflex" unicode="&#x15d;" horiz-adv-x="1024" 
 />
    <glyph glyph-name="Tcommaaccent" unicode="&#x162;" horiz-adv-x="1251" 
 />
    <glyph glyph-name="tcommaaccent" unicode="&#x163;" horiz-adv-x="569" 
 />
    <glyph glyph-name="Tcaron" unicode="&#x164;" horiz-adv-x="1251" 
 />
    <glyph glyph-name="tcaron" unicode="&#x165;" horiz-adv-x="768" 
 />
    <glyph glyph-name="Tbar" unicode="&#x166;" horiz-adv-x="1251" 
 />
    <glyph glyph-name="tbar" unicode="&#x167;" horiz-adv-x="569" 
 />
    <glyph glyph-name="Utilde" unicode="&#x168;" horiz-adv-x="1479" 
 />
    <glyph glyph-name="utilde" unicode="&#x169;" 
 />
    <glyph glyph-name="Umacron" unicode="&#x16a;" horiz-adv-x="1479" 
 />
    <glyph glyph-name="umacron" unicode="&#x16b;" 
 />
    <glyph glyph-name="Ubreve" unicode="&#x16c;" horiz-adv-x="1479" 
 />
    <glyph glyph-name="ubreve" unicode="&#x16d;" 
 />
    <glyph glyph-name="Uring" unicode="&#x16e;" horiz-adv-x="1479" 
 />
    <glyph glyph-name="uring" unicode="&#x16f;" 
 />
    <glyph glyph-name="Uhungarumlaut" unicode="&#x170;" horiz-adv-x="1479" 
 />
    <glyph glyph-name="uhungarumlaut" unicode="&#x171;" 
 />
    <glyph glyph-name="Uogonek" unicode="&#x172;" horiz-adv-x="1479" 
 />
    <glyph glyph-name="uogonek" unicode="&#x173;" 
 />
    <glyph glyph-name="Wcircumflex" unicode="&#x174;" horiz-adv-x="1933" 
 />
    <glyph glyph-name="wcircumflex" unicode="&#x175;" horiz-adv-x="1479" 
 />
    <glyph glyph-name="Ycircumflex" unicode="&#x176;" horiz-adv-x="1366" 
 />
    <glyph glyph-name="ycircumflex" unicode="&#x177;" horiz-adv-x="1024" 
 />
    <glyph glyph-name="Zacute" unicode="&#x179;" horiz-adv-x="1251" 
 />
    <glyph glyph-name="zacute" unicode="&#x17a;" horiz-adv-x="1024" 
 />
    <glyph glyph-name="Zdotaccent" unicode="&#x17b;" horiz-adv-x="1251" 
 />
    <glyph glyph-name="zdotaccent" unicode="&#x17c;" horiz-adv-x="1024" 
 />
    <glyph glyph-name="longs" unicode="&#x17f;" horiz-adv-x="455" 
 />
    <glyph glyph-name="Aringacute" unicode="&#x1fa;" horiz-adv-x="1366" 
 />
    <glyph glyph-name="aringacute" unicode="&#x1fb;" 
 />
    <glyph glyph-name="AEacute" unicode="&#x1fc;" horiz-adv-x="2048" 
 />
    <glyph glyph-name="aeacute" unicode="&#x1fd;" horiz-adv-x="1821" 
 />
    <glyph glyph-name="Oslashacute" unicode="&#x1fe;" horiz-adv-x="1593" 
 />
    <glyph glyph-name="oslashacute" unicode="&#x1ff;" horiz-adv-x="1251" 
 />
    <glyph glyph-name="tonos" unicode="&#x384;" horiz-adv-x="682" 
 />
    <glyph glyph-name="dieresistonos" unicode="&#x385;" horiz-adv-x="682" 
 />
    <glyph glyph-name="Alphatonos" unicode="&#x386;" horiz-adv-x="1367" 
 />
    <glyph glyph-name="anoteleia" unicode="&#x387;" horiz-adv-x="569" 
 />
    <glyph glyph-name="Epsilontonos" unicode="&#x388;" horiz-adv-x="1606" 
 />
    <glyph glyph-name="Etatonos" unicode="&#x389;" horiz-adv-x="1716" 
 />
    <glyph glyph-name="Iotatonos" unicode="&#x38a;" horiz-adv-x="786" 
 />
    <glyph glyph-name="Omicrontonos" unicode="&#x38c;" horiz-adv-x="1586" 
 />
    <glyph glyph-name="Upsilontonos" unicode="&#x38e;" horiz-adv-x="1752" 
 />
    <glyph glyph-name="Omegatonos" unicode="&#x38f;" horiz-adv-x="1541" 
 />
    <glyph glyph-name="iotadieresistonos" unicode="&#x390;" horiz-adv-x="455" 
 />
    <glyph glyph-name="Alpha" unicode="&#x391;" horiz-adv-x="1366" 
 />
    <glyph glyph-name="Beta" unicode="&#x392;" horiz-adv-x="1366" 
 />
    <glyph glyph-name="Gamma" unicode="&#x393;" horiz-adv-x="1128" 
 />
    <glyph glyph-name="uni0394" unicode="&#x394;" horiz-adv-x="1368" 
 />
    <glyph glyph-name="Epsilon" unicode="&#x395;" horiz-adv-x="1366" 
 />
    <glyph glyph-name="Zeta" unicode="&#x396;" horiz-adv-x="1251" 
 />
    <glyph glyph-name="Eta" unicode="&#x397;" horiz-adv-x="1479" 
 />
    <glyph glyph-name="Theta" unicode="&#x398;" horiz-adv-x="1593" 
 />
    <glyph glyph-name="Iota" unicode="&#x399;" horiz-adv-x="569" 
 />
    <glyph glyph-name="Kappa" unicode="&#x39a;" horiz-adv-x="1366" 
 />
    <glyph glyph-name="Lambda" unicode="&#x39b;" horiz-adv-x="1368" 
 />
    <glyph glyph-name="Mu" unicode="&#x39c;" horiz-adv-x="1706" 
 />
    <glyph glyph-name="Nu" unicode="&#x39d;" horiz-adv-x="1479" 
 />
    <glyph glyph-name="Xi" unicode="&#x39e;" horiz-adv-x="1331" 
 />
    <glyph glyph-name="Omicron" unicode="&#x39f;" horiz-adv-x="1593" 
 />
    <glyph glyph-name="Pi" unicode="&#x3a0;" horiz-adv-x="1479" 
 />
    <glyph glyph-name="Rho" unicode="&#x3a1;" horiz-adv-x="1366" 
 />
    <glyph glyph-name="Sigma" unicode="&#x3a3;" horiz-adv-x="1266" 
 />
    <glyph glyph-name="Tau" unicode="&#x3a4;" horiz-adv-x="1251" 
 />
    <glyph glyph-name="Upsilon" unicode="&#x3a5;" horiz-adv-x="1366" 
 />
    <glyph glyph-name="Phi" unicode="&#x3a6;" horiz-adv-x="1634" 
 />
    <glyph glyph-name="Chi" unicode="&#x3a7;" horiz-adv-x="1366" 
 />
    <glyph glyph-name="Psi" unicode="&#x3a8;" horiz-adv-x="1711" 
 />
    <glyph glyph-name="uni03A9" unicode="&#x3a9;" horiz-adv-x="1531" 
 />
    <glyph glyph-name="Iotadieresis" unicode="&#x3aa;" horiz-adv-x="569" 
 />
    <glyph glyph-name="Upsilondieresis" unicode="&#x3ab;" horiz-adv-x="1366" 
 />
    <glyph glyph-name="alphatonos" unicode="&#x3ac;" horiz-adv-x="1184" 
 />
    <glyph glyph-name="epsilontonos" unicode="&#x3ad;" horiz-adv-x="913" 
 />
    <glyph glyph-name="etatonos" unicode="&#x3ae;" 
 />
    <glyph glyph-name="iotatonos" unicode="&#x3af;" horiz-adv-x="455" 
 />
    <glyph glyph-name="upsilondieresistonos" unicode="&#x3b0;" horiz-adv-x="1120" 
 />
    <glyph glyph-name="alpha" unicode="&#x3b1;" horiz-adv-x="1184" 
 />
    <glyph glyph-name="beta" unicode="&#x3b2;" horiz-adv-x="1178" 
 />
    <glyph glyph-name="gamma" unicode="&#x3b3;" horiz-adv-x="1024" 
 />
    <glyph glyph-name="delta" unicode="&#x3b4;" horiz-adv-x="1140" 
 />
    <glyph glyph-name="epsilon" unicode="&#x3b5;" horiz-adv-x="913" 
 />
    <glyph glyph-name="zeta" unicode="&#x3b6;" horiz-adv-x="903" 
 />
    <glyph glyph-name="eta" unicode="&#x3b7;" 
 />
    <glyph glyph-name="theta" unicode="&#x3b8;" 
 />
    <glyph glyph-name="iota" unicode="&#x3b9;" horiz-adv-x="455" 
 />
    <glyph glyph-name="kappa" unicode="&#x3ba;" horiz-adv-x="1024" 
 />
    <glyph glyph-name="lambda" unicode="&#x3bb;" horiz-adv-x="1024" 
 />
    <glyph glyph-name="uni03BC" unicode="&#x3bc;" horiz-adv-x="1180" 
 />
    <glyph glyph-name="nu" unicode="&#x3bd;" horiz-adv-x="1024" 
 />
    <glyph glyph-name="xi" unicode="&#x3be;" horiz-adv-x="917" 
 />
    <glyph glyph-name="omicron" unicode="&#x3bf;" 
 />
    <glyph glyph-name="pi" unicode="&#x3c0;" horiz-adv-x="1413" 
 />
    <glyph glyph-name="rho" unicode="&#x3c1;" horiz-adv-x="1165" 
 />
    <glyph glyph-name="sigma1" unicode="&#x3c2;" horiz-adv-x="987" 
 />
    <glyph glyph-name="sigma" unicode="&#x3c3;" horiz-adv-x="1264" 
 />
    <glyph glyph-name="tau" unicode="&#x3c4;" horiz-adv-x="809" 
 />
    <glyph glyph-name="upsilon" unicode="&#x3c5;" horiz-adv-x="1120" 
 />
    <glyph glyph-name="phi" unicode="&#x3c6;" horiz-adv-x="1328" 
 />
    <glyph glyph-name="chi" unicode="&#x3c7;" horiz-adv-x="1075" 
 />
    <glyph glyph-name="psi" unicode="&#x3c8;" horiz-adv-x="1460" 
 />
    <glyph glyph-name="omega" unicode="&#x3c9;" horiz-adv-x="1599" 
 />
    <glyph glyph-name="iotadieresis" unicode="&#x3ca;" horiz-adv-x="455" 
 />
    <glyph glyph-name="upsilondieresis" unicode="&#x3cb;" horiz-adv-x="1120" 
 />
    <glyph glyph-name="omicrontonos" unicode="&#x3cc;" 
 />
    <glyph glyph-name="upsilontonos" unicode="&#x3cd;" horiz-adv-x="1120" 
 />
    <glyph glyph-name="omegatonos" unicode="&#x3ce;" horiz-adv-x="1599" 
 />
    <glyph glyph-name="afii10023" unicode="&#x401;" horiz-adv-x="1367" 
 />
    <glyph glyph-name="afii10051" unicode="&#x402;" horiz-adv-x="1771" 
 />
    <glyph glyph-name="afii10052" unicode="&#x403;" horiz-adv-x="1109" 
 />
    <glyph glyph-name="afii10053" unicode="&#x404;" horiz-adv-x="1472" 
 />
    <glyph glyph-name="afii10054" unicode="&#x405;" horiz-adv-x="1366" 
 />
    <glyph glyph-name="afii10055" unicode="&#x406;" horiz-adv-x="569" 
 />
    <glyph glyph-name="afii10056" unicode="&#x407;" horiz-adv-x="569" 
 />
    <glyph glyph-name="afii10057" unicode="&#x408;" horiz-adv-x="1024" 
 />
    <glyph glyph-name="afii10058" unicode="&#x409;" horiz-adv-x="2165" 
 />
    <glyph glyph-name="afii10059" unicode="&#x40a;" horiz-adv-x="2069" 
 />
    <glyph glyph-name="afii10060" unicode="&#x40b;" horiz-adv-x="1749" 
 />
    <glyph glyph-name="afii10061" unicode="&#x40c;" horiz-adv-x="1193" 
 />
    <glyph glyph-name="afii10062" unicode="&#x40e;" horiz-adv-x="1301" 
 />
    <glyph glyph-name="afii10145" unicode="&#x40f;" horiz-adv-x="1472" 
 />
    <glyph glyph-name="afii10017" unicode="&#x410;" horiz-adv-x="1366" 
 />
    <glyph glyph-name="afii10018" unicode="&#x411;" horiz-adv-x="1344" 
 />
    <glyph glyph-name="afii10019" unicode="&#x412;" horiz-adv-x="1366" 
 />
    <glyph glyph-name="afii10020" unicode="&#x413;" horiz-adv-x="1109" 
 />
    <glyph glyph-name="afii10021" unicode="&#x414;" horiz-adv-x="1387" 
 />
    <glyph glyph-name="afii10022" unicode="&#x415;" horiz-adv-x="1366" 
 />
    <glyph glyph-name="afii10024" unicode="&#x416;" horiz-adv-x="1891" 
 />
    <glyph glyph-name="afii10025" unicode="&#x417;" horiz-adv-x="1237" 
 />
    <glyph glyph-name="afii10026" unicode="&#x418;" horiz-adv-x="1472" 
 />
    <glyph glyph-name="afii10027" unicode="&#x419;" horiz-adv-x="1472" 
 />
    <glyph glyph-name="afii10028" unicode="&#x41a;" horiz-adv-x="1193" 
 />
    <glyph glyph-name="afii10029" unicode="&#x41b;" horiz-adv-x="1344" 
 />
    <glyph glyph-name="afii10030" unicode="&#x41c;" horiz-adv-x="1706" 
 />
    <glyph glyph-name="afii10031" unicode="&#x41d;" horiz-adv-x="1479" 
 />
    <glyph glyph-name="afii10032" unicode="&#x41e;" horiz-adv-x="1593" 
 />
    <glyph glyph-name="afii10033" unicode="&#x41f;" horiz-adv-x="1472" 
 />
    <glyph glyph-name="afii10034" unicode="&#x420;" horiz-adv-x="1366" 
 />
    <glyph glyph-name="afii10035" unicode="&#x421;" horiz-adv-x="1479" 
 />
    <glyph glyph-name="afii10036" unicode="&#x422;" horiz-adv-x="1251" 
 />
    <glyph glyph-name="afii10037" unicode="&#x423;" horiz-adv-x="1301" 
 />
    <glyph glyph-name="afii10038" unicode="&#x424;" horiz-adv-x="1557" 
 />
    <glyph glyph-name="afii10039" unicode="&#x425;" horiz-adv-x="1366" 
 />
    <glyph glyph-name="afii10040" unicode="&#x426;" horiz-adv-x="1515" 
 />
    <glyph glyph-name="afii10041" unicode="&#x427;" horiz-adv-x="1365" 
 />
    <glyph glyph-name="afii10042" unicode="&#x428;" horiz-adv-x="1877" 
 />
    <glyph glyph-name="afii10043" unicode="&#x429;" horiz-adv-x="1920" 
 />
    <glyph glyph-name="afii10044" unicode="&#x42a;" horiz-adv-x="1621" 
 />
    <glyph glyph-name="afii10045" unicode="&#x42b;" horiz-adv-x="1813" 
 />
    <glyph glyph-name="afii10046" unicode="&#x42c;" horiz-adv-x="1344" 
 />
    <glyph glyph-name="afii10047" unicode="&#x42d;" horiz-adv-x="1472" 
 />
    <glyph glyph-name="afii10048" unicode="&#x42e;" horiz-adv-x="2069" 
 />
    <glyph glyph-name="afii10049" unicode="&#x42f;" horiz-adv-x="1479" 
 />
    <glyph glyph-name="afii10065" unicode="&#x430;" 
 />
    <glyph glyph-name="afii10066" unicode="&#x431;" horiz-adv-x="1173" 
 />
    <glyph glyph-name="afii10067" unicode="&#x432;" horiz-adv-x="1088" 
 />
    <glyph glyph-name="afii10068" unicode="&#x433;" horiz-adv-x="747" 
 />
    <glyph glyph-name="afii10069" unicode="&#x434;" horiz-adv-x="1195" 
 />
    <glyph glyph-name="afii10070" unicode="&#x435;" 
 />
    <glyph glyph-name="afii10072" unicode="&#x436;" horiz-adv-x="1370" 
 />
    <glyph glyph-name="afii10073" unicode="&#x437;" horiz-adv-x="939" 
 />
    <glyph glyph-name="afii10074" unicode="&#x438;" horiz-adv-x="1144" 
 />
    <glyph glyph-name="afii10075" unicode="&#x439;" horiz-adv-x="1144" 
 />
    <glyph glyph-name="afii10076" unicode="&#x43a;" horiz-adv-x="896" 
 />
    <glyph glyph-name="afii10077" unicode="&#x43b;" horiz-adv-x="1195" 
 />
    <glyph glyph-name="afii10078" unicode="&#x43c;" horiz-adv-x="1408" 
 />
    <glyph glyph-name="afii10079" unicode="&#x43d;" horiz-adv-x="1131" 
 />
    <glyph glyph-name="afii10080" unicode="&#x43e;" 
 />
    <glyph glyph-name="afii10081" unicode="&#x43f;" horiz-adv-x="1109" 
 />
    <glyph glyph-name="afii10082" unicode="&#x440;" 
 />
    <glyph glyph-name="afii10083" unicode="&#x441;" horiz-adv-x="1024" 
 />
    <glyph glyph-name="afii10084" unicode="&#x442;" horiz-adv-x="938" 
 />
    <glyph glyph-name="afii10085" unicode="&#x443;" horiz-adv-x="1024" 
 />
    <glyph glyph-name="afii10086" unicode="&#x444;" horiz-adv-x="1685" 
 />
    <glyph glyph-name="afii10087" unicode="&#x445;" horiz-adv-x="1024" 
 />
    <glyph glyph-name="afii10088" unicode="&#x446;" horiz-adv-x="1173" 
 />
    <glyph glyph-name="afii10089" unicode="&#x447;" horiz-adv-x="1067" 
 />
    <glyph glyph-name="afii10090" unicode="&#x448;" horiz-adv-x="1643" 
 />
    <glyph glyph-name="afii10091" unicode="&#x449;" horiz-adv-x="1685" 
 />
    <glyph glyph-name="afii10092" unicode="&#x44a;" horiz-adv-x="1280" 
 />
    <glyph glyph-name="afii10093" unicode="&#x44b;" horiz-adv-x="1472" 
 />
    <glyph glyph-name="afii10094" unicode="&#x44c;" horiz-adv-x="1067" 
 />
    <glyph glyph-name="afii10095" unicode="&#x44d;" horiz-adv-x="1045" 
 />
    <glyph glyph-name="afii10096" unicode="&#x44e;" horiz-adv-x="1536" 
 />
    <glyph glyph-name="afii10097" unicode="&#x44f;" horiz-adv-x="1109" 
 />
    <glyph glyph-name="afii10071" unicode="&#x451;" 
 />
    <glyph glyph-name="afii10099" unicode="&#x452;" 
 />
    <glyph glyph-name="afii10100" unicode="&#x453;" horiz-adv-x="747" 
 />
    <glyph glyph-name="afii10101" unicode="&#x454;" horiz-adv-x="1045" 
 />
    <glyph glyph-name="afii10102" unicode="&#x455;" horiz-adv-x="1024" 
 />
    <glyph glyph-name="afii10103" unicode="&#x456;" horiz-adv-x="455" 
 />
    <glyph glyph-name="afii10104" unicode="&#x457;" horiz-adv-x="569" 
 />
    <glyph glyph-name="afii10105" unicode="&#x458;" horiz-adv-x="455" 
 />
    <glyph glyph-name="afii10106" unicode="&#x459;" horiz-adv-x="1856" 
 />
    <glyph glyph-name="afii10107" unicode="&#x45a;" horiz-adv-x="1664" 
 />
    <glyph glyph-name="afii10108" unicode="&#x45b;" 
 />
    <glyph glyph-name="afii10109" unicode="&#x45c;" horiz-adv-x="896" 
 />
    <glyph glyph-name="afii10110" unicode="&#x45e;" horiz-adv-x="1024" 
 />
    <glyph glyph-name="afii10193" unicode="&#x45f;" horiz-adv-x="1131" 
 />
    <glyph glyph-name="afii10050" unicode="&#x490;" horiz-adv-x="1001" 
 />
    <glyph glyph-name="afii10098" unicode="&#x491;" horiz-adv-x="842" 
 />
    <glyph glyph-name="Wgrave" unicode="&#x1e80;" horiz-adv-x="1933" 
 />
    <glyph glyph-name="wgrave" unicode="&#x1e81;" horiz-adv-x="1479" 
 />
    <glyph glyph-name="Wacute" unicode="&#x1e82;" horiz-adv-x="1933" 
 />
    <glyph glyph-name="wacute" unicode="&#x1e83;" horiz-adv-x="1479" 
 />
    <glyph glyph-name="Wdieresis" unicode="&#x1e84;" horiz-adv-x="1933" 
 />
    <glyph glyph-name="wdieresis" unicode="&#x1e85;" horiz-adv-x="1479" 
 />
    <glyph glyph-name="Ygrave" unicode="&#x1ef2;" horiz-adv-x="1366" 
 />
    <glyph glyph-name="ygrave" unicode="&#x1ef3;" horiz-adv-x="1024" 
 />
    <glyph glyph-name="afii00208" unicode="&#x2015;" horiz-adv-x="2048" 
 />
    <glyph glyph-name="underscoredbl" unicode="&#x2017;" horiz-adv-x="1131" 
 />
    <glyph glyph-name="quotereversed" unicode="&#x201b;" horiz-adv-x="455" 
 />
    <glyph glyph-name="minute" unicode="&#x2032;" horiz-adv-x="384" 
 />
    <glyph glyph-name="second" unicode="&#x2033;" horiz-adv-x="725" 
 />
    <glyph glyph-name="exclamdbl" unicode="&#x203c;" horiz-adv-x="1024" 
 />
    <glyph glyph-name="uni203E" unicode="&#x203e;" horiz-adv-x="682" 
 />
    <glyph glyph-name="uni207F" unicode="&#x207f;" horiz-adv-x="747" 
 />
    <glyph glyph-name="lira" unicode="&#x20a4;" 
 />
    <glyph glyph-name="peseta" unicode="&#x20a7;" horiz-adv-x="2240" 
 />
    <glyph glyph-name="afii61248" unicode="&#x2105;" horiz-adv-x="1813" 
 />
    <glyph glyph-name="afii61289" unicode="&#x2113;" horiz-adv-x="662" 
 />
    <glyph glyph-name="afii61352" unicode="&#x2116;" horiz-adv-x="2197" 
 />
    <glyph glyph-name="estimated" unicode="&#x212e;" horiz-adv-x="1229" 
 />
    <glyph glyph-name="oneeighth" unicode="&#x215b;" horiz-adv-x="1708" 
 />
    <glyph glyph-name="threeeighths" unicode="&#x215c;" horiz-adv-x="1708" 
 />
    <glyph glyph-name="fiveeighths" unicode="&#x215d;" horiz-adv-x="1708" 
 />
    <glyph glyph-name="seveneighths" unicode="&#x215e;" horiz-adv-x="1708" 
 />
    <glyph glyph-name="arrowleft" unicode="&#x2190;" horiz-adv-x="2048" 
 />
    <glyph glyph-name="arrowup" unicode="&#x2191;" horiz-adv-x="1024" 
 />
    <glyph glyph-name="arrowright" unicode="&#x2192;" horiz-adv-x="2048" 
 />
    <glyph glyph-name="arrowdown" unicode="&#x2193;" horiz-adv-x="1024" 
 />
    <glyph glyph-name="arrowboth" unicode="&#x2194;" horiz-adv-x="2048" 
 />
    <glyph glyph-name="arrowupdn" unicode="&#x2195;" horiz-adv-x="1024" 
 />
    <glyph glyph-name="arrowupdnbse" unicode="&#x21a8;" horiz-adv-x="1024" 
 />
    <glyph glyph-name="orthogonal" unicode="&#x221f;" horiz-adv-x="2005" 
 />
    <glyph glyph-name="intersection" unicode="&#x2229;" horiz-adv-x="1472" 
 />
    <glyph glyph-name="equivalence" unicode="&#x2261;" horiz-adv-x="1195" 
 />
    <glyph glyph-name="house" unicode="&#x2302;" horiz-adv-x="1237" 
 />
    <glyph glyph-name="revlogicalnot" unicode="&#x2310;" horiz-adv-x="1196" 
 />
    <glyph glyph-name="integraltp" unicode="&#x2320;" horiz-adv-x="1237" 
 />
    <glyph glyph-name="integralbt" unicode="&#x2321;" horiz-adv-x="1237" 
 />
    <glyph glyph-name="SF100000" unicode="&#x2500;" horiz-adv-x="1451" 
 />
    <glyph glyph-name="SF110000" unicode="&#x2502;" horiz-adv-x="1280" 
 />
    <glyph glyph-name="SF010000" unicode="&#x250c;" horiz-adv-x="1451" 
 />
    <glyph glyph-name="SF030000" unicode="&#x2510;" horiz-adv-x="1451" 
 />
    <glyph glyph-name="SF020000" unicode="&#x2514;" horiz-adv-x="1451" 
 />
    <glyph glyph-name="SF040000" unicode="&#x2518;" horiz-adv-x="1451" 
 />
    <glyph glyph-name="SF080000" unicode="&#x251c;" horiz-adv-x="1451" 
 />
    <glyph glyph-name="SF090000" unicode="&#x2524;" horiz-adv-x="1451" 
 />
    <glyph glyph-name="SF060000" unicode="&#x252c;" horiz-adv-x="1451" 
 />
    <glyph glyph-name="SF070000" unicode="&#x2534;" horiz-adv-x="1451" 
 />
    <glyph glyph-name="SF050000" unicode="&#x253c;" horiz-adv-x="1451" 
 />
    <glyph glyph-name="SF430000" unicode="&#x2550;" horiz-adv-x="1451" 
 />
    <glyph glyph-name="SF240000" unicode="&#x2551;" horiz-adv-x="1451" 
 />
    <glyph glyph-name="SF510000" unicode="&#x2552;" horiz-adv-x="1451" 
 />
    <glyph glyph-name="SF520000" unicode="&#x2553;" horiz-adv-x="1451" 
 />
    <glyph glyph-name="SF390000" unicode="&#x2554;" horiz-adv-x="1451" 
 />
    <glyph glyph-name="SF220000" unicode="&#x2555;" horiz-adv-x="1451" 
 />
    <glyph glyph-name="SF210000" unicode="&#x2556;" horiz-adv-x="1451" 
 />
    <glyph glyph-name="SF250000" unicode="&#x2557;" horiz-adv-x="1451" 
 />
    <glyph glyph-name="SF500000" unicode="&#x2558;" horiz-adv-x="1451" 
 />
    <glyph glyph-name="SF490000" unicode="&#x2559;" horiz-adv-x="1451" 
 />
    <glyph glyph-name="SF380000" unicode="&#x255a;" horiz-adv-x="1451" 
 />
    <glyph glyph-name="SF280000" unicode="&#x255b;" horiz-adv-x="1451" 
 />
    <glyph glyph-name="SF270000" unicode="&#x255c;" horiz-adv-x="1451" 
 />
    <glyph glyph-name="SF260000" unicode="&#x255d;" horiz-adv-x="1451" 
 />
    <glyph glyph-name="SF360000" unicode="&#x255e;" horiz-adv-x="1451" 
 />
    <glyph glyph-name="SF370000" unicode="&#x255f;" horiz-adv-x="1451" 
 />
    <glyph glyph-name="SF420000" unicode="&#x2560;" horiz-adv-x="1451" 
 />
    <glyph glyph-name="SF190000" unicode="&#x2561;" horiz-adv-x="1451" 
 />
    <glyph glyph-name="SF200000" unicode="&#x2562;" horiz-adv-x="1451" 
 />
    <glyph glyph-name="SF230000" unicode="&#x2563;" horiz-adv-x="1451" 
 />
    <glyph glyph-name="SF470000" unicode="&#x2564;" horiz-adv-x="1451" 
 />
    <glyph glyph-name="SF480000" unicode="&#x2565;" horiz-adv-x="1451" 
 />
    <glyph glyph-name="SF410000" unicode="&#x2566;" horiz-adv-x="1451" 
 />
    <glyph glyph-name="SF450000" unicode="&#x2567;" horiz-adv-x="1451" 
 />
    <glyph glyph-name="SF460000" unicode="&#x2568;" horiz-adv-x="1451" 
 />
    <glyph glyph-name="SF400000" unicode="&#x2569;" horiz-adv-x="1451" 
 />
    <glyph glyph-name="SF540000" unicode="&#x256a;" horiz-adv-x="1451" 
 />
    <glyph glyph-name="SF530000" unicode="&#x256b;" horiz-adv-x="1451" 
 />
    <glyph glyph-name="SF440000" unicode="&#x256c;" horiz-adv-x="1451" 
 />
    <glyph glyph-name="upblock" unicode="&#x2580;" horiz-adv-x="1451" 
 />
    <glyph glyph-name="dnblock" unicode="&#x2584;" horiz-adv-x="1451" 
 />
    <glyph glyph-name="block" unicode="&#x2588;" horiz-adv-x="1451" 
 />
    <glyph glyph-name="lfblock" unicode="&#x258c;" horiz-adv-x="1451" 
 />
    <glyph glyph-name="rtblock" unicode="&#x2590;" horiz-adv-x="1451" 
 />
    <glyph glyph-name="ltshade" unicode="&#x2591;" horiz-adv-x="1451" 
 />
    <glyph glyph-name="shade" unicode="&#x2592;" horiz-adv-x="1451" 
 />
    <glyph glyph-name="dkshade" unicode="&#x2593;" horiz-adv-x="1493" 
 />
    <glyph glyph-name="filledbox" unicode="&#x25a0;" horiz-adv-x="1237" 
 />
    <glyph glyph-name="H22073" unicode="&#x25a1;" horiz-adv-x="1237" 
 />
    <glyph glyph-name="H18543" unicode="&#x25aa;" horiz-adv-x="726" 
 />
    <glyph glyph-name="H18551" unicode="&#x25ab;" horiz-adv-x="726" 
 />
    <glyph glyph-name="filledrect" unicode="&#x25ac;" horiz-adv-x="2048" 
 />
    <glyph glyph-name="triagup" unicode="&#x25b2;" horiz-adv-x="2027" 
 />
    <glyph glyph-name="triagrt" unicode="&#x25ba;" horiz-adv-x="2027" 
 />
    <glyph glyph-name="triagdn" unicode="&#x25bc;" horiz-adv-x="2027" 
 />
    <glyph glyph-name="triaglf" unicode="&#x25c4;" horiz-adv-x="2027" 
 />
    <glyph glyph-name="circle" unicode="&#x25cb;" horiz-adv-x="1237" 
 />
    <glyph glyph-name="H18533" unicode="&#x25cf;" horiz-adv-x="1237" 
 />
    <glyph glyph-name="invbullet" unicode="&#x25d8;" horiz-adv-x="1237" 
 />
    <glyph glyph-name="invcircle" unicode="&#x25d9;" horiz-adv-x="1237" 
 />
    <glyph glyph-name="openbullet" unicode="&#x25e6;" horiz-adv-x="726" 
 />
    <glyph glyph-name="smileface" unicode="&#x263a;" horiz-adv-x="2091" 
 />
    <glyph glyph-name="invsmileface" unicode="&#x263b;" horiz-adv-x="2155" 
 />
    <glyph glyph-name="sun" unicode="&#x263c;" horiz-adv-x="1877" 
 />
    <glyph glyph-name="female" unicode="&#x2640;" horiz-adv-x="1536" 
 />
    <glyph glyph-name="male" unicode="&#x2642;" horiz-adv-x="1536" 
 />
    <glyph glyph-name="spade" unicode="&#x2660;" horiz-adv-x="1088" 
 />
    <glyph glyph-name="club" unicode="&#x2663;" horiz-adv-x="1344" 
 />
    <glyph glyph-name="heart" unicode="&#x2665;" horiz-adv-x="1216" 
 />
    <glyph glyph-name="diamond" unicode="&#x2666;" horiz-adv-x="1045" 
 />
    <glyph glyph-name="musicalnote" unicode="&#x266a;" horiz-adv-x="1024" 
 />
    <glyph glyph-name="musicalnotedbl" unicode="&#x266b;" horiz-adv-x="1536" 
 />
    <glyph glyph-name="uniF004" unicode="&#xf004;" horiz-adv-x="682" 
 />
    <glyph glyph-name="uniF005" unicode="&#xf005;" horiz-adv-x="682" 
 />
  </font>
</defs>
</svg>
